<?xml version="1.0" standalone="no"?>
<!DOCTYPE svg PUBLIC "-//W3C//DTD SVG 1.1//EN" "http://www.w3.org/Graphics/SVG/1.1/DTD/svg11.dtd" >
<svg xmlns="http://www.w3.org/2000/svg" xmlns:xlink="http://www.w3.org/1999/xlink" version="1.1">
<metadata>
Created by FontForge 20170731 at Sat Jul 23 01:52:17 2022
 By Aleksey,,,
Copyright (c) 2015 by Reto Moser. All rights reserved.
</metadata>
<defs>
<font id="GTEestiProText-UltraLightItalic" horiz-adv-x="1228" >
  <font-face 
    font-family="GT Eesti Pro Text UltraLight"
    font-weight="250"
    font-style="italic"
    font-stretch="normal"
    units-per-em="2048"
    panose-1="0 0 3 0 0 0 0 0 0 0"
    ascent="1536"
    descent="-512"
    x-height="946"
    cap-height="1434"
    bbox="-614 -516 2484 1886"
    underline-thickness="102"
    underline-position="-307"
    slope="-11"
    unicode-range="U+0020-FB02"
  />
<missing-glyph horiz-adv-x="1609" 
d="M852 -31q-213 0 -384 96.5t-267.5 267.5t-96.5 384q0 214 96.5 385t267.5 266.5t384 95.5q160 0 299 -56t237.5 -154.5t154.5 -237.5t56 -299q0 -213 -95.5 -384t-266.5 -267.5t-385 -96.5zM852 20q199 0 359 91t250.5 253t90.5 363l-104 133l-143 -61l-140 184l-161 -90
l-152 242l-152 -242l-161 90l-140 -184l-143 61l-104 -133q0 -201 90.5 -363t250.5 -253t359 -91zM641 651q-31 0 -51.5 20.5t-20.5 51.5t20.5 51.5t51.5 20.5t51.5 -20.5t20.5 -51.5t-20.5 -51.5t-51.5 -20.5zM1061 651q-31 0 -51.5 20.5t-20.5 51.5t20.5 51.5t51.5 20.5
t51.5 -20.5t20.5 -51.5t-20.5 -51.5t-51.5 -20.5zM766 522l74 207q3 17 22 10q6 -2 9.5 -8.5t0.5 -13.5l-57 -160h70q7 0 12.5 -5.5t5.5 -12.5q0 -6 -5.5 -11.5t-12.5 -5.5h-119zM449 350q-61 0 -101.5 40t-40.5 102q0 61 40 101t102 40q61 0 101 -39.5t40 -101.5t-40 -102
t-101 -40zM1253 350q-61 0 -101 40t-40 102t40 101.5t101 39.5q62 0 102 -40t40 -101q0 -62 -40.5 -102t-101.5 -40zM852 395q-96 0 -127 -61q-6 -12 -18 -12q-17 0 -17 18q0 35 50 63.5t112 28.5t112 -28.5t50 -63.5q0 -18 -17 -18q-12 0 -18 12q-31 61 -127 61z" />
    <glyph glyph-name="fi" unicode="fi" horiz-adv-x="1058" 
d="M793 1452l-15 -74h-18q-121 0 -192 -67.5t-97 -208.5l-20 -109q-7 -30 -21 -53v-2q19 8 59 8h205l-12 -65h-205q-41 0 -55 8l-2 -2q6 -25 0 -53l-162 -834h-78l162 834q7 31 20 53l-2 2q-18 -8 -59 -8h-170l12 65h170q42 0 56 -8l4 2q-6 20 0 53l20 113q34 180 124 263
t251 83h25zM1087 1434l-51 -265h-90l51 265h90zM997 946l-184 -946h-78l185 946h77z" />
    <glyph glyph-name="fl" unicode="fl" horiz-adv-x="1079" 
d="M1108 1464l-285 -1464h-78l285 1464h78zM793 1452l-15 -74h-18q-121 0 -192 -67.5t-97 -208.5l-20 -109q-7 -30 -21 -53v-2q19 8 59 8h205l-12 -65h-205q-41 0 -55 8l-2 -2q6 -25 0 -53l-162 -834h-78l162 834q7 31 20 53l-2 2q-18 -8 -59 -8h-170l12 65h170q42 0 56 -8
l4 2q-6 20 0 53l20 113q34 180 124 263t251 83h25z" />
    <glyph glyph-name="f_f" unicode="ff" horiz-adv-x="1347" 
d="M793 1452l-15 -74h-18q-121 0 -192 -67.5t-97 -208.5l-20 -109q-7 -30 -21 -53v-2q19 8 59 8h205l-12 -65h-205q-41 0 -55 8l-2 -2q6 -25 0 -53l-162 -834h-78l162 834q7 31 20 53l-2 2q-18 -8 -59 -8h-170l12 65h170q42 0 56 -8l4 2q-6 20 0 53l20 113q34 180 124 263
t251 83h25zM1466 1452l-14 -74h-18q-121 0 -192 -67.5t-97 -208.5l-21 -109q-7 -33 -20 -53v-2q19 8 59 8h205l-12 -65h-205q-41 0 -55 8l-2 -2q6 -25 0 -53l-162 -834h-78l162 834q7 31 20 53l-2 2q-18 -8 -59 -8h-170l12 65h170q41 0 55 -8l5 2q-6 20 0 53l20 113
q34 180 124 263t251 83h24z" />
    <glyph glyph-name="f_f_i" unicode="ffi" horiz-adv-x="1732" 
d="M793 1452l-15 -74h-18q-121 0 -192 -67.5t-97 -208.5l-20 -109q-7 -30 -21 -53v-2q19 8 59 8h205l-12 -65h-205q-41 0 -55 8l-2 -2q6 -25 0 -53l-162 -834h-78l162 834q7 31 20 53l-2 2q-18 -8 -59 -8h-170l12 65h170q42 0 56 -8l4 2q-6 20 0 53l20 113q34 180 124 263
t251 83h25zM1466 1452l-14 -74h-18q-121 0 -192 -67.5t-97 -208.5l-21 -109q-7 -33 -20 -53v-2q19 8 59 8h205l-12 -65h-205q-41 0 -55 8l-2 -2q6 -25 0 -53l-162 -834h-78l162 834q7 31 20 53l-2 2q-18 -8 -59 -8h-170l12 65h170q41 0 55 -8l5 2q-6 20 0 53l20 113
q34 180 124 263t251 83h24zM1761 1434l-51 -265h-90l51 265h90zM1671 946l-184 -946h-78l184 946h78z" />
    <glyph glyph-name="f_f_l" unicode="ffl" horiz-adv-x="1753" 
d="M1782 1464l-285 -1464h-78l285 1464h78zM793 1452l-15 -74h-18q-121 0 -192 -67.5t-97 -208.5l-20 -109q-7 -30 -21 -53v-2q19 8 59 8h205l-12 -65h-205q-41 0 -55 8l-2 -2q6 -25 0 -53l-162 -834h-78l162 834q7 31 20 53l-2 2q-18 -8 -59 -8h-170l12 65h170q42 0 56 -8
l4 2q-6 20 0 53l20 113q34 180 124 263t251 83h25zM1466 1452l-14 -74h-18q-121 0 -192 -67.5t-97 -208.5l-21 -109q-7 -33 -20 -53v-2q19 8 59 8h205l-12 -65h-205q-41 0 -55 8l-2 -2q6 -25 0 -53l-162 -834h-78l162 834q7 31 20 53l-2 2q-18 -8 -59 -8h-170l12 65h170
q41 0 55 -8l5 2q-6 20 0 53l20 113q34 180 124 263t251 83h24z" />
    <glyph glyph-name=".notdef" horiz-adv-x="1609" 
d="M852 -31q-213 0 -384 96.5t-267.5 267.5t-96.5 384q0 214 96.5 385t267.5 266.5t384 95.5q160 0 299 -56t237.5 -154.5t154.5 -237.5t56 -299q0 -213 -95.5 -384t-266.5 -267.5t-385 -96.5zM852 20q199 0 359 91t250.5 253t90.5 363l-104 133l-143 -61l-140 184l-161 -90
l-152 242l-152 -242l-161 90l-140 -184l-143 61l-104 -133q0 -201 90.5 -363t250.5 -253t359 -91zM641 651q-31 0 -51.5 20.5t-20.5 51.5t20.5 51.5t51.5 20.5t51.5 -20.5t20.5 -51.5t-20.5 -51.5t-51.5 -20.5zM1061 651q-31 0 -51.5 20.5t-20.5 51.5t20.5 51.5t51.5 20.5
t51.5 -20.5t20.5 -51.5t-20.5 -51.5t-51.5 -20.5zM766 522l74 207q3 17 22 10q6 -2 9.5 -8.5t0.5 -13.5l-57 -160h70q7 0 12.5 -5.5t5.5 -12.5q0 -6 -5.5 -11.5t-12.5 -5.5h-119zM449 350q-61 0 -101.5 40t-40.5 102q0 61 40 101t102 40q61 0 101 -39.5t40 -101.5t-40 -102
t-101 -40zM1253 350q-61 0 -101 40t-40 102t40 101.5t101 39.5q62 0 102 -40t40 -101q0 -62 -40.5 -102t-101.5 -40zM852 395q-96 0 -127 -61q-6 -12 -18 -12q-17 0 -17 18q0 35 50 63.5t112 28.5t112 -28.5t50 -63.5q0 -18 -17 -18q-12 0 -18 12q-31 61 -127 61z" />
    <glyph glyph-name=".null" horiz-adv-x="0" 
 />
    <glyph glyph-name="nonmarkingreturn" horiz-adv-x="682" 
 />
    <glyph glyph-name="NULL" horiz-adv-x="40" 
 />
    <glyph glyph-name="NULL" horiz-adv-x="40" 
 />
    <glyph glyph-name="space" unicode=" " horiz-adv-x="655" 
 />
    <glyph glyph-name="exclam" unicode="!" horiz-adv-x="614" 
d="M532 1434l-217 -1031h-53l184 1031h86zM133 0l33 164h164l-33 -164h-164z" />
    <glyph glyph-name="quotedbl" unicode="&#x22;" horiz-adv-x="505" 
d="M406 1464l-127 -518h-37l73 518h91zM575 1464l-126 -518h-37l73 518h90z" />
    <glyph glyph-name="numbersign" unicode="#" 
d="M1249 946h-264l-156 -414h267l-13 -61h-278l-176 -471h-72l176 471h-327l-177 -471h-71l176 471h-262l12 61h274l156 414h-276l12 62h287l159 426h72l-160 -426h328l160 426h71l-159 -426h254zM758 532l155 414h-327l-156 -414h328z" />
    <glyph glyph-name="dollar" unicode="$" horiz-adv-x="1177" 
d="M440 -168l21 102q0 1 1.5 9.5t4.5 19t8 19.5l-2 2q-19 -4 -45 0q-102 18 -204 74.5t-171 123.5l56 64q91 -83 165 -122t168 -63q40 -10 45 -14l2 2q-5 14 0 37l123 635l-49 35q-109 78 -166 162t-57 186q0 134 95 221.5t267 87.5q35 0 46 -8l2 2q-2 9 2 31l22 112h62
l-23 -114q-6 -22 -12 -31l2 -2q9 5 28 0q92 -20 145 -41.5t154 -83.5l-53 -74q-78 53 -127 75t-127 44q-15 3 -30 12l-2 -2q0 -14 -5 -39l-102 -524l94 -68q53 -38 89 -71.5t70 -78.5t50.5 -100.5t16.5 -121.5q0 -173 -112.5 -267t-311.5 -94q-36 0 -56 8l-2 -2q4 -15 0 -38
l-20 -105h-62zM633 795l4 2q0 40 6 75l84 433q2 14 10 34l-2 2q-10 -4 -28 -4q-134 0 -209.5 -66t-75.5 -169q0 -45 15 -86t43 -75t55 -58t65 -52q28 -20 33 -36zM539 41q8 4 61 4q150 0 236 74.5t86 208.5q0 46 -12 87t-28.5 69.5t-47 60t-52.5 49.5t-61 47
q-18 13 -29.5 23t-15 14t-6.5 8t-6 6l-5 -2q2 -18 -4 -59l-104 -545q-2 -16 -14 -43z" />
    <glyph glyph-name="percent" unicode="%" horiz-adv-x="1521" 
d="M512 809q-122 0 -203.5 70t-81.5 200q0 149 104 257t259 108q121 0 202.5 -70t81.5 -200q0 -149 -103.5 -257t-258.5 -108zM254 0l995 1382h74l-995 -1382h-74zM516 879q123 0 204 89t81 203q0 98 -61.5 150.5t-153.5 52.5q-123 0 -204 -89.5t-81 -203.5q0 -98 61.5 -150
t153.5 -52zM1026 -10q-122 0 -203.5 70t-81.5 200q0 149 104 257t259 108q121 0 203 -70.5t82 -200.5q0 -149 -104 -256.5t-259 -107.5zM1030 59q123 0 204 89.5t81 203.5q0 98 -61.5 150.5t-153.5 52.5q-123 0 -204 -89.5t-81 -203.5q0 -98 61.5 -150.5t153.5 -52.5z" />
    <glyph glyph-name="ampersand" unicode="&#x26;" horiz-adv-x="1349" 
d="M1094 1382l34 -73l-2 -4h-534q-54 0 -98 16v-4l530 -1008h2q5 16 33 53q71 91 106.5 144.5t89.5 150.5l74 -30q-115 -201 -227 -336q-28 -33 -43 -39v-2l125 -244v-6h-86l-99 188h-2q-47 -84 -192 -150.5t-281 -66.5q-193 0 -311.5 112.5t-118.5 295.5t116 309.5
t343 192.5q54 14 70 14v2l-252 477l2 8h721zM651 842h-2q-23 -26 -47 -31q-204 -54 -312 -164t-108 -264q0 -152 96 -241t259 -89q98 0 188 37t190 119q33 26 52 29v2z" />
    <glyph glyph-name="quotesingle" unicode="'" horiz-adv-x="335" 
d="M406 1464l-127 -518h-37l73 518h91z" />
    <glyph glyph-name="parenleft" unicode="(" horiz-adv-x="647" 
d="M725 1550l61 -49q-297 -303 -426 -586t-129 -604q0 -405 181 -721l-68 -41q-192 336 -192 750q0 191 39.5 363t117 325.5t178 288t238.5 274.5z" />
    <glyph glyph-name="parenright" unicode=")" horiz-adv-x="647" 
d="M-47 -451l-62 50q297 304 426 586t129 603q0 407 -180 721l68 41q192 -336 192 -749q0 -191 -39.5 -363.5t-117 -326t-178.5 -288t-238 -274.5z" />
    <glyph glyph-name="asterisk" unicode="*" horiz-adv-x="851" 
d="M389 809l-57 43l200 250l-311 86l23 67l299 -112l-15 321h72l-14 -319l301 112l22 -67l-309 -86l201 -252l-58 -41l-176 268z" />
    <glyph glyph-name="plus" unicode="+" 
d="M672 1108v-469h469v-57h-469v-471h-62v471h-469v57h469v469h62z" />
    <glyph glyph-name="comma" unicode="," horiz-adv-x="421" 
d="M-66 -342l195 520h123l-264 -520h-54z" />
    <glyph glyph-name="hyphen" unicode="-" horiz-adv-x="720" 
d="M633 602l-17 -82h-495l16 82h496z" />
    <glyph glyph-name="period" unicode="." horiz-adv-x="409" 
d="M31 0l32 164h164l-32 -164h-164z" />
    <glyph glyph-name="slash" unicode="/" horiz-adv-x="1181" 
d="M-53 -152l-53 35l1320 1653l54 -35z" />
    <glyph glyph-name="zero" unicode="0" horiz-adv-x="1193" 
d="M541 -31q-197 0 -302.5 136t-105.5 389q0 259 76.5 468.5t215 330t312.5 120.5q197 0 302.5 -135.5t105.5 -388.5q0 -259 -76.5 -469t-215 -330.5t-312.5 -120.5zM539 45q148 0 269 113t189 307t68 426q0 213 -85.5 329.5t-240.5 116.5q-148 0 -269 -113t-189 -306.5
t-68 -425.5q0 -214 85.5 -330.5t240.5 -116.5z" />
    <glyph glyph-name="one" unicode="1" horiz-adv-x="671" 
d="M623 1382l-271 -1382h-78l193 989q13 70 22.5 101t30.5 77l-4 4q-22 -21 -92 -59l-219 -115l16 86l303 174l51 125h48z" />
    <glyph glyph-name="two" unicode="2" horiz-adv-x="1019" 
d="M662 1413q162 0 266 -79t104 -228q0 -121 -71 -232t-216 -239l-473 -420q-137 -121 -194 -154v-2q66 15 198 15h553v-4l-51 -70h-848v6l768 688q115 103 183.5 202t68.5 206q0 62 -25.5 109t-69 73.5t-94 39.5t-106.5 13q-99 0 -190 -34.5t-189 -92.5l-38 68
q229 135 424 135z" />
    <glyph glyph-name="three" unicode="3" horiz-adv-x="1042" 
d="M664 1413q161 0 250.5 -75t89.5 -210q0 -127 -81 -215t-223 -127q-52 -14 -104 -18l-2 -8q48 0 96 -10q111 -26 179.5 -109t68.5 -231q0 -199 -131 -320t-391 -121q-248 0 -430 113l43 70q96 -52 185 -79.5t196 -27.5q212 0 329 95.5t117 277.5q0 164 -110 235.5
t-349 71.5l15 76q107 0 198 20t161.5 58.5t110.5 102t40 144.5q0 111 -72 161t-191 50q-79 0 -151.5 -17.5t-114 -36t-102.5 -52.5l-37 65q194 117 410 117z" />
    <glyph glyph-name="four" unicode="4" horiz-adv-x="1120" 
d="M1055 1382l-189 -968q-2 -8 -5 -26t-5 -26v-2q12 2 35 2h147l-49 -73h-110q-25 0 -35 2l-2 -2q0 -5 -6 -41l-50 -248h-71l47 242q3 24 10 47l-2 2q-16 -2 -43 -2h-721l12 69l949 1024h88zM958 1276q-25 -32 -61 -72l-715 -762q-29 -36 -73 -77v-7q29 4 79 4h531
q45 0 65 -4l2 2q0 11 11 66l149 770q8 47 19 78z" />
    <glyph glyph-name="five" unicode="5" horiz-adv-x="1009" 
d="M1104 1382l-41 -73h-469q-39 0 -49 2l-4 -2q-7 -40 -35 -95l-152 -305q-32 -64 -57 -86l2 -4q97 45 203 45q83 0 153.5 -23t127.5 -69.5t89.5 -126t32.5 -184.5q0 -79 -18 -149.5t-58.5 -134t-100 -109.5t-148 -72.5t-197.5 -26.5q-241 0 -426 127l49 70
q173 -121 385 -121q98 0 175 27t124.5 69t78 99t42.5 112.5t12 114.5q0 90 -28.5 156t-78 101t-104 51t-116.5 16q-123 0 -293 -50l-6 9l309 632h598z" />
    <glyph glyph-name="six" unicode="6" horiz-adv-x="1142" 
d="M520 -31q-192 0 -321 105.5t-129 292.5q0 255 284 544l494 502h102l-309 -315l-309 -316l4 -4q143 121 309 121q85 0 160.5 -27.5t133 -79t91 -132t33.5 -179.5q0 -149 -73.5 -267t-197 -181.5t-272.5 -63.5zM520 45q197 0 329 120.5t132 315.5q0 90 -30 157.5
t-80.5 105.5t-108 57.5t-121.5 21.5q-128 5 -242 -52t-184 -161.5t-70 -228.5q0 -150 101.5 -243t273.5 -93z" />
    <glyph glyph-name="seven" unicode="7" horiz-adv-x="886" 
d="M1040 1382l2 -4l-915 -1378h-86l831 1253q19 29 46 60l-3 2q-21 -6 -81 -6h-631l37 73h800z" />
    <glyph glyph-name="eight" unicode="8" horiz-adv-x="1136" 
d="M522 -31q-205 0 -321.5 96.5t-116.5 266.5q0 163 106 273.5t285 133.5v4q-106 26 -160.5 96.5t-54.5 180.5q0 177 125.5 285t329.5 108q185 0 289 -85.5t104 -237.5q0 -275 -344 -361v-4q123 -19 186.5 -98t63.5 -213q0 -204 -133 -324.5t-359 -120.5zM631 774
q174 0 286.5 90t112.5 228q0 114 -84.5 179.5t-230.5 65.5q-167 0 -271 -88t-104 -229q0 -118 75.5 -182t215.5 -64zM526 45q189 0 298.5 98.5t109.5 268.5q0 284 -326 284q-197 0 -320.5 -101.5t-123.5 -264.5q0 -134 96 -209.5t266 -75.5z" />
    <glyph glyph-name="nine" unicode="9" horiz-adv-x="1089" 
d="M250 0l307 301l307 301l-6 4q-149 -121 -319 -121q-179 0 -286.5 117t-107.5 301q0 139 61.5 254t182 185.5t277.5 70.5q93 0 174 -25t146.5 -75t103.5 -133t38 -191q0 -122 -62.5 -237.5t-231.5 -278.5l-490 -473h-94zM573 561q125 0 234 55.5t175.5 156t66.5 222.5
q0 156 -105.5 249t-273.5 93q-200 0 -322.5 -127t-122.5 -307q0 -156 94 -249t254 -93z" />
    <glyph glyph-name="colon" unicode=":" horiz-adv-x="413" 
d="M182 782l33 164h164l-33 -164h-164zM35 0l33 164h163l-32 -164h-164z" />
    <glyph glyph-name="semicolon" unicode=";" horiz-adv-x="421" 
d="M190 782l33 164h164l-33 -164h-164zM-66 -342l195 520h123l-264 -520h-54z" />
    <glyph glyph-name="less" unicode="&#x3c;" 
d="M1044 1030v-67l-800 -351l800 -350v-67l-880 389v57z" />
    <glyph glyph-name="equal" unicode="=" 
d="M1159 809l-2 -57h-1036l2 57h1036zM1157 471v-57h-1036v57h1036z" />
    <glyph glyph-name="greater" unicode="&#x3e;" 
d="M238 1030l880 -389v-57l-880 -389v67l800 350l-800 351v67z" />
    <glyph glyph-name="question" unicode="?" horiz-adv-x="798" 
d="M580 1464q136 0 208 -58t72 -167q0 -86 -46.5 -152t-166.5 -151l-143 -100q-68 -47 -98.5 -93t-30.5 -100q0 -51 26.5 -89.5t108.5 -104.5l-57 -62q-94 75 -127 127.5t-33 126.5q0 147 151 252l144 98q110 75 149 125t39 115q0 75 -52 117.5t-144 42.5q-158 0 -332 -111
l-37 72q194 112 369 112zM254 0l33 164h164l-33 -164h-164z" />
    <glyph glyph-name="at" unicode="@" horiz-adv-x="2039" 
d="M928 -307q-178 0 -328 57t-255 159t-163.5 248.5t-58.5 321.5q0 201 72.5 374.5t200 296.5t308 193t388.5 70q230 0 406 -85t272 -241t96 -360q0 -161 -54 -297.5t-147.5 -215.5t-204.5 -79q-89 0 -139.5 45.5t-44.5 120.5h-6q-111 -195 -340 -195q-149 0 -238.5 80
t-89.5 215q0 149 100.5 239.5t266.5 90.5q124 0 210 -51.5t126 -149.5l6 2l14 82q16 93 16 123q0 103 -53 148t-176 45q-134 0 -313 -43l-15 67q184 45 328 45q154 0 225.5 -56.5t71.5 -176.5q0 -58 -16 -133l-52 -256q-6 -27 -6 -53q0 -60 32.5 -91.5t92.5 -31.5
q89 0 167 70.5t123.5 190.5t45.5 259q0 184 -88 326.5t-247.5 220.5t-366.5 78q-191 0 -358 -66t-285.5 -180.5t-187 -275.5t-68.5 -345q0 -324 202.5 -520.5t538.5 -196.5q226 0 440 93l23 -62q-241 -100 -471 -100zM932 178q137 0 236.5 77t99.5 183q0 95 -84.5 159.5
t-210.5 64.5q-129 0 -210 -74t-81 -191q0 -100 68 -159.5t182 -59.5z" />
    <glyph glyph-name="A" unicode="A" horiz-adv-x="1341" 
d="M-61 0l919 1464h10l351 -1464h-86l-119 487h-670l-305 -487h-100zM381 557q62 4 115 4h395q53 0 115 -4v2q-17 33 -37 119l-105 467q-25 115 -22 178h-2q-26 -71 -90 -178l-287 -467q-52 -84 -82 -119v-2z" />
    <glyph glyph-name="B" unicode="B" horiz-adv-x="1290" 
d="M82 0l278 1434h449q180 0 280.5 -82t100.5 -230q0 -116 -63 -200.5t-183 -128.5q-65 -26 -143 -33l-2 -8q74 -2 137 -19q215 -69 215 -303q0 -196 -149 -313t-398 -117h-522zM317 788q10 5 54 5h297q204 0 317 85.5t113 239.5q0 117 -76.5 177.5t-224.5 60.5h-316
q-41 0 -53 4l-2 -2q2 -12 -4 -49l-90 -469q-5 -27 -17 -49zM178 74q8 4 53 4h369q215 0 337 94.5t122 261.5q0 140 -92.5 212.5t-270.5 72.5h-340q-43 0 -51 4l-4 -2q4 -29 -2 -49l-106 -547q-5 -27 -17 -49z" />
    <glyph glyph-name="C" unicode="C" horiz-adv-x="1474" 
d="M791 -31q-305 0 -479.5 172.5t-174.5 474.5q0 182 65 339.5t179 269t274.5 175.5t345.5 64q282 0 494 -164l-53 -69q-205 149 -451 149q-215 0 -390.5 -99t-275.5 -273t-100 -387q0 -268 153 -418t427 -150q117 0 226.5 35.5t238.5 114.5l47 -72q-128 -85 -253 -123.5
t-273 -38.5z" />
    <glyph glyph-name="D" unicode="D" horiz-adv-x="1437" 
d="M82 0l278 1434h428q275 0 442 -166t167 -441q0 -179 -64.5 -333t-178 -262.5t-275 -170t-349.5 -61.5h-448zM178 74q8 4 53 4h293q224 0 403.5 95.5t280.5 265t101 380.5q0 247 -144.5 392t-390.5 145h-293q-41 0 -53 4l-2 -2q1 -4 -4 -49l-229 -1184q-6 -27 -17 -49z
" />
    <glyph glyph-name="E" unicode="E" horiz-adv-x="1048" 
d="M1143 1434l-15 -78h-647q-41 0 -53 4l-2 -2q3 -18 -4 -49l-82 -428q-7 -32 -16 -50l2 -2q15 5 53 5h584l-15 -78h-583q-42 0 -54 4l-2 -2q3 -18 -4 -49l-112 -584q-6 -27 -17 -49l2 -2q12 4 53 4h658l-15 -78h-792l278 1434h783z" />
    <glyph glyph-name="F" unicode="F" horiz-adv-x="1048" 
d="M1153 1434l-14 -78h-658q-41 0 -53 4l-2 -2q3 -18 -4 -49l-90 -471q-6 -29 -17 -50l2 -2q15 5 54 5h598l-15 -78h-598q-41 0 -53 4l-2 -2q3 -18 -4 -49l-129 -666h-86l278 1434h793z" />
    <glyph glyph-name="G" unicode="G" horiz-adv-x="1675" 
d="M825 -31q-318 0 -501 176.5t-183 483.5q0 246 107.5 436t303.5 294.5t449 104.5q154 0 282 -45t255 -145l-57 -70q-218 176 -486 176q-224 0 -398.5 -94.5t-271 -264.5t-96.5 -388q0 -272 158 -426t438 -154q276 0 473 166.5t244 439.5l-2 3q-50 -13 -143 -13h-496l14 78
h727l-6 -35q-60 -340 -275 -531.5t-536 -191.5z" />
    <glyph glyph-name="H" unicode="H" horiz-adv-x="1421" 
d="M1434 1434l-279 -1434h-86l133 684q8 35 17 49l-2 2q-14 -4 -56 -4h-803q-41 0 -51 4l-2 -2q0 -31 -4 -49l-133 -684h-86l278 1434h86l-112 -578q-8 -34 -15 -49v-2q14 4 56 4h803q41 0 51 -4l4 2q-4 23 2 49l113 578h86z" />
    <glyph glyph-name="I" unicode="I" horiz-adv-x="434" 
d="M446 1434l-278 -1434h-86l278 1434h86z" />
    <glyph glyph-name="J" unicode="J" horiz-adv-x="546" 
d="M559 1434l-229 -1182q-27 -142 -99 -202t-198 -60q-34 0 -74 4l16 82q36 -4 66 -4q85 0 135.5 45.5t71.5 152.5l225 1164h86z" />
    <glyph glyph-name="K" unicode="K" horiz-adv-x="1173" 
d="M1264 1434l-664 -531q-149 -120 -199 -149l-2 -2q18 -11 35 -27t28.5 -29.5t36.5 -44.5t44 -53l508 -598h-117l-627 754l-4 -2q-2 -64 -37 -244l-98 -508h-86l278 1434h86l-81 -420q-33 -168 -58 -244l2 -2l824 666h131z" />
    <glyph glyph-name="L" unicode="L" horiz-adv-x="1013" 
d="M446 1434l-253 -1309q-6 -27 -17 -49l2 -2q12 4 53 4h674l-14 -78h-809l278 1434h86z" />
    <glyph glyph-name="M" unicode="M" horiz-adv-x="1732" 
d="M764 -31l-172 1022q-19 115 -19 232h-6q-18 -85 -86 -234l-450 -989h-92l661 1464h6l178 -1102q17 -102 17 -198h8q40 108 90 198l610 1102h7l94 -1464h-92l-56 989q-7 161 4 234h-6q-5 -12 -17.5 -43t-21 -51t-27 -58t-42.5 -80l-580 -1022h-8z" />
    <glyph glyph-name="N" unicode="N" horiz-adv-x="1431" 
d="M379 1454l659 -1124q69 -115 82 -164l4 2q4 91 37 258l197 1008h86l-283 -1454h-18l-656 1126q-67 112 -81 164l-5 -2q-4 -97 -36 -258l-197 -1010h-86l283 1454h14z" />
    <glyph glyph-name="O" unicode="O" horiz-adv-x="1734" 
d="M852 -31q-324 0 -516.5 184.5t-192.5 495.5q0 173 63.5 324.5t173.5 259t265 169.5t332 62q324 0 516.5 -184.5t192.5 -495.5q0 -173 -63.5 -324.5t-173.5 -259t-265 -169.5t-332 -62zM852 53q159 0 297.5 56t236.5 153.5t154.5 235t56.5 295.5q0 263 -171 425t-449 162
q-159 0 -297.5 -55.5t-237 -153t-155 -235t-56.5 -295.5q0 -263 171.5 -425.5t449.5 -162.5z" />
    <glyph glyph-name="P" unicode="P" horiz-adv-x="1073" 
d="M776 1434q171 0 270 -91t99 -249q0 -186 -132 -300t-349 -114h-314q-41 0 -53 4l-2 -2q1 -4 -4 -49l-123 -633h-86l278 1434h416zM428 1360l-2 -2q1 -4 -4 -49l-98 -504q-5 -20 -15 -49l2 -2q8 4 54 4h301q180 0 285.5 90t105.5 242q0 126 -73.5 196t-205.5 70h-297
q-41 0 -53 4z" />
    <glyph glyph-name="Q" unicode="Q" horiz-adv-x="1730" 
d="M854 -6q-321 0 -515 183t-194 487q0 170 63.5 319t173.5 254.5t265 166t332 60.5q322 0 515.5 -181.5t193.5 -483.5q0 -286 -183 -492.5t-487 -263.5l-2 -4q23 3 71 9.5t72.5 9.5t61 7t66.5 5.5t59 1.5h204l-14 -78h-682zM856 78q155 0 293 56t236.5 152.5t156 231.5
t57.5 287q0 259 -170 417t-450 158q-211 0 -382 -93.5t-267.5 -258.5t-96.5 -369q0 -262 171 -421.5t452 -159.5z" />
    <glyph glyph-name="R" unicode="R" horiz-adv-x="1171" 
d="M780 1434q171 0 270 -85t99 -233q0 -186 -124.5 -294.5t-338.5 -108.5q-53 0 -74 8l-2 -2q41 -41 56 -72l372 -647h-96l-412 713h-174q-41 0 -53 4l-2 -2q1 -4 -4 -49l-129 -666h-86l278 1434h420zM428 1360l-2 -2q1 -4 -4 -49l-90 -471q-4 -24 -17 -50l2 -2q10 5 54 5
h323q167 0 267 86t100 231q0 118 -75 183t-210 65h-295q-41 0 -53 4z" />
    <glyph glyph-name="S" unicode="S" horiz-adv-x="1064" 
d="M524 -31q-304 0 -528 221l59 66q215 -203 473 -203q158 0 244 71.5t86 203.5q0 92 -46 166.5t-157 162.5l-149 119q-118 93 -170.5 180t-52.5 187q0 149 99 235t269 86q109 0 206.5 -35t215.5 -118l-57 -76q-180 145 -367 145q-129 0 -203.5 -64t-74.5 -173
q0 -153 180 -293l172 -133q118 -91 170.5 -182t52.5 -205q0 -172 -110.5 -266.5t-311.5 -94.5z" />
    <glyph glyph-name="T" unicode="T" horiz-adv-x="1040" 
d="M1206 1434l-14 -78h-408q-41 0 -53 4l-2 -2q4 -23 -2 -49l-254 -1309h-86l254 1309q8 38 14 49l-2 2q-12 -4 -53 -4h-407l14 78h999z" />
    <glyph glyph-name="U" unicode="U" horiz-adv-x="1374" 
d="M629 -31q-226 0 -350.5 115t-124.5 322q0 81 14 141l174 887h92l-174 -895q-14 -80 -14 -131q0 -167 101 -260t282 -93q206 0 336 123t176 361l174 895h92l-178 -916q-50 -267 -203.5 -408t-396.5 -141z" />
    <glyph glyph-name="V" unicode="V" horiz-adv-x="1216" 
d="M1382 1434l-866 -1465h-8l-301 1465h96l211 -1067q27 -139 25 -215h8q26 76 106 215l621 1067h108z" />
    <glyph glyph-name="W" unicode="W" horiz-adv-x="1904" 
d="M430 -31l-213 1465h92l131 -992q21 -164 21 -266h8q53 126 127 270l534 1018h13l143 -1013q21 -159 21 -271h8q57 143 123 266l520 988h102l-782 -1465h-8l-154 1086q-16 118 -10 190h-8q-22 -74 -84 -190l-576 -1086h-8z" />
    <glyph glyph-name="X" unicode="X" horiz-adv-x="1179" 
d="M1286 1434l-393 -455q-44 -51 -205 -227l-2 -4q33 -49 107 -205l264 -543h-103l-237 502q-68 142 -80 188h-4q-10 -17 -24 -36t-24.5 -31.5t-44 -52t-55.5 -64.5l-428 -506h-118l471 547q6 7 48 56.5t79.5 91t60.5 61.5l2 4q-22 33 -113 223l-219 451h103l198 -428
q11 -24 28.5 -61t25 -53t15 -37t11.5 -38h4q8 15 23.5 35t30.5 37.5t45 52t51 59.5l364 433h119z" />
    <glyph glyph-name="Y" unicode="Y" horiz-adv-x="1095" 
d="M1251 1434l-649 -891l-104 -543h-86l104 543l-299 891h98l213 -658q30 -90 35 -174h4q36 78 103 174l471 658h110z" />
    <glyph glyph-name="Z" unicode="Z" horiz-adv-x="1183" 
d="M1292 1434v-2l-1181 -1360v-4q43 14 200 14h756l-59 -82h-1059v4l1184 1364l-3 4q-66 -20 -204 -20h-629l59 82h936z" />
    <glyph glyph-name="bracketleft" unicode="[" horiz-adv-x="612" 
d="M797 1526l-15 -70h-233q-41 0 -53 4l-2 -2q4 -23 -2 -49l-338 -1733q-8 -35 -17 -49l2 -2q14 4 56 4h233l-14 -69h-357l383 1966h357z" />
    <glyph glyph-name="backslash" unicode="\" horiz-adv-x="1087" 
d="M868 -170l-600 1712l56 21l602 -1713z" />
    <glyph glyph-name="bracketright" unicode="]" horiz-adv-x="612" 
d="M-158 -440l15 69h233q41 0 53 -4l2 2q-4 23 2 49l338 1733q8 35 17 49l-2 2q-14 -4 -56 -4h-233l14 70h357l-383 -1966h-357z" />
    <glyph glyph-name="asciicircum" unicode="^" 
d="M727 1464l305 -659h-80l-274 600l-275 -600h-79l305 659h98z" />
    <glyph glyph-name="underscore" unicode="_" horiz-adv-x="1132" 
d="M-72 -102l15 71h1050l-14 -71h-1051z" />
    <glyph glyph-name="grave" unicode="`" horiz-adv-x="501" 
d="M403 1448l127 -303l-2 -12h-65l-172 305l2 10h110z" />
    <glyph glyph-name="a" unicode="a" horiz-adv-x="1069" 
d="M418 -31q-165 0 -265 88.5t-100 235.5q0 157 113 254.5t297 97.5q153 0 249 -68t126 -174l6 3q0 13 14 96q23 135 23 176q0 118 -63 172.5t-204 54.5q-148 0 -331 -47l-19 74q169 45 348 45q346 0 346 -277q0 -49 -14 -129l-110 -571h-78q20 96 49 178l-6 2
q-52 -100 -152.5 -155.5t-228.5 -55.5zM424 47q154 0 264.5 82t110.5 197q0 105 -95 173t-237 68q-149 0 -238.5 -75.5t-89.5 -198.5q0 -114 76.5 -180t208.5 -66z" />
    <glyph glyph-name="b" unicode="b" horiz-adv-x="1249" 
d="M610 -31q-345 0 -422 314l-6 -2q0 -141 -32 -281h-78l284 1464h78l-102 -524q-35 -174 -64 -240l6 -2q64 133 182.5 206t270.5 73q201 0 320.5 -121t119.5 -324q0 -246 -156.5 -404.5t-400.5 -158.5zM608 45q206 0 341.5 138t135.5 347q0 169 -100 270t-268 101
q-207 0 -350.5 -143t-143.5 -352q0 -169 102.5 -265t282.5 -96z" />
    <glyph glyph-name="c" unicode="c" horiz-adv-x="1021" 
d="M563 -31q-217 0 -347 128.5t-130 340.5q0 235 156 387t397 152q203 0 358 -125l-47 -64q-146 113 -313 113q-201 0 -335 -132.5t-134 -330.5q0 -174 110 -283.5t287 -109.5q141 0 287 92l41 -69q-159 -99 -330 -99z" />
    <glyph glyph-name="d" unicode="d" horiz-adv-x="1251" 
d="M522 -31q-201 0 -320.5 121t-119.5 324q0 246 155 404.5t396 158.5q178 0 286 -80.5t140 -237.5l6 3q3 114 35 284l102 518h78l-285 -1464h-77q40 191 61 244l-4 4q-64 -133 -182.5 -206t-270.5 -73zM532 45q209 0 351.5 143.5t142.5 352.5q0 169 -104 264.5t-287 95.5
q-203 0 -337 -138t-134 -347q0 -170 99.5 -270.5t268.5 -100.5z" />
    <glyph glyph-name="e" unicode="e" horiz-adv-x="1124" 
d="M516 -33q-207 0 -321.5 115t-114.5 324q0 246 161.5 408.5t405.5 162.5q190 0 301 -101.5t111 -275.5q0 -56 -19 -131h-796q-51 0 -72 8l-2 -2v-16q-6 -49 -6 -68q0 -161 96.5 -253.5t263.5 -92.5q113 0 207.5 44t194.5 144l57 -59q-111 -108 -222.5 -157.5t-244.5 -49.5
zM182 524q27 15 74 15h647q22 0 76 -13l2 2v70q0 141 -90.5 222t-247.5 81q-170 0 -307 -111.5t-156 -263.5z" />
    <glyph glyph-name="f" unicode="f" horiz-adv-x="673" 
d="M793 1452l-15 -74h-18q-121 0 -192 -67.5t-97 -208.5l-20 -109q-7 -30 -21 -53v-2q19 8 59 8h205l-12 -65h-205q-41 0 -55 8l-2 -2q6 -25 0 -53l-162 -834h-78l162 834q7 31 20 53l-2 2q-18 -8 -59 -8h-170l12 65h170q42 0 56 -8l4 2q-6 20 0 53l20 113q34 180 124 263
t251 83h25z" />
    <glyph glyph-name="g" unicode="g" horiz-adv-x="1230" 
d="M483 -440q-267 0 -467 157l52 64q111 -82 203.5 -115t213.5 -33q192 0 290.5 86.5t144.5 296.5q4 19 10 45.5t8.5 38t6.5 29t5.5 24.5t4.5 18l4.5 16.5t4 13.5t5 14t5.5 13t7 16l-4 4q-64 -133 -182.5 -206t-270.5 -73q-201 0 -320.5 121.5t-119.5 325.5
q0 246 155.5 403.5t397.5 157.5q174 0 281.5 -79t144.5 -234l6 2q0 148 33 280h78l-185 -946q-44 -231 -165.5 -335.5t-346.5 -104.5zM535 45q207 0 350 143.5t143 350.5q0 169 -104 265.5t-285 96.5q-204 0 -338.5 -137.5t-134.5 -347.5q0 -169 100 -270t269 -101z" />
    <glyph glyph-name="h" unicode="h" horiz-adv-x="1140" 
d="M434 1464l-112 -577q-31 -146 -66 -248l8 -4q72 177 178 259.5t260 82.5q155 0 235.5 -82t80.5 -242q0 -58 -17 -155l-96 -498h-78l99 502q14 52 14 137q0 128 -64.5 196t-185.5 68q-173 0 -295 -129t-166 -360l-79 -414h-78l284 1464h78z" />
    <glyph glyph-name="i" unicode="i" horiz-adv-x="385" 
d="M414 1434l-52 -265h-90l52 265h90zM324 946l-185 -946h-78l185 946h78z" />
    <glyph glyph-name="j" unicode="j" horiz-adv-x="385" 
d="M414 1434l-52 -265h-90l52 265h90zM324 946l-218 -1118q-28 -144 -100.5 -206t-212.5 -62h-18l14 75h23q87 0 141.5 44t75.5 149l217 1118h78z" />
    <glyph glyph-name="k" unicode="k" horiz-adv-x="890" 
d="M434 1464l-135 -696q-30 -151 -63 -238l4 -4l520 420h123l-449 -354q-83 -66 -125 -84l4 -2q37 -18 99 -90l366 -416h-108l-434 502l-7 -4q-4 -108 -30 -240l-49 -258h-78l284 1464h78z" />
    <glyph glyph-name="l" unicode="l" horiz-adv-x="405" 
d="M434 1464l-284 -1464h-78l284 1464h78z" />
    <glyph glyph-name="m" unicode="m" horiz-adv-x="1683" 
d="M61 0l185 946h78q-31 -167 -68 -266l6 -2q123 299 377 299q127 0 196.5 -74t71.5 -211h6q46 136 144.5 210.5t232.5 74.5q135 0 207 -74.5t72 -214.5q0 -67 -19 -164l-104 -524h-78l107 549q14 84 14 127q0 110 -55 167.5t-160 57.5q-146 0 -247 -105.5t-138 -297.5
l-96 -498h-78l102 522q17 97 17 152q0 227 -207 227q-151 0 -254 -116t-146 -334l-88 -451h-78z" />
    <glyph glyph-name="n" unicode="n" horiz-adv-x="1130" 
d="M61 0l185 946h78l-13 -59q-33 -154 -65 -248l8 -4q72 177 178 259.5t260 82.5q155 0 235.5 -82t80.5 -242q0 -58 -17 -155l-96 -498h-78l98 502q15 55 15 137q0 128 -64.5 196t-185.5 68q-173 0 -295 -129t-166 -360l-80 -414h-78z" />
    <glyph glyph-name="o" unicode="o" horiz-adv-x="1193" 
d="M543 -31q-215 0 -338 118.5t-123 324.5q0 157 74 286.5t205 204t290 74.5q215 0 338 -118t123 -324q0 -157 -74 -287t-205 -204.5t-290 -74.5zM551 43q132 0 243 66.5t175.5 181t64.5 250.5q0 166 -105.5 264t-285.5 98q-132 0 -243 -66t-175.5 -180.5t-64.5 -250.5
q0 -166 105.5 -264.5t285.5 -98.5z" />
    <glyph glyph-name="p" unicode="p" horiz-adv-x="1241" 
d="M-18 -410l264 1356h78q-39 -186 -62 -244l4 -4q64 133 182.5 206t270.5 73q201 0 320.5 -121t119.5 -324q0 -246 -155 -404.5t-394 -158.5q-175 0 -283.5 79.5t-146.5 234.5l-8 -2q3 -112 -31 -281l-82 -410h-77zM608 43q203 0 337 138.5t134 348.5q0 171 -100 272
t-270 101q-136 0 -249.5 -65t-179 -179.5t-65.5 -252.5q0 -169 104.5 -266t288.5 -97z" />
    <glyph glyph-name="q" unicode="q" 
d="M836 -410l82 416q34 174 61 238l-4 4q-64 -133 -182.5 -206t-270.5 -73q-201 0 -320.5 121t-119.5 324q0 246 156 404.5t399 158.5q347 0 424 -313l8 2q-3 111 31 280h78l-265 -1356h-77zM532 43q207 0 350.5 144t143.5 354q0 170 -102.5 266t-284.5 96
q-206 0 -341.5 -138t-135.5 -349q0 -171 100 -272t270 -101z" />
    <glyph glyph-name="r" unicode="r" horiz-adv-x="653" 
d="M61 0l185 946h78q-38 -205 -82 -336l8 -4q63 195 154.5 283t230.5 88q31 0 84 -6l-17 -82q-56 6 -84 6q-145 0 -254 -144t-155 -393l-70 -358h-78z" />
    <glyph glyph-name="s" unicode="s" horiz-adv-x="817" 
d="M43 201q89 -83 169 -119.5t175 -36.5q105 0 162 43t57 121q0 56 -31.5 101.5t-101.5 92.5l-113 76q-100 67 -141 127t-41 137q0 107 75 170.5t202 63.5q162 0 311 -105l-47 -69q-141 98 -266 98q-89 0 -141 -43.5t-52 -118.5q0 -54 30 -93.5t113 -96.5l111 -76
q98 -67 136 -124.5t38 -137.5q0 -117 -78.5 -179.5t-226.5 -62.5q-114 0 -207 39.5t-190 128.5z" />
    <glyph glyph-name="t" unicode="t" horiz-adv-x="616" 
d="M541 1452l-90 -459q-7 -30 -21 -53v-2q18 8 59 8h158l-12 -65h-158q-41 0 -55 8l-2 -2q6 -25 0 -53l-162 -834h-78l162 834q8 37 20 53l-2 2q-18 -8 -59 -8h-160l13 65h159q42 0 56 -8l4 2q-7 20 0 53l76 391l83 68h9z" />
    <glyph glyph-name="u" unicode="u" horiz-adv-x="1075" 
d="M1024 946l-184 -946h-78q45 212 76 299l-9 4q-69 -172 -168.5 -253t-240.5 -81q-155 0 -240.5 89.5t-79.5 244.5q2 52 15 125l102 518h82l-102 -512q-13 -71 -15 -121q-8 -129 54.5 -199.5t185.5 -70.5q166 0 283 128.5t161 360.5l80 414h78z" />
    <glyph glyph-name="v" unicode="v" horiz-adv-x="962" 
d="M381 -20l-258 966h86l158 -624q32 -122 34 -211h5q21 55 43.5 94.5t72.5 116.5l404 624h98l-635 -966h-8z" />
    <glyph glyph-name="w" unicode="w" horiz-adv-x="1490" 
d="M324 -20l-191 966h84l115 -635q19 -110 14 -188h4q29 79 94 188l387 656h9l133 -656q22 -114 20 -188h4q22 73 88 188l361 635h96l-569 -966h-6l-138 667q-12 58 -14.5 97t0.5 79h-4q-14 -49 -29 -82t-51 -94l-397 -667h-10z" />
    <glyph glyph-name="x" unicode="x" horiz-adv-x="913" 
d="M948 946l-368 -379q-2 -2 -11.5 -12.5t-17.5 -18.5t-21 -19t-24 -19l-2 -6q11 -14 41 -64l256 -428h-90l-215 360q-25 45 -37 91h-4q-27 -42 -76 -91l-348 -360h-103l424 436q56 56 66 64l2 6q-22 22 -49 69l-224 371h93l186 -319q24 -40 37 -90h4q29 45 74 90l309 319
h98z" />
    <glyph glyph-name="y" unicode="y" horiz-adv-x="950" 
d="M1012 946l-869 -1356h-88l312 482l-244 874h78l174 -627q23 -83 29.5 -121t5.5 -87l8 2q14 47 36 88t76 125l394 620h88z" />
    <glyph glyph-name="z" unicode="z" horiz-adv-x="919" 
d="M-57 0l-2 10l874 879l-2 4q-38 -13 -78.5 -17t-136.5 -4h-410l62 74h717l2 -8l-871 -879l2 -4q37 12 66.5 15.5t101.5 3.5h531l-68 -74h-788z" />
    <glyph glyph-name="braceleft" unicode="{" horiz-adv-x="745" 
d="M485 -440q-262 0 -262 233q0 58 10 107l76 387q8 54 8 71q0 79 -50.5 119.5t-164.5 44.5l17 82q138 6 206.5 62.5t90.5 173.5l67 346q34 176 127 258t256 82h41l-14 -76h-45q-119 0 -190 -62t-97 -198l-67 -354q-24 -124 -95.5 -190t-205.5 -79l-3 -8q107 -10 156 -56.5
t49 -131.5q0 -41 -8 -80l-76 -395q-8 -44 -8 -89q0 -89 44.5 -130.5t135.5 -41.5h58l-15 -75h-41z" />
    <glyph glyph-name="bar" unicode="|" horiz-adv-x="514" 
d="M45 -457l379 1946h61l-379 -1946h-61z" />
    <glyph glyph-name="braceright" unicode="}" horiz-adv-x="743" 
d="M287 1526q262 0 262 -234q0 -57 -10 -106l-76 -387q-8 -54 -8 -72q0 -79 50.5 -119.5t164.5 -44.5l-17 -82q-138 -6 -206.5 -62t-90.5 -173l-67 -346q-34 -176 -127 -258t-256 -82h-41l14 75h45q119 0 190 62.5t97 198.5l68 354q24 124 95.5 189.5t205.5 78.5l2 8
q-107 10 -156 57t-49 132q0 41 8 80l76 395q8 44 8 88q0 89 -44.5 130.5t-135.5 41.5h-58l15 76h41z" />
    <glyph glyph-name="asciitilde" unicode="~" 
d="M401 739q67 0 136 -24t117.5 -52.5t112.5 -52.5t122 -24q121 0 250 112l45 -65q-155 -125 -301 -125q-67 0 -136 24t-117.5 53t-112.5 53t-122 24q-120 0 -250 -113l-45 65q155 125 301 125z" />
    <glyph glyph-name="exclamdown" unicode="&#xa1;" horiz-adv-x="616" 
d="M498 1022l-33 -164h-164l33 164h164zM98 -412l217 1030h54l-185 -1030h-86z" />
    <glyph glyph-name="cent" unicode="&#xa2;" horiz-adv-x="1024" 
d="M424 -135l14 74q4 25 17 45l-2 2q-33 0 -60 8q-140 40 -222.5 162.5t-82.5 287.5q0 138 59.5 253t174.5 189.5t268 88.5q32 3 53 -2l2 2q-2 13 4 41l13 67h61l-12 -65q-5 -28 -13 -45l2 -2q16 6 45 -2q85 -20 136.5 -43t117.5 -74l-47 -64q-58 44 -108.5 68.5
t-114.5 36.5q-29 5 -45 12l-2 -2q2 -20 -6 -57l-139 -713q-13 -66 -25 -90l2 -2q16 4 53 4q142 0 287 92l41 -69q-156 -99 -330 -99q-42 0 -61 11l-2 -3q3 -23 -4 -51l-13 -61h-61zM463 49l2 2q0 34 12 90l139 707q9 41 17 57l-2 2q-33 -7 -64 -10q-174 -23 -285.5 -152
t-111.5 -307q0 -128 59.5 -221t161.5 -137q65 -25 72 -31z" />
    <glyph glyph-name="sterling" unicode="&#xa3;" horiz-adv-x="1214" 
d="M631 -29q-72 0 -172.5 40t-147.5 40q-28 0 -60.5 -9.5t-56 -20t-65.5 -31.5l-31 65q61 34 114.5 75.5t101 95t75 120t27.5 137.5q0 15 -1.5 32t-3.5 29.5t-6.5 31.5t-7 29t-10 31.5t-10 28.5t-11 32t-10.5 30h-211l13 61h125q34 0 59 -6l2 2q-13 18 -20 47
q-25 88 -25 162q0 85 27 159t80 133.5t141 93.5t201 34q222 0 380 -139l-51 -70q-129 135 -327 135q-92 0 -164.5 -29t-116 -78t-66 -109.5t-22.5 -127.5q0 -86 41 -207h491l-12 -61h-405q-42 0 -58 6l-2 -2q14 -25 21 -49q37 -117 37 -199q0 -43 -9 -83t-22 -71t-34 -61
t-39 -50.5t-44.5 -43t-42.5 -34t-40.5 -28t-31.5 -22.5v-6q67 33 123 33q49 0 133.5 -37t143.5 -37q139 0 291 145l47 -59q-169 -158 -338 -158z" />
    <glyph glyph-name="currency" unicode="&#xa4;" 
d="M1128 662q0 -190 -118 -320l116 -117l-43 -39l-114 117q-131 -115 -322 -115q-187 0 -321 115l-117 -117l-39 41l115 115q-119 132 -119 324q0 187 119 319l-113 115l41 41l115 -115q132 113 319 113q186 0 322 -113l116 115l41 -41l-116 -115q118 -130 118 -323z
M647 260q183 0 295.5 113.5t112.5 288.5q0 177 -112.5 291t-293.5 114q-183 0 -295 -113t-112 -288q0 -177 112 -291.5t293 -114.5z" />
    <glyph glyph-name="yen" unicode="&#xa5;" horiz-adv-x="1212" 
d="M477 0l94 483h-391l13 62h329q33 0 58 -8l2 4q-11 20 -25 57l-18 61h-324l12 62h234q36 0 63 -6l2 4q-16 28 -28 65l-183 598h80l189 -641q27 -94 32 -174h5q37 80 100 174l436 641h92l-422 -610q-30 -42 -49 -55l2 -2q20 6 68 6h235l-12 -62h-323l-56 -79
q-10 -14 -35 -37l2 -2q27 4 64 4h326l-13 -62h-391l-94 -483h-74z" />
    <glyph glyph-name="brokenbar" unicode="&#xa6;" horiz-adv-x="514" 
d="M268 694l156 795h61l-155 -795h-62zM268 371l-162 -828h-61l162 828h61z" />
    <glyph glyph-name="section" unicode="&#xa7;" horiz-adv-x="1087" 
d="M680 1389q-153 0 -233 -68t-80 -174q0 -54 21.5 -96t58 -70t83.5 -51t99 -42t104 -38.5t99 -45.5t83.5 -58.5t58 -81.5t21.5 -111q0 -122 -76 -197t-206 -120q127 -85 127 -242q0 -143 -100 -231.5t-291 -88.5q-108 0 -214.5 29.5t-185.5 81.5l45 70q178 -105 352 -105
q153 0 233.5 68t80.5 174q0 54 -21.5 96t-58 70t-83.5 51t-99 42t-104.5 38.5t-99.5 45.5t-83.5 58.5t-58 81.5t-21.5 111q0 122 76 197t207 120q-127 85 -127 242q0 143 100 231t291 88q108 0 214 -29t185 -81l-45 -70q-178 105 -352 105zM915 553q0 48 -20 86.5t-51 63
t-78 47.5t-90 38t-99.5 36t-95.5 40q-270 -92 -270 -278q0 -48 20 -86.5t51 -63.5t78 -48t90 -37.5t99.5 -36t95.5 -40.5q37 13 70.5 28t71.5 40t65 53.5t45 70t18 87.5z" />
    <glyph glyph-name="dieresis" unicode="&#xa8;" horiz-adv-x="626" 
d="M391 1434l-47 -246h-102l47 246h102zM711 1434l-47 -246h-103l47 246h103z" />
    <glyph glyph-name="copyright" unicode="&#xa9;" horiz-adv-x="1742" 
d="M920 1464q209 0 380.5 -95.5t271 -268t99.5 -387.5q0 -211 -99 -382t-271 -266.5t-383 -95.5q-156 0 -295 56.5t-239.5 155t-159 239t-58.5 301.5q0 211 99 381.5t271.5 266t383.5 95.5zM918 1403q-192 0 -349.5 -87.5t-248.5 -244t-91 -350.5q0 -199 92 -357.5
t249.5 -245.5t349.5 -87t349 87.5t248 244t91 350.5q0 199 -91.5 357.5t-249 245.5t-349.5 87zM922 1188q169 0 311 -101l-41 -59q-120 86 -272 86q-177 0 -285.5 -108t-108.5 -279q0 -178 108.5 -286.5t283.5 -108.5q159 0 274 86l45 -62q-146 -98 -317 -98
q-210 0 -340.5 131t-130.5 338q0 202 131 331.5t342 129.5z" />
    <glyph glyph-name="ordfeminine" unicode="&#xaa;" horiz-adv-x="778" 
d="M449 692q-110 0 -179 59t-69 154q0 105 72.5 168.5t193.5 63.5q86 0 150 -35.5t100 -100.5h8q0 30 16 111q7 40 7 59q0 63 -38.5 91t-123.5 28q-100 0 -230 -41l-16 70q154 41 248 41q229 0 229 -176q0 -32 -14 -109l-72 -362h-74q7 38 35 121l-4 2q-78 -144 -239 -144z
M457 760q92 0 161.5 51.5t69.5 120.5q0 60 -61.5 99.5t-153.5 39.5q-89 0 -140.5 -44.5t-51.5 -121.5q0 -64 49 -104.5t127 -40.5z" />
    <glyph glyph-name="guillemotleft" unicode="&#xab;" horiz-adv-x="737" 
d="M518 856l-2 -8l-229 -242q-84 -88 -110 -113.5t-46 -35.5v-8q3 -2 5.5 -4.5t6 -6.5t6 -7.5t7.5 -11t8.5 -14.5t10.5 -19.5t13.5 -23.5t16.5 -29.5t20 -35.5l127 -225l-2 -9h-67l-224 396l377 397h82zM770 856l-2 -8l-229 -242q-84 -88 -110 -113.5t-46 -35.5v-8
q3 -2 5.5 -4.5t6 -6.5t6 -7.5t7.5 -11t8.5 -14.5t10.5 -19.5t13.5 -23.5t16.5 -29.5t20 -35.5l127 -225l-2 -9h-67l-224 396l377 397h82z" />
    <glyph glyph-name="logicalnot" unicode="&#xac;" 
d="M174 885h936v-62v-481h-57v481h-879v62z" />
    <glyph glyph-name="uni00AD" unicode="&#xad;" horiz-adv-x="720" 
d="M633 602l-17 -82h-495l16 82h496z" />
    <glyph glyph-name="registered" unicode="&#xae;" horiz-adv-x="1177" 
d="M688 1464q208 0 342.5 -134t134.5 -345q0 -205 -133.5 -338t-343.5 -133t-342.5 133.5t-132.5 345.5q0 205 133.5 338t341.5 133zM690 1413q-185 0 -304.5 -117.5t-119.5 -302.5q0 -191 119 -309.5t303 -118.5q185 0 304.5 117.5t119.5 302.5q0 191 -119 309.5
t-303 118.5zM733 1270q70 0 116 -40t46 -110q0 -67 -48 -108t-122 -41l-2 -4q20 -11 53 -56l131 -166v-8h-63l-178 234h-66l-2 -234h-55v533h190zM729 1214h-129v-190h129q48 0 78.5 27t30.5 69q0 44 -31.5 69t-77.5 25z" />
    <glyph glyph-name="macron" unicode="&#xaf;" horiz-adv-x="761" 
d="M829 1350l-14 -70h-555l14 70h555z" />
    <glyph glyph-name="degree" unicode="&#xb0;" horiz-adv-x="739" 
d="M498 1413q121 0 201.5 -78.5t80.5 -201.5q0 -120 -80 -198.5t-200 -78.5q-121 0 -202 79t-81 202q0 120 79.5 198t201.5 78zM498 1356q-94 0 -156.5 -61.5t-62.5 -157.5q0 -99 62 -161.5t157 -62.5q96 0 158.5 62t62.5 158q0 99 -62.5 161t-158.5 62z" />
    <glyph glyph-name="plusminus" unicode="&#xb1;" 
d="M651 1069l2 -301h459l-2 -57h-459l2 -301h-61l-2 301h-459l2 57h459l-2 301h61zM1110 313v-57h-979v57h979z" />
    <glyph glyph-name="uni00B2" unicode="&#xb2;" horiz-adv-x="747" 
d="M100 713l-2 4l510 463q74 67 116 128t42 126q0 66 -45.5 103.5t-112.5 37.5q-114 0 -266 -107l-39 60q159 119 307 119q104 0 169 -56.5t65 -148.5q0 -80 -42.5 -150t-137.5 -157l-283 -256q-75 -68 -127 -101v-2q62 10 137 10h336v-2l-53 -71h-574z" />
    <glyph glyph-name="uni00B3" unicode="&#xb3;" horiz-adv-x="727" 
d="M393 692q-161 0 -284 72l38 70q61 -35 117.5 -52.5t130.5 -17.5q136 0 206.5 59.5t70.5 157.5q0 199 -299 199l14 69q138 0 229 52.5t91 148.5q0 48 -25.5 78t-58 39.5t-74.5 9.5q-112 0 -246 -70l-29 64q137 76 281 76q109 0 170 -48.5t61 -142.5q0 -89 -51.5 -139.5
t-144.5 -79.5q-20 -7 -66 -12v-4q26 0 62 -9q67 -16 114.5 -77t47.5 -154q0 -54 -19 -103.5t-58.5 -92t-111 -68t-166.5 -25.5z" />
    <glyph glyph-name="acute" unicode="&#xb4;" horiz-adv-x="501" 
d="M590 1448l-2 -10l-291 -305h-66l2 12l246 303h111z" />
    <glyph glyph-name="uni00B5" unicode="&#xb5;" horiz-adv-x="1075" 
d="M946 946h78l-184 -946h-78q45 212 76 299l-9 4q-69 -172 -168.5 -253t-240.5 -81q-97 0 -168.5 37t-110.5 105l-100 -521h-78l137 709v4q2 52 15 125l102 518h82l-82 -414h6l-41 -208v-11q-8 -129 54.5 -199.5t185.5 -70.5q166 0 283 128.5t161 360.5z" />
    <glyph glyph-name="paragraph" unicode="&#xb6;" horiz-adv-x="1167" 
d="M1251 1434l-14 -70h-113l-307 -1581h-74l308 1581h-301l-308 -1581h-73l166 852q-147 0 -237.5 97.5t-90.5 256.5q0 83 27 155t74 124.5t110.5 90t138 56.5t154.5 19h540z" />
    <glyph glyph-name="periodcentered" unicode="&#xb7;" horiz-adv-x="368" 
d="M162 782l33 164h163l-32 -164h-164z" />
    <glyph glyph-name="cedilla" unicode="&#xb8;" horiz-adv-x="466" 
d="M150 14l-62 -106q139 -29 139 -123q0 -34 -16.5 -64t-38.5 -51t-65.5 -44.5t-74.5 -37.5t-89 -37l-13 41q120 59 167.5 94.5t47.5 77.5q0 33 -32.5 51.5t-106.5 32.5l92 166h52z" />
    <glyph glyph-name="uni00B9" unicode="&#xb9;" horiz-adv-x="522" 
d="M340 713l123 628q8 42 35 117l-2 4q-21 -21 -62 -41l-141 -71l16 80l201 116l33 80h49l-176 -913h-76z" />
    <glyph glyph-name="ordmasculine" unicode="&#xba;" horiz-adv-x="897" 
d="M520 692q-140 0 -225.5 76t-85.5 217q0 160 105 267.5t278 107.5q140 0 225.5 -76t85.5 -217q0 -159 -106 -267t-277 -108zM518 762q131 0 221 85.5t90 215.5q0 107 -65.5 167t-169.5 60q-132 0 -221.5 -85t-89.5 -216q0 -107 65.5 -167t169.5 -60z" />
    <glyph glyph-name="guillemotright" unicode="&#xbb;" horiz-adv-x="735" 
d="M-39 63l2 9l230 241q117 123 137 138q9 7 18 12v8q-3 2 -5.5 4.5t-6 6.5t-6 7.5t-7.5 11t-8.5 14.5t-10.5 19.5t-13.5 23.5t-16.5 29.5t-20 35.5l-127 225l2 8h68l223 -395l-377 -398h-82zM213 63l2 9l229 241q86 91 111.5 115.5t44.5 34.5v8q-3 2 -5.5 4.5t-6 6.5
t-6 7.5t-7.5 11t-8.5 14.5t-10.5 19.5t-13.5 23.5t-16.5 29.5t-20 35.5l-127 225l2 8h68l223 -395l-377 -398h-82z" />
    <glyph glyph-name="onequarter" unicode="&#xbc;" horiz-adv-x="1372" 
d="M111 0l995 1382h74l-996 -1382h-73zM305 592l107 549q8 43 28 102l-2 2q-18 -21 -51 -35l-143 -61l12 65l195 99l28 69h43l-153 -790h-64zM1028 0l27 135q4 22 8 29h-2q-4 0 -12 -1t-13 -1h-399l10 55l533 574h67l-104 -539q-4 -18 -8 -27l2 -2q6 2 20 2h94l-37 -63h-69
q-4 0 -11 1t-10 1h-2q0 -17 -2 -25l-26 -139h-66zM721 221q32 4 67 4h252q23 0 33 -4l2 2q0 11 4 35l72 371q14 62 16 67l-2 2q-23 -31 -51 -61l-338 -356q-47 -51 -55 -58v-2z" />
    <glyph glyph-name="onehalf" unicode="&#xbd;" horiz-adv-x="1331" 
d="M111 0l995 1382h74l-996 -1382h-73zM305 592l107 549q8 43 28 102l-2 2q-18 -21 -51 -35l-143 -61l12 65l195 99l28 69h43l-153 -790h-64zM637 0l-2 4l426 402q66 62 99.5 114.5t33.5 106.5q0 59 -39 85.5t-98 26.5q-93 0 -217 -59l-27 61q132 68 248 68q93 0 151 -45.5
t58 -136.5q0 -66 -37 -125.5t-117 -136.5l-231 -220q-68 -65 -109 -86v-2q45 9 117 9h276v-3l-45 -63h-487z" />
    <glyph glyph-name="threequarters" unicode="&#xbe;" horiz-adv-x="1548" 
d="M377 573q-134 0 -244 54l33 65q111 -51 217 -51q118 0 180 49.5t62 138.5q0 86 -62.5 126t-202.5 40l13 62q83 0 145 16t101.5 54.5t39.5 95.5q0 112 -147 112q-99 0 -207 -45l-22 58q112 53 231 53q104 0 160.5 -47t56.5 -127q0 -86 -64.5 -135.5t-166.5 -57.5v-4
q88 0 143 -53t55 -146q0 -39 -10 -75t-33.5 -70t-59.5 -58.5t-92 -39.5t-126 -15zM287 0l995 1382h74l-996 -1382h-73zM1204 0l27 135q4 22 8 29h-2q-4 0 -12 -1t-13 -1h-399l10 55l533 574h67l-104 -539q-4 -18 -8 -27l2 -2q6 2 20 2h94l-36 -63h-70q-4 0 -11 1t-10 1h-2
q0 -17 -2 -25l-26 -139h-66zM897 221q32 4 68 4h252q22 0 32 -4l2 2q0 11 4 35l72 371q14 62 16 67l-2 2q-23 -31 -51 -61l-338 -356q-47 -51 -55 -58v-2z" />
    <glyph glyph-name="questiondown" unicode="&#xbf;" horiz-adv-x="737" 
d="M512 1024l-33 -164h-164l33 164h164zM186 -440q-136 0 -208 58t-72 167q0 86 46.5 152t166.5 151l143 100q68 47 98.5 93t30.5 100q0 51 -26.5 89.5t-108.5 104.5l57 62q94 -75 127 -127.5t33 -126.5q0 -147 -151 -252l-144 -98q-110 -75 -149 -125t-39 -115
q0 -75 52 -117.5t144 -42.5q158 0 332 111l37 -72q-194 -112 -369 -112z" />
    <glyph glyph-name="Agrave" unicode="&#xc0;" horiz-adv-x="1341" 
d="M766 1747l145 -219l-4 -6h-65l-191 219l4 6h111zM-61 0l919 1464h10l351 -1464h-86l-119 487h-670l-305 -487h-100zM381 557q62 4 115 4h395q53 0 115 -4v2q-17 33 -37 119l-105 467q-25 115 -22 178h-2q-26 -71 -90 -178l-287 -467q-52 -84 -82 -119v-2z" />
    <glyph glyph-name="Aacute" unicode="&#xc1;" horiz-adv-x="1341" 
d="M1190 1747v-6l-277 -219h-65v6l231 219h111zM-61 0l919 1464h10l351 -1464h-86l-119 487h-670l-305 -487h-100zM381 557q62 4 115 4h395q53 0 115 -4v2q-17 33 -37 119l-105 467q-25 115 -22 178h-2q-26 -71 -90 -178l-287 -467q-52 -84 -82 -119v-2z" />
    <glyph glyph-name="Acircumflex" unicode="&#xc2;" horiz-adv-x="1341" 
d="M575 1522l3 6l288 239h107l198 -239l-2 -6h-90l-84 102q-6 8 -18 22.5t-16.5 20t-11.5 15.5t-10.5 16.5t-7.5 15.5t-7 19h-4q-21 -30 -42.5 -50.5t-70.5 -58.5l-129 -102h-103zM-61 0l919 1464h10l351 -1464h-86l-119 487h-670l-305 -487h-100zM381 557q62 4 115 4h395
q53 0 115 -4v2q-17 33 -37 119l-105 467q-25 115 -22 178h-2q-26 -71 -90 -178l-287 -467q-52 -84 -82 -119v-2z" />
    <glyph glyph-name="Atilde" unicode="&#xc3;" horiz-adv-x="1341" 
d="M1073 1538q-40 0 -89.5 18.5t-87.5 40t-80.5 40t-70.5 18.5q-61 0 -116 -90l-51 20q1 2 16 27t22 35.5t25.5 32.5t34.5 32t41.5 19.5t52.5 9.5q51 0 115 -29.5t121.5 -58.5t91.5 -29q59 0 114 90l52 -20q-2 -3 -16 -27t-21.5 -35t-25.5 -32.5t-34 -32.5t-41.5 -20
t-52.5 -9zM-61 0l919 1464h10l351 -1464h-86l-119 487h-670l-305 -487h-100zM381 557q62 4 115 4h395q53 0 115 -4v2q-17 33 -37 119l-105 467q-25 115 -22 178h-2q-26 -71 -90 -178l-287 -467q-52 -84 -82 -119v-2z" />
    <glyph glyph-name="Adieresis" unicode="&#xc4;" horiz-adv-x="1341" 
d="M707 1747h102l-43 -225h-102zM1026 1747h102l-43 -225h-102zM-61 0l919 1464h10l351 -1464h-86l-119 487h-670l-305 -487h-100zM381 557q62 4 115 4h395q53 0 115 -4v2q-17 33 -37 119l-105 467q-25 115 -22 178h-2q-26 -71 -90 -178l-287 -467q-52 -84 -82 -119v-2z" />
    <glyph glyph-name="Aring" unicode="&#xc5;" horiz-adv-x="1341" 
d="M883 1407l336 -1407h-86l-119 487h-670l-305 -487h-100l884 1409q-84 10 -130 65.5t-46 137.5q0 117 77.5 195.5t199.5 78.5q101 0 157 -57t56 -148q0 -111 -70.5 -189t-183.5 -85zM709 1616q0 -71 40.5 -111.5t114.5 -40.5q92 0 151.5 61t59.5 152q0 71 -40.5 111.5
t-114.5 40.5q-92 0 -151.5 -61t-59.5 -152zM1006 557v2q-17 33 -37 119l-105 467q-25 115 -22 178h-2q-26 -71 -90 -178l-287 -467q-52 -84 -82 -119v-2q62 4 115 4h395q53 0 115 -4z" />
    <glyph glyph-name="AE" unicode="&#xc6;" horiz-adv-x="1802" 
d="M1354 1356q-42 0 -54 4l-2 -2q3 -18 -4 -49l-82 -428q-7 -32 -16 -50l2 -2q15 5 53 5h525l-15 -78h-524q-41 0 -53 4l-2 -2q3 -18 -4 -49l-113 -584q-7 -31 -16 -49l2 -2q12 4 53 4h590l-15 -78h-718l86 440q8 38 14 49v3q-17 -5 -55 -5h-531l-430 -487h-106l1261 1434
h748l-15 -78h-579zM1020 561q41 0 53 -4l2 2q-3 18 4 49l131 654q8 40 27 106h-4q-24 -37 -80 -98l-557 -645q-38 -47 -80 -70v-2q37 8 117 8h387z" />
    <glyph glyph-name="Ccedilla" unicode="&#xc7;" horiz-adv-x="1474" 
d="M991 1380q-215 0 -390.5 -99t-275.5 -273t-100 -387q0 -268 153 -418t427 -150q117 0 226.5 35.5t238.5 114.5l47 -72q-123 -80 -243 -119.5t-257 -42.5l-35 -61q140 -29 140 -123q0 -28 -9.5 -53t-32 -46.5t-43.5 -38t-60.5 -35.5t-65.5 -30t-74 -31l-12 41
q120 59 167.5 94.5t47.5 77.5q0 33 -32.5 51.5t-107.5 32.5l68 121q-295 8 -463 179.5t-168 467.5q0 182 65 339.5t179 269t274.5 175.5t345.5 64q282 0 494 -164l-53 -69q-205 149 -451 149z" />
    <glyph glyph-name="Egrave" unicode="&#xc8;" horiz-adv-x="1048" 
d="M696 1747l146 -219l-4 -6h-66l-190 219l4 6h110zM1143 1434l-15 -78h-647q-41 0 -53 4l-2 -2q3 -18 -4 -49l-82 -428q-7 -32 -16 -50l2 -2q15 5 53 5h584l-15 -78h-583q-42 0 -54 4l-2 -2q3 -18 -4 -49l-112 -584q-6 -27 -17 -49l2 -2q12 4 53 4h658l-15 -78h-792
l278 1434h783z" />
    <glyph glyph-name="Eacute" unicode="&#xc9;" horiz-adv-x="1048" 
d="M1120 1747v-6l-276 -219h-66v6l232 219h110zM1143 1434l-15 -78h-647q-41 0 -53 4l-2 -2q3 -18 -4 -49l-82 -428q-7 -32 -16 -50l2 -2q15 5 53 5h584l-15 -78h-583q-42 0 -54 4l-2 -2q3 -18 -4 -49l-112 -584q-6 -27 -17 -49l2 -2q12 4 53 4h658l-15 -78h-792l278 1434
h783z" />
    <glyph glyph-name="Ecircumflex" unicode="&#xca;" horiz-adv-x="1048" 
d="M506 1522l2 6l289 239h106l199 -239l-2 -6h-90l-84 102q-7 9 -21 26t-19 23.5t-12.5 17.5t-11.5 20.5t-8 21.5h-4q-21 -30 -42.5 -50.5t-70.5 -58.5l-129 -102h-102zM1143 1434l-15 -78h-647q-41 0 -53 4l-2 -2q3 -18 -4 -49l-82 -428q-7 -32 -16 -50l2 -2q15 5 53 5h584
l-15 -78h-583q-42 0 -54 4l-2 -2q3 -18 -4 -49l-112 -584q-6 -27 -17 -49l2 -2q12 4 53 4h658l-15 -78h-792l278 1434h783z" />
    <glyph glyph-name="Edieresis" unicode="&#xcb;" horiz-adv-x="1048" 
d="M637 1747h102l-43 -225h-102zM956 1747h103l-43 -225h-103zM1143 1434l-15 -78h-647q-41 0 -53 4l-2 -2q3 -18 -4 -49l-82 -428q-7 -32 -16 -50l2 -2q15 5 53 5h584l-15 -78h-583q-42 0 -54 4l-2 -2q3 -18 -4 -49l-112 -584q-6 -27 -17 -49l2 -2q12 4 53 4h658l-15 -78
h-792l278 1434h783z" />
    <glyph glyph-name="Igrave" unicode="&#xcc;" horiz-adv-x="434" 
d="M311 1747l146 -219l-4 -6h-66l-190 219l4 6h110zM446 1434l-278 -1434h-86l278 1434h86z" />
    <glyph glyph-name="Iacute" unicode="&#xcd;" horiz-adv-x="434" 
d="M735 1747v-6l-276 -219h-66v6l232 219h110zM446 1434l-278 -1434h-86l278 1434h86z" />
    <glyph glyph-name="Icircumflex" unicode="&#xce;" horiz-adv-x="434" 
d="M121 1522l2 6l289 239h106l199 -239l-2 -6h-90l-84 102q-7 9 -21 26t-19 23.5t-12.5 17.5t-11.5 20.5t-8 21.5h-4q-21 -30 -42.5 -50.5t-70.5 -58.5l-129 -102h-102zM446 1434l-278 -1434h-86l278 1434h86z" />
    <glyph glyph-name="Idieresis" unicode="&#xcf;" horiz-adv-x="434" 
d="M252 1747h102l-43 -225h-102zM571 1747h103l-43 -225h-103zM446 1434l-278 -1434h-86l278 1434h86z" />
    <glyph glyph-name="Eth" unicode="&#xd0;" horiz-adv-x="1511" 
d="M862 1434q280 0 444 -160.5t164 -452.5q0 -185 -69.5 -341t-187.5 -260t-275.5 -162t-333.5 -58h-448l125 639q3 27 14 49l-2 2q-12 -4 -53 -4h-197l14 78h197q41 0 53 -4l2 2q-3 18 4 49l15 76l106 547h428zM598 78q156 0 298 51.5t250 144t172 232.5t64 307
q0 259 -146.5 401t-387.5 142h-293q-41 0 -53 4l-2 -2q3 -18 -4 -49l-82 -422l-15 -76q-7 -31 -16 -49l2 -2q12 4 53 4h457l-14 -78h-457q-41 0 -53 4l-2 -2q2 -12 -2 -49l-101 -514q-6 -28 -16 -49l2 -2q12 4 53 4h293z" />
    <glyph glyph-name="Ntilde" unicode="&#xd1;" horiz-adv-x="1431" 
d="M1120 1538q-40 0 -89.5 18.5t-87.5 40t-80 40t-70 18.5q-62 0 -117 -90l-51 20q1 2 16 27t22 35.5t25.5 32.5t34.5 32t41.5 19.5t52.5 9.5q51 0 115 -29.5t121.5 -58.5t91.5 -29q60 0 115 90l51 -20q-2 -3 -16 -27t-21.5 -35t-25.5 -32.5t-34 -32.5t-41.5 -20t-52.5 -9z
M379 1454l659 -1124q69 -115 82 -164l4 2q4 91 37 258l197 1008h86l-283 -1454h-18l-656 1126q-67 112 -81 164l-5 -2q-4 -97 -36 -258l-197 -1010h-86l283 1454h14z" />
    <glyph glyph-name="Ograve" unicode="&#xd2;" horiz-adv-x="1734" 
d="M907 1747l146 -219l-4 -6h-66l-190 219l4 6h110zM852 -31q-324 0 -516.5 184.5t-192.5 495.5q0 173 63.5 324.5t173.5 259t265 169.5t332 62q324 0 516.5 -184.5t192.5 -495.5q0 -173 -63.5 -324.5t-173.5 -259t-265 -169.5t-332 -62zM852 53q159 0 297.5 56t236.5 153.5
t154.5 235t56.5 295.5q0 263 -171 425t-449 162q-159 0 -297.5 -55.5t-237 -153t-155 -235t-56.5 -295.5q0 -263 171.5 -425.5t449.5 -162.5z" />
    <glyph glyph-name="Oacute" unicode="&#xd3;" horiz-adv-x="1734" 
d="M1331 1747v-6l-276 -219h-66v6l232 219h110zM852 -31q-324 0 -516.5 184.5t-192.5 495.5q0 173 63.5 324.5t173.5 259t265 169.5t332 62q324 0 516.5 -184.5t192.5 -495.5q0 -173 -63.5 -324.5t-173.5 -259t-265 -169.5t-332 -62zM852 53q159 0 297.5 56t236.5 153.5
t154.5 235t56.5 295.5q0 263 -171 425t-449 162q-159 0 -297.5 -55.5t-237 -153t-155 -235t-56.5 -295.5q0 -263 171.5 -425.5t449.5 -162.5z" />
    <glyph glyph-name="Ocircumflex" unicode="&#xd4;" horiz-adv-x="1734" 
d="M717 1522l2 6l289 239h106l199 -239l-2 -6h-90l-84 102q-7 9 -21 26t-19 23.5t-12.5 17.5t-11.5 20.5t-8 21.5h-4q-21 -30 -42.5 -50.5t-70.5 -58.5l-129 -102h-102zM852 -31q-324 0 -516.5 184.5t-192.5 495.5q0 173 63.5 324.5t173.5 259t265 169.5t332 62
q324 0 516.5 -184.5t192.5 -495.5q0 -173 -63.5 -324.5t-173.5 -259t-265 -169.5t-332 -62zM852 53q159 0 297.5 56t236.5 153.5t154.5 235t56.5 295.5q0 263 -171 425t-449 162q-159 0 -297.5 -55.5t-237 -153t-155 -235t-56.5 -295.5q0 -263 171.5 -425.5t449.5 -162.5z
" />
    <glyph glyph-name="Otilde" unicode="&#xd5;" horiz-adv-x="1734" 
d="M1214 1538q-40 0 -89.5 18.5t-87.5 40t-80 40t-70 18.5q-62 0 -117 -90l-51 20q1 2 16 27t22 35.5t25.5 32.5t34.5 32t41.5 19.5t52.5 9.5q51 0 115 -29.5t121.5 -58.5t91.5 -29q60 0 115 90l51 -20q-2 -3 -16 -27t-21.5 -35t-25.5 -32.5t-34 -32.5t-41.5 -20t-52.5 -9z
M852 -31q-324 0 -516.5 184.5t-192.5 495.5q0 173 63.5 324.5t173.5 259t265 169.5t332 62q324 0 516.5 -184.5t192.5 -495.5q0 -173 -63.5 -324.5t-173.5 -259t-265 -169.5t-332 -62zM852 53q159 0 297.5 56t236.5 153.5t154.5 235t56.5 295.5q0 263 -171 425t-449 162
q-159 0 -297.5 -55.5t-237 -153t-155 -235t-56.5 -295.5q0 -263 171.5 -425.5t449.5 -162.5z" />
    <glyph glyph-name="Odieresis" unicode="&#xd6;" horiz-adv-x="1734" 
d="M848 1747h102l-43 -225h-102zM1167 1747h103l-43 -225h-103zM852 -31q-324 0 -516.5 184.5t-192.5 495.5q0 173 63.5 324.5t173.5 259t265 169.5t332 62q324 0 516.5 -184.5t192.5 -495.5q0 -173 -63.5 -324.5t-173.5 -259t-265 -169.5t-332 -62zM852 53q159 0 297.5 56
t236.5 153.5t154.5 235t56.5 295.5q0 263 -171 425t-449 162q-159 0 -297.5 -55.5t-237 -153t-155 -235t-56.5 -295.5q0 -263 171.5 -425.5t449.5 -162.5z" />
    <glyph glyph-name="multiply" unicode="&#xd7;" 
d="M1024 1038l45 -45l-385 -385l383 -383l-41 -41l-383 383l-385 -385l-45 45l385 385l-383 383l41 41l383 -383z" />
    <glyph glyph-name="Oslash" unicode="&#xd8;" horiz-adv-x="1734" 
d="M1491 1282q195 -186 195 -498q0 -173 -63.5 -324.5t-173.5 -259t-265 -169.5t-332 -62q-261 0 -438 123l-115 -127l-43 37l113 123q-109 90 -167.5 224.5t-58.5 299.5q0 173 63.5 324.5t173.5 259t265 169.5t332 62q284 0 471 -145l129 143l43 -37zM231 641
q0 -140 51 -254.5t146 -193.5l958 1058q-164 129 -409 129q-159 0 -297.5 -55.5t-237 -153t-155 -235t-56.5 -295.5zM852 53q159 0 297.5 56t236.5 153.5t154.5 235t56.5 295.5q0 260 -167 421l-955 -1054q153 -107 377 -107z" />
    <glyph glyph-name="Ugrave" unicode="&#xd9;" horiz-adv-x="1374" 
d="M782 1747l146 -219l-4 -6h-66l-190 219l4 6h110zM629 -31q-226 0 -350.5 115t-124.5 322q0 81 14 141l174 887h92l-174 -895q-14 -80 -14 -131q0 -167 101 -260t282 -93q206 0 336 123t176 361l174 895h92l-178 -916q-50 -267 -203.5 -408t-396.5 -141z" />
    <glyph glyph-name="Uacute" unicode="&#xda;" horiz-adv-x="1374" 
d="M1206 1747v-6l-276 -219h-66v6l232 219h110zM629 -31q-226 0 -350.5 115t-124.5 322q0 81 14 141l174 887h92l-174 -895q-14 -80 -14 -131q0 -167 101 -260t282 -93q206 0 336 123t176 361l174 895h92l-178 -916q-50 -267 -203.5 -408t-396.5 -141z" />
    <glyph glyph-name="Ucircumflex" unicode="&#xdb;" horiz-adv-x="1374" 
d="M592 1522l2 6l289 239h106l199 -239l-2 -6h-90l-84 102q-7 9 -21 26t-19 23.5t-12.5 17.5t-11.5 20.5t-8 21.5h-4q-21 -30 -42.5 -50.5t-70.5 -58.5l-129 -102h-102zM629 -31q-226 0 -350.5 115t-124.5 322q0 81 14 141l174 887h92l-174 -895q-14 -80 -14 -131
q0 -167 101 -260t282 -93q206 0 336 123t176 361l174 895h92l-178 -916q-50 -267 -203.5 -408t-396.5 -141z" />
    <glyph glyph-name="Udieresis" unicode="&#xdc;" horiz-adv-x="1374" 
d="M723 1747h102l-43 -225h-102zM1042 1747h103l-43 -225h-103zM629 -31q-226 0 -350.5 115t-124.5 322q0 81 14 141l174 887h92l-174 -895q-14 -80 -14 -131q0 -167 101 -260t282 -93q206 0 336 123t176 361l174 895h92l-178 -916q-50 -267 -203.5 -408t-396.5 -141z" />
    <glyph glyph-name="Yacute" unicode="&#xdd;" horiz-adv-x="1095" 
d="M1059 1747v-6l-277 -219h-65v6l231 219h111zM1251 1434l-649 -891l-104 -543h-86l104 543l-299 891h98l213 -658q30 -90 35 -174h4q36 78 103 174l471 658h110z" />
    <glyph glyph-name="Thorn" unicode="&#xde;" horiz-adv-x="1114" 
d="M82 0l278 1434h86l-53 -273q-8 -38 -14 -49v-2q14 4 55 4h281q174 0 271 -93t97 -247q0 -180 -129 -297t-352 -117h-315q-39 0 -51 5l-5 -3q4 -23 -2 -49l-61 -313h-86zM248 434q14 4 55 4h303q173 0 281 87t108 245q0 130 -75 198t-203 68h-299q-41 0 -51 4l-2 -2
q0 -26 -5 -49l-98 -504q-8 -38 -16 -49z" />
    <glyph glyph-name="germandbls" unicode="&#xdf;" horiz-adv-x="1116" 
d="M651 815q180 -7 274.5 -100t94.5 -262q0 -229 -157 -346t-464 -117h-143l14 69h138q262 0 398 100t136 294q0 167 -110.5 248t-337.5 81l12 66q196 0 315 90t119 238q0 100 -64 157.5t-176 57.5q-146 0 -227.5 -79.5t-116.5 -254.5l-258 -1323h-78l259 1327
q41 215 139 309t280 94q151 0 236.5 -73t85.5 -201q0 -155 -95 -250.5t-274 -118.5v-6z" />
    <glyph glyph-name="agrave" unicode="&#xe0;" horiz-adv-x="1069" 
d="M557 1448l127 -303l-2 -12h-66l-172 305l2 10h111zM418 -31q-165 0 -265 88.5t-100 235.5q0 157 113 254.5t297 97.5q153 0 249 -68t126 -174l6 3q0 13 14 96q23 135 23 176q0 118 -63 172.5t-204 54.5q-148 0 -331 -47l-19 74q169 45 348 45q346 0 346 -277
q0 -49 -14 -129l-110 -571h-78q20 96 49 178l-6 2q-52 -100 -152.5 -155.5t-228.5 -55.5zM424 47q154 0 264.5 82t110.5 197q0 105 -95 173t-237 68q-149 0 -238.5 -75.5t-89.5 -198.5q0 -114 76.5 -180t208.5 -66z" />
    <glyph glyph-name="aacute" unicode="&#xe1;" horiz-adv-x="1069" 
d="M999 1448l-2 -10l-290 -305h-66l2 12l246 303h110zM418 -31q-165 0 -265 88.5t-100 235.5q0 157 113 254.5t297 97.5q153 0 249 -68t126 -174l6 3q0 13 14 96q23 135 23 176q0 118 -63 172.5t-204 54.5q-148 0 -331 -47l-19 74q169 45 348 45q346 0 346 -277
q0 -49 -14 -129l-110 -571h-78q20 96 49 178l-6 2q-52 -100 -152.5 -155.5t-228.5 -55.5zM424 47q154 0 264.5 82t110.5 197q0 105 -95 173t-237 68q-149 0 -238.5 -75.5t-89.5 -198.5q0 -114 76.5 -180t208.5 -66z" />
    <glyph glyph-name="acircumflex" unicode="&#xe2;" horiz-adv-x="1069" 
d="M778 1448l185 -309l-2 -6h-84l-107 174q-34 54 -43 100h-4q-28 -46 -82 -100l-174 -174h-96l2 6l303 309h102zM418 -31q-165 0 -265 88.5t-100 235.5q0 157 113 254.5t297 97.5q153 0 249 -68t126 -174l6 3q0 13 14 96q23 135 23 176q0 118 -63 172.5t-204 54.5
q-148 0 -331 -47l-19 74q169 45 348 45q346 0 346 -277q0 -49 -14 -129l-110 -571h-78q20 96 49 178l-6 2q-52 -100 -152.5 -155.5t-228.5 -55.5zM424 47q154 0 264.5 82t110.5 197q0 105 -95 173t-237 68q-149 0 -238.5 -75.5t-89.5 -198.5q0 -114 76.5 -180t208.5 -66z
" />
    <glyph glyph-name="atilde" unicode="&#xe3;" horiz-adv-x="1069" 
d="M836 1208q-40 0 -89.5 18.5t-87.5 40t-80.5 40t-70.5 18.5q-62 0 -117 -90l-51 20q1 2 16 27t22 35.5t25.5 32.5t34.5 32t41.5 19.5t52.5 9.5q51 0 115 -29.5t121.5 -58.5t91.5 -29q60 0 115 90l51 -20q-2 -4 -15.5 -27t-21.5 -35t-25.5 -33t-34 -32t-41.5 -20t-52 -9z
M418 -31q-165 0 -265 88.5t-100 235.5q0 157 113 254.5t297 97.5q153 0 249 -68t126 -174l6 3q0 13 14 96q23 135 23 176q0 118 -63 172.5t-204 54.5q-148 0 -331 -47l-19 74q169 45 348 45q346 0 346 -277q0 -49 -14 -129l-110 -571h-78q20 96 49 178l-6 2
q-52 -100 -152.5 -155.5t-228.5 -55.5zM424 47q154 0 264.5 82t110.5 197q0 105 -95 173t-237 68q-149 0 -238.5 -75.5t-89.5 -198.5q0 -114 76.5 -180t208.5 -66z" />
    <glyph glyph-name="adieresis" unicode="&#xe4;" horiz-adv-x="1069" 
d="M614 1434l-47 -246h-102l47 246h102zM934 1434l-47 -246h-103l47 246h103zM418 -31q-165 0 -265 88.5t-100 235.5q0 157 113 254.5t297 97.5q153 0 249 -68t126 -174l6 3q0 13 14 96q23 135 23 176q0 118 -63 172.5t-204 54.5q-148 0 -331 -47l-19 74q169 45 348 45
q346 0 346 -277q0 -49 -14 -129l-110 -571h-78q20 96 49 178l-6 2q-52 -100 -152.5 -155.5t-228.5 -55.5zM424 47q154 0 264.5 82t110.5 197q0 105 -95 173t-237 68q-149 0 -238.5 -75.5t-89.5 -198.5q0 -114 76.5 -180t208.5 -66z" />
    <glyph glyph-name="aring" unicode="&#xe5;" horiz-adv-x="1069" 
d="M713 1530q104 0 163.5 -62t59.5 -159q0 -110 -73.5 -184t-188.5 -74q-106 0 -165.5 62t-59.5 159q0 110 73.5 184t190.5 74zM709 1473q-90 0 -144.5 -56t-54.5 -143q0 -77 44.5 -121.5t123.5 -44.5q88 0 142 56t54 143q0 77 -43.5 121.5t-121.5 44.5zM418 -31
q-165 0 -265 88.5t-100 235.5q0 157 113 254.5t297 97.5q153 0 249 -68t126 -174l6 3q0 13 14 96q23 135 23 176q0 118 -63 172.5t-204 54.5q-148 0 -331 -47l-19 74q169 45 348 45q346 0 346 -277q0 -49 -14 -129l-110 -571h-78q20 96 49 178l-6 2q-52 -100 -152.5 -155.5
t-228.5 -55.5zM424 47q154 0 264.5 82t110.5 197q0 105 -95 173t-237 68q-149 0 -238.5 -75.5t-89.5 -198.5q0 -114 76.5 -180t208.5 -66z" />
    <glyph glyph-name="ae" unicode="&#xe6;" horiz-adv-x="1863" 
d="M1276 -33q-163 0 -268 82.5t-129 239.5h-7q-101 -320 -454 -320q-157 0 -261 84.5t-104 237.5q0 150 108.5 252t299.5 102q156 0 251.5 -64t125.5 -163l6 2l14 82q25 137 25 184q0 109 -65 161t-195 52q-144 0 -340 -47l-19 78q190 47 359 47q52 0 95 -6t86.5 -23t73 -44
t49 -72.5t21.5 -106.5h4q67 118 182.5 185t260.5 67q98 0 175 -30t124.5 -82t71.5 -119.5t24 -145.5q0 -60 -18 -131h-756q-45 0 -72 8l-2 -2v-16q-6 -34 -6 -68q0 -160 93 -253t255 -93q84 0 158.5 28.5t122 65.5t102.5 94l57 -59q-43 -44 -82 -75.5t-94.5 -64.5t-124 -50
t-147.5 -17zM954 524q30 15 74 15h606q39 0 76 -13l2 2v70q0 138 -84.5 220.5t-236.5 82.5q-82 0 -153 -24.5t-120 -63.5t-85.5 -89.5t-55.5 -100t-25 -97.5zM422 47q92 0 177 32.5t142.5 97.5t57.5 147q0 110 -96.5 176.5t-241.5 66.5q-82 0 -146 -25t-101.5 -66t-56 -88.5
t-18.5 -98.5q0 -110 77.5 -176t205.5 -66z" />
    <glyph glyph-name="ccedilla" unicode="&#xe7;" horiz-adv-x="1021" 
d="M637 901q-201 0 -335 -132.5t-134 -330.5q0 -174 110 -283.5t287 -109.5q141 0 287 92l41 -69q-159 -99 -330 -99h-8l-35 -61q139 -29 139 -123q0 -34 -16.5 -64t-38.5 -51t-65.5 -44.5t-74.5 -37.5t-89 -37l-13 41q121 60 168.5 95t47.5 77q0 33 -32.5 51.5t-107.5 32.5
l68 123q-192 17 -306 143t-114 324q0 235 156 387t397 152q203 0 358 -125l-47 -64q-146 113 -313 113z" />
    <glyph glyph-name="egrave" unicode="&#xe8;" horiz-adv-x="1124" 
d="M596 1448l127 -303l-2 -12h-66l-172 305l2 10h111zM516 -33q-207 0 -321.5 115t-114.5 324q0 246 161.5 408.5t405.5 162.5q190 0 301 -101.5t111 -275.5q0 -56 -19 -131h-796q-51 0 -72 8l-2 -2v-16q-6 -49 -6 -68q0 -161 96.5 -253.5t263.5 -92.5q113 0 207.5 44
t194.5 144l57 -59q-111 -108 -222.5 -157.5t-244.5 -49.5zM182 524q27 15 74 15h647q22 0 76 -13l2 2v70q0 141 -90.5 222t-247.5 81q-170 0 -307 -111.5t-156 -263.5z" />
    <glyph glyph-name="eacute" unicode="&#xe9;" horiz-adv-x="1124" 
d="M1038 1448l-2 -10l-291 -305h-65l2 12l246 303h110zM516 -33q-207 0 -321.5 115t-114.5 324q0 246 161.5 408.5t405.5 162.5q190 0 301 -101.5t111 -275.5q0 -56 -19 -131h-796q-51 0 -72 8l-2 -2v-16q-6 -49 -6 -68q0 -161 96.5 -253.5t263.5 -92.5q113 0 207.5 44
t194.5 144l57 -59q-111 -108 -222.5 -157.5t-244.5 -49.5zM182 524q27 15 74 15h647q22 0 76 -13l2 2v70q0 141 -90.5 222t-247.5 81q-170 0 -307 -111.5t-156 -263.5z" />
    <glyph glyph-name="ecircumflex" unicode="&#xea;" horiz-adv-x="1124" 
d="M817 1448l184 -309l-2 -6h-84l-106 174q-34 54 -43 100h-4q-28 -46 -82 -100l-174 -174h-96l2 6l303 309h102zM516 -33q-207 0 -321.5 115t-114.5 324q0 246 161.5 408.5t405.5 162.5q190 0 301 -101.5t111 -275.5q0 -56 -19 -131h-796q-51 0 -72 8l-2 -2v-16
q-6 -49 -6 -68q0 -161 96.5 -253.5t263.5 -92.5q113 0 207.5 44t194.5 144l57 -59q-111 -108 -222.5 -157.5t-244.5 -49.5zM182 524q27 15 74 15h647q22 0 76 -13l2 2v70q0 141 -90.5 222t-247.5 81q-170 0 -307 -111.5t-156 -263.5z" />
    <glyph glyph-name="edieresis" unicode="&#xeb;" horiz-adv-x="1124" 
d="M653 1434l-47 -246h-102l47 246h102zM973 1434l-47 -246h-103l47 246h103zM516 -33q-207 0 -321.5 115t-114.5 324q0 246 161.5 408.5t405.5 162.5q190 0 301 -101.5t111 -275.5q0 -56 -19 -131h-796q-51 0 -72 8l-2 -2v-16q-6 -49 -6 -68q0 -161 96.5 -253.5
t263.5 -92.5q113 0 207.5 44t194.5 144l57 -59q-111 -108 -222.5 -157.5t-244.5 -49.5zM182 524q27 15 74 15h647q22 0 76 -13l2 2v70q0 141 -90.5 222t-247.5 81q-170 0 -307 -111.5t-156 -263.5z" />
    <glyph glyph-name="igrave" unicode="&#xec;" horiz-adv-x="385" 
d="M274 1448l66 -303l-2 -12h-68l-88 305l2 10h90zM324 946l-185 -946h-78l185 946h78z" />
    <glyph glyph-name="iacute" unicode="&#xed;" horiz-adv-x="385" 
d="M541 1448l-2 -10l-179 -305h-71l2 12l153 303h97zM324 946l-185 -946h-78l185 946h78z" />
    <glyph glyph-name="icircumflex" unicode="&#xee;" horiz-adv-x="385" 
d="M428 1448l98 -309l-2 -6h-73l-50 174q-16 64 -18 100h-4q-18 -46 -55 -100l-119 -174h-88l2 6l221 309h88zM324 946l-185 -946h-78l185 946h78z" />
    <glyph glyph-name="idieresis" unicode="&#xef;" horiz-adv-x="385" 
d="M332 1434l-47 -246h-103l47 246h103zM528 1434l-47 -246h-102l47 246h102zM324 946l-185 -946h-78l185 946h78z" />
    <glyph glyph-name="eth" unicode="&#xf0;" horiz-adv-x="1296" 
d="M934 1321q127 -84 188.5 -221.5t61.5 -345.5q0 -156 -33.5 -286.5t-91 -221.5t-136.5 -154t-169 -93t-189 -30q-214 0 -345.5 132.5t-131.5 342.5q0 144 61.5 264t184 194.5t284.5 74.5q220 0 347.5 -129t119.5 -330h11q20 188 20 262q0 341 -246 492l-227 -176l-37 45
l209 159q-131 64 -311 82l16 70q228 -32 359 -100l217 166l32 -48zM573 43q203 0 329 138.5t126 336.5q0 97 -32.5 172t-89 120.5t-128.5 69t-155 23.5q-108 0 -196.5 -39t-144 -104.5t-85 -147t-29.5 -170.5q0 -184 114.5 -291.5t290.5 -107.5z" />
    <glyph glyph-name="ntilde" unicode="&#xf1;" horiz-adv-x="1130" 
d="M856 1208q-40 0 -89.5 18.5t-87.5 40t-80.5 40t-70.5 18.5q-61 0 -116 -90l-52 20l16 27q15 26 22 35.5t26 32t35 32.5t41.5 19.5t52.5 9.5q51 0 115 -29.5t121.5 -58.5t91.5 -29q59 0 114 90l52 -20q-2 -3 -16 -27t-21.5 -35t-25.5 -32.5t-34 -32.5t-41.5 -20t-52.5 -9z
M61 0l185 946h78l-13 -59q-33 -154 -65 -248l8 -4q72 177 178 259.5t260 82.5q155 0 235.5 -82t80.5 -242q0 -58 -17 -155l-96 -498h-78l98 502q15 55 15 137q0 128 -64.5 196t-185.5 68q-173 0 -295 -129t-166 -360l-80 -414h-78z" />
    <glyph glyph-name="ograve" unicode="&#xf2;" horiz-adv-x="1193" 
d="M598 1448l127 -303l-2 -12h-66l-172 305l2 10h111zM543 -31q-215 0 -338 118.5t-123 324.5q0 157 74 286.5t205 204t290 74.5q215 0 338 -118t123 -324q0 -157 -74 -287t-205 -204.5t-290 -74.5zM551 43q132 0 243 66.5t175.5 181t64.5 250.5q0 166 -105.5 264t-285.5 98
q-132 0 -243 -66t-175.5 -180.5t-64.5 -250.5q0 -166 105.5 -264.5t285.5 -98.5z" />
    <glyph glyph-name="oacute" unicode="&#xf3;" horiz-adv-x="1193" 
d="M1040 1448l-2 -10l-290 -305h-66l2 12l246 303h110zM543 -31q-215 0 -338 118.5t-123 324.5q0 157 74 286.5t205 204t290 74.5q215 0 338 -118t123 -324q0 -157 -74 -287t-205 -204.5t-290 -74.5zM551 43q132 0 243 66.5t175.5 181t64.5 250.5q0 166 -105.5 264
t-285.5 98q-132 0 -243 -66t-175.5 -180.5t-64.5 -250.5q0 -166 105.5 -264.5t285.5 -98.5z" />
    <glyph glyph-name="ocircumflex" unicode="&#xf4;" horiz-adv-x="1193" 
d="M819 1448l185 -309l-3 -6h-83l-107 174q-34 54 -43 100h-4q-28 -46 -82 -100l-174 -174h-96l2 6l303 309h102zM543 -31q-215 0 -338 118.5t-123 324.5q0 157 74 286.5t205 204t290 74.5q215 0 338 -118t123 -324q0 -157 -74 -287t-205 -204.5t-290 -74.5zM551 43
q132 0 243 66.5t175.5 181t64.5 250.5q0 166 -105.5 264t-285.5 98q-132 0 -243 -66t-175.5 -180.5t-64.5 -250.5q0 -166 105.5 -264.5t285.5 -98.5z" />
    <glyph glyph-name="otilde" unicode="&#xf5;" horiz-adv-x="1193" 
d="M877 1208q-40 0 -89.5 18.5t-87.5 40t-80.5 40t-70.5 18.5q-62 0 -117 -90l-51 20q1 2 16 27t22 35.5t25.5 32.5t34.5 32t41.5 19.5t52.5 9.5q51 0 115 -29.5t121.5 -58.5t91.5 -29q60 0 115 90l51 -20q-2 -4 -15.5 -27t-21.5 -35t-25.5 -33t-34 -32t-41.5 -20t-52 -9z
M543 -31q-215 0 -338 118.5t-123 324.5q0 157 74 286.5t205 204t290 74.5q215 0 338 -118t123 -324q0 -157 -74 -287t-205 -204.5t-290 -74.5zM551 43q132 0 243 66.5t175.5 181t64.5 250.5q0 166 -105.5 264t-285.5 98q-132 0 -243 -66t-175.5 -180.5t-64.5 -250.5
q0 -166 105.5 -264.5t285.5 -98.5z" />
    <glyph glyph-name="odieresis" unicode="&#xf6;" horiz-adv-x="1193" 
d="M655 1434l-47 -246h-102l47 246h102zM975 1434l-47 -246h-103l47 246h103zM543 -31q-215 0 -338 118.5t-123 324.5q0 157 74 286.5t205 204t290 74.5q215 0 338 -118t123 -324q0 -157 -74 -287t-205 -204.5t-290 -74.5zM551 43q132 0 243 66.5t175.5 181t64.5 250.5
q0 166 -105.5 264t-285.5 98q-132 0 -243 -66t-175.5 -180.5t-64.5 -250.5q0 -166 105.5 -264.5t285.5 -98.5z" />
    <glyph glyph-name="divide" unicode="&#xf7;" 
d="M698 983v-143h-116v143h116zM1169 639v-57h-1058v57h1058zM698 381v-145h-116v145h116z" />
    <glyph glyph-name="oslash" unicode="&#xf8;" horiz-adv-x="1193" 
d="M1126 938l-112 -107q98 -115 98 -296q0 -157 -74 -287t-205 -204.5t-290 -74.5q-207 0 -326 107l-111 -105l-36 37l110 105q-98 118 -98 299q0 157 74 286.5t205 204t290 74.5q207 0 326 -107l113 107zM160 406q0 -143 80 -236l678 645q-109 88 -275 88q-132 0 -243 -66
t-175.5 -180.5t-64.5 -250.5zM1034 541q0 138 -78 235l-680 -645q109 -88 275 -88q132 0 243 66.5t175.5 181t64.5 250.5z" />
    <glyph glyph-name="ugrave" unicode="&#xf9;" horiz-adv-x="1075" 
d="M532 1448l127 -303l-2 -12h-65l-172 305l2 10h110zM1024 946l-184 -946h-78q45 212 76 299l-9 4q-69 -172 -168.5 -253t-240.5 -81q-155 0 -240.5 89.5t-79.5 244.5q2 52 15 125l102 518h82l-102 -512q-13 -71 -15 -121q-8 -129 54.5 -199.5t185.5 -70.5q166 0 283 128.5
t161 360.5l80 414h78z" />
    <glyph glyph-name="uacute" unicode="&#xfa;" horiz-adv-x="1075" 
d="M975 1448l-2 -10l-291 -305h-66l2 12l246 303h111zM1024 946l-184 -946h-78q45 212 76 299l-9 4q-69 -172 -168.5 -253t-240.5 -81q-155 0 -240.5 89.5t-79.5 244.5q2 52 15 125l102 518h82l-102 -512q-13 -71 -15 -121q-8 -129 54.5 -199.5t185.5 -70.5q166 0 283 128.5
t161 360.5l80 414h78z" />
    <glyph glyph-name="ucircumflex" unicode="&#xfb;" horiz-adv-x="1075" 
d="M754 1448l184 -309l-2 -6h-84l-107 174q-34 54 -43 100h-4q-28 -46 -82 -100l-174 -174h-96l2 6l303 309h103zM1024 946l-184 -946h-78q45 212 76 299l-9 4q-69 -172 -168.5 -253t-240.5 -81q-155 0 -240.5 89.5t-79.5 244.5q2 52 15 125l102 518h82l-102 -512
q-13 -71 -15 -121q-8 -129 54.5 -199.5t185.5 -70.5q166 0 283 128.5t161 360.5l80 414h78z" />
    <glyph glyph-name="udieresis" unicode="&#xfc;" horiz-adv-x="1075" 
d="M590 1434l-47 -246h-103l47 246h103zM909 1434l-47 -246h-102l47 246h102zM1024 946l-184 -946h-78q45 212 76 299l-9 4q-69 -172 -168.5 -253t-240.5 -81q-155 0 -240.5 89.5t-79.5 244.5q2 52 15 125l102 518h82l-102 -512q-13 -71 -15 -121q-8 -129 54.5 -199.5
t185.5 -70.5q166 0 283 128.5t161 360.5l80 414h78z" />
    <glyph glyph-name="yacute" unicode="&#xfd;" horiz-adv-x="950" 
d="M924 1448l-2 -10l-291 -305h-66l2 12l246 303h111zM1012 946l-869 -1356h-88l312 482l-244 874h78l174 -627q23 -83 29.5 -121t5.5 -87l8 2q14 47 36 88t76 125l394 620h88z" />
    <glyph glyph-name="thorn" unicode="&#xfe;" horiz-adv-x="1251" 
d="M-8 -410l362 1844h78l-98 -488q-36 -178 -62 -244l4 -4q67 138 187 208.5t266 70.5q195 0 317.5 -117.5t122.5 -327.5q0 -156 -66 -283.5t-192 -203.5t-290 -76q-354 0 -431 314l-8 -2q3 -115 -30 -281l-82 -410h-78zM618 43q144 0 253.5 70t164 179.5t54.5 237.5
q0 170 -100.5 271.5t-270.5 101.5q-139 0 -253 -67.5t-177.5 -181t-63.5 -248.5q0 -164 101 -263.5t292 -99.5z" />
    <glyph glyph-name="ydieresis" unicode="&#xff;" horiz-adv-x="950" 
d="M539 1434l-47 -246h-103l47 246h103zM858 1434l-47 -246h-102l47 246h102zM1012 946l-869 -1356h-88l312 482l-244 874h78l174 -627q23 -83 29.5 -121t5.5 -87l8 2q14 47 36 88t76 125l394 620h88z" />
    <glyph glyph-name="Amacron" unicode="&#x100;" horiz-adv-x="1341" 
d="M625 1665h555l-15 -70h-555zM-61 0l919 1464h10l351 -1464h-86l-119 487h-670l-305 -487h-100zM381 557q62 4 115 4h395q53 0 115 -4v2q-17 33 -37 119l-105 467q-25 115 -22 178h-2q-26 -71 -90 -178l-287 -467q-52 -84 -82 -119v-2z" />
    <glyph glyph-name="amacron" unicode="&#x101;" horiz-adv-x="1069" 
d="M985 1350l-14 -70h-555l14 70h555zM418 -31q-165 0 -265 88.5t-100 235.5q0 157 113 254.5t297 97.5q153 0 249 -68t126 -174l6 3q0 13 14 96q23 135 23 176q0 118 -63 172.5t-204 54.5q-148 0 -331 -47l-19 74q169 45 348 45q346 0 346 -277q0 -49 -14 -129l-110 -571
h-78q20 96 49 178l-6 2q-52 -100 -152.5 -155.5t-228.5 -55.5zM424 47q154 0 264.5 82t110.5 197q0 105 -95 173t-237 68q-149 0 -238.5 -75.5t-89.5 -198.5q0 -114 76.5 -180t208.5 -66z" />
    <glyph glyph-name="Abreve" unicode="&#x102;" horiz-adv-x="1341" 
d="M872 1522q-107 0 -170 48.5t-63 135.5q0 26 6 61h68q-4 -36 -4 -51q0 -60 43 -93.5t125 -33.5q100 0 164.5 46.5t88.5 131.5h72q-24 -114 -114 -179.5t-216 -65.5zM-61 0l919 1464h10l351 -1464h-86l-119 487h-670l-305 -487h-100zM381 557q62 4 115 4h395q53 0 115 -4v2
q-17 33 -37 119l-105 467q-25 115 -22 178h-2q-26 -71 -90 -178l-287 -467q-52 -84 -82 -119v-2z" />
    <glyph glyph-name="abreve" unicode="&#x103;" horiz-adv-x="1069" 
d="M672 1147q-111 0 -175.5 58.5t-64.5 162.5q0 32 6 66h70q-4 -36 -4 -54q0 -78 45 -120.5t129 -42.5q94 0 161 58t87 159h69q-24 -143 -111 -215t-212 -72zM418 -31q-165 0 -265 88.5t-100 235.5q0 157 113 254.5t297 97.5q153 0 249 -68t126 -174l6 3q0 13 14 96
q23 135 23 176q0 118 -63 172.5t-204 54.5q-148 0 -331 -47l-19 74q169 45 348 45q346 0 346 -277q0 -49 -14 -129l-110 -571h-78q20 96 49 178l-6 2q-52 -100 -152.5 -155.5t-228.5 -55.5zM424 47q154 0 264.5 82t110.5 197q0 105 -95 173t-237 68q-149 0 -238.5 -75.5
t-89.5 -198.5q0 -114 76.5 -180t208.5 -66z" />
    <glyph glyph-name="Aogonek" unicode="&#x104;" horiz-adv-x="1341" 
d="M897 -254q0 -59 88 -59q54 0 119 14l-10 -70q-68 -14 -125 -14q-75 0 -113.5 31t-38.5 88q0 77 73.5 150t229.5 163l-106 438h-670l-305 -487h-100l919 1464h10l351 -1464h-68q-134 -88 -194 -144.5t-60 -109.5zM1006 557v2q-17 33 -37 119l-105 467q-25 115 -22 178h-2
q-26 -71 -90 -178l-287 -467q-52 -84 -82 -119v-2q62 4 115 4h395q53 0 115 -4z" />
    <glyph glyph-name="aogonek" unicode="&#x105;" horiz-adv-x="1069" 
d="M612 977q346 0 346 -277q0 -49 -14 -129l-110 -571h-52q-134 -88 -194 -144.5t-60 -109.5q0 -59 88 -59q54 0 119 14l-10 -70q-68 -14 -125 -14q-75 0 -113 31t-38 88q0 79 75.5 153t237.5 166l6 -4q13 60 37 127l-6 2q-52 -100 -152.5 -155.5t-228.5 -55.5
q-165 0 -265 88.5t-100 235.5q0 157 113 254.5t297 97.5q153 0 249 -68t126 -174l6 3q0 13 14 96q23 135 23 176q0 118 -63 172.5t-204 54.5q-148 0 -331 -47l-19 74q169 45 348 45zM424 47q154 0 264.5 82t110.5 197q0 105 -95 173t-237 68q-149 0 -238.5 -75.5
t-89.5 -198.5q0 -114 76.5 -180t208.5 -66z" />
    <glyph glyph-name="Cacute" unicode="&#x106;" horiz-adv-x="1474" 
d="M1333 1747v-6l-276 -219h-66v6l232 219h110zM791 -31q-305 0 -479.5 172.5t-174.5 474.5q0 182 65 339.5t179 269t274.5 175.5t345.5 64q282 0 494 -164l-53 -69q-205 149 -451 149q-215 0 -390.5 -99t-275.5 -273t-100 -387q0 -268 153 -418t427 -150q117 0 226.5 35.5
t238.5 114.5l47 -72q-128 -85 -253 -123.5t-273 -38.5z" />
    <glyph glyph-name="cacute" unicode="&#x107;" horiz-adv-x="1021" 
d="M1006 1448l-2 -10l-291 -305h-66l2 12l246 303h111zM563 -31q-217 0 -347 128.5t-130 340.5q0 235 156 387t397 152q203 0 358 -125l-47 -64q-146 113 -313 113q-201 0 -335 -132.5t-134 -330.5q0 -174 110 -283.5t287 -109.5q141 0 287 92l41 -69q-159 -99 -330 -99z
" />
    <glyph glyph-name="Ccircumflex" unicode="&#x108;" horiz-adv-x="1474" 
d="M719 1522l2 6l289 239h106l199 -239l-2 -6h-90l-84 102q-7 9 -21 26t-19 23.5t-12.5 17.5t-11.5 20.5t-8 21.5h-4q-21 -30 -42.5 -50.5t-70.5 -58.5l-129 -102h-102zM791 -31q-305 0 -479.5 172.5t-174.5 474.5q0 182 65 339.5t179 269t274.5 175.5t345.5 64
q282 0 494 -164l-53 -69q-205 149 -451 149q-215 0 -390.5 -99t-275.5 -273t-100 -387q0 -268 153 -418t427 -150q117 0 226.5 35.5t238.5 114.5l47 -72q-128 -85 -253 -123.5t-273 -38.5z" />
    <glyph glyph-name="ccircumflex" unicode="&#x109;" horiz-adv-x="1021" 
d="M784 1448l185 -309l-2 -6h-84l-107 174q-34 54 -43 100h-4q-28 -46 -82 -100l-174 -174h-96l2 6l303 309h102zM563 -31q-217 0 -347 128.5t-130 340.5q0 235 156 387t397 152q203 0 358 -125l-47 -64q-146 113 -313 113q-201 0 -335 -132.5t-134 -330.5
q0 -174 110 -283.5t287 -109.5q141 0 287 92l41 -69q-159 -99 -330 -99z" />
    <glyph glyph-name="Cdotaccent" unicode="&#x10a;" horiz-adv-x="1474" 
d="M1106 1747l-43 -225h-90l43 225h90zM791 -31q-305 0 -479.5 172.5t-174.5 474.5q0 182 65 339.5t179 269t274.5 175.5t345.5 64q282 0 494 -164l-53 -69q-205 149 -451 149q-215 0 -390.5 -99t-275.5 -273t-100 -387q0 -268 153 -418t427 -150q117 0 226.5 35.5
t238.5 114.5l47 -72q-128 -85 -253 -123.5t-273 -38.5z" />
    <glyph glyph-name="cdotaccent" unicode="&#x10b;" horiz-adv-x="1021" 
d="M764 1434l-51 -265h-90l51 265h90zM563 -31q-217 0 -347 128.5t-130 340.5q0 235 156 387t397 152q203 0 358 -125l-47 -64q-146 113 -313 113q-201 0 -335 -132.5t-134 -330.5q0 -174 110 -283.5t287 -109.5q141 0 287 92l41 -69q-159 -99 -330 -99z" />
    <glyph glyph-name="Ccaron" unicode="&#x10c;" horiz-adv-x="1474" 
d="M1362 1767l-2 -6l-291 -239h-106l-197 239l2 6h88l88 -102q35 -39 48.5 -59.5t23.5 -49.5h4q17 26 36.5 45t62.5 53q9 7 14 11l127 102h102zM791 -31q-305 0 -479.5 172.5t-174.5 474.5q0 182 65 339.5t179 269t274.5 175.5t345.5 64q282 0 494 -164l-53 -69
q-205 149 -451 149q-215 0 -390.5 -99t-275.5 -273t-100 -387q0 -268 153 -418t427 -150q117 0 226.5 35.5t238.5 114.5l47 -72q-128 -85 -253 -123.5t-273 -38.5z" />
    <glyph glyph-name="ccaron" unicode="&#x10d;" horiz-adv-x="1021" 
d="M616 1112l-184 309l2 6h80l107 -174q34 -54 45 -100h4q16 29 31 46.5t51 53.5l170 174h102l-2 -6l-303 -309h-103zM563 -31q-217 0 -347 128.5t-130 340.5q0 235 156 387t397 152q203 0 358 -125l-47 -64q-146 113 -313 113q-201 0 -335 -132.5t-134 -330.5
q0 -174 110 -283.5t287 -109.5q141 0 287 92l41 -69q-159 -99 -330 -99z" />
    <glyph glyph-name="Dcaron" unicode="&#x10e;" horiz-adv-x="1437" 
d="M1147 1767l-2 -6l-291 -239h-106l-197 239l2 6h88l88 -102q35 -39 48.5 -59.5t23.5 -49.5h4q17 26 36.5 45t62.5 53q9 7 14 11l126 102h103zM82 0l278 1434h428q275 0 442 -166t167 -441q0 -179 -64.5 -333t-178 -262.5t-275 -170t-349.5 -61.5h-448zM178 74q8 4 53 4
h293q224 0 403.5 95.5t280.5 265t101 380.5q0 247 -144.5 392t-390.5 145h-293q-41 0 -53 4l-2 -2q1 -4 -4 -49l-229 -1184q-6 -27 -17 -49z" />
    <glyph glyph-name="dcaron" unicode="&#x10f;" horiz-adv-x="1398" 
d="M1491 1495h96l-201 -371h-40zM522 -31q-201 0 -320.5 121t-119.5 324q0 246 155 404.5t396 158.5q178 0 286 -80.5t140 -237.5l6 3q3 114 35 284l102 518h78l-285 -1464h-77q40 191 61 244l-4 4q-64 -133 -182.5 -206t-270.5 -73zM532 45q209 0 351.5 143.5t142.5 352.5
q0 169 -104 264.5t-287 95.5q-203 0 -337 -138t-134 -347q0 -170 99.5 -270.5t268.5 -100.5z" />
    <glyph glyph-name="Dcroat" unicode="&#x110;" horiz-adv-x="1406" 
d="M862 1434q280 0 444 -160.5t164 -452.5q0 -185 -69.5 -341t-187.5 -260t-275.5 -162t-333.5 -58h-448l125 639q3 27 14 49l-2 2q-12 -4 -53 -4h-197l14 78h197q41 0 53 -4l2 2q-3 18 4 49l15 76l106 547h428zM598 78q156 0 298 51.5t250 144t172 232.5t64 307
q0 259 -146.5 401t-387.5 142h-293q-41 0 -53 4l-2 -2q3 -18 -4 -49l-82 -422l-15 -76q-7 -31 -16 -49l2 -2q12 4 53 4h457l-14 -78h-457q-41 0 -53 4l-2 -2q2 -12 -2 -49l-101 -514q-6 -28 -16 -49l2 -2q12 4 53 4h293z" />
    <glyph glyph-name="dcroat" unicode="&#x111;" horiz-adv-x="1230" 
d="M1284 1247h86l-12 -61h-86q-34 0 -51 10l-4 -2q4 -11 -3 -57l-16 -82l-203 -1055h-77q37 183 61 244l-4 4q-67 -138 -187 -208.5t-266 -70.5q-195 0 -317.5 117.5t-122.5 327.5q0 116 39 219t109 179t174.5 120.5t228.5 44.5q352 0 428 -313l8 2q-3 108 31 280l20 109
l17 82q6 38 18 57v2q-23 -10 -55 -10h-324l12 61h324q31 0 51 -10l2 2q-5 13 2 57l33 168h78l-33 -168q-6 -38 -18 -57l2 -2q20 10 55 10zM532 45q211 0 352.5 145t141.5 351q0 162 -101 261t-290 99q-144 0 -253.5 -70t-163.5 -179t-54 -236q0 -170 99.5 -270.5
t268.5 -100.5z" />
    <glyph glyph-name="Emacron" unicode="&#x112;" horiz-adv-x="1048" 
d="M555 1665h555l-14 -70h-555zM1143 1434l-15 -78h-647q-41 0 -53 4l-2 -2q3 -18 -4 -49l-82 -428q-7 -32 -16 -50l2 -2q15 5 53 5h584l-15 -78h-583q-42 0 -54 4l-2 -2q3 -18 -4 -49l-112 -584q-6 -27 -17 -49l2 -2q12 4 53 4h658l-15 -78h-792l278 1434h783z" />
    <glyph glyph-name="emacron" unicode="&#x113;" horiz-adv-x="1124" 
d="M1024 1350l-14 -70h-555l14 70h555zM516 -33q-207 0 -321.5 115t-114.5 324q0 246 161.5 408.5t405.5 162.5q190 0 301 -101.5t111 -275.5q0 -56 -19 -131h-796q-51 0 -72 8l-2 -2v-16q-6 -49 -6 -68q0 -161 96.5 -253.5t263.5 -92.5q113 0 207.5 44t194.5 144l57 -59
q-111 -108 -222.5 -157.5t-244.5 -49.5zM182 524q27 15 74 15h647q22 0 76 -13l2 2v70q0 141 -90.5 222t-247.5 81q-170 0 -307 -111.5t-156 -263.5z" />
    <glyph glyph-name="Ebreve" unicode="&#x114;" horiz-adv-x="1048" 
d="M803 1522q-107 0 -170.5 48.5t-63.5 135.5q0 26 6 61h68q-4 -36 -4 -51q0 -60 43 -93.5t125 -33.5q100 0 165 47t89 131h72q-24 -114 -114 -179.5t-216 -65.5zM1143 1434l-15 -78h-647q-41 0 -53 4l-2 -2q3 -18 -4 -49l-82 -428q-7 -32 -16 -50l2 -2q15 5 53 5h584
l-15 -78h-583q-42 0 -54 4l-2 -2q3 -18 -4 -49l-112 -584q-6 -27 -17 -49l2 -2q12 4 53 4h658l-15 -78h-792l278 1434h783z" />
    <glyph glyph-name="ebreve" unicode="&#x115;" horiz-adv-x="1124" 
d="M711 1147q-111 0 -175.5 58.5t-64.5 162.5q0 32 6 66h70q-4 -36 -4 -54q0 -78 45 -120.5t129 -42.5q94 0 161 58t87 159h69q-24 -143 -111 -215t-212 -72zM516 -33q-207 0 -321.5 115t-114.5 324q0 246 161.5 408.5t405.5 162.5q190 0 301 -101.5t111 -275.5
q0 -56 -19 -131h-796q-51 0 -72 8l-2 -2v-16q-6 -49 -6 -68q0 -161 96.5 -253.5t263.5 -92.5q113 0 207.5 44t194.5 144l57 -59q-111 -108 -222.5 -157.5t-244.5 -49.5zM182 524q27 15 74 15h647q22 0 76 -13l2 2v70q0 141 -90.5 222t-247.5 81q-170 0 -307 -111.5
t-156 -263.5z" />
    <glyph glyph-name="Edotaccent" unicode="&#x116;" horiz-adv-x="1048" 
d="M893 1747l-43 -225h-90l43 225h90zM1143 1434l-15 -78h-647q-41 0 -53 4l-2 -2q3 -18 -4 -49l-82 -428q-7 -32 -16 -50l2 -2q15 5 53 5h584l-15 -78h-583q-42 0 -54 4l-2 -2q3 -18 -4 -49l-112 -584q-6 -27 -17 -49l2 -2q12 4 53 4h658l-15 -78h-792l278 1434h783z" />
    <glyph glyph-name="edotaccent" unicode="&#x117;" horiz-adv-x="1124" 
d="M797 1434l-52 -265h-90l52 265h90zM516 -33q-207 0 -321.5 115t-114.5 324q0 246 161.5 408.5t405.5 162.5q190 0 301 -101.5t111 -275.5q0 -56 -19 -131h-796q-51 0 -72 8l-2 -2v-16q-6 -49 -6 -68q0 -161 96.5 -253.5t263.5 -92.5q113 0 207.5 44t194.5 144l57 -59
q-111 -108 -222.5 -157.5t-244.5 -49.5zM182 524q27 15 74 15h647q22 0 76 -13l2 2v70q0 141 -90.5 222t-247.5 81q-170 0 -307 -111.5t-156 -263.5z" />
    <glyph glyph-name="Eogonek" unicode="&#x118;" horiz-adv-x="1048" 
d="M481 1356q-41 0 -53 4l-2 -2q3 -18 -4 -49l-82 -428q-7 -32 -16 -50l2 -2q15 5 53 5h584l-15 -78h-583q-42 0 -54 4l-2 -2q3 -18 -4 -49l-112 -584q-6 -27 -17 -49l2 -2q12 4 53 4h658l-15 -78h-45q-134 -88 -194 -144.5t-60 -109.5q0 -59 89 -59q53 0 118 14l-10 -70
q-68 -14 -125 -14q-75 0 -113 31t-38 88q0 66 54.5 129.5t166.5 134.5h-635l278 1434h783l-15 -78h-647z" />
    <glyph glyph-name="eogonek" unicode="&#x119;" horiz-adv-x="1124" 
d="M170 475v-16q-6 -49 -6 -68q0 -161 96.5 -253.5t263.5 -92.5q113 0 207.5 44t194.5 144l57 -59q-101 -101 -213 -154h2q-152 -99 -218.5 -158.5t-66.5 -115.5q0 -59 88 -59q54 0 119 14l-10 -70q-68 -14 -125 -14q-75 0 -113 31t-38 88q0 60 43 115.5t133 119.5
q-46 -4 -68 -4q-207 0 -321.5 115t-114.5 324q0 246 161.5 408.5t405.5 162.5q190 0 301 -101.5t111 -275.5q0 -56 -19 -131h-796q-51 0 -72 8zM643 901q-170 0 -307 -111.5t-156 -263.5l2 -2q27 15 74 15h647q22 0 76 -13l2 2v70q0 141 -90.5 222t-247.5 81z" />
    <glyph glyph-name="Ecaron" unicode="&#x11a;" horiz-adv-x="1048" 
d="M1149 1767l-2 -6l-291 -239h-106l-197 239l2 6h88l88 -102q35 -39 48.5 -59.5t23.5 -49.5h4q17 26 36.5 45t62.5 53q9 7 14 11l127 102h102zM1143 1434l-15 -78h-647q-41 0 -53 4l-2 -2q3 -18 -4 -49l-82 -428q-7 -32 -16 -50l2 -2q15 5 53 5h584l-15 -78h-583
q-42 0 -54 4l-2 -2q3 -18 -4 -49l-112 -584q-6 -27 -17 -49l2 -2q12 4 53 4h658l-15 -78h-792l278 1434h783z" />
    <glyph glyph-name="ecaron" unicode="&#x11b;" horiz-adv-x="1124" 
d="M649 1112l-184 309l2 6h80l106 -174q34 -54 45 -100h4q16 29 31 46.5t51 53.5l170 174h103l-2 -6l-303 -309h-103zM516 -33q-207 0 -321.5 115t-114.5 324q0 246 161.5 408.5t405.5 162.5q190 0 301 -101.5t111 -275.5q0 -56 -19 -131h-796q-51 0 -72 8l-2 -2v-16
q-6 -49 -6 -68q0 -161 96.5 -253.5t263.5 -92.5q113 0 207.5 44t194.5 144l57 -59q-111 -108 -222.5 -157.5t-244.5 -49.5zM182 524q27 15 74 15h647q22 0 76 -13l2 2v70q0 141 -90.5 222t-247.5 81q-170 0 -307 -111.5t-156 -263.5z" />
    <glyph glyph-name="Gcircumflex" unicode="&#x11c;" horiz-adv-x="1675" 
d="M739 1522l2 6l289 239h107l198 -239l-2 -6h-90l-84 102q-7 9 -21 26t-19 23.5t-12.5 17.5t-11.5 20.5t-8 21.5h-4q-34 -49 -112 -109l-129 -102h-103zM825 -31q-318 0 -501 176.5t-183 483.5q0 246 107.5 436t303.5 294.5t449 104.5q154 0 282 -45t255 -145l-57 -70
q-218 176 -486 176q-224 0 -398.5 -94.5t-271 -264.5t-96.5 -388q0 -272 158 -426t438 -154q276 0 473 166.5t244 439.5l-2 3q-50 -13 -143 -13h-496l14 78h727l-6 -35q-60 -340 -275 -531.5t-536 -191.5z" />
    <glyph glyph-name="gcircumflex" unicode="&#x11d;" horiz-adv-x="1230" 
d="M793 1448l184 -309l-2 -6h-84l-107 174q-34 54 -43 100h-4q-28 -46 -82 -100l-174 -174h-96l2 6l303 309h103zM483 -440q-267 0 -467 157l52 64q111 -82 203.5 -115t213.5 -33q192 0 290.5 86.5t144.5 296.5q4 19 10 45.5t8.5 38t6.5 29t5.5 24.5t4.5 18l4.5 16.5t4 13.5
t5 14t5.5 13t7 16l-4 4q-64 -133 -182.5 -206t-270.5 -73q-201 0 -320.5 121.5t-119.5 325.5q0 246 155.5 403.5t397.5 157.5q174 0 281.5 -79t144.5 -234l6 2q0 148 33 280h78l-185 -946q-44 -231 -165.5 -335.5t-346.5 -104.5zM535 45q207 0 350 143.5t143 350.5
q0 169 -104 265.5t-285 96.5q-204 0 -338.5 -137.5t-134.5 -347.5q0 -169 100 -270t269 -101z" />
    <glyph glyph-name="Gbreve" unicode="&#x11e;" horiz-adv-x="1675" 
d="M1036 1522q-107 0 -170 48.5t-63 135.5q0 26 6 61h68q-5 -45 -5 -51q0 -60 43 -93.5t125 -33.5q100 0 165 47t89 131h72q-24 -114 -114 -179.5t-216 -65.5zM825 -31q-318 0 -501 176.5t-183 483.5q0 246 107.5 436t303.5 294.5t449 104.5q154 0 282 -45t255 -145l-57 -70
q-218 176 -486 176q-224 0 -398.5 -94.5t-271 -264.5t-96.5 -388q0 -272 158 -426t438 -154q276 0 473 166.5t244 439.5l-2 3q-50 -13 -143 -13h-496l14 78h727l-6 -35q-60 -340 -275 -531.5t-536 -191.5z" />
    <glyph glyph-name="gbreve" unicode="&#x11f;" horiz-adv-x="1230" 
d="M686 1147q-111 0 -175.5 58.5t-64.5 162.5q0 26 7 66h69q-4 -36 -4 -54q0 -78 45 -120.5t129 -42.5q94 0 161 58t87 159h70q-24 -143 -111.5 -215t-212.5 -72zM483 -440q-267 0 -467 157l52 64q111 -82 203.5 -115t213.5 -33q192 0 290.5 86.5t144.5 296.5q4 19 10 45.5
t8.5 38t6.5 29t5.5 24.5t4.5 18l4.5 16.5t4 13.5t5 14t5.5 13t7 16l-4 4q-64 -133 -182.5 -206t-270.5 -73q-201 0 -320.5 121.5t-119.5 325.5q0 246 155.5 403.5t397.5 157.5q174 0 281.5 -79t144.5 -234l6 2q0 148 33 280h78l-185 -946q-44 -231 -165.5 -335.5
t-346.5 -104.5zM535 45q207 0 350 143.5t143 350.5q0 169 -104 265.5t-285 96.5q-204 0 -338.5 -137.5t-134.5 -347.5q0 -169 100 -270t269 -101z" />
    <glyph glyph-name="Gdotaccent" unicode="&#x120;" horiz-adv-x="1675" 
d="M1126 1747l-43 -225h-90l43 225h90zM825 -31q-318 0 -501 176.5t-183 483.5q0 246 107.5 436t303.5 294.5t449 104.5q154 0 282 -45t255 -145l-57 -70q-218 176 -486 176q-224 0 -398.5 -94.5t-271 -264.5t-96.5 -388q0 -272 158 -426t438 -154q276 0 473 166.5
t244 439.5l-2 3q-50 -13 -143 -13h-496l14 78h727l-6 -35q-60 -340 -275 -531.5t-536 -191.5z" />
    <glyph glyph-name="gdotaccent" unicode="&#x121;" horiz-adv-x="1230" 
d="M772 1434l-51 -265h-90l51 265h90zM483 -440q-267 0 -467 157l52 64q111 -82 203.5 -115t213.5 -33q192 0 290.5 86.5t144.5 296.5q4 19 10 45.5t8.5 38t6.5 29t5.5 24.5t4.5 18l4.5 16.5t4 13.5t5 14t5.5 13t7 16l-4 4q-64 -133 -182.5 -206t-270.5 -73
q-201 0 -320.5 121.5t-119.5 325.5q0 246 155.5 403.5t397.5 157.5q174 0 281.5 -79t144.5 -234l6 2q0 148 33 280h78l-185 -946q-44 -231 -165.5 -335.5t-346.5 -104.5zM535 45q207 0 350 143.5t143 350.5q0 169 -104 265.5t-285 96.5q-204 0 -338.5 -137.5t-134.5 -347.5
q0 -169 100 -270t269 -101z" />
    <glyph glyph-name="Gcommaaccent" unicode="&#x122;" horiz-adv-x="1675" 
d="M825 -31q-318 0 -501 176.5t-183 483.5q0 246 107.5 436t303.5 294.5t449 104.5q154 0 282 -45t255 -145l-57 -70q-218 176 -486 176q-224 0 -398.5 -94.5t-271 -264.5t-96.5 -388q0 -272 158 -426t438 -154q276 0 473 166.5t244 439.5l-2 3q-50 -13 -143 -13h-496l14 78
h727l-6 -35q-60 -340 -275 -531.5t-536 -191.5zM860 -104l-180 -336h-57l139 336h98z" />
    <glyph glyph-name="gcommaaccent" unicode="&#x123;" horiz-adv-x="1212" 
d="M729 1133h-98l196 315h58zM483 -440q-267 0 -467 157l52 64q111 -82 203.5 -115t213.5 -33q192 0 290.5 86.5t144.5 296.5q4 19 10 45.5t8.5 38t6.5 29t5.5 24.5t4.5 18l4.5 16.5t4 13.5t5 14t5.5 13t7 16l-4 4q-64 -133 -182.5 -206t-270.5 -73q-201 0 -320.5 121.5
t-119.5 325.5q0 246 155.5 403.5t397.5 157.5q174 0 281.5 -79t144.5 -234l6 2q0 148 33 280h78l-185 -946q-44 -231 -165.5 -335.5t-346.5 -104.5zM535 45q207 0 350 143.5t143 350.5q0 169 -104 265.5t-285 96.5q-204 0 -338.5 -137.5t-134.5 -347.5q0 -169 100 -270
t269 -101z" />
    <glyph glyph-name="Hcircumflex" unicode="&#x124;" horiz-adv-x="1392" 
d="M610 1522l2 6l289 239h107l198 -239l-2 -6h-90l-84 102q-7 9 -21 26t-19 23.5t-12.5 17.5t-11.5 20.5t-8 21.5h-4q-34 -49 -112 -109l-129 -102h-103zM1434 1434l-279 -1434h-86l133 684q8 35 17 49l-2 2q-14 -4 -56 -4h-803q-41 0 -51 4l-2 -2q0 -31 -4 -49l-133 -684
h-86l278 1434h86l-112 -578q-8 -34 -15 -49v-2q14 4 56 4h803q41 0 51 -4l4 2q-4 23 2 49l113 578h86z" />
    <glyph glyph-name="hcircumflex" unicode="&#x125;" horiz-adv-x="1140" 
d="M109 1522l2 6l288 239h107l199 -239l-3 -6h-90l-84 102q-6 8 -18 22.5t-16.5 20t-11.5 15.5t-10.5 16.5t-7.5 15.5t-7 19h-4q-21 -30 -42.5 -50.5t-70.5 -58.5l-129 -102h-102zM434 1464l-112 -577q-31 -146 -66 -248l8 -4q72 177 178 259.5t260 82.5q155 0 235.5 -82
t80.5 -242q0 -58 -17 -155l-96 -498h-78l99 502q14 52 14 137q0 128 -64.5 196t-185.5 68q-173 0 -295 -129t-166 -360l-79 -414h-78l284 1464h78z" />
    <glyph glyph-name="Hbar" unicode="&#x126;" horiz-adv-x="1492" 
d="M72 0l200 1028q8 34 15 49l-2 2q-12 -4 -54 -4h-94l15 72h94q41 0 51 -4l4 2q-4 23 2 49l47 240h86l-47 -240q-8 -38 -14 -49v-2q14 4 55 4h803q41 0 51 -4l4 2q-4 23 2 49l47 240h86l-47 -240q-8 -38 -14 -49v-2q14 4 55 4h94l-14 -72h-94q-41 0 -53 4l-2 -2
q4 -23 -2 -49l-201 -1028h-86l133 684q8 38 16 49l-2 2q-14 -4 -55 -4h-803q-41 0 -51 4l-2 -2q0 -31 -4 -49l-133 -684h-86zM309 805q14 4 56 4h802q42 0 52 -4l4 2q-4 23 2 49l35 172q8 38 14 49l-2 2q-12 -4 -53 -4h-803q-42 0 -54 4l-2 -2q3 -18 -4 -49l-32 -172
q-8 -34 -15 -49v-2z" />
    <glyph glyph-name="hbar" unicode="&#x127;" horiz-adv-x="1120" 
d="M682 977q155 0 235 -82t80 -242q0 -64 -16 -155l-96 -498h-78l98 502q15 55 15 137q0 128 -64.5 196t-185.5 68q-173 0 -295 -129t-166 -360l-80 -414h-78l185 946l36 191q6 36 19 57v2q-23 -10 -55 -10h-86l10 61h86q34 0 51 -10l4 2q-5 13 2 57l33 168h78l-33 -168
q-6 -36 -19 -57v-2q23 10 56 10h323l-10 -61h-323q-34 0 -52 10l-4 -2q5 -13 -2 -57l-37 -191l-12 -59q-33 -154 -65 -248l8 -4q72 177 178 259.5t260 82.5z" />
    <glyph glyph-name="Itilde" unicode="&#x128;" horiz-adv-x="434" 
d="M618 1538q-40 0 -89.5 18.5t-87.5 40t-80 40t-70 18.5q-62 0 -117 -90l-51 20q1 2 16 27t22 35.5t25.5 32.5t34.5 32t41.5 19.5t52.5 9.5q51 0 115 -29.5t121.5 -58.5t91.5 -29q60 0 115 90l51 -20q-2 -3 -16 -27t-21.5 -35t-25.5 -32.5t-34 -32.5t-41.5 -20t-52.5 -9z
M446 1434l-278 -1434h-86l278 1434h86z" />
    <glyph glyph-name="itilde" unicode="&#x129;" horiz-adv-x="385" 
d="M262 1411q36 0 69.5 -19.5t54.5 -43t46 -43t47 -19.5q42 0 94 84l43 -24q-16 -29 -27.5 -47t-32.5 -42t-47 -36.5t-56 -12.5q-36 0 -69.5 19.5t-54.5 43t-46 43t-47 19.5q-43 0 -95 -84l-43 25q15 28 27.5 46.5t33 42t47 36t56.5 12.5zM324 946l-185 -946h-78l185 946h78
z" />
    <glyph glyph-name="Imacron" unicode="&#x12a;" horiz-adv-x="434" 
d="M170 1665h555l-14 -70h-555zM446 1434l-278 -1434h-86l278 1434h86z" />
    <glyph glyph-name="imacron" unicode="&#x12b;" horiz-adv-x="385" 
d="M551 1331l-14 -65h-392l15 65h391zM324 946l-185 -946h-78l185 946h78z" />
    <glyph glyph-name="Ibreve" unicode="&#x12c;" horiz-adv-x="434" 
d="M418 1522q-107 0 -170.5 48.5t-63.5 135.5q0 26 6 61h68q-4 -36 -4 -51q0 -60 43 -93.5t125 -33.5q100 0 165 47t89 131h72q-24 -114 -114 -179.5t-216 -65.5zM446 1434l-278 -1434h-86l278 1434h86z" />
    <glyph glyph-name="ibreve" unicode="&#x12d;" horiz-adv-x="385" 
d="M334 1147q-83 0 -130.5 49t-47.5 150q0 44 8 88h69q-8 -44 -8 -86q0 -134 109 -134q71 0 106.5 53t53.5 167h71q-22 -151 -77.5 -219t-153.5 -68zM324 946l-185 -946h-78l185 946h78z" />
    <glyph glyph-name="Iogonek" unicode="&#x12e;" horiz-adv-x="434" 
d="M137 0q-134 -88 -194 -144.5t-60 -109.5q0 -59 88 -59q54 0 119 14l-10 -70q-68 -14 -125 -14q-75 0 -113.5 31t-38.5 88q0 75 70 146.5t217 156.5l270 1395h86l-278 -1434h-31z" />
    <glyph glyph-name="iogonek" unicode="&#x12f;" horiz-adv-x="385" 
d="M324 1434h90l-52 -265h-90zM70 43l176 903h78l-185 -946h-28q-134 -88 -194 -144.5t-60 -109.5q0 -59 88 -59q53 0 118 14l-10 -70q-68 -14 -125 -14q-75 0 -113 31t-38 88q0 75 72 147.5t221 159.5z" />
    <glyph glyph-name="Idotaccent" unicode="&#x130;" horiz-adv-x="434" 
d="M508 1747l-43 -225h-90l43 225h90zM446 1434l-278 -1434h-86l278 1434h86z" />
    <glyph glyph-name="dotlessi" unicode="&#x131;" horiz-adv-x="385" 
d="M324 946l-185 -946h-78l185 946h78z" />
    <glyph glyph-name="IJ" unicode="&#x132;" horiz-adv-x="980" 
d="M446 1434l-278 -1434h-86l278 1434h86zM993 1434l-229 -1182q-27 -142 -99 -202t-198 -60q-34 0 -74 4l17 82q36 -4 65 -4q85 0 135.5 45.5t71.5 152.5l225 1164h86z" />
    <glyph glyph-name="ij" unicode="&#x133;" horiz-adv-x="770" 
d="M414 1434l-52 -265h-90l52 265h90zM799 1434l-51 -265h-91l52 265h90zM324 946l-185 -946h-78l185 946h78zM709 946l-217 -1118q-28 -144 -101 -206t-213 -62h-18l14 75h23q87 0 141.5 44t75.5 149l217 1118h78z" />
    <glyph glyph-name="Jcircumflex" unicode="&#x134;" horiz-adv-x="546" 
d="M231 1522l2 6l289 239h107l198 -239l-2 -6h-90l-84 102q-6 8 -18 22.5t-16.5 20t-11.5 15.5t-10.5 16.5t-7.5 15.5t-7 19h-5q-34 -49 -112 -109l-129 -102h-103zM559 1434l-229 -1182q-27 -142 -99 -202t-198 -60q-34 0 -74 4l16 82q36 -4 66 -4q85 0 135.5 45.5
t71.5 152.5l225 1164h86z" />
    <glyph glyph-name="jcircumflex" unicode="&#x135;" horiz-adv-x="385" 
d="M428 1448l98 -309l-2 -6h-73l-50 174q-16 64 -18 100h-4q-18 -46 -55 -100l-119 -174h-88l2 6l221 309h88zM324 946l-218 -1118q-28 -144 -100.5 -206t-212.5 -62h-18l14 75h23q87 0 141.5 44t75.5 149l217 1118h78z" />
    <glyph glyph-name="Kcommaaccent" unicode="&#x136;" horiz-adv-x="1173" 
d="M1264 1434l-664 -531q-149 -120 -199 -149l-2 -2q18 -11 35 -27t28.5 -29.5t36.5 -44.5t44 -53l508 -598h-117l-627 754l-4 -2q-2 -64 -37 -244l-98 -508h-86l278 1434h86l-81 -420q-33 -168 -58 -244l2 -2l824 666h131zM586 -104l-180 -336h-58l139 336h99z" />
    <glyph glyph-name="kcommaaccent" unicode="&#x137;" horiz-adv-x="890" 
d="M434 1464l-135 -696q-30 -151 -63 -238l4 -4l520 420h123l-449 -354q-83 -66 -125 -84l4 -2q37 -18 99 -90l366 -416h-108l-434 502l-7 -4q-4 -108 -30 -240l-49 -258h-78l284 1464h78zM449 -104l-181 -336h-57l139 336h99z" />
    <glyph glyph-name="kgreenlandic" unicode="&#x138;" horiz-adv-x="890" 
d="M72 0l184 946h78l-35 -178q-30 -151 -63 -238l4 -4l520 420h123l-449 -354q-83 -66 -125 -84l4 -2q37 -18 99 -90l366 -416h-108l-434 502l-7 -4q-4 -108 -30 -240l-49 -258h-78z" />
    <glyph glyph-name="Lacute" unicode="&#x139;" horiz-adv-x="1013" 
d="M737 1747v-6l-276 -219h-66v6l232 219h110zM446 1434l-253 -1309q-6 -27 -17 -49l2 -2q12 4 53 4h674l-14 -78h-809l278 1434h86z" />
    <glyph glyph-name="lacute" unicode="&#x13a;" horiz-adv-x="380" 
d="M709 1747v-6l-277 -219h-65v6l231 219h111zM434 1464l-284 -1464h-78l284 1464h78z" />
    <glyph glyph-name="Lcommaaccent" unicode="&#x13b;" horiz-adv-x="1013" 
d="M446 1434l-253 -1309q-6 -27 -17 -49l2 -2q12 4 53 4h674l-14 -78h-809l278 1434h86zM522 -104l-180 -336h-57l139 336h98z" />
    <glyph glyph-name="lcommaaccent" unicode="&#x13c;" horiz-adv-x="405" 
d="M434 1464l-284 -1464h-78l284 1464h78zM145 -104l-180 -336h-57l139 336h98z" />
    <glyph glyph-name="Lcaron" unicode="&#x13d;" horiz-adv-x="1013" 
d="M897 1495h96l-202 -412h-41zM446 1434l-253 -1309q-6 -27 -17 -49l2 -2q12 4 53 4h674l-14 -78h-809l278 1434h86z" />
    <glyph glyph-name="lcaron" unicode="&#x13e;" horiz-adv-x="528" 
d="M621 1495h96l-203 -371h-41zM434 1464l-284 -1464h-78l284 1464h78z" />
    <glyph glyph-name="Ldot" unicode="&#x13f;" horiz-adv-x="1013" 
d="M446 1434l-253 -1309q-6 -27 -17 -49l2 -2q12 4 53 4h674l-14 -78h-809l278 1434h86zM670 782l32 164h164l-32 -164h-164z" />
    <glyph glyph-name="ldot" unicode="&#x140;" horiz-adv-x="538" 
d="M434 1464l-284 -1464h-78l284 1464h78zM424 782l33 164h164l-33 -164h-164z" />
    <glyph glyph-name="Lslash" unicode="&#x141;" horiz-adv-x="1013" 
d="M82 0l119 616q5 30 24 54l-2 2q-32 -25 -57 -35l-146 -59l13 65l188 76l139 715h86l-124 -646q-5 -25 -25 -49l2 -2q24 19 55 33l418 168l-10 -66l-461 -182l-108 -565q-6 -27 -17 -49l2 -2q8 4 53 4h674l-14 -78h-809z" />
    <glyph glyph-name="lslash" unicode="&#x142;" horiz-adv-x="464" 
d="M100 0l140 705q10 53 28 79l-2 2q-35 -30 -84 -53l-121 -55l13 65l188 88l123 633h78l-98 -520q-11 -56 -27 -82l2 -2q22 22 63 39l134 62l-11 -66l-192 -90l-156 -805h-78z" />
    <glyph glyph-name="Nacute" unicode="&#x143;" horiz-adv-x="1431" 
d="M1237 1747v-6l-276 -219h-66v6l231 219h111zM379 1454l659 -1124q69 -115 82 -164l4 2q4 91 37 258l197 1008h86l-283 -1454h-18l-656 1126q-67 112 -81 164l-5 -2q-4 -97 -36 -258l-197 -1010h-86l283 1454h14z" />
    <glyph glyph-name="nacute" unicode="&#x144;" horiz-adv-x="1130" 
d="M1020 1448l-2 -10l-291 -305h-65l2 12l245 303h111zM61 0l185 946h78l-13 -59q-33 -154 -65 -248l8 -4q72 177 178 259.5t260 82.5q155 0 235.5 -82t80.5 -242q0 -58 -17 -155l-96 -498h-78l98 502q15 55 15 137q0 128 -64.5 196t-185.5 68q-173 0 -295 -129t-166 -360
l-80 -414h-78z" />
    <glyph glyph-name="Ncommaaccent" unicode="&#x145;" horiz-adv-x="1431" 
d="M379 1454l659 -1124q69 -115 82 -164l4 2q4 91 37 258l197 1008h86l-283 -1454h-18l-656 1126q-67 112 -81 164l-5 -2q-4 -97 -36 -258l-197 -1010h-86l283 1454h14zM662 -104l-181 -336h-57l139 336h99z" />
    <glyph glyph-name="ncommaaccent" unicode="&#x146;" horiz-adv-x="1130" 
d="M61 0l185 946h78l-13 -59q-33 -154 -65 -248l8 -4q72 177 178 259.5t260 82.5q155 0 235.5 -82t80.5 -242q0 -58 -17 -155l-96 -498h-78l98 502q15 55 15 137q0 128 -64.5 196t-185.5 68q-173 0 -295 -129t-166 -360l-80 -414h-78zM500 -104l-181 -336h-57l139 336h99z
" />
    <glyph glyph-name="Ncaron" unicode="&#x147;" horiz-adv-x="1431" 
d="M1266 1767l-2 -6l-291 -239h-107l-196 239l2 6h88l88 -102q35 -39 48.5 -59.5t23.5 -49.5h4q19 28 38.5 46.5t73.5 62.5l127 102h103zM379 1454l659 -1124q69 -115 82 -164l4 2q4 91 37 258l197 1008h86l-283 -1454h-18l-656 1126q-67 112 -81 164l-5 -2q-4 -97 -36 -258
l-197 -1010h-86l283 1454h14z" />
    <glyph glyph-name="ncaron" unicode="&#x148;" horiz-adv-x="1130" 
d="M631 1112l-185 309l3 6h79l107 -174q34 -54 45 -100h4q16 29 31 46.5t51 53.5l170 174h102l-2 -6l-303 -309h-102zM61 0l185 946h78l-13 -59q-33 -154 -65 -248l8 -4q72 177 178 259.5t260 82.5q155 0 235.5 -82t80.5 -242q0 -58 -17 -155l-96 -498h-78l98 502
q15 55 15 137q0 128 -64.5 196t-185.5 68q-173 0 -295 -129t-166 -360l-80 -414h-78z" />
    <glyph glyph-name="napostrophe" unicode="&#x149;" horiz-adv-x="1130" 
d="M283 1495h96l-203 -412h-41zM61 0l185 946h78l-13 -59q-33 -154 -65 -248l8 -4q72 177 178 259.5t260 82.5q155 0 235.5 -82t80.5 -242q0 -58 -17 -155l-96 -498h-78l98 502q15 55 15 137q0 128 -64.5 196t-185.5 68q-173 0 -295 -129t-166 -360l-80 -414h-78z" />
    <glyph glyph-name="Eng" unicode="&#x14a;" horiz-adv-x="1431" 
d="M1444 1434l-283 -1454h-10l-18 -101q-28 -145 -100.5 -217t-213.5 -72h-92l14 82h97q86 0 135.5 51.5t70.5 155.5l39 203l-596 1024q-67 112 -81 164l-5 -2q-4 -97 -36 -258l-197 -1010h-86l283 1454h14l659 -1124q69 -115 82 -164l4 2q4 91 37 258l197 1008h86z" />
    <glyph glyph-name="eng" unicode="&#x14b;" horiz-adv-x="1130" 
d="M692 977q155 0 235.5 -82t80.5 -242q0 -58 -17 -155l-96 -498l-25 -121q-34 -166 -107.5 -227.5t-205.5 -61.5h-86l14 76h90q88 0 140.5 46.5t77.5 166.5l24 121l98 502q15 55 15 137q0 128 -64.5 196t-185.5 68q-173 0 -295 -129t-166 -360l-80 -414h-78l185 946h78
l-13 -59q-33 -154 -65 -248l8 -4q72 177 178 259.5t260 82.5z" />
    <glyph glyph-name="Omacron" unicode="&#x14c;" horiz-adv-x="1734" 
d="M766 1665h555l-14 -70h-555zM852 -31q-324 0 -516.5 184.5t-192.5 495.5q0 173 63.5 324.5t173.5 259t265 169.5t332 62q324 0 516.5 -184.5t192.5 -495.5q0 -173 -63.5 -324.5t-173.5 -259t-265 -169.5t-332 -62zM852 53q159 0 297.5 56t236.5 153.5t154.5 235
t56.5 295.5q0 263 -171 425t-449 162q-159 0 -297.5 -55.5t-237 -153t-155 -235t-56.5 -295.5q0 -263 171.5 -425.5t449.5 -162.5z" />
    <glyph glyph-name="omacron" unicode="&#x14d;" horiz-adv-x="1193" 
d="M1026 1350l-14 -70h-555l14 70h555zM543 -31q-215 0 -338 118.5t-123 324.5q0 157 74 286.5t205 204t290 74.5q215 0 338 -118t123 -324q0 -157 -74 -287t-205 -204.5t-290 -74.5zM551 43q132 0 243 66.5t175.5 181t64.5 250.5q0 166 -105.5 264t-285.5 98
q-132 0 -243 -66t-175.5 -180.5t-64.5 -250.5q0 -166 105.5 -264.5t285.5 -98.5z" />
    <glyph glyph-name="Obreve" unicode="&#x14e;" horiz-adv-x="1734" 
d="M1014 1522q-107 0 -170.5 48.5t-63.5 135.5q0 26 6 61h68q-4 -36 -4 -51q0 -60 43 -93.5t125 -33.5q100 0 165 47t89 131h71q-24 -114 -113.5 -179.5t-215.5 -65.5zM852 -31q-324 0 -516.5 184.5t-192.5 495.5q0 173 63.5 324.5t173.5 259t265 169.5t332 62
q324 0 516.5 -184.5t192.5 -495.5q0 -173 -63.5 -324.5t-173.5 -259t-265 -169.5t-332 -62zM852 53q159 0 297.5 56t236.5 153.5t154.5 235t56.5 295.5q0 263 -171 425t-449 162q-159 0 -297.5 -55.5t-237 -153t-155 -235t-56.5 -295.5q0 -263 171.5 -425.5t449.5 -162.5z
" />
    <glyph glyph-name="obreve" unicode="&#x14f;" horiz-adv-x="1193" 
d="M713 1147q-111 0 -175.5 58.5t-64.5 162.5q0 32 6 66h70q-4 -36 -4 -54q0 -78 45 -120.5t129 -42.5q94 0 161 58t87 159h69q-24 -143 -111 -215t-212 -72zM543 -31q-215 0 -338 118.5t-123 324.5q0 157 74 286.5t205 204t290 74.5q215 0 338 -118t123 -324
q0 -157 -74 -287t-205 -204.5t-290 -74.5zM551 43q132 0 243 66.5t175.5 181t64.5 250.5q0 166 -105.5 264t-285.5 98q-132 0 -243 -66t-175.5 -180.5t-64.5 -250.5q0 -166 105.5 -264.5t285.5 -98.5z" />
    <glyph glyph-name="Ohungarumlaut" unicode="&#x150;" horiz-adv-x="1734" 
d="M1233 1747v-6l-240 -219h-69v6l231 219h78zM1087 1528l232 219h78v-6l-240 -219h-70v6zM852 -31q-324 0 -516.5 184.5t-192.5 495.5q0 173 63.5 324.5t173.5 259t265 169.5t332 62q324 0 516.5 -184.5t192.5 -495.5q0 -173 -63.5 -324.5t-173.5 -259t-265 -169.5
t-332 -62zM852 53q159 0 297.5 56t236.5 153.5t154.5 235t56.5 295.5q0 263 -171 425t-449 162q-159 0 -297.5 -55.5t-237 -153t-155 -235t-56.5 -295.5q0 -263 171.5 -425.5t449.5 -162.5z" />
    <glyph glyph-name="ohungarumlaut" unicode="&#x151;" horiz-adv-x="1193" 
d="M573 1133v6l256 311h78v-6l-264 -311h-70zM739 1133v6l256 311h78v-6l-264 -311h-70zM543 -31q-215 0 -338 118.5t-123 324.5q0 157 74 286.5t205 204t290 74.5q215 0 338 -118t123 -324q0 -157 -74 -287t-205 -204.5t-290 -74.5zM551 43q132 0 243 66.5t175.5 181
t64.5 250.5q0 166 -105.5 264t-285.5 98q-132 0 -243 -66t-175.5 -180.5t-64.5 -250.5q0 -166 105.5 -264.5t285.5 -98.5z" />
    <glyph glyph-name="OE" unicode="&#x152;" horiz-adv-x="2390" 
d="M842 -31q-168 0 -302.5 52.5t-221 144.5t-132 214t-45.5 265q0 134 40 258t116 225.5t180.5 177t241 117t289.5 41.5q109 0 203 -25.5t162.5 -68t121.5 -100.5t85.5 -120.5t49.5 -131.5l4 2q-3 49 8 100l62 314h780l-14 -78h-645q-41 0 -53 4l-3 -2q3 -18 -4 -49
l-82 -428q-6 -30 -16 -50l2 -2q15 5 53 5h592l-14 -78h-592q-41 0 -53 4l-2 -2q3 -18 -4 -49l-113 -584q-6 -28 -16 -49l2 -2q12 4 53 4h655l-14 -78h-789l33 158q22 107 31 133l-4 2q-92 -148 -258 -236t-387 -88zM836 55q218 0 389 95t265.5 263.5t94.5 381.5
q0 271 -160 427t-426 156q-169 0 -314.5 -59t-244.5 -160t-155 -235.5t-56 -284.5q0 -125 39.5 -231t114 -185t191 -123.5t262.5 -44.5z" />
    <glyph glyph-name="oe" unicode="&#x153;" horiz-adv-x="2037" 
d="M539 -31q-206 0 -332.5 115.5t-126.5 323.5q0 156 71 285.5t203 206.5t299 77q163 0 283.5 -78.5t153.5 -224.5h2q59 139 186.5 221t290.5 82q98 0 175 -30t124.5 -82t71.5 -119.5t24 -145.5q0 -60 -18 -131h-756q-45 0 -72 8l-2 -2v-16q-6 -34 -6 -68q0 -160 93 -253
t255 -93q84 0 158.5 28.5t122 65.5t102.5 94l57 -59q-43 -44 -82 -75.5t-94 -64.5t-123.5 -50t-146.5 -17q-161 0 -269 79t-141 230h-2q-68 -140 -200 -223.5t-301 -83.5zM541 43q143 0 257.5 71t174 183t59.5 240q0 168 -105.5 267t-277.5 99q-108 0 -201.5 -41.5
t-156 -110t-98 -157.5t-35.5 -184q0 -169 105.5 -268t277.5 -99zM1128 524q30 15 74 15h606q39 0 76 -13l2 2v70q0 138 -84.5 220.5t-238.5 82.5q-81 0 -152 -24.5t-119.5 -63.5t-85 -89.5t-55.5 -100t-25 -97.5z" />
    <glyph glyph-name="Racute" unicode="&#x154;" horiz-adv-x="1171" 
d="M1104 1747v-6l-277 -219h-65v6l231 219h111zM780 1434q171 0 270 -85t99 -233q0 -186 -124.5 -294.5t-338.5 -108.5q-53 0 -74 8l-2 -2q41 -41 56 -72l372 -647h-96l-412 713h-174q-41 0 -53 4l-2 -2q1 -4 -4 -49l-129 -666h-86l278 1434h420zM428 1360l-2 -2
q1 -4 -4 -49l-90 -471q-4 -24 -17 -50l2 -2q10 5 54 5h323q167 0 267 86t100 231q0 118 -75 183t-210 65h-295q-41 0 -53 4z" />
    <glyph glyph-name="racute" unicode="&#x155;" horiz-adv-x="653" 
d="M829 1448l-2 -10l-290 -305h-66l2 12l246 303h110zM61 0l185 946h78q-38 -205 -82 -336l8 -4q63 195 154.5 283t230.5 88q31 0 84 -6l-17 -82q-56 6 -84 6q-145 0 -254 -144t-155 -393l-70 -358h-78z" />
    <glyph glyph-name="Rcommaaccent" unicode="&#x156;" horiz-adv-x="1171" 
d="M780 1434q171 0 270 -85t99 -233q0 -186 -124.5 -294.5t-338.5 -108.5q-53 0 -74 8l-2 -2q41 -41 56 -72l372 -647h-96l-412 713h-174q-41 0 -53 4l-2 -2q1 -4 -4 -49l-129 -666h-86l278 1434h420zM428 1360l-2 -2q1 -4 -4 -49l-90 -471q-4 -24 -17 -50l2 -2q10 5 54 5
h323q167 0 267 86t100 231q0 118 -75 183t-210 65h-295q-41 0 -53 4zM590 -104l-180 -336h-58l140 336h98z" />
    <glyph glyph-name="rcommaaccent" unicode="&#x157;" horiz-adv-x="653" 
d="M61 0l185 946h78q-38 -205 -82 -336l8 -4q63 195 154.5 283t230.5 88q31 0 84 -6l-17 -82q-56 6 -84 6q-145 0 -254 -144t-155 -393l-70 -358h-78zM135 -104l-180 -336h-57l139 336h98z" />
    <glyph glyph-name="Rcaron" unicode="&#x158;" horiz-adv-x="1171" 
d="M1133 1767l-3 -6l-290 -239h-107l-196 239l2 6h88l88 -102q34 -38 47.5 -58.5t23.5 -50.5h5q19 28 38.5 46.5t73.5 62.5l127 102h103zM780 1434q171 0 270 -85t99 -233q0 -186 -124.5 -294.5t-338.5 -108.5q-53 0 -74 8l-2 -2q41 -41 56 -72l372 -647h-96l-412 713h-174
q-41 0 -53 4l-2 -2q1 -4 -4 -49l-129 -666h-86l278 1434h420zM428 1360l-2 -2q1 -4 -4 -49l-90 -471q-4 -24 -17 -50l2 -2q10 5 54 5h323q167 0 267 86t100 231q0 118 -75 183t-210 65h-295q-41 0 -53 4z" />
    <glyph glyph-name="rcaron" unicode="&#x159;" horiz-adv-x="653" 
d="M440 1112l-184 309l2 6h80l106 -174q34 -54 45 -100h5q24 43 81 100l170 174h103l-2 -6l-303 -309h-103zM61 0l185 946h78q-38 -205 -82 -336l8 -4q63 195 154.5 283t230.5 88q31 0 84 -6l-17 -82q-56 6 -84 6q-145 0 -254 -144t-155 -393l-70 -358h-78z" />
    <glyph glyph-name="Sacute" unicode="&#x15a;" horiz-adv-x="1064" 
d="M1028 1747v-6l-276 -219h-66v6l232 219h110zM524 -31q-304 0 -528 221l59 66q215 -203 473 -203q158 0 244 71.5t86 203.5q0 92 -46 166.5t-157 162.5l-149 119q-118 93 -170.5 180t-52.5 187q0 149 99 235t269 86q109 0 206.5 -35t215.5 -118l-57 -76q-180 145 -367 145
q-129 0 -203.5 -64t-74.5 -173q0 -153 180 -293l172 -133q118 -91 170.5 -182t52.5 -205q0 -172 -110.5 -266.5t-311.5 -94.5z" />
    <glyph glyph-name="sacute" unicode="&#x15b;" horiz-adv-x="817" 
d="M834 1448l-3 -10l-290 -305h-66l2 12l246 303h111zM43 201q89 -83 169 -119.5t175 -36.5q105 0 162 43t57 121q0 56 -31.5 101.5t-101.5 92.5l-113 76q-100 67 -141 127t-41 137q0 107 75 170.5t202 63.5q162 0 311 -105l-47 -69q-141 98 -266 98q-89 0 -141 -43.5
t-52 -118.5q0 -54 30 -93.5t113 -96.5l111 -76q98 -67 136 -124.5t38 -137.5q0 -117 -78.5 -179.5t-226.5 -62.5q-114 0 -207 39.5t-190 128.5z" />
    <glyph glyph-name="Scircumflex" unicode="&#x15c;" horiz-adv-x="1064" 
d="M414 1522l2 6l289 239h106l199 -239l-2 -6h-90l-84 102q-7 9 -21 26t-19 23.5t-12.5 17.5t-11.5 20.5t-8 21.5h-4q-21 -30 -42.5 -50.5t-70.5 -58.5l-129 -102h-102zM524 -31q-304 0 -528 221l59 66q215 -203 473 -203q158 0 244 71.5t86 203.5q0 92 -46 166.5
t-157 162.5l-149 119q-118 93 -170.5 180t-52.5 187q0 149 99 235t269 86q109 0 206.5 -35t215.5 -118l-57 -76q-180 145 -367 145q-129 0 -203.5 -64t-74.5 -173q0 -153 180 -293l172 -133q118 -91 170.5 -182t52.5 -205q0 -172 -110.5 -266.5t-311.5 -94.5z" />
    <glyph glyph-name="scircumflex" unicode="&#x15d;" horiz-adv-x="817" 
d="M612 1448l185 -309l-2 -6h-84l-107 174q-34 54 -43 100h-4q-28 -46 -82 -100l-174 -174h-96l2 6l303 309h102zM43 201q89 -83 169 -119.5t175 -36.5q105 0 162 43t57 121q0 56 -31.5 101.5t-101.5 92.5l-113 76q-100 67 -141 127t-41 137q0 107 75 170.5t202 63.5
q162 0 311 -105l-47 -69q-141 98 -266 98q-89 0 -141 -43.5t-52 -118.5q0 -54 30 -93.5t113 -96.5l111 -76q98 -67 136 -124.5t38 -137.5q0 -117 -78.5 -179.5t-226.5 -62.5q-114 0 -207 39.5t-190 128.5z" />
    <glyph glyph-name="Scedilla" unicode="&#x15e;" horiz-adv-x="1064" 
d="M649 1380q-129 0 -203.5 -64t-74.5 -173q0 -153 180 -293l172 -133q118 -91 170.5 -182t52.5 -205q0 -168 -104.5 -262.5t-296.5 -98.5l-35 -61q139 -29 139 -123q0 -34 -16.5 -64t-38.5 -51t-65.5 -44.5t-74.5 -37.5t-89 -37l-13 41q120 59 167.5 94.5t47.5 77.5
q0 33 -32.5 51.5t-106.5 32.5l68 121q-288 12 -500 221l59 66q215 -203 473 -203q158 0 244 71.5t86 203.5q0 92 -46 166.5t-157 162.5l-149 119q-118 93 -170.5 180t-52.5 187q0 149 99 235t269 86q109 0 206.5 -35t215.5 -118l-57 -76q-180 145 -367 145z" />
    <glyph glyph-name="scedilla" unicode="&#x15f;" horiz-adv-x="817" 
d="M453 901q-89 0 -141 -43.5t-52 -118.5q0 -54 30 -93.5t113 -96.5l111 -76q98 -67 136 -124.5t38 -137.5q0 -117 -78.5 -179.5t-226.5 -62.5l-35 -61q139 -29 139 -123q0 -34 -16.5 -64t-38.5 -51t-65.5 -44.5t-74.5 -37.5t-89 -37l-13 41q121 60 168.5 95t47.5 77
q0 33 -32.5 51.5t-107.5 32.5l68 123q-97 7 -179.5 46.5t-168.5 119.5l57 64q89 -83 169 -119.5t175 -36.5q105 0 162 43t57 121q0 56 -31.5 101.5t-101.5 92.5l-113 76q-100 67 -141 127t-41 137q0 107 75 170.5t202 63.5q162 0 311 -105l-47 -69q-141 98 -266 98z" />
    <glyph glyph-name="Scaron" unicode="&#x160;" horiz-adv-x="1064" 
d="M1057 1767l-2 -6l-291 -239h-107l-196 239l2 6h88l88 -102q35 -39 48.5 -59.5t23.5 -49.5h4q19 28 38.5 46.5t73.5 62.5l127 102h103zM524 -31q-304 0 -528 221l59 66q215 -203 473 -203q158 0 244 71.5t86 203.5q0 92 -46 166.5t-157 162.5l-149 119q-118 93 -170.5 180
t-52.5 187q0 149 99 235t269 86q109 0 206.5 -35t215.5 -118l-57 -76q-180 145 -367 145q-129 0 -203.5 -64t-74.5 -173q0 -153 180 -293l172 -133q118 -91 170.5 -182t52.5 -205q0 -172 -110.5 -266.5t-311.5 -94.5z" />
    <glyph glyph-name="scaron" unicode="&#x161;" horiz-adv-x="817" 
d="M444 1112l-184 309l2 6h80l107 -174q34 -54 45 -100h4q16 29 31 46.5t51 53.5l170 174h102l-2 -6l-303 -309h-103zM43 201q89 -83 169 -119.5t175 -36.5q105 0 162 43t57 121q0 56 -31.5 101.5t-101.5 92.5l-113 76q-100 67 -141 127t-41 137q0 107 75 170.5t202 63.5
q162 0 311 -105l-47 -69q-141 98 -266 98q-89 0 -141 -43.5t-52 -118.5q0 -54 30 -93.5t113 -96.5l111 -76q98 -67 136 -124.5t38 -137.5q0 -117 -78.5 -179.5t-226.5 -62.5q-114 0 -207 39.5t-190 128.5z" />
    <glyph glyph-name="uni0162" unicode="&#x162;" horiz-adv-x="1040" 
d="M207 1434h999l-14 -78h-408q-41 0 -53 4l-2 -2q4 -23 -2 -49l-254 -1309h-14l-53 -92q139 -29 139 -123q0 -28 -9.5 -53t-32 -46.5t-43.5 -38t-60.5 -35.5t-65.5 -30t-74 -31l-12 41q120 59 167.5 94.5t47.5 77.5q0 33 -32.5 51.5t-106.5 32.5l84 152h-21l254 1309
q8 38 14 49l-2 2q-12 -4 -53 -4h-407z" />
    <glyph glyph-name="uni0163" unicode="&#x163;" horiz-adv-x="616" 
d="M489 946h158l-12 -65h-158q-41 0 -55 8l-2 -2q6 -25 0 -53l-162 -834h-10l-53 -92q139 -29 139 -123q0 -28 -9.5 -53t-32 -46.5t-43.5 -38t-60.5 -35.5t-65.5 -30t-74 -31l-12 41q120 59 167.5 94.5t47.5 77.5q0 33 -32.5 51.5t-106.5 32.5l84 152h-17l162 834
q8 37 20 53l-2 2q-18 -8 -59 -8h-160l13 65h159q42 0 56 -8l4 2q-7 20 0 53l76 391l83 68h9l-90 -459q-7 -30 -21 -53v-2q18 8 59 8z" />
    <glyph glyph-name="Tcaron" unicode="&#x164;" horiz-adv-x="1040" 
d="M1067 1767l-2 -6l-291 -239h-106l-197 239l2 6h88l88 -102q35 -39 48.5 -59.5t23.5 -49.5h4q17 26 36.5 45t62.5 53q9 7 14 11l127 102h102zM1206 1434l-14 -78h-408q-41 0 -53 4l-2 -2q4 -23 -2 -49l-254 -1309h-86l254 1309q8 38 14 49l-2 2q-12 -4 -53 -4h-407l14 78
h999z" />
    <glyph glyph-name="tcaron" unicode="&#x165;" horiz-adv-x="712" 
d="M784 1495h97l-203 -371h-41zM541 1452l-90 -459q-7 -30 -21 -53v-2q18 8 59 8h158l-12 -65h-158q-41 0 -55 8l-2 -2q6 -25 0 -53l-162 -834h-78l162 834q8 37 20 53l-2 2q-18 -8 -59 -8h-160l13 65h159q42 0 56 -8l4 2q-7 20 0 53l76 391l83 68h9z" />
    <glyph glyph-name="Tbar" unicode="&#x166;" horiz-adv-x="1081" 
d="M805 1356q-41 0 -53 4l-2 -2q4 -23 -2 -49l-62 -316q-7 -31 -16 -49l2 -2q12 4 53 4h252l-14 -78h-252q-42 0 -54 4l-2 -2q3 -18 -4 -49l-159 -821h-86l159 821q6 27 17 49l-2 2q-12 -4 -54 -4h-252l15 78h252q41 0 53 -4l2 2q-3 18 4 49l62 316q7 31 16 49l-4 2
q-12 -4 -53 -4h-428l14 78h1040l-14 -78h-428z" />
    <glyph glyph-name="tbar" unicode="&#x167;" horiz-adv-x="612" 
d="M451 1391l84 67h2l-91 -465q-7 -31 -16 -49l2 -2q12 4 53 4h158l-12 -65h-158q-41 0 -51 4l-4 -2q4 -23 -2 -49l-25 -121q-8 -38 -14 -49v-2q14 4 55 4h154l-13 -62h-153q-41 0 -53 4l-2 -2q3 -20 -3 -49l-108 -557h-74l109 557q8 38 14 49l-2 2q-12 -4 -53 -4h-139
l12 62h139q41 0 51 -4l4 2q-4 23 2 49l25 121q8 38 14 49v2q-14 -4 -55 -4h-160l13 65h159q42 0 54 -4l2 2q-3 18 4 49z" />
    <glyph glyph-name="Utilde" unicode="&#x168;" horiz-adv-x="1374" 
d="M1090 1538q-40 0 -89.5 18.5t-87.5 40t-80.5 40t-70.5 18.5q-62 0 -117 -90l-51 20q1 2 16 27t22 35.5t25.5 32.5t34.5 32t41.5 19.5t52.5 9.5q51 0 115 -29.5t121.5 -58.5t91.5 -29q60 0 115 90l51 -20q-2 -4 -15.5 -27t-21.5 -35t-25.5 -33t-34 -32t-41.5 -20t-52 -9z
M629 -31q-226 0 -350.5 115t-124.5 322q0 81 14 141l174 887h92l-174 -895q-14 -80 -14 -131q0 -167 101 -260t282 -93q206 0 336 123t176 361l174 895h92l-178 -916q-50 -267 -203.5 -408t-396.5 -141z" />
    <glyph glyph-name="utilde" unicode="&#x169;" horiz-adv-x="1075" 
d="M811 1208q-40 0 -89.5 18.5t-87.5 40t-80.5 40t-70.5 18.5q-61 0 -116 -90l-52 20l15 27q16 26 23 35.5t26 32t35 32.5t41.5 19.5t52.5 9.5q51 0 115 -29.5t121.5 -58.5t91.5 -29q59 0 114 90l51 -20q-2 -4 -15.5 -27t-21.5 -35t-25.5 -33t-34 -32t-41.5 -20t-52 -9z
M1024 946l-184 -946h-78q45 212 76 299l-9 4q-69 -172 -168.5 -253t-240.5 -81q-155 0 -240.5 89.5t-79.5 244.5q2 52 15 125l102 518h82l-102 -512q-13 -71 -15 -121q-8 -129 54.5 -199.5t185.5 -70.5q166 0 283 128.5t161 360.5l80 414h78z" />
    <glyph glyph-name="Umacron" unicode="&#x16a;" horiz-adv-x="1374" 
d="M641 1665h555l-14 -70h-555zM629 -31q-226 0 -350.5 115t-124.5 322q0 81 14 141l174 887h92l-174 -895q-14 -80 -14 -131q0 -167 101 -260t282 -93q206 0 336 123t176 361l174 895h92l-178 -916q-50 -267 -203.5 -408t-396.5 -141z" />
    <glyph glyph-name="umacron" unicode="&#x16b;" horiz-adv-x="1075" 
d="M961 1350l-15 -70h-555l15 70h555zM1024 946l-184 -946h-78q45 212 76 299l-9 4q-69 -172 -168.5 -253t-240.5 -81q-155 0 -240.5 89.5t-79.5 244.5q2 52 15 125l102 518h82l-102 -512q-13 -71 -15 -121q-8 -129 54.5 -199.5t185.5 -70.5q166 0 283 128.5t161 360.5
l80 414h78z" />
    <glyph glyph-name="Ubreve" unicode="&#x16c;" horiz-adv-x="1374" 
d="M889 1522q-107 0 -170.5 48.5t-63.5 135.5q0 21 7 61h67q-4 -36 -4 -51q0 -60 43 -93.5t125 -33.5q100 0 165 47t89 131h72q-24 -114 -114 -179.5t-216 -65.5zM629 -31q-226 0 -350.5 115t-124.5 322q0 81 14 141l174 887h92l-174 -895q-14 -80 -14 -131q0 -167 101 -260
t282 -93q206 0 336 123t176 361l174 895h92l-178 -916q-50 -267 -203.5 -408t-396.5 -141z" />
    <glyph glyph-name="ubreve" unicode="&#x16d;" horiz-adv-x="1075" 
d="M647 1147q-111 0 -175 58.5t-64 162.5q0 32 6 66h69q-4 -36 -4 -54q0 -78 45 -120.5t129 -42.5q94 0 161 58t87 159h70q-24 -143 -111.5 -215t-212.5 -72zM1024 946l-184 -946h-78q45 212 76 299l-9 4q-69 -172 -168.5 -253t-240.5 -81q-155 0 -240.5 89.5t-79.5 244.5
q2 52 15 125l102 518h82l-102 -512q-13 -71 -15 -121q-8 -129 54.5 -199.5t185.5 -70.5q166 0 283 128.5t161 360.5l80 414h78z" />
    <glyph glyph-name="Uring" unicode="&#x16e;" horiz-adv-x="1374" 
d="M877 1407q-101 0 -157 57t-56 148q0 117 77.5 195.5t198.5 78.5q101 0 157 -57t56 -148q0 -117 -77.5 -195.5t-198.5 -78.5zM881 1464q92 0 151.5 61t59.5 152q0 71 -41 111.5t-115 40.5q-92 0 -151.5 -61t-59.5 -152q0 -71 41 -111.5t115 -40.5zM629 -31
q-226 0 -350.5 115t-124.5 322q0 81 14 141l174 887h92l-174 -895q-14 -80 -14 -131q0 -167 101 -260t282 -93q206 0 336 123t176 361l174 895h92l-178 -916q-50 -267 -203.5 -408t-396.5 -141z" />
    <glyph glyph-name="uring" unicode="&#x16f;" horiz-adv-x="1075" 
d="M688 1530q104 0 163.5 -62t59.5 -159q0 -110 -73.5 -184t-188.5 -74q-106 0 -165.5 62t-59.5 159q0 110 73.5 184t190.5 74zM684 1473q-90 0 -144.5 -56t-54.5 -143q0 -77 44.5 -121.5t123.5 -44.5q88 0 142.5 56t54.5 143q0 77 -44 121.5t-122 44.5zM1024 946l-184 -946
h-78q45 212 76 299l-9 4q-69 -172 -168.5 -253t-240.5 -81q-155 0 -240.5 89.5t-79.5 244.5q2 52 15 125l102 518h82l-102 -512q-13 -71 -15 -121q-8 -129 54.5 -199.5t185.5 -70.5q166 0 283 128.5t161 360.5l80 414h78z" />
    <glyph glyph-name="Uhungarumlaut" unicode="&#x170;" horiz-adv-x="1374" 
d="M1108 1747v-6l-240 -219h-69v6l231 219h78zM963 1528l231 219h78v-6l-240 -219h-69v6zM629 -31q-226 0 -350.5 115t-124.5 322q0 81 14 141l174 887h92l-174 -895q-14 -80 -14 -131q0 -167 101 -260t282 -93q206 0 336 123t176 361l174 895h92l-178 -916
q-50 -267 -203.5 -408t-396.5 -141z" />
    <glyph glyph-name="uhungarumlaut" unicode="&#x171;" horiz-adv-x="1075" 
d="M508 1133v6l256 311h78v-6l-264 -311h-70zM674 1133v6l256 311h78v-6l-265 -311h-69zM1024 946l-184 -946h-78q45 212 76 299l-9 4q-69 -172 -168.5 -253t-240.5 -81q-155 0 -240.5 89.5t-79.5 244.5q2 52 15 125l102 518h82l-102 -512q-13 -71 -15 -121
q-8 -129 54.5 -199.5t185.5 -70.5q166 0 283 128.5t161 360.5l80 414h78z" />
    <glyph glyph-name="Uogonek" unicode="&#x172;" horiz-adv-x="1374" 
d="M1315 1434h92l-178 -916q-49 -265 -202 -406t-392 -143q-108 -74 -157.5 -124.5t-49.5 -98.5q0 -59 88 -59q54 0 119 14l-10 -70q-68 -14 -125 -14q-75 0 -113.5 31t-38.5 88q0 60 45.5 118t138.5 121q-182 23 -280 135t-98 296q0 81 14 141l174 887h92l-174 -895
q-14 -80 -14 -131q0 -167 101 -260t282 -93q206 0 336 123t176 361z" />
    <glyph glyph-name="uogonek" unicode="&#x173;" horiz-adv-x="1075" 
d="M809 0q-134 -88 -194 -144.5t-60 -109.5q0 -59 88 -59q54 0 119 14l-10 -70q-68 -14 -125 -14q-75 0 -113.5 31t-38.5 88q0 76 72 148t225 161q39 179 66 254l-9 4q-69 -172 -168.5 -253t-240.5 -81q-155 0 -240.5 89.5t-79.5 244.5q2 52 15 125l102 518h82l-102 -512
q-13 -71 -15 -121q-8 -129 54.5 -199.5t185.5 -70.5q166 0 283 128.5t161 360.5l80 414h78l-184 -946h-31z" />
    <glyph glyph-name="Wcircumflex" unicode="&#x174;" horiz-adv-x="1904" 
d="M848 1522l2 6l289 239h106l199 -239l-2 -6h-90l-84 102q-7 9 -21 26t-19 23.5t-12.5 17.5t-11.5 20.5t-8 21.5h-4q-21 -30 -42.5 -50.5t-70.5 -58.5l-129 -102h-102zM430 -31l-213 1465h92l131 -992q21 -164 21 -266h8q53 126 127 270l534 1018h13l143 -1013
q21 -159 21 -271h8q57 143 123 266l520 988h102l-782 -1465h-8l-154 1086q-16 118 -10 190h-8q-22 -74 -84 -190l-576 -1086h-8z" />
    <glyph glyph-name="wcircumflex" unicode="&#x175;" horiz-adv-x="1490" 
d="M981 1448l184 -309l-2 -6h-84l-106 174q-34 54 -43 100h-4q-28 -46 -82 -100l-174 -174h-97l2 6l304 309h102zM324 -20l-191 966h84l115 -635q19 -110 14 -188h4q29 79 94 188l387 656h9l133 -656q22 -114 20 -188h4q22 73 88 188l361 635h96l-569 -966h-6l-138 667
q-12 58 -14.5 97t0.5 79h-4q-14 -49 -29 -82t-51 -94l-397 -667h-10z" />
    <glyph glyph-name="Ycircumflex" unicode="&#x176;" horiz-adv-x="1095" 
d="M444 1522l2 6l289 239h107l198 -239l-2 -6h-90l-84 102q-6 8 -18 22.5t-16.5 20t-11.5 15.5t-10.5 16.5t-7.5 15.5t-7 19h-5q-34 -49 -112 -109l-129 -102h-103zM1251 1434l-649 -891l-104 -543h-86l104 543l-299 891h98l213 -658q30 -90 35 -174h4q36 78 103 174
l471 658h110z" />
    <glyph glyph-name="ycircumflex" unicode="&#x177;" horiz-adv-x="950" 
d="M702 1448l185 -309l-2 -6h-84l-107 174q-34 54 -43 100h-4q-28 -46 -82 -100l-174 -174h-96l2 6l303 309h102zM1012 946l-869 -1356h-88l312 482l-244 874h78l174 -627q23 -83 29.5 -121t5.5 -87l8 2q14 47 36 88t76 125l394 620h88z" />
    <glyph glyph-name="Ydieresis" unicode="&#x178;" horiz-adv-x="1095" 
d="M575 1747h103l-43 -225h-103zM895 1747h102l-43 -225h-102zM1251 1434l-649 -891l-104 -543h-86l104 543l-299 891h98l213 -658q30 -90 35 -174h4q36 78 103 174l471 658h110z" />
    <glyph glyph-name="Zacute" unicode="&#x179;" horiz-adv-x="1183" 
d="M1116 1747v-6l-276 -219h-66v6l232 219h110zM1292 1434v-2l-1181 -1360v-4q43 14 200 14h756l-59 -82h-1059v4l1184 1364l-3 4q-66 -20 -204 -20h-629l59 82h936z" />
    <glyph glyph-name="zacute" unicode="&#x17a;" horiz-adv-x="919" 
d="M979 1448l-2 -10l-291 -305h-65l2 12l245 303h111zM-57 0l-2 10l874 879l-2 4q-38 -13 -78.5 -17t-136.5 -4h-410l62 74h717l2 -8l-871 -879l2 -4q37 12 66.5 15.5t101.5 3.5h531l-68 -74h-788z" />
    <glyph glyph-name="Zdotaccent" unicode="&#x17b;" horiz-adv-x="1183" 
d="M889 1747l-43 -225h-90l43 225h90zM1292 1434v-2l-1181 -1360v-4q43 14 200 14h756l-59 -82h-1059v4l1184 1364l-3 4q-66 -20 -204 -20h-629l59 82h936z" />
    <glyph glyph-name="zdotaccent" unicode="&#x17c;" horiz-adv-x="919" 
d="M737 1434l-51 -265h-90l51 265h90zM-57 0l-2 10l874 879l-2 4q-38 -13 -78.5 -17t-136.5 -4h-410l62 74h717l2 -8l-871 -879l2 -4q37 12 66.5 15.5t101.5 3.5h531l-68 -74h-788z" />
    <glyph glyph-name="Zcaron" unicode="&#x17d;" horiz-adv-x="1183" 
d="M1145 1767l-2 -6l-291 -239h-107l-196 239l2 6h88l88 -102q35 -39 48.5 -59.5t23.5 -49.5h4q19 28 38.5 46.5t73.5 62.5l127 102h103zM1292 1434v-2l-1181 -1360v-4q43 14 200 14h756l-59 -82h-1059v4l1184 1364l-3 4q-66 -20 -204 -20h-629l59 82h936z" />
    <glyph glyph-name="zcaron" unicode="&#x17e;" horiz-adv-x="919" 
d="M590 1112l-184 309l2 6h79l107 -174q34 -54 45 -100h4q16 29 31 46.5t51 53.5l170 174h102l-2 -6l-303 -309h-102zM-57 0l-2 10l874 879l-2 4q-38 -13 -78.5 -17t-136.5 -4h-410l62 74h717l2 -8l-871 -879l2 -4q37 12 66.5 15.5t101.5 3.5h531l-68 -74h-788z" />
    <glyph glyph-name="florin" unicode="&#x192;" horiz-adv-x="860" 
d="M866 1403q43 0 92 -8l-14 -70q-52 8 -88 8q-98 0 -175 -66t-99 -192l-15 -82q-6 -33 -16 -49l2 -2q12 4 53 4h264l-12 -61h-264q-41 0 -51 4l-2 -2q0 -31 -4 -49l-183 -947q-32 -163 -103 -233t-218 -70q-54 0 -121 6l12 70q59 -6 121 -6q94 0 148.5 54t80.5 184l185 942
q8 38 16 49l-2 2q-14 -4 -55 -4h-221l12 61h221q41 0 53 -4l2 2q-3 18 4 49l19 97q63 313 358 313z" />
    <glyph glyph-name="AEacute" unicode="&#x1fc;" horiz-adv-x="1802" 
d="M1810 1741l-276 -219h-66v6l232 219h110v-6zM1354 1356q-42 0 -54 4l-2 -2q3 -18 -4 -49l-82 -428q-7 -32 -16 -50l2 -2q15 5 53 5h525l-15 -78h-524q-41 0 -53 4l-2 -2q3 -18 -4 -49l-113 -584q-7 -31 -16 -49l2 -2q12 4 53 4h590l-15 -78h-718l86 440q8 38 14 49v3
q-17 -5 -55 -5h-531l-430 -487h-106l1261 1434h748l-15 -78h-579zM1020 561q41 0 53 -4l2 2q-3 18 4 49l131 654q8 40 27 106h-4q-24 -37 -80 -98l-557 -645q-38 -47 -80 -70v-2q37 8 117 8h387z" />
    <glyph glyph-name="aeacute" unicode="&#x1fd;" horiz-adv-x="1863" 
d="M1391 1448l-2 -10l-291 -305h-66l2 12l246 303h111zM1276 -33q-163 0 -268 82.5t-129 239.5h-7q-101 -320 -454 -320q-157 0 -261 84.5t-104 237.5q0 150 108.5 252t299.5 102q156 0 251.5 -64t125.5 -163l6 2l14 82q25 137 25 184q0 109 -65 161t-195 52
q-144 0 -340 -47l-19 78q190 47 359 47q52 0 95 -6t86.5 -23t73 -44t49 -72.5t21.5 -106.5h4q67 118 182.5 185t260.5 67q98 0 175 -30t124.5 -82t71.5 -119.5t24 -145.5q0 -60 -18 -131h-756q-45 0 -72 8l-2 -2v-16q-6 -34 -6 -68q0 -160 93 -253t255 -93q84 0 158.5 28.5
t122 65.5t102.5 94l57 -59q-43 -44 -82 -75.5t-94.5 -64.5t-124 -50t-147.5 -17zM954 524q30 15 74 15h606q39 0 76 -13l2 2v70q0 138 -84.5 220.5t-236.5 82.5q-82 0 -153 -24.5t-120 -63.5t-85.5 -89.5t-55.5 -100t-25 -97.5zM422 47q92 0 177 32.5t142.5 97.5t57.5 147
q0 110 -96.5 176.5t-241.5 66.5q-82 0 -146 -25t-101.5 -66t-56 -88.5t-18.5 -98.5q0 -110 77.5 -176t205.5 -66z" />
    <glyph glyph-name="Oslashacute" unicode="&#x1fe;" horiz-adv-x="1638" 
d="M1360 1741l-277 -219h-65v6l231 219h111v-6zM1491 1282q195 -186 195 -498q0 -173 -63.5 -324.5t-173.5 -259t-265 -169.5t-332 -62q-261 0 -438 123l-115 -127l-43 37l113 123q-109 90 -167.5 224.5t-58.5 299.5q0 173 63.5 324.5t173.5 259t265 169.5t332 62
q284 0 471 -145l129 143l43 -37zM231 641q0 -140 51 -254.5t146 -193.5l958 1058q-164 129 -409 129q-159 0 -297.5 -55.5t-237 -153t-155 -235t-56.5 -295.5zM852 53q159 0 297.5 56t236.5 153.5t154.5 235t56.5 295.5q0 260 -167 421l-955 -1054q153 -107 377 -107z" />
    <glyph glyph-name="oslashacute" unicode="&#x1ff;" horiz-adv-x="1193" 
d="M1059 1438l-291 -305h-66l3 12l245 303h111zM1126 938l-112 -107q98 -115 98 -296q0 -157 -74 -287t-205 -204.5t-290 -74.5q-207 0 -326 107l-111 -105l-36 37l110 105q-98 118 -98 299q0 157 74 286.5t205 204t290 74.5q207 0 326 -107l113 107zM160 406
q0 -143 80 -236l678 645q-109 88 -275 88q-132 0 -243 -66t-175.5 -180.5t-64.5 -250.5zM1034 541q0 138 -78 235l-680 -645q109 -88 275 -88q132 0 243 66.5t175.5 181t64.5 250.5z" />
    <glyph glyph-name="Scommaaccent" unicode="&#x218;" horiz-adv-x="1064" 
d="M524 -31q-304 0 -528 221l59 66q215 -203 473 -203q158 0 244 71.5t86 203.5q0 92 -46 166.5t-157 162.5l-149 119q-118 93 -170.5 180t-52.5 187q0 149 99 235t269 86q109 0 206.5 -35t215.5 -118l-57 -76q-180 145 -367 145q-129 0 -203.5 -64t-74.5 -173
q0 -153 180 -293l172 -133q118 -91 170.5 -182t52.5 -205q0 -172 -110.5 -266.5t-311.5 -94.5zM569 -104l-180 -336h-57l139 336h98z" />
    <glyph glyph-name="scommaaccent" unicode="&#x219;" horiz-adv-x="817" 
d="M43 201q89 -83 169 -119.5t175 -36.5q105 0 162 43t57 121q0 56 -31.5 101.5t-101.5 92.5l-113 76q-100 67 -141 127t-41 137q0 107 75 170.5t202 63.5q162 0 311 -105l-47 -69q-141 98 -266 98q-89 0 -141 -43.5t-52 -118.5q0 -54 30 -93.5t113 -96.5l111 -76
q98 -67 136 -124.5t38 -137.5q0 -117 -78.5 -179.5t-226.5 -62.5q-114 0 -207 39.5t-190 128.5zM408 -104l-181 -336h-57l139 336h99z" />
    <glyph glyph-name="uni021A" unicode="&#x21a;" horiz-adv-x="1040" 
d="M1206 1434l-14 -78h-408q-41 0 -53 4l-2 -2q4 -23 -2 -49l-254 -1309h-86l254 1309q8 38 14 49l-2 2q-12 -4 -53 -4h-407l14 78h999zM465 -104l-180 -336h-58l140 336h98z" />
    <glyph glyph-name="uni021B" unicode="&#x21b;" horiz-adv-x="616" 
d="M541 1452l-90 -459q-7 -30 -21 -53v-2q18 8 59 8h158l-12 -65h-158q-41 0 -55 8l-2 -2q6 -25 0 -53l-162 -834h-78l162 834q8 37 20 53l-2 2q-18 -8 -59 -8h-160l13 65h159q42 0 56 -8l4 2q-7 20 0 53l76 391l83 68h9zM254 -104l-180 -336h-58l140 336h98z" />
    <glyph glyph-name="uni0237" unicode="&#x237;" horiz-adv-x="385" 
d="M324 946l-218 -1118q-28 -144 -100.5 -206t-212.5 -62h-18l14 75h23q87 0 141.5 44t75.5 149l217 1118h78z" />
    <glyph glyph-name="uni02BC" unicode="&#x2bc;" horiz-adv-x="337" 
d="M358 1495h97l-203 -412h-41z" />
    <glyph glyph-name="circumflex" unicode="&#x2c6;" horiz-adv-x="796" 
d="M639 1448l184 -309l-2 -6h-84l-106 174q-34 54 -43 100h-4q-28 -46 -82 -100l-174 -174h-97l2 6l304 309h102z" />
    <glyph glyph-name="caron" unicode="&#x2c7;" horiz-adv-x="794" 
d="M471 1112l-184 309l2 6h80l106 -174q34 -54 45 -100h4q16 29 31 46.5t51 53.5l170 174h103l-2 -6l-304 -309h-102z" />
    <glyph glyph-name="breve" unicode="&#x2d8;" horiz-adv-x="761" 
d="M522 1147q-111 0 -175 58.5t-64 162.5q0 32 6 66h69q-4 -36 -4 -54q0 -78 45 -120.5t129 -42.5q94 0 161 58t87 159h70q-24 -143 -111.5 -215t-212.5 -72z" />
    <glyph glyph-name="dotaccent" unicode="&#x2d9;" horiz-adv-x="294" 
d="M379 1434l-51 -265h-90l51 265h90z" />
    <glyph glyph-name="ring" unicode="&#x2da;" horiz-adv-x="692" 
d="M526 1530q104 0 164 -62t60 -159q0 -110 -73.5 -184t-189.5 -74q-106 0 -165.5 62t-59.5 159q0 110 73.5 184t190.5 74zM522 1473q-90 0 -144 -56t-54 -143q0 -77 44.5 -121.5t123.5 -44.5q88 0 142 56t54 143q0 77 -44 121.5t-122 44.5z" />
    <glyph glyph-name="ogonek" unicode="&#x2db;" horiz-adv-x="516" 
d="M113 -383q-75 0 -113.5 31t-38.5 88q0 79 75.5 153t237.5 166l52 -35q-152 -99 -218.5 -158.5t-66.5 -115.5q0 -59 88 -59q54 0 119 14l-10 -70q-68 -14 -125 -14z" />
    <glyph glyph-name="tilde" unicode="&#x2dc;" horiz-adv-x="868" 
d="M750 1208q-40 0 -89.5 18.5t-87.5 40t-80.5 40t-70.5 18.5q-62 0 -117 -90l-51 20q1 2 16 27t22 35.5t25.5 32.5t34.5 32t41.5 19.5t52.5 9.5q51 0 115 -29.5t121.5 -58.5t91.5 -29q60 0 115 90l51 -20q-2 -4 -15.5 -27t-21.5 -35t-25.5 -33t-34 -32t-41.5 -20t-52 -9z
" />
    <glyph glyph-name="hungarumlaut" unicode="&#x2dd;" horiz-adv-x="645" 
d="M231 1133v6l256 311h78v-6l-264 -311h-70zM397 1133v6l256 311h78v-6l-264 -311h-70z" />
    <glyph glyph-name="gravecomb" unicode="&#x300;" horiz-adv-x="0" 
d="M-98 1448l127 -303l-2 -12h-66l-172 305l2 10h111z" />
    <glyph glyph-name="acutecomb" unicode="&#x301;" horiz-adv-x="0" 
d="M88 1448l-2 -10l-291 -305h-65l2 12l245 303h111z" />
    <glyph glyph-name="uni0302" unicode="&#x302;" horiz-adv-x="0" 
d="M-158 1448l185 -309l-2 -6h-84l-107 174q-34 54 -43 100h-4q-28 -46 -82 -100l-174 -174h-96l2 6l303 309h102z" />
    <glyph glyph-name="tildecomb" unicode="&#x303;" horiz-adv-x="0" 
d="M-119 1208q-40 0 -89.5 18.5t-87.5 40t-80 40t-70 18.5q-62 0 -117 -90l-51 20q1 2 16 27t22 35.5t25.5 32.5t34.5 32t41.5 19.5t52.5 9.5q51 0 115 -29.5t121.5 -58.5t91.5 -29q59 0 114 90l52 -20q-2 -3 -16 -27t-21.5 -35t-25.5 -32.5t-34 -32.5t-41.5 -20t-52.5 -9z
" />
    <glyph glyph-name="uni0304" unicode="&#x304;" horiz-adv-x="0" 
d="M68 1350l-15 -70h-555l15 70h555z" />
    <glyph glyph-name="uni0306" unicode="&#x306;" horiz-adv-x="0" 
d="M-240 1147q-111 0 -175 58.5t-64 162.5q0 32 6 66h70q-5 -45 -5 -54q0 -78 45 -120.5t130 -42.5q94 0 160.5 58t86.5 159h70q-24 -143 -111.5 -215t-212.5 -72z" />
    <glyph glyph-name="uni0307" unicode="&#x307;" horiz-adv-x="0" 
d="M84 1434l-51 -265h-90l51 265h90z" />
    <glyph glyph-name="uni0308" unicode="&#x308;" horiz-adv-x="0" 
d="M-236 1434l-47 -246h-102l47 246h102zM84 1434l-47 -246h-103l48 246h102z" />
    <glyph glyph-name="uni030A" unicode="&#x30a;" horiz-adv-x="0" 
d="M-168 1530q104 0 163.5 -62t59.5 -159q0 -110 -73.5 -184t-188.5 -74q-106 0 -165.5 62t-59.5 159q0 110 73.5 184t190.5 74zM-172 1473q-90 0 -144.5 -56t-54.5 -143q0 -77 44.5 -121.5t123.5 -44.5q88 0 142.5 56t54.5 143q0 77 -44 121.5t-122 44.5z" />
    <glyph glyph-name="uni030B" unicode="&#x30b;" horiz-adv-x="0" 
d="M-414 1133v6l256 311h78v-6l-264 -311h-70zM-248 1133v6l256 311h78v-6l-264 -311h-70z" />
    <glyph glyph-name="uni030C" unicode="&#x30c;" horiz-adv-x="0" 
d="M-324 1112l-184 309l2 6h80l107 -174q34 -54 45 -100h4q16 29 31 46.5t51 53.5l170 174h102l-2 -6l-303 -309h-103z" />
    <glyph glyph-name="uni0326" unicode="&#x326;" horiz-adv-x="0" 
d="M-215 -104l-180 -336h-58l140 336h98z" />
    <glyph glyph-name="uni0327" unicode="&#x327;" horiz-adv-x="0" 
d="M-317 14l-62 -106q139 -29 139 -123q0 -34 -16.5 -64t-38.5 -51t-65.5 -44.5t-74.5 -37.5t-89 -37l-13 41q120 59 167.5 94.5t47.5 77.5q0 33 -32.5 51.5t-106.5 32.5l92 166h52z" />
    <glyph glyph-name="uni0328" unicode="&#x328;" horiz-adv-x="0" 
d="M-403 -383q-75 0 -113.5 31t-38.5 88q0 79 75.5 153t237.5 166l52 -35q-152 -99 -218.5 -158.5t-66.5 -115.5q0 -59 88 -59q54 0 119 14l-11 -70q-68 -14 -124 -14z" />
    <glyph glyph-name="uni0394" unicode="&#x394;" horiz-adv-x="1286" 
d="M596 1434l557 -1434h-1204l557 1434h90zM551 1358l-496 -1317h992z" />
    <glyph glyph-name="uni03A9" unicode="&#x3a9;" horiz-adv-x="1761" 
d="M899 1464q168 0 307.5 -53.5t235 -148.5t148 -226t52.5 -284q0 -271 -167 -451.5t-447 -232.5l2 -5q79 11 135 11h422v-74h-606v123q266 41 424 214t158 417q0 178 -78.5 321.5t-231 229.5t-354.5 86q-153 0 -280 -50t-210.5 -136t-129.5 -200.5t-46 -244.5
q0 -248 159 -422t425 -215v-123h-606v74h422q70 0 135 -11l-2 5q-277 52 -444.5 235t-167.5 461q0 147 52.5 275t148 222.5t236 148.5t308.5 54z" />
    <glyph glyph-name="pi" unicode="&#x3c0;" 
d="M1268 977l-15 -72h-235l-176 -905h-74l176 905h-407l-377 -905h-76l377 905h-25q-170 0 -303 -41l14 72q125 41 291 41h830z" />
    <glyph glyph-name="uni0401" unicode="&#x401;" horiz-adv-x="1048" 
d="M637 1747h102l-43 -225h-102zM956 1747h103l-43 -225h-103zM1143 1434l-15 -78h-647q-41 0 -53 4l-2 -2q3 -18 -4 -49l-82 -428q-7 -32 -16 -50l2 -2q15 5 53 5h584l-15 -78h-583q-42 0 -54 4l-2 -2q3 -18 -4 -49l-112 -584q-6 -27 -17 -49l2 -2q12 4 53 4h658l-15 -78
h-792l278 1434h783z" />
    <glyph glyph-name="uni0402" unicode="&#x402;" horiz-adv-x="1402" 
d="M1032 831q158 0 230.5 -56t72.5 -185q0 -44 -10 -96l-14 -74l-13 -60q-16 -79 -33 -130t-48 -98.5t-75 -74t-112 -42t-162 -15.5h-161l14 78h164q82 0 139.5 16.5t95 53.5t60 87t37.5 125l12 60l14 74q8 39 8 77q0 99 -61 136.5t-182 37.5q-191 0 -508 -83l-129 -662h-86
l198 1020l56 289q5 31 14 49l-2 2q-12 -4 -53 -4h-305l14 78h1020l-15 -78h-530q-41 0 -53 4l-2 -2q4 -23 -2 -49l-56 -289l-43 -221q-6 -28 -16 -49l2 -2q113 32 257 57.5t263 25.5z" />
    <glyph glyph-name="uni0403" unicode="&#x403;" horiz-adv-x="993" 
d="M1077 1747v-6l-276 -219h-66v6l232 219h110zM82 0l278 1434h799l-14 -78h-664q-41 0 -53 4l-2 -2q3 -18 -4 -49l-254 -1309h-86z" />
    <glyph glyph-name="uni0404" unicode="&#x404;" horiz-adv-x="1476" 
d="M1004 1464q278 0 493 -164l-53 -69q-195 149 -451 149q-286 0 -481.5 -158t-257.5 -413q-10 -31 -23 -57l2 -2q18 6 56 6h676l-15 -78h-663q-39 0 -54 6l-4 -2v-27q0 -292 150 -447t428 -155q133 0 242 38.5t223 111.5l47 -72q-125 -83 -250.5 -122.5t-275.5 -39.5
q-308 0 -481 174t-173 473q0 243 106 435t304 302.5t455 110.5z" />
    <glyph glyph-name="uni0405" unicode="&#x405;" horiz-adv-x="1064" 
d="M524 -31q-304 0 -528 221l59 66q215 -203 473 -203q158 0 244 71.5t86 203.5q0 92 -46 166.5t-157 162.5l-149 119q-118 93 -170.5 180t-52.5 187q0 149 99 235t269 86q109 0 206.5 -35t215.5 -118l-57 -76q-180 145 -367 145q-129 0 -203.5 -64t-74.5 -173
q0 -153 180 -293l172 -133q118 -91 170.5 -182t52.5 -205q0 -172 -110.5 -266.5t-311.5 -94.5z" />
    <glyph glyph-name="uni0406" unicode="&#x406;" horiz-adv-x="434" 
d="M446 1434l-278 -1434h-86l278 1434h86z" />
    <glyph glyph-name="uni0407" unicode="&#x407;" horiz-adv-x="434" 
d="M252 1747h102l-43 -225h-102zM571 1747h103l-43 -225h-103zM446 1434l-278 -1434h-86l278 1434h86z" />
    <glyph glyph-name="uni0408" unicode="&#x408;" horiz-adv-x="546" 
d="M559 1434l-229 -1182q-27 -142 -99 -202t-198 -60q-34 0 -74 4l16 82q36 -4 66 -4q85 0 135.5 45.5t71.5 152.5l225 1164h86z" />
    <glyph glyph-name="uni0409" unicode="&#x409;" horiz-adv-x="2195" 
d="M1720 795q197 0 312.5 -88.5t115.5 -268.5q0 -197 -136 -317.5t-378 -120.5h-481l193 989l63 320q8 38 14 49l-2 2q-12 -4 -53 -4h-733q-41 0 -51 4l-4 -2q4 -23 -2 -49l-82 -422l-121 -617q-29 -150 -100 -215t-201 -65q-82 0 -115 4l16 82q31 -4 107 -4
q85 0 135.5 45.5t71.5 152.5l121 617l106 547h1002l-86 -445l-29 -147q-6 -27 -17 -49l3 -2q12 4 53 4h278zM1634 78q207 0 316.5 99.5t109.5 258.5q0 140 -89.5 210.5t-254.5 70.5h-291q-41 0 -53 4l-2 -2q4 -23 -2 -49l-104 -545q-6 -27 -17 -49l2 -2q12 4 54 4h331z" />
    <glyph glyph-name="uni040A" unicode="&#x40a;" horiz-adv-x="2070" 
d="M82 0l278 1434h86l-114 -592q-6 -27 -17 -49l2 -2q12 4 54 4h798q42 0 54 -4l2 2q-3 18 4 49l114 592h87l-115 -592q-6 -27 -17 -49l2 -2q12 4 54 4h241q197 0 312.5 -88.5t115.5 -268.5q0 -197 -136 -317.5t-378 -120.5h-444l131 670q8 38 14 49l-2 2q-12 -4 -53 -4
h-799q-41 0 -53 4l-2 -2q4 -23 -2 -49l-131 -670h-86zM1161 74q12 4 53 4h295q207 0 316.5 99.5t109.5 258.5q0 140 -89.5 210.5t-254.5 70.5h-252q-41 0 -53 4l-2 -2q4 -23 -2 -49l-106 -545q-6 -27 -17 -49z" />
    <glyph glyph-name="uni040B" unicode="&#x40b;" horiz-adv-x="1458" 
d="M975 899q73 0 129 -14t101 -46t69 -89.5t24 -139.5q0 -68 -18 -157l-90 -453h-86l90 469q14 69 14 127q0 124 -63 170.5t-187 46.5q-88 0 -185 -19.5t-243 -64.5l-143 -729h-86l199 1020l55 289q5 31 14 49l-2 2q-12 -4 -53 -4h-321l14 78h999l-14 -78h-492q-41 0 -53 4
l-2 -2q4 -23 -2 -49l-55 -289l-31 -154q-6 -28 -16 -49l2 -2q235 84 432 84z" />
    <glyph glyph-name="uni040C" unicode="&#x40c;" horiz-adv-x="1247" 
d="M1071 1747v-6l-276 -219h-66v6l232 219h110zM1016 -4q-199 0 -219 197l-41 362q-9 88 -56.5 126t-152.5 38h-185q-49 0 -61 4l-4 -2q3 -37 -6 -86l-123 -635h-86l278 1434h86l-108 -560q-7 -34 -27 -81l2 -2q24 6 66 6h184q105 0 167.5 42t125.5 160l143 267
q51 93 125.5 132.5t182.5 39.5q25 0 65 -4l-16 -82q-36 4 -58 4q-82 0 -134 -31t-89 -98l-145 -266q-58 -107 -121.5 -151.5t-159.5 -47.5v-4q92 -4 136 -45.5t53 -130.5l39 -355q9 -87 45 -119t112 -32q26 0 76 4l-16 -80q-54 -4 -78 -4z" />
    <glyph glyph-name="uni040E" unicode="&#x40e;" horiz-adv-x="1239" 
d="M1116 1767q-23 -127 -104.5 -196.5t-210.5 -69.5q-112 0 -179 52.5t-67 146.5q0 21 8 67h66q-4 -32 -4 -47q0 -72 43.5 -111.5t132.5 -39.5q102 0 163.5 52.5t82.5 145.5h69zM168 -10q-53 0 -121 14l21 86q72 -14 112 -14q45 0 80.5 8.5t84.5 35.5t104.5 88.5
t117.5 156.5l-350 1069h92l271 -832q11 -33 16.5 -49t11 -35.5t7 -24.5t3.5 -20t2 -17t0.5 -21t0.5 -27l6 2q14 45 35.5 85.5t70.5 112.5l561 826h101l-777 -1147q-64 -97 -126 -159.5t-120.5 -91t-103 -37.5t-100.5 -9z" />
    <glyph glyph-name="uni040F" unicode="&#x40f;" horiz-adv-x="1421" 
d="M520 -287l47 240q8 34 15 49l-2 2q-12 -4 -54 -4h-444l278 1434h86l-253 -1309q-6 -27 -17 -49l2 -2q12 4 53 4h803q41 0 53 -4l3 2q-3 18 4 49l254 1309h86l-279 -1434h-444q-42 0 -54 4l-2 -2q4 -23 -2 -49l-47 -240h-86z" />
    <glyph glyph-name="uni0410" unicode="&#x410;" horiz-adv-x="1341" 
d="M-61 0l919 1464h10l351 -1464h-86l-119 487h-670l-305 -487h-100zM381 557q62 4 115 4h395q53 0 115 -4v2q-17 33 -37 119l-105 467q-25 115 -22 178h-2q-26 -71 -90 -178l-287 -467q-52 -84 -82 -119v-2z" />
    <glyph glyph-name="uni0411" unicode="&#x411;" horiz-adv-x="1236" 
d="M481 1356q-41 0 -53 4l-2 -2q3 -18 -4 -49l-37 -189l-53 -278q-6 -27 -17 -49l2 -2q12 4 54 4h299q197 0 312.5 -88.5t115.5 -268.5q0 -197 -136 -317.5t-378 -120.5h-502l217 1120l61 314h818l-15 -78h-682zM354 717q-41 0 -53 4l-2 -2q4 -23 -2 -49l-104 -545
q-6 -27 -17 -49l2 -2q12 4 53 4h353q207 0 316.5 99.5t109.5 258.5q0 140 -89.5 210.5t-254.5 70.5h-312z" />
    <glyph glyph-name="uni0412" unicode="&#x412;" horiz-adv-x="1290" 
d="M82 0l278 1434h449q180 0 280.5 -82t100.5 -230q0 -116 -63 -200.5t-183 -128.5q-65 -26 -143 -33l-2 -8q74 -2 137 -19q215 -69 215 -303q0 -196 -149 -313t-398 -117h-522zM317 788q10 5 54 5h297q204 0 317 85.5t113 239.5q0 117 -76.5 177.5t-224.5 60.5h-316
q-41 0 -53 4l-2 -2q2 -12 -4 -49l-90 -469q-5 -27 -17 -49zM178 74q8 4 53 4h369q215 0 337 94.5t122 261.5q0 140 -92.5 212.5t-270.5 72.5h-340q-43 0 -51 4l-4 -2q4 -29 -2 -49l-106 -547q-5 -27 -17 -49z" />
    <glyph glyph-name="uni0413" unicode="&#x413;" horiz-adv-x="993" 
d="M82 0l278 1434h799l-14 -78h-664q-41 0 -53 4l-2 -2q3 -18 -4 -49l-254 -1309h-86z" />
    <glyph glyph-name="uni0414" unicode="&#x414;" horiz-adv-x="1357" 
d="M-117 -287l72 365h117q25 0 41 -8l2 2q3 19 30 61q185 261 285.5 499t159.5 519l55 283h690l-254 -1309q-8 -38 -16 -49l2 -2q14 4 55 4h76l-72 -365h-86l47 240q8 34 15 49v2q-14 -4 -55 -4h-973q-41 0 -51 4l-5 -2q4 -23 -2 -49l-47 -240h-86zM203 72q14 6 59 6h676
q41 0 51 -4l2 2q0 31 4 49l230 1184q7 31 16 49l-2 2q-12 -4 -53 -4h-420q-41 0 -53 4l-2 -2q3 -18 -4 -49l-31 -158q-117 -590 -475 -1077z" />
    <glyph glyph-name="uni0415" unicode="&#x415;" horiz-adv-x="1048" 
d="M1143 1434l-15 -78h-647q-41 0 -53 4l-2 -2q3 -18 -4 -49l-82 -428q-7 -32 -16 -50l2 -2q15 5 53 5h584l-15 -78h-583q-42 0 -54 4l-2 -2q3 -18 -4 -49l-112 -584q-6 -27 -17 -49l2 -2q12 4 53 4h658l-15 -78h-792l278 1434h783z" />
    <glyph glyph-name="uni0416" unicode="&#x416;" horiz-adv-x="1871" 
d="M1931 1438q26 0 66 -4l-17 -82q-36 4 -57 4q-82 0 -134 -31t-89 -98l-146 -266q-58 -107 -121 -151.5t-159 -47.5v-4q93 -5 137.5 -46t50.5 -130l25 -355q6 -86 43.5 -118.5t114.5 -32.5q25 0 75 4l-16 -80q-54 -4 -78 -4q-200 0 -215 197l-27 362q-6 87 -56.5 125.5
t-156.5 38.5h-92q-49 0 -61 4l-4 -2q3 -37 -6 -86l-123 -635h-82l123 635q9 46 26 86v2q-20 -4 -65 -4h-92q-101 0 -161.5 -38t-101.5 -126l-170 -362q-48 -102 -118 -149.5t-178 -47.5q-26 0 -80 4l16 82q50 -4 72 -4q77 0 127 32t88 117l160 355q40 90 103.5 131.5
t156.5 44.5v4q-91 3 -141.5 50t-65.5 149l-39 266q-10 70 -50.5 100.5t-117.5 30.5q-26 0 -62 -4l17 80q40 4 65 4q95 0 151.5 -40t70.5 -132l41 -267q18 -116 70.5 -159t162.5 -43h92q38 0 62 -6l2 2q-3 35 6 81l108 560h82l-108 -560q-7 -34 -27 -81l2 -2q24 6 66 6h92
q105 0 169.5 42.5t127.5 159.5l143 267q93 172 303 172z" />
    <glyph glyph-name="uni0417" unicode="&#x417;" horiz-adv-x="1300" 
d="M571 -31q-298 0 -540 164l45 70q114 -73 230 -113.5t265 -40.5q223 0 343 95t120 266q0 88 -31.5 152t-87.5 99.5t-122 51.5t-146 16h-203l15 72h200q114 0 215.5 39t168.5 119t67 184q0 120 -88.5 180.5t-255.5 60.5q-105 0 -226.5 -21.5t-222.5 -57.5l-22 75
q256 84 477 84q209 0 317.5 -82t108.5 -233q0 -132 -78 -224t-221 -134q-82 -24 -184 -29l-2 -4q80 0 164 -15q105 -21 174 -101t69 -222q0 -70 -17 -133t-58 -122t-102.5 -102t-156.5 -68.5t-215 -25.5z" />
    <glyph glyph-name="uni0418" unicode="&#x418;" horiz-adv-x="1431" 
d="M1434 1454h14l-283 -1454h-86l195 1001q30 153 65 259l-4 2q-34 -53 -143 -166l-1100 -1116h-14l282 1454h86l-194 -1002q-28 -143 -66 -258l4 -2q32 50 144 166z" />
    <glyph glyph-name="uni0419" unicode="&#x419;" horiz-adv-x="1431" 
d="M1251 1767q-23 -127 -104.5 -196.5t-210.5 -69.5q-112 0 -179 52.5t-67 146.5q0 21 8 67h66q-4 -32 -4 -47q0 -72 43.5 -111.5t132.5 -39.5q102 0 163.5 52.5t82.5 145.5h69zM1434 1454h14l-283 -1454h-86l195 1001q30 153 65 259l-4 2q-34 -53 -143 -166l-1100 -1116
h-14l282 1454h86l-194 -1002q-28 -143 -66 -258l4 -2q32 50 144 166z" />
    <glyph glyph-name="uni041A" unicode="&#x41a;" horiz-adv-x="1247" 
d="M1016 -4q-199 0 -219 197l-41 362q-9 88 -56.5 126t-152.5 38h-185q-49 0 -61 4l-4 -2q3 -37 -6 -86l-123 -635h-86l278 1434h86l-108 -560q-7 -34 -27 -81l2 -2q24 6 66 6h184q105 0 167.5 42t125.5 160l143 267q51 93 125.5 132.5t182.5 39.5q25 0 65 -4l-16 -82
q-36 4 -58 4q-82 0 -134 -31t-89 -98l-145 -266q-58 -107 -121.5 -151.5t-159.5 -47.5v-4q92 -4 136 -45.5t53 -130.5l39 -355q9 -87 45 -119t112 -32q26 0 76 4l-16 -80q-54 -4 -78 -4z" />
    <glyph glyph-name="uni041B" unicode="&#x41b;" horiz-adv-x="1505" 
d="M1518 1434l-115 -588l-164 -846h-86l164 846l90 463q8 38 14 49v2q-14 -4 -55 -4h-731q-41 0 -51 4l-4 -2q4 -23 -2 -49l-82 -422l-121 -617q-29 -150 -100 -215t-201 -65q-64 0 -115 4l16 82q45 -4 107 -4q85 0 135.5 45.5t71.5 152.5l121 617l106 547h1002z" />
    <glyph glyph-name="uni041C" unicode="&#x41c;" horiz-adv-x="1732" 
d="M764 -31l-172 1022q-19 115 -19 232h-6q-18 -85 -86 -234l-450 -989h-92l661 1464h6l178 -1102q17 -102 17 -198h8q40 108 90 198l610 1102h7l94 -1464h-92l-56 989q-7 161 4 234h-6q-5 -12 -17.5 -43t-21 -51t-27 -58t-42.5 -80l-580 -1022h-8z" />
    <glyph glyph-name="uni041D" unicode="&#x41d;" horiz-adv-x="1421" 
d="M1434 1434l-279 -1434h-86l133 684q8 35 17 49l-2 2q-14 -4 -56 -4h-803q-41 0 -51 4l-2 -2q0 -31 -4 -49l-133 -684h-86l278 1434h86l-112 -578q-8 -34 -15 -49v-2q14 4 56 4h803q41 0 51 -4l4 2q-4 23 2 49l113 578h86z" />
    <glyph glyph-name="uni041E" unicode="&#x41e;" horiz-adv-x="1679" 
d="M852 -31q-324 0 -516.5 184.5t-192.5 495.5q0 173 63.5 324.5t173.5 259t265 169.5t332 62q324 0 516.5 -184.5t192.5 -495.5q0 -173 -63.5 -324.5t-173.5 -259t-265 -169.5t-332 -62zM852 53q159 0 297.5 56t236.5 153.5t154.5 235t56.5 295.5q0 263 -171 425t-449 162
q-159 0 -297.5 -55.5t-237 -153t-155 -235t-56.5 -295.5q0 -263 171.5 -425.5t449.5 -162.5z" />
    <glyph glyph-name="uni041F" unicode="&#x41f;" horiz-adv-x="1421" 
d="M82 0l278 1434h1074l-279 -1434h-86l254 1309q7 31 16 49l-2 2q-12 -4 -53 -4h-803q-41 0 -53 4l-2 -2q3 -18 -4 -49l-254 -1309h-86z" />
    <glyph glyph-name="uni0420" unicode="&#x420;" horiz-adv-x="1073" 
d="M776 1434q171 0 270 -91t99 -249q0 -186 -132 -300t-349 -114h-314q-41 0 -53 4l-2 -2q1 -4 -4 -49l-123 -633h-86l278 1434h416zM428 1360l-2 -2q1 -4 -4 -49l-98 -504q-5 -20 -15 -49l2 -2q8 4 54 4h301q180 0 285.5 90t105.5 242q0 126 -73.5 196t-205.5 70h-297
q-41 0 -53 4z" />
    <glyph glyph-name="uni0421" unicode="&#x421;" horiz-adv-x="1474" 
d="M791 -31q-305 0 -479.5 172.5t-174.5 474.5q0 182 65 339.5t179 269t274.5 175.5t345.5 64q282 0 494 -164l-53 -69q-205 149 -451 149q-215 0 -390.5 -99t-275.5 -273t-100 -387q0 -268 153 -418t427 -150q117 0 226.5 35.5t238.5 114.5l47 -72q-128 -85 -253 -123.5
t-273 -38.5z" />
    <glyph glyph-name="uni0422" unicode="&#x422;" horiz-adv-x="1040" 
d="M1206 1434l-14 -78h-408q-41 0 -53 4l-2 -2q4 -23 -2 -49l-254 -1309h-86l254 1309q8 38 14 49l-2 2q-12 -4 -53 -4h-407l14 78h999z" />
    <glyph glyph-name="uni0423" unicode="&#x423;" horiz-adv-x="1239" 
d="M168 -10q-53 0 -121 14l21 86q72 -14 112 -14q45 0 80.5 8.5t84.5 35.5t104.5 88.5t117.5 156.5l-350 1069h92l271 -832q11 -33 16.5 -49t11 -35.5t7 -24.5t3.5 -20t2 -17t0.5 -21t0.5 -27l6 2q14 45 35.5 85.5t70.5 112.5l561 826h101l-777 -1147q-64 -97 -126 -159.5
t-120.5 -91t-103 -37.5t-100.5 -9z" />
    <glyph glyph-name="uni0424" unicode="&#x424;" horiz-adv-x="1755" 
d="M748 -20l12 65q5 31 14 49v2q-18 -4 -76 -4q-90 0 -171 21t-151 66t-121 111.5t-80.5 162.5t-29.5 213q0 314 205 494.5t584 180.5q58 0 72 -4l4 2q-4 23 2 50l12 65h78l-12 -65q-5 -30 -15 -50v-2q18 4 76 4q114 0 211.5 -34t175 -101.5t122 -179.5t44.5 -258
q0 -314 -205.5 -495t-583.5 -181q-57 0 -71 4l-4 -2q4 -23 -2 -49l-13 -65h-77zM791 166l2 2q-3 18 4 49l186 1000q8 38 16 49l-2 2q-18 -4 -75 -4q-169 0 -301.5 -45t-216.5 -126.5t-127.5 -190.5t-43.5 -240q0 -102 26 -185t70.5 -139.5t106.5 -95t132 -55.5t149 -17
q58 0 74 -4zM852 166q16 4 74 4q169 0 301.5 45t217 125.5t128 189.5t43.5 240q0 126 -39 223t-107.5 155t-154 87t-185.5 29q-57 0 -71 4l-2 -2q0 -31 -4 -49l-187 -1000q-6 -28 -16 -49z" />
    <glyph glyph-name="uni0425" unicode="&#x425;" horiz-adv-x="1200" 
d="M1286 1434l-393 -455q-44 -51 -205 -227l-2 -4q33 -49 107 -205l264 -543h-103l-237 502q-68 142 -80 188h-4q-10 -17 -24 -36t-24.5 -31.5t-44 -52t-55.5 -64.5l-428 -506h-118l471 547q6 7 48 56.5t79.5 91t60.5 61.5l2 4q-22 33 -113 223l-219 451h103l198 -428
q11 -24 28.5 -61t25 -53t15 -37t11.5 -38h4q8 15 23.5 35t30.5 37.5t45 52t51 59.5l364 433h119z" />
    <glyph glyph-name="uni0426" unicode="&#x426;" horiz-adv-x="1396" 
d="M1085 -287l48 240q8 38 14 49l-2 2q-12 -4 -53 -4h-1010l278 1434h86l-253 -1309q-6 -27 -17 -49l2 -2q12 4 53 4h742q41 0 53 -4l2 2q-3 18 4 49l254 1309h86l-254 -1309q-7 -31 -16 -49l2 -2q12 4 53 4h80l-70 -365h-82z" />
    <glyph glyph-name="uni0427" unicode="&#x427;" horiz-adv-x="1177" 
d="M825 0l125 631q5 25 17 49l-2 2q-257 -84 -457 -84q-176 0 -270.5 69.5t-94.5 225.5q0 53 17 143l82 398h86l-86 -437q-11 -51 -11 -94q0 -64 20.5 -108t60.5 -67.5t89.5 -33.5t116.5 -10q98 0 201 20.5t258 67.5l127 662h86l-279 -1434h-86z" />
    <glyph glyph-name="uni0428" unicode="&#x428;" horiz-adv-x="2150" 
d="M82 0l278 1434h86l-253 -1309q-6 -27 -17 -49l2 -2q12 4 53 4h674q41 0 53 -4l3 2q-3 18 4 49l254 1309h86l-254 -1309q-6 -27 -17 -49l2 -2q12 4 54 4h673q42 0 54 -4l2 2q-3 18 4 49l254 1309h86l-279 -1434h-1802z" />
    <glyph glyph-name="uni0429" unicode="&#x429;" horiz-adv-x="2185" 
d="M1946 78h79l-69 -365h-86l47 240q8 38 14 49l-2 2q-12 -4 -53 -4h-1794l278 1434h84l-254 -1309q-7 -31 -16 -49l2 -2q12 4 53 4h674q41 0 53 -4l2 2q-3 15 5 49l254 1309h86l-254 -1309q-6 -27 -17 -49l2 -2q12 4 53 4h674q42 0 54 -4l2 2q-3 18 4 49l254 1309h86
l-254 -1309q-6 -27 -17 -49l2 -2q12 4 54 4z" />
    <glyph glyph-name="uni042A" unicode="&#x42a;" horiz-adv-x="1359" 
d="M885 795q197 0 312.5 -88.5t115.5 -268.5q0 -197 -136 -317.5t-378 -120.5h-502l192 989l64 320q8 38 14 49l-2 2q-12 -4 -53 -4h-319l14 78h455l-87 -445l-28 -147q-6 -27 -17 -49l2 -2q12 4 54 4h299zM799 78q207 0 316.5 99.5t109.5 258.5q0 140 -89.5 210.5
t-254.5 70.5h-312q-41 0 -53 4l-2 -2q4 -23 -2 -49l-104 -545q-6 -27 -17 -49l2 -2q12 4 53 4h353z" />
    <glyph glyph-name="uni042B" unicode="&#x42b;" horiz-adv-x="1478" 
d="M670 795q197 0 312.5 -88.5t115.5 -268.5q0 -197 -136 -317.5t-378 -120.5h-502l192 989l86 445h86l-86 -445l-28 -147q-6 -27 -17 -49l2 -2q12 4 54 4h299zM1405 1434h86l-279 -1434h-86zM584 78q207 0 316.5 99.5t109.5 258.5q0 140 -89.5 210.5t-254.5 70.5h-312
q-41 0 -53 4l-2 -2q4 -23 -2 -49l-104 -545q-6 -27 -17 -49l2 -2q12 4 53 4h353z" />
    <glyph glyph-name="uni042C" unicode="&#x42c;" horiz-adv-x="1144" 
d="M670 795q197 0 312.5 -88.5t115.5 -268.5q0 -197 -136 -317.5t-378 -120.5h-502l192 989l86 445h86l-86 -445l-28 -147q-6 -27 -17 -49l2 -2q12 4 54 4h299zM584 78q207 0 316.5 99.5t109.5 258.5q0 140 -89.5 210.5t-254.5 70.5h-312q-41 0 -53 4l-2 -2q4 -23 -2 -49
l-104 -545q-6 -27 -17 -49l2 -2q12 4 53 4h353z" />
    <glyph glyph-name="uni042D" unicode="&#x42d;" horiz-adv-x="1476" 
d="M569 -31q-278 0 -493 164l53 70q196 -150 451 -150q286 0 481.5 158.5t257.5 413.5q12 36 22 57l-2 2q-18 -6 -55 -6h-676l15 78h663q38 0 53 -6l4 2v26q0 292 -149.5 447t-427.5 155q-133 0 -242 -38t-223 -111l-47 72q125 83 250.5 122t275.5 39q308 0 481 -174
t173 -473q0 -243 -106 -435t-304 -302.5t-455 -110.5z" />
    <glyph glyph-name="uni042E" unicode="&#x42e;" horiz-adv-x="2105" 
d="M1348 1464q324 0 516 -184.5t192 -495.5q0 -231 -107.5 -417.5t-298.5 -292t-427 -105.5q-324 0 -516.5 184.5t-192.5 495.5v29h-168q-29 0 -47 6l-2 -2q1 -8 -6 -53l-123 -629h-86l278 1434h86l-122 -629q-6 -40 -15 -53l2 -2q21 6 51 6h158q24 205 136.5 366t293 251.5
t398.5 90.5zM1223 53q159 0 297.5 56t236.5 153.5t154.5 235t56.5 295.5q0 263 -171 425t-449 162q-159 0 -297.5 -55.5t-237 -153t-155 -235t-56.5 -295.5q0 -263 171.5 -425.5t449.5 -162.5z" />
    <glyph glyph-name="uni042F" unicode="&#x42f;" horiz-adv-x="1167" 
d="M-61 0l632 647q48 48 84 72l-2 2q-27 -6 -65 -6q-59 0 -115.5 17t-108 52.5t-83 101t-31.5 152.5q0 80 27.5 149.5t81 125.5t142 88.5t201.5 32.5h478l-279 -1434h-86l129 666q5 25 17 49l-3 2q-12 -4 -53 -4h-155l-697 -713h-114zM973 786l2 2q-3 18 4 50l90 471
q6 28 16 49l-2 2q-12 -4 -53 -4h-323q-175 0 -272 -84t-97 -236q0 -128 79.5 -186.5t219.5 -58.5h283q38 0 53 -5z" />
    <glyph glyph-name="uni0430" unicode="&#x430;" horiz-adv-x="1069" 
d="M418 -31q-165 0 -265 88.5t-100 235.5q0 157 113 254.5t297 97.5q153 0 249 -68t126 -174l6 3q0 13 14 96q23 135 23 176q0 118 -63 172.5t-204 54.5q-148 0 -331 -47l-19 74q169 45 348 45q346 0 346 -277q0 -49 -14 -129l-110 -571h-78q20 96 49 178l-6 2
q-52 -100 -152.5 -155.5t-228.5 -55.5zM424 47q154 0 264.5 82t110.5 197q0 105 -95 173t-237 68q-149 0 -238.5 -75.5t-89.5 -198.5q0 -114 76.5 -180t208.5 -66z" />
    <glyph glyph-name="uni0431" unicode="&#x431;" horiz-adv-x="1243" 
d="M588 -31q-99 0 -179.5 26t-146.5 82.5t-102.5 156t-36.5 235.5q0 77 11 158t40.5 174.5t75 173t120 150t169.5 110.5q67 28 154.5 48t188.5 35.5t115 18.5q132 25 154 111h76q-13 -72 -61 -111.5t-138 -60.5q-35 -8 -127.5 -23.5t-176 -35t-151.5 -46.5
q-167 -68 -263 -216t-126 -404h6q28 111 80.5 193t122 128t145.5 67.5t162 21.5q206 0 332.5 -114.5t126.5 -322.5q0 -112 -39 -212t-110 -176.5t-180.5 -121.5t-241.5 -45zM602 45q136 0 245.5 64.5t169.5 173.5t60 239q0 175 -106.5 270t-276.5 93q-106 -1 -198.5 -40
t-156 -104t-100 -150t-36.5 -177q0 -169 114 -269t285 -100z" />
    <glyph glyph-name="uni0432" unicode="&#x432;" horiz-adv-x="1042" 
d="M799 477q119 -49 119 -194q0 -128 -95.5 -205.5t-261.5 -77.5h-500l76 387l43 219l66 340h452q127 0 200 -55t73 -160q0 -153 -154 -205q-59 -19 -131 -22l-2 -6q71 -3 115 -21zM258 606h-2l-4 -24q-6 -37 -19 -58l3 -2q20 10 55 10h297q159 0 231 53t72 142
q0 150 -197 150h-336q-41 0 -55 8l-2 -2q6 -25 0 -54zM563 70q138 0 205.5 59t67.5 152q0 86 -61.5 134t-186.5 48h-312q-34 0 -51 10l-2 -2q5 -20 -4 -57l-6 -27h2l-53 -270q-8 -37 -21 -54l2 -2q20 9 60 9h360z" />
    <glyph glyph-name="uni0433" unicode="&#x433;" horiz-adv-x="757" 
d="M61 0l185 946h594l-15 -69h-467q-41 0 -55 8l-2 -2q6 -25 0 -54l-162 -829h-78z" />
    <glyph glyph-name="uni0434" unicode="&#x434;" horiz-adv-x="1087" 
d="M-106 -287l69 357h68q31 0 47 -9l2 2q4 27 22 50q42 56 62 83t65 99t72.5 132t60 153t52.5 192l35 174h559l-162 -829q-8 -37 -21 -54l2 -2q20 9 60 9h51l-70 -357h-77l47 240q8 37 20 53l-2 2q-18 -8 -59 -8h-721q-42 0 -56 8l-2 -2q6 -25 0 -53l-47 -240h-77zM147 61
q20 9 60 9h504q39 0 55 -9l2 2q-6 25 0 54l139 712q8 37 21 54l-2 2q-18 -8 -60 -8h-305q-41 0 -55 8l-2 -2q6 -25 0 -54l-12 -57q-46 -221 -148.5 -425t-198.5 -284z" />
    <glyph glyph-name="uni0435" unicode="&#x435;" horiz-adv-x="1124" 
d="M516 -33q-207 0 -321.5 115t-114.5 324q0 246 161.5 408.5t405.5 162.5q190 0 301 -101.5t111 -275.5q0 -56 -19 -131h-796q-51 0 -72 8l-2 -2v-16q-6 -49 -6 -68q0 -161 96.5 -253.5t263.5 -92.5q113 0 207.5 44t194.5 144l57 -59q-111 -108 -222.5 -157.5t-244.5 -49.5
zM182 524q27 15 74 15h647q22 0 76 -13l2 2v70q0 141 -90.5 222t-247.5 81q-170 0 -307 -111.5t-156 -263.5z" />
    <glyph glyph-name="uni0436" unicode="&#x436;" horiz-adv-x="1333" 
d="M1327 950h68l-15 -69h-61q-79 0 -127 -86l-86 -152q-45 -81 -98.5 -111.5t-135.5 -33.5l-2 -4q79 -3 118 -31t46 -94l21 -193q6 -59 29.5 -84.5t70.5 -25.5h68l-15 -70h-67q-80 0 -118 42t-46 132l-14 152q-6 71 -41 104t-107 33h-57q-48 0 -64 4l-2 -2q3 -37 -6 -86
l-74 -375h-51h-26l73 375q7 40 27 86l-2 2q-16 -4 -64 -4h-57q-130 0 -197 -140l-84 -174q-36 -73 -88 -111t-131 -38h-73l14 70h67q48 0 81.5 27t60.5 83l94 193q32 66 83.5 94t129.5 31l2 4q-82 3 -123 33t-55 112l-27 152q-16 86 -94 86h-61l14 69h68q119 0 141 -119
l31 -159q14 -76 51 -110t110 -34h58q45 0 61 -4l2 2q-3 35 6 82l66 338h51h27l-66 -338q-9 -47 -26 -82l2 -2q16 4 65 4h57q68 0 112.5 33t88.5 111l92 159q69 119 205 119z" />
    <glyph glyph-name="uni0437" unicode="&#x437;" horiz-adv-x="940" 
d="M391 -31q-231 0 -426 113l47 72q178 -111 387 -111q165 0 249.5 58.5t84.5 160.5q0 97 -75.5 150t-213.5 53h-211l15 70h211q141 0 231 51.5t90 154.5q0 162 -237 162q-166 0 -379 -84l-27 70q226 88 410 88q311 0 311 -225q0 -108 -77.5 -173t-231.5 -75l-2 -6
q117 -7 190.5 -63.5t73.5 -170.5q0 -46 -12.5 -86.5t-43 -79.5t-77 -67t-120.5 -45t-167 -17z" />
    <glyph glyph-name="uni0438" unicode="&#x438;" horiz-adv-x="1085" 
d="M57 -20l189 966h78l-109 -553q-29 -155 -57 -246l4 -2q47 68 137 152l719 670h10l-188 -967h-78l108 553q28 146 58 246l-4 2q-45 -65 -138 -152l-718 -669h-11z" />
    <glyph glyph-name="uni0439" unicode="&#x439;" horiz-adv-x="1085" 
d="M666 1024q-111 0 -175.5 58.5t-64.5 162.5q0 31 6 66h70q-4 -36 -4 -54q0 -78 45 -120.5t129 -42.5q94 0 161 58t87 159h69q-24 -143 -111 -215t-212 -72zM57 -20l189 966h78l-109 -553q-29 -155 -57 -246l4 -2q47 68 137 152l719 670h10l-188 -967h-78l108 553
q28 146 58 246l-4 2q-45 -65 -138 -152l-718 -669h-11z" />
    <glyph glyph-name="uni043A" unicode="&#x43a;" horiz-adv-x="931" 
d="M739 -4q-80 0 -118 42t-46 132l-14 152q-6 71 -41 104t-106 33h-129q-48 0 -64 4l-2 -2q3 -37 -6 -86l-74 -375h-78l185 946h78l-66 -338q-8 -44 -27 -82l2 -2q16 4 66 4h129q68 0 112.5 33t88.5 111l92 159q69 119 205 119h67l-14 -69h-61q-79 0 -127 -86l-86 -152
q-45 -81 -98.5 -111.5t-135.5 -33.5l-2 -4q79 -3 118 -31t46 -94l20 -193q6 -58 30 -84t71 -26h67l-14 -70h-68z" />
    <glyph glyph-name="uni043B" unicode="&#x43b;" horiz-adv-x="1138" 
d="M1077 946l-184 -946h-78l162 829q8 34 20 54l-2 2q-16 -8 -57 -8h-498q-41 0 -57 8l-2 -2q8 -20 0 -54l-23 -120l-94 -488q-23 -119 -81 -172t-165 -53h-79l14 70h80q60 0 98 37t55 118l95 488l45 237h751z" />
    <glyph glyph-name="uni043C" unicode="&#x43c;" horiz-adv-x="1314" 
d="M569 -18l-131 593q-7 32 -12 58t-7 50t-3 36.5t-1.5 36.5t-0.5 30h-6q-25 -110 -80 -213l-301 -573h-88l491 967h8l135 -645q23 -115 23 -187h4q30 88 88 187l381 645h8l115 -967h-76l-74 575q-15 117 -2 213h-6q-4 -10 -15.5 -38.5t-19.5 -46t-26 -52t-41 -73.5
l-354 -596h-9z" />
    <glyph glyph-name="uni043D" unicode="&#x43d;" horiz-adv-x="1105" 
d="M965 946h79l-184 -946h-78l82 426q6 37 21 57l-2 2q-23 -10 -56 -10h-548q-35 0 -52 10l-2 -2q3 -12 -4 -57l-82 -426h-78l185 946h76l-68 -352q-6 -38 -18 -57l2 -2q22 10 55 10h549q34 0 51 -10l2 2q-5 13 2 57z" />
    <glyph glyph-name="uni043E" unicode="&#x43e;" horiz-adv-x="1193" 
d="M543 -31q-215 0 -338 118.5t-123 324.5q0 157 74 286.5t205 204t290 74.5q215 0 338 -118t123 -324q0 -157 -74 -287t-205 -204.5t-290 -74.5zM551 43q132 0 243 66.5t175.5 181t64.5 250.5q0 166 -105.5 264t-285.5 98q-132 0 -243 -66t-175.5 -180.5t-64.5 -250.5
q0 -166 105.5 -264.5t285.5 -98.5z" />
    <glyph glyph-name="uni043F" unicode="&#x43f;" horiz-adv-x="1067" 
d="M1016 946l-185 -946h-77l161 829q8 37 21 54l-2 2q-18 -8 -60 -8h-526q-41 0 -55 8l-2 -2q6 -25 0 -54l-162 -829h-78l185 946h780z" />
    <glyph glyph-name="uni0440" unicode="&#x440;" horiz-adv-x="1241" 
d="M-18 -410l264 1356h78q-39 -186 -62 -244l4 -4q64 133 182.5 206t270.5 73q201 0 320.5 -121t119.5 -324q0 -246 -155 -404.5t-394 -158.5q-175 0 -283.5 79.5t-146.5 234.5l-8 -2q3 -112 -31 -281l-82 -410h-77zM608 43q203 0 337 138.5t134 348.5q0 171 -100 272
t-270 101q-136 0 -249.5 -65t-179 -179.5t-65.5 -252.5q0 -169 104.5 -266t288.5 -97z" />
    <glyph glyph-name="uni0441" unicode="&#x441;" horiz-adv-x="1021" 
d="M563 -31q-217 0 -347 128.5t-130 340.5q0 235 156 387t397 152q203 0 358 -125l-47 -64q-146 113 -313 113q-201 0 -335 -132.5t-134 -330.5q0 -174 110 -283.5t287 -109.5q141 0 287 92l41 -69q-159 -99 -330 -99z" />
    <glyph glyph-name="uni0442" unicode="&#x442;" horiz-adv-x="919" 
d="M999 946l-12 -69h-360q-42 0 -56 8l-2 -2q6 -25 0 -54l-14 -69l-149 -760h-78l149 760l15 69q9 39 20 54l-2 2q-18 -8 -59 -8h-361l12 69h897z" />
    <glyph glyph-name="uni0443" unicode="&#x443;" horiz-adv-x="950" 
d="M1012 946l-869 -1356h-88l312 482l-244 874h78l174 -627q23 -83 29.5 -121t5.5 -87l8 2q14 47 36 88t76 125l394 620h88z" />
    <glyph glyph-name="uni0444" unicode="&#x444;" horiz-adv-x="1746" 
d="M666 -410l92 469q25 118 51 191h-4q-62 -151 -156 -216t-221 -65q-165 0 -250.5 104t-85.5 308q0 168 54.5 302.5t160.5 214t246 79.5q139 0 230 -77.5t100 -223.5h4q8 88 31 211l96 495h73l-96 -495q-28 -126 -51 -191h4q62 148 153 214.5t224 66.5q167 0 251.5 -104.5
t84.5 -305.5q0 -171 -57 -306.5t-165.5 -213.5t-250.5 -78q-134 0 -220.5 73.5t-97.5 227.5h-4q-9 -101 -31 -211l-92 -469h-73zM432 43q117 0 214.5 70.5t151.5 187t54 250.5q0 160 -78.5 256t-216.5 96q-118 0 -206.5 -72t-132.5 -188.5t-44 -259.5q0 -163 64 -251.5
t194 -88.5zM1188 43q118 0 207.5 74.5t134.5 194.5t45 263q0 326 -248 326q-120 0 -219.5 -71t-155 -187.5t-55.5 -249.5q0 -155 77 -252.5t214 -97.5z" />
    <glyph glyph-name="uni0445" unicode="&#x445;" horiz-adv-x="913" 
d="M948 946l-368 -379q-2 -2 -11.5 -12.5t-17.5 -18.5t-21 -19t-24 -19l-2 -6q11 -14 41 -64l256 -428h-90l-215 360q-25 45 -37 91h-4q-27 -42 -76 -91l-348 -360h-103l424 436q56 56 66 64l2 6q-22 22 -49 69l-224 371h93l186 -319q24 -40 37 -90h4q29 45 74 90l309 319
h98z" />
    <glyph glyph-name="uni0446" unicode="&#x446;" horiz-adv-x="1095" 
d="M799 -287l47 240q8 37 20 53l-2 2q-18 -8 -59 -8h-744l185 946h78l-162 -829q-8 -37 -21 -54l2 -2q20 9 60 9h516q39 0 55 -9l2 2q-6 25 0 54l162 829h78l-162 -829q-9 -39 -20 -54l2 -2q20 9 59 9h51l-69 -357h-78z" />
    <glyph glyph-name="uni0447" unicode="&#x447;" horiz-adv-x="905" 
d="M766 946h78l-64 -330l-55 -276l-66 -340h-77l65 340l10 51q8 40 21 58l-2 2q-185 -76 -342 -76q-41 0 -74.5 4t-71.5 17.5t-63 36.5t-42 64t-17 97q0 50 12 117l47 235h78l-43 -223q-17 -97 -17 -129q0 -81 54 -113t147 -32q79 0 156.5 19.5t183.5 57.5l18 90z" />
    <glyph glyph-name="uni0448" unicode="&#x448;" horiz-adv-x="1667" 
d="M1528 946h78l-185 -946h-1360l185 946h78l-162 -829q-8 -37 -21 -54l2 -2q20 9 60 9h465q39 0 55 -9l2 2q-6 25 0 54l162 829h78l-162 -829q-8 -37 -21 -54l2 -2q20 9 60 9h465q39 0 55 -9l2 2q-6 25 0 54z" />
    <glyph glyph-name="uni0449" unicode="&#x449;" horiz-adv-x="1681" 
d="M1384 -287l48 240q8 37 20 53l-2 2q-18 -8 -59 -8h-1330l185 946h78l-162 -829q-8 -37 -21 -54l2 -2q20 9 60 9h465q39 0 55 -9l2 2q-6 25 0 54l162 829h78l-162 -829q-8 -37 -21 -54l2 -2q20 9 60 9h465q39 0 55 -9l2 2q-6 25 0 54l162 829h78l-162 -829q-8 -37 -21 -54
l2 -2q20 9 60 9h47l-70 -357h-78z" />
    <glyph glyph-name="uni044A" unicode="&#x44a;" horiz-adv-x="1146" 
d="M760 582q62 0 115.5 -15.5t97.5 -46.5t69 -84t25 -123q0 -142 -95 -227.5t-263 -85.5h-428l77 399l56 285l28 145q8 37 21 54l-2 2q-18 -8 -60 -8h-313l14 69h441l-51 -262l-11 -53q-6 -39 -20 -58l2 -2q25 11 55 11h242zM707 70q143 0 211.5 67.5t68.5 173.5
q0 104 -63 152.5t-172 48.5h-246q-34 0 -51 10l-4 -2q5 -13 -2 -57l-13 -64l-55 -282q-8 -37 -21 -54l2 -2q20 9 60 9h285z" />
    <glyph glyph-name="uni044B" unicode="&#x44b;" horiz-adv-x="1206" 
d="M541 582q62 0 115.5 -15.5t97.5 -46.5t69 -84t25 -123q0 -142 -95.5 -227.5t-263.5 -85.5h-428l78 399l56 285l51 262h78l-52 -262l-10 -53q-6 -39 -20 -58l2 -2q25 11 55 11h242zM1067 946h78l-184 -946h-78zM487 70q143 0 212 67.5t69 173.5q0 104 -63.5 152.5
t-172.5 48.5h-245q-33 0 -51 10l-5 -2q5 -13 -2 -57l-12 -64l-55 -282q-8 -37 -21 -54l2 -2q20 9 60 9h284z" />
    <glyph glyph-name="uni044C" unicode="&#x44c;" horiz-adv-x="927" 
d="M541 582q62 0 115.5 -15.5t97.5 -46.5t69 -84t25 -123q0 -142 -95.5 -227.5t-263.5 -85.5h-428l78 399l56 285l51 262h78l-52 -262l-10 -53q-6 -39 -20 -58l2 -2q25 11 55 11h242zM487 70q143 0 212 67.5t69 173.5q0 104 -63.5 152.5t-172.5 48.5h-245q-33 0 -51 10
l-5 -2q5 -13 -2 -57l-12 -64l-55 -282q-8 -37 -21 -54l2 -2q20 9 60 9h284z" />
    <glyph glyph-name="uni044D" unicode="&#x44d;" horiz-adv-x="1032" 
d="M383 -31q-204 0 -358 125l47 64q71 -54 144.5 -83.5t172.5 -29.5q175 0 296.5 95.5t154.5 248.5q4 21 22 57v3q-25 -11 -55 -11h-459l12 70h449q33 0 51 -10l2 2q0 1 -3 13t-6.5 29.5t-4.5 32.5q-12 149 -114 237.5t-253 88.5q-156 0 -311 -92l-41 70q165 98 350 98
q208 0 332.5 -128.5t124.5 -340.5q0 -233 -155 -386t-398 -153z" />
    <glyph glyph-name="uni044E" unicode="&#x44e;" horiz-adv-x="1495" 
d="M952 977q215 0 338 -118t123 -324q0 -157 -74 -287t-205 -204.5t-290 -74.5q-215 0 -338 118.5t-123 324.5v26h-111q-32 0 -51 11l-4 -3q5 -13 -2 -57l-76 -389h-78l185 946h78l-76 -389q-6 -37 -21 -57l2 -2q23 10 56 10h106q33 204 189 336.5t372 132.5zM852 43
q132 0 243 66.5t175.5 181t64.5 250.5q0 166 -105.5 264t-285.5 98q-132 0 -243 -66t-175.5 -180.5t-64.5 -250.5q0 -166 105.5 -264.5t285.5 -98.5z" />
    <glyph glyph-name="uni044F" unicode="&#x44f;" horiz-adv-x="913" 
d="M852 946l-68 -350l-55 -277l-61 -319h-78l61 319l8 41q9 41 21 58l-2 2q-22 -10 -55 -10h-150l-436 -410h-98v4l358 340q42 42 102 76l-2 2q-36 -12 -80 -12q-94 0 -159.5 74t-65.5 178q0 130 97.5 207t263.5 77h399zM705 596h2l45 233q9 39 20 54l-2 2q-19 -8 -59 -8
h-260q-129 0 -204 -57.5t-75 -157.5q0 -82 49 -132.5t127 -50.5h287q26 0 53 -10l2 2q-5 13 2 57z" />
    <glyph glyph-name="uni0451" unicode="&#x451;" horiz-adv-x="1124" 
d="M639 1290l-43 -225h-107l43 225h107zM934 1290l-43 -225h-107l43 225h107zM516 -33q-207 0 -321.5 115t-114.5 324q0 246 161.5 408.5t405.5 162.5q190 0 301 -101.5t111 -275.5q0 -56 -19 -131h-796q-51 0 -72 8l-2 -2v-16q-6 -49 -6 -68q0 -161 96.5 -253.5
t263.5 -92.5q113 0 207.5 44t194.5 144l57 -59q-111 -108 -222.5 -157.5t-244.5 -49.5zM182 524q27 15 74 15h647q22 0 76 -13l2 2v70q0 141 -90.5 222t-247.5 81q-170 0 -307 -111.5t-156 -263.5z" />
    <glyph glyph-name="uni0452" unicode="&#x452;" horiz-adv-x="1120" 
d="M682 977q155 0 235 -82t80 -242q0 -64 -16 -155l-96 -498l-25 -121q-34 -166 -107.5 -227.5t-205.5 -61.5h-86l14 76h90q87 0 139.5 46.5t77.5 166.5l25 121l98 502q15 55 15 137q0 128 -64.5 196t-185.5 68q-173 0 -295 -129t-166 -360l-80 -414h-78l185 946l36 191
q6 36 19 57v2q-23 -10 -55 -10h-86l10 61h86q34 0 51 -10l4 2q-5 13 2 57l33 168h78l-33 -168q-6 -36 -19 -57v-2q23 10 56 10h323l-10 -61h-323q-34 0 -52 10l-4 -2q5 -13 -2 -57l-37 -191l-12 -59q-33 -154 -65 -248l8 -4q72 177 178 259.5t260 82.5z" />
    <glyph glyph-name="uni0453" unicode="&#x453;" horiz-adv-x="757" 
d="M899 1346l-301 -316h-74l256 316h119zM61 0l185 946h594l-15 -69h-467q-41 0 -55 8l-2 -2q6 -25 0 -54l-162 -829h-78z" />
    <glyph glyph-name="uni0454" unicode="&#x454;" horiz-adv-x="1021" 
d="M639 977q204 0 358 -125l-47 -64q-71 54 -144.5 83.5t-172.5 29.5q-175 0 -296.5 -95.5t-154.5 -248.5q-4 -21 -22 -57v-2q22 10 55 10h459l-12 -70h-449q-32 0 -51 11l-2 -3q0 -1 3 -13t6.5 -29.5t4.5 -32.5q12 -149 114 -237.5t253 -88.5q156 0 311 92l41 -69
q-167 -99 -350 -99q-208 0 -332.5 128.5t-124.5 340.5q0 233 155 386t398 153z" />
    <glyph glyph-name="uni0455" unicode="&#x455;" horiz-adv-x="817" 
d="M43 201q89 -83 169 -119.5t175 -36.5q105 0 162 43t57 121q0 56 -31.5 101.5t-101.5 92.5l-113 76q-100 67 -141 127t-41 137q0 107 75 170.5t202 63.5q162 0 311 -105l-47 -69q-141 98 -266 98q-89 0 -141 -43.5t-52 -118.5q0 -54 30 -93.5t113 -96.5l111 -76
q98 -67 136 -124.5t38 -137.5q0 -117 -78.5 -179.5t-226.5 -62.5q-114 0 -207 39.5t-190 128.5z" />
    <glyph glyph-name="uni0456" unicode="&#x456;" horiz-adv-x="385" 
d="M414 1434l-52 -265h-90l52 265h90zM324 946l-185 -946h-78l185 946h78z" />
    <glyph glyph-name="uni0457" unicode="&#x457;" horiz-adv-x="385" 
d="M256 1290l-43 -225h-107l44 225h106zM551 1290l-43 -225h-107l43 225h107zM324 946l-185 -946h-78l185 946h78z" />
    <glyph glyph-name="uni0458" unicode="&#x458;" horiz-adv-x="385" 
d="M414 1434l-52 -265h-90l52 265h90zM324 946l-218 -1118q-28 -144 -100.5 -206t-212.5 -62h-18l14 75h23q87 0 141.5 44t75.5 149l217 1118h78z" />
    <glyph glyph-name="uni0459" unicode="&#x459;" horiz-adv-x="1681" 
d="M1294 582q62 0 116 -15.5t97.5 -46.5t69 -84t25.5 -123q0 -142 -95.5 -227.5t-263.5 -85.5h-428l162 829q8 34 20 54l-2 2q-16 -8 -57 -8h-498q-41 0 -57 8l-2 -2q8 -20 0 -54l-23 -120l-94 -488q-23 -119 -81 -172t-165 -53h-79l14 70h80q60 0 98 37t55 118l95 488
l45 237h751l-61 -315q-6 -37 -19 -58l2 -2q22 11 56 11h239zM1241 70q143 0 212 67.5t69 173.5q0 104 -63.5 152.5t-172.5 48.5h-246q-34 0 -51 10l-2 -2q3 -12 -4 -57l-68 -346q-9 -39 -20 -54l2 -2q20 9 59 9h285z" />
    <glyph glyph-name="uni045A" unicode="&#x45a;" horiz-adv-x="1632" 
d="M1245 582q62 0 115.5 -15.5t97.5 -46.5t69 -84t25 -123q0 -142 -95 -227.5t-263 -85.5h-420l90 463q6 36 19 57v2q-23 -10 -56 -10h-540q-33 0 -51 10l-5 -2q5 -13 -2 -57l-90 -463h-78l185 946h78l-62 -315q-6 -40 -20 -58l2 -2q25 11 55 11h541q32 0 51 -11l2 2
q-3 13 4 58l61 315h70l-61 -315q-6 -38 -21 -58l2 -2q25 11 56 11h241zM1192 70q143 0 212 67.5t69 173.5q0 104 -63.5 152.5t-172.5 48.5h-246q-33 0 -51 10l-4 -2q5 -13 -2 -57l-68 -346q-9 -39 -20 -54l2 -2q20 9 59 9h285z" />
    <glyph glyph-name="uni045B" unicode="&#x45b;" horiz-adv-x="1120" 
d="M682 977q155 0 235 -82t80 -242q0 -64 -16 -155l-96 -498h-78l98 502q15 55 15 137q0 128 -64.5 196t-185.5 68q-173 0 -295 -129t-166 -360l-80 -414h-78l185 946l36 191q6 36 19 57v2q-23 -10 -55 -10h-86l10 61h86q34 0 51 -10l4 2q-5 13 2 57l33 168h78l-33 -168
q-6 -36 -19 -57v-2q23 10 56 10h323l-10 -61h-323q-34 0 -52 10l-4 -2q5 -13 -2 -57l-37 -191l-12 -59q-33 -154 -65 -248l8 -4q72 177 178 259.5t260 82.5z" />
    <glyph glyph-name="uni045C" unicode="&#x45c;" horiz-adv-x="931" 
d="M893 1346l-301 -316h-74l256 316h119zM739 -4q-80 0 -118 42t-46 132l-14 152q-6 71 -41 104t-106 33h-129q-48 0 -64 4l-2 -2q3 -37 -6 -86l-74 -375h-78l185 946h78l-66 -338q-8 -44 -27 -82l2 -2q16 4 66 4h129q68 0 112.5 33t88.5 111l92 159q69 119 205 119h67
l-14 -69h-61q-79 0 -127 -86l-86 -152q-45 -81 -98.5 -111.5t-135.5 -33.5l-2 -4q79 -3 118 -31t46 -94l20 -193q6 -58 30 -84t71 -26h67l-14 -70h-68z" />
    <glyph glyph-name="uni045E" unicode="&#x45e;" horiz-adv-x="950" 
d="M565 1024q-111 0 -175 58.5t-64 162.5q0 31 6 66h69q-4 -36 -4 -54q0 -78 45 -120.5t129 -42.5q94 0 161 58t87 159h70q-24 -143 -111.5 -215t-212.5 -72zM1012 946l-869 -1356h-88l312 482l-244 874h78l174 -627q23 -83 29.5 -121t5.5 -87l8 2q14 47 36 88t76 125
l394 620h88z" />
    <glyph glyph-name="uni045F" unicode="&#x45f;" horiz-adv-x="1089" 
d="M358 -287l48 240q8 37 20 53l-2 2q-18 -8 -59 -8h-304l185 946h78l-162 -829q-8 -37 -21 -54l2 -2q20 9 60 9h528q39 0 55 -9l2 2q-6 25 0 54l162 829h78l-184 -946h-303q-42 0 -56 8l-2 -2q6 -25 0 -53l-47 -240h-78z" />
    <glyph glyph-name="uni0462" unicode="&#x462;" horiz-adv-x="1271" 
d="M209 0l205 1049q8 38 14 49l-2 2q-12 -4 -53 -4h-232l15 78h231q38 0 53 -5l2 2q-3 18 4 50l41 213h86l-41 -213q-7 -32 -16 -50l2 -2q15 5 53 5h416l-14 -78h-416q-41 0 -53 4l-2 -2q4 -23 -2 -49l-41 -207q-6 -27 -17 -49l2 -2q12 4 54 4h297q197 0 313.5 -88.5
t116.5 -268.5q0 -196 -137 -317t-379 -121h-500zM305 74q12 4 53 4h351q208 0 318 99.5t110 258.5q0 140 -90.5 210.5t-255.5 70.5h-308q-41 0 -53 4l-2 -2q4 -23 -2 -49l-107 -545q-7 -31 -16 -49z" />
    <glyph glyph-name="uni0463" unicode="&#x463;" horiz-adv-x="974" 
d="M588 582q62 0 115.5 -15.5t97.5 -46.5t69 -84t25 -123q0 -142 -95 -227.5t-263 -85.5h-428l161 827q6 35 23 58l-2 2q-23 -10 -55 -10h-148l14 69h148q34 0 51 -10l2 2q-6 22 0 57l92 469h78l-90 -469q-7 -42 -18 -57l2 -2q22 10 55 10h323l-14 -69h-323q-34 0 -52 10
l-2 -2q3 -12 -6 -56l-39 -198q-9 -43 -20 -58l2 -2q25 11 55 11h242zM535 70q143 0 211.5 67.5t68.5 173.5q0 104 -63 152.5t-172 48.5h-246q-34 0 -51 10l-4 -2q4 -11 -3 -57l-67 -346q-8 -37 -21 -54l2 -2q20 9 60 9h285z" />
    <glyph glyph-name="uni0472" unicode="&#x472;" horiz-adv-x="1734" 
d="M977 1464q320 0 514.5 -185t194.5 -495q0 -168 -61 -317.5t-168.5 -259.5t-264.5 -174t-340 -64q-320 0 -514.5 185t-194.5 495q0 168 61 317.5t168.5 259.5t264.5 174t340 64zM221 756v-4q23 4 51 4h1287q29 0 47 -4l4 4q-4 11 -8 69q-12 176 -97.5 303t-221.5 189.5
t-310 62.5q-285 0 -482 -162.5t-251 -420.5q-3 -17 -6 -24t-13 -17zM1608 678v4q-23 -4 -52 -4h-1286q-29 0 -47 4l-4 -4q4 -10 8 -70q12 -176 97.5 -303t221.5 -189.5t310 -62.5q285 0 482 162.5t251 421.5q5 27 19 41z" />
    <glyph glyph-name="uni0473" unicode="&#x473;" horiz-adv-x="1193" 
d="M651 977q209 0 335 -114.5t126 -327.5q0 -114 -42 -217t-115.5 -180.5t-180.5 -123t-231 -45.5q-209 0 -335 115t-126 328q0 114 42 217t115.5 180t180.5 122.5t231 45.5zM1030 496l2 2q2 12 2 43q0 167 -106 264.5t-285 97.5q-183 0 -313 -117t-162 -288l2 -2q21 8 61 8
h738q40 0 61 -8zM551 43q183 0 313 117.5t162 288.5l-2 2q-24 -9 -61 -9h-738q-37 0 -61 9l-2 -2q-2 -12 -2 -43q0 -167 106 -265t285 -98z" />
    <glyph glyph-name="uni0474" unicode="&#x474;" horiz-adv-x="1292" 
d="M483 -31l-276 1465h90l188 -1067q25 -142 25 -215h8q10 31 23 58t40.5 76.5t43.5 80.5l444 835q27 50 45 80.5t47 66.5t57 56t69 33.5t89 13.5q38 0 84 -4l-14 -82q-36 4 -68 4q-68 0 -118 -46.5t-117 -168.5l-651 -1186h-9z" />
    <glyph glyph-name="uni0475" unicode="&#x475;" horiz-adv-x="1024" 
d="M1079 965h19l-15 -76h-22q-54 0 -91 -22.5t-79 -88.5l-514 -798h-8l-246 966h86l145 -624q30 -124 33 -175q2 -17 2 -36h4q8 20 16.5 38.5t15 31.5t18.5 33t19 31t23 37t25 40l305 493q53 87 109.5 118.5t154.5 31.5z" />
    <glyph glyph-name="uni048E" unicode="&#x48e;" horiz-adv-x="1073" 
d="M1145 1094q0 -144 -81.5 -246.5t-223.5 -142.5l168 -224l-45 -35l-183 244q-62 -10 -116 -10h-314q-41 0 -53 4l-2 -2q1 -4 -4 -49l-123 -633h-86l278 1434h416q171 0 270 -91t99 -249zM791 770q126 29 196 112.5t70 207.5q0 126 -73.5 196t-205.5 70h-297q-41 0 -53 4
l-2 -2q1 -4 -4 -49l-98 -504q-5 -20 -15 -49l2 -2q8 4 54 4h301q41 0 61 2l-129 172l45 35z" />
    <glyph glyph-name="uni048F" unicode="&#x48f;" horiz-adv-x="1241" 
d="M1159 532q0 -161 -69 -288.5t-191 -198.5l129 -158l-41 -34l-137 167q-111 -51 -240 -51q-175 0 -283.5 79.5t-146.5 234.5l-8 -2q3 -112 -31 -281l-82 -410h-77l264 1356h78q-39 -186 -62 -244l4 -4q64 133 182.5 206t270.5 73q201 0 320.5 -121t119.5 -324zM608 43
q102 0 191 39l-158 192l41 35l166 -203q107 62 169 173.5t62 250.5q0 171 -100 272t-270 101q-136 0 -249.5 -65t-179 -179.5t-65.5 -252.5q0 -169 104.5 -266t288.5 -97z" />
    <glyph glyph-name="uni0490" unicode="&#x490;" horiz-adv-x="991" 
d="M1126 1720h86l-69 -364h-662q-41 0 -53 4l-2 -2q3 -18 -4 -49l-254 -1309h-86l278 1434h660q41 0 53 -4l2 2q-3 18 4 49z" />
    <glyph glyph-name="uni0491" unicode="&#x491;" horiz-adv-x="759" 
d="M819 1233h78l-70 -356h-469q-41 0 -55 8l-2 -2q6 -25 0 -54l-162 -829h-78l185 946h469q41 0 55 -8l2 2q-6 25 0 53z" />
    <glyph glyph-name="uni0492" unicode="&#x492;" horiz-adv-x="1126" 
d="M608 1356q-41 0 -51 4l-2 -2q3 -18 -4 -49l-39 -203l-35 -178q-7 -31 -16 -49l2 -2q12 4 53 4h436l-14 -78h-436q-41 0 -53 4l-3 -2q2 -12 -2 -49l-147 -756h-86l147 756q3 24 15 49l-2 2q-12 -4 -54 -4h-231l14 78h232q41 0 53 -4l2 2q-3 18 4 49l35 178l63 328h803
l-16 -78h-668z" />
    <glyph glyph-name="uni0493" unicode="&#x493;" horiz-adv-x="841" 
d="M442 877q-41 0 -55 8l-4 -2q8 -20 0 -54l-49 -251q-7 -42 -19 -58l2 -2q23 10 56 10h319l-14 -69h-318q-34 0 -51 10l-2 -2q4 -17 -4 -49l-82 -418h-78l82 418q8 32 21 49l-2 2q-22 -10 -56 -10h-129l15 69h127q33 0 51 -10l2 2q-4 18 2 58l72 368h594l-13 -69h-467z" />
    <glyph glyph-name="uni0494" unicode="&#x494;" horiz-adv-x="1226" 
d="M481 1356q-41 0 -53 4l-2 -2q3 -18 -4 -49l-55 -289l-43 -221q-5 -25 -17 -49l2 -2q282 83 498 83q156 0 232.5 -56t76.5 -181q0 -38 -10 -100l-27 -142l-69 -360q-20 -101 -48.5 -169.5t-80 -124t-134.5 -82t-202 -26.5h-99l17 78h102q163 0 245.5 81.5t113.5 242.5
l69 360l27 142q8 39 8 75q0 101 -61 138.5t-185 37.5q-178 0 -485 -83l-129 -662h-86l199 1020l79 414h799l-14 -78h-664z" />
    <glyph glyph-name="uni0495" unicode="&#x495;" horiz-adv-x="909" 
d="M274 -410l15 74h92q123 0 190.5 57t94.5 197l71 367q8 54 8 69q0 79 -47.5 112.5t-136.5 33.5q-135 0 -344 -78l-82 -422h-74l185 946h610l-14 -69h-488q-41 0 -55 8l-2 -2q6 -25 0 -54l-53 -272q-6 -37 -21 -57l2 -2q194 75 361 75q233 0 233 -202q0 -45 -8 -86
l-76 -391q-58 -304 -352 -304h-109z" />
    <glyph glyph-name="uni0496" unicode="&#x496;" horiz-adv-x="1900" 
d="M1931 1438q26 0 66 -4l-17 -82q-36 4 -57 4q-82 0 -134 -31t-89 -98l-146 -266q-58 -107 -121 -151.5t-159 -47.5v-4q93 -5 137.5 -46t50.5 -130l25 -355q6 -86 43.5 -118.5t114.5 -32.5q25 0 75 4l-6 -29h53l-65 -338h-82l55 285q-18 -2 -49 -2q-200 0 -215 197l-27 362
q-6 87 -56.5 125.5t-156.5 38.5h-92q-49 0 -61 4l-4 -2q3 -37 -6 -86l-123 -635h-82l123 635q9 46 26 86v2q-20 -4 -65 -4h-92q-101 0 -161.5 -38t-101.5 -126l-170 -362q-48 -102 -118 -149.5t-178 -47.5q-26 0 -80 4l16 82q50 -4 72 -4q77 0 127 32t88 117l160 355
q40 90 103.5 131.5t156.5 44.5v4q-91 3 -141.5 50t-65.5 149l-39 266q-10 70 -50.5 100.5t-117.5 30.5q-26 0 -62 -4l17 80q40 4 65 4q95 0 151.5 -40t70.5 -132l41 -267q18 -116 70.5 -159t162.5 -43h92q38 0 62 -6l2 2q-3 35 6 81l108 560h82l-108 -560q-7 -34 -27 -81
l2 -2q24 6 66 6h92q105 0 169.5 42.5t127.5 159.5l143 267q93 172 303 172z" />
    <glyph glyph-name="uni0497" unicode="&#x497;" horiz-adv-x="1429" 
d="M1327 950h68l-15 -69h-61q-79 0 -127 -86l-86 -152q-45 -81 -98.5 -111.5t-135.5 -33.5l-2 -4q79 -3 118 -31t46 -94l21 -193q6 -59 29.5 -84.5t70.5 -25.5h68l-6 -27h57l-64 -326h-73l55 283h-51q-80 0 -118 42t-46 132l-14 152q-6 71 -41 104t-107 33h-57q-48 0 -64 4
l-2 -2q3 -37 -6 -86l-74 -375h-51h-26l73 375q7 40 27 86l-2 2q-16 -4 -64 -4h-57q-130 0 -197 -140l-84 -174q-36 -73 -88 -111t-131 -38h-73l14 70h67q48 0 81.5 27t60.5 83l94 193q32 66 83.5 94t129.5 31l2 4q-82 3 -123 33t-55 112l-27 152q-16 86 -94 86h-61l14 69h68
q119 0 141 -119l31 -159q14 -76 51 -110t110 -34h58q45 0 61 -4l2 2q-3 35 6 82l66 338h51h27l-66 -338q-9 -47 -26 -82l2 -2q16 4 65 4h57q68 0 112.5 33t88.5 111l92 159q69 119 205 119z" />
    <glyph glyph-name="uni0498" unicode="&#x498;" horiz-adv-x="1300" 
d="M877 743q105 -21 174 -101t69 -222q0 -87 -27.5 -162.5t-86.5 -141t-164.5 -105t-247.5 -42.5l-35 -61q139 -29 139 -123q0 -34 -16.5 -64t-38.5 -51t-65.5 -44.5t-74.5 -37.5t-89 -37l-13 41q120 59 167.5 94.5t47.5 77.5q0 33 -32.5 51.5t-106.5 32.5l68 121
q-283 8 -514 164l45 70q114 -73 230 -113.5t265 -40.5q223 0 343 95t120 266q0 88 -31.5 152t-87.5 99.5t-122 51.5t-146 16h-203l15 72h200q114 0 215.5 39t168.5 119t67 184q0 120 -88.5 180.5t-255.5 60.5q-105 0 -226.5 -21.5t-222.5 -57.5l-22 75q256 84 477 84
q209 0 317.5 -82t108.5 -233q0 -132 -78 -224t-221 -134q-82 -24 -184 -29l-2 -4q80 0 164 -15z" />
    <glyph glyph-name="uni0499" unicode="&#x499;" horiz-adv-x="940" 
d="M547 498q117 -7 190.5 -63.5t73.5 -170.5q0 -56 -20 -105t-63 -92t-123 -69t-189 -29l-35 -61q139 -29 139 -123q0 -34 -16.5 -64t-38.5 -51t-65.5 -44.5t-74.5 -37.5t-89 -37l-13 41q120 59 167.5 94.5t47.5 77.5q0 33 -32.5 51.5t-106.5 32.5l68 121q-216 5 -402 113
l47 72q178 -111 387 -111q165 0 249.5 58.5t84.5 160.5q0 97 -75.5 150t-213.5 53h-211l15 70h211q141 0 231 51.5t90 154.5q0 162 -237 162q-166 0 -379 -84l-27 70q226 88 410 88q311 0 311 -225q0 -108 -77.5 -173t-231.5 -75z" />
    <glyph glyph-name="uni049A" unicode="&#x49a;" horiz-adv-x="1273" 
d="M1307 1438q25 0 65 -4l-16 -82q-36 4 -58 4q-82 0 -134 -31t-89 -98l-145 -266q-58 -107 -121.5 -151.5t-159.5 -47.5v-4q92 -4 136 -45.5t53 -130.5l39 -355q9 -87 45 -119t112 -32q26 0 76 4l-6 -29h37l-66 -338h-82l56 283h-33q-199 0 -219 197l-41 362
q-9 88 -56.5 126t-152.5 38h-185q-49 0 -61 4l-4 -2q3 -37 -6 -86l-123 -635h-86l278 1434h86l-108 -560q-7 -34 -27 -81l2 -2q24 6 66 6h184q105 0 167.5 42t125.5 160l143 267q51 93 125.5 132.5t182.5 39.5z" />
    <glyph glyph-name="uni049B" unicode="&#x49b;" horiz-adv-x="1028" 
d="M926 950h67l-14 -69h-61q-79 0 -127 -86l-86 -152q-45 -81 -98.5 -111.5t-135.5 -33.5l-2 -4q79 -3 118 -31t46 -94l20 -193q6 -58 30 -84t71 -26h67l-6 -27h57l-63 -326h-74l56 283h-52q-80 0 -118 42t-46 132l-14 152q-6 71 -41 104t-106 33h-129q-48 0 -64 4l-2 -2
q3 -37 -6 -86l-74 -375h-78l185 946h78l-66 -338q-8 -44 -27 -82l2 -2q16 4 66 4h129q68 0 112.5 33t88.5 111l92 159q69 119 205 119z" />
    <glyph glyph-name="uni049C" unicode="&#x49c;" horiz-adv-x="1247" 
d="M1307 1438q25 0 65 -4l-16 -82q-36 4 -58 4q-82 0 -134 -31t-89 -98l-145 -266q-58 -107 -121.5 -151.5t-159.5 -47.5v-4q92 -4 136 -45.5t53 -130.5l39 -355q9 -87 45 -119t112 -32q26 0 76 4l-16 -80q-54 -4 -78 -4q-199 0 -219 197l-41 362q-9 88 -56.5 126t-152.5 38
h-25l-63 -328h-62l64 328h-99q-49 0 -61 4l-4 -2q3 -37 -6 -86l-123 -635h-86l278 1434h86l-108 -560q-7 -34 -27 -81l2 -2q24 6 66 6h96l64 321h61l-63 -321h26q105 0 167.5 42t125.5 160l143 267q51 93 125.5 132.5t182.5 39.5z" />
    <glyph glyph-name="uni049D" unicode="&#x49d;" horiz-adv-x="931" 
d="M926 950h67l-14 -69h-61q-79 0 -127 -86l-86 -152q-45 -81 -98.5 -111.5t-135.5 -33.5l-2 -4q79 -3 118 -31t46 -94l20 -193q6 -58 30 -84t71 -26h67l-14 -70h-68q-80 0 -118 42t-46 132l-14 152q-6 71 -41 104t-106 33h-15l-53 -275h-57l53 275h-57q-48 0 -64 4l-2 -2
q3 -37 -6 -86l-74 -375h-78l185 946h78l-66 -338q-8 -44 -27 -82l2 -2q16 4 66 4h57l52 269h57l-51 -269h14q68 0 112.5 33t88.5 111l92 159q69 119 205 119z" />
    <glyph glyph-name="uni049E" unicode="&#x49e;" horiz-adv-x="1376" 
d="M1436 1438q25 0 65 -4l-16 -82q-36 4 -58 4q-82 0 -134 -31t-89 -98l-145 -266q-58 -107 -121.5 -151.5t-159.5 -47.5v-4q93 -5 138 -46t51 -130l24 -355q6 -86 43.5 -118.5t114.5 -32.5q26 0 76 4l-17 -80q-54 -4 -78 -4q-98 0 -155 49t-64 148l-26 362q-6 88 -54.5 126
t-154.5 38h-184q-50 0 -62 4l-4 -2q3 -37 -6 -86l-123 -635h-86l203 1049q8 38 14 49l-2 2q-12 -4 -53 -4h-232l15 78h231q38 0 53 -5l2 2q-3 18 4 50l41 213h86l-41 -213q-7 -32 -16 -50l2 -2q15 5 53 5h273l-15 -78h-272q-41 0 -53 4l-2 -2q4 -23 -2 -49l-33 -175
q-7 -34 -27 -81l2 -2q24 6 66 6h184q105 0 167.5 42t125.5 160l143 267q93 172 308 172z" />
    <glyph glyph-name="uni049F" unicode="&#x49f;" horiz-adv-x="921" 
d="M915 950h68l-14 -69h-62q-79 0 -127 -86l-86 -152q-45 -81 -98 -111.5t-135 -33.5l-2 -4q79 -3 118 -31t46 -94l20 -193q6 -59 29.5 -84.5t70.5 -25.5h68l-14 -70h-68q-80 0 -118 42t-46 132l-14 152q-6 71 -41 104t-107 33h-129q-47 0 -63 4l-2 -2q3 -37 -6 -86
l-74 -375h-78l185 946l36 191q6 37 21 57l-2 2q-23 -10 -55 -10h-86l12 61h86q34 0 51 -10l2 2q-4 17 2 57l33 168h78l-33 -168q-6 -40 -19 -57l3 -2q22 10 55 10h323l-12 -61h-323q-34 0 -52 10l-2 -2q3 -12 -4 -57l-37 -191l-65 -338q-8 -44 -27 -82l2 -2q16 4 66 4h129
q68 0 111.5 33t88.5 111l93 159q69 119 204 119z" />
    <glyph glyph-name="uni04A0" unicode="&#x4a0;" horiz-adv-x="1468" 
d="M1528 1438q25 0 65 -4l-16 -82q-36 4 -57 4q-82 0 -134.5 -31t-89.5 -98l-145 -266q-58 -107 -121.5 -151.5t-159.5 -47.5v-4q93 -5 138 -46t51 -130l24 -355q6 -86 43.5 -118.5t114.5 -32.5q26 0 76 4l-17 -80q-54 -4 -77 -4q-98 0 -155 49t-64 148l-27 362
q-6 88 -54.5 126t-154.5 38h-184q-50 0 -62 4l-4 -2q3 -37 -6 -86l-123 -635h-86l203 1049l51 260q8 38 14 49l-2 2q-12 -4 -53 -4h-323l14 78h459l-74 -385l-33 -175q-7 -34 -27 -81l3 -2q24 6 65 6h184q105 0 167.5 42t125.5 160l144 267q93 172 307 172z" />
    <glyph glyph-name="uni04A1" unicode="&#x4a1;" horiz-adv-x="1114" 
d="M1108 950h68l-15 -69h-61q-79 0 -127 -86l-86 -152q-45 -81 -98.5 -111.5t-135.5 -33.5l-2 -4q79 -3 118 -31t46 -94l21 -193q6 -59 29.5 -84.5t70.5 -25.5h68l-15 -70h-67q-80 0 -118 42t-46 132l-15 152q-6 71 -41 104t-106 33h-129q-48 0 -64 4l-2 -2q3 -37 -6 -86
l-73 -375h-78l143 737l19 92q9 39 20 54l-2 2q-18 -8 -59 -8h-277l14 69h404l-41 -209l-25 -129q-9 -47 -26 -82l2 -2q16 4 65 4h129q68 0 112.5 33t88.5 111l92 159q69 119 205 119z" />
    <glyph glyph-name="uni04A2" unicode="&#x4a2;" horiz-adv-x="1351" 
d="M1434 1434l-269 -1383h54l-66 -338h-82l55 287h-57l133 684q8 35 17 49l-2 2q-14 -4 -56 -4h-803q-41 0 -51 4l-2 -2q0 -31 -4 -49l-133 -684h-86l278 1434h86l-112 -578q-8 -34 -15 -49v-2q14 4 56 4h803q41 0 51 -4l4 2q-4 23 2 49l113 578h86z" />
    <glyph glyph-name="uni04A3" unicode="&#x4a3;" horiz-adv-x="1081" 
d="M1044 946l-176 -907h58l-64 -326h-74l56 287h-62l82 426q6 37 21 57l-2 2q-23 -10 -56 -10h-548q-35 0 -52 10l-2 -2q3 -12 -4 -57l-82 -426h-78l185 946h76l-68 -352q-6 -38 -18 -57l2 -2q22 10 55 10h549q34 0 51 -10l2 2q-5 13 2 57l68 352h79z" />
    <glyph glyph-name="uni04A4" unicode="&#x4a4;" horiz-adv-x="1816" 
d="M1307 1434h675l-14 -78h-541q-41 0 -53 4l-2 -2q3 -18 -4 -49l-37 -189l-217 -1120h-86l133 684q8 35 17 49l-2 2q-14 -4 -56 -4h-762q-41 0 -51 4l-2 -2q0 -31 -4 -49l-133 -684h-86l278 1434h86l-112 -578q-8 -34 -15 -49v-2q14 4 56 4h762q41 0 51 -4l4 2q-4 23 2 49
l51 264z" />
    <glyph glyph-name="uni04A5" unicode="&#x4a5;" horiz-adv-x="1376" 
d="M926 946h532l-14 -69h-406q-41 0 -55 8l-2 -2q6 -25 0 -54l-27 -139l-135 -690h-78l82 426q6 37 21 57l-2 2q-22 -10 -56 -10h-507q-35 0 -52 10l-2 -2q3 -12 -4 -57l-82 -426h-78l185 946h76l-68 -352q-6 -38 -18 -57l2 -2q22 10 55 10h508q33 0 51 -10l2 2q-5 13 2 57
l18 96h3z" />
    <glyph glyph-name="uni04A6" unicode="&#x4a6;" horiz-adv-x="2187" 
d="M1825 872q157 0 230 -55.5t73 -181.5q0 -51 -10 -100l-23 -115l-12 -60q-16 -79 -33 -130t-48 -98.5t-75 -74t-112 -42t-162 -15.5h-162l14 78h164q82 0 139.5 16.5t95 53.5t60 87t37.5 125l12 60l23 115q8 39 8 77q0 100 -60.5 137t-185.5 37q-183 0 -506 -84l-137 -702
h-86l199 1020l55 289q6 28 16 49l-2 2q-12 -4 -53 -4h-803q-41 0 -53 4l-2 -2q3 -18 -4 -49l-254 -1309h-86l278 1434h1074l-115 -594q-6 -28 -16 -49l2 -3q295 84 520 84z" />
    <glyph glyph-name="uni04A7" unicode="&#x4a7;" horiz-adv-x="1597" 
d="M973 -410l14 74h92q115 0 187 58t98 196l63 324q11 54 11 94q0 93 -44 128.5t-134 35.5q-136 0 -345 -78l-81 -422h-74l162 829q9 39 20 54l-2 2q-18 -8 -59 -8h-527q-41 0 -55 8l-2 -2q6 -25 0 -54l-162 -829h-74l185 946h772l-76 -389q-6 -39 -20 -57l2 -2
q194 75 352 75q240 0 240 -208q0 -35 -15 -123l-67 -348q-27 -140 -114.5 -222t-223.5 -82h-123z" />
    <glyph glyph-name="uni04A8" unicode="&#x4a8;" horiz-adv-x="1572" 
d="M725 -31q-94 0 -177 20.5t-158.5 68t-130 119.5t-86.5 181.5t-32 247.5q0 125 23.5 241.5t80.5 230.5t142 198t219 136t301 52q166 0 295 -53l-37 -74q-123 45 -264 45q-146 0 -264 -49t-192.5 -128t-124.5 -183.5t-70.5 -209t-20.5 -212.5q0 -141 37.5 -248t105 -172
t155.5 -97t196 -32q77 0 195 23v4q-46 4 -84 59q-57 80 -87 192t-30 232q0 85 15 165t49.5 156.5t85 133t127 91t169.5 34.5q158 0 239 -96t81 -271q0 -111 -28.5 -225.5t-102 -236t-183.5 -197.5q-60 -43 -110 -43v-4q70 -23 141 -23q103 0 211 59l25 -69
q-129 -66 -254 -66q-66 0 -124.5 12.5t-74.5 36.5h-4q-46 -21 -116.5 -35t-137.5 -14zM993 98h4q5 11 20 21t40.5 24.5t42.5 26.5q137 97 215 252t78 332q0 159 -63 232t-171 73q-109 0 -191.5 -68t-124.5 -180.5t-42 -251.5q0 -228 110 -373q20 -25 47.5 -49t34.5 -39z" />
    <glyph glyph-name="uni04A9" unicode="&#x4a9;" horiz-adv-x="1128" 
d="M483 -31q-62 0 -116.5 11.5t-108.5 41.5t-92.5 76t-62 120t-23.5 169q0 117 35.5 221.5t103.5 187.5t179.5 132t252.5 49q131 0 240 -45l-37 -70q-84 41 -199 41q-121 0 -217 -42t-155.5 -114t-91 -163.5t-31.5 -194.5q0 -79 18.5 -140.5t49.5 -99.5t74 -62.5t87.5 -34
t95.5 -9.5q11 0 44.5 1t60.5 1v4q-38 20 -62 47q-75 84 -75 223q0 67 18 130t54 118.5t99 89t144 33.5q111 0 177.5 -62.5t66.5 -189.5q0 -222 -197 -352q-45 -29 -90 -37v-4q43 -12 84 -12q35 0 69.5 8.5t54.5 16.5t60 26l27 -64q-104 -51 -217 -51q-122 0 -144 39h-4
q-72 -39 -172 -39zM672 57l4 2q2 9 10.5 17t33 22.5t32.5 20.5q79 51 129.5 139t50.5 184q0 89 -44.5 131.5t-119.5 42.5q-77 0 -131.5 -42.5t-79.5 -107.5t-25 -144q0 -172 140 -265z" />
    <glyph glyph-name="uni04AA" unicode="&#x4aa;" horiz-adv-x="1474" 
d="M991 1380q-215 0 -390.5 -99t-275.5 -273t-100 -387q0 -268 153 -418t427 -150q117 0 226.5 35.5t238.5 114.5l47 -72q-123 -80 -243 -119.5t-257 -42.5l-35 -61q140 -29 140 -123q0 -28 -9.5 -53t-32 -46.5t-43.5 -38t-60.5 -35.5t-65.5 -30t-74 -31l-12 41
q120 59 167.5 94.5t47.5 77.5q0 33 -32.5 51.5t-107.5 32.5l68 121q-295 8 -463 179.5t-168 467.5q0 182 65 339.5t179 269t274.5 175.5t345.5 64q282 0 494 -164l-53 -69q-205 149 -451 149z" />
    <glyph glyph-name="uni04AB" unicode="&#x4ab;" horiz-adv-x="1021" 
d="M637 901q-201 0 -335 -132.5t-134 -330.5q0 -174 110 -283.5t287 -109.5q141 0 287 92l41 -69q-159 -99 -330 -99h-8l-35 -61q139 -29 139 -123q0 -34 -16.5 -64t-38.5 -51t-65.5 -44.5t-74.5 -37.5t-89 -37l-13 41q121 60 168.5 95t47.5 77q0 33 -32.5 51.5t-107.5 32.5
l68 123q-192 17 -306 143t-114 324q0 235 156 387t397 152q203 0 358 -125l-47 -64q-146 113 -313 113z" />
    <glyph glyph-name="uni04AC" unicode="&#x4ac;" horiz-adv-x="1040" 
d="M207 1434h999l-14 -78h-408q-41 0 -53 4l-2 -2q4 -23 -2 -49l-244 -1258h54l-66 -338h-82l55 287h-57l254 1309q8 38 14 49l-2 2q-12 -4 -53 -4h-407z" />
    <glyph glyph-name="uni04AD" unicode="&#x4ad;" horiz-adv-x="919" 
d="M999 946l-12 -69h-360q-42 0 -56 8l-2 -2q6 -25 0 -54l-14 -69l-141 -721h57l-63 -326h-74l55 287h-61l149 760l15 69q9 39 20 54l-2 2q-18 -8 -59 -8h-361l12 69h897z" />
    <glyph glyph-name="uni04AE" unicode="&#x4ae;" horiz-adv-x="1075" 
d="M1241 1434l-649 -891l-105 -543h-86l105 543l-299 891h98l213 -658q30 -90 35 -174h4q38 83 102 174l471 658h111z" />
    <glyph glyph-name="uni04AF" unicode="&#x4af;" horiz-adv-x="962" 
d="M1024 946l-592 -903l-88 -453h-78l92 476l-235 880h86l158 -624q32 -122 34 -211h5q21 55 43.5 94.5t72.5 116.5l404 624h98z" />
    <glyph glyph-name="uni04B0" unicode="&#x4b0;" horiz-adv-x="1077" 
d="M596 543q12 4 53 4h266l-14 -78h-272q-42 0 -54 4l-2 -2q4 -23 -2 -49l-77 -422h-86l77 422q8 34 15 49l-2 2q-12 -4 -54 -4h-272l14 78h267q41 0 53 -4l2 2l-301 889h102l209 -660q30 -90 35 -174h4q42 91 100 174l465 660h121l-649 -889z" />
    <glyph glyph-name="uni04B1" unicode="&#x4b1;" horiz-adv-x="962" 
d="M426 35q21 6 45 6h272l-12 -61h-268q-33 0 -51 10l-2 -2q3 -13 -4 -58l-68 -340h-78l68 340q6 40 20 58l-2 2q-22 -10 -55 -10h-273l13 61h272q33 0 51 -10l2 2h11l-244 913h86l158 -624q32 -122 34 -211h5q21 55 43.5 94.5t72.5 116.5l404 624h98z" />
    <glyph glyph-name="uni04B2" unicode="&#x4b2;" horiz-adv-x="1222" 
d="M793 543l239 -492h58l-66 -338h-82l55 287h-43l-237 502q-68 142 -80 188h-4q-10 -17 -24 -36t-24.5 -31.5t-44 -52t-55.5 -64.5l-428 -506h-118l471 547q6 7 48 56.5t79.5 91t60.5 61.5l2 4q-22 33 -113 223l-219 451h103l198 -428q11 -24 28.5 -61t25 -53t15 -37
t11.5 -38h4q8 15 23.5 35t30.5 37.5t45 52t51 59.5l364 433h119l-393 -455q-44 -51 -205 -227l-2 -4q33 -49 107 -205z" />
    <glyph glyph-name="uni04B3" unicode="&#x4b3;" horiz-adv-x="1007" 
d="M778 39h74l-64 -326h-73l55 287h-59l-215 360q-25 45 -37 91h-4q-27 -42 -76 -91l-348 -360h-103l424 436q56 56 66 64l2 6q-22 22 -49 69l-224 371h93l186 -319q24 -40 37 -90h4q29 45 74 90l309 319h98l-368 -379q-2 -2 -11.5 -12.5t-17.5 -18.5t-21 -19t-24 -19l-2 -6
q11 -14 41 -64z" />
    <glyph glyph-name="uni04B4" unicode="&#x4b4;" horiz-adv-x="1724" 
d="M1430 74q14 4 55 4h80l-72 -365h-86l47 240q8 37 16 49l-2 2q-14 -4 -55 -4h-1005l194 993l62 316q8 38 14 49l-2 2q-12 -4 -53 -4h-430l14 78h1024l-14 -78h-410q-41 0 -53 4l-2 -2q4 -23 -2 -49l-62 -316h-2l-168 -868q-8 -38 -14 -49v-2q14 4 55 4h741q42 0 52 -4l4 2
q-4 23 2 49l254 1309h86l-254 -1309q-8 -38 -14 -49v-2z" />
    <glyph glyph-name="uni04B5" unicode="&#x4b5;" horiz-adv-x="1296" 
d="M1040 61q20 9 60 9h47l-70 -357h-78l48 240q8 37 20 53l-2 2q-18 -8 -59 -8h-721l129 655l35 174q9 39 20 54l-2 2q-18 -8 -59 -8h-318l12 69h775l-13 -69h-280q-42 0 -56 8l-2 -2q6 -25 0 -54l-34 -174l-107 -538q-9 -39 -20 -54l2 -2q20 9 59 9h498q39 0 55 -9l2 2
q-6 25 0 54l162 829h78l-162 -829q-8 -37 -21 -54z" />
    <glyph glyph-name="uni04B6" unicode="&#x4b6;" horiz-adv-x="1107" 
d="M1190 1434l-268 -1383h53l-66 -338h-82l56 287h-58l125 631q5 25 17 49l-2 2q-257 -84 -457 -84q-176 0 -270.5 69.5t-94.5 225.5q0 53 17 143l82 398h86l-86 -437q-11 -51 -11 -94q0 -64 20.5 -108t60.5 -67.5t89.5 -33.5t116.5 -10q98 0 201 20.5t258 67.5l127 662h86z
" />
    <glyph glyph-name="uni04B7" unicode="&#x4b7;" horiz-adv-x="878" 
d="M766 946h78l-64 -330l-55 -276l-57 -301h55l-64 -326h-73l55 287h-59l65 340l10 51q8 40 21 58l-2 2q-185 -76 -342 -76q-41 0 -74.5 4t-71.5 17.5t-63 36.5t-42 64t-17 97q0 50 12 117l47 235h78l-43 -223q-17 -97 -17 -129q0 -81 54 -113t147 -32q79 0 156.5 19.5
t183.5 57.5l18 90z" />
    <glyph glyph-name="uni04B8" unicode="&#x4b8;" horiz-adv-x="1177" 
d="M1104 1434h86l-279 -1434h-86l125 631q5 25 17 49l-2 2q-208 -68 -375 -80l-60 -309h-61l59 305h-20q-176 0 -270.5 69.5t-94.5 225.5q0 53 17 143l82 398h86l-86 -437q-11 -51 -11 -94q0 -64 20.5 -108t60.5 -67.5t89.5 -33.5t116.5 -10h27l65 336h62l-64 -332
q140 13 369 84z" />
    <glyph glyph-name="uni04B9" unicode="&#x4b9;" horiz-adv-x="905" 
d="M766 946h78l-64 -330l-55 -276l-66 -340h-77l65 340l10 51q8 40 21 58l-2 2q-144 -59 -250 -70l-41 -213h-57l41 207h-35q-41 0 -74.5 4t-71.5 17.5t-63 36.5t-42 64t-17 97q0 50 12 117l47 235h78l-43 -223q-17 -97 -17 -129q0 -81 54 -113t147 -32q25 0 39 2l43 227h57
l-43 -221q96 14 244 69l18 90z" />
    <glyph glyph-name="uni04BA" unicode="&#x4ba;" horiz-adv-x="1177" 
d="M446 1434l-124 -631q-5 -25 -17 -49l2 -2q257 84 457 84q176 0 270 -69.5t94 -225.5q0 -59 -16 -144l-82 -397h-86l86 436q10 46 10 94q0 64 -20.5 108t-60.5 68t-89 34t-116 10q-98 0 -201 -20.5t-258 -67.5l-127 -662h-86l278 1434h86z" />
    <glyph glyph-name="uni04BB" unicode="&#x4bb;" horiz-adv-x="1140" 
d="M434 1464l-112 -577q-31 -146 -66 -248l8 -4q72 177 178 259.5t260 82.5q155 0 235.5 -82t80.5 -242q0 -58 -17 -155l-96 -498h-78l99 502q14 52 14 137q0 128 -64.5 196t-185.5 68q-173 0 -295 -129t-166 -360l-79 -414h-78l284 1464h78z" />
    <glyph glyph-name="uni04BC" unicode="&#x4bc;" horiz-adv-x="1837" 
d="M999 -31q-130 0 -239 33.5t-185 91t-128.5 135.5t-77.5 166t-25 183q0 64 12 100v2q-27 -8 -77 -8q-86 0 -133.5 44t-47.5 126q0 36 37 135h74q-35 -89 -35 -123q0 -57 32 -81.5t113 -24.5q31 0 46 -5l2 2q-2 31 10 78q82 302 293.5 471.5t509.5 169.5q137 0 251 -37.5
t198.5 -109t131.5 -182.5t47 -252q0 -70 -24 -211h-1286q-37 0 -60 8l-4 -4v-86q0 -84 21 -161.5t66.5 -146.5t111.5 -119.5t161 -80t210 -29.5q309 0 542 230l66 -64q-269 -250 -613 -250zM446 741q31 7 62 7h1118q72 0 86 -9l6 4q-1 3 0 17.5t2.5 41t1.5 50.5
q0 130 -41.5 232t-115.5 166t-172.5 97t-216.5 33q-137 0 -256 -44.5t-206 -122t-148.5 -177t-94.5 -215.5q-11 -41 -27 -78z" />
    <glyph glyph-name="uni04BD" unicode="&#x4bd;" horiz-adv-x="1288" 
d="M688 -33q-212 0 -332 111.5t-120 306.5q0 69 14 90l-2 2q-19 -8 -64 -8q-75 0 -110 32.5t-35 102.5q0 50 29 115h67q-26 -71 -26 -105q0 -40 17 -57.5t56 -17.5q42 0 72 -9l2 2q-3 10 0 29q17 113 95.5 208.5t197.5 151.5t250 56q192 0 303.5 -101.5t111.5 -275.5
q0 -52 -18 -131h-803q-50 0 -71 8l-3 -2v-16q-6 -41 -6 -68q0 -164 98.5 -255t276.5 -91q116 0 208 42.5t196 145.5l57 -59q-116 -110 -223.5 -158.5t-237.5 -48.5zM336 524q27 15 74 15h649q32 0 76 -13l2 2v70q0 140 -92 221.5t-250 81.5q-172 0 -304 -107.5t-157 -267.5z
" />
    <glyph glyph-name="uni04BE" unicode="&#x4be;" horiz-adv-x="1837" 
d="M498 672q-37 0 -60 8l-4 -4v-86q0 -84 21 -161.5t66.5 -146.5t111.5 -119.5t161 -80t210 -29.5q309 0 542 230l66 -64q-155 -143 -328 -203q-147 -97 -211.5 -156.5t-64.5 -113.5q0 -59 88 -59q53 0 118 14l-10 -70q-68 -14 -125 -14q-75 0 -113 31t-38 88q0 60 45.5 118
t138.5 121q-56 -6 -113 -6q-130 0 -239 33.5t-185 91t-128.5 135.5t-77.5 166t-25 183q0 64 12 100v2q-27 -8 -77 -8q-86 0 -133.5 44t-47.5 126q0 36 37 135h74q-35 -89 -35 -123q0 -57 32 -81.5t113 -24.5q31 0 46 -5l2 2q-2 31 10 78q82 302 293.5 471.5t509.5 169.5
q137 0 251 -37.5t198.5 -109t131.5 -182.5t47 -252q0 -70 -24 -211h-1286zM471 821q-11 -41 -27 -78l2 -2q31 7 62 7h1118q72 0 86 -9l6 4q-1 3 0 17.5t2.5 41t1.5 50.5q0 130 -41.5 232t-115.5 166t-172.5 97t-216.5 33q-137 0 -256 -44.5t-206 -122t-148.5 -177
t-94.5 -215.5z" />
    <glyph glyph-name="uni04BF" unicode="&#x4bf;" horiz-adv-x="1288" 
d="M319 475v-16q-6 -41 -6 -68q0 -164 98.5 -255t276.5 -91q116 0 208 42.5t196 145.5l57 -59q-110 -107 -217 -156q-152 -100 -216.5 -158.5t-64.5 -113.5q0 -59 88 -59q54 0 119 14l-10 -70q-68 -14 -125 -14q-75 0 -113.5 31t-38.5 88q0 112 177 233q-20 -2 -60 -2
q-212 0 -332 111.5t-120 306.5q0 69 14 90l-2 2q-19 -8 -64 -8q-75 0 -110 32.5t-35 102.5q0 50 29 115h67q-26 -71 -26 -105q0 -40 17 -57.5t56 -17.5q42 0 72 -9l2 2q-3 10 0 29q17 113 95.5 208.5t197.5 151.5t250 56q192 0 303.5 -101.5t111.5 -275.5q0 -52 -18 -131
h-803q-50 0 -71 8zM795 901q-172 0 -304 -107.5t-157 -267.5l2 -2q27 15 74 15h649q32 0 76 -13l2 2v70q0 140 -92 221.5t-250 81.5z" />
    <glyph glyph-name="uni04C0" unicode="&#x4c0;" horiz-adv-x="434" 
d="M446 1434l-278 -1434h-86l278 1434h86z" />
    <glyph glyph-name="uni04C1" unicode="&#x4c1;" horiz-adv-x="1871" 
d="M1124 1501q-112 0 -178.5 52.5t-66.5 146.5q0 21 8 67h65q-4 -32 -4 -47q0 -72 43.5 -111.5t132.5 -39.5q102 0 163.5 52.5t82.5 145.5h70q-23 -127 -104.5 -196.5t-211.5 -69.5zM1931 1438q26 0 66 -4l-17 -82q-36 4 -57 4q-82 0 -134 -31t-89 -98l-146 -266
q-58 -107 -121 -151.5t-159 -47.5v-4q93 -5 137.5 -46t50.5 -130l25 -355q6 -86 43.5 -118.5t114.5 -32.5q25 0 75 4l-16 -80q-54 -4 -78 -4q-200 0 -215 197l-27 362q-6 87 -56.5 125.5t-156.5 38.5h-92q-49 0 -61 4l-4 -2q3 -37 -6 -86l-123 -635h-82l123 635q9 46 26 86
v2q-20 -4 -65 -4h-92q-101 0 -161.5 -38t-101.5 -126l-170 -362q-48 -102 -118 -149.5t-178 -47.5q-26 0 -80 4l16 82q50 -4 72 -4q77 0 127 32t88 117l160 355q40 90 103.5 131.5t156.5 44.5v4q-91 3 -141.5 50t-65.5 149l-39 266q-10 70 -50.5 100.5t-117.5 30.5
q-26 0 -62 -4l17 80q40 4 65 4q95 0 151.5 -40t70.5 -132l41 -267q18 -116 70.5 -159t162.5 -43h92q38 0 62 -6l2 2q-3 35 6 81l108 560h82l-108 -560q-7 -34 -27 -81l2 -2q24 6 66 6h92q105 0 169.5 42.5t127.5 159.5l143 267q93 172 303 172z" />
    <glyph glyph-name="uni04C2" unicode="&#x4c2;" horiz-adv-x="1333" 
d="M770 1024q-111 0 -175.5 58.5t-64.5 162.5q0 26 7 66h69q-4 -36 -4 -54q0 -78 45 -120.5t129 -42.5q94 0 161 58t87 159h70q-24 -143 -111.5 -215t-212.5 -72zM1327 950h68l-15 -69h-61q-79 0 -127 -86l-86 -152q-45 -81 -98.5 -111.5t-135.5 -33.5l-2 -4q79 -3 118 -31
t46 -94l21 -193q6 -59 29.5 -84.5t70.5 -25.5h68l-15 -70h-67q-80 0 -118 42t-46 132l-14 152q-6 71 -41 104t-107 33h-57q-48 0 -64 4l-2 -2q3 -37 -6 -86l-74 -375h-51h-26l73 375q7 40 27 86l-2 2q-16 -4 -64 -4h-57q-130 0 -197 -140l-84 -174q-36 -73 -88 -111
t-131 -38h-73l14 70h67q48 0 81.5 27t60.5 83l94 193q32 66 83.5 94t129.5 31l2 4q-82 3 -123 33t-55 112l-27 152q-16 86 -94 86h-61l14 69h68q119 0 141 -119l31 -159q14 -76 51 -110t110 -34h58q45 0 61 -4l2 2q-3 35 6 82l66 338h51h27l-66 -338q-9 -47 -26 -82l2 -2
q16 4 65 4h57q68 0 112.5 33t88.5 111l92 159q69 119 205 119z" />
    <glyph glyph-name="uni04C3" unicode="&#x4c3;" horiz-adv-x="1204" 
d="M1253 1438q40 0 76 -4l-16 -82q-36 4 -58 4q-79 0 -132 -30.5t-89 -98.5l-143 -266q-52 -96 -118 -143.5t-179 -59.5v-4q255 -2 383.5 -66.5t128.5 -212.5q0 -60 -23 -182l-59 -301q-16 -80 -36.5 -138.5t-55.5 -110.5t-84 -84t-121.5 -50.5t-167.5 -18.5h-98l16 78h103
q163 0 245 81t113 243l57 301q21 108 21 143q0 55 -18 97.5t-47.5 72t-79.5 50.5t-99.5 33t-123 18.5t-136 9t-150.5 2.5q-49 0 -61 4l-4 -2q3 -37 -6 -86l-123 -635h-86l278 1434h86l-110 -568q-10 -53 -27 -82l2 -2q24 6 66 6h143q101 0 165 42.5t130 168.5l143 267
q94 172 295 172z" />
    <glyph glyph-name="uni04C4" unicode="&#x4c4;" horiz-adv-x="927" 
d="M281 -410l14 74h92q114 0 185.5 58t99.5 196l51 258q6 40 6 92q0 191 -299 191h-149q-48 0 -64 4l-2 -2q3 -37 -6 -86l-74 -375h-74l185 946h73l-65 -338q-7 -36 -27 -82l2 -2q16 4 64 4h131q71 0 120.5 34t92.5 110l92 159q68 119 193 119h67l-12 -69h-62
q-79 0 -129 -86l-86 -152q-51 -86 -96 -112t-135 -29l-2 -4q167 -2 253.5 -53t86.5 -175q0 -36 -10 -94l-52 -262q-33 -165 -115 -244.5t-227 -79.5h-122z" />
    <glyph glyph-name="uni04C5" unicode="&#x4c5;" horiz-adv-x="1503" 
d="M1518 1434l-115 -588l-141 -731h79l-213 -402h-79l141 287h-37l164 846l90 463q8 38 14 49v2q-14 -4 -55 -4h-731q-41 0 -51 4l-4 -2q4 -23 -2 -49l-82 -422l-121 -617q-29 -150 -100 -215t-201 -65q-64 0 -115 4l16 82q45 -4 107 -4q85 0 135.5 45.5t71.5 152.5l121 617
l106 547h1002z" />
    <glyph glyph-name="uni04C6" unicode="&#x4c6;" horiz-adv-x="1136" 
d="M1077 946l-162 -831h80l-213 -402h-80l142 287h-29l162 829q8 34 20 54l-2 2q-16 -8 -57 -8h-498q-41 0 -57 8l-2 -2q8 -20 0 -54l-23 -120l-94 -488q-23 -119 -81 -172t-165 -53h-79l14 70h80q60 0 98 37t55 118l95 488l45 237h751z" />
    <glyph glyph-name="uni04C7" unicode="&#x4c7;" horiz-adv-x="1423" 
d="M727 -410l14 82h90q172 0 213 207l158 805q7 36 17 49l-2 2q-14 -4 -56 -4h-803q-41 0 -51 4l-2 -2q0 -31 -4 -49l-133 -684h-86l278 1434h86l-112 -578q-5 -28 -15 -49v-2q14 4 56 4h803q41 0 51 -4l4 2q-4 23 2 49l113 578h88l-303 -1555q-28 -145 -101.5 -217
t-218.5 -72h-86z" />
    <glyph glyph-name="uni04C8" unicode="&#x4c8;" horiz-adv-x="1105" 
d="M965 946h79l-184 -946l-24 -121q-33 -166 -107.5 -227.5t-206.5 -61.5h-86l15 76h90q87 0 139.5 46.5t77.5 166.5l24 121l82 426q6 37 21 57l-2 2q-23 -10 -56 -10h-548q-35 0 -52 10l-2 -2q3 -12 -4 -57l-82 -426h-78l185 946h76l-68 -352q-6 -38 -18 -57l2 -2
q22 10 55 10h549q34 0 51 -10l2 2q-5 13 2 57z" />
    <glyph glyph-name="uni04C9" unicode="&#x4c9;" horiz-adv-x="1419" 
d="M1434 1434l-256 -1319h79l-213 -402h-79l141 287h-37l133 684q8 35 17 49l-2 2q-14 -4 -56 -4h-803q-41 0 -51 4l-2 -2q0 -31 -4 -49l-133 -684h-86l278 1434h86l-112 -578q-8 -34 -15 -49v-2q14 4 56 4h803q41 0 51 -4l4 2q-4 23 2 49l113 578h86z" />
    <glyph glyph-name="uni04CA" unicode="&#x4ca;" horiz-adv-x="1103" 
d="M1044 946l-161 -831h80l-213 -402h-80l141 287h-29l82 426q6 37 21 57l-2 2q-23 -10 -56 -10h-548q-35 0 -52 10l-2 -2q3 -12 -4 -57l-82 -426h-78l185 946h76l-68 -352q-6 -38 -18 -57l2 -2q22 10 55 10h549q34 0 51 -10l2 2q-5 13 2 57l68 352h79z" />
    <glyph glyph-name="uni04CB" unicode="&#x4cb;" horiz-adv-x="1177" 
d="M1190 1434l-279 -1434h-55l-55 -287h-82l65 338h52l114 580q5 25 17 49l-2 2q-257 -84 -457 -84q-176 0 -270.5 69.5t-94.5 225.5q0 53 17 143l82 398h86l-86 -437q-11 -51 -11 -94q0 -64 20.5 -108t60.5 -67.5t89.5 -33.5t116.5 -10q98 0 201 20.5t258 67.5l127 662h86z
" />
    <glyph glyph-name="uni04CC" unicode="&#x4cc;" horiz-adv-x="905" 
d="M766 946h78l-64 -330l-55 -276l-66 -340h-65l-55 -287h-74l63 326h62l57 301l10 51q8 40 21 58l-2 2q-185 -76 -342 -76q-41 0 -74.5 4t-71.5 17.5t-63 36.5t-42 64t-17 97q0 50 12 117l47 235h78l-43 -223q-17 -97 -17 -129q0 -81 54 -113t147 -32q79 0 156.5 19.5
t183.5 57.5l18 90z" />
    <glyph glyph-name="uni04CD" unicode="&#x4cd;" horiz-adv-x="1769" 
d="M1602 115h88l-213 -402h-80l141 287h-20l-56 989q-7 161 4 234h-6q-5 -12 -17.5 -43t-21 -51t-27 -58t-42.5 -80l-580 -1022h-8l-172 1022q-19 115 -19 232h-6q-18 -85 -86 -234l-450 -989h-92l661 1464h6l178 -1102q17 -102 17 -198h8q40 108 90 198l610 1102h7z" />
    <glyph glyph-name="uni04CE" unicode="&#x4ce;" horiz-adv-x="1343" 
d="M1178 115h86l-213 -402h-80l145 293l-74 569q-15 117 -2 213h-6q-4 -10 -15.5 -38.5t-19.5 -46t-26 -52t-41 -73.5l-354 -596h-9l-131 593q-7 32 -12 58t-7 50t-3 36.5t-1.5 36.5t-0.5 30h-6q-25 -110 -80 -213l-301 -573h-88l491 967h8l135 -645q23 -115 23 -187h4
q30 88 88 187l381 645h8z" />
    <glyph glyph-name="uni04CF" unicode="&#x4cf;" horiz-adv-x="385" 
d="M324 946l-185 -946h-78l185 946h78z" />
    <glyph glyph-name="uni04D0" unicode="&#x4d0;" horiz-adv-x="1341" 
d="M1174 1767q-23 -127 -104.5 -196.5t-211.5 -69.5q-112 0 -179 52.5t-67 146.5q0 15 9 67h65q-4 -32 -4 -47q0 -72 43.5 -111.5t132.5 -39.5q102 0 163.5 52.5t82.5 145.5h70zM-61 0l919 1464h10l351 -1464h-86l-119 487h-670l-305 -487h-100zM381 557q62 4 115 4h395
q53 0 115 -4v2q-17 33 -37 119l-105 467q-25 115 -22 178h-2q-26 -71 -90 -178l-287 -467q-52 -84 -82 -119v-2z" />
    <glyph glyph-name="uni04D1" unicode="&#x4d1;" horiz-adv-x="1069" 
d="M641 1024q-111 0 -175.5 58.5t-64.5 162.5q0 26 7 66h69q-4 -36 -4 -54q0 -78 45 -120.5t129 -42.5q94 0 161 58t87 159h70q-24 -143 -111.5 -215t-212.5 -72zM418 -31q-165 0 -265 88.5t-100 235.5q0 157 113 254.5t297 97.5q153 0 249 -68t126 -174l6 3q0 13 14 96
q23 135 23 176q0 118 -63 172.5t-204 54.5q-148 0 -331 -47l-19 74q169 45 348 45q346 0 346 -277q0 -49 -14 -129l-110 -571h-78q20 96 49 178l-6 2q-52 -100 -152.5 -155.5t-228.5 -55.5zM424 47q154 0 264.5 82t110.5 197q0 105 -95 173t-237 68q-149 0 -238.5 -75.5
t-89.5 -198.5q0 -114 76.5 -180t208.5 -66z" />
    <glyph glyph-name="uni04D2" unicode="&#x4d2;" horiz-adv-x="1341" 
d="M707 1747h102l-43 -225h-102zM1026 1747h102l-43 -225h-102zM-61 0l919 1464h10l351 -1464h-86l-119 487h-670l-305 -487h-100zM381 557q62 4 115 4h395q53 0 115 -4v2q-17 33 -37 119l-105 467q-25 115 -22 178h-2q-26 -71 -90 -178l-287 -467q-52 -84 -82 -119v-2z" />
    <glyph glyph-name="uni04D3" unicode="&#x4d3;" horiz-adv-x="1069" 
d="M600 1290l-43 -225h-106l43 225h106zM895 1290l-43 -225h-107l43 225h107zM418 -31q-165 0 -265 88.5t-100 235.5q0 157 113 254.5t297 97.5q153 0 249 -68t126 -174l6 3q0 13 14 96q23 135 23 176q0 118 -63 172.5t-204 54.5q-148 0 -331 -47l-19 74q169 45 348 45
q346 0 346 -277q0 -49 -14 -129l-110 -571h-78q20 96 49 178l-6 2q-52 -100 -152.5 -155.5t-228.5 -55.5zM424 47q154 0 264.5 82t110.5 197q0 105 -95 173t-237 68q-149 0 -238.5 -75.5t-89.5 -198.5q0 -114 76.5 -180t208.5 -66z" />
    <glyph glyph-name="uni04D4" unicode="&#x4d4;" horiz-adv-x="1802" 
d="M1354 1356q-42 0 -54 4l-2 -2q3 -18 -4 -49l-82 -428q-7 -32 -16 -50l2 -2q15 5 53 5h525l-15 -78h-524q-41 0 -53 4l-2 -2q3 -18 -4 -49l-113 -584q-7 -31 -16 -49l2 -2q12 4 53 4h590l-15 -78h-718l86 440q8 38 14 49v3q-17 -5 -55 -5h-531l-430 -487h-106l1261 1434
h748l-15 -78h-579zM1020 561q41 0 53 -4l2 2q-3 18 4 49l131 654q8 40 27 106h-4q-24 -37 -80 -98l-557 -645q-38 -47 -80 -70v-2q37 8 117 8h387z" />
    <glyph glyph-name="uni04D5" unicode="&#x4d5;" horiz-adv-x="1863" 
d="M1276 -33q-163 0 -268 82.5t-129 239.5h-7q-101 -320 -454 -320q-157 0 -261 84.5t-104 237.5q0 150 108.5 252t299.5 102q156 0 251.5 -64t125.5 -163l6 2l14 82q25 137 25 184q0 109 -65 161t-195 52q-144 0 -340 -47l-19 78q190 47 359 47q52 0 95 -6t86.5 -23t73 -44
t49 -72.5t21.5 -106.5h4q67 118 182.5 185t260.5 67q98 0 175 -30t124.5 -82t71.5 -119.5t24 -145.5q0 -60 -18 -131h-756q-45 0 -72 8l-2 -2v-16q-6 -34 -6 -68q0 -160 93 -253t255 -93q84 0 158.5 28.5t122 65.5t102.5 94l57 -59q-43 -44 -82 -75.5t-94.5 -64.5t-124 -50
t-147.5 -17zM954 524q30 15 74 15h606q39 0 76 -13l2 2v70q0 138 -84.5 220.5t-236.5 82.5q-82 0 -153 -24.5t-120 -63.5t-85.5 -89.5t-55.5 -100t-25 -97.5zM422 47q92 0 177 32.5t142.5 97.5t57.5 147q0 110 -96.5 176.5t-241.5 66.5q-82 0 -146 -25t-101.5 -66t-56 -88.5
t-18.5 -98.5q0 -110 77.5 -176t205.5 -66z" />
    <glyph glyph-name="uni04D6" unicode="&#x4d6;" horiz-adv-x="1048" 
d="M1104 1767q-23 -127 -104.5 -196.5t-211.5 -69.5q-112 0 -178.5 52.5t-66.5 146.5q0 21 8 67h65q-4 -32 -4 -47q0 -72 43.5 -111.5t132.5 -39.5q102 0 163.5 52.5t82.5 145.5h70zM1143 1434l-15 -78h-647q-41 0 -53 4l-2 -2q3 -18 -4 -49l-82 -428q-7 -32 -16 -50l2 -2
q15 5 53 5h584l-15 -78h-583q-42 0 -54 4l-2 -2q3 -18 -4 -49l-112 -584q-6 -27 -17 -49l2 -2q12 4 53 4h658l-15 -78h-792l278 1434h783z" />
    <glyph glyph-name="uni04D7" unicode="&#x4d7;" horiz-adv-x="1124" 
d="M680 1024q-111 0 -175.5 58.5t-64.5 162.5q0 31 6 66h70q-4 -36 -4 -54q0 -78 45 -120.5t129 -42.5q94 0 161 58t87 159h70q-24 -143 -111.5 -215t-212.5 -72zM516 -33q-207 0 -321.5 115t-114.5 324q0 246 161.5 408.5t405.5 162.5q190 0 301 -101.5t111 -275.5
q0 -56 -19 -131h-796q-51 0 -72 8l-2 -2v-16q-6 -49 -6 -68q0 -161 96.5 -253.5t263.5 -92.5q113 0 207.5 44t194.5 144l57 -59q-111 -108 -222.5 -157.5t-244.5 -49.5zM182 524q27 15 74 15h647q22 0 76 -13l2 2v70q0 141 -90.5 222t-247.5 81q-170 0 -307 -111.5
t-156 -263.5z" />
    <glyph glyph-name="uni04D8" unicode="&#x4d8;" horiz-adv-x="1634" 
d="M928 1464q144 0 263 -38.5t209.5 -115.5t140.5 -201t50 -286q0 -182 -63 -340.5t-172.5 -271.5t-264.5 -177.5t-333 -64.5q-135 0 -248 38.5t-199 114t-134 198.5t-48 282q0 72 21 160h1288q40 0 67 -8l4 4q-6 8 -6 78q0 136 -43.5 241t-122.5 170.5t-184 99t-233 33.5
q-304 0 -541 -194l-45 76q258 202 594 202zM1503 692q-27 -6 -78 -6h-1120q-74 0 -86 8l-6 -4q1 -7 0.5 -14.5t-1.5 -30.5t-1 -43q0 -138 41 -244t116 -172t174 -99.5t220 -33.5q136 0 254.5 43t196.5 106t138 142.5t90 146t42 121.5q11 56 22 78z" />
    <glyph glyph-name="uni04D9" unicode="&#x4d9;" horiz-adv-x="1124" 
d="M608 979q207 0 321.5 -114.5t114.5 -323.5q0 -246 -161.5 -409t-405.5 -163q-190 0 -300.5 101.5t-110.5 275.5q0 60 18 131h797q50 0 71 -8l2 2v16q7 58 7 68q0 161 -97 253.5t-264 92.5q-113 0 -207 -44t-194 -144l-58 59q111 108 222.5 157.5t244.5 49.5zM942 422
q-25 -14 -74 -14h-647q-27 0 -76 12l-2 -2q1 -8 1 -19.5t-0.5 -26.5t-0.5 -24q0 -141 90.5 -222t247.5 -81q170 0 307 111.5t156 263.5z" />
    </font>
</defs>
</svg>
