<?xml version="1.0" standalone="no"?>
<!DOCTYPE svg PUBLIC "-//W3C//DTD SVG 1.1//EN" "http://www.w3.org/Graphics/SVG/1.1/DTD/svg11.dtd" >
<svg xmlns="http://www.w3.org/2000/svg" xmlns:xlink="http://www.w3.org/1999/xlink" version="1.1">
<metadata>
Created by FontForge 20170731 at Sat Jul 23 01:52:16 2022
 By Aleksey,,,
Copyright (c) 2015 by Reto Moser. All rights reserved.
</metadata>
<defs>
<font id="GTEestiProText-UltraLight" horiz-adv-x="1228" >
  <font-face 
    font-family="GT Eesti Pro Text UltraLight"
    font-weight="250"
    font-stretch="normal"
    units-per-em="2048"
    panose-1="0 0 3 0 0 0 0 0 0 0"
    ascent="1536"
    descent="-512"
    x-height="946"
    cap-height="1434"
    bbox="-768 -516 2290 1843"
    underline-thickness="102"
    underline-position="-307"
    unicode-range="U+0020-FB02"
  />
<missing-glyph horiz-adv-x="1576" 
d="M788 -31q-213 0 -384 96.5t-267 267.5t-96 384q0 160 56.5 299t155 237.5t237 154.5t298.5 56q214 0 385 -95.5t267 -266.5t96 -385q0 -213 -96 -384t-267 -267.5t-385 -96.5zM788 20q149 0 279 53.5t223 146.5t146 224.5t53 282.5l-105 133l-143 -61l-139 184l-162 -90
l-152 242l-151 -242l-162 90l-139 -184l-143 61l-105 -133q0 -201 90.5 -363t250.5 -253t359 -91zM578 651q-31 0 -51.5 20.5t-20.5 51.5t20.5 51.5t51.5 20.5t51 -20.5t20 -51.5t-20 -51.5t-51 -20.5zM997 651q-31 0 -51 20.5t-20 51.5t20 51.5t51 20.5t51.5 -20.5
t20.5 -51.5t-20.5 -51.5t-51.5 -20.5zM702 522l74 207q1 7 8.5 10t14.5 0q6 -2 9.5 -8.5t0.5 -13.5l-57 -160h69q8 0 13.5 -5.5t5.5 -12.5q0 -6 -6 -11.5t-13 -5.5h-119zM385 350q-61 0 -101 40t-40 102t40 101.5t101 39.5t101 -39.5t40 -101.5t-40 -102t-101 -40zM1190 350
q-61 0 -101 40t-40 102t39.5 101.5t101.5 39.5t101.5 -39.5t39.5 -101.5t-40 -102t-101 -40zM788 395q-95 0 -126 -61q-6 -12 -19 -12q-16 0 -16 18q0 35 49.5 63.5t111.5 28.5t112 -28.5t50 -63.5q0 -18 -16 -18q-13 0 -19 12q-31 61 -127 61z" />
    <glyph glyph-name="fi" unicode="fi" horiz-adv-x="1071" 
d="M598 1452v-70h-18q-115 0 -175.5 -64t-60.5 -216v-109q0 -33 -10 -53l2 -2q16 8 57 8h205v-65h-205q-41 0 -57 8l-2 -2q10 -20 10 -53v-834h-74v834q0 31 11 53l-2 2q-16 -8 -58 -8h-170v65h170q42 0 58 -8l2 2q-11 22 -11 53v113q0 180 82 263t221 83h25zM915 1434v-265
h-90v265h90zM907 946v-946h-73v946h73z" />
    <glyph glyph-name="fl" unicode="fl" horiz-adv-x="1071" 
d="M907 1464v-1464h-73v1464h73zM598 1452v-70h-18q-115 0 -175.5 -64t-60.5 -216v-109q0 -33 -10 -53l2 -2q16 8 57 8h205v-65h-205q-41 0 -57 8l-2 -2q10 -20 10 -53v-834h-74v834q0 31 11 53l-2 2q-16 -8 -58 -8h-170v65h170q42 0 58 -8l2 2q-11 22 -11 53v113
q0 180 82 263t221 83h25z" />
    <glyph glyph-name="f_f" unicode="ff" horiz-adv-x="1339" 
d="M598 1452v-70h-18q-115 0 -175.5 -64t-60.5 -216v-109q0 -33 -10 -53l2 -2q16 8 57 8h205v-65h-205q-41 0 -57 8l-2 -2q10 -20 10 -53v-834h-74v834q0 31 11 53l-2 2q-16 -8 -58 -8h-170v65h170q42 0 58 -8l2 2q-11 22 -11 53v113q0 180 82 263t221 83h25zM1268 1452v-70
h-19q-114 0 -174.5 -64t-60.5 -216v-109q0 -33 -10 -53l2 -2q16 8 57 8h205v-65h-205q-41 0 -57 8l-2 -2q10 -20 10 -53v-834h-74v834q0 33 10 53l-2 2q-16 -8 -57 -8h-170v65h170q41 0 57 -8l2 2q-10 20 -10 53v113q0 180 82 263t221 83h25z" />
    <glyph glyph-name="f_f_i" unicode="ffi" horiz-adv-x="1740" 
d="M598 1452v-70h-18q-115 0 -175.5 -64t-60.5 -216v-109q0 -33 -10 -53l2 -2q16 8 57 8h205v-65h-205q-41 0 -57 8l-2 -2q10 -20 10 -53v-834h-74v834q0 31 11 53l-2 2q-16 -8 -58 -8h-170v65h170q42 0 58 -8l2 2q-11 22 -11 53v113q0 180 82 263t221 83h25zM1268 1452v-70
h-19q-114 0 -174.5 -64t-60.5 -216v-109q0 -33 -10 -53l2 -2q16 8 57 8h205v-65h-205q-41 0 -57 8l-2 -2q10 -20 10 -53v-834h-74v834q0 33 10 53l-2 2q-16 -8 -57 -8h-170v65h170q41 0 57 -8l2 2q-10 20 -10 53v113q0 180 82 263t221 83h25zM1585 1434v-265h-90v265h90z
M1577 946v-946h-74v946h74z" />
    <glyph glyph-name="f_f_l" unicode="ffl" horiz-adv-x="1740" 
d="M1577 1464v-1464h-74v1464h74zM598 1452v-70h-18q-115 0 -175.5 -64t-60.5 -216v-109q0 -33 -10 -53l2 -2q16 8 57 8h205v-65h-205q-41 0 -57 8l-2 -2q10 -20 10 -53v-834h-74v834q0 31 11 53l-2 2q-16 -8 -58 -8h-170v65h170q42 0 58 -8l2 2q-11 22 -11 53v113
q0 180 82 263t221 83h25zM1268 1452v-70h-19q-114 0 -174.5 -64t-60.5 -216v-109q0 -33 -10 -53l2 -2q16 8 57 8h205v-65h-205q-41 0 -57 8l-2 -2q10 -20 10 -53v-834h-74v834q0 33 10 53l-2 2q-16 -8 -57 -8h-170v65h170q41 0 57 -8l2 2q-10 20 -10 53v113q0 180 82 263
t221 83h25z" />
    <glyph glyph-name=".notdef" horiz-adv-x="1576" 
d="M788 -31q-213 0 -384 96.5t-267 267.5t-96 384q0 160 56.5 299t155 237.5t237 154.5t298.5 56q214 0 385 -95.5t267 -266.5t96 -385q0 -213 -96 -384t-267 -267.5t-385 -96.5zM788 20q149 0 279 53.5t223 146.5t146 224.5t53 282.5l-105 133l-143 -61l-139 184l-162 -90
l-152 242l-151 -242l-162 90l-139 -184l-143 61l-105 -133q0 -201 90.5 -363t250.5 -253t359 -91zM578 651q-31 0 -51.5 20.5t-20.5 51.5t20.5 51.5t51.5 20.5t51 -20.5t20 -51.5t-20 -51.5t-51 -20.5zM997 651q-31 0 -51 20.5t-20 51.5t20 51.5t51 20.5t51.5 -20.5
t20.5 -51.5t-20.5 -51.5t-51.5 -20.5zM702 522l74 207q1 7 8.5 10t14.5 0q6 -2 9.5 -8.5t0.5 -13.5l-57 -160h69q8 0 13.5 -5.5t5.5 -12.5q0 -6 -6 -11.5t-13 -5.5h-119zM385 350q-61 0 -101 40t-40 102t40 101.5t101 39.5t101 -39.5t40 -101.5t-40 -102t-101 -40zM1190 350
q-61 0 -101 40t-40 102t39.5 101.5t101.5 39.5t101.5 -39.5t39.5 -101.5t-40 -102t-101 -40zM788 395q-95 0 -126 -61q-6 -12 -19 -12q-16 0 -16 18q0 35 49.5 63.5t111.5 28.5t112 -28.5t50 -63.5q0 -18 -16 -18q-13 0 -19 12q-31 61 -127 61z" />
    <glyph glyph-name=".null" horiz-adv-x="0" 
 />
    <glyph glyph-name="nonmarkingreturn" horiz-adv-x="682" 
 />
    <glyph glyph-name="NULL" horiz-adv-x="40" 
 />
    <glyph glyph-name="NULL" horiz-adv-x="40" 
 />
    <glyph glyph-name="space" unicode=" " horiz-adv-x="665" 
 />
    <glyph glyph-name="exclam" unicode="!" horiz-adv-x="614" 
d="M281 403l-17 1031h86l-16 -1031h-53zM225 0v164h164v-164h-164z" />
    <glyph glyph-name="quotedbl" unicode="&#x22;" horiz-adv-x="505" 
d="M213 1464l-27 -518h-36l-27 518h90zM383 1464l-27 -518h-37l-26 518h90z" />
    <glyph glyph-name="numbersign" unicode="#" horiz-adv-x="1331" 
d="M1208 946h-264l-76 -414h267v-61h-277l-86 -471h-72l86 471h-327l-86 -471h-72l86 471h-264v61h274l76 414h-276v62h286l78 426h72l-78 -426h328l78 426h71l-78 -426h254v-62zM797 532l75 414h-327l-76 -414h328z" />
    <glyph glyph-name="dollar" unicode="$" horiz-adv-x="997" 
d="M492 -168v82q0 34 4 63l-2 3q-18 -9 -54 -9q-72 3 -177 35.5t-181 77.5l37 68q111 -54 173 -73.5t159 -33.5q32 -6 41 -12l4 2q-4 33 -4 78v606l-93 63q-41 28 -68 49t-60.5 54t-53 65t-33.5 76.5t-14 93.5q0 62 19.5 112t49.5 81.5t69 53.5t76 31.5t73 10.5q30 0 41 -8
l2 2q-8 35 -8 80v67h61v-67q0 -45 -8 -80l2 -2q26 12 59 8q102 -12 250 -72l-31 -69q-120 52 -229 67q-32 5 -49 19l-2 -2q8 -31 8 -60v-522l102 -72q47 -33 79.5 -59t69.5 -63.5t59 -74.5t37 -86t15 -104q0 -139 -85 -227t-232 -109q-19 -3 -49 5l-2 -3q6 -27 6 -63v-82
h-61zM494 799h2q-4 35 -4 67v426q0 29 6 58l-2 2q-17 -15 -39 -19q-39 -4 -73.5 -17t-66.5 -36.5t-50.5 -63t-18.5 -90.5q0 -88 49 -152t158 -136q24 -16 39 -39zM551 33q22 15 49 18q120 19 179 89.5t59 170.5q0 45 -13 86t-31 70t-52 62.5t-59 53t-69 52.5t-67 59l-2 -2
q8 -37 8 -74v-503q0 -45 -6 -80z" />
    <glyph glyph-name="percent" unicode="%" horiz-adv-x="1521" 
d="M420 778q-138 0 -228 90t-90 228t90 227.5t228 89.5t227.5 -89.5t89.5 -227.5t-89.5 -228t-227.5 -90zM293 0l809 1382h74l-809 -1382h-74zM420 848q110 0 177 68t67 180t-67 179.5t-177 67.5t-177 -67.5t-67 -179.5t67 -180t177 -68zM1102 -10q-138 0 -228 89.5
t-90 227.5t90 228t228 90t227.5 -90t89.5 -228t-89.5 -227.5t-227.5 -89.5zM1102 59q110 0 177 68t67 180t-67 180t-177 68t-177 -68t-67 -180t67 -180t177 -68z" />
    <glyph glyph-name="ampersand" unicode="&#x26;" horiz-adv-x="1345" 
d="M903 1382l49 -73l-2 -4h-526q-53 0 -100 16v-4l731 -1010h2q2 22 22 53q76 122 140 295l75 -28q-73 -199 -161 -336q-1 -1 -6 -8.5t-7 -10t-6.5 -7.5t-8.5 -8t-9 -5v-2l174 -244v-6h-94l-136 188h-2q-29 -72 -162.5 -144.5t-297.5 -72.5q-211 0 -343.5 117.5
t-132.5 323.5q0 162 93.5 281t267.5 186q35 14 65 14v2l-346 479v8h721zM565 842h-2q-10 -18 -41 -31q-334 -119 -334 -395q0 -169 111 -268t281 -99q215 0 376 158q29 25 48 29v2z" />
    <glyph glyph-name="quotesingle" unicode="'" horiz-adv-x="335" 
d="M213 1464l-27 -518h-36l-27 518h90z" />
    <glyph glyph-name="parenleft" unicode="(" horiz-adv-x="591" 
d="M467 1548l63 -47q-175 -223 -257.5 -452t-82.5 -500q0 -272 83 -499.5t257 -442.5l-63 -47q-171 213 -262.5 449t-91.5 540q0 303 91 540t263 459z" />
    <glyph glyph-name="parenright" unicode=")" horiz-adv-x="591" 
d="M166 1548q172 -222 263 -459t91 -540q0 -304 -91.5 -540t-262.5 -449l-64 47q174 215 257 442.5t83 499.5q0 271 -82.5 500t-257.5 452z" />
    <glyph glyph-name="asterisk" unicode="*" horiz-adv-x="851" 
d="M250 809l-57 43l200 250l-311 86l22 67l299 -112l-14 321h72l-15 -319l302 112l22 -67l-309 -86l201 -252l-58 -41l-176 268z" />
    <glyph glyph-name="plus" unicode="+" 
d="M645 1110v-471h469v-57h-469v-471h-61v471h-469v57h469v471h61z" />
    <glyph glyph-name="comma" unicode="," horiz-adv-x="421" 
d="M92 -342l94 520h123l-164 -520h-53z" />
    <glyph glyph-name="hyphen" unicode="-" horiz-adv-x="720" 
d="M608 602v-82h-495v82h495z" />
    <glyph glyph-name="period" unicode="." horiz-adv-x="409" 
d="M123 0v164h164v-164h-164z" />
    <glyph glyph-name="slash" unicode="/" horiz-adv-x="1181" 
d="M121 -152l-60 35l1000 1653l59 -35z" />
    <glyph glyph-name="zero" unicode="0" horiz-adv-x="1200" 
d="M600 1413q221 0 354 -186.5t133 -534.5t-133 -535.5t-354 -187.5t-354 187.5t-133 535.5t133 534.5t354 186.5zM600 1343q-187 0 -300.5 -172.5t-113.5 -478.5t113.5 -479.5t300.5 -173.5t300.5 173.5t113.5 479.5t-113.5 478.5t-300.5 172.5z" />
    <glyph glyph-name="one" unicode="1" horiz-adv-x="647" 
d="M442 1382v-1382h-75v989q0 69 3.5 100t14.5 78l-6 4q-18 -23 -80 -59l-197 -115v86l269 174l26 125h45z" />
    <glyph glyph-name="two" unicode="2" horiz-adv-x="1011" 
d="M530 1413q172 0 274.5 -91.5t102.5 -260.5q0 -206 -200 -424l-388 -422q-101 -111 -165 -154l2 -2q62 15 153 15h598l2 -4l-39 -70h-847l-3 6l635 688q174 185 174 365q0 94 -43.5 159t-109.5 93t-148 28q-186 0 -385 -176l-49 58q208 192 436 192z" />
    <glyph glyph-name="three" unicode="3" horiz-adv-x="1003" 
d="M477 1413q183 0 279 -90t96 -231q0 -103 -62.5 -182.5t-164.5 -112.5q-46 -16 -121 -21v-8q67 0 119 -10q61 -12 112.5 -38.5t94.5 -69t67.5 -108t24.5 -147.5q0 -93 -28 -169t-84.5 -134.5t-149.5 -90.5t-216 -32q-210 0 -383 101l27 71q93 -48 172 -73t174 -25
q194 0 302 88t108 254q0 173 -124.5 256.5t-393.5 83.5v76q197 0 322.5 74.5t125.5 205.5q0 125 -82.5 191.5t-226.5 66.5q-87 0 -178.5 -30.5t-163.5 -75.5l-35 65q189 115 389 115z" />
    <glyph glyph-name="four" unicode="4" horiz-adv-x="1120" 
d="M879 1382v-968q0 -36 -2 -52l2 -2q10 2 32 2h148l-35 -69h-111q-24 0 -34 2l-2 -2q2 -12 2 -41v-252h-74v246q0 33 2 47l-2 2q-16 -2 -43 -2h-721v61l754 1028h84zM805 1290q-15 -34 -51 -86l-561 -762q-39 -54 -60 -77l2 -7q27 4 78 4h526q45 0 68 -4l2 2q-4 20 -4 66
v770q0 55 6 92z" />
    <glyph glyph-name="five" unicode="5" horiz-adv-x="1036" 
d="M954 1382l-26 -71h-467q-39 0 -51 2l-2 -2q0 -39 -17 -94l-92 -308q-15 -51 -41 -86l2 -4q101 45 219 45q209 0 329 -111t120 -302q0 -225 -139.5 -353.5t-391.5 -128.5q-212 0 -377 105l31 71q172 -102 355 -102q112 0 198.5 32t139 88t79.5 126.5t27 152.5
q0 113 -54.5 194t-139.5 118t-189 37q-110 0 -283 -48l-6 9l189 630h587z" />
    <glyph glyph-name="six" unicode="6" horiz-adv-x="1101" 
d="M752 1403l-248 -305q-116 -142 -171 -214t-108 -153l6 -4q84 102 165.5 137t176.5 35q203 0 330 -130.5t127 -328.5q0 -208 -132.5 -339.5t-336.5 -131.5q-92 0 -176 29.5t-152.5 86t-109.5 149.5t-41 210q0 235 180 461l395 498h95zM561 825q-176 0 -290.5 -111
t-114.5 -280q0 -172 114 -281.5t295 -109.5q170 0 278.5 108t108.5 283q0 172 -109.5 281.5t-281.5 109.5z" />
    <glyph glyph-name="seven" unicode="7" horiz-adv-x="880" 
d="M858 1382l2 -4l-645 -1378h-78l588 1253q16 37 33 60l-2 2q-21 -6 -82 -6h-633l22 73h795z" />
    <glyph glyph-name="eight" unicode="8" horiz-adv-x="1118" 
d="M559 -31q-211 0 -334 105.5t-123 285.5q0 147 84.5 247t231.5 126v8q-130 28 -202.5 112.5t-72.5 209.5q0 163 111.5 256.5t304.5 93.5t304.5 -93.5t111.5 -256.5q0 -125 -72.5 -209.5t-202.5 -112.5v-8q147 -26 231.5 -126t84.5 -247q0 -180 -123 -285.5t-334 -105.5z
M559 772q151 0 244.5 80t93.5 209q0 127 -92 202.5t-246 75.5t-246 -75.5t-92 -202.5q0 -129 93.5 -209t244.5 -80zM559 43q178 0 278.5 84t100.5 233q0 157 -102 247.5t-277 90.5t-277 -90.5t-102 -247.5q0 -149 100.5 -233t278.5 -84z" />
    <glyph glyph-name="nine" unicode="9" horiz-adv-x="1056" 
d="M530 1413q74 0 142 -17.5t129 -55t106.5 -92t72 -134t26.5 -174.5q0 -236 -187 -463l-391 -477h-94l248 301q19 24 60 73.5t66 79.5t61 75.5t67 86.5l-9 5q-130 -138 -319 -138q-203 0 -330 131t-127 330q0 209 134 339t345 130zM532 1339q-176 0 -289.5 -108.5
t-113.5 -284.5q0 -172 110 -280.5t283 -108.5q175 0 289.5 111t114.5 284q0 169 -109.5 278t-284.5 109z" />
    <glyph glyph-name="colon" unicode=":" horiz-adv-x="409" 
d="M123 782v164h164v-164h-164zM123 0v164h164v-164h-164z" />
    <glyph glyph-name="semicolon" unicode=";" horiz-adv-x="448" 
d="M172 782v164h164v-164h-164zM92 -342l94 520h123l-164 -520h-53z" />
    <glyph glyph-name="less" unicode="&#x3c;" 
d="M1055 1030v-67l-803 -351l803 -350v-67l-881 389v57z" />
    <glyph glyph-name="equal" unicode="=" 
d="M1133 809v-57h-1037v57h1037zM1133 471v-57h-1037v57h1037z" />
    <glyph glyph-name="greater" unicode="&#x3e;" 
d="M174 1030l881 -389v-57l-881 -389v67l803 350l-803 351v67z" />
    <glyph glyph-name="question" unicode="?" horiz-adv-x="786" 
d="M395 1464q142 0 226 -72.5t84 -197.5q0 -49 -12 -88.5t-37.5 -71.5t-46 -51.5t-56.5 -46.5l-129 -102q-46 -37 -69 -74.5t-23 -87.5q0 -25 5 -46.5t19 -42.5t24.5 -34.5t37.5 -34.5t39.5 -30.5t48.5 -34.5l-45 -62q-3 2 -29 19t-33 22t-30 21.5t-31.5 26.5t-26 28.5
t-25 34.5t-17.5 37t-13.5 44.5t-3.5 49.5q0 131 113 217l124 98q72 58 104 100.5t32 104.5q0 95 -68.5 148t-169.5 53q-137 0 -303 -119l-43 63q173 129 354 129zM322 0v164h163v-164h-163z" />
    <glyph glyph-name="at" unicode="@" horiz-adv-x="1937" 
d="M1006 -307q-130 0 -254 31.5t-239 99.5t-201 166t-137.5 241.5t-51.5 315.5q0 204 68.5 370t187.5 273.5t276 165t336 57.5q176 0 326.5 -54.5t261 -154.5t173.5 -250.5t63 -332.5q0 -98 -19 -183.5t-56.5 -154t-99.5 -108.5t-141 -40q-34 0 -65 9t-60 29t-48 56t-23 84
h-7q-47 -101 -127 -154t-208 -53q-156 0 -251.5 85.5t-95.5 232.5q0 140 91.5 223.5t250.5 83.5q251 0 332 -201l6 2q-6 56 -6 142q0 133 -67.5 193.5t-200.5 60.5q-126 0 -287 -41l-14 74q182 38 299 38q171 0 254.5 -76t83.5 -245v-301q0 -90 42 -133t107 -43
q116 0 179 117.5t63 295.5q0 173 -61.5 314t-166.5 231t-240.5 138.5t-287.5 48.5q-124 0 -240 -31.5t-218 -97t-177.5 -159t-119 -225t-43.5 -286.5q0 -156 47 -287.5t126 -221.5t184.5 -153.5t221 -93t236.5 -29.5q232 0 428 97l28 -66q-211 -100 -458 -100zM963 178
q134 0 219.5 71t85.5 173t-87 171t-218 69q-126 0 -198.5 -69.5t-72.5 -170.5q0 -102 70.5 -173t200.5 -71z" />
    <glyph glyph-name="A" unicode="A" horiz-adv-x="1331" 
d="M31 0l628 1464h13l628 -1464h-90l-209 487h-671l-209 -487h-90zM352 557q36 4 115 4h397q79 0 115 -4v2q-24 34 -59 119l-195 463q-49 117 -55 178h-8q-6 -58 -56 -178l-194 -463q-34 -81 -60 -119v-2z" />
    <glyph glyph-name="B" unicode="B" horiz-adv-x="1273" 
d="M174 0v1434h490q184 0 288.5 -91.5t104.5 -252.5q0 -208 -180 -293q-61 -26 -138 -33v-8q66 -2 142 -17q133 -34 201.5 -122t68.5 -226q0 -186 -125 -288.5t-352 -102.5h-500zM252 788q12 5 53 5h297q175 0 272 79t97 220q0 128 -79 196t-228 68h-359q-45 0 -53 4l-2 -2
q6 -18 6 -49v-469q0 -31 -6 -49zM252 74q8 4 53 4h369q192 0 290.5 79t98.5 234q0 161 -106.5 244.5t-311.5 83.5h-340q-43 0 -53 4l-2 -2q6 -18 6 -49v-547q0 -31 -6 -49z" />
    <glyph glyph-name="C" unicode="C" horiz-adv-x="1439" 
d="M852 -31q-225 0 -398 93.5t-267.5 263.5t-94.5 391t94.5 390.5t267.5 263t398 93.5q141 0 261 -40t235 -126l-52 -69q-109 82 -212.5 117.5t-231.5 35.5q-299 0 -486.5 -185t-187.5 -480t187.5 -480.5t486.5 -185.5q127 0 231 36t213 118l52 -70q-115 -86 -235 -126
t-261 -40z" />
    <glyph glyph-name="D" unicode="D" horiz-adv-x="1417" 
d="M604 1434q325 0 523 -197t198 -520t-198 -520t-523 -197h-430v1434h430zM252 1360l-2 -2q6 -18 6 -49v-1184q0 -31 -6 -49l2 -2q8 4 53 4h299q286 0 460.5 175.5t174.5 463.5t-174.5 463.5t-460.5 175.5h-299q-45 0 -53 4z" />
    <glyph glyph-name="E" unicode="E" horiz-adv-x="1044" 
d="M952 1434v-78h-647q-41 0 -53 4l-2 -2q6 -18 6 -49v-428q0 -32 -6 -50l2 -2q15 5 53 5h584v-78h-584q-41 0 -53 4l-2 -2q6 -18 6 -49v-584q0 -31 -6 -49l2 -2q12 4 53 4h658v-78h-789v1434h778z" />
    <glyph glyph-name="F" unicode="F" horiz-adv-x="1044" 
d="M963 1434v-78h-658q-41 0 -53 4l-2 -2q6 -18 6 -49v-471q0 -32 -6 -50l2 -2q15 5 53 5h598v-78h-598q-41 0 -53 4l-2 -2q6 -18 6 -49v-666h-82v1434h789z" />
    <glyph glyph-name="G" unicode="G" horiz-adv-x="1658" 
d="M858 1464q144 0 271 -45t262 -143l-54 -74q-125 95 -240 137.5t-243 42.5q-145 0 -270.5 -50.5t-214.5 -139t-140 -214.5t-51 -271q0 -188 86 -338t240 -234t348 -84q133 0 244 41t182 105.5t121 147t71.5 161.5t22.5 153l-2 3q-43 -13 -141 -13h-500v78h727v-35
q0 -102 -26.5 -202.5t-85 -195t-141.5 -166.5t-205.5 -115.5t-268.5 -43.5q-219 0 -392 93.5t-269.5 262t-96.5 382.5q0 165 56.5 306t156.5 240t242.5 155t310.5 56z" />
    <glyph glyph-name="H" unicode="H" horiz-adv-x="1413" 
d="M1239 1434v-1434h-82v684q0 31 6 49l-2 2q-12 -4 -53 -4h-803q-41 0 -53 4l-2 -2q6 -18 6 -49v-684h-82v1434h82v-578q0 -31 -6 -49l2 -2q12 4 53 4h803q41 0 53 -4l2 2q-6 18 -6 49v578h82z" />
    <glyph glyph-name="I" unicode="I" horiz-adv-x="430" 
d="M256 1434v-1434h-82v1434h82z" />
    <glyph glyph-name="J" unicode="J" horiz-adv-x="542" 
d="M369 1434v-1164q0 -145 -59 -212.5t-185 -67.5q-12 0 -74 4v82q62 -4 68 -4q88 0 128 47.5t40 150.5v1164h82z" />
    <glyph glyph-name="K" unicode="K" horiz-adv-x="1165" 
d="M1071 1434l-553 -521q-120 -118 -170 -149v-2q20 -11 40 -26.5t34.5 -30t43.5 -44t54 -53.5l635 -608h-127l-780 754l-2 -2q10 -76 10 -244v-508h-82v1434h82v-420q0 -168 -10 -244l2 -2l702 666h121z" />
    <glyph glyph-name="L" unicode="L" horiz-adv-x="1009" 
d="M256 1434v-1309q0 -31 -6 -49l2 -2q12 4 53 4h674v-78h-805v1434h82z" />
    <glyph glyph-name="M" unicode="M" horiz-adv-x="1740" 
d="M866 -31l-372 1032q-43 122 -62 232h-8q-3 -83 -41 -234l-256 -999h-86l371 1464h8l393 -1091q34 -93 53 -199h8q18 101 54 199l393 1091h8l371 -1464h-86l-256 999q-38 151 -41 234h-8q-19 -110 -62 -232l-373 -1032h-8z" />
    <glyph glyph-name="N" unicode="N" horiz-adv-x="1423" 
d="M188 1454l877 -1122q93 -119 113 -164l4 2q-15 110 -15 258v1006h82v-1454h-14l-877 1122q-91 116 -112 164l-4 -2q14 -103 14 -258v-1006h-82v1454h14z" />
    <glyph glyph-name="O" unicode="O" horiz-adv-x="1679" 
d="M840 1464q160 0 299 -56t237.5 -154.5t154.5 -237.5t56 -299q0 -214 -95.5 -385t-266.5 -267t-385 -96t-385 96t-267 267t-96 385t96 385t267 266.5t385 95.5zM840 1382q-289 0 -475.5 -187t-186.5 -478q0 -192 84.5 -344t236 -237t341.5 -85t341 85t235.5 237t84.5 344
q0 291 -186 478t-475 187z" />
    <glyph glyph-name="P" unicode="P" horiz-adv-x="1060" 
d="M608 1434q186 0 299 -103.5t113 -273.5t-113 -273.5t-299 -103.5h-303q-43 0 -53 4l-2 -2q6 -18 6 -49v-633h-82v1434h434zM252 1360l-2 -2q6 -18 6 -49v-504q0 -31 -6 -49l2 -2q10 4 53 4h303q152 0 239 79.5t87 219.5t-87 219.5t-239 79.5h-303q-45 0 -53 4z" />
    <glyph glyph-name="Q" unicode="Q" horiz-adv-x="1679" 
d="M840 -6q-215 0 -386 94t-266.5 262.5t-95.5 380.5t95 379.5t266 260.5t387 93t386.5 -93t265.5 -260.5t95 -379.5q0 -251 -143 -432q-155 -193 -400 -252v-8q20 3 68.5 9.5t71.5 9.5t59.5 7t66 5.5t58.5 1.5h184v-78h-712zM840 76q191 0 342 83t235 232.5t84 339.5
q0 287 -184.5 469t-476.5 182t-477 -182t-185 -469q0 -190 84.5 -339.5t235.5 -232.5t342 -83z" />
    <glyph glyph-name="R" unicode="R" horiz-adv-x="1167" 
d="M629 1434q181 0 286 -97.5t105 -263.5t-106 -263t-287 -97q-38 0 -68 10v-8q36 -25 70 -68l497 -647h-108l-547 713h-166q-43 0 -53 4l-2 -2q6 -18 6 -49v-666h-82v1434h455zM252 1360l-2 -2q6 -18 6 -49v-471q0 -32 -6 -50l2 -2q12 5 53 5h324q145 0 225 74t80 208
t-80 208.5t-225 74.5h-324q-45 0 -53 4z" />
    <glyph glyph-name="S" unicode="S" horiz-adv-x="997" 
d="M514 1464q158 0 342 -84l-41 -80q-168 82 -297 82q-135 0 -212 -59.5t-77 -163.5q0 -78 46.5 -142t164.5 -145l207 -143q146 -101 207 -191.5t61 -207.5q0 -167 -114.5 -264t-313.5 -97q-239 0 -436 129l45 74q190 -121 391 -121q158 0 250 74t92 201q0 89 -52.5 163.5
t-178.5 163.5l-221 156q-129 91 -181.5 169t-52.5 179q0 146 98 226.5t273 80.5z" />
    <glyph glyph-name="T" unicode="T" horiz-adv-x="1040" 
d="M1020 1434v-78h-410q-41 0 -53 4l-2 -2q6 -18 6 -49v-1309h-82v1309q0 31 6 49l-2 2q-12 -4 -53 -4h-410v78h1000z" />
    <glyph glyph-name="U" unicode="U" horiz-adv-x="1388" 
d="M1225 1434v-916q0 -255 -142 -402t-389 -147t-388.5 147t-141.5 402v916h86v-895q0 -228 117.5 -357t326.5 -129t327 129t118 357v895h86z" />
    <glyph glyph-name="V" unicode="V" horiz-adv-x="1212" 
d="M1192 1434l-582 -1465h-8l-582 1465h97l420 -1082q32 -83 45 -125t20 -90h8q10 69 66 215l420 1082h96z" />
    <glyph glyph-name="W" unicode="W" horiz-adv-x="1925" 
d="M969 1464l336 -1020q49 -146 73 -270h8q26 131 72 266l328 994h98l-498 -1465h-8l-364 1088q-39 119 -47 190h-9q-8 -71 -47 -190l-364 -1088h-8l-498 1465h98l328 -994q46 -135 72 -266h8q23 117 74 270l335 1020h13z" />
    <glyph glyph-name="X" unicode="X" horiz-adv-x="1183" 
d="M1104 1434l-354 -529q-69 -103 -107 -149v-4q12 -13 21 -24.5t23.5 -31.5t23.5 -33.5t34.5 -51.5t42.5 -64l365 -547h-106l-383 582q-56 85 -68 118h-8q-13 -36 -68 -118l-383 -582h-106l364 547q114 171 146 205v4q-29 35 -107 149l-354 529h106l316 -480
q8 -12 19.5 -29t16.5 -24.5t12.5 -19.5t11 -17.5t8 -13.5t7 -13.5t5.5 -12t6 -13.5h8q3 7 6 13.5t5.5 12t7 13.5t8 13.5t11 17.5t12.5 19.5t16.5 24.5t19.5 29l315 480h107z" />
    <glyph glyph-name="Y" unicode="Y" horiz-adv-x="1097" 
d="M1067 1434l-477 -891v-543h-82v543l-477 891h106l342 -660q33 -63 45 -94.5t23 -79.5h4q11 50 23 81t44 93l343 660h106z" />
    <glyph glyph-name="Z" unicode="Z" horiz-adv-x="1183" 
d="M1122 1434v-2l-932 -1360l3 -4q39 14 196 14h754l-43 -82h-1059v4l938 1364l-2 4q-62 -20 -201 -20h-655l43 82h958z" />
    <glyph glyph-name="bracketleft" unicode="[" horiz-adv-x="622" 
d="M582 1526v-70h-234q-41 0 -53 4l-2 -2q6 -18 6 -49v-1733q0 -31 -6 -49l2 -2q12 4 53 4h234v-69h-357v1966h357z" />
    <glyph glyph-name="backslash" unicode="\" horiz-adv-x="1181" 
d="M121 1536l999 -1653l-59 -35l-1000 1653z" />
    <glyph glyph-name="bracketright" unicode="]" horiz-adv-x="622" 
d="M41 1526h356v-1966h-356v69h233q42 0 54 -4l2 2q-6 18 -6 49v1733q0 31 6 49l-2 2q-12 -4 -54 -4h-233v70z" />
    <glyph glyph-name="asciicircum" unicode="^" 
d="M664 1464l305 -659h-80l-275 600l-274 -600h-80l305 659h99z" />
    <glyph glyph-name="underscore" unicode="_" horiz-adv-x="1132" 
d="M1092 -31v-69h-1051v69h1051z" />
    <glyph glyph-name="grave" unicode="`" horiz-adv-x="501" 
d="M213 1448l186 -303v-12h-65l-232 305v10h111z" />
    <glyph glyph-name="a" unicode="a" horiz-adv-x="1042" 
d="M524 977q192 0 283.5 -89.5t91.5 -275.5v-612h-74q0 50 9 197l-5 2q-43 -106 -145.5 -168t-234.5 -62q-169 0 -273 94t-104 246q0 154 103 245t280 91q131 0 232.5 -61t139.5 -162l7 2q-6 27 -7.5 52t-1.5 124q0 154 -72.5 226.5t-226.5 72.5t-331 -59l-23 80
q199 57 352 57zM455 571q-135 0 -218 -73t-83 -193q0 -118 82 -189t219 -71q146 0 248 76.5t102 185.5t-102 186.5t-248 77.5z" />
    <glyph glyph-name="b" unicode="b" horiz-adv-x="1243" 
d="M672 -31q-161 0 -276.5 79t-172.5 228l-8 -2q23 -109 23 -274h-74v1464h74v-524q0 -186 -17 -270l6 -4q52 150 167.5 230.5t277.5 80.5q214 0 346.5 -140t132.5 -364t-132.5 -364t-346.5 -140zM672 47q180 0 290.5 117t110.5 307q0 192 -112.5 310t-296.5 118
q-192 0 -313.5 -119t-121.5 -307q0 -190 123 -308t320 -118z" />
    <glyph glyph-name="c" unicode="c" horiz-adv-x="991" 
d="M598 -31q-226 0 -366 140t-140 364t140 364t366 140q173 0 322 -92l-39 -68q-144 86 -287 86q-183 0 -303.5 -122t-120.5 -308t120.5 -308t303.5 -122q143 0 287 86l39 -68q-149 -92 -322 -92z" />
    <glyph glyph-name="d" unicode="d" horiz-adv-x="1243" 
d="M571 -31q-214 0 -346.5 140t-132.5 364t132.5 364t346.5 140q162 0 277.5 -80.5t167.5 -230.5l6 4q-16 79 -16 270v524h73v-1464h-73q0 170 22 274l-8 2q-57 -149 -172.5 -228t-276.5 -79zM571 47q197 0 320 118t123 308q0 188 -121 307t-313 119q-184 0 -297 -118
t-113 -310q0 -190 110.5 -307t290.5 -117z" />
    <glyph glyph-name="e" unicode="e" horiz-adv-x="1118" 
d="M575 977q206 0 328.5 -132.5t122.5 -355.5v-20h-784q-53 0 -74 8l-2 -2l4 -16q0 -190 112 -303t300 -113q114 0 200 47.5t168 155.5l58 -47q-78 -113 -187 -171.5t-241 -58.5q-223 0 -355.5 138t-132.5 370q0 229 131 364.5t352 135.5zM573 903q-173 0 -281 -101.5
t-122 -275.5l2 -2q24 15 72 15h626q30 0 74 -13l2 2q-13 180 -110.5 277.5t-262.5 97.5z" />
    <glyph glyph-name="f" unicode="f" horiz-adv-x="669" 
d="M598 1452v-70h-18q-115 0 -175.5 -64t-60.5 -216v-109q0 -33 -10 -53l2 -2q16 8 57 8h205v-65h-205q-41 0 -57 8l-2 -2q10 -20 10 -53v-834h-74v834q0 31 11 53l-2 2q-16 -8 -58 -8h-170v65h170q42 0 58 -8l2 2q-11 22 -11 53v113q0 180 82 263t221 83h25z" />
    <glyph glyph-name="g" unicode="g" horiz-adv-x="1222" 
d="M573 977q160 0 274.5 -80t168.5 -229l6 4q-16 85 -16 274h73v-946q0 -215 -127.5 -327.5t-371.5 -112.5q-234 0 -414 108l39 68q104 -55 193 -79t190 -24q418 0 418 383v56q0 115 22 202l-8 2q-61 -151 -174 -229t-268 -78q-218 0 -352 138.5t-134 365.5q0 226 132.5 365
t348.5 139zM584 899q-187 0 -300.5 -117t-113.5 -311q0 -193 112 -308.5t298 -115.5q191 0 312.5 119.5t121.5 306.5q0 186 -120.5 306t-309.5 120z" />
    <glyph glyph-name="h" unicode="h" horiz-adv-x="1132" 
d="M238 1464v-577q0 -173 -17 -260l8 -4q79 354 392 354q180 0 274 -107.5t94 -310.5v-559h-74v559q0 163 -78 253.5t-219 90.5q-178 0 -279 -130t-101 -359v-414h-74v1464h74z" />
    <glyph glyph-name="i" unicode="i" horiz-adv-x="401" 
d="M246 1434v-265h-90v265h90zM238 946v-946h-74v946h74z" />
    <glyph glyph-name="j" unicode="j" horiz-adv-x="401" 
d="M246 1434v-265h-90v265h90zM238 946v-1118q0 -268 -258 -268h-19v75h23q87 0 133.5 44t46.5 149v1118h74z" />
    <glyph glyph-name="k" unicode="k" horiz-adv-x="903" 
d="M238 1464v-696q0 -134 -17 -238l4 -4l465 420h123l-401 -348q-83 -73 -109 -84l4 -2q40 -18 117 -90l459 -422h-115l-543 502l-4 -4q17 -104 17 -240v-258h-74v1464h74z" />
    <glyph glyph-name="l" unicode="l" horiz-adv-x="401" 
d="M238 1464v-1464h-74v1464h74z" />
    <glyph glyph-name="m" unicode="m" horiz-adv-x="1673" 
d="M154 0v946h73q0 -184 -16 -266l8 -2q29 146 115.5 222.5t220.5 76.5q130 0 207.5 -72.5t97.5 -212.5h8q20 134 109 209.5t227 75.5q157 0 241.5 -99.5t84.5 -283.5v-594h-74v588q0 154 -68.5 234.5t-197.5 80.5q-151 0 -231 -105t-80 -300v-498h-74v588
q0 154 -68.5 234.5t-197.5 80.5q-151 0 -231.5 -105t-80.5 -300v-498h-73z" />
    <glyph glyph-name="n" unicode="n" horiz-adv-x="1122" 
d="M610 977q180 0 274.5 -107.5t94.5 -310.5v-559h-74v559q0 163 -78 253.5t-219 90.5q-178 0 -279.5 -130t-101.5 -359v-414h-73v946h73q0 -237 -18 -328l8 -4q82 363 393 363z" />
    <glyph glyph-name="o" unicode="o" horiz-adv-x="1191" 
d="M596 977q223 0 363.5 -140.5t140.5 -363.5q0 -222 -141 -363t-363 -141q-221 0 -362.5 141.5t-141.5 362.5q0 222 141 363t363 141zM596 903q-185 0 -305.5 -121.5t-120.5 -308.5t120.5 -308.5t305.5 -121.5t305.5 121.5t120.5 308.5t-120.5 308.5t-305.5 121.5z" />
    <glyph glyph-name="p" unicode="p" horiz-adv-x="1232" 
d="M662 977q214 0 346.5 -140t132.5 -364t-132.5 -364t-346.5 -140q-161 0 -275.5 78.5t-173.5 228.5l-8 -2q22 -87 22 -202v-482h-73v1356h73q0 -203 -16 -282l6 -5q53 152 168.5 235t276.5 83zM653 899q-192 0 -313 -119t-121 -307q0 -190 123 -308t320 -118
q180 0 290.5 117t110.5 307q0 192 -113 310t-297 118z" />
    <glyph glyph-name="q" unicode="q" horiz-adv-x="1232" 
d="M571 977q161 0 276.5 -83t168.5 -235l6 5q-16 79 -16 282h73v-1356h-73v482q0 115 22 202l-8 2q-59 -150 -173.5 -228.5t-275.5 -78.5q-214 0 -346.5 140t-132.5 364t132.5 364t346.5 140zM580 899q-184 0 -297 -118t-113 -310q0 -190 110.5 -307t290.5 -117
q197 0 320 118t123 308q0 188 -121 307t-313 119z" />
    <glyph glyph-name="r" unicode="r" horiz-adv-x="649" 
d="M537 977q31 0 81 -6v-84q-54 8 -83 8q-146 0 -227 -141t-81 -396v-358h-73v946h73q0 -242 -18 -348l10 -4q29 195 107.5 289t210.5 94z" />
    <glyph glyph-name="s" unicode="s" horiz-adv-x="851" 
d="M451 -31q-107 0 -211.5 33.5t-188.5 93.5l43 64q157 -117 361 -117q116 0 181.5 46t65.5 128q0 115 -170 189l-180 81q-111 51 -162 112t-51 144q0 109 82 171.5t228 62.5q164 0 307 -76l-37 -70q-138 72 -270 72q-109 0 -170.5 -42t-61.5 -116q0 -59 40.5 -103
t133.5 -85l168 -76q119 -54 170 -115t51 -149q0 -117 -86.5 -182.5t-242.5 -65.5z" />
    <glyph glyph-name="t" unicode="t" horiz-adv-x="612" 
d="M344 1452v-459q0 -33 -10 -53l2 -2q16 8 57 8h158v-65h-158q-41 0 -57 8l-2 -2q10 -20 10 -53v-834h-74v834q0 31 11 53l-2 2q-16 -8 -58 -8h-160v65h160q42 0 58 -8l2 2q-11 22 -11 53v391l68 68h6z" />
    <glyph glyph-name="u" unicode="u" horiz-adv-x="1077" 
d="M934 946v-946h-74q0 226 19 319l-9 5q-73 -355 -381 -355q-173 0 -264.5 108t-91.5 312v557h80v-557q0 -164 75 -255t210 -91q167 0 264.5 131.5t97.5 357.5v414h74z" />
    <glyph glyph-name="v" unicode="v" horiz-adv-x="942" 
d="M922 946l-447 -966h-8l-447 966h95l278 -624q3 -6 12.5 -27.5t11.5 -26t9.5 -22t9.5 -23t7.5 -20t7.5 -22.5t6 -21t6.5 -24.5t5.5 -24.5h4q3 13 5.5 24.5t6.5 24.5t6 21t7.5 22.5t7.5 20t9.5 23t9.5 22t11.5 26t12.5 27.5l278 624h95z" />
    <glyph glyph-name="w" unicode="w" horiz-adv-x="1449" 
d="M399 -20l-379 966h91l237 -635q42 -111 49 -188h9q10 75 55 188l260 656h8l260 -656q45 -113 55 -188h9q7 77 49 188l237 635h91l-379 -966h-9l-268 667q-24 60 -32 92.5t-13 83.5h-8q-5 -51 -13 -83.5t-32 -92.5l-268 -667h-9z" />
    <glyph glyph-name="x" unicode="x" horiz-adv-x="913" 
d="M20 0l336 432q36 46 54 64v6q-23 18 -62 69l-293 375h92l252 -319q34 -42 56 -90h4q23 51 55 90l252 319h92l-293 -375q-41 -53 -61 -69v-6q13 -13 53 -64l336 -432h-92l-287 362q-32 41 -55 91h-4q-21 -47 -56 -91l-286 -362h-93z" />
    <glyph glyph-name="y" unicode="y" horiz-adv-x="929" 
d="M909 946l-604 -1356h-78l213 482l-420 874h89l292 -627q41 -88 54.5 -124.5t19.5 -81.5h8q6 47 20 86.5t52 126.5l274 620h80z" />
    <glyph glyph-name="z" unicode="z" horiz-adv-x="919" 
d="M35 0l-4 10l710 875l-2 4q-36 -13 -76 -17t-135 -4h-448l47 78h747l5 -8l-707 -875l2 -4q36 12 65 15.5t101 3.5h539l-56 -78h-788z" />
    <glyph glyph-name="braceleft" unicode="{" horiz-adv-x="743" 
d="M174 559q131 -13 189.5 -78.5t58.5 -189.5v-395q0 -136 58 -198.5t177 -62.5h45v-75h-40q-163 0 -240.5 82t-77.5 258v387q0 117 -57.5 173t-194.5 62v82q137 6 194.5 62.5t57.5 173.5v346q0 176 77.5 258t240.5 82h40v-76h-45q-119 0 -177 -62t-58 -198v-354
q0 -124 -58.5 -190t-189.5 -79v-8z" />
    <glyph glyph-name="bar" unicode="|" horiz-adv-x="552" 
d="M246 -440v1929h61v-1929h-61z" />
    <glyph glyph-name="braceright" unicode="}" horiz-adv-x="743" 
d="M569 559v8q-131 13 -189 79t-58 190v354q0 136 -58.5 198t-177.5 62h-45v76h41q163 0 240 -82t77 -258v-346q0 -117 57.5 -173.5t194.5 -62.5v-82q-137 -6 -194.5 -62t-57.5 -173v-387q0 -176 -77 -258t-240 -82h-41v75h45q119 0 177.5 62.5t58.5 198.5v395
q0 124 58 189.5t189 78.5z" />
    <glyph glyph-name="asciitilde" unicode="~" 
d="M373 739q67 0 136 -24t118 -52.5t113 -52.5t122 -24q121 0 250 112l45 -65q-155 -125 -301 -125q-67 0 -136 24t-118 53t-113 53t-122 24q-120 0 -250 -113l-45 65q155 125 301 125z" />
    <glyph glyph-name="exclamdown" unicode="&#xa1;" horiz-adv-x="614" 
d="M225 1022h164v-164h-164v164zM281 618h53l16 -1030h-86z" />
    <glyph glyph-name="cent" unicode="&#xa2;" horiz-adv-x="1021" 
d="M573 -135v39q0 58 9 80l-2 2q-23 -17 -91 -2q-173 37 -274.5 167.5t-101.5 321.5q0 197 108.5 331t292.5 165q51 5 68 -8l2 2q-11 25 -11 75v45h62v-45q0 -50 -10 -73l2 -2q19 15 57 10q137 -16 256 -101l-43 -63q-102 72 -213 90q-43 5 -57 21h-2q10 -23 10 -97v-686
q0 -88 -10 -108l2 -2q6 6 18 11t19 6.5t25.5 4t19.5 2.5q98 22 188 86l43 -63q-115 -81 -238 -99q-56 -10 -75 9l-2 -2q10 -16 10 -78v-39h-62zM580 29l2 2q-9 26 -9 106v686q0 68 11 95h-2q-16 -12 -80 -29q-143 -35 -227.5 -150t-84.5 -266q0 -150 84 -265.5t226 -150.5
q68 -16 80 -28z" />
    <glyph glyph-name="sterling" unicode="&#xa3;" horiz-adv-x="1118" 
d="M709 -29q-58 0 -116.5 20t-108.5 40t-89 20q-65 0 -170 -61l-41 69q98 63 164 158t66 209q0 24 -2.5 46.5t-11 48t-13 41t-19 44.5t-19.5 38t-24 43t-22 40h-201v61h129q34 0 50 -10l2 2q-13 13 -29 45q-47 96 -47 217q0 166 107 268.5t294 102.5q196 0 363 -123l-45 -61
q-58 45 -140 77.5t-178 32.5q-149 0 -236 -82t-87 -213q0 -109 77 -256h492v-61h-399q-52 0 -70 10v-2q46 -71 76.5 -159t30.5 -164q0 -44 -11.5 -86t-25 -69.5t-40 -60t-39.5 -45t-41 -37.5l-28 -24l2 -6q59 33 117 33q45 0 129 -37t145 -37q142 0 281 150l55 -64
q-67 -70 -151.5 -114t-175.5 -44z" />
    <glyph glyph-name="currency" unicode="&#xa4;" 
d="M977 985q115 -134 115 -321q0 -189 -117 -322l117 -117l-41 -39l-115 115q-136 -113 -322 -113q-190 0 -321 115l-117 -117l-39 41l115 115q-115 134 -115 322q0 187 115 321l-115 115l41 41l115 -115q136 113 321 113q186 0 322 -113l115 115l41 -41zM614 260
q182 0 293 113t111 291t-111 290.5t-293 112.5t-292.5 -112.5t-110.5 -290.5q0 -179 111 -291.5t292 -112.5z" />
    <glyph glyph-name="yen" unicode="&#xa5;" horiz-adv-x="1077" 
d="M502 0v483h-391v62h356q15 0 33 -8l2 2q-12 10 -21 24l-47 96h-323v62h264q21 0 35 -8l2 2q-13 13 -23 33l-317 634h86l311 -641q48 -97 68 -174h4q21 81 67 174l312 641h86l-318 -634q-11 -22 -22 -33l2 -2q14 8 34 8h265v-62h-324l-47 -96q-9 -14 -21 -24l3 -2
q18 8 32 8h357v-62h-392v-483h-73z" />
    <glyph glyph-name="brokenbar" unicode="&#xa6;" horiz-adv-x="552" 
d="M246 694v795h61v-795h-61zM307 371v-811h-61v811h61z" />
    <glyph glyph-name="section" unicode="&#xa7;" horiz-adv-x="1067" 
d="M741 238q85 -44 132 -106t47 -155q0 -135 -100 -219t-285 -84q-222 0 -412 131l43 66q192 -121 369 -121q149 0 228 63t79 162q0 61 -32 107t-84 73t-118.5 52t-135.5 43t-135.5 47t-118.5 63.5t-84 93t-32 134.5q0 207 226 313q-181 89 -181 260q0 135 100 219t285 84
q222 0 412 -131l-43 -65q-192 121 -369 121q-149 0 -228 -63.5t-79 -162.5q0 -69 41 -118.5t106 -78t144 -52.5t158 -50.5t144 -62.5t106 -99t41 -149q0 -208 -224 -315zM180 594q0 -51 22 -92t53.5 -67t85.5 -51t98 -39.5t111.5 -36t108.5 -36.5q228 100 228 273
q0 51 -22 92t-53.5 67t-85 51t-98 39t-112 35.5t-108.5 36.5q-228 -100 -228 -272z" />
    <glyph glyph-name="dieresis" unicode="&#xa8;" horiz-adv-x="626" 
d="M205 1434v-246h-103v246h103zM524 1434v-246h-102v246h102z" />
    <glyph glyph-name="copyright" unicode="&#xa9;" horiz-adv-x="1736" 
d="M868 -31q-209 0 -379 94.5t-268 266t-98 387.5t98 387.5t268 265.5t379 94q157 0 294.5 -55.5t237 -152.5t157 -237t57.5 -302q0 -216 -98 -387.5t-268.5 -266t-379.5 -94.5zM868 31q191 0 347 86t246.5 243.5t90.5 356.5t-90.5 356.5t-246.5 243.5t-347 86t-347 -86
t-246.5 -243.5t-90.5 -356.5t90.5 -356.5t246.5 -243.5t347 -86zM870 258q-209 0 -338 129.5t-129 335.5q0 207 129 336t338 129q172 0 314 -101l-41 -59q-120 86 -275 86q-175 0 -281 -106.5t-106 -284.5t106 -284.5t281 -106.5q155 0 275 86l43 -62q-143 -98 -316 -98z
" />
    <glyph glyph-name="ordfeminine" unicode="&#xaa;" horiz-adv-x="770" 
d="M352 692q-109 0 -179.5 61t-70.5 162t69 161.5t183 60.5q81 0 147.5 -35.5t96.5 -100.5l4 3q-6 29 -6 108q0 93 -49.5 135.5t-145.5 42.5q-92 0 -213 -41l-20 70q128 41 235 41q134 0 199.5 -58.5t65.5 -189.5v-399h-74q0 53 10 121l-4 2q-30 -66 -96 -105t-152 -39z
M369 760q90 0 152.5 44t62.5 111t-63 111.5t-152 44.5q-91 0 -140 -45t-49 -113q0 -67 49.5 -110t139.5 -43z" />
    <glyph glyph-name="guillemotleft" unicode="&#xab;" horiz-adv-x="763" 
d="M451 858v-8l-175 -234q-64 -86 -86 -113.5t-40 -39.5v-4q17 -12 39 -39t87 -115l175 -233v-9h-91l-299 398l299 397h91zM723 858v-8l-174 -234q-62 -85 -85.5 -112.5t-41.5 -40.5v-4q18 -12 41 -40t86 -114l174 -233v-9h-90l-299 398l299 397h90z" />
    <glyph glyph-name="logicalnot" unicode="&#xac;" 
d="M145 885h938v-58v-485h-61v485h-877v58z" />
    <glyph glyph-name="uni00AD" unicode="&#xad;" horiz-adv-x="724" 
d="M608 602v-82h-495v82h495z" />
    <glyph glyph-name="registered" unicode="&#xae;" horiz-adv-x="1064" 
d="M532 1464q208 0 340 -132t132 -343t-132 -343t-340 -132t-339.5 132t-131.5 343t131.5 343t339.5 132zM532 1413q-184 0 -300.5 -116.5t-116.5 -307.5t116.5 -307.5t300.5 -116.5t301 116.5t117 307.5t-117 307.5t-301 116.5zM578 1270q69 0 114 -38.5t45 -109.5
q0 -68 -47 -109.5t-125 -41.5v-2q14 -7 31 -29l156 -195v-8h-64l-182 234h-64v-234h-55v533h191zM571 1214h-129v-190h129q50 0 79.5 24.5t29.5 73.5q0 92 -109 92z" />
    <glyph glyph-name="macron" unicode="&#xaf;" horiz-adv-x="757" 
d="M655 1350v-70h-553v70h553z" />
    <glyph glyph-name="degree" unicode="&#xb0;" horiz-adv-x="761" 
d="M381 1413q121 0 199.5 -77.5t78.5 -200.5q0 -124 -78.5 -201.5t-199.5 -77.5t-200 78t-79 201t79 200.5t200 77.5zM381 1356q-95 0 -157 -61t-62 -160t62 -160.5t157 -61.5t157 61.5t62 160.5t-62 160t-157 61z" />
    <glyph glyph-name="plusminus" unicode="&#xb1;" 
d="M645 1069v-301h459v-57h-459v-301h-61v301h-459v57h459v301h61zM1104 313v-57h-979v57h979z" />
    <glyph glyph-name="uni00B2" unicode="&#xb2;" horiz-adv-x="749" 
d="M53 713l-2 4l420 463q111 124 111 227q0 81 -53.5 124.5t-133.5 43.5q-117 0 -245 -107l-48 56q139 123 299 123q116 0 186 -64t70 -174q0 -70 -33 -135.5t-98 -138.5l-233 -258q-66 -71 -109 -101v-2q63 10 135 10h347l2 -2l-41 -69h-574z" />
    <glyph glyph-name="uni00B3" unicode="&#xb3;" horiz-adv-x="735" 
d="M336 692q-147 0 -283 66l25 69q133 -63 252 -63q125 0 192.5 52t67.5 157q0 107 -84.5 157t-269.5 50v69q134 0 218.5 45t84.5 127q0 74 -51 115t-140 41q-112 0 -246 -70l-30 62q140 78 288 78q123 0 189.5 -61t66.5 -154q0 -67 -41.5 -118t-111.5 -77q-17 -6 -64 -12
v-4q23 0 64 -9q88 -19 145.5 -77.5t57.5 -159.5q0 -128 -82.5 -205.5t-247.5 -77.5z" />
    <glyph glyph-name="acute" unicode="&#xb4;" horiz-adv-x="501" 
d="M399 1448v-10l-231 -305h-66v12l187 303h110z" />
    <glyph glyph-name="uni00B5" unicode="&#xb5;" horiz-adv-x="1077" 
d="M860 946h74v-946h-74q0 226 19 319l-9 5q-73 -355 -381 -355q-191 0 -280 127v-506h-76v942v414h80v-557q0 -164 75 -255t210 -91q167 0 264.5 131.5t97.5 357.5v414z" />
    <glyph glyph-name="paragraph" unicode="&#xb6;" horiz-adv-x="1163" 
d="M1061 1434v-70h-113v-1581h-74v1581h-301v-1581h-73v852q-172 0 -285 110t-113 297q0 186 117 289t301 103h541z" />
    <glyph glyph-name="periodcentered" unicode="&#xb7;" horiz-adv-x="368" 
d="M102 782v164h164v-164h-164z" />
    <glyph glyph-name="cedilla" unicode="&#xb8;" horiz-adv-x="464" 
d="M240 14l-41 -106q24 -5 43 -10.5t42.5 -17.5t39.5 -26.5t27 -37.5t11 -52q0 -35 -16.5 -64t-51.5 -54t-67 -42.5t-85 -43.5q-4 -2 -6.5 -3t-6 -3t-6.5 -3l-21 41q98 53 140.5 87.5t42.5 74.5q0 37 -36 58t-120 36l59 166h52z" />
    <glyph glyph-name="uni00B9" unicode="&#xb9;" horiz-adv-x="522" 
d="M295 713v628q0 59 12 117l-4 4q-18 -22 -53 -41l-127 -71v80l178 116l18 80h50v-913h-74z" />
    <glyph glyph-name="ordmasculine" unicode="&#xba;" horiz-adv-x="892" 
d="M446 1360q151 0 248 -93.5t97 -240.5t-97 -240.5t-248 -93.5t-247.5 93.5t-96.5 240.5t96.5 240.5t247.5 93.5zM446 1288q-115 0 -191.5 -72.5t-76.5 -189.5t76.5 -189.5t191.5 -72.5t192 73t77 189t-77 189t-192 73z" />
    <glyph glyph-name="guillemotright" unicode="&#xbb;" horiz-adv-x="763" 
d="M41 858h90l299 -397l-299 -398h-90v9l174 233q63 86 86 114t41 40v4q-18 13 -41.5 40.5t-85.5 112.5l-174 234v8zM313 858h90l299 -397l-299 -398h-90v9l174 233q63 86 86 114t41 40v4q-18 13 -41.5 40.5t-85.5 112.5l-174 234v8z" />
    <glyph glyph-name="onequarter" unicode="&#xbc;" horiz-adv-x="1343" 
d="M283 592v549q0 55 8 102l-2 2q-14 -21 -45 -35l-131 -61v65l174 99l16 69h47v-790h-67zM207 0l809 1382h74l-809 -1382h-74zM1094 0v135q0 21 2 29h-2q-4 0 -12 -1t-13 -1h-399v55l422 574h65v-537q0 -19 -2 -27l2 -2q6 2 21 2h94l-25 -65h-69q-4 0 -11 1t-10 1h-2
q2 -8 2 -25v-139h-63zM745 223q32 4 68 4h248q23 0 33 -4l2 2q-2 10 -2 35v371q0 53 2 67l-2 2q-13 -26 -39 -61l-264 -356q-31 -43 -46 -58v-2z" />
    <glyph glyph-name="onehalf" unicode="&#xbd;" horiz-adv-x="1400" 
d="M283 592v549q0 55 8 102l-2 2q-14 -21 -45 -35l-131 -61v65l174 99l16 69h47v-790h-67zM207 0l809 1382h74l-809 -1382h-74zM795 0l-2 4l348 402q92 105 92 196q0 68 -42.5 102.5t-113.5 34.5q-94 0 -207 -80l-34 60q121 90 245 90q104 0 165 -54.5t61 -148.5
q0 -112 -113 -241l-188 -218q-58 -65 -93 -86l2 -2q41 9 115 9h289v-2l-37 -66h-487z" />
    <glyph glyph-name="threequarters" unicode="&#xbe;" horiz-adv-x="1515" 
d="M332 573q-128 0 -230 52l23 65q103 -49 201 -49q217 0 217 178q0 91 -68.5 133.5t-218.5 42.5v62q109 0 177.5 37.5t68.5 107.5q0 67 -42.5 100t-117.5 33q-100 0 -197 -55l-26 57q113 64 233 64q106 0 162.5 -53t56.5 -136q0 -74 -51.5 -123t-132.5 -55v-4
q98 0 162.5 -57.5t64.5 -153.5q0 -111 -70.5 -178.5t-211.5 -67.5zM379 0l809 1382h74l-809 -1382h-74zM1266 0v135q0 21 2 29h-2q-4 0 -12 -1t-13 -1h-399v55l422 574h65v-537q0 -19 -2 -27l2 -2q6 2 21 2h94l-25 -65h-69q-4 0 -11 1t-10 1h-2q2 -8 2 -25v-139h-63z
M918 223q32 4 67 4h248q23 0 33 -4l2 2q-2 10 -2 35v371q0 53 2 67l-2 2q-13 -26 -39 -61l-264 -356q-33 -46 -45 -58v-2z" />
    <glyph glyph-name="questiondown" unicode="&#xbf;" horiz-adv-x="724" 
d="M424 1024v-164h-164v164h164zM350 -440q-142 0 -225.5 72.5t-83.5 197.5q0 49 12 88.5t37.5 71.5t46 51.5t56.5 46.5l129 102q46 37 69 74.5t23 87.5q0 25 -5 46.5t-19 42.5t-24.5 34.5t-37.5 34.5t-39.5 30.5t-48.5 34.5l45 62q3 -2 29 -19t33 -22t30 -21.5t31.5 -26.5
t26 -28.5t25 -34.5t17.5 -37t13.5 -44.5t3.5 -49.5q0 -131 -113 -217l-125 -98q-72 -58 -103.5 -100.5t-31.5 -104.5q0 -95 68 -148t169 -53q138 0 304 119l43 -63q-173 -129 -355 -129z" />
    <glyph glyph-name="Agrave" unicode="&#xc0;" horiz-adv-x="1331" 
d="M512 1747l188 -219l-2 -6h-65l-234 219l2 6h111zM31 0l628 1464h13l628 -1464h-90l-209 487h-671l-209 -487h-90zM352 557q36 4 115 4h397q79 0 115 -4v2q-24 34 -59 119l-195 463q-49 117 -55 178h-8q-6 -58 -56 -178l-194 -463q-34 -81 -60 -119v-2z" />
    <glyph glyph-name="Aacute" unicode="&#xc1;" horiz-adv-x="1331" 
d="M930 1747l2 -6l-234 -219h-65l-2 6l188 219h111zM31 0l628 1464h13l628 -1464h-90l-209 487h-671l-209 -487h-90zM352 557q36 4 115 4h397q79 0 115 -4v2q-24 34 -59 119l-195 463q-49 117 -55 178h-8q-6 -58 -56 -178l-194 -463q-34 -81 -60 -119v-2z" />
    <glyph glyph-name="Acircumflex" unicode="&#xc2;" horiz-adv-x="1331" 
d="M367 1522v6l243 239h107l244 -239v-6h-95l-110 102q-41 38 -58 58.5t-32 50.5h-4q-14 -29 -31.5 -49.5t-59.5 -59.5l-110 -102h-94zM31 0l628 1464h13l628 -1464h-90l-209 487h-671l-209 -487h-90zM352 557q36 4 115 4h397q79 0 115 -4v2q-24 34 -59 119l-195 463
q-49 117 -55 178h-8q-6 -58 -56 -178l-194 -463q-34 -81 -60 -119v-2z" />
    <glyph glyph-name="Atilde" unicode="&#xc3;" horiz-adv-x="1331" 
d="M408 1569l-56 20q12 30 25 53t34 49t51 40t66 14q48 0 112 -31.5t122.5 -62.5t91.5 -31q66 0 109 98l55 -20q-12 -30 -25 -53t-34 -49t-51 -40t-66 -14q-38 0 -87 19.5t-88 43t-81.5 43t-69.5 19.5q-65 0 -108 -98zM31 0l628 1464h13l628 -1464h-90l-209 487h-671
l-209 -487h-90zM352 557q36 4 115 4h397q79 0 115 -4v2q-24 34 -59 119l-195 463q-49 117 -55 178h-8q-6 -58 -56 -178l-194 -463q-34 -81 -60 -119v-2z" />
    <glyph glyph-name="Adieresis" unicode="&#xc4;" horiz-adv-x="1331" 
d="M455 1747h102v-225h-102v225zM774 1747h103v-225h-103v225zM31 0l628 1464h13l628 -1464h-90l-209 487h-671l-209 -487h-90zM352 557q36 4 115 4h397q79 0 115 -4v2q-24 34 -59 119l-195 463q-49 117 -55 178h-8q-6 -58 -56 -178l-194 -463q-34 -81 -60 -119v-2z" />
    <glyph glyph-name="Aring" unicode="&#xc5;" horiz-adv-x="1331" 
d="M684 1434l616 -1434h-90l-209 487h-671l-209 -487h-90l616 1434q-84 8 -137 64.5t-53 139.5q0 88 59.5 146.5t149.5 58.5t149 -58.5t59 -146.5q0 -83 -53 -139.5t-137 -64.5zM518 1638q0 -64 41.5 -105.5t106.5 -41.5q64 0 105.5 41.5t41.5 105.5q0 65 -41.5 106.5
t-105.5 41.5t-106 -42t-42 -106zM979 557v2q-24 34 -59 119l-195 463q-49 117 -55 178h-8q-6 -58 -56 -178l-194 -463q-34 -81 -60 -119v-2q36 4 115 4h397q79 0 115 -4z" />
    <glyph glyph-name="AE" unicode="&#xc6;" horiz-adv-x="1843" 
d="M1165 78h596v-78h-719v440q0 28 7 49l-2 3q-15 -5 -54 -5h-534l-336 -487h-92l983 1434h737v-78h-586q-41 0 -53 4l-2 -2q6 -18 6 -49v-428q0 -32 -6 -50l2 -2q15 5 53 5h531v-78h-531q-41 0 -53 4l-2 -2q6 -18 6 -49v-584q0 -31 -6 -49l2 -2q12 4 53 4zM1049 559
q-7 21 -7 49v654q0 45 7 106h-5q-17 -37 -59 -98l-432 -645q-30 -47 -68 -70l2 -2q35 8 115 8h391q42 0 54 -4z" />
    <glyph glyph-name="Ccedilla" unicode="&#xc7;" horiz-adv-x="1439" 
d="M1348 135q-222 -166 -494 -166l-25 -61q164 -35 164 -144q0 -35 -16.5 -64t-51.5 -54t-67 -42.5t-85 -43.5q-4 -2 -6.5 -3t-6 -3t-6.5 -3l-21 41q98 53 140 87.5t42 74.5q0 37 -35.5 58t-119.5 36l43 123q-321 15 -516 219.5t-195 526.5q0 221 94.5 390.5t267.5 263
t398 93.5q141 0 261 -40t235 -126l-52 -69q-109 82 -212.5 117.5t-231.5 35.5q-299 0 -486.5 -185t-187.5 -480t187.5 -480.5t486.5 -185.5q127 0 231 36t213 118z" />
    <glyph glyph-name="Egrave" unicode="&#xc8;" horiz-adv-x="1044" 
d="M444 1747l189 -219l-2 -6h-66l-233 219l2 6h110zM952 1434v-78h-647q-41 0 -53 4l-2 -2q6 -18 6 -49v-428q0 -32 -6 -50l2 -2q15 5 53 5h584v-78h-584q-41 0 -53 4l-2 -2q6 -18 6 -49v-584q0 -31 -6 -49l2 -2q12 4 53 4h658v-78h-789v1434h778z" />
    <glyph glyph-name="Eacute" unicode="&#xc9;" horiz-adv-x="1044" 
d="M862 1747l2 -6l-233 -219h-66l-2 6l189 219h110zM952 1434v-78h-647q-41 0 -53 4l-2 -2q6 -18 6 -49v-428q0 -32 -6 -50l2 -2q15 5 53 5h584v-78h-584q-41 0 -53 4l-2 -2q6 -18 6 -49v-584q0 -31 -6 -49l2 -2q12 4 53 4h658v-78h-789v1434h778z" />
    <glyph glyph-name="Ecircumflex" unicode="&#xca;" horiz-adv-x="1044" 
d="M299 1522v6l244 239h106l244 -239v-6h-94l-111 102q-41 38 -58 58.5t-32 50.5h-4q-15 -30 -32 -50.5t-58 -58.5l-111 -102h-94zM952 1434v-78h-647q-41 0 -53 4l-2 -2q6 -18 6 -49v-428q0 -32 -6 -50l2 -2q15 5 53 5h584v-78h-584q-41 0 -53 4l-2 -2q6 -18 6 -49v-584
q0 -31 -6 -49l2 -2q12 4 53 4h658v-78h-789v1434h778z" />
    <glyph glyph-name="Edieresis" unicode="&#xcb;" horiz-adv-x="1044" 
d="M387 1747h102v-225h-102v225zM707 1747h102v-225h-102v225zM952 1434v-78h-647q-41 0 -53 4l-2 -2q6 -18 6 -49v-428q0 -32 -6 -50l2 -2q15 5 53 5h584v-78h-584q-41 0 -53 4l-2 -2q6 -18 6 -49v-584q0 -31 -6 -49l2 -2q12 4 53 4h658v-78h-789v1434h778z" />
    <glyph glyph-name="Igrave" unicode="&#xcc;" horiz-adv-x="430" 
d="M61 1747l189 -219l-2 -6h-66l-233 219l2 6h110zM256 1434v-1434h-82v1434h82z" />
    <glyph glyph-name="Iacute" unicode="&#xcd;" horiz-adv-x="430" 
d="M479 1747l2 -6l-233 -219h-66l-2 6l189 219h110zM256 1434v-1434h-82v1434h82z" />
    <glyph glyph-name="Icircumflex" unicode="&#xce;" horiz-adv-x="430" 
d="M-84 1522v6l244 239h106l244 -239v-6h-94l-111 102q-41 38 -58 58.5t-32 50.5h-4q-15 -30 -32 -50.5t-58 -58.5l-111 -102h-94zM256 1434v-1434h-82v1434h82z" />
    <glyph glyph-name="Idieresis" unicode="&#xcf;" horiz-adv-x="430" 
d="M4 1747h102v-225h-102v225zM324 1747h102v-225h-102v225zM256 1434v-1434h-82v1434h82z" />
    <glyph glyph-name="Eth" unicode="&#xd0;" horiz-adv-x="1488" 
d="M686 1434q204 0 364.5 -85t253.5 -249.5t93 -382.5t-93 -382.5t-253.5 -249.5t-364.5 -85h-440v639q0 31 6 49l-2 2q-12 -4 -53 -4h-177v78h177q41 0 53 -4l2 2q-6 18 -6 49v623h440zM666 76q136 0 253.5 42.5t204.5 122t137 202t50 274.5q0 151 -50 273t-137 201.5
t-204.5 122t-253.5 42.5h-289q-41 0 -53 4l-2 -2q6 -18 6 -49v-498q0 -31 -6 -49l2 -2q12 4 53 4h457v-78h-457q-41 0 -53 4l-2 -2q6 -18 6 -49v-516q0 -31 -6 -49l2 -2q12 4 53 4h289z" />
    <glyph glyph-name="Ntilde" unicode="&#xd1;" horiz-adv-x="1423" 
d="M489 1569l-55 20q12 30 25 53t34 49t51 40t66 14q48 0 112 -31.5t122.5 -62.5t91.5 -31q65 0 108 98l56 -20q-12 -30 -25 -53t-34 -49t-51 -40t-66 -14q-38 0 -87 19.5t-88 43t-81.5 43t-69.5 19.5q-66 0 -109 -98zM188 1454l877 -1122q93 -119 113 -164l4 2
q-15 110 -15 258v1006h82v-1454h-14l-877 1122q-91 116 -112 164l-4 -2q14 -103 14 -258v-1006h-82v1454h14z" />
    <glyph glyph-name="Ograve" unicode="&#xd2;" horiz-adv-x="1679" 
d="M686 1747l188 -219l-2 -6h-65l-234 219l2 6h111zM840 1464q160 0 299 -56t237.5 -154.5t154.5 -237.5t56 -299q0 -214 -95.5 -385t-266.5 -267t-385 -96t-385 96t-267 267t-96 385t96 385t267 266.5t385 95.5zM840 1382q-289 0 -475.5 -187t-186.5 -478q0 -192 84.5 -344
t236 -237t341.5 -85t341 85t235.5 237t84.5 344q0 291 -186 478t-475 187z" />
    <glyph glyph-name="Oacute" unicode="&#xd3;" horiz-adv-x="1679" 
d="M1104 1747l2 -6l-234 -219h-65l-2 6l188 219h111zM840 1464q160 0 299 -56t237.5 -154.5t154.5 -237.5t56 -299q0 -214 -95.5 -385t-266.5 -267t-385 -96t-385 96t-267 267t-96 385t96 385t267 266.5t385 95.5zM840 1382q-289 0 -475.5 -187t-186.5 -478
q0 -192 84.5 -344t236 -237t341.5 -85t341 85t235.5 237t84.5 344q0 291 -186 478t-475 187z" />
    <glyph glyph-name="Ocircumflex" unicode="&#xd4;" horiz-adv-x="1679" 
d="M541 1522v6l243 239h107l244 -239v-6h-95l-110 102q-41 38 -58 58.5t-32 50.5h-4q-14 -29 -31.5 -49.5t-59.5 -59.5l-110 -102h-94zM840 1464q160 0 299 -56t237.5 -154.5t154.5 -237.5t56 -299q0 -214 -95.5 -385t-266.5 -267t-385 -96t-385 96t-267 267t-96 385t96 385
t267 266.5t385 95.5zM840 1382q-289 0 -475.5 -187t-186.5 -478q0 -192 84.5 -344t236 -237t341.5 -85t341 85t235.5 237t84.5 344q0 291 -186 478t-475 187z" />
    <glyph glyph-name="Otilde" unicode="&#xd5;" horiz-adv-x="1679" 
d="M582 1569l-56 20q12 30 25 53t34 49t51 40t66 14q48 0 112 -31.5t122.5 -62.5t91.5 -31q66 0 109 98l55 -20q-12 -30 -25 -53t-34 -49t-51 -40t-66 -14q-38 0 -87 19.5t-88 43t-81.5 43t-69.5 19.5q-65 0 -108 -98zM840 1464q160 0 299 -56t237.5 -154.5t154.5 -237.5
t56 -299q0 -214 -95.5 -385t-266.5 -267t-385 -96t-385 96t-267 267t-96 385t96 385t267 266.5t385 95.5zM840 1382q-289 0 -475.5 -187t-186.5 -478q0 -192 84.5 -344t236 -237t341.5 -85t341 85t235.5 237t84.5 344q0 291 -186 478t-475 187z" />
    <glyph glyph-name="Odieresis" unicode="&#xd6;" horiz-adv-x="1679" 
d="M629 1747h102v-225h-102v225zM948 1747h103v-225h-103v225zM840 1464q160 0 299 -56t237.5 -154.5t154.5 -237.5t56 -299q0 -214 -95.5 -385t-266.5 -267t-385 -96t-385 96t-267 267t-96 385t96 385t267 266.5t385 95.5zM840 1382q-289 0 -475.5 -187t-186.5 -478
q0 -192 84.5 -344t236 -237t341.5 -85t341 85t235.5 237t84.5 344q0 291 -186 478t-475 187z" />
    <glyph glyph-name="multiply" unicode="&#xd7;" 
d="M999 1038l43 -43l-385 -385l385 -385l-43 -43l-385 385l-385 -385l-43 43l385 385l-385 385l43 43l385 -385z" />
    <glyph glyph-name="Oslash" unicode="&#xd8;" horiz-adv-x="1679" 
d="M1303 1319q134 -101 209 -257t75 -345q0 -214 -95.5 -385t-266.5 -267t-385 -96q-235 0 -414 115l-80 -113l-49 31l80 113q-134 102 -209.5 257.5t-75.5 344.5q0 214 96 385t267 266.5t385 95.5q236 0 413 -114l80 112l49 -30zM178 717q0 -168 65.5 -306t182.5 -227
l780 1098q-162 100 -366 100q-289 0 -475.5 -187t-186.5 -478zM840 51q190 0 341 85t235.5 237t84.5 344q0 168 -65.5 305.5t-182.5 226.5l-780 -1097q164 -101 367 -101z" />
    <glyph glyph-name="Ugrave" unicode="&#xd9;" horiz-adv-x="1388" 
d="M541 1747l188 -219l-2 -6h-65l-234 219l2 6h111zM1225 1434v-916q0 -255 -142 -402t-389 -147t-388.5 147t-141.5 402v916h86v-895q0 -228 117.5 -357t326.5 -129t327 129t118 357v895h86z" />
    <glyph glyph-name="Uacute" unicode="&#xda;" horiz-adv-x="1388" 
d="M958 1747l3 -6l-234 -219h-65l-3 6l189 219h110zM1225 1434v-916q0 -255 -142 -402t-389 -147t-388.5 147t-141.5 402v916h86v-895q0 -228 117.5 -357t326.5 -129t327 129t118 357v895h86z" />
    <glyph glyph-name="Ucircumflex" unicode="&#xdb;" horiz-adv-x="1388" 
d="M395 1522v6l244 239h106l244 -239v-6h-94l-111 102q-41 38 -58 58.5t-32 50.5h-4q-15 -30 -32 -50.5t-58 -58.5l-111 -102h-94zM1225 1434v-916q0 -255 -142 -402t-389 -147t-388.5 147t-141.5 402v916h86v-895q0 -228 117.5 -357t326.5 -129t327 129t118 357v895h86z
" />
    <glyph glyph-name="Udieresis" unicode="&#xdc;" horiz-adv-x="1388" 
d="M483 1747h103v-225h-103v225zM803 1747h102v-225h-102v225zM1225 1434v-916q0 -255 -142 -402t-389 -147t-388.5 147t-141.5 402v916h86v-895q0 -228 117.5 -357t326.5 -129t327 129t118 357v895h86z" />
    <glyph glyph-name="Yacute" unicode="&#xdd;" horiz-adv-x="1097" 
d="M813 1747l2 -6l-233 -219h-66l-2 6l188 219h111zM1067 1434l-477 -891v-543h-82v543l-477 891h106l342 -660q33 -63 45 -94.5t23 -79.5h4q11 50 23 81t44 93l343 660h106z" />
    <glyph glyph-name="Thorn" unicode="&#xde;" horiz-adv-x="1060" 
d="M256 1434v-273q0 -31 -6 -49l2 -2q12 4 53 4h301q190 0 302 -104.5t112 -272.5t-112 -272.5t-302 -104.5h-301q-38 0 -53 5l-2 -3q6 -18 6 -49v-313h-82v1434h82zM252 1040l-2 -2q6 -18 6 -49v-504q0 -31 -6 -49l2 -2q12 4 53 4h303q147 0 236.5 76.5t89.5 222.5
t-89.5 222.5t-236.5 76.5h-303q-41 0 -53 4z" />
    <glyph glyph-name="germandbls" unicode="&#xdf;" horiz-adv-x="1107" 
d="M580 817q196 0 316 -104.5t120 -292.5q0 -210 -133.5 -320t-393.5 -110h-143v69h137q455 0 455 363q0 189 -128 274.5t-382 85.5v66q171 0 272 77t101 212q0 118 -73.5 186t-195.5 68q-60 0 -111.5 -19.5t-93 -58.5t-65.5 -104.5t-24 -151.5v-1323h-74v1327
q0 183 97.5 293t268.5 110q88 0 157 -27t109.5 -72.5t61.5 -102t21 -119.5q0 -274 -299 -320v-6z" />
    <glyph glyph-name="agrave" unicode="&#xe0;" horiz-adv-x="1042" 
d="M362 1448l187 -303v-12h-66l-231 305v10h110zM524 977q192 0 283.5 -89.5t91.5 -275.5v-612h-74q0 50 9 197l-5 2q-43 -106 -145.5 -168t-234.5 -62q-169 0 -273 94t-104 246q0 154 103 245t280 91q131 0 232.5 -61t139.5 -162l7 2q-6 27 -7.5 52t-1.5 124
q0 154 -72.5 226.5t-226.5 72.5t-331 -59l-23 80q199 57 352 57zM455 571q-135 0 -218 -73t-83 -193q0 -118 82 -189t219 -71q146 0 248 76.5t102 185.5t-102 186.5t-248 77.5z" />
    <glyph glyph-name="aacute" unicode="&#xe1;" horiz-adv-x="1042" 
d="M797 1448v-10l-232 -305h-65v12l186 303h111zM524 977q192 0 283.5 -89.5t91.5 -275.5v-612h-74q0 50 9 197l-5 2q-43 -106 -145.5 -168t-234.5 -62q-169 0 -273 94t-104 246q0 154 103 245t280 91q131 0 232.5 -61t139.5 -162l7 2q-6 27 -7.5 52t-1.5 124
q0 154 -72.5 226.5t-226.5 72.5t-331 -59l-23 80q199 57 352 57zM455 571q-135 0 -218 -73t-83 -193q0 -118 82 -189t219 -71q146 0 248 76.5t102 185.5t-102 186.5t-248 77.5z" />
    <glyph glyph-name="acircumflex" unicode="&#xe2;" horiz-adv-x="1042" 
d="M575 1448l224 -309v-6h-90l-123 174q-47 66 -60 108h-4q-14 -45 -59 -108l-123 -174h-90v6l223 309h102zM524 977q192 0 283.5 -89.5t91.5 -275.5v-612h-74q0 50 9 197l-5 2q-43 -106 -145.5 -168t-234.5 -62q-169 0 -273 94t-104 246q0 154 103 245t280 91
q131 0 232.5 -61t139.5 -162l7 2q-6 27 -7.5 52t-1.5 124q0 154 -72.5 226.5t-226.5 72.5t-331 -59l-23 80q199 57 352 57zM455 571q-135 0 -218 -73t-83 -193q0 -118 82 -189t219 -71q146 0 248 76.5t102 185.5t-102 186.5t-248 77.5z" />
    <glyph glyph-name="atilde" unicode="&#xe3;" horiz-adv-x="1042" 
d="M377 1411q48 0 112 -31.5t122 -62.5t91 -31q66 0 109 98l55 -20q-12 -30 -25 -53t-34 -49t-51 -40t-66 -14q-38 0 -87 19.5t-87.5 43t-81 43t-69.5 19.5q-66 0 -109 -98l-55 20q12 30 25 53t34 49t51 40t66 14zM524 977q192 0 283.5 -89.5t91.5 -275.5v-612h-74
q0 50 9 197l-5 2q-43 -106 -145.5 -168t-234.5 -62q-169 0 -273 94t-104 246q0 154 103 245t280 91q131 0 232.5 -61t139.5 -162l7 2q-6 27 -7.5 52t-1.5 124q0 154 -72.5 226.5t-226.5 72.5t-331 -59l-23 80q199 57 352 57zM455 571q-135 0 -218 -73t-83 -193
q0 -118 82 -189t219 -71q146 0 248 76.5t102 185.5t-102 186.5t-248 77.5z" />
    <glyph glyph-name="adieresis" unicode="&#xe4;" horiz-adv-x="1042" 
d="M416 1434v-246h-103v246h103zM735 1434v-246h-102v246h102zM524 977q192 0 283.5 -89.5t91.5 -275.5v-612h-74q0 50 9 197l-5 2q-43 -106 -145.5 -168t-234.5 -62q-169 0 -273 94t-104 246q0 154 103 245t280 91q131 0 232.5 -61t139.5 -162l7 2q-6 27 -7.5 52t-1.5 124
q0 154 -72.5 226.5t-226.5 72.5t-331 -59l-23 80q199 57 352 57zM455 571q-135 0 -218 -73t-83 -193q0 -118 82 -189t219 -71q146 0 248 76.5t102 185.5t-102 186.5t-248 77.5z" />
    <glyph glyph-name="aring" unicode="&#xe5;" horiz-adv-x="1042" 
d="M524 1530q106 0 175 -68t69 -172t-69 -171.5t-175 -67.5t-174.5 67.5t-68.5 171.5t68.5 172t174.5 68zM524 1473q-84 0 -133 -49.5t-49 -133.5t49 -133t133 -49t133.5 49t49.5 133t-49.5 133.5t-133.5 49.5zM524 977q192 0 283.5 -89.5t91.5 -275.5v-612h-74q0 50 9 197
l-5 2q-43 -106 -145.5 -168t-234.5 -62q-169 0 -273 94t-104 246q0 154 103 245t280 91q131 0 232.5 -61t139.5 -162l7 2q-6 27 -7.5 52t-1.5 124q0 154 -72.5 226.5t-226.5 72.5t-331 -59l-23 80q199 57 352 57zM455 571q-135 0 -218 -73t-83 -193q0 -118 82 -189t219 -71
q146 0 248 76.5t102 185.5t-102 186.5t-248 77.5z" />
    <glyph glyph-name="ae" unicode="&#xe6;" horiz-adv-x="1849" 
d="M453 -31q-168 0 -274.5 91.5t-106.5 246.5t101.5 246.5t272.5 91.5q131 0 235.5 -57.5t145.5 -165.5l7 2q-9 48 -9 176q0 158 -75 228.5t-224 70.5q-154 0 -331 -59l-23 80q188 57 346 57q184 0 271.5 -80.5t87.5 -226.5h4q27 135 140 221t279 86q96 0 174 -27.5
t130 -73.5t87 -109t50.5 -132.5t15.5 -145.5v-20h-784q-45 0 -72 6l-2 -2l2 -10q8 -192 118 -306t294 -114q59 0 110.5 13t85.5 30t70 48.5t54.5 53t47.5 58.5l58 -47q-29 -42 -60.5 -76t-83 -72.5t-124 -60t-158.5 -21.5q-100 0 -182 28.5t-135.5 78.5t-86.5 113t-43 135
h-6q-6 -160 -118 -257.5t-289 -97.5zM903 524q30 15 74 15h625q36 0 73 -13l2 2q-14 176 -110 275.5t-269 99.5q-163 0 -272.5 -99t-124.5 -278zM457 45q141 0 244.5 75t103.5 187q0 113 -104 188.5t-246 75.5t-221.5 -76t-79.5 -190t80 -187t223 -73z" />
    <glyph glyph-name="ccedilla" unicode="&#xe7;" horiz-adv-x="991" 
d="M598 -31h-8l-25 -61q164 -35 164 -144q0 -35 -15 -63t-54.5 -55.5t-64 -41t-86.5 -43.5q-13 -7 -20 -10l-20 41q98 53 140 87.5t42 74.5q0 37 -35.5 58t-119.5 36l45 123q-203 19 -326 156t-123 346q0 224 140 364t366 140q173 0 322 -92l-39 -68q-144 86 -287 86
q-183 0 -303.5 -122t-120.5 -308t120.5 -308t303.5 -122q143 0 287 86l39 -68q-149 -92 -322 -92z" />
    <glyph glyph-name="egrave" unicode="&#xe8;" horiz-adv-x="1118" 
d="M422 1448l186 -303v-12h-65l-232 305v10h111zM575 977q206 0 328.5 -132.5t122.5 -355.5v-20h-784q-53 0 -74 8l-2 -2l4 -16q0 -190 112 -303t300 -113q114 0 200 47.5t168 155.5l58 -47q-78 -113 -187 -171.5t-241 -58.5q-223 0 -355.5 138t-132.5 370q0 229 131 364.5
t352 135.5zM573 903q-173 0 -281 -101.5t-122 -275.5l2 -2q24 15 72 15h626q30 0 74 -13l2 2q-13 180 -110.5 277.5t-262.5 97.5z" />
    <glyph glyph-name="eacute" unicode="&#xe9;" horiz-adv-x="1118" 
d="M856 1448v-10l-231 -305h-66v12l186 303h111zM575 977q206 0 328.5 -132.5t122.5 -355.5v-20h-784q-53 0 -74 8l-2 -2l4 -16q0 -190 112 -303t300 -113q114 0 200 47.5t168 155.5l58 -47q-78 -113 -187 -171.5t-241 -58.5q-223 0 -355.5 138t-132.5 370q0 229 131 364.5
t352 135.5zM573 903q-173 0 -281 -101.5t-122 -275.5l2 -2q24 15 72 15h626q30 0 74 -13l2 2q-13 180 -110.5 277.5t-262.5 97.5z" />
    <glyph glyph-name="ecircumflex" unicode="&#xea;" horiz-adv-x="1118" 
d="M635 1448l223 -309v-6h-90l-123 174q-45 63 -59 108h-4q-13 -42 -60 -108l-123 -174h-90v6l223 309h103zM575 977q206 0 328.5 -132.5t122.5 -355.5v-20h-784q-53 0 -74 8l-2 -2l4 -16q0 -190 112 -303t300 -113q114 0 200 47.5t168 155.5l58 -47q-78 -113 -187 -171.5
t-241 -58.5q-223 0 -355.5 138t-132.5 370q0 229 131 364.5t352 135.5zM573 903q-173 0 -281 -101.5t-122 -275.5l2 -2q24 15 72 15h626q30 0 74 -13l2 2q-13 180 -110.5 277.5t-262.5 97.5z" />
    <glyph glyph-name="edieresis" unicode="&#xeb;" horiz-adv-x="1118" 
d="M475 1434v-246h-102v246h102zM795 1434v-246h-103v246h103zM575 977q206 0 328.5 -132.5t122.5 -355.5v-20h-784q-53 0 -74 8l-2 -2l4 -16q0 -190 112 -303t300 -113q114 0 200 47.5t168 155.5l58 -47q-78 -113 -187 -171.5t-241 -58.5q-223 0 -355.5 138t-132.5 370
q0 229 131 364.5t352 135.5zM573 903q-173 0 -281 -101.5t-122 -275.5l2 -2q24 15 72 15h626q30 0 74 -13l2 2q-13 180 -110.5 277.5t-262.5 97.5z" />
    <glyph glyph-name="igrave" unicode="&#xec;" horiz-adv-x="401" 
d="M-2 1448h102l125 -303v-12h-57l-170 305v10zM238 946v-946h-74v946h74z" />
    <glyph glyph-name="iacute" unicode="&#xed;" horiz-adv-x="401" 
d="M406 1448v-10l-170 -305h-58v12l125 303h103zM238 946v-946h-74v946h74z" />
    <glyph glyph-name="icircumflex" unicode="&#xee;" horiz-adv-x="401" 
d="M244 1448l180 -309v-6h-80l-98 174q-32 56 -39 81q-2 8 -4 19h-4q-4 -20 -10 -35.5t-10.5 -24.5t-22.5 -40l-99 -174h-80v6l181 309h86zM238 946v-946h-74v946h74z" />
    <glyph glyph-name="idieresis" unicode="&#xef;" horiz-adv-x="401" 
d="M133 1434v-246h-102v246h102zM371 1434v-246h-103v246h103zM238 946v-946h-74v946h74z" />
    <glyph glyph-name="eth" unicode="&#xf0;" horiz-adv-x="1218" 
d="M745 1323q361 -202 361 -702q0 -143 -30 -257t-80 -186.5t-119.5 -120.5t-144 -68t-157.5 -20q-230 0 -366.5 144t-136.5 370q0 225 135.5 359.5t355.5 134.5q207 0 329 -119t148 -319h11q-17 218 -29 280q-58 307 -334 453l-192 -176l-45 45l176 159q-142 64 -332 82
l8 70q224 -25 383 -98l180 164l41 -48zM584 43q184 0 296.5 113t112.5 307q0 199 -118.5 319.5t-311.5 120.5q-188 0 -300.5 -116t-112.5 -306q0 -199 121.5 -318.5t312.5 -119.5z" />
    <glyph glyph-name="ntilde" unicode="&#xf1;" horiz-adv-x="1122" 
d="M434 1411q48 0 112 -31.5t122.5 -62.5t91.5 -31q65 0 108 98l56 -20q-12 -30 -25 -53t-34 -49t-51 -40t-66 -14q-38 0 -87 19.5t-88 43t-81.5 43t-69.5 19.5q-66 0 -109 -98l-55 20q12 30 25 53t34 49t51 40t66 14zM610 977q180 0 274.5 -107.5t94.5 -310.5v-559h-74v559
q0 163 -78 253.5t-219 90.5q-178 0 -279.5 -130t-101.5 -359v-414h-73v946h73q0 -237 -18 -328l8 -4q82 363 393 363z" />
    <glyph glyph-name="ograve" unicode="&#xf2;" horiz-adv-x="1191" 
d="M434 1448l187 -303v-12h-66l-231 305v10h110zM596 977q223 0 363.5 -140.5t140.5 -363.5q0 -222 -141 -363t-363 -141q-221 0 -362.5 141.5t-141.5 362.5q0 222 141 363t363 141zM596 903q-185 0 -305.5 -121.5t-120.5 -308.5t120.5 -308.5t305.5 -121.5t305.5 121.5
t120.5 308.5t-120.5 308.5t-305.5 121.5z" />
    <glyph glyph-name="oacute" unicode="&#xf3;" horiz-adv-x="1191" 
d="M868 1448v-10l-231 -305h-66v12l187 303h110zM596 977q223 0 363.5 -140.5t140.5 -363.5q0 -222 -141 -363t-363 -141q-221 0 -362.5 141.5t-141.5 362.5q0 222 141 363t363 141zM596 903q-185 0 -305.5 -121.5t-120.5 -308.5t120.5 -308.5t305.5 -121.5t305.5 121.5
t120.5 308.5t-120.5 308.5t-305.5 121.5z" />
    <glyph glyph-name="ocircumflex" unicode="&#xf4;" horiz-adv-x="1191" 
d="M647 1448l223 -309v-6h-90l-123 174q-45 63 -59 108h-4q-14 -45 -59 -108l-123 -174h-90v6l223 309h102zM596 977q223 0 363.5 -140.5t140.5 -363.5q0 -222 -141 -363t-363 -141q-221 0 -362.5 141.5t-141.5 362.5q0 222 141 363t363 141zM596 903q-185 0 -305.5 -121.5
t-120.5 -308.5t120.5 -308.5t305.5 -121.5t305.5 121.5t120.5 308.5t-120.5 308.5t-305.5 121.5z" />
    <glyph glyph-name="otilde" unicode="&#xf5;" horiz-adv-x="1191" 
d="M449 1411q48 0 112 -31.5t122 -62.5t91 -31q66 0 109 98l55 -20q-12 -30 -25 -53t-34 -49t-51 -40t-66 -14q-38 0 -87 19.5t-88 43t-81.5 43t-69.5 19.5q-65 0 -108 -98l-56 20q64 156 177 156zM596 977q223 0 363.5 -140.5t140.5 -363.5q0 -222 -141 -363t-363 -141
q-221 0 -362.5 141.5t-141.5 362.5q0 222 141 363t363 141zM596 903q-185 0 -305.5 -121.5t-120.5 -308.5t120.5 -308.5t305.5 -121.5t305.5 121.5t120.5 308.5t-120.5 308.5t-305.5 121.5z" />
    <glyph glyph-name="odieresis" unicode="&#xf6;" horiz-adv-x="1191" 
d="M487 1434v-246h-102v246h102zM807 1434v-246h-102v246h102zM596 977q223 0 363.5 -140.5t140.5 -363.5q0 -222 -141 -363t-363 -141q-221 0 -362.5 141.5t-141.5 362.5q0 222 141 363t363 141zM596 903q-185 0 -305.5 -121.5t-120.5 -308.5t120.5 -308.5t305.5 -121.5
t305.5 121.5t120.5 308.5t-120.5 308.5t-305.5 121.5z" />
    <glyph glyph-name="divide" unicode="&#xf7;" 
d="M674 983v-143h-119v143h119zM1145 639v-57h-1061v57h1061zM674 381v-145h-119v145h119z" />
    <glyph glyph-name="oslash" unicode="&#xf8;" horiz-adv-x="1191" 
d="M946 848q73 -67 113.5 -163.5t40.5 -211.5q0 -222 -141 -363t-363 -141q-186 0 -320 103l-86 -101l-43 37l86 103q-141 141 -141 362q0 222 141 363t363 141q177 0 305 -92l78 92l45 -39zM170 473q0 -183 117 -303l563 655q-111 78 -254 78q-185 0 -305.5 -121.5
t-120.5 -308.5zM596 43q185 0 305.5 121.5t120.5 308.5q0 191 -127 315l-567 -657q115 -88 268 -88z" />
    <glyph glyph-name="ugrave" unicode="&#xf9;" horiz-adv-x="1077" 
d="M375 1448l186 -303v-12h-65l-232 305v10h111zM934 946v-946h-74q0 226 19 319l-9 5q-73 -355 -381 -355q-173 0 -264.5 108t-91.5 312v557h80v-557q0 -164 75 -255t210 -91q167 0 264.5 131.5t97.5 357.5v414h74z" />
    <glyph glyph-name="uacute" unicode="&#xfa;" horiz-adv-x="1077" 
d="M809 1448v-10l-231 -305h-66v12l186 303h111zM934 946v-946h-74q0 226 19 319l-9 5q-73 -355 -381 -355q-173 0 -264.5 108t-91.5 312v557h80v-557q0 -164 75 -255t210 -91q167 0 264.5 131.5t97.5 357.5v414h74z" />
    <glyph glyph-name="ucircumflex" unicode="&#xfb;" horiz-adv-x="1077" 
d="M588 1448l223 -309v-6h-90l-123 174q-45 63 -59 108h-4q-13 -42 -60 -108l-123 -174h-90v6l223 309h103zM934 946v-946h-74q0 226 19 319l-9 5q-73 -355 -381 -355q-173 0 -264.5 108t-91.5 312v557h80v-557q0 -164 75 -255t210 -91q167 0 264.5 131.5t97.5 357.5v414h74
z" />
    <glyph glyph-name="udieresis" unicode="&#xfc;" horiz-adv-x="1077" 
d="M428 1434v-246h-102v246h102zM748 1434v-246h-103v246h103zM934 946v-946h-74q0 226 19 319l-9 5q-73 -355 -381 -355q-173 0 -264.5 108t-91.5 312v557h80v-557q0 -164 75 -255t210 -91q167 0 264.5 131.5t97.5 357.5v414h74z" />
    <glyph glyph-name="yacute" unicode="&#xfd;" horiz-adv-x="929" 
d="M741 1448v-10l-231 -305h-66v12l187 303h110zM909 946l-604 -1356h-78l213 482l-420 874h89l292 -627q41 -88 54.5 -124.5t19.5 -81.5h8q6 47 20 86.5t52 126.5l274 620h80z" />
    <glyph glyph-name="thorn" unicode="&#xfe;" horiz-adv-x="1243" 
d="M164 -410v1844h74v-494q0 -167 -17 -256l6 -4q58 145 174 221t271 76q208 0 343.5 -136.5t135.5 -367.5q0 -116 -37 -212t-102 -159.5t-152 -98t-188 -34.5q-318 0 -449 287l-8 -2q23 -88 23 -182v-482h-74zM672 47q176 0 288.5 115.5t112.5 308.5q0 195 -114 311.5
t-295 116.5q-194 0 -314.5 -120.5t-120.5 -305.5t120.5 -305.5t322.5 -120.5z" />
    <glyph glyph-name="ydieresis" unicode="&#xff;" horiz-adv-x="929" 
d="M360 1434v-246h-102v246h102zM680 1434v-246h-102v246h102zM909 946l-604 -1356h-78l213 482l-420 874h89l292 -627q41 -88 54.5 -124.5t19.5 -81.5h8q6 47 20 86.5t52 126.5l274 620h80z" />
    <glyph glyph-name="Amacron" unicode="&#x100;" horiz-adv-x="1331" 
d="M387 1665h555v-70h-555v70zM31 0l628 1464h13l628 -1464h-90l-209 487h-671l-209 -487h-90zM352 557q36 4 115 4h397q79 0 115 -4v2q-24 34 -59 119l-195 463q-49 117 -55 178h-8q-6 -58 -56 -178l-194 -463q-34 -81 -60 -119v-2z" />
    <glyph glyph-name="amacron" unicode="&#x101;" horiz-adv-x="1042" 
d="M801 1350v-70h-553v70h553zM524 977q192 0 283.5 -89.5t91.5 -275.5v-612h-74q0 50 9 197l-5 2q-43 -106 -145.5 -168t-234.5 -62q-169 0 -273 94t-104 246q0 154 103 245t280 91q131 0 232.5 -61t139.5 -162l7 2q-6 27 -7.5 52t-1.5 124q0 154 -72.5 226.5t-226.5 72.5
t-331 -59l-23 80q199 57 352 57zM455 571q-135 0 -218 -73t-83 -193q0 -118 82 -189t219 -71q146 0 248 76.5t102 185.5t-102 186.5t-248 77.5z" />
    <glyph glyph-name="Abreve" unicode="&#x102;" horiz-adv-x="1331" 
d="M944 1747q0 -102 -77.5 -163.5t-200.5 -61.5t-201 61.5t-78 163.5h70q3 -70 59 -114t150 -44t149.5 44t58.5 114h70zM31 0l628 1464h13l628 -1464h-90l-209 487h-671l-209 -487h-90zM352 557q36 4 115 4h397q79 0 115 -4v2q-24 34 -59 119l-195 463q-49 117 -55 178h-8
q-6 -58 -56 -178l-194 -463q-34 -81 -60 -119v-2z" />
    <glyph glyph-name="abreve" unicode="&#x103;" horiz-adv-x="1042" 
d="M803 1434q0 -134 -77.5 -210.5t-201.5 -76.5t-201 76.5t-77 210.5h69q3 -103 58.5 -161.5t150.5 -58.5t150.5 58.5t58.5 161.5h70zM524 977q192 0 283.5 -89.5t91.5 -275.5v-612h-74q0 50 9 197l-5 2q-43 -106 -145.5 -168t-234.5 -62q-169 0 -273 94t-104 246
q0 154 103 245t280 91q131 0 232.5 -61t139.5 -162l7 2q-6 27 -7.5 52t-1.5 124q0 154 -72.5 226.5t-226.5 72.5t-331 -59l-23 80q199 57 352 57zM455 571q-135 0 -218 -73t-83 -193q0 -118 82 -189t219 -71q146 0 248 76.5t102 185.5t-102 186.5t-248 77.5z" />
    <glyph glyph-name="Aogonek" unicode="&#x104;" horiz-adv-x="1331" 
d="M1143 -313q52 0 106 14l4 -66q-63 -18 -118 -18q-75 0 -127 33.5t-52 99.5q0 138 236 295l-191 442h-671l-209 -487h-90l628 1464h13l628 -1464h-63q-103 -72 -154 -129.5t-51 -108.5q0 -75 111 -75zM979 557v2q-24 34 -59 119l-195 463q-49 117 -55 178h-8
q-6 -58 -56 -178l-194 -463q-34 -81 -60 -119v-2q36 4 115 4h397q79 0 115 -4z" />
    <glyph glyph-name="aogonek" unicode="&#x105;" horiz-adv-x="1042" 
d="M850 0q-103 -72 -154 -129.5t-51 -108.5q0 -75 111 -75q52 0 106 14l4 -66q-63 -18 -118 -18q-75 0 -127 33.5t-52 99.5q0 73 62.5 147t189.5 158l4 -2l9 144l-5 2q-43 -106 -145.5 -168t-234.5 -62q-169 0 -273 94t-104 246q0 154 103 245t280 91q131 0 232.5 -61
t139.5 -162l7 2q-6 27 -7.5 52t-1.5 124q0 154 -72.5 226.5t-226.5 72.5t-331 -59l-23 80q199 57 352 57q192 0 283.5 -89.5t91.5 -275.5v-612h-49zM455 45q146 0 248 76.5t102 185.5t-102 186.5t-248 77.5q-135 0 -218 -73t-83 -193q0 -118 82 -189t219 -71z" />
    <glyph glyph-name="Cacute" unicode="&#x106;" horiz-adv-x="1439" 
d="M1096 1747l2 -6l-234 -219h-65l-2 6l188 219h111zM852 -31q-225 0 -398 93.5t-267.5 263.5t-94.5 391t94.5 390.5t267.5 263t398 93.5q141 0 261 -40t235 -126l-52 -69q-109 82 -212.5 117.5t-231.5 35.5q-299 0 -486.5 -185t-187.5 -480t187.5 -480.5t486.5 -185.5
q127 0 231 36t213 118l52 -70q-115 -86 -235 -126t-261 -40z" />
    <glyph glyph-name="cacute" unicode="&#x107;" horiz-adv-x="991" 
d="M858 1448v-10l-231 -305h-66v12l187 303h110zM598 -31q-226 0 -366 140t-140 364t140 364t366 140q173 0 322 -92l-39 -68q-144 86 -287 86q-183 0 -303.5 -122t-120.5 -308t120.5 -308t303.5 -122q143 0 287 86l39 -68q-149 -92 -322 -92z" />
    <glyph glyph-name="Ccircumflex" unicode="&#x108;" horiz-adv-x="1439" 
d="M532 1522v6l244 239h107l243 -239v-6h-94l-110 102q-42 39 -59.5 59.5t-31.5 49.5h-4q-15 -30 -32 -50.5t-58 -58.5l-110 -102h-95zM852 -31q-225 0 -398 93.5t-267.5 263.5t-94.5 391t94.5 390.5t267.5 263t398 93.5q141 0 261 -40t235 -126l-52 -69
q-109 82 -212.5 117.5t-231.5 35.5q-299 0 -486.5 -185t-187.5 -480t187.5 -480.5t486.5 -185.5q127 0 231 36t213 118l52 -70q-115 -86 -235 -126t-261 -40z" />
    <glyph glyph-name="ccircumflex" unicode="&#x109;" horiz-adv-x="991" 
d="M637 1448l223 -309v-6h-90l-123 174q-45 63 -59 108h-4q-13 -42 -60 -108l-123 -174h-90v6l224 309h102zM598 -31q-226 0 -366 140t-140 364t140 364t366 140q173 0 322 -92l-39 -68q-144 86 -287 86q-183 0 -303.5 -122t-120.5 -308t120.5 -308t303.5 -122q143 0 287 86
l39 -68q-149 -92 -322 -92z" />
    <glyph glyph-name="Cdotaccent" unicode="&#x10a;" horiz-adv-x="1439" 
d="M877 1747v-225h-91v225h91zM852 -31q-225 0 -398 93.5t-267.5 263.5t-94.5 391t94.5 390.5t267.5 263t398 93.5q141 0 261 -40t235 -126l-52 -69q-109 82 -212.5 117.5t-231.5 35.5q-299 0 -486.5 -185t-187.5 -480t187.5 -480.5t486.5 -185.5q127 0 231 36t213 118
l52 -70q-115 -86 -235 -126t-261 -40z" />
    <glyph glyph-name="cdotaccent" unicode="&#x10b;" horiz-adv-x="991" 
d="M631 1434v-265h-90v265h90zM598 -31q-226 0 -366 140t-140 364t140 364t366 140q173 0 322 -92l-39 -68q-144 86 -287 86q-183 0 -303.5 -122t-120.5 -308t120.5 -308t303.5 -122q143 0 287 86l39 -68q-149 -92 -322 -92z" />
    <glyph glyph-name="Ccaron" unicode="&#x10c;" horiz-adv-x="1439" 
d="M1126 1767v-6l-243 -239h-107l-244 239v6h95l110 -102q41 -38 58 -58.5t32 -50.5h4q14 29 31.5 49.5t59.5 59.5l110 102h94zM852 -31q-225 0 -398 93.5t-267.5 263.5t-94.5 391t94.5 390.5t267.5 263t398 93.5q141 0 261 -40t235 -126l-52 -69q-109 82 -212.5 117.5
t-231.5 35.5q-299 0 -486.5 -185t-187.5 -480t187.5 -480.5t486.5 -185.5q127 0 231 36t213 118l52 -70q-115 -86 -235 -126t-261 -40z" />
    <glyph glyph-name="ccaron" unicode="&#x10d;" horiz-adv-x="991" 
d="M535 1133l-244 309v6h90l139 -174q29 -36 41 -53.5t23 -46.5h4q11 29 23 47t40 53l140 174h90v-6l-244 -309h-102zM598 -31q-226 0 -366 140t-140 364t140 364t366 140q173 0 322 -92l-39 -68q-144 86 -287 86q-183 0 -303.5 -122t-120.5 -308t120.5 -308t303.5 -122
q143 0 287 86l39 -68q-149 -92 -322 -92z" />
    <glyph glyph-name="Dcaron" unicode="&#x10e;" horiz-adv-x="1417" 
d="M907 1767v-6l-243 -239h-107l-244 239v6h95l110 -102q41 -38 58 -58.5t32 -50.5h4q15 30 32 50.5t58 58.5l111 102h94zM604 1434q325 0 523 -197t198 -520t-198 -520t-523 -197h-430v1434h430zM252 1360l-2 -2q6 -18 6 -49v-1184q0 -31 -6 -49l2 -2q8 4 53 4h299
q286 0 460.5 175.5t174.5 463.5t-174.5 463.5t-460.5 175.5h-299q-45 0 -53 4z" />
    <glyph glyph-name="dcaron" unicode="&#x10f;" horiz-adv-x="1361" 
d="M1255 1495h97l-111 -371h-53zM571 -31q-214 0 -346.5 140t-132.5 364t132.5 364t346.5 140q162 0 277.5 -80.5t167.5 -230.5l6 4q-16 79 -16 270v524h73v-1464h-73q0 170 22 274l-8 2q-57 -149 -172.5 -228t-276.5 -79zM571 47q197 0 320 118t123 308q0 188 -121 307
t-313 119q-184 0 -297 -118t-113 -310q0 -190 110.5 -307t290.5 -117z" />
    <glyph glyph-name="Dcroat" unicode="&#x110;" horiz-adv-x="1488" 
d="M686 1434q204 0 364.5 -85t253.5 -249.5t93 -382.5t-93 -382.5t-253.5 -249.5t-364.5 -85h-440v639q0 31 6 49l-2 2q-12 -4 -53 -4h-177v78h177q41 0 53 -4l2 2q-6 18 -6 49v623h440zM666 76q136 0 253.5 42.5t204.5 122t137 202t50 274.5q0 151 -50 273t-137 201.5
t-204.5 122t-253.5 42.5h-289q-41 0 -53 4l-2 -2q6 -18 6 -49v-498q0 -31 -6 -49l2 -2q12 4 53 4h457v-78h-457q-41 0 -53 4l-2 -2q6 -18 6 -49v-516q0 -31 -6 -49l2 -2q12 4 53 4h289z" />
    <glyph glyph-name="dcroat" unicode="&#x111;" horiz-adv-x="1212" 
d="M1126 1247h86v-61h-86q-33 0 -53 10l-2 -2q8 -16 8 -57v-1137h-73q0 175 22 274l-8 2q-33 -85 -83 -147t-110.5 -95.5t-123 -49t-132.5 -15.5q-101 0 -188 34.5t-152 98t-102 159.5t-37 212q0 231 135.5 367.5t343.5 136.5q158 0 274.5 -79t170.5 -232l6 4
q-16 84 -16 270v197q0 41 8 57l-2 2q-20 -10 -54 -10h-323v61h323q34 0 54 -10l2 2q-8 16 -8 57v168h73v-168q0 -41 -8 -57l2 -2q20 10 53 10zM571 47q202 0 322.5 120.5t120.5 305.5t-120 305.5t-314 120.5q-181 0 -295.5 -116.5t-114.5 -311.5q0 -193 112.5 -308.5
t288.5 -115.5z" />
    <glyph glyph-name="Emacron" unicode="&#x112;" horiz-adv-x="1044" 
d="M319 1665h555v-70h-555v70zM952 1434v-78h-647q-41 0 -53 4l-2 -2q6 -18 6 -49v-428q0 -32 -6 -50l2 -2q15 5 53 5h584v-78h-584q-41 0 -53 4l-2 -2q6 -18 6 -49v-584q0 -31 -6 -49l2 -2q12 4 53 4h658v-78h-789v1434h778z" />
    <glyph glyph-name="emacron" unicode="&#x113;" horiz-adv-x="1118" 
d="M860 1350v-70h-553v70h553zM575 977q206 0 328.5 -132.5t122.5 -355.5v-20h-784q-53 0 -74 8l-2 -2l4 -16q0 -190 112 -303t300 -113q114 0 200 47.5t168 155.5l58 -47q-78 -113 -187 -171.5t-241 -58.5q-223 0 -355.5 138t-132.5 370q0 229 131 364.5t352 135.5z
M573 903q-173 0 -281 -101.5t-122 -275.5l2 -2q24 15 72 15h626q30 0 74 -13l2 2q-13 180 -110.5 277.5t-262.5 97.5z" />
    <glyph glyph-name="Ebreve" unicode="&#x114;" horiz-adv-x="1044" 
d="M877 1747q0 -102 -78 -163.5t-201 -61.5t-201 61.5t-78 163.5h70q3 -70 59 -114t150 -44t150 44t59 114h70zM952 1434v-78h-647q-41 0 -53 4l-2 -2q6 -18 6 -49v-428q0 -32 -6 -50l2 -2q15 5 53 5h584v-78h-584q-41 0 -53 4l-2 -2q6 -18 6 -49v-584q0 -31 -6 -49l2 -2
q12 4 53 4h658v-78h-789v1434h778z" />
    <glyph glyph-name="ebreve" unicode="&#x115;" horiz-adv-x="1118" 
d="M862 1434q0 -134 -77 -210.5t-201 -76.5t-201.5 76.5t-77.5 210.5h70q3 -103 58.5 -161.5t150.5 -58.5t150.5 58.5t58.5 161.5h69zM575 977q206 0 328.5 -132.5t122.5 -355.5v-20h-784q-53 0 -74 8l-2 -2l4 -16q0 -190 112 -303t300 -113q114 0 200 47.5t168 155.5
l58 -47q-78 -113 -187 -171.5t-241 -58.5q-223 0 -355.5 138t-132.5 370q0 229 131 364.5t352 135.5zM573 903q-173 0 -281 -101.5t-122 -275.5l2 -2q24 15 72 15h626q30 0 74 -13l2 2q-13 180 -110.5 277.5t-262.5 97.5z" />
    <glyph glyph-name="Edotaccent" unicode="&#x116;" horiz-adv-x="1044" 
d="M643 1747v-225h-90v225h90zM952 1434v-78h-647q-41 0 -53 4l-2 -2q6 -18 6 -49v-428q0 -32 -6 -50l2 -2q15 5 53 5h584v-78h-584q-41 0 -53 4l-2 -2q6 -18 6 -49v-584q0 -31 -6 -49l2 -2q12 4 53 4h658v-78h-789v1434h778z" />
    <glyph glyph-name="edotaccent" unicode="&#x117;" horiz-adv-x="1118" 
d="M629 1434v-265h-90v265h90zM575 977q206 0 328.5 -132.5t122.5 -355.5v-20h-784q-53 0 -74 8l-2 -2l4 -16q0 -190 112 -303t300 -113q114 0 200 47.5t168 155.5l58 -47q-78 -113 -187 -171.5t-241 -58.5q-223 0 -355.5 138t-132.5 370q0 229 131 364.5t352 135.5z
M573 903q-173 0 -281 -101.5t-122 -275.5l2 -2q24 15 72 15h626q30 0 74 -13l2 2q-13 180 -110.5 277.5t-262.5 97.5z" />
    <glyph glyph-name="Eogonek" unicode="&#x118;" horiz-adv-x="1044" 
d="M915 0q-204 -143 -204 -238q0 -75 110 -75q53 0 107 14l4 -66q-63 -18 -119 -18q-74 0 -126 33.5t-52 99.5q0 119 172 250h-633v1434h778v-78h-647q-41 0 -53 4l-2 -2q6 -18 6 -49v-428q0 -32 -6 -50l2 -2q15 5 53 5h584v-78h-584q-41 0 -53 4l-2 -2q6 -18 6 -49v-584
q0 -31 -6 -49l2 -2q12 4 53 4h658v-78h-48z" />
    <glyph glyph-name="eogonek" unicode="&#x119;" horiz-adv-x="1118" 
d="M242 469q-53 0 -74 8l-2 -2l4 -16q0 -190 112 -303t300 -113q114 0 200 47.5t168 155.5l58 -47q-82 -116 -199 -176l2 -3q-117 -80 -175 -142t-58 -116q0 -75 110 -75q53 0 107 14l4 -66q-63 -18 -119 -18q-74 0 -126 33.5t-52 99.5q0 105 139 223q-40 -4 -61 -4
q-223 0 -355.5 138t-132.5 370q0 229 131 364.5t352 135.5q206 0 328.5 -132.5t122.5 -355.5v-20h-784zM573 903q-173 0 -281 -101.5t-122 -275.5l2 -2q24 15 72 15h626q30 0 74 -13l2 2q-13 180 -110.5 277.5t-262.5 97.5z" />
    <glyph glyph-name="Ecaron" unicode="&#x11a;" horiz-adv-x="1044" 
d="M893 1767v-6l-244 -239h-106l-244 239v6h94l111 -102q41 -38 58 -58.5t32 -50.5h4q15 30 32 50.5t58 58.5l111 102h94zM952 1434v-78h-647q-41 0 -53 4l-2 -2q6 -18 6 -49v-428q0 -32 -6 -50l2 -2q15 5 53 5h584v-78h-584q-41 0 -53 4l-2 -2q6 -18 6 -49v-584
q0 -31 -6 -49l2 -2q12 4 53 4h658v-78h-789v1434h778z" />
    <glyph glyph-name="ecaron" unicode="&#x11b;" horiz-adv-x="1118" 
d="M532 1133l-243 309v6h90l139 -174q29 -36 41 -53.5t23 -46.5h4q11 29 23 47t40 53l139 174h91v-6l-244 -309h-103zM575 977q206 0 328.5 -132.5t122.5 -355.5v-20h-784q-53 0 -74 8l-2 -2l4 -16q0 -190 112 -303t300 -113q114 0 200 47.5t168 155.5l58 -47
q-78 -113 -187 -171.5t-241 -58.5q-223 0 -355.5 138t-132.5 370q0 229 131 364.5t352 135.5zM573 903q-173 0 -281 -101.5t-122 -275.5l2 -2q24 15 72 15h626q30 0 74 -13l2 2q-13 180 -110.5 277.5t-262.5 97.5z" />
    <glyph glyph-name="Gcircumflex" unicode="&#x11c;" horiz-adv-x="1658" 
d="M561 1522v6l244 239h106l244 -239v-6h-94l-111 102q-41 38 -58 58.5t-32 50.5h-4q-15 -30 -32 -50.5t-58 -58.5l-111 -102h-94zM858 1464q144 0 271 -45t262 -143l-54 -74q-125 95 -240 137.5t-243 42.5q-145 0 -270.5 -50.5t-214.5 -139t-140 -214.5t-51 -271
q0 -188 86 -338t240 -234t348 -84q133 0 244 41t182 105.5t121 147t71.5 161.5t22.5 153l-2 3q-43 -13 -141 -13h-500v78h727v-35q0 -102 -26.5 -202.5t-85 -195t-141.5 -166.5t-205.5 -115.5t-268.5 -43.5q-219 0 -392 93.5t-269.5 262t-96.5 382.5q0 165 56.5 306
t156.5 240t242.5 155t310.5 56z" />
    <glyph glyph-name="gcircumflex" unicode="&#x11d;" horiz-adv-x="1222" 
d="M637 1448l223 -309v-6h-90l-123 174q-45 63 -59 108h-4q-13 -42 -60 -108l-123 -174h-90v6l224 309h102zM573 977q160 0 274.5 -80t168.5 -229l6 4q-16 85 -16 274h73v-946q0 -215 -127.5 -327.5t-371.5 -112.5q-234 0 -414 108l39 68q104 -55 193 -79t190 -24
q418 0 418 383v56q0 115 22 202l-8 2q-61 -151 -174 -229t-268 -78q-218 0 -352 138.5t-134 365.5q0 226 132.5 365t348.5 139zM584 899q-187 0 -300.5 -117t-113.5 -311q0 -193 112 -308.5t298 -115.5q191 0 312.5 119.5t121.5 306.5q0 186 -120.5 306t-309.5 120z" />
    <glyph glyph-name="Gbreve" unicode="&#x11e;" horiz-adv-x="1658" 
d="M1139 1747q0 -102 -78 -163.5t-201 -61.5t-200.5 61.5t-77.5 163.5h69q3 -70 59 -114t150 -44t150 44t59 114h70zM858 1464q144 0 271 -45t262 -143l-54 -74q-125 95 -240 137.5t-243 42.5q-145 0 -270.5 -50.5t-214.5 -139t-140 -214.5t-51 -271q0 -188 86 -338
t240 -234t348 -84q133 0 244 41t182 105.5t121 147t71.5 161.5t22.5 153l-2 3q-43 -13 -141 -13h-500v78h727v-35q0 -102 -26.5 -202.5t-85 -195t-141.5 -166.5t-205.5 -115.5t-268.5 -43.5q-219 0 -392 93.5t-269.5 262t-96.5 382.5q0 165 56.5 306t156.5 240t242.5 155
t310.5 56z" />
    <glyph glyph-name="gbreve" unicode="&#x11f;" horiz-adv-x="1222" 
d="M864 1434q0 -134 -77 -210.5t-201 -76.5t-201.5 76.5t-77.5 210.5h70q3 -103 58.5 -161.5t150.5 -58.5t150.5 58.5t58.5 161.5h69zM573 977q160 0 274.5 -80t168.5 -229l6 4q-16 85 -16 274h73v-946q0 -215 -127.5 -327.5t-371.5 -112.5q-234 0 -414 108l39 68
q104 -55 193 -79t190 -24q418 0 418 383v56q0 115 22 202l-8 2q-61 -151 -174 -229t-268 -78q-218 0 -352 138.5t-134 365.5q0 226 132.5 365t348.5 139zM584 899q-187 0 -300.5 -117t-113.5 -311q0 -193 112 -308.5t298 -115.5q191 0 312.5 119.5t121.5 306.5
q0 186 -120.5 306t-309.5 120z" />
    <glyph glyph-name="Gdotaccent" unicode="&#x120;" horiz-adv-x="1658" 
d="M905 1747v-225h-90v225h90zM858 1464q144 0 271 -45t262 -143l-54 -74q-125 95 -240 137.5t-243 42.5q-145 0 -270.5 -50.5t-214.5 -139t-140 -214.5t-51 -271q0 -188 86 -338t240 -234t348 -84q133 0 244 41t182 105.5t121 147t71.5 161.5t22.5 153l-2 3
q-43 -13 -141 -13h-500v78h727v-35q0 -102 -26.5 -202.5t-85 -195t-141.5 -166.5t-205.5 -115.5t-268.5 -43.5q-219 0 -392 93.5t-269.5 262t-96.5 382.5q0 165 56.5 306t156.5 240t242.5 155t310.5 56z" />
    <glyph glyph-name="gdotaccent" unicode="&#x121;" horiz-adv-x="1222" 
d="M631 1434v-265h-90v265h90zM573 977q160 0 274.5 -80t168.5 -229l6 4q-16 85 -16 274h73v-946q0 -215 -127.5 -327.5t-371.5 -112.5q-234 0 -414 108l39 68q104 -55 193 -79t190 -24q418 0 418 383v56q0 115 22 202l-8 2q-61 -151 -174 -229t-268 -78q-218 0 -352 138.5
t-134 365.5q0 226 132.5 365t348.5 139zM584 899q-187 0 -300.5 -117t-113.5 -311q0 -193 112 -308.5t298 -115.5q191 0 312.5 119.5t121.5 306.5q0 186 -120.5 306t-309.5 120z" />
    <glyph glyph-name="Gcommaaccent" unicode="&#x122;" horiz-adv-x="1658" 
d="M858 1464q144 0 271 -45t262 -143l-54 -74q-125 95 -240 137.5t-243 42.5q-145 0 -270.5 -50.5t-214.5 -139t-140 -214.5t-51 -271q0 -188 86 -338t240 -234t348 -84q133 0 244 41t182 105.5t121 147t71.5 161.5t22.5 153l-2 3q-43 -13 -141 -13h-500v78h727v-35
q0 -102 -26.5 -202.5t-85 -195t-141.5 -166.5t-205.5 -115.5t-268.5 -43.5q-219 0 -392 93.5t-269.5 262t-96.5 382.5q0 165 56.5 306t156.5 240t242.5 155t310.5 56zM915 -104l-114 -336h-58l74 336h98z" />
    <glyph glyph-name="gcommaaccent" unicode="&#x123;" horiz-adv-x="1222" 
d="M635 1133h-98l135 315h57zM573 977q160 0 274.5 -80t168.5 -229l6 4q-16 85 -16 274h73v-946q0 -215 -127.5 -327.5t-371.5 -112.5q-234 0 -414 108l39 68q104 -55 193 -79t190 -24q418 0 418 383v56q0 115 22 202l-8 2q-61 -151 -174 -229t-268 -78q-218 0 -352 138.5
t-134 365.5q0 226 132.5 365t348.5 139zM584 899q-187 0 -300.5 -117t-113.5 -311q0 -193 112 -308.5t298 -115.5q191 0 312.5 119.5t121.5 306.5q0 186 -120.5 306t-309.5 120z" />
    <glyph glyph-name="Hcircumflex" unicode="&#x124;" horiz-adv-x="1413" 
d="M408 1522v6l243 239h107l243 -239v-6h-94l-110 102q-41 38 -58 58.5t-32 50.5h-5q-15 -30 -32 -50.5t-58 -58.5l-110 -102h-94zM1239 1434v-1434h-82v684q0 31 6 49l-2 2q-12 -4 -53 -4h-803q-41 0 -53 4l-2 -2q6 -18 6 -49v-684h-82v1434h82v-578q0 -31 -6 -49l2 -2
q12 4 53 4h803q41 0 53 -4l2 2q-6 18 -6 49v578h82z" />
    <glyph glyph-name="hcircumflex" unicode="&#x125;" horiz-adv-x="1132" 
d="M-98 1522v6l243 239h107l244 -239v-6h-95l-110 102q-41 38 -58 58.5t-32 50.5h-4q-14 -29 -31.5 -49.5t-59.5 -59.5l-110 -102h-94zM238 1464v-577q0 -173 -17 -260l8 -4q79 354 392 354q180 0 274 -107.5t94 -310.5v-559h-74v559q0 163 -78 253.5t-219 90.5
q-178 0 -279 -130t-101 -359v-414h-74v1464h74z" />
    <glyph glyph-name="Hbar" unicode="&#x126;" horiz-adv-x="1392" 
d="M164 0v1028q0 31 6 49l-2 2q-12 -4 -53 -4h-115v72h115q41 0 53 -4l2 2q-6 18 -6 49v240h82v-240q0 -31 -6 -49l2 -2q12 4 53 4h803q41 0 53 -4l2 2q-6 18 -6 49v240h82v-240q0 -31 -6 -49l2 -2q12 4 53 4h115v-72h-115q-41 0 -53 4l-2 -2q6 -18 6 -49v-1028h-82v684
q0 31 6 49l-2 2q-12 -4 -53 -4h-803q-41 0 -53 4l-2 -2q6 -18 6 -49v-684h-82zM242 805q12 4 53 4h803q41 0 53 -4l2 2q-6 18 -6 49v172q0 31 6 49l-2 2q-12 -4 -53 -4h-803q-41 0 -53 4l-2 -2q6 -18 6 -49v-172q0 -31 -6 -49z" />
    <glyph glyph-name="hbar" unicode="&#x127;" horiz-adv-x="1122" 
d="M610 977q173 0 271 -103t98 -313v-561h-74v541q0 186 -81.5 274t-215.5 88q-170 0 -275.5 -124.5t-105.5 -364.5v-414h-73v1137q0 41 8 57l-2 2q-20 -10 -54 -10h-106v61h106q34 0 54 -10l2 2q-8 16 -8 57v168h73v-168q0 -41 -8 -57l2 -2q20 10 53 10h304v-61h-304
q-33 0 -53 10l-2 -2q8 -16 8 -57v-250q0 -162 -16 -260l8 -4q79 354 391 354z" />
    <glyph glyph-name="Itilde" unicode="&#x128;" horiz-adv-x="430" 
d="M-43 1569l-55 20q12 30 25 53t34 49t51 40t66 14q48 0 112 -31.5t122 -62.5t91 -31q66 0 109 98l55 -20q-12 -30 -25 -53t-34 -49t-51 -40t-66 -14q-38 0 -87 19.5t-87.5 43t-81 43t-69.5 19.5q-66 0 -109 -98zM256 1434v-1434h-82v1434h82z" />
    <glyph glyph-name="itilde" unicode="&#x129;" horiz-adv-x="401" 
d="M92 1411q38 0 75 -19.5t61 -43t53.5 -43t54.5 -19.5q60 0 100 98l56 -20q-12 -33 -22.5 -53.5t-30 -47.5t-48 -41t-65.5 -14q-38 0 -75 19.5t-61 43t-53 43t-53 19.5q-34 0 -57 -25.5t-43 -72.5l-56 20q12 33 22.5 53.5t30 47.5t47.5 41t64 14zM238 946v-946h-74v946h74z
" />
    <glyph glyph-name="Imacron" unicode="&#x12a;" horiz-adv-x="430" 
d="M-63 1665h555v-70h-555v70zM256 1434v-1434h-82v1434h82z" />
    <glyph glyph-name="imacron" unicode="&#x12b;" horiz-adv-x="401" 
d="M395 1350v-70h-389v70h389zM238 946v-946h-74v946h74z" />
    <glyph glyph-name="Ibreve" unicode="&#x12c;" horiz-adv-x="430" 
d="M494 1747q0 -102 -78 -163.5t-201 -61.5t-200.5 61.5t-77.5 163.5h69q3 -70 59 -114t150 -44t150 44t59 114h70zM256 1434v-1434h-82v1434h82z" />
    <glyph glyph-name="ibreve" unicode="&#x12d;" horiz-adv-x="401" 
d="M418 1434q0 -287 -217 -287t-217 287h69q1 -40 3.5 -68.5t11.5 -59t24.5 -49.5t43 -31t65.5 -12t65.5 12.5t42.5 31t24 49.5t11.5 59t3.5 68h70zM238 946v-946h-74v946h74z" />
    <glyph glyph-name="Iogonek" unicode="&#x12e;" horiz-adv-x="430" 
d="M174 1434h82v-1434h-29q-204 -143 -204 -238q0 -75 110 -75q53 0 107 14l4 -66q-63 -18 -119 -18q-74 0 -126 33.5t-52 99.5q0 135 227 289v1395z" />
    <glyph glyph-name="iogonek" unicode="&#x12f;" horiz-adv-x="401" 
d="M156 1434h90v-265h-90v265zM164 45v901h74v-946h-29q-103 -72 -154 -129.5t-51 -108.5q0 -75 111 -75q52 0 106 14l4 -66q-63 -18 -119 -18q-74 0 -126 33.5t-52 99.5q0 138 236 295z" />
    <glyph glyph-name="Idotaccent" unicode="&#x130;" horiz-adv-x="430" 
d="M260 1747v-225h-90v225h90zM256 1434v-1434h-82v1434h82z" />
    <glyph glyph-name="dotlessi" unicode="&#x131;" horiz-adv-x="401" 
d="M238 946v-946h-74v946h74z" />
    <glyph glyph-name="IJ" unicode="&#x132;" horiz-adv-x="972" 
d="M256 1434v-1434h-82v1434h82zM799 1434v-1164q0 -145 -59 -212.5t-185 -67.5q-12 0 -74 4v82q62 -4 68 -4q88 0 128 47.5t40 150.5v1164h82z" />
    <glyph glyph-name="ij" unicode="&#x133;" horiz-adv-x="802" 
d="M246 1434v-265h-90v265h90zM647 1434v-265h-90v265h90zM238 946v-946h-74v946h74zM639 946v-1118q0 -268 -258 -268h-19v75h23q87 0 133.5 44t46.5 149v1118h74z" />
    <glyph glyph-name="Jcircumflex" unicode="&#x134;" horiz-adv-x="542" 
d="M29 1522v6l243 239h107l244 -239v-6h-95l-110 102q-41 38 -58 58.5t-32 50.5h-4q-14 -29 -31.5 -49.5t-59.5 -59.5l-110 -102h-94zM369 1434v-1164q0 -145 -59 -212.5t-185 -67.5q-12 0 -74 4v82q62 -4 68 -4q88 0 128 47.5t40 150.5v1164h82z" />
    <glyph glyph-name="jcircumflex" unicode="&#x135;" horiz-adv-x="401" 
d="M244 1448l180 -309v-6h-80l-98 174q-32 56 -39 81q-2 8 -4 19h-4q-4 -20 -10 -35.5t-10.5 -24.5t-22.5 -40l-99 -174h-80v6l181 309h86zM238 946v-1118q0 -268 -258 -268h-19v75h23q87 0 133.5 44t46.5 149v1118h74z" />
    <glyph glyph-name="Kcommaaccent" unicode="&#x136;" horiz-adv-x="1165" 
d="M1071 1434l-553 -521q-120 -118 -170 -149v-2q20 -11 40 -26.5t34.5 -30t43.5 -44t54 -53.5l635 -608h-127l-780 754l-2 -2q10 -76 10 -244v-508h-82v1434h82v-420q0 -168 -10 -244l2 -2l702 666h121zM653 -104l-114 -336h-58l74 336h98z" />
    <glyph glyph-name="kcommaaccent" unicode="&#x137;" horiz-adv-x="903" 
d="M238 1464v-696q0 -134 -17 -238l4 -4l465 420h123l-401 -348q-83 -73 -109 -84l4 -2q40 -18 117 -90l459 -422h-115l-543 502l-4 -4q17 -104 17 -240v-258h-74v1464h74zM461 -104l-115 -336h-57l73 336h99z" />
    <glyph glyph-name="kgreenlandic" unicode="&#x138;" horiz-adv-x="903" 
d="M164 0v946h74v-178q0 -134 -17 -238l4 -4l465 420h123l-401 -348q-83 -73 -109 -84l4 -2q40 -18 117 -90l459 -422h-115l-543 502l-4 -4q17 -104 17 -240v-258h-74z" />
    <glyph glyph-name="Lacute" unicode="&#x139;" horiz-adv-x="1009" 
d="M479 1747l2 -6l-233 -219h-66l-2 6l189 219h110zM256 1434v-1309q0 -31 -6 -49l2 -2q12 4 53 4h674v-78h-805v1434h82z" />
    <glyph glyph-name="lacute" unicode="&#x13a;" horiz-adv-x="401" 
d="M465 1747l2 -6l-234 -219h-65l-2 6l188 219h111zM238 1464v-1464h-74v1464h74z" />
    <glyph glyph-name="Lcommaaccent" unicode="&#x13b;" horiz-adv-x="1009" 
d="M256 1434v-1309q0 -31 -6 -49l2 -2q12 4 53 4h674v-78h-805v1434h82zM602 -104l-115 -336h-57l74 336h98z" />
    <glyph glyph-name="lcommaaccent" unicode="&#x13c;" horiz-adv-x="401" 
d="M238 1464v-1464h-74v1464h74zM250 -104l-115 -336h-57l74 336h98z" />
    <glyph glyph-name="Lcaron" unicode="&#x13d;" horiz-adv-x="1009" 
d="M715 1495h96l-111 -453h-53zM256 1434v-1309q0 -31 -6 -49l2 -2q12 4 53 4h674v-78h-805v1434h82z" />
    <glyph glyph-name="lcaron" unicode="&#x13e;" horiz-adv-x="536" 
d="M430 1495h96l-110 -371h-54zM238 1464v-1464h-74v1464h74z" />
    <glyph glyph-name="Ldot" unicode="&#x13f;" horiz-adv-x="1009" 
d="M256 1434v-1309q0 -31 -6 -49l2 -2q12 4 53 4h674v-78h-805v1434h82zM702 782v164h164v-164h-164z" />
    <glyph glyph-name="ldot" unicode="&#x140;" horiz-adv-x="516" 
d="M238 1464v-1464h-74v1464h74zM332 782v164h164v-164h-164z" />
    <glyph glyph-name="Lslash" unicode="&#x141;" horiz-adv-x="1003" 
d="M168 0v565q0 45 10 70l-4 2q-23 -30 -57 -45l-117 -60v62l168 86v754h82v-650q0 -53 -14 -82l2 -2q28 33 73 52l357 180v-62l-418 -211v-534q0 -31 -6 -49l2 -2q8 4 53 4h674v-78h-805z" />
    <glyph glyph-name="lslash" unicode="&#x142;" horiz-adv-x="442" 
d="M184 0v707q0 44 15 73l-4 2q-15 -18 -58 -41l-127 -65v61l174 90v637h74v-546q0 -38 -14 -70l2 -2q23 26 55 41l131 67v-61l-174 -90v-803h-74z" />
    <glyph glyph-name="Nacute" unicode="&#x143;" horiz-adv-x="1423" 
d="M1012 1747l2 -6l-234 -219h-65l-2 6l188 219h111zM188 1454l877 -1122q93 -119 113 -164l4 2q-15 110 -15 258v1006h82v-1454h-14l-877 1122q-91 116 -112 164l-4 -2q14 -103 14 -258v-1006h-82v1454h14z" />
    <glyph glyph-name="nacute" unicode="&#x144;" horiz-adv-x="1122" 
d="M854 1448v-10l-231 -305h-66v12l186 303h111zM610 977q180 0 274.5 -107.5t94.5 -310.5v-559h-74v559q0 163 -78 253.5t-219 90.5q-178 0 -279.5 -130t-101.5 -359v-414h-73v946h73q0 -237 -18 -328l8 -4q82 363 393 363z" />
    <glyph glyph-name="Ncommaaccent" unicode="&#x145;" horiz-adv-x="1423" 
d="M188 1454l877 -1122q93 -119 113 -164l4 2q-15 110 -15 258v1006h82v-1454h-14l-877 1122q-91 116 -112 164l-4 -2q14 -103 14 -258v-1006h-82v1454h14zM762 -104l-115 -336h-57l74 336h98z" />
    <glyph glyph-name="ncommaaccent" unicode="&#x146;" horiz-adv-x="1122" 
d="M610 977q180 0 274.5 -107.5t94.5 -310.5v-559h-74v559q0 163 -78 253.5t-219 90.5q-178 0 -279.5 -130t-101.5 -359v-414h-73v946h73q0 -237 -18 -328l8 -4q82 363 393 363zM643 -104l-115 -336h-57l74 336h98z" />
    <glyph glyph-name="Ncaron" unicode="&#x147;" horiz-adv-x="1423" 
d="M1042 1767v-6l-243 -239h-107l-243 239v6h94l110 -102q41 -38 58 -58.5t32 -50.5h5q15 30 32 50.5t58 58.5l110 102h94zM188 1454l877 -1122q93 -119 113 -164l4 2q-15 110 -15 258v1006h82v-1454h-14l-877 1122q-91 116 -112 164l-4 -2q14 -103 14 -258v-1006h-82v1454
h14z" />
    <glyph glyph-name="ncaron" unicode="&#x148;" horiz-adv-x="1122" 
d="M530 1133l-243 309v6h90l139 -174q29 -36 41 -53.5t23 -46.5h4q11 29 23 47t40 53l139 174h91v-6l-244 -309h-103zM610 977q180 0 274.5 -107.5t94.5 -310.5v-559h-74v559q0 163 -78 253.5t-219 90.5q-178 0 -279.5 -130t-101.5 -359v-414h-73v946h73q0 -237 -18 -328
l8 -4q82 363 393 363z" />
    <glyph glyph-name="napostrophe" unicode="&#x149;" horiz-adv-x="1122" 
d="M121 1495h96l-111 -453h-53zM610 977q180 0 274.5 -107.5t94.5 -310.5v-559h-74v559q0 163 -78 253.5t-219 90.5q-178 0 -279.5 -130t-101.5 -359v-414h-73v946h73q0 -237 -18 -328l8 -4q82 363 393 363z" />
    <glyph glyph-name="Eng" unicode="&#x14a;" horiz-adv-x="1423" 
d="M1167 1434h82v-1454v-127q0 -133 -74.5 -198t-203.5 -65h-111v78h115q192 0 192 185v213l-809 1036q-91 116 -112 164l-4 -2q14 -103 14 -258v-1006h-82v1454h14l877 -1122q93 -119 113 -164l4 2q-15 110 -15 258v1006z" />
    <glyph glyph-name="eng" unicode="&#x14b;" horiz-adv-x="1122" 
d="M610 977q180 0 274.5 -107.5t94.5 -310.5v-700q0 -129 -62 -199t-176 -70h-106v72h110q75 0 117.5 49.5t42.5 147.5v700q0 163 -78 253.5t-219 90.5q-178 0 -279.5 -130t-101.5 -359v-414h-73v946h73q0 -237 -18 -328l8 -4q82 363 393 363z" />
    <glyph glyph-name="Omacron" unicode="&#x14c;" horiz-adv-x="1679" 
d="M561 1665h555v-70h-555v70zM840 1464q160 0 299 -56t237.5 -154.5t154.5 -237.5t56 -299q0 -214 -95.5 -385t-266.5 -267t-385 -96t-385 96t-267 267t-96 385t96 385t267 266.5t385 95.5zM840 1382q-289 0 -475.5 -187t-186.5 -478q0 -192 84.5 -344t236 -237t341.5 -85
t341 85t235.5 237t84.5 344q0 291 -186 478t-475 187z" />
    <glyph glyph-name="omacron" unicode="&#x14d;" horiz-adv-x="1191" 
d="M872 1350v-70h-553v70h553zM596 977q223 0 363.5 -140.5t140.5 -363.5q0 -222 -141 -363t-363 -141q-221 0 -362.5 141.5t-141.5 362.5q0 222 141 363t363 141zM596 903q-185 0 -305.5 -121.5t-120.5 -308.5t120.5 -308.5t305.5 -121.5t305.5 121.5t120.5 308.5
t-120.5 308.5t-305.5 121.5z" />
    <glyph glyph-name="Obreve" unicode="&#x14e;" horiz-adv-x="1679" 
d="M1118 1747q0 -102 -77.5 -163.5t-200.5 -61.5t-201 61.5t-78 163.5h70q3 -70 59 -114t150 -44t150 44t59 114h69zM840 1464q160 0 299 -56t237.5 -154.5t154.5 -237.5t56 -299q0 -214 -95.5 -385t-266.5 -267t-385 -96t-385 96t-267 267t-96 385t96 385t267 266.5
t385 95.5zM840 1382q-289 0 -475.5 -187t-186.5 -478q0 -192 84.5 -344t236 -237t341.5 -85t341 85t235.5 237t84.5 344q0 291 -186 478t-475 187z" />
    <glyph glyph-name="obreve" unicode="&#x14f;" horiz-adv-x="1191" 
d="M874 1434q0 -134 -77 -210.5t-201 -76.5t-201.5 76.5t-77.5 210.5h70q3 -103 58.5 -161.5t150.5 -58.5t150.5 58.5t58.5 161.5h69zM596 977q223 0 363.5 -140.5t140.5 -363.5q0 -222 -141 -363t-363 -141q-221 0 -362.5 141.5t-141.5 362.5q0 222 141 363t363 141z
M596 903q-185 0 -305.5 -121.5t-120.5 -308.5t120.5 -308.5t305.5 -121.5t305.5 121.5t120.5 308.5t-120.5 308.5t-305.5 121.5z" />
    <glyph glyph-name="Ohungarumlaut" unicode="&#x150;" horiz-adv-x="1679" 
d="M1012 1747l2 -6l-197 -219h-65l-2 6l188 219h74zM909 1528l189 219h73l3 -6l-197 -219h-66zM840 1464q160 0 299 -56t237.5 -154.5t154.5 -237.5t56 -299q0 -214 -95.5 -385t-266.5 -267t-385 -96t-385 96t-267 267t-96 385t96 385t267 266.5t385 95.5zM840 1382
q-289 0 -475.5 -187t-186.5 -478q0 -192 84.5 -344t236 -237t341.5 -85t341 85t235.5 237t84.5 344q0 291 -186 478t-475 187z" />
    <glyph glyph-name="ohungarumlaut" unicode="&#x151;" horiz-adv-x="1191" 
d="M449 1133l-3 6l216 309h71l2 -6l-223 -309h-63zM649 1133l-2 6l215 309h72l2 -6l-223 -309h-64zM596 977q223 0 363.5 -140.5t140.5 -363.5q0 -222 -141 -363t-363 -141q-221 0 -362.5 141.5t-141.5 362.5q0 222 141 363t363 141zM596 903q-185 0 -305.5 -121.5
t-120.5 -308.5t120.5 -308.5t305.5 -121.5t305.5 121.5t120.5 308.5t-120.5 308.5t-305.5 121.5z" />
    <glyph glyph-name="OE" unicode="&#x152;" horiz-adv-x="2392" 
d="M840 -31q-211 0 -381.5 94.5t-268.5 266t-98 387.5t98 387.5t268.5 265.5t381.5 94q235 0 401 -106t260 -305l4 2q-4 29 -4 100v279h778v-78h-647q-41 0 -53 4l-2 -2q6 -18 6 -49v-430q0 -32 -6 -50l2 -2q12 4 53 4h584v-77h-584q-41 0 -53 4l-2 -2q6 -18 6 -49v-582
q0 -31 -6 -49l2 -2q12 4 53 4h658v-78h-789v250q0 84 4 133l-4 2q-94 -202 -260 -309t-401 -107zM840 55q188 0 340 87.5t236.5 238.5t84.5 336q0 191 -85 342t-236 235t-340 84t-340.5 -84t-236.5 -235t-85 -342q0 -143 50 -266.5t137 -210t210 -136t265 -49.5z" />
    <glyph glyph-name="oe" unicode="&#x153;" horiz-adv-x="2050" 
d="M596 -31q-222 0 -363 141t-141 363t141 363t363 141q165 0 285.5 -82t173.5 -242h8q42 163 158 243.5t276 80.5q97 0 176 -27.5t131 -73.5t87.5 -109t51 -132.5t15.5 -145.5v-20h-784q-45 0 -72 6l-2 -2l2 -14q0 -191 111.5 -303.5t297.5 -112.5q74 0 133.5 17t104.5 51
t72 62t61 73l57 -47q-23 -33 -45.5 -60t-61.5 -60.5t-82.5 -56t-106.5 -38t-134 -15.5q-168 0 -285 80t-159 240h-8q-48 -157 -171 -238.5t-290 -81.5zM596 43q182 0 304 120t122 310t-122 310t-304 120t-304 -120t-122 -310t122 -310t304 -120zM1104 528q33 11 72 11h626
q37 0 74 -13l2 2q-14 176 -110 275.5t-269 99.5q-162 0 -272 -98.5t-125 -274.5z" />
    <glyph glyph-name="Racute" unicode="&#x154;" horiz-adv-x="1167" 
d="M803 1747l2 -6l-234 -219h-65l-2 6l188 219h111zM629 1434q181 0 286 -97.5t105 -263.5t-106 -263t-287 -97q-38 0 -68 10v-8q36 -25 70 -68l497 -647h-108l-547 713h-166q-43 0 -53 4l-2 -2q6 -18 6 -49v-666h-82v1434h455zM252 1360l-2 -2q6 -18 6 -49v-471
q0 -32 -6 -50l2 -2q12 5 53 5h324q145 0 225 74t80 208t-80 208.5t-225 74.5h-324q-45 0 -53 4z" />
    <glyph glyph-name="racute" unicode="&#x155;" horiz-adv-x="649" 
d="M635 1448v-10l-232 -305h-65v12l186 303h111zM537 977q31 0 81 -6v-84q-54 8 -83 8q-146 0 -227 -141t-81 -396v-358h-73v946h73q0 -242 -18 -348l10 -4q29 195 107.5 289t210.5 94z" />
    <glyph glyph-name="Rcommaaccent" unicode="&#x156;" horiz-adv-x="1167" 
d="M629 1434q181 0 286 -97.5t105 -263.5t-106 -263t-287 -97q-38 0 -68 10v-8q36 -25 70 -68l497 -647h-108l-547 713h-166q-43 0 -53 4l-2 -2q6 -18 6 -49v-666h-82v1434h455zM252 1360l-2 -2q6 -18 6 -49v-471q0 -32 -6 -50l2 -2q12 5 53 5h324q145 0 225 74t80 208
t-80 208.5t-225 74.5h-324q-45 0 -53 4zM684 -104l-115 -336h-57l74 336h98z" />
    <glyph glyph-name="rcommaaccent" unicode="&#x157;" horiz-adv-x="649" 
d="M537 977q31 0 81 -6v-84q-54 8 -83 8q-146 0 -227 -141t-81 -396v-358h-73v946h73q0 -242 -18 -348l10 -4q29 195 107.5 289t210.5 94zM240 -104l-115 -336h-57l73 336h99z" />
    <glyph glyph-name="Rcaron" unicode="&#x158;" horiz-adv-x="1167" 
d="M834 1767v-6l-244 -239h-107l-243 239v6h94l110 -102q42 -39 59.5 -59.5t31.5 -49.5h4q15 30 32 50.5t58 58.5l110 102h95zM629 1434q181 0 286 -97.5t105 -263.5t-106 -263t-287 -97q-38 0 -68 10v-8q36 -25 70 -68l497 -647h-108l-547 713h-166q-43 0 -53 4l-2 -2
q6 -18 6 -49v-666h-82v1434h455zM252 1360l-2 -2q6 -18 6 -49v-471q0 -32 -6 -50l2 -2q12 5 53 5h324q145 0 225 74t80 208t-80 208.5t-225 74.5h-324q-45 0 -53 4z" />
    <glyph glyph-name="rcaron" unicode="&#x159;" horiz-adv-x="649" 
d="M311 1133l-243 309v6h90l139 -174q28 -35 40 -53t23 -47h5q11 29 23 47t40 53l139 174h90v-6l-243 -309h-103zM537 977q31 0 81 -6v-84q-54 8 -83 8q-146 0 -227 -141t-81 -396v-358h-73v946h73q0 -242 -18 -348l10 -4q29 195 107.5 289t210.5 94z" />
    <glyph glyph-name="Sacute" unicode="&#x15a;" horiz-adv-x="997" 
d="M780 1747l2 -6l-233 -219h-66l-2 6l189 219h110zM514 1464q158 0 342 -84l-41 -80q-168 82 -297 82q-135 0 -212 -59.5t-77 -163.5q0 -78 46.5 -142t164.5 -145l207 -143q146 -101 207 -191.5t61 -207.5q0 -167 -114.5 -264t-313.5 -97q-239 0 -436 129l45 74
q190 -121 391 -121q158 0 250 74t92 201q0 89 -52.5 163.5t-178.5 163.5l-221 156q-129 91 -181.5 169t-52.5 179q0 146 98 226.5t273 80.5z" />
    <glyph glyph-name="sacute" unicode="&#x15b;" horiz-adv-x="851" 
d="M702 1448v-10l-231 -305h-65v12l186 303h110zM451 -31q-107 0 -211.5 33.5t-188.5 93.5l43 64q157 -117 361 -117q116 0 181.5 46t65.5 128q0 115 -170 189l-180 81q-111 51 -162 112t-51 144q0 109 82 171.5t228 62.5q164 0 307 -76l-37 -70q-138 72 -270 72
q-109 0 -170.5 -42t-61.5 -116q0 -59 40.5 -103t133.5 -85l168 -76q119 -54 170 -115t51 -149q0 -117 -86.5 -182.5t-242.5 -65.5z" />
    <glyph glyph-name="Scircumflex" unicode="&#x15c;" horiz-adv-x="997" 
d="M217 1522v6l244 239h106l244 -239v-6h-94l-111 102q-41 38 -58 58.5t-32 50.5h-4q-15 -30 -32 -50.5t-58 -58.5l-111 -102h-94zM514 1464q158 0 342 -84l-41 -80q-168 82 -297 82q-135 0 -212 -59.5t-77 -163.5q0 -78 46.5 -142t164.5 -145l207 -143q146 -101 207 -191.5
t61 -207.5q0 -167 -114.5 -264t-313.5 -97q-239 0 -436 129l45 74q190 -121 391 -121q158 0 250 74t92 201q0 89 -52.5 163.5t-178.5 163.5l-221 156q-129 91 -181.5 169t-52.5 179q0 146 98 226.5t273 80.5z" />
    <glyph glyph-name="scircumflex" unicode="&#x15d;" horiz-adv-x="851" 
d="M481 1448l224 -309v-6h-91l-122 174q-47 66 -60 108h-4q-14 -45 -59 -108l-123 -174h-90v6l223 309h102zM451 -31q-107 0 -211.5 33.5t-188.5 93.5l43 64q157 -117 361 -117q116 0 181.5 46t65.5 128q0 115 -170 189l-180 81q-111 51 -162 112t-51 144q0 109 82 171.5
t228 62.5q164 0 307 -76l-37 -70q-138 72 -270 72q-109 0 -170.5 -42t-61.5 -116q0 -59 40.5 -103t133.5 -85l168 -76q119 -54 170 -115t51 -149q0 -117 -86.5 -182.5t-242.5 -65.5z" />
    <glyph glyph-name="Scedilla" unicode="&#x15e;" horiz-adv-x="997" 
d="M915 330q0 -163 -108.5 -260t-298.5 -101l-25 -61q164 -35 164 -144q0 -35 -16.5 -64t-51.5 -54t-67 -42.5t-85 -43.5q-4 -2 -6.5 -3t-6 -3t-6.5 -3l-21 41q98 53 140 87.5t42 74.5q0 37 -35.5 58t-119.5 36l43 121q-222 9 -406 129l45 74q190 -121 391 -121
q158 0 250 74t92 201q0 89 -52.5 163.5t-178.5 163.5l-221 156q-129 91 -181.5 169t-52.5 179q0 146 98 226.5t273 80.5q158 0 342 -84l-41 -80q-168 82 -297 82q-135 0 -212 -59.5t-77 -163.5q0 -78 46.5 -142t164.5 -145l207 -143q146 -101 207 -191.5t61 -207.5z" />
    <glyph glyph-name="scedilla" unicode="&#x15f;" horiz-adv-x="851" 
d="M451 -31h-5l-24 -61q164 -35 164 -144q0 -35 -15 -63t-54.5 -55.5t-64 -41t-86.5 -43.5q-13 -7 -20 -10l-20 41q98 53 140 87.5t42 74.5q0 37 -36 58t-120 36l45 123q-196 15 -346 125l43 64q157 -117 361 -117q116 0 181.5 46t65.5 128q0 115 -170 189l-180 81
q-111 51 -162 112t-51 144q0 109 82 171.5t228 62.5q164 0 307 -76l-37 -70q-138 72 -270 72q-109 0 -170.5 -42t-61.5 -116q0 -59 40.5 -103t133.5 -85l168 -76q119 -54 170 -115t51 -149q0 -117 -86.5 -182.5t-242.5 -65.5z" />
    <glyph glyph-name="Scaron" unicode="&#x160;" horiz-adv-x="997" 
d="M811 1767v-6l-244 -239h-106l-244 239v6h94l111 -102q41 -38 58 -58.5t32 -50.5h4q15 30 32 50.5t58 58.5l111 102h94zM514 1464q158 0 342 -84l-41 -80q-168 82 -297 82q-135 0 -212 -59.5t-77 -163.5q0 -78 46.5 -142t164.5 -145l207 -143q146 -101 207 -191.5
t61 -207.5q0 -167 -114.5 -264t-313.5 -97q-239 0 -436 129l45 74q190 -121 391 -121q158 0 250 74t92 201q0 89 -52.5 163.5t-178.5 163.5l-221 156q-129 91 -181.5 169t-52.5 179q0 146 98 226.5t273 80.5z" />
    <glyph glyph-name="scaron" unicode="&#x161;" horiz-adv-x="851" 
d="M379 1133l-244 309v6h90l140 -174q28 -35 40 -53t23 -47h4q11 29 23 46.5t41 53.5l139 174h90v-6l-244 -309h-102zM451 -31q-107 0 -211.5 33.5t-188.5 93.5l43 64q157 -117 361 -117q116 0 181.5 46t65.5 128q0 115 -170 189l-180 81q-111 51 -162 112t-51 144
q0 109 82 171.5t228 62.5q164 0 307 -76l-37 -70q-138 72 -270 72q-109 0 -170.5 -42t-61.5 -116q0 -59 40.5 -103t133.5 -85l168 -76q119 -54 170 -115t51 -149q0 -117 -86.5 -182.5t-242.5 -65.5z" />
    <glyph glyph-name="uni0162" unicode="&#x162;" horiz-adv-x="1040" 
d="M610 1356q-41 0 -53 4l-2 -2q6 -18 6 -49v-1309h-14l-35 -92q164 -35 164 -144q0 -35 -15 -63t-54.5 -55.5t-64 -41t-86.5 -43.5q-13 -7 -20 -10l-20 41q98 53 140 87.5t42 74.5q0 37 -36 58t-120 36l54 152h-17v1309q0 31 6 49l-2 2q-12 -4 -53 -4h-410v78h1000v-78
h-410z" />
    <glyph glyph-name="uni0163" unicode="&#x163;" horiz-adv-x="612" 
d="M393 881q-41 0 -57 8l-2 -2q10 -20 10 -53v-834h-10l-35 -92q164 -35 164 -144q0 -35 -15 -63t-54.5 -55.5t-64 -41t-86.5 -43.5q-4 -2 -6.5 -3.5t-6.5 -3t-7 -3.5l-20 41q98 53 140 87.5t42 74.5q0 37 -36 58t-120 36l54 152h-13v834q0 31 11 53l-2 2q-16 -8 -58 -8
h-160v65h160q42 0 58 -8l2 2q-11 22 -11 53v391l68 68h6v-459q0 -33 -10 -53l2 -2q16 8 57 8h158v-65h-158z" />
    <glyph glyph-name="Tcaron" unicode="&#x164;" horiz-adv-x="1040" 
d="M815 1767v-6l-244 -239h-106l-244 239v6h94l111 -102q41 -38 58 -58.5t32 -50.5h4q15 30 32 50.5t58 58.5l111 102h94zM1020 1434v-78h-410q-41 0 -53 4l-2 -2q6 -18 6 -49v-1309h-82v1309q0 31 6 49l-2 2q-12 -4 -53 -4h-410v78h1000z" />
    <glyph glyph-name="tcaron" unicode="&#x165;" horiz-adv-x="708" 
d="M582 1495h96l-111 -371h-53zM344 1452v-459q0 -33 -10 -53l2 -2q16 8 57 8h158v-65h-158q-41 0 -57 8l-2 -2q10 -20 10 -53v-834h-74v834q0 31 11 53l-2 2q-16 -8 -58 -8h-160v65h160q42 0 58 -8l2 2q-11 22 -11 53v391l68 68h6z" />
    <glyph glyph-name="Tbar" unicode="&#x166;" horiz-adv-x="1040" 
d="M610 1356q-41 0 -53 4l-2 -2q6 -18 6 -49v-316q0 -31 -6 -49l2 -2q12 4 53 4h252v-78h-252q-41 0 -53 4l-2 -2q6 -18 6 -49v-821h-82v821q0 31 6 49l-2 2q-12 -4 -53 -4h-252v78h252q41 0 53 -4l2 2q-6 18 -6 49v316q0 31 6 49l-2 2q-12 -4 -53 -4h-410v78h1000v-78h-410
z" />
    <glyph glyph-name="tbar" unicode="&#x167;" horiz-adv-x="612" 
d="M270 0v557q0 31 6 49l-2 2q-12 -4 -53 -4h-139v62h139q41 0 53 -4l2 2q-6 18 -6 49v121q0 31 11 53l-2 2q-16 -8 -58 -8h-160v65h160q42 0 58 -8l2 2q-11 22 -11 53v391l68 68h6v-459q0 -33 -10 -53l2 -2q16 8 57 8h158v-65h-158q-41 0 -57 8l-2 -2q10 -20 10 -53v-121
q0 -31 -6 -49l2 -2q12 4 53 4h154v-62h-154q-41 0 -53 4l-2 -2q6 -18 6 -49v-557h-74z" />
    <glyph glyph-name="Utilde" unicode="&#x168;" horiz-adv-x="1388" 
d="M436 1569l-55 20q12 30 25 53t34 49t51 40t66 14q48 0 112 -31.5t122.5 -62.5t91.5 -31q65 0 108 98l56 -20q-64 -156 -177 -156q-38 0 -87 19.5t-87.5 43t-81 43t-69.5 19.5q-66 0 -109 -98zM1225 1434v-916q0 -255 -142 -402t-389 -147t-388.5 147t-141.5 402v916h86
v-895q0 -228 117.5 -357t326.5 -129t327 129t118 357v895h86z" />
    <glyph glyph-name="utilde" unicode="&#x169;" horiz-adv-x="1077" 
d="M389 1411q48 0 112 -31.5t122.5 -62.5t91.5 -31q65 0 108 98l56 -20q-64 -156 -177 -156q-38 0 -87 19.5t-87.5 43t-81 43t-69.5 19.5q-66 0 -109 -98l-55 20q12 30 25 53t34 49t51 40t66 14zM934 946v-946h-74q0 226 19 319l-9 5q-73 -355 -381 -355q-173 0 -264.5 108
t-91.5 312v557h80v-557q0 -164 75 -255t210 -91q167 0 264.5 131.5t97.5 357.5v414h74z" />
    <glyph glyph-name="Umacron" unicode="&#x16a;" horiz-adv-x="1388" 
d="M416 1665h555v-70h-555v70zM1225 1434v-916q0 -255 -142 -402t-389 -147t-388.5 147t-141.5 402v916h86v-895q0 -228 117.5 -357t326.5 -129t327 129t118 357v895h86z" />
    <glyph glyph-name="umacron" unicode="&#x16b;" horiz-adv-x="1077" 
d="M813 1350v-70h-553v70h553zM934 946v-946h-74q0 226 19 319l-9 5q-73 -355 -381 -355q-173 0 -264.5 108t-91.5 312v557h80v-557q0 -164 75 -255t210 -91q167 0 264.5 131.5t97.5 357.5v414h74z" />
    <glyph glyph-name="Ubreve" unicode="&#x16c;" horiz-adv-x="1388" 
d="M973 1747q0 -102 -78 -163.5t-201 -61.5t-200.5 61.5t-77.5 163.5h69q3 -70 59 -114t150 -44t150 44t59 114h70zM1225 1434v-916q0 -255 -142 -402t-389 -147t-388.5 147t-141.5 402v916h86v-895q0 -228 117.5 -357t326.5 -129t327 129t118 357v895h86z" />
    <glyph glyph-name="ubreve" unicode="&#x16d;" horiz-adv-x="1077" 
d="M815 1434q0 -134 -77 -210.5t-201 -76.5t-201.5 76.5t-77.5 210.5h70q3 -103 58.5 -161.5t150.5 -58.5t150 58.5t58 161.5h70zM934 946v-946h-74q0 226 19 319l-9 5q-73 -355 -381 -355q-173 0 -264.5 108t-91.5 312v557h80v-557q0 -164 75 -255t210 -91
q167 0 264.5 131.5t97.5 357.5v414h74z" />
    <glyph glyph-name="Uring" unicode="&#x16e;" horiz-adv-x="1388" 
d="M694 1434q-91 0 -150 58t-59 146t59.5 146.5t149.5 58.5t149.5 -58.5t59.5 -146.5t-59 -146t-150 -58zM694 1491q65 0 106.5 41.5t41.5 105.5t-42 106t-106 42t-105.5 -41.5t-41.5 -106.5q0 -64 41.5 -105.5t105.5 -41.5zM1225 1434v-916q0 -255 -142 -402t-389 -147
t-388.5 147t-141.5 402v916h86v-895q0 -228 117.5 -357t326.5 -129t327 129t118 357v895h86z" />
    <glyph glyph-name="uring" unicode="&#x16f;" horiz-adv-x="1077" 
d="M537 1530q106 0 174.5 -68t68.5 -172t-68.5 -171.5t-174.5 -67.5t-175 67.5t-69 171.5t69 172t175 68zM537 1473q-84 0 -133.5 -49.5t-49.5 -133.5t49 -133t134 -49q84 0 133 49t49 133t-49 133.5t-133 49.5zM934 946v-946h-74q0 226 19 319l-9 5q-73 -355 -381 -355
q-173 0 -264.5 108t-91.5 312v557h80v-557q0 -164 75 -255t210 -91q167 0 264.5 131.5t97.5 357.5v414h74z" />
    <glyph glyph-name="Uhungarumlaut" unicode="&#x170;" horiz-adv-x="1388" 
d="M866 1747l2 -6l-196 -219h-66l-2 6l189 219h73zM764 1528l188 219h74l2 -6l-197 -219h-65zM1225 1434v-916q0 -255 -142 -402t-389 -147t-388.5 147t-141.5 402v916h86v-895q0 -228 117.5 -357t326.5 -129t327 129t118 357v895h86z" />
    <glyph glyph-name="uhungarumlaut" unicode="&#x171;" horiz-adv-x="1077" 
d="M389 1133l-2 6l215 309h72l2 -6l-223 -309h-64zM590 1133l-2 6l215 309h71l3 -6l-224 -309h-63zM934 946v-946h-74q0 226 19 319l-9 5q-73 -355 -381 -355q-173 0 -264.5 108t-91.5 312v557h80v-557q0 -164 75 -255t210 -91q167 0 264.5 131.5t97.5 357.5v414h74z" />
    <glyph glyph-name="Uogonek" unicode="&#x172;" horiz-adv-x="1388" 
d="M1139 1434h86v-916q0 -185 -76.5 -315t-216.5 -189q-112 -78 -167.5 -139t-55.5 -113q0 -75 110 -75q53 0 107 14l4 -66q-63 -18 -119 -18q-74 0 -126 33.5t-52 99.5q0 108 139 223q-50 -4 -78 -4q-247 0 -388.5 147t-141.5 402v916h86v-895q0 -228 117.5 -357
t326.5 -129t327 129t118 357v895z" />
    <glyph glyph-name="uogonek" unicode="&#x173;" horiz-adv-x="1077" 
d="M860 946h74v-946h-29q-103 -72 -154 -129.5t-51 -108.5q0 -75 111 -75q53 0 107 14l4 -66q-63 -18 -119 -18q-74 0 -126 33.5t-52 99.5q0 138 235 295q3 190 19 274l-9 5q-73 -355 -381 -355q-173 0 -264.5 108t-91.5 312v557h80v-557q0 -164 75 -255t210 -91
q167 0 264.5 131.5t97.5 357.5v414z" />
    <glyph glyph-name="Wcircumflex" unicode="&#x174;" horiz-adv-x="1925" 
d="M664 1522v6l243 239h107l243 -239v-6h-94l-110 102q-41 38 -58 58.5t-32 50.5h-5q-15 -30 -32 -50.5t-58 -58.5l-110 -102h-94zM969 1464l336 -1020q49 -146 73 -270h8q26 131 72 266l328 994h98l-498 -1465h-8l-364 1088q-39 119 -47 190h-9q-8 -71 -47 -190l-364 -1088
h-8l-498 1465h98l328 -994q46 -135 72 -266h8q23 117 74 270l335 1020h13z" />
    <glyph glyph-name="wcircumflex" unicode="&#x175;" horiz-adv-x="1449" 
d="M776 1448l223 -309v-6h-90l-123 174q-45 63 -59 108h-4q-14 -45 -59 -108l-123 -174h-90v6l223 309h102zM399 -20l-379 966h91l237 -635q42 -111 49 -188h9q10 75 55 188l260 656h8l260 -656q45 -113 55 -188h9q7 77 49 188l237 635h91l-379 -966h-9l-268 667
q-24 60 -32 92.5t-13 83.5h-8q-5 -51 -13 -83.5t-32 -92.5l-268 -667h-9z" />
    <glyph glyph-name="Ycircumflex" unicode="&#x176;" horiz-adv-x="1097" 
d="M250 1522v6l244 239h106l244 -239v-6h-94l-111 102q-41 38 -58 58.5t-32 50.5h-4q-15 -30 -32 -50.5t-58 -58.5l-111 -102h-94zM1067 1434l-477 -891v-543h-82v543l-477 891h106l342 -660q33 -63 45 -94.5t23 -79.5h4q11 50 23 81t44 93l343 660h106z" />
    <glyph glyph-name="ycircumflex" unicode="&#x177;" horiz-adv-x="929" 
d="M520 1448l223 -309v-6h-90l-123 174q-45 63 -59 108h-4q-14 -45 -59 -108l-123 -174h-90v6l223 309h102zM909 946l-604 -1356h-78l213 482l-420 874h89l292 -627q41 -88 54.5 -124.5t19.5 -81.5h8q6 47 20 86.5t52 126.5l274 620h80z" />
    <glyph glyph-name="Ydieresis" unicode="&#x178;" horiz-adv-x="1097" 
d="M338 1747h102v-225h-102v225zM657 1747h103v-225h-103v225zM1067 1434l-477 -891v-543h-82v543l-477 891h106l342 -660q33 -63 45 -94.5t23 -79.5h4q11 50 23 81t44 93l343 660h106z" />
    <glyph glyph-name="Zacute" unicode="&#x179;" horiz-adv-x="1183" 
d="M883 1747l2 -6l-234 -219h-65l-2 6l188 219h111zM1122 1434v-2l-932 -1360l3 -4q39 14 196 14h754l-43 -82h-1059v4l938 1364l-2 4q-62 -20 -201 -20h-655l43 82h958z" />
    <glyph glyph-name="zacute" unicode="&#x17a;" horiz-adv-x="919" 
d="M766 1448v-10l-231 -305h-66v12l186 303h111zM35 0l-4 10l710 875l-2 4q-36 -13 -76 -17t-135 -4h-448l47 78h747l5 -8l-707 -875l2 -4q36 12 65 15.5t101 3.5h539l-56 -78h-788z" />
    <glyph glyph-name="Zdotaccent" unicode="&#x17b;" horiz-adv-x="1183" 
d="M664 1747v-225h-91v225h91zM1122 1434v-2l-932 -1360l3 -4q39 14 196 14h754l-43 -82h-1059v4l938 1364l-2 4q-62 -20 -201 -20h-655l43 82h958z" />
    <glyph glyph-name="zdotaccent" unicode="&#x17c;" horiz-adv-x="919" 
d="M539 1434v-265h-90v265h90zM35 0l-4 10l710 875l-2 4q-36 -13 -76 -17t-135 -4h-448l47 78h747l5 -8l-707 -875l2 -4q36 12 65 15.5t101 3.5h539l-56 -78h-788z" />
    <glyph glyph-name="Zcaron" unicode="&#x17d;" horiz-adv-x="1183" 
d="M913 1767v-6l-243 -239h-107l-244 239v6h95l110 -102q41 -38 58 -58.5t32 -50.5h4q14 29 31.5 49.5t59.5 59.5l110 102h94zM1122 1434v-2l-932 -1360l3 -4q39 14 196 14h754l-43 -82h-1059v4l938 1364l-2 4q-62 -20 -201 -20h-655l43 82h958z" />
    <glyph glyph-name="zcaron" unicode="&#x17e;" horiz-adv-x="919" 
d="M442 1133l-243 309v6h90l139 -174q29 -36 41 -53.5t23 -46.5h4q11 29 23 47t40 53l139 174h90v-6l-243 -309h-103zM35 0l-4 10l710 875l-2 4q-36 -13 -76 -17t-135 -4h-448l47 78h747l5 -8l-707 -875l2 -4q36 12 65 15.5t101 3.5h539l-56 -78h-788z" />
    <glyph glyph-name="florin" unicode="&#x192;" horiz-adv-x="819" 
d="M666 1403q36 0 92 -6v-70q-61 6 -90 6q-101 0 -162.5 -60t-61.5 -198v-82q0 -31 -6 -49l2 -2q12 4 54 4h264v-61h-264q-42 0 -54 4l-2 -2q6 -18 6 -49v-922q0 -79 -17 -139.5t-43.5 -95.5t-63.5 -56.5t-70.5 -29t-71.5 -7.5q-62 0 -117 6v70q49 -6 121 -6q83 0 136 56.5
t53 181.5v942q0 31 6 49l-2 2q-12 -4 -53 -4h-222v61h222q41 0 53 -4l2 2q-6 18 -6 49v62q0 84 18.5 148t47.5 101t70 60.5t78.5 31t80.5 7.5z" />
    <glyph glyph-name="AEacute" unicode="&#x1fc;" horiz-adv-x="1843" 
d="M1389 1522h-66l-2 6l188 219h111l2 -6zM1165 78h596v-78h-719v440q0 28 7 49l-2 3q-15 -5 -54 -5h-534l-336 -487h-92l983 1434h737v-78h-586q-41 0 -53 4l-2 -2q6 -18 6 -49v-428q0 -32 -6 -50l2 -2q15 5 53 5h531v-78h-531q-41 0 -53 4l-2 -2q6 -18 6 -49v-584
q0 -31 -6 -49l2 -2q12 4 53 4zM1049 559q-7 21 -7 49v654q0 45 7 106h-5q-17 -37 -59 -98l-432 -645q-30 -47 -68 -70l2 -2q35 8 115 8h391q42 0 54 -4z" />
    <glyph glyph-name="aeacute" unicode="&#x1fd;" horiz-adv-x="1849" 
d="M1229 1448v-10l-232 -305h-65v12l186 303h111zM453 -31q-168 0 -274.5 91.5t-106.5 246.5t101.5 246.5t272.5 91.5q131 0 235.5 -57.5t145.5 -165.5l7 2q-9 48 -9 176q0 158 -75 228.5t-224 70.5q-154 0 -331 -59l-23 80q188 57 346 57q184 0 271.5 -80.5t87.5 -226.5h4
q27 135 140 221t279 86q96 0 174 -27.5t130 -73.5t87 -109t50.5 -132.5t15.5 -145.5v-20h-784q-45 0 -72 6l-2 -2l2 -10q8 -192 118 -306t294 -114q59 0 110.5 13t85.5 30t70 48.5t54.5 53t47.5 58.5l58 -47q-29 -42 -60.5 -76t-83 -72.5t-124 -60t-158.5 -21.5
q-100 0 -182 28.5t-135.5 78.5t-86.5 113t-43 135h-6q-6 -160 -118 -257.5t-289 -97.5zM903 524q30 15 74 15h625q36 0 73 -13l2 2q-14 176 -110 275.5t-269 99.5q-163 0 -272.5 -99t-124.5 -278zM457 45q141 0 244.5 75t103.5 187q0 113 -104 188.5t-246 75.5t-221.5 -76
t-79.5 -190t80 -187t223 -73z" />
    <glyph glyph-name="Oslashacute" unicode="&#x1fe;" horiz-adv-x="1679" 
d="M872 1522h-65l-2 6l188 219h111l2 -6zM1303 1319q134 -101 209 -257t75 -345q0 -214 -95.5 -385t-266.5 -267t-385 -96q-235 0 -414 115l-80 -113l-49 31l80 113q-134 102 -209.5 257.5t-75.5 344.5q0 214 96 385t267 266.5t385 95.5q236 0 413 -114l80 112l49 -30z
M178 717q0 -168 65.5 -306t182.5 -227l780 1098q-162 100 -366 100q-289 0 -475.5 -187t-186.5 -478zM840 51q190 0 341 85t235.5 237t84.5 344q0 168 -65.5 305.5t-182.5 226.5l-780 -1097q164 -101 367 -101z" />
    <glyph glyph-name="oslashacute" unicode="&#x1ff;" horiz-adv-x="1191" 
d="M858 1438l-231 -305h-66v12l187 303h110v-10zM946 848q73 -67 113.5 -163.5t40.5 -211.5q0 -222 -141 -363t-363 -141q-186 0 -320 103l-86 -101l-43 37l86 103q-141 141 -141 362q0 222 141 363t363 141q177 0 305 -92l78 92l45 -39zM170 473q0 -183 117 -303l563 655
q-111 78 -254 78q-185 0 -305.5 -121.5t-120.5 -308.5zM596 43q185 0 305.5 121.5t120.5 308.5q0 191 -127 315l-567 -657q115 -88 268 -88z" />
    <glyph glyph-name="Scommaaccent" unicode="&#x218;" horiz-adv-x="997" 
d="M514 1464q158 0 342 -84l-41 -80q-168 82 -297 82q-135 0 -212 -59.5t-77 -163.5q0 -78 46.5 -142t164.5 -145l207 -143q146 -101 207 -191.5t61 -207.5q0 -167 -114.5 -264t-313.5 -97q-239 0 -436 129l45 74q190 -121 391 -121q158 0 250 74t92 201q0 89 -52.5 163.5
t-178.5 163.5l-221 156q-129 91 -181.5 169t-52.5 179q0 146 98 226.5t273 80.5zM541 -104l-115 -336h-57l73 336h99z" />
    <glyph glyph-name="scommaaccent" unicode="&#x219;" horiz-adv-x="851" 
d="M451 -31q-107 0 -211.5 33.5t-188.5 93.5l43 64q157 -117 361 -117q116 0 181.5 46t65.5 128q0 115 -170 189l-180 81q-111 51 -162 112t-51 144q0 109 82 171.5t228 62.5q164 0 307 -76l-37 -70q-138 72 -270 72q-109 0 -170.5 -42t-61.5 -116q0 -59 40.5 -103
t133.5 -85l168 -76q119 -54 170 -115t51 -149q0 -117 -86.5 -182.5t-242.5 -65.5zM479 -104l-114 -336h-58l74 336h98z" />
    <glyph glyph-name="uni021A" unicode="&#x21a;" horiz-adv-x="1040" 
d="M1020 1434v-78h-410q-41 0 -53 4l-2 -2q6 -18 6 -49v-1309h-82v1309q0 31 6 49l-2 2q-12 -4 -53 -4h-410v78h1000zM569 -104l-114 -336h-58l74 336h98z" />
    <glyph glyph-name="uni021B" unicode="&#x21b;" horiz-adv-x="612" 
d="M344 1452v-459q0 -33 -10 -53l2 -2q16 8 57 8h158v-65h-158q-41 0 -57 8l-2 -2q10 -20 10 -53v-834h-74v834q0 31 11 53l-2 2q-16 -8 -58 -8h-160v65h160q42 0 58 -8l2 2q-11 22 -11 53v391l68 68h6zM356 -104l-114 -336h-58l74 336h98z" />
    <glyph glyph-name="uni0237" unicode="&#x237;" horiz-adv-x="401" 
d="M238 946v-1118q0 -268 -258 -268h-19v75h23q87 0 133.5 44t46.5 149v1118h74z" />
    <glyph glyph-name="uni02BC" unicode="&#x2bc;" horiz-adv-x="337" 
d="M160 1495h96l-111 -453h-53z" />
    <glyph glyph-name="circumflex" unicode="&#x2c6;" horiz-adv-x="753" 
d="M428 1448l223 -309v-6h-90l-123 174q-45 63 -59 108h-4q-13 -42 -60 -108l-122 -174h-91v6l224 309h102z" />
    <glyph glyph-name="caron" unicode="&#x2c7;" horiz-adv-x="794" 
d="M346 1133l-244 309v6h91l139 -174q28 -35 40 -53t23 -47h4q11 29 23 46.5t41 53.5l139 174h90v-6l-243 -309h-103z" />
    <glyph glyph-name="breve" unicode="&#x2d8;" horiz-adv-x="761" 
d="M659 1434q0 -134 -77 -210.5t-201 -76.5t-201.5 76.5t-77.5 210.5h70q3 -103 58.5 -161.5t150.5 -58.5t150.5 58.5t58.5 161.5h69z" />
    <glyph glyph-name="dotaccent" unicode="&#x2d9;" horiz-adv-x="294" 
d="M193 1434v-265h-91v265h91z" />
    <glyph glyph-name="ring" unicode="&#x2da;" horiz-adv-x="692" 
d="M346 1530q106 0 175 -68t69 -172t-69 -171.5t-175 -67.5t-175 67.5t-69 171.5t69 172t175 68zM346 1473q-84 0 -133 -49.5t-49 -133.5t49 -133t133 -49t133 49t49 133t-49 133.5t-133 49.5z" />
    <glyph glyph-name="ogonek" unicode="&#x2db;" horiz-adv-x="514" 
d="M354 55l58 -35q-118 -80 -176 -142t-58 -116q0 -75 111 -75q52 0 106 14l4 -66q-63 -18 -118 -18q-75 0 -127 33.5t-52 99.5q0 73 62.5 147t189.5 158z" />
    <glyph glyph-name="tilde" unicode="&#x2dc;" horiz-adv-x="870" 
d="M279 1411q48 0 112 -31.5t122 -62.5t91 -31q66 0 109 98l55 -20q-12 -30 -25 -53t-34 -49t-51 -40t-66 -14q-38 0 -87 19.5t-88 43t-81.5 43t-69.5 19.5q-65 0 -108 -98l-56 20q64 156 177 156z" />
    <glyph glyph-name="hungarumlaut" unicode="&#x2dd;" horiz-adv-x="694" 
d="M104 1133l-2 6l215 309h72l2 -6l-223 -309h-64zM305 1133l-2 6l215 309h72l2 -6l-223 -309h-64z" />
    <glyph glyph-name="gravecomb" unicode="&#x300;" horiz-adv-x="0" 
d="M-289 1448l187 -303v-12h-66l-231 305v10h110z" />
    <glyph glyph-name="acutecomb" unicode="&#x301;" horiz-adv-x="0" 
d="M-102 1448v-10l-232 -305h-65v12l186 303h111z" />
    <glyph glyph-name="uni0302" unicode="&#x302;" horiz-adv-x="0" 
d="M-326 1448l224 -309v-6h-91l-122 174q-47 66 -60 108h-4q-14 -45 -59 -108l-123 -174h-90v6l223 309h102z" />
    <glyph glyph-name="tildecomb" unicode="&#x303;" horiz-adv-x="0" 
d="M-592 1411q48 0 112 -31.5t122.5 -62.5t91.5 -31q65 0 108 98l56 -20q-64 -156 -177 -156q-38 0 -87 19.5t-87.5 43t-81 43t-69.5 19.5q-66 0 -109 -98l-55 20q12 30 25 53t34 49t51 40t66 14z" />
    <glyph glyph-name="uni0304" unicode="&#x304;" horiz-adv-x="0" 
d="M-102 1350v-70h-553v70h553z" />
    <glyph glyph-name="uni0306" unicode="&#x306;" horiz-adv-x="0" 
d="M-102 1434q0 -134 -77.5 -210.5t-201.5 -76.5t-201 76.5t-77 210.5h69q3 -103 58.5 -161.5t150.5 -58.5t150.5 58.5t58.5 161.5h70z" />
    <glyph glyph-name="uni0307" unicode="&#x307;" horiz-adv-x="0" 
d="M-102 1434v-265h-91v265h91z" />
    <glyph glyph-name="uni0308" unicode="&#x308;" horiz-adv-x="0" 
d="M-422 1434v-246h-102v246h102zM-102 1434v-246h-103v246h103z" />
    <glyph glyph-name="uni030A" unicode="&#x30a;" horiz-adv-x="0" 
d="M-346 1530q106 0 175 -68t69 -172t-69 -171.5t-175 -67.5t-175 67.5t-69 171.5t69 172t175 68zM-346 1473q-84 0 -133 -49.5t-49 -133.5t49 -133t133 -49t133 49t49 133t-49 133.5t-133 49.5z" />
    <glyph glyph-name="uni030B" unicode="&#x30b;" horiz-adv-x="0" 
d="M-590 1133l-2 6l215 309h72l2 -6l-223 -309h-64zM-389 1133l-2 6l215 309h72l2 -6l-224 -309h-63z" />
    <glyph glyph-name="uni030C" unicode="&#x30c;" horiz-adv-x="0" 
d="M-449 1133l-243 309v6h90l139 -174q29 -36 41 -53.5t23 -46.5h4q11 29 23 47t40 53l139 174h91v-6l-244 -309h-103z" />
    <glyph glyph-name="uni0326" unicode="&#x326;" horiz-adv-x="0" 
d="M-102 -104l-115 -336h-57l73 336h99z" />
    <glyph glyph-name="uni0327" unicode="&#x327;" horiz-adv-x="0" 
d="M-225 14l-41 -106q164 -35 164 -144q0 -35 -15 -63t-54.5 -55.5t-64 -41t-86.5 -43.5q-13 -7 -20 -10l-20 41q98 53 140 87.5t42 74.5q0 37 -36 58t-120 36l60 166h51z" />
    <glyph glyph-name="uni0328" unicode="&#x328;" horiz-adv-x="0" 
d="M-160 55l58 -35q-118 -80 -176 -142t-58 -116q0 -75 111 -75q52 0 106 14l4 -66q-63 -18 -118 -18q-75 0 -127 33.5t-52 99.5q0 73 62.5 147t189.5 158z" />
    <glyph glyph-name="uni0394" unicode="&#x394;" horiz-adv-x="1286" 
d="M688 1434l557 -1434h-1204l557 1434h90zM643 1358l-496 -1317h992z" />
    <glyph glyph-name="uni03A9" unicode="&#x3a9;" horiz-adv-x="1658" 
d="M829 1464q167 0 306 -53t233.5 -146.5t146.5 -224t52 -284.5q0 -276 -164.5 -456t-441.5 -232v-5q79 11 135 11h422v-74h-607v123q266 41 422 212t156 415q0 183 -78 327.5t-229.5 229t-352.5 84.5q-151 0 -276 -49t-208.5 -134.5t-129 -203t-45.5 -254.5
q0 -244 156 -415t422 -212v-123h-607v74h422q70 0 135 -11v5q-277 52 -441.5 232t-164.5 456q0 154 52 284.5t146 224t233 146.5t306 53z" />
    <glyph glyph-name="pi" unicode="&#x3c0;" horiz-adv-x="1234" 
d="M1174 977v-72h-236v-905h-74v905h-407l-201 -905h-76l201 905h-25q-171 0 -295 -41v72q118 41 283 41h830z" />
    <glyph glyph-name="uni0401" unicode="&#x401;" horiz-adv-x="1044" 
d="M387 1747h102v-225h-102v225zM707 1747h102v-225h-102v225zM952 1434v-78h-647q-41 0 -53 4l-2 -2q6 -18 6 -49v-428q0 -32 -6 -50l2 -2q15 5 53 5h584v-78h-584q-41 0 -53 4l-2 -2q6 -18 6 -49v-584q0 -31 -6 -49l2 -2q12 4 53 4h658v-78h-789v1434h778z" />
    <glyph glyph-name="uni0402" unicode="&#x402;" horiz-adv-x="1378" 
d="M969 831q172 0 260 -80t88 -257v-134q0 -186 -80.5 -273t-280.5 -87h-161v78h163q82 -1 136.5 16t85 54t43 87t12.5 125v134q0 140 -69.5 195.5t-202.5 55.5q-115 0 -228 -19t-276 -64v-662h-82v1309q0 31 6 49l-2 2q-12 -4 -53 -4h-308v78h1020v-78h-532q-41 0 -53 4
l-2 -2q6 -18 6 -49v-510q0 -31 -6 -49l2 -2q277 83 514 83z" />
    <glyph glyph-name="uni0403" unicode="&#x403;" horiz-adv-x="993" 
d="M834 1747l2 -6l-234 -219h-65l-2 6l188 219h111zM973 1434v-78h-668q-41 0 -53 4l-2 -2q6 -18 6 -49v-1309h-82v1434h799z" />
    <glyph glyph-name="uni0404" unicode="&#x404;" horiz-adv-x="1439" 
d="M805 -31q-324 0 -518.5 202t-194.5 546t194.5 545.5t518.5 201.5q299 0 543 -166l-48 -71q-110 75 -228 115t-267 40q-260 0 -427.5 -155t-195.5 -420q-3 -33 -10 -55l2 -2q18 6 55 6h762v-78h-762q-37 0 -55 6l-2 -2q7 -22 10 -55q28 -266 196 -421t427 -155
q149 0 266.5 40t228.5 116l48 -72q-244 -166 -543 -166z" />
    <glyph glyph-name="uni0405" unicode="&#x405;" horiz-adv-x="997" 
d="M514 1464q158 0 342 -84l-41 -80q-168 82 -297 82q-135 0 -212 -59.5t-77 -163.5q0 -78 46.5 -142t164.5 -145l207 -143q146 -101 207 -191.5t61 -207.5q0 -167 -114.5 -264t-313.5 -97q-239 0 -436 129l45 74q190 -121 391 -121q158 0 250 74t92 201q0 89 -52.5 163.5
t-178.5 163.5l-221 156q-129 91 -181.5 169t-52.5 179q0 146 98 226.5t273 80.5z" />
    <glyph glyph-name="uni0406" unicode="&#x406;" horiz-adv-x="430" 
d="M256 1434v-1434h-82v1434h82z" />
    <glyph glyph-name="uni0407" unicode="&#x407;" horiz-adv-x="430" 
d="M4 1747h102v-225h-102v225zM324 1747h102v-225h-102v225zM256 1434v-1434h-82v1434h82z" />
    <glyph glyph-name="uni0408" unicode="&#x408;" horiz-adv-x="542" 
d="M369 1434v-1164q0 -145 -59 -212.5t-185 -67.5q-12 0 -74 4v82q62 -4 68 -4q88 0 128 47.5t40 150.5v1164h82z" />
    <glyph glyph-name="uni0409" unicode="&#x409;" horiz-adv-x="2134" 
d="M1659 795q208 0 326 -108t118 -290t-118 -289.5t-326 -107.5h-461v1006v303q0 31 6 49l-2 2q-12 -4 -53 -4h-711q-41 0 -53 4l-2 -2q6 -18 6 -49v-1039q0 -143 -58.5 -211.5t-185.5 -68.5q-12 0 -94 4v82q78 -4 88 -4q85 0 126.5 45.5t41.5 152.5v1164h973v-592
q0 -31 -6 -49l2 -2q12 4 53 4h330zM1659 78q175 0 266.5 86t91.5 233t-91.5 233.5t-266.5 86.5h-330q-41 0 -53 4l-2 -2q6 -18 6 -49v-545q0 -31 -6 -49l2 -2q12 4 53 4h330z" />
    <glyph glyph-name="uni040A" unicode="&#x40a;" horiz-adv-x="2072" 
d="M174 0v1434h82v-592q0 -31 -6 -49l2 -2q12 4 53 4h782q42 0 54 -4l2 2q-6 18 -6 49v592h82v-592q0 -28 -7 -49l2 -2q12 4 54 4h329q208 0 326.5 -108t118.5 -290t-118 -289.5t-327 -107.5h-460v670q0 31 6 49l-2 2q-12 -4 -54 -4h-782q-41 0 -53 4l-2 -2q6 -18 6 -49
v-670h-82zM1214 74q12 4 54 4h329q175 0 267 86t92 233t-92 233.5t-267 86.5h-329q-42 0 -54 4l-2 -2q7 -21 7 -49v-545q0 -28 -7 -49z" />
    <glyph glyph-name="uni040B" unicode="&#x40b;" horiz-adv-x="1378" 
d="M948 831q182 0 275.5 -95.5t93.5 -303.5v-432h-82v432q0 91 -20.5 153.5t-61 96.5t-91.5 48.5t-120 14.5q-110 0 -217.5 -19t-265.5 -64v-662h-82v1309q0 31 6 49l-2 2q-12 -4 -53 -4h-308v78h1000v-78h-512q-41 0 -53 4l-2 -2q6 -18 6 -49v-510q0 -31 -6 -49l2 -2
q268 83 493 83z" />
    <glyph glyph-name="uni040C" unicode="&#x40c;" horiz-adv-x="1220" 
d="M874 1747l3 -6l-234 -219h-65l-3 6l189 219h110zM1085 -4q-109 0 -169.5 43t-90.5 154l-94 362q-23 87 -78 125.5t-157 38.5h-185q-47 0 -63 4l-2 -2q10 -38 10 -86v-635h-82v1434h82v-560q0 -43 -10 -81l2 -2q24 6 63 6h185q106 0 165 42.5t99 159.5l92 267
q59 172 246 172q42 0 82 -4v-82q-36 4 -56 4q-81 0 -129 -30t-71 -99l-88 -266q-36 -110 -94 -153t-152 -46v-4q94 -5 146 -42t77 -134l90 -355q22 -85 67 -117t122 -32q23 0 73 4v-82q-54 -4 -80 -4z" />
    <glyph glyph-name="uni040E" unicode="&#x40e;" horiz-adv-x="1239" 
d="M901 1767q0 -125 -77 -195.5t-201 -70.5t-201.5 70.5t-77.5 195.5h70q3 -94 58.5 -146t150.5 -52t150 52t58 146h70zM315 -10q-67 0 -135 14v76q91 -14 142 -14q38 0 66.5 8.5t65.5 35t74.5 88t73.5 156.5l-571 1080h98l436 -832q52 -98 59.5 -117t20.5 -77l6 2
q5 44 18.5 84t49.5 114l397 826h92l-553 -1147q-32 -78 -68 -134.5t-68 -87t-70 -48.5t-67 -22.5t-67 -4.5z" />
    <glyph glyph-name="uni040F" unicode="&#x40f;" horiz-adv-x="1413" 
d="M666 -287v240q0 31 6 49l-2 2q-12 -4 -54 -4h-442v1434h82v-1309q0 -31 -6 -49l2 -2q12 4 53 4h803q41 0 53 -4l2 2q-6 18 -6 49v1309h82v-1434h-442q-42 0 -54 4l-2 -2q7 -21 7 -49v-240h-82z" />
    <glyph glyph-name="uni0410" unicode="&#x410;" horiz-adv-x="1331" 
d="M31 0l628 1464h13l628 -1464h-90l-209 487h-671l-209 -487h-90zM352 557q36 4 115 4h397q79 0 115 -4v2q-24 34 -59 119l-195 463q-49 117 -55 178h-8q-6 -58 -56 -178l-194 -463q-34 -81 -60 -119v-2z" />
    <glyph glyph-name="uni0411" unicode="&#x411;" horiz-adv-x="1222" 
d="M666 795q201 0 317.5 -108.5t116.5 -289.5t-116.5 -289t-317.5 -108h-492v1120v314h854v-78h-723q-41 0 -53 4l-2 -2q6 -18 6 -49v-467q0 -31 -6 -49l2 -2q12 4 53 4h361zM645 78q182 0 275.5 86t93.5 233q0 148 -93.5 234t-275.5 86h-340q-41 0 -53 4l-2 -2q6 -18 6 -49
v-545q0 -31 -6 -49l2 -2q12 4 53 4h340z" />
    <glyph glyph-name="uni0412" unicode="&#x412;" horiz-adv-x="1273" 
d="M174 0v1434h490q184 0 288.5 -91.5t104.5 -252.5q0 -208 -180 -293q-61 -26 -138 -33v-8q66 -2 142 -17q133 -34 201.5 -122t68.5 -226q0 -186 -125 -288.5t-352 -102.5h-500zM252 788q12 5 53 5h297q175 0 272 79t97 220q0 128 -79 196t-228 68h-359q-45 0 -53 4l-2 -2
q6 -18 6 -49v-469q0 -31 -6 -49zM252 74q8 4 53 4h369q192 0 290.5 79t98.5 234q0 161 -106.5 244.5t-311.5 83.5h-340q-43 0 -53 4l-2 -2q6 -18 6 -49v-547q0 -31 -6 -49z" />
    <glyph glyph-name="uni0413" unicode="&#x413;" horiz-adv-x="993" 
d="M973 1434v-78h-668q-41 0 -53 4l-2 -2q6 -18 6 -49v-1309h-82v1434h799z" />
    <glyph glyph-name="uni0414" unicode="&#x414;" horiz-adv-x="1337" 
d="M31 -287v365h112q27 0 43 -8l2 2q0 18 19 61q196 405 196 977v324h721v-1309q0 -31 -6 -49l2 -2q12 4 54 4h71v-365h-82v240q0 31 6 49l-2 2q-12 -4 -53 -4h-952q-41 0 -53 4l-3 -2q7 -21 7 -49v-240h-82zM266 74q12 4 58 4h669q42 0 54 -4l2 2q-7 21 -7 49v1184
q0 28 7 49l-2 2q-12 -4 -54 -4h-458q-42 0 -54 4l-2 -2q6 -18 6 -49v-199q0 -274 -55 -549.5t-166 -484.5z" />
    <glyph glyph-name="uni0415" unicode="&#x415;" horiz-adv-x="1044" 
d="M952 1434v-78h-647q-41 0 -53 4l-2 -2q6 -18 6 -49v-428q0 -32 -6 -50l2 -2q15 5 53 5h584v-78h-584q-41 0 -53 4l-2 -2q6 -18 6 -49v-584q0 -31 -6 -49l2 -2q12 4 53 4h658v-78h-789v1434h778z" />
    <glyph glyph-name="uni0416" unicode="&#x416;" horiz-adv-x="1824" 
d="M135 -4q-26 0 -80 4v82q50 -4 74 -4q77 0 121.5 32t66.5 117l91 355q23 89 76 130t147 46v4q-95 3 -153.5 48.5t-92.5 150.5l-88 266q-24 71 -71.5 100t-129.5 29q-19 0 -55 -4v82q40 4 82 4q89 0 149 -38t93 -134l92 -267q40 -116 100.5 -159t167.5 -43h92q40 0 64 -6
l2 2q-11 42 -11 81v560h80v-560q0 -43 -10 -81l2 -2q24 6 64 6h92q107 0 167.5 43t100.5 159l92 267q33 96 93 134t149 38q42 0 82 -4v-82q-36 4 -55 4q-82 0 -129.5 -29t-71.5 -100l-88 -266q-34 -105 -92.5 -150.5t-153.5 -48.5v-4q94 -5 147 -46t76 -130l90 -355
q22 -85 67 -117t122 -32q23 0 73 4v-82q-54 -4 -79 -4q-106 0 -166.5 45t-89.5 152l-99 362q-23 87 -78 125.5t-157 38.5h-92q-48 0 -64 4l-2 -2q10 -38 10 -86v-635h-80v635q0 44 11 86l-2 2q-16 -4 -64 -4h-92q-102 0 -157.5 -38.5t-78.5 -125.5l-98 -362
q-29 -107 -89.5 -152t-166.5 -45z" />
    <glyph glyph-name="uni0417" unicode="&#x417;" horiz-adv-x="1204" 
d="M584 -31q-285 0 -492 121l41 80q199 -119 447 -119q415 0 415 334q0 178 -120.5 261t-358.5 83h-203v72h201q201 0 313.5 79.5t112.5 231.5q0 124 -87 197t-259 73q-121 0 -238 -27.5t-206 -78.5l-39 76q200 112 483 112q216 0 324 -91t108 -257q0 -121 -65 -201
t-181 -116q-77 -24 -172 -29v-4q98 0 168 -12q140 -25 222.5 -114.5t82.5 -254.5q0 -198 -123 -307t-374 -109z" />
    <glyph glyph-name="uni0418" unicode="&#x418;" horiz-adv-x="1423" 
d="M1235 1454h14v-1454h-82v1016q0 148 15 258l-4 2q-20 -45 -113 -164l-877 -1132h-14v1454h82v-1014q0 -155 -14 -258l4 -2q21 48 112 164z" />
    <glyph glyph-name="uni0419" unicode="&#x419;" horiz-adv-x="1423" 
d="M1006 1767q0 -125 -77.5 -195.5t-201.5 -70.5t-201 70.5t-77 195.5h69q3 -94 58.5 -146t150.5 -52t150.5 52t58.5 146h70zM1235 1454h14v-1454h-82v1016q0 148 15 258l-4 2q-20 -45 -113 -164l-877 -1132h-14v1454h82v-1014q0 -155 -14 -258l4 -2q21 48 112 164z" />
    <glyph glyph-name="uni041A" unicode="&#x41a;" horiz-adv-x="1220" 
d="M1085 -4q-109 0 -169.5 43t-90.5 154l-94 362q-23 87 -78 125.5t-157 38.5h-185q-47 0 -63 4l-2 -2q10 -38 10 -86v-635h-82v1434h82v-560q0 -43 -10 -81l2 -2q24 6 63 6h185q106 0 165 42.5t99 159.5l92 267q59 172 246 172q42 0 82 -4v-82q-36 4 -56 4q-81 0 -129 -30
t-71 -99l-88 -266q-36 -110 -94 -153t-152 -46v-4q94 -5 146 -42t77 -134l90 -355q22 -85 67 -117t122 -32q23 0 73 4v-82q-54 -4 -80 -4z" />
    <glyph glyph-name="uni041B" unicode="&#x41b;" horiz-adv-x="1474" 
d="M1300 1434v-1434h-81v1309q0 31 6 49l-2 2q-12 -4 -54 -4h-731q-41 0 -53 4l-2 -2q6 -18 6 -49v-1039q0 -143 -58.5 -211.5t-185.5 -68.5q-12 0 -94 4v82q78 -4 88 -4q85 0 126.5 45.5t41.5 152.5v1164h993z" />
    <glyph glyph-name="uni041C" unicode="&#x41c;" horiz-adv-x="1740" 
d="M866 -31l-372 1032q-43 122 -62 232h-8q-3 -83 -41 -234l-256 -999h-86l371 1464h8l393 -1091q34 -93 53 -199h8q18 101 54 199l393 1091h8l371 -1464h-86l-256 999q-38 151 -41 234h-8q-19 -110 -62 -232l-373 -1032h-8z" />
    <glyph glyph-name="uni041D" unicode="&#x41d;" horiz-adv-x="1413" 
d="M1239 1434v-1434h-82v684q0 31 6 49l-2 2q-12 -4 -53 -4h-803q-41 0 -53 4l-2 -2q6 -18 6 -49v-684h-82v1434h82v-578q0 -31 -6 -49l2 -2q12 4 53 4h803q41 0 53 -4l2 2q-6 18 -6 49v578h82z" />
    <glyph glyph-name="uni041E" unicode="&#x41e;" horiz-adv-x="1679" 
d="M840 1464q160 0 299 -56t237.5 -154.5t154.5 -237.5t56 -299q0 -214 -95.5 -385t-266.5 -267t-385 -96t-385 96t-267 267t-96 385t96 385t267 266.5t385 95.5zM840 1382q-289 0 -475.5 -187t-186.5 -478q0 -192 84.5 -344t236 -237t341.5 -85t341 85t235.5 237t84.5 344
q0 291 -186 478t-475 187z" />
    <glyph glyph-name="uni041F" unicode="&#x41f;" horiz-adv-x="1433" 
d="M1260 1434v-1434h-82v1309q0 31 6 49l-2 2q-12 -4 -54 -4h-823q-41 0 -53 4l-2 -2q6 -18 6 -49v-1309h-82v1434h1086z" />
    <glyph glyph-name="uni0420" unicode="&#x420;" horiz-adv-x="1060" 
d="M608 1434q186 0 299 -103.5t113 -273.5t-113 -273.5t-299 -103.5h-303q-43 0 -53 4l-2 -2q6 -18 6 -49v-633h-82v1434h434zM252 1360l-2 -2q6 -18 6 -49v-504q0 -31 -6 -49l2 -2q10 4 53 4h303q152 0 239 79.5t87 219.5t-87 219.5t-239 79.5h-303q-45 0 -53 4z" />
    <glyph glyph-name="uni0421" unicode="&#x421;" horiz-adv-x="1439" 
d="M852 -31q-225 0 -398 93.5t-267.5 263.5t-94.5 391t94.5 390.5t267.5 263t398 93.5q141 0 261 -40t235 -126l-52 -69q-109 82 -212.5 117.5t-231.5 35.5q-299 0 -486.5 -185t-187.5 -480t187.5 -480.5t486.5 -185.5q127 0 231 36t213 118l52 -70q-115 -86 -235 -126
t-261 -40z" />
    <glyph glyph-name="uni0422" unicode="&#x422;" horiz-adv-x="1040" 
d="M1020 1434v-78h-410q-41 0 -53 4l-2 -2q6 -18 6 -49v-1309h-82v1309q0 31 6 49l-2 2q-12 -4 -53 -4h-410v78h1000z" />
    <glyph glyph-name="uni0423" unicode="&#x423;" horiz-adv-x="1239" 
d="M315 -10q-67 0 -135 14v76q91 -14 142 -14q38 0 66.5 8.5t65.5 35t74.5 88t73.5 156.5l-571 1080h98l436 -832q52 -98 59.5 -117t20.5 -77l6 2q5 44 18.5 84t49.5 114l397 826h92l-553 -1147q-32 -78 -68 -134.5t-68 -87t-70 -48.5t-67 -22.5t-67 -4.5z" />
    <glyph glyph-name="uni0424" unicode="&#x424;" horiz-adv-x="1716" 
d="M819 -82v107q0 31 6 49l-2 2q-16 -4 -73 -4q-103 0 -199 25t-179.5 77.5t-145.5 127.5t-98 181.5t-36 233.5t36 233.5t98 181.5t145.5 127.5t179.5 77.5t199 25q57 0 73 -4l2 2q-6 18 -6 49v107h78v-107q0 -31 -6 -49l2 -2q16 4 74 4q103 0 198.5 -25t179.5 -77.5
t146 -127.5t97.5 -181.5t35.5 -233.5t-35.5 -233.5t-97.5 -181.5t-146 -127.5t-179.5 -77.5t-198.5 -25q-58 0 -74 4l-2 -2q6 -18 6 -49v-107h-78zM827 145l2 2q-6 18 -6 50v1040q0 31 6 49l-2 2q-16 -4 -73 -4q-113 0 -214.5 -35t-183.5 -102.5t-130 -178.5t-48 -251
t48 -251t130 -178.5t183.5 -102.5t214.5 -35q53 0 73 -5zM889 145q20 5 74 5q113 0 214.5 35t183 102.5t129.5 178.5t48 251t-48 251t-129.5 178.5t-183 102.5t-214.5 35q-58 0 -74 4l-2 -2q6 -18 6 -49v-1040q0 -32 -6 -50z" />
    <glyph glyph-name="uni0425" unicode="&#x425;" horiz-adv-x="1183" 
d="M1104 1434l-354 -529q-69 -103 -107 -149v-4q12 -13 21 -24.5t23.5 -31.5t23.5 -33.5t34.5 -51.5t42.5 -64l365 -547h-106l-383 582q-56 85 -68 118h-8q-13 -36 -68 -118l-383 -582h-106l364 547q114 171 146 205v4q-29 35 -107 149l-354 529h106l316 -480
q8 -12 19.5 -29t16.5 -24.5t12.5 -19.5t11 -17.5t8 -13.5t7 -13.5t5.5 -12t6 -13.5h8q3 7 6 13.5t5.5 12t7 13.5t8 13.5t11 17.5t12.5 19.5t16.5 24.5t19.5 29l315 480h107z" />
    <glyph glyph-name="uni0426" unicode="&#x426;" horiz-adv-x="1429" 
d="M1255 -287v240q0 28 7 49l-2 2q-12 -4 -54 -4h-1032v1434h82v-1309q0 -31 -6 -49l2 -2q12 4 53 4h772q41 0 53 -4l3 2q-7 21 -7 49v1309h82v-1309q0 -31 -6 -49l2 -2q12 4 53 4h80v-365h-82z" />
    <glyph glyph-name="uni0427" unicode="&#x427;" horiz-adv-x="1175" 
d="M920 0v635q0 31 6 49l-2 2q-271 -84 -494 -84q-182 0 -275.5 95.5t-93.5 303.5v433h82v-433q0 -91 20.5 -153.5t61 -96.5t91.5 -48.5t120 -14.5q109 0 217 19.5t267 64.5v662h81v-1434h-81z" />
    <glyph glyph-name="uni0428" unicode="&#x428;" horiz-adv-x="2138" 
d="M174 0v1434h82v-1309q0 -31 -6 -49l2 -2q12 4 53 4h674q41 0 53 -4l2 2q-6 18 -6 49v1309h82v-1309q0 -31 -6 -49l2 -2q12 4 53 4h674q41 0 53 -4l2 2q-6 18 -6 49v1309h82v-1434h-1790z" />
    <glyph glyph-name="uni0429" unicode="&#x429;" horiz-adv-x="2185" 
d="M2013 78h80v-365h-82v240q0 31 6 49l-2 2q-12 -4 -53 -4h-1788v1434h82v-1309q0 -31 -6 -49l2 -2q12 4 53 4h674q41 0 53 -4l2 2q-6 18 -6 49v1309h82v-1309q0 -31 -6 -49l2 -2q12 4 53 4h674q41 0 53 -4l2 2q-6 18 -6 49v1309h82v-1309q0 -31 -6 -49l2 -2q12 4 53 4z
" />
    <glyph glyph-name="uni042A" unicode="&#x42a;" horiz-adv-x="1370" 
d="M895 795q208 0 326 -108t118 -290t-118 -289.5t-326 -107.5h-481v1309q0 31 6 49l-2 2q-12 -4 -53 -4h-345v78h476v-592q0 -28 -7 -49l3 -2q12 4 53 4h350zM895 78q175 0 266.5 86t91.5 233t-91.5 233.5t-266.5 86.5h-350q-41 0 -53 4l-3 -2q7 -21 7 -49v-545
q0 -28 -7 -49l3 -2q12 4 53 4h350z" />
    <glyph glyph-name="uni042B" unicode="&#x42b;" horiz-adv-x="1474" 
d="M655 795q208 0 326.5 -108t118.5 -290t-118 -289.5t-327 -107.5h-481v989v445h82v-592q0 -31 -6 -49l2 -2q12 4 53 4h350zM1219 1434h81v-1434h-81v1434zM655 78q175 0 267 86t92 233t-92 233.5t-267 86.5h-350q-41 0 -53 4l-2 -2q6 -18 6 -49v-545q0 -31 -6 -49l2 -2
q12 4 53 4h350z" />
    <glyph glyph-name="uni042C" unicode="&#x42c;" horiz-adv-x="1130" 
d="M655 795q208 0 326.5 -108t118.5 -290t-118 -289.5t-327 -107.5h-481v989v445h82v-592q0 -31 -6 -49l2 -2q12 4 53 4h350zM655 78q175 0 267 86t92 233t-92 233.5t-267 86.5h-350q-41 0 -53 4l-2 -2q6 -18 6 -49v-545q0 -31 -6 -49l2 -2q12 4 53 4h350z" />
    <glyph glyph-name="uni042D" unicode="&#x42d;" horiz-adv-x="1439" 
d="M635 -31q-299 0 -543 166l47 72q111 -75 229 -115.5t267 -40.5q259 0 426.5 155t195.5 421q2 29 11 55l-2 2q-18 -6 -56 -6h-761v78h761q38 0 56 -6l2 2q-9 26 -11 55q-28 266 -195.5 420.5t-426.5 154.5q-149 0 -267.5 -40t-228.5 -115l-47 71q244 166 543 166
q324 0 518.5 -201.5t194.5 -545.5t-194.5 -546t-518.5 -202z" />
    <glyph glyph-name="uni042E" unicode="&#x42e;" horiz-adv-x="2088" 
d="M1249 1464q214 0 385 -95.5t267 -266.5t96 -385t-96 -385t-267 -267t-385 -96q-208 0 -375.5 90.5t-265 252t-106.5 366.5h-199q-31 0 -49 6l-2 -2q4 -12 4 -53v-629h-82v1434h82v-629q0 -41 -4 -53l2 -2q18 6 49 6h199q9 205 106.5 366.5t265 251.5t375.5 90zM1249 51
q190 0 341.5 85t236 237t84.5 344q0 291 -186.5 478t-475.5 187t-475 -187t-186 -478q0 -192 84.5 -344t235.5 -237t341 -85z" />
    <glyph glyph-name="uni042F" unicode="&#x42f;" horiz-adv-x="1187" 
d="M539 1434h475v-1434h-82v666q0 31 6 49l-2 2q-12 -4 -53 -4h-187l-546 -713h-109l498 647q40 50 69 68v8q-25 -10 -67 -10q-181 0 -287.5 97t-106.5 263t105.5 263.5t286.5 97.5zM936 1360q-12 -4 -53 -4h-344q-136 0 -221 -70t-85 -213q0 -74 24 -129.5t67 -88t97 -48.5
t118 -16h344q38 0 53 -5l2 2q-6 18 -6 50v471q0 31 6 49z" />
    <glyph glyph-name="uni0430" unicode="&#x430;" horiz-adv-x="1042" 
d="M524 977q192 0 283.5 -89.5t91.5 -275.5v-612h-74q0 50 9 197l-5 2q-43 -106 -145.5 -168t-234.5 -62q-169 0 -273 94t-104 246q0 154 103 245t280 91q131 0 232.5 -61t139.5 -162l7 2q-6 27 -7.5 52t-1.5 124q0 154 -72.5 226.5t-226.5 72.5t-331 -59l-23 80
q199 57 352 57zM455 571q-135 0 -218 -73t-83 -193q0 -118 82 -189t219 -71q146 0 248 76.5t102 185.5t-102 186.5t-248 77.5z" />
    <glyph glyph-name="uni0431" unicode="&#x431;" horiz-adv-x="1210" 
d="M612 -31q-114 0 -207 37t-164 111t-110 196.5t-39 284.5q0 133 26 243t90 203.5t163 143.5q58 29 143 55t181.5 48t111.5 26q66 19 94 51t33 76h74q0 -149 -185 -193q-12 -3 -86 -20t-119.5 -28.5t-109 -32t-102.5 -40.5q-241 -123 -259 -583h7q10 104 53 185t110 130
t149 74t175 25q215 0 346 -133t131 -355q0 -225 -137.5 -364.5t-368.5 -139.5zM618 43q186 0 304 115t118 309q0 100 -33.5 181.5t-91.5 132.5t-132.5 78.5t-159.5 27.5q-91 0 -171 -28t-140.5 -80t-96 -132t-35.5 -178q0 -195 125 -310.5t313 -115.5z" />
    <glyph glyph-name="uni0432" unicode="&#x432;" horiz-adv-x="978" 
d="M752 465q135 -50 135 -209q0 -126 -81 -191t-216 -65h-436v592v354h434q134 0 206 -62t72 -171q0 -68 -29 -119t-83 -76q-50 -23 -125 -26v-9q71 -3 123 -18zM217 883q10 -20 10 -54v-262q0 -41 -8 -57l2 -2q20 10 53 10h250q137 0 200.5 52t63.5 137q0 170 -213 170
h-299q-41 0 -57 8zM578 70q231 0 231 190q0 189 -270 189h-265q-33 0 -53 10l-2 -2q8 -16 8 -58v-282q0 -34 -10 -54l2 -2q18 9 57 9h302z" />
    <glyph glyph-name="uni0433" unicode="&#x433;" horiz-adv-x="757" 
d="M154 0v946h594v-69h-472q-41 0 -57 8l-2 -2q10 -20 10 -54v-829h-73z" />
    <glyph glyph-name="uni0434" unicode="&#x434;" horiz-adv-x="1079" 
d="M41 -287v357h63q32 0 50 -9l2 2q-3 24 12 50q162 279 162 639v194h581v-829q0 -34 -10 -54l2 -2q18 9 58 9h47v-357h-74v240q0 33 10 53l-2 2q-16 -8 -57 -8h-721q-42 0 -58 8l-2 -2q11 -22 11 -53v-240h-74zM219 61q18 9 57 9h512q40 0 58 -9l2 2q-10 20 -10 54v712
q0 34 10 54l-2 2q-16 -8 -58 -8h-335q-42 0 -58 8l-2 -2q10 -20 10 -54v-118q0 -174 -58.5 -371.5t-127.5 -276.5z" />
    <glyph glyph-name="uni0435" unicode="&#x435;" horiz-adv-x="1118" 
d="M575 977q206 0 328.5 -132.5t122.5 -355.5v-20h-784q-53 0 -74 8l-2 -2l4 -16q0 -190 112 -303t300 -113q114 0 200 47.5t168 155.5l58 -47q-78 -113 -187 -171.5t-241 -58.5q-223 0 -355.5 138t-132.5 370q0 229 131 364.5t352 135.5zM573 903q-173 0 -281 -101.5
t-122 -275.5l2 -2q24 15 72 15h626q30 0 74 -13l2 2q-13 180 -110.5 277.5t-262.5 97.5z" />
    <glyph glyph-name="uni0436" unicode="&#x436;" horiz-adv-x="1327" 
d="M31 -4v70h67q48 0 77 27t44 83l57 193q20 65 65 93.5t124 31.5v4q-81 3 -128.5 33.5t-76.5 111.5l-57 152q-31 86 -111 86h-61v69h67q124 0 170 -119l62 -159q30 -77 71.5 -110.5t112.5 -33.5h59q48 0 64 -4l2 2q-10 38 -10 82v338h69v-338q0 -44 -10 -82l2 -2q16 4 64 4
h59q71 0 112.5 33.5t71.5 110.5l62 159q46 119 170 119h67v-69h-61q-80 0 -111 -86l-57 -152q-29 -81 -76.5 -111.5t-128.5 -33.5v-4q79 -3 124 -31.5t65 -93.5l57 -193q15 -56 44 -83t77 -27h67v-70h-73q-78 0 -121.5 38t-65.5 111l-49 174q-40 140 -174 140h-59
q-48 0 -64 4l-2 -2q10 -38 10 -86v-375h-69v375q0 48 10 86l-2 2q-16 -4 -64 -4h-59q-134 0 -174 -140l-49 -174q-22 -73 -65.5 -111t-121.5 -38h-73z" />
    <glyph glyph-name="uni0437" unicode="&#x437;" horiz-adv-x="921" 
d="M436 -31q-207 0 -395 90l37 70q176 -86 371 -86q303 0 303 211q0 111 -76 161t-248 50h-111v70h111q279 0 279 194q0 91 -70.5 132.5t-192.5 41.5q-168 0 -346 -76l-30 70q181 80 374 80q166 0 254 -60t88 -180q0 -210 -262 -231v-6q148 -7 227.5 -64t79.5 -190
q0 -135 -100 -206t-293 -71z" />
    <glyph glyph-name="uni0438" unicode="&#x438;" horiz-adv-x="1105" 
d="M154 -20v966h73v-571q0 -143 -10 -246l4 -2q36 70 109 152l612 688h10v-967h-73v571q0 143 10 246l-4 2q-35 -68 -109 -151l-612 -688h-10z" />
    <glyph glyph-name="uni0439" unicode="&#x439;" horiz-adv-x="1105" 
d="M848 1331q0 -134 -77.5 -210.5t-201.5 -76.5t-201 76.5t-77 210.5h69q3 -103 58.5 -161t150.5 -58t150.5 58t58.5 161h70zM154 -20v966h73v-571q0 -143 -10 -246l4 -2q36 70 109 152l612 688h10v-967h-73v571q0 143 10 246l-4 2q-35 -68 -109 -151l-612 -688h-10z" />
    <glyph glyph-name="uni043A" unicode="&#x43a;" horiz-adv-x="927" 
d="M823 -4q-79 0 -121 35.5t-65 113.5l-49 174q-40 140 -174 140h-131q-48 0 -64 4l-2 -2q10 -38 10 -86v-375h-73v946h73v-338q0 -44 -10 -82l2 -2q16 4 64 4h131q71 0 112.5 33.5t71.5 110.5l61 159q46 119 170 119h68v-69h-61q-79 0 -111 -86l-57 -152
q-34 -87 -75 -114.5t-130 -30.5v-4q87 -3 126.5 -29t61.5 -96l58 -193q31 -110 120 -110h68v-70h-74z" />
    <glyph glyph-name="uni043B" unicode="&#x43b;" horiz-adv-x="1069" 
d="M926 946v-946h-74v829q0 34 10 54l-2 2q-16 -8 -57 -8h-434q-42 0 -58 8l-2 -2q10 -20 10 -54v-608q0 -225 -198 -225h-90v70h90q125 0 125 155v725h680z" />
    <glyph glyph-name="uni043C" unicode="&#x43c;" horiz-adv-x="1294" 
d="M643 -18l-246 602q-13 32 -22.5 58.5t-16 50t-9.5 36t-8.5 36t-6.5 30.5h-6q-3 -92 -41 -213l-185 -582h-82l304 967h8l258 -654q42 -110 55 -186h4q12 72 56 186l258 654h8l303 -967h-82l-184 582q-38 121 -41 213h-6q-27 -120 -64 -211l-246 -602h-8z" />
    <glyph glyph-name="uni043D" unicode="&#x43d;" horiz-adv-x="1099" 
d="M872 946h74v-946h-74v426q0 39 9 57l-2 2q-20 -10 -54 -10h-551q-33 0 -53 10l-2 -2q8 -16 8 -57v-426h-73v946h73v-352q0 -41 -8 -57l2 -2q20 10 53 10h551q34 0 54 -10l2 2q-9 18 -9 57v352z" />
    <glyph glyph-name="uni043E" unicode="&#x43e;" horiz-adv-x="1191" 
d="M596 977q223 0 363.5 -140.5t140.5 -363.5q0 -222 -141 -363t-363 -141q-221 0 -362.5 141.5t-141.5 362.5q0 222 141 363t363 141zM596 903q-185 0 -305.5 -121.5t-120.5 -308.5t120.5 -308.5t305.5 -121.5t305.5 121.5t120.5 308.5t-120.5 308.5t-305.5 121.5z" />
    <glyph glyph-name="uni043F" unicode="&#x43f;" horiz-adv-x="1058" 
d="M915 946v-946h-73v829q0 34 10 54l-2 2q-16 -8 -57 -8h-527q-41 0 -57 8l-2 -2q10 -20 10 -54v-829h-74v946h772z" />
    <glyph glyph-name="uni0440" unicode="&#x440;" horiz-adv-x="1232" 
d="M662 977q214 0 346.5 -140t132.5 -364t-132.5 -364t-346.5 -140q-161 0 -275.5 78.5t-173.5 228.5l-8 -2q22 -87 22 -202v-482h-73v1356h73q0 -203 -16 -282l6 -5q53 152 168.5 235t276.5 83zM653 899q-192 0 -313 -119t-121 -307q0 -190 123 -308t320 -118
q180 0 290.5 117t110.5 307q0 192 -113 310t-297 118z" />
    <glyph glyph-name="uni0441" unicode="&#x441;" horiz-adv-x="991" 
d="M598 -31q-226 0 -366 140t-140 364t140 364t366 140q173 0 322 -92l-39 -68q-144 86 -287 86q-183 0 -303.5 -122t-120.5 -308t120.5 -308t303.5 -122q143 0 287 86l39 -68q-149 -92 -322 -92z" />
    <glyph glyph-name="uni0442" unicode="&#x442;" horiz-adv-x="917" 
d="M10 946h897v-69h-362q-42 0 -58 8l-2 -2q11 -22 11 -54v-829h-74v829q0 34 10 54l-2 2q-16 -8 -57 -8h-363v69z" />
    <glyph glyph-name="uni0443" unicode="&#x443;" horiz-adv-x="929" 
d="M909 946l-604 -1356h-78l213 482l-420 874h89l292 -627q41 -88 54.5 -124.5t19.5 -81.5h8q6 47 20 86.5t52 126.5l274 620h80z" />
    <glyph glyph-name="uni0444" unicode="&#x444;" horiz-adv-x="1740" 
d="M834 -424v483q0 121 10 211h-4q-38 -150 -129 -225.5t-226 -75.5q-181 0 -282 135t-101 369t101 369t282 135q135 0 226 -75.5t129 -225.5h4q-10 90 -10 211v495h73v-495q0 -121 -10 -211h4q39 150 129.5 225.5t224.5 75.5q181 0 282 -135t101 -369t-101 -369t-282 -135
q-134 0 -224.5 75.5t-129.5 225.5h-4q10 -90 10 -211v-483h-73zM494 43q151 0 246.5 126t95.5 304t-95.5 304t-246.5 126q-152 0 -233 -118t-81 -312t81 -312t233 -118zM1249 43q151 0 231.5 118t80.5 312t-80.5 312t-231.5 118q-101 0 -181 -59.5t-121.5 -157t-41.5 -213.5
t41.5 -213.5t121.5 -157t181 -59.5z" />
    <glyph glyph-name="uni0445" unicode="&#x445;" horiz-adv-x="913" 
d="M20 0l336 432q36 46 54 64v6q-23 18 -62 69l-293 375h92l252 -319q34 -42 56 -90h4q23 51 55 90l252 319h92l-293 -375q-41 -53 -61 -69v-6q13 -13 53 -64l336 -432h-92l-287 362q-32 41 -55 91h-4q-21 -47 -56 -91l-286 -362h-93z" />
    <glyph glyph-name="uni0446" unicode="&#x446;" horiz-adv-x="1062" 
d="M918 -287v240q0 33 10 53l-2 2q-16 -8 -58 -8h-714v946h73v-829q0 -34 -10 -54l2 -2q18 9 57 9h496q39 0 57 -9l2 2q-10 20 -10 54v829h74v-829q0 -34 -10 -54l2 -2q18 9 57 9h47v-357h-73z" />
    <glyph glyph-name="uni0447" unicode="&#x447;" horiz-adv-x="886" 
d="M670 946h73v-606v-340h-73v391q0 42 8 58l-2 2q-178 -76 -336 -76q-151 0 -230 68t-79 221v282h73v-282q0 -118 63.5 -166.5t182.5 -48.5q134 0 320 77v420z" />
    <glyph glyph-name="uni0448" unicode="&#x448;" horiz-adv-x="1654" 
d="M1427 946h74v-946h-1347v946h73v-829q0 -34 -10 -54l2 -2q18 9 57 9h465q40 0 58 -9l2 2q-10 20 -10 54v829h73v-829q0 -34 -10 -54l2 -2q18 9 57 9h465q40 0 58 -9l2 2q-11 22 -11 54v829z" />
    <glyph glyph-name="uni0449" unicode="&#x449;" horiz-adv-x="1669" 
d="M1524 -287v240q0 33 10 53l-2 2q-16 -8 -57 -8h-1321v946h73v-829q0 -34 -10 -54l2 -2q18 9 57 9h465q40 0 58 -9l2 2q-10 20 -10 54v829h73v-829q0 -34 -10 -54l2 -2q18 9 57 9h465q40 0 58 -9l2 2q-11 22 -11 54v829h74v-829q0 -34 -10 -54l2 -2q18 9 57 9h47v-357h-73
z" />
    <glyph glyph-name="uni044A" unicode="&#x44a;" horiz-adv-x="1095" 
d="M739 582q143 0 229.5 -78t86.5 -213t-86.5 -213t-229.5 -78h-403v684v145q0 34 10 54l-2 2q-16 -8 -57 -8h-277v69h400v-315q0 -40 -9 -58l2 -2q22 11 54 11h282zM739 70q113 0 175.5 60.5t62.5 160.5t-62.5 160.5t-175.5 60.5h-282q-34 0 -54 10l-2 -2q9 -18 9 -57v-346
q0 -32 -11 -54l2 -2q18 9 58 9h280z" />
    <glyph glyph-name="uni044B" unicode="&#x44b;" horiz-adv-x="1189" 
d="M557 582q143 0 229 -78t86 -213t-86 -213t-229 -78h-403v684v262h73v-315q0 -42 -8 -58l2 -2q22 11 53 11h283zM963 946h73v-946h-73v946zM557 70q113 0 175.5 60.5t62.5 160.5t-62.5 160.5t-175.5 60.5h-283q-33 0 -53 10l-2 -2q8 -16 8 -57v-346q0 -34 -10 -54l2 -2
q18 9 57 9h281z" />
    <glyph glyph-name="uni044C" unicode="&#x44c;" horiz-adv-x="913" 
d="M557 582q143 0 229 -78t86 -213t-86 -213t-229 -78h-403v684v262h73v-315q0 -42 -8 -58l2 -2q22 11 53 11h283zM557 70q113 0 175.5 60.5t62.5 160.5t-62.5 160.5t-175.5 60.5h-283q-33 0 -53 10l-2 -2q8 -16 8 -57v-346q0 -34 -10 -54l2 -2q18 9 57 9h281z" />
    <glyph glyph-name="uni044D" unicode="&#x44d;" horiz-adv-x="1001" 
d="M414 -31q-187 0 -342 105l41 61q146 -92 305 -92q167 0 269 95.5t128 250.5q7 44 12 57l-2 3q-22 -11 -53 -11h-436v70h436q33 0 53 -10l2 2q-5 13 -12 57q-26 155 -128 250.5t-269 95.5q-159 0 -305 -92l-41 61q155 105 342 105q228 0 356.5 -138t128.5 -366
t-128.5 -366t-356.5 -138z" />
    <glyph glyph-name="uni044E" unicode="&#x44e;" horiz-adv-x="1505" 
d="M909 977q223 0 363.5 -140.5t140.5 -363.5q0 -222 -141 -363t-363 -141q-212 0 -351.5 130.5t-151.5 338.5h-132q-31 0 -53 11l-2 -3q8 -16 8 -57v-389h-73v946h73v-389q0 -41 -8 -57l2 -2q20 10 53 10h132q12 209 151.5 339t351.5 130zM909 43q185 0 305.5 121.5
t120.5 308.5t-120.5 308.5t-305.5 121.5t-305.5 -121.5t-120.5 -308.5t120.5 -308.5t305.5 -121.5z" />
    <glyph glyph-name="uni044F" unicode="&#x44f;" horiz-adv-x="942" 
d="M788 946v-627v-319h-73v360q0 42 8 58l-2 2q-20 -10 -53 -10h-166l-371 -410h-100v4l311 340q47 50 88 76l-2 2q-27 -12 -82 -12q-45 0 -88.5 16.5t-81.5 48t-61 84.5t-23 119q0 131 86 199.5t217 68.5h393zM723 471q-8 16 -8 57v301q0 34 10 54l-2 2q-16 -8 -57 -8h-263
q-109 0 -171 -52.5t-62 -146.5t56.5 -146.5t156.5 -52.5h285q33 0 53 -10z" />
    <glyph glyph-name="uni0451" unicode="&#x451;" horiz-adv-x="1118" 
d="M506 1311v-246h-103v246h103zM764 1311v-246h-102v246h102zM575 977q206 0 328.5 -132.5t122.5 -355.5v-20h-784q-53 0 -74 8l-2 -2l4 -16q0 -190 112 -303t300 -113q114 0 200 47.5t168 155.5l58 -47q-78 -113 -187 -171.5t-241 -58.5q-223 0 -355.5 138t-132.5 370
q0 229 131 364.5t352 135.5zM573 903q-173 0 -281 -101.5t-122 -275.5l2 -2q24 15 72 15h626q30 0 74 -13l2 2q-13 180 -110.5 277.5t-262.5 97.5z" />
    <glyph glyph-name="uni0452" unicode="&#x452;" horiz-adv-x="1122" 
d="M610 977q173 0 271 -103t98 -313v-702q0 -129 -62 -199t-176 -70h-106v72h110q75 0 117.5 49.5t42.5 147.5v682q0 186 -81.5 274t-215.5 88q-170 0 -275.5 -124.5t-105.5 -364.5v-414h-73v1137q0 41 8 57l-2 2q-20 -10 -54 -10h-106v61h106q34 0 54 -10l2 2q-8 16 -8 57
v168h73v-168q0 -41 -8 -57l2 -2q20 10 53 10h304v-61h-304q-33 0 -53 10l-2 -2q8 -16 8 -57v-250q0 -162 -16 -260l8 -4q79 354 391 354z" />
    <glyph glyph-name="uni0453" unicode="&#x453;" horiz-adv-x="757" 
d="M721 1346v-11l-232 -305h-65v12l186 304h111zM154 0v946h594v-69h-472q-41 0 -57 8l-2 -2q10 -20 10 -54v-829h-73z" />
    <glyph glyph-name="uni0454" unicode="&#x454;" horiz-adv-x="1001" 
d="M588 -31q-228 0 -357 138t-129 366t129 366t357 138q187 0 342 -105l-41 -61q-146 92 -305 92q-167 0 -269.5 -95.5t-128.5 -250.5q-7 -44 -12 -57l2 -2q20 10 53 10h437v-70h-437q-31 0 -53 11l-2 -3q5 -13 12 -57q26 -155 128.5 -250.5t269.5 -95.5q159 0 305 92
l41 -61q-155 -105 -342 -105z" />
    <glyph glyph-name="uni0455" unicode="&#x455;" horiz-adv-x="851" 
d="M451 -31q-107 0 -211.5 33.5t-188.5 93.5l43 64q157 -117 361 -117q116 0 181.5 46t65.5 128q0 115 -170 189l-180 81q-111 51 -162 112t-51 144q0 109 82 171.5t228 62.5q164 0 307 -76l-37 -70q-138 72 -270 72q-109 0 -170.5 -42t-61.5 -116q0 -59 40.5 -103
t133.5 -85l168 -76q119 -54 170 -115t51 -149q0 -117 -86.5 -182.5t-242.5 -65.5z" />
    <glyph glyph-name="uni0456" unicode="&#x456;" horiz-adv-x="401" 
d="M246 1434v-265h-90v265h90zM238 946v-946h-74v946h74z" />
    <glyph glyph-name="uni0457" unicode="&#x457;" horiz-adv-x="401" 
d="M123 1311v-246h-103v246h103zM381 1311v-246h-102v246h102zM238 946v-946h-74v946h74z" />
    <glyph glyph-name="uni0458" unicode="&#x458;" horiz-adv-x="401" 
d="M246 1434v-265h-90v265h90zM238 946v-1118q0 -268 -258 -268h-19v75h23q87 0 133.5 44t46.5 149v1118h74z" />
    <glyph glyph-name="uni0459" unicode="&#x459;" horiz-adv-x="1632" 
d="M1266 582q143 0 229 -78t86 -213t-86 -213t-229 -78h-383v829q0 34 10 54l-2 2q-16 -8 -57 -8h-455q-41 0 -57 8l-3 -2q11 -22 11 -54v-608q0 -225 -199 -225h-100v70h100q125 0 125 155v725h700v-315q0 -42 -8 -58l2 -2q22 11 54 11h262zM1266 70q113 0 175 60t62 161
t-62 161t-175 60h-262q-34 0 -54 10l-2 -2q8 -16 8 -57v-346q0 -34 -10 -54l2 -2q18 9 58 9h260z" />
    <glyph glyph-name="uni045A" unicode="&#x45a;" horiz-adv-x="1579" 
d="M154 0v946h73v-315q0 -42 -8 -58l2 -2q22 11 53 11h508q32 0 54 -11l2 2q-9 18 -9 58v315h74v-315q0 -42 -8 -58l2 -2q22 11 53 11h262q143 0 229.5 -78t86.5 -213t-86.5 -213t-229.5 -78h-383v463q0 39 9 57l-2 2q-20 -10 -54 -10h-508q-33 0 -53 10l-2 -2q8 -16 8 -57
v-463h-73zM895 61q18 9 57 9h260q113 0 175.5 60.5t62.5 160.5t-62.5 160.5t-175.5 60.5h-262q-33 0 -53 10l-2 -2q8 -16 8 -57v-346q0 -34 -10 -54z" />
    <glyph glyph-name="uni045B" unicode="&#x45b;" horiz-adv-x="1122" 
d="M610 977q173 0 271 -103t98 -313v-561h-74v541q0 186 -81.5 274t-215.5 88q-170 0 -275.5 -124.5t-105.5 -364.5v-414h-73v1137q0 41 8 57l-2 2q-20 -10 -54 -10h-106v61h106q34 0 54 -10l2 2q-8 16 -8 57v168h73v-168q0 -41 -8 -57l2 -2q20 10 53 10h304v-61h-304
q-33 0 -53 10l-2 -2q8 -16 8 -57v-250q0 -162 -16 -260l8 -4q79 354 391 354z" />
    <glyph glyph-name="uni045C" unicode="&#x45c;" horiz-adv-x="927" 
d="M754 1346v-11l-232 -305h-65v12l186 304h111zM823 -4q-79 0 -121 35.5t-65 113.5l-49 174q-40 140 -174 140h-131q-48 0 -64 4l-2 -2q10 -38 10 -86v-375h-73v946h73v-338q0 -44 -10 -82l2 -2q16 4 64 4h131q71 0 112.5 33.5t71.5 110.5l61 159q46 119 170 119h68v-69
h-61q-79 0 -111 -86l-57 -152q-34 -87 -75 -114.5t-130 -30.5v-4q87 -3 126.5 -29t61.5 -96l58 -193q31 -110 120 -110h68v-70h-74z" />
    <glyph glyph-name="uni045E" unicode="&#x45e;" horiz-adv-x="929" 
d="M748 1331q0 -134 -77.5 -210.5t-201.5 -76.5t-201.5 76.5t-77.5 210.5h70q3 -103 58.5 -161t150.5 -58t150.5 58t58.5 161h70zM909 946l-604 -1356h-78l213 482l-420 874h89l292 -627q41 -88 54.5 -124.5t19.5 -81.5h8q6 47 20 86.5t52 126.5l274 620h80z" />
    <glyph glyph-name="uni045F" unicode="&#x45f;" horiz-adv-x="1081" 
d="M504 -287v240q0 33 10 53l-2 2q-16 -8 -57 -8h-301v946h73v-829q0 -34 -10 -54l2 -2q18 9 57 9h529q39 0 57 -9l2 2q-10 20 -10 54v829h74v-946h-301q-42 0 -58 8l-2 -2q11 -22 11 -53v-240h-74z" />
    <glyph glyph-name="uni0462" unicode="&#x462;" horiz-adv-x="1236" 
d="M762 795q208 0 326 -108t118 -290t-118 -289.5t-326 -107.5h-481v1008q0 31 6 49l-2 2q-12 -4 -54 -4h-231v78h231q39 0 54 -5l2 2q-6 18 -6 50v254h81v-254q0 -32 -6 -50l2 -2q15 5 54 5h415v-78h-415q-42 0 -54 4l-2 -2q6 -18 6 -49v-166q0 -31 -6 -49l2 -2q12 4 54 4
h350zM762 78q175 0 266.5 86t91.5 233t-91.5 233.5t-266.5 86.5h-350q-42 0 -54 4l-2 -2q6 -18 6 -49v-545q0 -31 -6 -49l2 -2q12 4 54 4h350z" />
    <glyph glyph-name="uni0463" unicode="&#x463;" horiz-adv-x="944" 
d="M578 582q143 0 229 -78t86 -213t-86 -213t-229 -78h-404v684v152q0 41 8 57l-2 2q-20 -10 -53 -10h-127v61h127q33 0 53 -10l2 2q-8 16 -8 57v469h74v-469q0 -41 -8 -57l2 -2q20 10 53 10h364v-61h-364q-33 0 -53 10l-2 -2q8 -16 8 -57v-205q0 -42 -8 -58l2 -2
q22 11 53 11h283zM578 70q113 0 175 60t62 161t-62 161t-175 60h-283q-33 0 -53 10l-2 -2q8 -16 8 -57v-346q0 -34 -10 -54l2 -2q18 9 57 9h281z" />
    <glyph glyph-name="uni0472" unicode="&#x472;" horiz-adv-x="1679" 
d="M840 1464q158 0 296 -55.5t237.5 -152.5t156.5 -237t57 -302q0 -216 -97.5 -387.5t-268 -266t-381.5 -94.5t-381.5 94.5t-268.5 266t-98 387.5t98 387.5t268.5 265.5t381.5 94zM178 797q0 -29 -10 -41l2 -4q20 4 49 4h1241q29 0 49 -4l2 4q-10 13 -10 35
q-4 107 -50.5 210.5t-128 189t-208 138.5t-276.5 53q-131 0 -244 -41.5t-187.5 -106t-127.5 -144t-77 -154.5t-24 -139zM1501 637q0 28 10 41l-2 4q-20 -4 -49 -4h-1241q-29 0 -49 4l-2 -4q10 -13 10 -35q3 -85 32.5 -169t86.5 -160t134 -135t183.5 -93.5t227.5 -34.5
q95 0 180.5 22t151 59t120.5 86t92.5 103t64 111t38.5 108.5t12 96.5z" />
    <glyph glyph-name="uni0473" unicode="&#x473;" horiz-adv-x="1191" 
d="M596 977q222 0 363 -141t141 -363t-141 -363t-363 -141t-363 141t-141 363t141 363t363 141zM596 903q-181 0 -295 -107t-133 -298l2 -2q21 8 61 8h730q40 0 61 -8l2 2q-19 191 -133 298t-295 107zM596 43q181 0 295 107.5t133 298.5l-2 2q-24 -9 -61 -9h-730
q-37 0 -61 9l-2 -2q19 -191 133 -298.5t295 -107.5z" />
    <glyph glyph-name="uni0474" unicode="&#x474;" horiz-adv-x="1277" 
d="M1204 1452q34 0 74 -4v-82q-36 4 -66 4q-64 0 -104 -36t-72 -124l-444 -1241h-8l-564 1465h101l393 -1061q38 -102 48 -132.5t18 -82.5h8q4 24 10.5 50.5t11.5 42t20 58t23 64.5l301 868q40 114 97.5 162.5t152.5 48.5z" />
    <glyph glyph-name="uni0475" unicode="&#x475;" horiz-adv-x="1001" 
d="M952 965h39v-76h-22q-54 0 -86.5 -22.5t-61.5 -88.5l-358 -798h-8l-435 966h95l266 -624q6 -13 18.5 -42.5t16.5 -38.5t12 -30t11.5 -33t8.5 -30t9 -37h4q5 23 10 43t13.5 42t14 35.5t18.5 43.5t20 47l211 493q36 86 81.5 118t122.5 32z" />
    <glyph glyph-name="uni048E" unicode="&#x48e;" horiz-adv-x="1060" 
d="M1020 1057q0 -118 -55 -205.5t-154 -130.5l156 -209l-45 -35l-168 223q-61 -20 -146 -20h-303q-43 0 -53 4l-2 -2q6 -18 6 -49v-633h-82v1434h434q186 0 299 -103.5t113 -273.5zM608 758q45 0 97 10l-148 195l45 34l160 -213q82 32 127 103t45 170q0 140 -87 219.5
t-239 79.5h-303q-45 0 -53 4l-2 -2q6 -18 6 -49v-504q0 -31 -6 -49l2 -2q10 4 53 4h303z" />
    <glyph glyph-name="uni048F" unicode="&#x48f;" horiz-adv-x="1232" 
d="M1141 473q0 -140 -53.5 -249.5t-151.5 -174.5l133 -162l-41 -34l-139 167q-102 -51 -227 -51q-161 0 -275.5 78.5t-173.5 228.5l-8 -2q22 -87 22 -202v-482h-73v1356h73q0 -203 -16 -282l6 -5q53 152 168.5 235t276.5 83q214 0 346.5 -140t132.5 -364zM662 47
q100 0 178 37l-158 190l41 35l164 -198q84 53 130 146t46 214q0 192 -113 310t-297 118q-192 0 -313 -119t-121 -307q0 -190 123 -308t320 -118z" />
    <glyph glyph-name="uni0490" unicode="&#x490;" horiz-adv-x="993" 
d="M891 1720h82v-364h-668q-41 0 -53 4l-2 -2q6 -18 6 -49v-1309h-82v1434h668q41 0 53 -4l2 2q-6 18 -6 49v239z" />
    <glyph glyph-name="uni0491" unicode="&#x491;" horiz-adv-x="788" 
d="M684 1233h74v-356h-482q-41 0 -57 8l-2 -2q10 -20 10 -54v-829h-73v946h481q41 0 57 -8l2 2q-10 20 -10 53v240z" />
    <glyph glyph-name="uni0492" unicode="&#x492;" horiz-adv-x="1079" 
d="M391 1356q-41 0 -53 4l-2 -2q6 -18 6 -49v-463q0 -31 -6 -49l2 -2q12 4 53 4h477v-78h-477q-41 0 -53 4l-2 -2q6 -18 6 -49v-674h-82v674q0 31 6 49l-2 2q-12 -4 -53 -4h-191v78h191q41 0 53 -4l2 2q-6 18 -6 49v588h799v-78h-668z" />
    <glyph glyph-name="uni0493" unicode="&#x493;" horiz-adv-x="839" 
d="M358 877q-41 0 -57 8l-2 -2q10 -20 10 -54v-272q0 -41 -8 -57l2 -2q20 10 53 10h344v-70h-344q-31 0 -53 11l-2 -3q8 -16 8 -57v-389h-73v389q0 41 8 57l-2 3q-22 -11 -54 -11h-127v70h127q34 0 54 -10l2 2q-8 16 -8 57v389h593v-69h-471z" />
    <glyph glyph-name="uni0494" unicode="&#x494;" horiz-adv-x="1155" 
d="M745 831q173 0 261 -80t88 -257v-502q0 -197 -89.5 -299.5t-293.5 -102.5h-99v78h103q163 0 230 81.5t67 242.5v502q0 140 -70 195.5t-203 55.5q-113 0 -218 -19t-265 -64v-662h-82v1434h799v-78h-668q-41 0 -53 4l-2 -2q6 -18 6 -49v-510q0 -31 -6 -49l2 -2
q268 83 493 83z" />
    <glyph glyph-name="uni0495" unicode="&#x495;" horiz-adv-x="909" 
d="M446 -410v74h93q114 0 174.5 58t60.5 196v367q0 118 -55.5 166.5t-161.5 48.5q-138 0 -330 -78v-422h-73v946h610v-69h-488q-41 0 -57 8l-2 -2q10 -20 10 -54v-272q0 -41 -8 -57l2 -2q179 75 346 75q138 0 209.5 -67.5t71.5 -220.5v-371q0 -156 -73.5 -240t-225.5 -84
h-103z" />
    <glyph glyph-name="uni0496" unicode="&#x496;" horiz-adv-x="1912" 
d="M1769 51h82v-338h-82v287q-54 -4 -79 -4q-106 0 -166.5 45t-89.5 152l-99 362q-23 87 -78 125.5t-157 38.5h-92q-48 0 -64 4l-2 -2q10 -38 10 -86v-635h-80v635q0 44 11 86l-2 2q-16 -4 -64 -4h-92q-102 0 -157.5 -38.5t-78.5 -125.5l-98 -362q-29 -107 -89.5 -152
t-166.5 -45q-26 0 -80 4v82q50 -4 74 -4q77 0 121.5 32t66.5 117l91 355q23 89 76 130t147 46v4q-95 3 -153.5 48.5t-92.5 150.5l-88 266q-24 71 -71.5 100t-129.5 29q-19 0 -55 -4v82q40 4 82 4q89 0 149 -38t93 -134l92 -267q40 -116 100.5 -159t167.5 -43h92q40 0 64 -6
l2 2q-11 42 -11 81v560h80v-560q0 -43 -10 -81l2 -2q24 6 64 6h92q107 0 167.5 43t100.5 159l92 267q33 96 93 134t149 38q42 0 82 -4v-82q-36 4 -55 4q-82 0 -129.5 -29t-71.5 -100l-88 -266q-34 -105 -92.5 -150.5t-153.5 -48.5v-4q94 -5 147 -46t76 -130l90 -355
q22 -85 67 -117t122 -32q23 0 73 4v-31z" />
    <glyph glyph-name="uni0497" unicode="&#x497;" horiz-adv-x="1404" 
d="M1296 39h58v-326h-74v283h-57q-78 0 -121.5 38t-65.5 111l-49 174q-40 140 -174 140h-59q-48 0 -64 4l-2 -2q10 -38 10 -86v-375h-69v375q0 48 10 86l-2 2q-16 -4 -64 -4h-59q-134 0 -174 -140l-49 -174q-22 -73 -65.5 -111t-121.5 -38h-73v70h67q48 0 77 27t44 83
l57 193q20 65 65 93.5t124 31.5v4q-81 3 -128.5 33.5t-76.5 111.5l-57 152q-31 86 -111 86h-61v69h67q124 0 170 -119l62 -159q30 -77 71.5 -110.5t112.5 -33.5h59q48 0 64 -4l2 2q-10 38 -10 82v338h69v-338q0 -44 -10 -82l2 -2q16 4 64 4h59q71 0 112.5 33.5t71.5 110.5
l62 159q46 119 170 119h67v-69h-61q-80 0 -111 -86l-57 -152q-29 -81 -76.5 -111.5t-128.5 -33.5v-4q79 -3 124 -31.5t65 -93.5l57 -193q15 -56 44 -83t77 -27h67v-27z" />
    <glyph glyph-name="uni0498" unicode="&#x498;" horiz-adv-x="1204" 
d="M1081 385q0 -193 -116.5 -301.5t-354.5 -114.5l-24 -61q164 -35 164 -144q0 -35 -15 -63t-54.5 -55.5t-64 -41t-86.5 -43.5q-13 -7 -20 -10l-21 41q98 53 140.5 87.5t42.5 74.5q0 37 -36 58t-120 36l43 121q-271 5 -467 121l41 80q199 -119 447 -119q415 0 415 334
q0 178 -120.5 261t-358.5 83h-203v72h201q201 0 313.5 79.5t112.5 231.5q0 124 -87 197t-259 73q-121 0 -238 -27.5t-206 -78.5l-39 76q200 112 483 112q216 0 324 -91t108 -257q0 -121 -65 -201t-181 -116q-77 -24 -172 -29v-4q98 0 168 -12q140 -25 222.5 -114.5
t82.5 -254.5z" />
    <glyph glyph-name="uni0499" unicode="&#x499;" horiz-adv-x="921" 
d="M829 246q0 -132 -93.5 -202.5t-276.5 -74.5l-25 -61q164 -35 164 -144q0 -35 -15 -63t-54.5 -55.5t-64 -41t-86.5 -43.5q-13 -7 -20 -10l-20 41q98 53 140 87.5t42 74.5q0 37 -35.5 58t-119.5 36l43 121q-188 5 -367 90l37 70q176 -86 371 -86q303 0 303 211
q0 111 -76 161t-248 50h-111v70h111q279 0 279 194q0 91 -70.5 132.5t-192.5 41.5q-168 0 -346 -76l-30 70q181 80 374 80q166 0 254 -60t88 -180q0 -210 -262 -231v-6q148 -7 227.5 -64t79.5 -190z" />
    <glyph glyph-name="uni049A" unicode="&#x49a;" horiz-adv-x="1277" 
d="M1165 51h52v-338h-82v285q-16 -2 -50 -2q-109 0 -169.5 43t-90.5 154l-94 362q-23 87 -78 125.5t-157 38.5h-185q-47 0 -63 4l-2 -2q10 -38 10 -86v-635h-82v1434h82v-560q0 -43 -10 -81l2 -2q24 6 63 6h185q106 0 165 42.5t99 159.5l92 267q59 172 246 172q42 0 82 -4
v-82q-36 4 -56 4q-81 0 -129 -30t-71 -99l-88 -266q-36 -110 -94 -153t-152 -46v-4q94 -5 146 -42t77 -134l90 -355q22 -85 67 -117t122 -32q23 0 73 4v-31z" />
    <glyph glyph-name="uni049B" unicode="&#x49b;" horiz-adv-x="1005" 
d="M897 39h57v-326h-73v283h-58q-79 0 -121 35.5t-65 113.5l-49 174q-40 140 -174 140h-131q-48 0 -64 4l-2 -2q10 -38 10 -86v-375h-73v946h73v-338q0 -44 -10 -82l2 -2q16 4 64 4h131q71 0 112.5 33.5t71.5 110.5l61 159q46 119 170 119h68v-69h-61q-79 0 -111 -86
l-57 -152q-34 -87 -75 -114.5t-130 -30.5v-4q87 -3 126.5 -29t61.5 -96l58 -193q31 -110 120 -110h68v-27z" />
    <glyph glyph-name="uni049C" unicode="&#x49c;" horiz-adv-x="1220" 
d="M836 961q-36 -110 -94 -153t-152 -46v-4q94 -5 146 -42t77 -134l90 -355q22 -85 67 -117t122 -32q23 0 73 4v-82q-54 -4 -80 -4q-109 0 -169.5 43t-90.5 154l-94 362q-23 87 -78 125.5t-157 38.5h-33v-328h-62v328h-90q-47 0 -63 4l-2 -2q10 -38 10 -86v-635h-82v1434h82
v-560q0 -43 -10 -81l2 -2q24 6 63 6h90v321h62v-321h33q106 0 165 42.5t99 159.5l92 267q59 172 246 172q42 0 82 -4v-82q-36 4 -56 4q-81 0 -129 -30t-71 -99z" />
    <glyph glyph-name="uni049D" unicode="&#x49d;" horiz-adv-x="927" 
d="M668 643q-34 -87 -75 -114.5t-130 -30.5v-4q87 -3 126.5 -29t61.5 -96l58 -193q31 -110 120 -110h68v-70h-74q-79 0 -121 35.5t-65 113.5l-49 174q-40 140 -174 140h-27v-275h-57v275h-47q-48 0 -64 4l-2 -2q10 -38 10 -86v-375h-73v946h73v-338q0 -44 -10 -82l2 -2
q16 4 64 4h47v269h57v-269h27q71 0 112.5 33.5t71.5 110.5l61 159q46 119 170 119h68v-69h-61q-79 0 -111 -86z" />
    <glyph glyph-name="uni049E" unicode="&#x49e;" horiz-adv-x="1347" 
d="M963 961q-36 -110 -94 -153t-152 -46v-4q94 -5 146 -42t77 -134l90 -355q22 -85 67 -117t122 -32q23 0 73 4v-82q-54 -4 -80 -4q-109 0 -169.5 43t-90.5 154l-94 362q-23 87 -78 125.5t-157 38.5h-185q-47 0 -63 4l-2 -2q10 -38 10 -86v-635h-82v1049q0 31 6 49l-2 2
q-12 -4 -53 -4h-232v78h232q38 0 53 -5l2 2q-6 18 -6 50v213h82v-213q0 -32 -6 -50l2 -2q15 5 53 5h273v-78h-273q-41 0 -53 4l-2 -2q6 -18 6 -49v-175q0 -43 -10 -81l2 -2q24 6 63 6h185q106 0 165 42.5t99 159.5l92 267q32 94 97.5 133t168.5 39q22 0 62 -4v-82
q-36 4 -56 4q-81 0 -129 -30t-71 -99z" />
    <glyph glyph-name="uni049F" unicode="&#x49f;" horiz-adv-x="968" 
d="M709 643q-34 -87 -75 -114.5t-130 -30.5v-4q87 -3 126.5 -29t61.5 -96l58 -193q31 -110 120 -110h68v-70h-74q-79 0 -121 35.5t-65 113.5l-49 174q-40 140 -174 140h-131q-48 0 -64 4l-2 -2q10 -38 10 -86v-375h-73v1137q0 41 8 57l-2 2q-20 -10 -54 -10h-147v61h147
q34 0 54 -10l2 2q-8 16 -8 57v168h73v-168q0 -41 -8 -57l2 -2q20 10 53 10h344v-61h-344q-33 0 -53 10l-2 -2q8 -16 8 -57v-529q0 -44 -10 -82l2 -2q16 4 64 4h131q71 0 112.5 33.5t71.5 110.5l61 159q46 119 170 119h68v-69h-61q-79 0 -111 -86z" />
    <glyph glyph-name="uni04A0" unicode="&#x4a0;" horiz-adv-x="1460" 
d="M1075 961q-36 -110 -94 -153t-152 -46v-4q95 -5 147 -42t77 -134l90 -355q22 -85 66.5 -117t121.5 -32q24 0 74 4v-82q-54 -4 -80 -4q-109 0 -169.5 43t-90.5 154l-94 362q-23 87 -78.5 125.5t-157.5 38.5h-184q-48 0 -64 4l-2 -2q11 -42 11 -86v-635h-82v1309q0 31 6 49
l-2 2q-12 -4 -53 -4h-345v78h476v-560q0 -39 -11 -81l2 -2q24 6 64 6h184q106 0 165 42.5t99 159.5l93 267q34 96 98.5 134t167.5 38q21 0 61 -4v-82q-36 4 -55 4q-81 0 -129.5 -30t-71.5 -99z" />
    <glyph glyph-name="uni04A1" unicode="&#x4a1;" horiz-adv-x="1110" 
d="M850 643q-34 -87 -75 -114.5t-130 -30.5v-4q87 -3 127 -29t62 -96l57 -193q31 -110 121 -110h67v-70h-73q-79 0 -121.5 35.5t-65.5 113.5l-49 174q-40 140 -174 140h-131q-48 0 -64 4l-2 -2q11 -42 11 -86v-375h-74v829q0 34 10 54l-2 2q-16 -8 -57 -8h-277v69h400v-338
q0 -40 -11 -82l2 -2q16 4 64 4h131q71 0 112.5 33.5t71.5 110.5l62 159q46 119 170 119h67v-69h-61q-79 0 -111 -86z" />
    <glyph glyph-name="uni04A2" unicode="&#x4a2;" horiz-adv-x="1351" 
d="M1239 51h51v-338h-82v287h-51v684q0 31 6 49l-2 2q-12 -4 -53 -4h-803q-41 0 -53 4l-2 -2q6 -18 6 -49v-684h-82v1434h82v-578q0 -31 -6 -49l2 -2q12 4 53 4h803q41 0 53 -4l2 2q-6 18 -6 49v578h82v-1383z" />
    <glyph glyph-name="uni04A3" unicode="&#x4a3;" horiz-adv-x="1054" 
d="M946 39h58v-326h-74v287h-58v426q0 39 9 57l-2 2q-20 -10 -54 -10h-551q-33 0 -53 10l-2 -2q8 -16 8 -57v-426h-73v946h73v-352q0 -41 -8 -57l2 -2q20 10 53 10h551q34 0 54 -10l2 2q-9 18 -9 57v352h74v-907z" />
    <glyph glyph-name="uni04A4" unicode="&#x4a4;" horiz-adv-x="1812" 
d="M1116 1434h676v-78h-545q-41 0 -53 4l-2 -2q6 -18 6 -49v-1309h-82v684q0 31 6 49l-2 2q-12 -4 -53 -4h-762q-41 0 -53 4l-2 -2q6 -18 6 -49v-684h-82v1434h82v-578q0 -31 -6 -49l2 -2q12 4 53 4h762q41 0 53 -4l2 2q-6 18 -6 49v578z" />
    <glyph glyph-name="uni04A5" unicode="&#x4a5;" horiz-adv-x="1351" 
d="M829 946h512v-69h-389q-41 0 -57 8l-2 -2q10 -20 10 -54v-829h-74v426q0 39 9 57l-2 2q-20 -10 -54 -10h-508q-33 0 -53 10l-2 -2q8 -16 8 -57v-426h-73v946h73v-352q0 -41 -8 -57l2 -2q20 10 53 10h508q34 0 54 -10l2 2q-9 18 -9 57v352z" />
    <glyph glyph-name="uni04A6" unicode="&#x4a6;" horiz-adv-x="2158" 
d="M1749 872q172 0 260 -80t88 -257v-175q0 -186 -80 -273t-280 -87h-162v78h164q82 -1 136 16t85 54t43 87t12 125v175q0 143 -70 200.5t-202 57.5q-116 0 -229.5 -19.5t-274.5 -64.5v-709h-82v1309q0 31 6 49l-2 2q-12 -4 -53 -4h-803q-41 0 -53 4l-2 -2q6 -18 6 -49
v-1309h-82v1434h1065v-594q0 -31 -6 -49l2 -3q281 84 514 84z" />
    <glyph glyph-name="uni04A7" unicode="&#x4a7;" horiz-adv-x="1597" 
d="M1266 573q138 0 209 -67.5t71 -220.5v-371q0 -156 -73.5 -240t-225.5 -84h-102v74h92q115 0 175.5 58t60.5 196v367q0 118 -56 166.5t-162 48.5q-137 0 -329 -78v-422h-74v635v194q0 34 10 54l-2 2q-16 -8 -57 -8h-527q-41 0 -57 8l-2 -2q10 -20 10 -54v-829h-73v946h772
v-389q0 -41 -8 -57l2 -2q179 75 346 75z" />
    <glyph glyph-name="uni04A8" unicode="&#x4a8;" horiz-adv-x="1552" 
d="M784 -31q-194 0 -347 97t-238.5 271t-85.5 394q0 217 83 383.5t235.5 258t350.5 91.5q137 0 248 -47l-37 -74q-121 39 -217 39q-256 0 -416.5 -182.5t-160.5 -474.5q0 -296 167 -485t429 -189q61 0 124.5 12.5t69.5 12.5v4q-24 3 -39.5 11t-42.5 32q-98 85 -152.5 223.5
t-54.5 302.5q0 230 98.5 361t270.5 131q169 0 265 -125t96 -346q0 -188 -69 -340.5t-192 -237.5q-20 -13 -55 -24v-5q18 0 63.5 -9t94.5 -9q117 0 213 59l37 -69q-109 -66 -232 -66q-75 0 -142.5 19t-86.5 45h-4q-44 -29 -119 -46.5t-154 -17.5zM1049 98h4q4 8 51 43
q239 177 239 512q0 189 -73 297.5t-201 108.5q-129 0 -206 -112.5t-77 -301.5q0 -158 57 -289.5t161 -214.5q17 -12 45 -43z" />
    <glyph glyph-name="uni04A9" unicode="&#x4a9;" horiz-adv-x="1124" 
d="M565 -31q-135 0 -240 53.5t-169 166.5t-64 272q0 235 135 375.5t365 140.5q113 0 209 -35l-31 -68q-85 29 -176 29q-193 0 -308.5 -118.5t-115.5 -321.5q0 -195 107.5 -307.5t287.5 -112.5q27 0 80 6v4q-34 10 -63 43q-103 103 -103 281q0 150 71.5 231.5t199.5 81.5
q131 0 198.5 -83t67.5 -216q0 -197 -146 -313q-32 -24 -61 -29v-4q9 -1 36 -4.5t52 -3.5q86 0 178 47l29 -66q-100 -49 -207 -49q-103 0 -152 35h-4q-84 -35 -176 -35zM711 68h4q105 37 164 122.5t59 200.5q0 99 -45.5 162t-140.5 63q-88 0 -141.5 -58.5t-53.5 -182.5
q0 -178 113 -266q4 -3 15.5 -12t17.5 -15.5t8 -13.5z" />
    <glyph glyph-name="uni04AA" unicode="&#x4aa;" horiz-adv-x="1439" 
d="M1348 135q-222 -166 -494 -166l-25 -61q164 -35 164 -144q0 -35 -16.5 -64t-51.5 -54t-67 -42.5t-85 -43.5q-4 -2 -6.5 -3t-6 -3t-6.5 -3l-21 41q98 53 140 87.5t42 74.5q0 37 -35.5 58t-119.5 36l43 123q-321 15 -516 219.5t-195 526.5q0 221 94.5 390.5t267.5 263
t398 93.5q141 0 261 -40t235 -126l-52 -69q-109 82 -212.5 117.5t-231.5 35.5q-299 0 -486.5 -185t-187.5 -480t187.5 -480.5t486.5 -185.5q127 0 231 36t213 118z" />
    <glyph glyph-name="uni04AB" unicode="&#x4ab;" horiz-adv-x="991" 
d="M598 -31h-8l-25 -61q164 -35 164 -144q0 -35 -15 -63t-54.5 -55.5t-64 -41t-86.5 -43.5q-13 -7 -20 -10l-20 41q98 53 140 87.5t42 74.5q0 37 -35.5 58t-119.5 36l45 123q-203 19 -326 156t-123 346q0 224 140 364t366 140q173 0 322 -92l-39 -68q-144 86 -287 86
q-183 0 -303.5 -122t-120.5 -308t120.5 -308t303.5 -122q143 0 287 86l39 -68q-149 -92 -322 -92z" />
    <glyph glyph-name="uni04AC" unicode="&#x4ac;" horiz-adv-x="1040" 
d="M610 1356q-41 0 -53 4l-2 -2q6 -18 6 -49v-1258h62v-338h-82v287h-62v1309q0 31 6 49l-2 2q-12 -4 -53 -4h-410v78h1000v-78h-410z" />
    <glyph glyph-name="uni04AD" unicode="&#x4ad;" horiz-adv-x="917" 
d="M545 877q-42 0 -58 8l-2 -2q11 -22 11 -54v-790h57v-326h-74v287h-57v829q0 34 10 54l-2 2q-16 -8 -57 -8h-363v69h897v-69h-362z" />
    <glyph glyph-name="uni04AE" unicode="&#x4ae;" horiz-adv-x="1097" 
d="M1067 1434l-477 -891v-543h-82v543l-477 891h106l342 -660q33 -63 45 -94.5t23 -79.5h4q11 50 23 81t44 93l343 660h106z" />
    <glyph glyph-name="uni04AF" unicode="&#x4af;" horiz-adv-x="942" 
d="M922 946l-404 -874v-482h-74v439l-424 917h95l278 -624q3 -6 12.5 -27.5t11.5 -26t9.5 -22t9.5 -23t7.5 -20t7.5 -22.5t6 -21t6.5 -24.5t5.5 -24.5h4q3 13 5.5 24.5t6.5 24.5t6 21t7.5 22.5t7.5 20t9.5 23t9.5 22t11.5 26t12.5 27.5l278 624h95z" />
    <glyph glyph-name="uni04B0" unicode="&#x4b0;" horiz-adv-x="1097" 
d="M592 535q12 4 53 4h246v-78h-252q-41 0 -53 4l-2 -2q6 -18 6 -49v-414h-82v414q0 31 6 49l-2 2q-12 -4 -53 -4h-252v78h246q41 0 53 -4l2 2l-477 897h110l338 -660q48 -97 68 -174h4q21 81 67 174l338 660h111l-477 -897z" />
    <glyph glyph-name="uni04B1" unicode="&#x4b1;" horiz-adv-x="983" 
d="M522 31q20 10 53 10h273v-61h-273q-33 0 -53 10l-2 -2q8 -16 8 -58v-340h-73v340q0 42 8 58l-2 2q-20 -10 -53 -10h-273v61h273q33 0 53 -10l2 2l-422 913h94l279 -624q26 -58 35 -79.5t20.5 -57.5t19.5 -74h5q8 38 19.5 74t20.5 57.5t35 79.5l279 624h94l-422 -913z" />
    <glyph glyph-name="uni04B2" unicode="&#x4b2;" horiz-adv-x="1257" 
d="M1118 51h78v-338h-82v287h-67l-383 582q-56 85 -68 118h-8q-13 -36 -68 -118l-383 -582h-106l364 547q114 171 146 205v4q-29 35 -107 149l-354 529h106l316 -480q8 -12 19.5 -29t16.5 -24.5t12.5 -19.5t11 -17.5t8 -13.5t7 -13.5t5.5 -12t6 -13.5h8q3 7 6 13.5t5.5 12
t7 13.5t8 13.5t11 17.5t12.5 19.5t16.5 24.5t19.5 29l315 480h107l-354 -529q-69 -103 -107 -149v-4q12 -13 21 -24.5t23.5 -31.5t23.5 -33.5t34.5 -51.5t42.5 -64z" />
    <glyph glyph-name="uni04B3" unicode="&#x4b3;" horiz-adv-x="976" 
d="M862 39h64v-326h-74v287h-51l-287 362q-32 41 -55 91h-4q-21 -47 -56 -91l-286 -362h-93l336 432q36 46 54 64v6q-23 18 -62 69l-293 375h92l252 -319q34 -42 56 -90h4q23 51 55 90l252 319h92l-293 -375q-41 -53 -61 -69v-6q13 -13 53 -64z" />
    <glyph glyph-name="uni04B4" unicode="&#x4b4;" horiz-adv-x="1677" 
d="M1505 78h80v-365h-82v240q0 31 6 49l-2 2q-12 -4 -53 -4h-934v1309q0 31 6 49l-2 2q-12 -4 -53 -4h-451v78h1041v-78h-410q-41 0 -53 4l-2 -2q6 -18 6 -49v-1184q0 -31 -6 -49l2 -2q12 4 53 4h674q41 0 53 -4l2 2q-6 18 -6 49v1309h82v-1309q0 -31 -6 -49l2 -2q12 4 53 4
z" />
    <glyph glyph-name="uni04B5" unicode="&#x4b5;" horiz-adv-x="1257" 
d="M1139 70h47v-357h-74v240q0 33 10 53l-2 2q-16 -8 -57 -8h-682v829q0 34 10 54l-2 2q-16 -8 -57 -8h-322v69h774v-69h-280q-42 0 -58 8l-2 -2q11 -22 11 -54v-712q0 -32 -11 -54l2 -2q18 9 58 9h463q39 0 57 -9l2 2q-10 20 -10 54v829h74v-829q0 -32 -11 -54l2 -2
q18 9 58 9z" />
    <glyph glyph-name="uni04B6" unicode="&#x4b6;" horiz-adv-x="1124" 
d="M1001 51h62v-338h-82v287h-61v635q0 31 6 49l-2 2q-271 -84 -494 -84q-182 0 -275.5 95.5t-93.5 303.5v433h82v-433q0 -91 20.5 -153.5t61 -96.5t91.5 -48.5t120 -14.5q109 0 217 19.5t267 64.5v662h81v-1383z" />
    <glyph glyph-name="uni04B7" unicode="&#x4b7;" horiz-adv-x="851" 
d="M743 39h58v-326h-74v287h-57v391q0 42 8 58l-2 2q-178 -76 -336 -76q-151 0 -230 68t-79 221v282h73v-282q0 -118 63.5 -166.5t182.5 -48.5q134 0 320 77v420h73v-606v-301z" />
    <glyph glyph-name="uni04B8" unicode="&#x4b8;" horiz-adv-x="1175" 
d="M920 1434h81v-1434h-81v635q0 31 6 49l-2 2q-187 -59 -359 -76v-276h-61v270q-25 -2 -74 -2q-182 0 -275.5 95.5t-93.5 303.5v433h82v-433q0 -91 20.5 -153.5t61 -96.5t91.5 -48.5t120 -14.5q45 0 68 2v371h61v-367q139 16 355 78v662z" />
    <glyph glyph-name="uni04B9" unicode="&#x4b9;" horiz-adv-x="886" 
d="M670 946h73v-606v-340h-73v391q0 42 8 58l-2 2q-140 -59 -264 -72v-195h-58v191h-14q-151 0 -230 68t-79 221v282h73v-282q0 -118 63.5 -166.5t182.5 -48.5h4v245h58v-241q106 10 258 73v420z" />
    <glyph glyph-name="uni04BA" unicode="&#x4ba;" horiz-adv-x="1175" 
d="M256 1434v-635q0 -31 -6 -49l2 -2q268 83 493 83q182 0 275.5 -95.5t93.5 -303.5v-432h-82v432q0 91 -20.5 153.5t-61 96.5t-91.5 48.5t-120 14.5q-110 0 -217.5 -19t-265.5 -64v-662h-82v1434h82z" />
    <glyph glyph-name="uni04BB" unicode="&#x4bb;" horiz-adv-x="1132" 
d="M238 1464v-577q0 -173 -17 -260l8 -4q79 354 392 354q180 0 274 -107.5t94 -310.5v-559h-74v559q0 163 -78 253.5t-219 90.5q-178 0 -279 -130t-101 -359v-414h-74v1464h74z" />
    <glyph glyph-name="uni04BC" unicode="&#x4bc;" horiz-adv-x="1847" 
d="M1065 -31q-150 0 -281 48t-226.5 133.5t-156.5 207.5t-75 267q-3 23 2 53l-2 2q-25 -8 -76 -8q-105 0 -162 57.5t-57 169.5q0 67 18 133h82q-23 -74 -20 -143q2 -75 39 -108t133 -33q30 0 45 -5l2 2q-7 24 -2 78q21 188 113.5 332.5t250.5 226.5t359 82q216 0 376.5 -95
t244 -263.5t83.5 -388.5v-45h-1290q-37 0 -62 8l-2 -4q7 -24 11 -51q26 -259 205 -416.5t446 -157.5q163 0 298.5 59.5t231.5 163.5l58 -65q-106 -109 -256 -174.5t-330 -65.5zM403 743q29 7 60 7h1122q72 0 88 -9l4 4q-7 27 -12 68q-30 264 -189.5 416.5t-424.5 152.5
q-266 0 -436 -152.5t-201 -406.5q-11 -64 -15 -78z" />
    <glyph glyph-name="uni04BD" unicode="&#x4bd;" horiz-adv-x="1275" 
d="M735 -31q-220 0 -352.5 134.5t-132.5 349.5q0 14 2 22l-2 2q-24 -8 -68 -8q-172 0 -172 197q0 47 17 110h67q-16 -59 -16 -106q0 -72 22 -101.5t86 -29.5q30 0 66 -9l2 2q-3 8 0 23q25 196 151.5 309t317.5 113q97 0 176 -27.5t131 -73.5t87.5 -109t51 -132.5
t15.5 -145.5v-20h-785q-46 0 -73 8l-2 -2l4 -16q0 -191 111 -303.5t294 -112.5q75 0 135.5 17t106 51t72.5 62t61 73l57 -47q-157 -230 -430 -230zM330 524q27 15 71 15h627q37 0 74 -13l2 2q-14 176 -110 275.5t-269 99.5q-163 0 -272.5 -99t-124.5 -278z" />
    <glyph glyph-name="uni04BE" unicode="&#x4be;" horiz-adv-x="1847" 
d="M465 672q-37 0 -62 8l-2 -4q7 -24 11 -51q26 -259 205 -416.5t446 -157.5q163 0 298.5 59.5t231.5 163.5l58 -65q-127 -130 -295 -191q-116 -79 -174 -141t-58 -115q0 -75 111 -75q52 0 106 14l5 -66q-63 -18 -119 -18q-74 0 -126 33.5t-52 99.5q0 109 145 230
q-75 -11 -129 -11q-150 0 -281 48t-226.5 133.5t-156.5 207.5t-75 267q-3 23 2 53l-2 2q-25 -8 -76 -8q-105 0 -162 57.5t-57 169.5q0 67 18 133h82q-23 -74 -20 -143q2 -75 39 -108t133 -33q30 0 45 -5l2 2q-7 24 -2 78q21 188 113.5 332.5t250.5 226.5t359 82
q216 0 376.5 -95t244 -263.5t83.5 -388.5v-45h-1290zM399 745l4 -2q29 7 60 7h1122q72 0 88 -9l4 4q-7 27 -12 68q-30 264 -189.5 416.5t-424.5 152.5q-266 0 -436 -152.5t-201 -406.5q-11 -64 -15 -78z" />
    <glyph glyph-name="uni04BF" unicode="&#x4bf;" horiz-adv-x="1275" 
d="M399 469q-46 0 -73 8l-2 -2l4 -16q0 -191 111 -303.5t294 -112.5q75 0 135.5 17t106 51t72.5 62t61 73l57 -47q-85 -125 -198 -181q-116 -79 -174 -141t-58 -115q0 -75 111 -75q52 0 106 14l4 -66q-63 -18 -118 -18q-75 0 -127 33.5t-52 99.5q0 104 138 221q-8 0 -29 -1
t-33 -1q-220 0 -352.5 134.5t-132.5 349.5q0 14 2 22l-2 2q-24 -8 -68 -8q-172 0 -172 197q0 47 17 110h67q-16 -59 -16 -106q0 -72 22 -101.5t86 -29.5q30 0 66 -9l2 2q-3 8 0 23q25 196 151.5 309t317.5 113q97 0 176 -27.5t131 -73.5t87.5 -109t51 -132.5t15.5 -145.5
v-20h-785zM725 903q-163 0 -272.5 -99t-124.5 -278l2 -2q27 15 71 15h627q37 0 74 -13l2 2q-14 176 -110 275.5t-269 99.5z" />
    <glyph glyph-name="uni04C0" unicode="&#x4c0;" horiz-adv-x="430" 
d="M256 1434v-1434h-82v1434h82z" />
    <glyph glyph-name="uni04C1" unicode="&#x4c1;" horiz-adv-x="1824" 
d="M1192 1767q0 -125 -77.5 -195.5t-201.5 -70.5t-201 70.5t-77 195.5h70q3 -94 58 -146t150 -52t150.5 52t58.5 146h70zM135 -4q-26 0 -80 4v82q50 -4 74 -4q77 0 121.5 32t66.5 117l91 355q23 89 76 130t147 46v4q-95 3 -153.5 48.5t-92.5 150.5l-88 266q-24 71 -71.5 100
t-129.5 29q-19 0 -55 -4v82q40 4 82 4q89 0 149 -38t93 -134l92 -267q40 -116 100.5 -159t167.5 -43h92q40 0 64 -6l2 2q-11 42 -11 81v560h80v-560q0 -43 -10 -81l2 -2q24 6 64 6h92q107 0 167.5 43t100.5 159l92 267q33 96 93 134t149 38q42 0 82 -4v-82q-36 4 -55 4
q-82 0 -129.5 -29t-71.5 -100l-88 -266q-34 -105 -92.5 -150.5t-153.5 -48.5v-4q94 -5 147 -46t76 -130l90 -355q22 -85 67 -117t122 -32q23 0 73 4v-82q-54 -4 -79 -4q-106 0 -166.5 45t-89.5 152l-99 362q-23 87 -78 125.5t-157 38.5h-92q-48 0 -64 4l-2 -2q10 -38 10 -86
v-635h-80v635q0 44 11 86l-2 2q-16 -4 -64 -4h-92q-102 0 -157.5 -38.5t-78.5 -125.5l-98 -362q-29 -107 -89.5 -152t-166.5 -45z" />
    <glyph glyph-name="uni04C2" unicode="&#x4c2;" horiz-adv-x="1327" 
d="M942 1331q0 -134 -77 -210.5t-201 -76.5t-201.5 76.5t-77.5 210.5h70q3 -103 58.5 -161t150.5 -58t150 58t58 161h70zM31 -4v70h67q48 0 77 27t44 83l57 193q20 65 65 93.5t124 31.5v4q-81 3 -128.5 33.5t-76.5 111.5l-57 152q-31 86 -111 86h-61v69h67q124 0 170 -119
l62 -159q30 -77 71.5 -110.5t112.5 -33.5h59q48 0 64 -4l2 2q-10 38 -10 82v338h69v-338q0 -44 -10 -82l2 -2q16 4 64 4h59q71 0 112.5 33.5t71.5 110.5l62 159q46 119 170 119h67v-69h-61q-80 0 -111 -86l-57 -152q-29 -81 -76.5 -111.5t-128.5 -33.5v-4q79 -3 124 -31.5
t65 -93.5l57 -193q15 -56 44 -83t77 -27h67v-70h-73q-78 0 -121.5 38t-65.5 111l-49 174q-40 140 -174 140h-59q-48 0 -64 4l-2 -2q10 -38 10 -86v-375h-69v375q0 48 10 86l-2 2q-16 -4 -64 -4h-59q-134 0 -174 -140l-49 -174q-22 -73 -65.5 -111t-121.5 -38h-73z" />
    <glyph glyph-name="uni04C3" unicode="&#x4c3;" horiz-adv-x="1200" 
d="M793 961q-32 -95 -89.5 -143t-168.5 -60v-4q118 -1 205 -13t159 -39t116.5 -72t68.5 -113.5t24 -162.5v-362q0 -197 -89.5 -299.5t-293.5 -102.5h-98v78h102q163 0 230 81.5t67 242.5v362q0 55 -12.5 101t-32.5 80.5t-55.5 62t-70.5 46t-88 32t-99 21.5t-112.5 12.5
t-118 6.5t-126.5 3q-47 0 -63 4l-2 -2q10 -38 10 -86v-635h-82v1434h82v-568q0 -44 -10 -82l2 -2q24 6 63 6h144q106 0 164 44t100 167l92 267q31 91 93.5 131.5t158.5 40.5q40 0 76 -4v-82q-36 4 -60 4q-79 0 -126 -30.5t-70 -98.5z" />
    <glyph glyph-name="uni04C4" unicode="&#x4c4;" horiz-adv-x="927" 
d="M668 643q-34 -86 -74.5 -112t-130.5 -29v-4q76 -1 133 -9t107.5 -29.5t82.5 -57.5t50 -92.5t18 -133.5v-262q0 -156 -73.5 -240t-225.5 -84h-102v74h92q114 0 174.5 58t60.5 196v258q0 68 -19.5 119t-51.5 81.5t-79 49.5t-94 26t-104 7h-149q-48 0 -64 4l-2 -2
q10 -38 10 -86v-375h-73v946h73v-338q0 -44 -10 -82l2 -2q16 4 64 4h131q71 0 112.5 33.5t71.5 110.5l61 159q46 119 170 119h68v-69h-61q-79 0 -111 -86z" />
    <glyph glyph-name="uni04C5" unicode="&#x4c5;" horiz-adv-x="1472" 
d="M1300 115h80l-123 -402h-75l84 287h-47v1309q0 31 6 49l-2 2q-12 -4 -54 -4h-731q-41 0 -53 4l-2 -2q6 -18 6 -49v-1039q0 -143 -58.5 -211.5t-185.5 -68.5q-12 0 -94 4v82q78 -4 88 -4q85 0 126.5 45.5t41.5 152.5v1164h993v-1319z" />
    <glyph glyph-name="uni04C6" unicode="&#x4c6;" horiz-adv-x="1067" 
d="M926 115h80l-123 -402h-76l84 287h-39v829q0 34 10 54l-2 2q-16 -8 -57 -8h-434q-42 0 -58 8l-2 -2q10 -20 10 -54v-608q0 -225 -198 -225h-90v70h90q125 0 125 155v725h680v-831z" />
    <glyph glyph-name="uni04C7" unicode="&#x4c7;" horiz-adv-x="1413" 
d="M1157 1434h82v-1581q0 -133 -74.5 -198t-203.5 -65h-111v78h115q192 0 192 185v258v573q0 31 6 49l-2 2q-12 -4 -53 -4h-803q-41 0 -53 4l-2 -2q6 -18 6 -49v-684h-82v1434h82v-578q0 -31 -6 -49l2 -2q12 4 53 4h803q41 0 53 -4l2 2q-6 18 -6 49v578z" />
    <glyph glyph-name="uni04C8" unicode="&#x4c8;" horiz-adv-x="1099" 
d="M872 946h74v-1087q0 -129 -61.5 -199t-175.5 -70h-107v72h111q74 0 116.5 49.5t42.5 147.5v567q0 39 9 57l-2 2q-20 -10 -54 -10h-551q-33 0 -53 10l-2 -2q8 -16 8 -57v-426h-73v946h73v-352q0 -41 -8 -57l2 -2q20 10 53 10h551q34 0 54 -10l2 2q-9 18 -9 57v352z" />
    <glyph glyph-name="uni04C9" unicode="&#x4c9;" horiz-adv-x="1411" 
d="M1239 115h80l-123 -402h-76l84 287h-47v684q0 31 6 49l-2 2q-12 -4 -53 -4h-803q-41 0 -53 4l-2 -2q6 -18 6 -49v-684h-82v1434h82v-578q0 -31 -6 -49l2 -2q12 4 53 4h803q41 0 53 -4l2 2q-6 18 -6 49v578h82v-1319z" />
    <glyph glyph-name="uni04CA" unicode="&#x4ca;" horiz-adv-x="1097" 
d="M946 115h80l-123 -402h-76l84 287h-39v426q0 39 9 57l-2 2q-20 -10 -54 -10h-551q-33 0 -53 10l-2 -2q8 -16 8 -57v-426h-73v946h73v-352q0 -41 -8 -57l2 -2q20 10 53 10h551q34 0 54 -10l2 2q-9 18 -9 57v352h74v-831z" />
    <glyph glyph-name="uni04CB" unicode="&#x4cb;" horiz-adv-x="1175" 
d="M1001 1434v-1434h-77v-287h-82v338h78v584q0 31 6 49l-2 2q-271 -84 -494 -84q-182 0 -275.5 95.5t-93.5 303.5v433h82v-433q0 -91 20.5 -153.5t61 -96.5t91.5 -48.5t120 -14.5q109 0 217 19.5t267 64.5v662h81z" />
    <glyph glyph-name="uni04CC" unicode="&#x4cc;" horiz-adv-x="897" 
d="M670 946h73v-606v-340h-53v-287h-74v326h54v352q0 42 8 58l-2 2q-178 -76 -336 -76q-151 0 -230 68t-79 221v282h73v-282q0 -118 63.5 -166.5t182.5 -48.5q134 0 320 77v420z" />
    <glyph glyph-name="uni04CD" unicode="&#x4cd;" horiz-adv-x="1761" 
d="M1671 115h80l-123 -402h-76l84 287h-22l-256 999q-38 151 -41 234h-8q-19 -110 -62 -232l-373 -1032h-8l-372 1032q-43 122 -62 232h-8q-3 -83 -41 -234l-256 -999h-86l371 1464h8l393 -1091q34 -93 53 -199h8q18 101 54 199l393 1091h8z" />
    <glyph glyph-name="uni04CE" unicode="&#x4ce;" horiz-adv-x="1327" 
d="M1237 115h80l-123 -402h-76l84 287h-10l-184 582q-38 121 -41 213h-6q-27 -120 -64 -211l-246 -602h-8l-246 602q-13 32 -22.5 58.5t-16 50t-9.5 36t-8.5 36t-6.5 30.5h-6q-3 -92 -41 -213l-185 -582h-82l304 967h8l258 -654q42 -110 55 -186h4q12 72 56 186l258 654h8z
" />
    <glyph glyph-name="uni04CF" unicode="&#x4cf;" horiz-adv-x="401" 
d="M238 946v-946h-74v946h74z" />
    <glyph glyph-name="uni04D0" unicode="&#x4d0;" horiz-adv-x="1331" 
d="M944 1767q0 -125 -77 -195.5t-201 -70.5t-201.5 70.5t-77.5 195.5h70q3 -94 58.5 -146t150.5 -52t150 52t58 146h70zM31 0l628 1464h13l628 -1464h-90l-209 487h-671l-209 -487h-90zM352 557q36 4 115 4h397q79 0 115 -4v2q-24 34 -59 119l-195 463q-49 117 -55 178h-8
q-6 -58 -56 -178l-194 -463q-34 -81 -60 -119v-2z" />
    <glyph glyph-name="uni04D1" unicode="&#x4d1;" horiz-adv-x="1042" 
d="M803 1331q0 -134 -77.5 -210.5t-201.5 -76.5t-201 76.5t-77 210.5h69q3 -103 58.5 -161t150.5 -58t150.5 58t58.5 161h70zM524 977q192 0 283.5 -89.5t91.5 -275.5v-612h-74q0 50 9 197l-5 2q-43 -106 -145.5 -168t-234.5 -62q-169 0 -273 94t-104 246q0 154 103 245
t280 91q131 0 232.5 -61t139.5 -162l7 2q-6 27 -7.5 52t-1.5 124q0 154 -72.5 226.5t-226.5 72.5t-331 -59l-23 80q199 57 352 57zM455 571q-135 0 -218 -73t-83 -193q0 -118 82 -189t219 -71q146 0 248 76.5t102 185.5t-102 186.5t-248 77.5z" />
    <glyph glyph-name="uni04D2" unicode="&#x4d2;" horiz-adv-x="1331" 
d="M455 1747h102v-225h-102v225zM774 1747h103v-225h-103v225zM31 0l628 1464h13l628 -1464h-90l-209 487h-671l-209 -487h-90zM352 557q36 4 115 4h397q79 0 115 -4v2q-24 34 -59 119l-195 463q-49 117 -55 178h-8q-6 -58 -56 -178l-194 -463q-34 -81 -60 -119v-2z" />
    <glyph glyph-name="uni04D3" unicode="&#x4d3;" horiz-adv-x="1042" 
d="M446 1311v-246h-102v246h102zM705 1311v-246h-103v246h103zM524 977q192 0 283.5 -89.5t91.5 -275.5v-612h-74q0 50 9 197l-5 2q-43 -106 -145.5 -168t-234.5 -62q-169 0 -273 94t-104 246q0 154 103 245t280 91q131 0 232.5 -61t139.5 -162l7 2q-6 27 -7.5 52t-1.5 124
q0 154 -72.5 226.5t-226.5 72.5t-331 -59l-23 80q199 57 352 57zM455 571q-135 0 -218 -73t-83 -193q0 -118 82 -189t219 -71q146 0 248 76.5t102 185.5t-102 186.5t-248 77.5z" />
    <glyph glyph-name="uni04D4" unicode="&#x4d4;" horiz-adv-x="1843" 
d="M1165 78h596v-78h-719v440q0 28 7 49l-2 3q-15 -5 -54 -5h-534l-336 -487h-92l983 1434h737v-78h-586q-41 0 -53 4l-2 -2q6 -18 6 -49v-428q0 -32 -6 -50l2 -2q15 5 53 5h531v-78h-531q-41 0 -53 4l-2 -2q6 -18 6 -49v-584q0 -31 -6 -49l2 -2q12 4 53 4zM1049 559
q-7 21 -7 49v654q0 45 7 106h-5q-17 -37 -59 -98l-432 -645q-30 -47 -68 -70l2 -2q35 8 115 8h391q42 0 54 -4z" />
    <glyph glyph-name="uni04D5" unicode="&#x4d5;" horiz-adv-x="1849" 
d="M453 -31q-168 0 -274.5 91.5t-106.5 246.5t101.5 246.5t272.5 91.5q131 0 235.5 -57.5t145.5 -165.5l7 2q-9 48 -9 176q0 158 -75 228.5t-224 70.5q-154 0 -331 -59l-23 80q188 57 346 57q184 0 271.5 -80.5t87.5 -226.5h4q27 135 140 221t279 86q96 0 174 -27.5
t130 -73.5t87 -109t50.5 -132.5t15.5 -145.5v-20h-784q-45 0 -72 6l-2 -2l2 -10q8 -192 118 -306t294 -114q59 0 110.5 13t85.5 30t70 48.5t54.5 53t47.5 58.5l58 -47q-29 -42 -60.5 -76t-83 -72.5t-124 -60t-158.5 -21.5q-100 0 -182 28.5t-135.5 78.5t-86.5 113t-43 135
h-6q-6 -160 -118 -257.5t-289 -97.5zM903 524q30 15 74 15h625q36 0 73 -13l2 2q-14 176 -110 275.5t-269 99.5q-163 0 -272.5 -99t-124.5 -278zM457 45q141 0 244.5 75t103.5 187q0 113 -104 188.5t-246 75.5t-221.5 -76t-79.5 -190t80 -187t223 -73z" />
    <glyph glyph-name="uni04D6" unicode="&#x4d6;" horiz-adv-x="1044" 
d="M877 1767q0 -125 -77.5 -195.5t-201.5 -70.5t-201.5 70.5t-77.5 195.5h70q3 -94 58.5 -146t150.5 -52t150.5 52t58.5 146h70zM952 1434v-78h-647q-41 0 -53 4l-2 -2q6 -18 6 -49v-428q0 -32 -6 -50l2 -2q15 5 53 5h584v-78h-584q-41 0 -53 4l-2 -2q6 -18 6 -49v-584
q0 -31 -6 -49l2 -2q12 4 53 4h658v-78h-789v1434h778z" />
    <glyph glyph-name="uni04D7" unicode="&#x4d7;" horiz-adv-x="1118" 
d="M862 1331q0 -134 -77 -210.5t-201 -76.5t-201.5 76.5t-77.5 210.5h70q3 -103 58.5 -161t150.5 -58t150.5 58t58.5 161h69zM575 977q206 0 328.5 -132.5t122.5 -355.5v-20h-784q-53 0 -74 8l-2 -2l4 -16q0 -190 112 -303t300 -113q114 0 200 47.5t168 155.5l58 -47
q-78 -113 -187 -171.5t-241 -58.5q-223 0 -355.5 138t-132.5 370q0 229 131 364.5t352 135.5zM573 903q-173 0 -281 -101.5t-122 -275.5l2 -2q24 15 72 15h626q30 0 74 -13l2 2q-13 180 -110.5 277.5t-262.5 97.5z" />
    <glyph glyph-name="uni04D8" unicode="&#x4d8;" horiz-adv-x="1617" 
d="M793 1464q159 0 293 -49.5t232 -142t153 -234t55 -317.5q0 -128 -27 -240t-83.5 -206.5t-139.5 -162t-200.5 -105.5t-260.5 -38q-171 0 -308.5 54.5t-228 153.5t-138.5 236.5t-48 303.5v45h1290q37 0 62 -8l2 4q-10 31 -10 51q-9 249 -186 411t-459 162
q-174 0 -313.5 -61t-233.5 -156l-58 66q109 105 264 169t343 64zM1446 692q-25 -6 -60 -6h-1126q-74 0 -88 8l-4 -4q8 -28 12 -67q30 -266 191 -419t444 -153q150 0 266.5 46t188 126.5t112 177t54.5 211.5q5 45 14 78z" />
    <glyph glyph-name="uni04D9" unicode="&#x4d9;" horiz-adv-x="1118" 
d="M543 -31q-206 0 -328.5 132.5t-122.5 355.5v20h785q52 0 73 -8l2 2l-4 16q0 190 -111.5 303t-299.5 113q-114 0 -200.5 -48t-168.5 -155l-57 48q159 229 428 229q223 0 355 -138t132 -370q0 -229 -131 -364.5t-352 -135.5zM545 43q173 0 281 101.5t122 275.5l-2 2
q-22 -14 -72 -14h-626q-34 0 -74 12l-2 -2q13 -180 110.5 -277.5t262.5 -97.5z" />
    <glyph glyph-name="uni04DA" unicode="&#x4da;" horiz-adv-x="1617" 
d="M582 1747h102v-225h-102v225zM901 1747h103v-225h-103v225zM793 1464q159 0 293 -49.5t232 -142t153 -234t55 -317.5q0 -128 -27 -240t-83.5 -206.5t-139.5 -162t-200.5 -105.5t-260.5 -38q-171 0 -308.5 54.5t-228 153.5t-138.5 236.5t-48 303.5v45h1290q37 0 62 -8l2 4
q-10 31 -10 51q-9 249 -186 411t-459 162q-174 0 -313.5 -61t-233.5 -156l-58 66q109 105 264 169t343 64zM1446 692q-25 -6 -60 -6h-1126q-74 0 -88 8l-4 -4q8 -28 12 -67q30 -266 191 -419t444 -153q150 0 266.5 46t188 126.5t112 177t54.5 211.5q5 45 14 78z" />
    <glyph glyph-name="uni04DB" unicode="&#x4db;" horiz-adv-x="1118" 
d="M453 1311v-246h-103v246h103zM711 1311v-246h-103v246h103zM543 -31q-206 0 -328.5 132.5t-122.5 355.5v20h785q52 0 73 -8l2 2l-4 16q0 190 -111.5 303t-299.5 113q-114 0 -200.5 -48t-168.5 -155l-57 48q159 229 428 229q223 0 355 -138t132 -370q0 -229 -131 -364.5
t-352 -135.5zM545 43q173 0 281 101.5t122 275.5l-2 2q-22 -14 -72 -14h-626q-34 0 -74 12l-2 -2q13 -180 110.5 -277.5t262.5 -97.5z" />
    <glyph glyph-name="uni04DC" unicode="&#x4dc;" horiz-adv-x="1824" 
d="M702 1747h103v-225h-103v225zM1022 1747h102v-225h-102v225zM135 -4q-26 0 -80 4v82q50 -4 74 -4q77 0 121.5 32t66.5 117l91 355q23 89 76 130t147 46v4q-95 3 -153.5 48.5t-92.5 150.5l-88 266q-24 71 -71.5 100t-129.5 29q-19 0 -55 -4v82q40 4 82 4q89 0 149 -38
t93 -134l92 -267q40 -116 100.5 -159t167.5 -43h92q40 0 64 -6l2 2q-11 42 -11 81v560h80v-560q0 -43 -10 -81l2 -2q24 6 64 6h92q107 0 167.5 43t100.5 159l92 267q33 96 93 134t149 38q42 0 82 -4v-82q-36 4 -55 4q-82 0 -129.5 -29t-71.5 -100l-88 -266
q-34 -105 -92.5 -150.5t-153.5 -48.5v-4q94 -5 147 -46t76 -130l90 -355q22 -85 67 -117t122 -32q23 0 73 4v-82q-54 -4 -79 -4q-106 0 -166.5 45t-89.5 152l-99 362q-23 87 -78 125.5t-157 38.5h-92q-48 0 -64 4l-2 -2q10 -38 10 -86v-635h-80v635q0 44 11 86l-2 2
q-16 -4 -64 -4h-92q-102 0 -157.5 -38.5t-78.5 -125.5l-98 -362q-29 -107 -89.5 -152t-166.5 -45z" />
    <glyph glyph-name="uni04DD" unicode="&#x4dd;" horiz-adv-x="1327" 
d="M586 1311v-246h-103v246h103zM844 1311v-246h-103v246h103zM31 -4v70h67q48 0 77 27t44 83l57 193q20 65 65 93.5t124 31.5v4q-81 3 -128.5 33.5t-76.5 111.5l-57 152q-31 86 -111 86h-61v69h67q124 0 170 -119l62 -159q30 -77 71.5 -110.5t112.5 -33.5h59q48 0 64 -4
l2 2q-10 38 -10 82v338h69v-338q0 -44 -10 -82l2 -2q16 4 64 4h59q71 0 112.5 33.5t71.5 110.5l62 159q46 119 170 119h67v-69h-61q-80 0 -111 -86l-57 -152q-29 -81 -76.5 -111.5t-128.5 -33.5v-4q79 -3 124 -31.5t65 -93.5l57 -193q15 -56 44 -83t77 -27h67v-70h-73
q-78 0 -121.5 38t-65.5 111l-49 174q-40 140 -174 140h-59q-48 0 -64 4l-2 -2q10 -38 10 -86v-375h-69v375q0 48 10 86l-2 2q-16 -4 -64 -4h-59q-134 0 -174 -140l-49 -174q-22 -73 -65.5 -111t-121.5 -38h-73z" />
    <glyph glyph-name="uni04DE" unicode="&#x4de;" horiz-adv-x="1204" 
d="M383 1747h102v-225h-102v225zM702 1747h103v-225h-103v225zM584 -31q-285 0 -492 121l41 80q199 -119 447 -119q415 0 415 334q0 178 -120.5 261t-358.5 83h-203v72h201q201 0 313.5 79.5t112.5 231.5q0 124 -87 197t-259 73q-121 0 -238 -27.5t-206 -78.5l-39 76
q200 112 483 112q216 0 324 -91t108 -257q0 -121 -65 -201t-181 -116q-77 -24 -172 -29v-4q98 0 168 -12q140 -25 222.5 -114.5t82.5 -254.5q0 -198 -123 -307t-374 -109z" />
    <glyph glyph-name="uni04DF" unicode="&#x4df;" horiz-adv-x="921" 
d="M356 1311v-246h-102v246h102zM614 1311v-246h-102v246h102zM436 -31q-207 0 -395 90l37 70q176 -86 371 -86q303 0 303 211q0 111 -76 161t-248 50h-111v70h111q279 0 279 194q0 91 -70.5 132.5t-192.5 41.5q-168 0 -346 -76l-30 70q181 80 374 80q166 0 254 -60t88 -180
q0 -210 -262 -231v-6q148 -7 227.5 -64t79.5 -190q0 -135 -100 -206t-293 -71z" />
    <glyph glyph-name="uni04E0" unicode="&#x4e0;" horiz-adv-x="1163" 
d="M545 -31q-287 0 -494 160l41 78q77 -73 192 -115.5t257 -42.5q200 0 306.5 90.5t106.5 272.5q0 98 -32 164.5t-99 103.5t-156.5 52.5t-217.5 15.5h-117v79l540 539l-2 4q-50 -14 -112 -14h-613v78h834v-74l-561 -547l4 -4q49 14 115 14q112 0 201 -22.5t158 -70.5
t106.5 -129.5t37.5 -192.5q0 -95 -27.5 -172.5t-85 -138t-155 -94.5t-227.5 -34z" />
    <glyph glyph-name="uni04E1" unicode="&#x4e1;" horiz-adv-x="897" 
d="M408 -440q-261 0 -480 131l41 71q209 -129 439 -129q185 0 288 87.5t103 248.5q0 326 -426 326h-176v78l508 514l-3 4q-50 -14 -112 -14h-567v69h765v-74l-514 -518l5 -4q53 15 112 15q486 0 486 -398q0 -189 -119.5 -298t-349.5 -109z" />
    <glyph glyph-name="uni04E2" unicode="&#x4e2;" horiz-adv-x="1423" 
d="M449 1665h555v-70h-555v70zM1235 1454h14v-1454h-82v1016q0 148 15 258l-4 2q-20 -45 -113 -164l-877 -1132h-14v1454h82v-1014q0 -155 -14 -258l4 -2q21 48 112 164z" />
    <glyph glyph-name="uni04E3" unicode="&#x4e3;" horiz-adv-x="1105" 
d="M846 1350v-70h-553v70h553zM154 -20v966h73v-571q0 -143 -10 -246l4 -2q36 70 109 152l612 688h10v-967h-73v571q0 143 10 246l-4 2q-35 -68 -109 -151l-612 -688h-10z" />
    <glyph glyph-name="uni04E4" unicode="&#x4e4;" horiz-adv-x="1423" 
d="M516 1747h102v-225h-102v225zM836 1747h102v-225h-102v225zM1235 1454h14v-1454h-82v1016q0 148 15 258l-4 2q-20 -45 -113 -164l-877 -1132h-14v1454h82v-1014q0 -155 -14 -258l4 -2q21 48 112 164z" />
    <glyph glyph-name="uni04E5" unicode="&#x4e5;" horiz-adv-x="1105" 
d="M492 1311v-246h-103v246h103zM750 1311v-246h-103v246h103zM154 -20v966h73v-571q0 -143 -10 -246l4 -2q36 70 109 152l612 688h10v-967h-73v571q0 143 10 246l-4 2q-35 -68 -109 -151l-612 -688h-10z" />
    <glyph glyph-name="uni04E6" unicode="&#x4e6;" horiz-adv-x="1679" 
d="M629 1747h102v-225h-102v225zM948 1747h103v-225h-103v225zM840 1464q160 0 299 -56t237.5 -154.5t154.5 -237.5t56 -299q0 -214 -95.5 -385t-266.5 -267t-385 -96t-385 96t-267 267t-96 385t96 385t267 266.5t385 95.5zM840 1382q-289 0 -475.5 -187t-186.5 -478
q0 -192 84.5 -344t236 -237t341.5 -85t341 85t235.5 237t84.5 344q0 291 -186 478t-475 187z" />
    <glyph glyph-name="uni04E7" unicode="&#x4e7;" horiz-adv-x="1191" 
d="M518 1311v-246h-102v246h102zM776 1311v-246h-102v246h102zM596 977q223 0 363.5 -140.5t140.5 -363.5q0 -222 -141 -363t-363 -141q-221 0 -362.5 141.5t-141.5 362.5q0 222 141 363t363 141zM596 903q-185 0 -305.5 -121.5t-120.5 -308.5t120.5 -308.5t305.5 -121.5
t305.5 121.5t120.5 308.5t-120.5 308.5t-305.5 121.5z" />
    <glyph glyph-name="uni04E8" unicode="&#x4e8;" horiz-adv-x="1679" 
d="M840 1464q158 0 296 -55.5t237.5 -152.5t156.5 -237t57 -302q0 -216 -97.5 -387.5t-268 -266t-381.5 -94.5t-381.5 94.5t-268.5 266t-98 387.5t98 387.5t268.5 265.5t381.5 94zM178 797q0 -29 -10 -41l2 -4q20 4 49 4h1241q29 0 49 -4l2 4q-10 13 -10 35
q-4 107 -50.5 210.5t-128 189t-208 138.5t-276.5 53q-131 0 -244 -41.5t-187.5 -106t-127.5 -144t-77 -154.5t-24 -139zM1501 637q0 28 10 41l-2 4q-20 -4 -49 -4h-1241q-29 0 -49 4l-2 -4q10 -13 10 -35q3 -85 32.5 -169t86.5 -160t134 -135t183.5 -93.5t227.5 -34.5
q95 0 180.5 22t151 59t120.5 86t92.5 103t64 111t38.5 108.5t12 96.5z" />
    <glyph glyph-name="uni04E9" unicode="&#x4e9;" horiz-adv-x="1191" 
d="M596 977q222 0 363 -141t141 -363t-141 -363t-363 -141t-363 141t-141 363t141 363t363 141zM596 903q-181 0 -295 -107t-133 -298l2 -2q21 8 61 8h730q40 0 61 -8l2 2q-19 191 -133 298t-295 107zM596 43q181 0 295 107.5t133 298.5l-2 2q-24 -9 -61 -9h-730
q-37 0 -61 9l-2 -2q19 -191 133 -298.5t295 -107.5z" />
    <glyph glyph-name="uni04EA" unicode="&#x4ea;" horiz-adv-x="1679" 
d="M731 1747v-225h-102v225h102zM1051 1747v-225h-103v225h103zM840 1464q158 0 296 -55.5t237.5 -152.5t156.5 -237t57 -302q0 -216 -97.5 -387.5t-268 -266t-381.5 -94.5t-381.5 94.5t-268.5 266t-98 387.5t98 387.5t268.5 265.5t381.5 94zM178 797q0 -29 -10 -41l2 -4
q20 4 49 4h1241q29 0 49 -4l2 4q-10 13 -10 35q-4 107 -50.5 210.5t-128 189t-208 138.5t-276.5 53q-131 0 -244 -41.5t-187.5 -106t-127.5 -144t-77 -154.5t-24 -139zM1501 637q0 28 10 41l-2 4q-20 -4 -49 -4h-1241q-29 0 -49 4l-2 -4q10 -13 10 -35q3 -85 32.5 -169
t86.5 -160t134 -135t183.5 -93.5t227.5 -34.5q95 0 180.5 22t151 59t120.5 86t92.5 103t64 111t38.5 108.5t12 96.5z" />
    <glyph glyph-name="uni04EB" unicode="&#x4eb;" horiz-adv-x="1191" 
d="M508 1311v-246h-102v246h102zM766 1311v-246h-102v246h102zM596 977q222 0 363 -141t141 -363t-141 -363t-363 -141t-363 141t-141 363t141 363t363 141zM596 903q-181 0 -295 -107t-133 -298l2 -2q21 8 61 8h730q40 0 61 -8l2 2q-19 191 -133 298t-295 107zM596 43
q181 0 295 107.5t133 298.5l-2 2q-24 -9 -61 -9h-730q-37 0 -61 9l-2 -2q19 -191 133 -298.5t295 -107.5z" />
    <glyph glyph-name="uni04EC" unicode="&#x4ec;" horiz-adv-x="1439" 
d="M432 1747h103v-225h-103v225zM752 1747h102v-225h-102v225zM635 -31q-299 0 -543 166l47 72q111 -75 229 -115.5t267 -40.5q259 0 426.5 155t195.5 421q2 29 11 55l-2 2q-18 -6 -56 -6h-761v78h761q38 0 56 -6l2 2q-9 26 -11 55q-28 266 -195.5 420.5t-426.5 154.5
q-149 0 -267.5 -40t-228.5 -115l-47 71q244 166 543 166q324 0 518.5 -201.5t194.5 -545.5t-194.5 -546t-518.5 -202z" />
    <glyph glyph-name="uni04ED" unicode="&#x4ed;" horiz-adv-x="1001" 
d="M383 1311v-246h-102v246h102zM641 1311v-246h-102v246h102zM414 -31q-187 0 -342 105l41 61q146 -92 305 -92q167 0 269 95.5t128 250.5q7 44 12 57l-2 3q-22 -11 -53 -11h-436v70h436q33 0 53 -10l2 2q-5 13 -12 57q-26 155 -128 250.5t-269 95.5q-159 0 -305 -92
l-41 61q155 105 342 105q228 0 356.5 -138t128.5 -366t-128.5 -366t-356.5 -138z" />
    <glyph glyph-name="uni04EE" unicode="&#x4ee;" horiz-adv-x="1239" 
d="M344 1665h555v-70h-555v70zM315 -10q-67 0 -135 14v76q91 -14 142 -14q38 0 66.5 8.5t65.5 35t74.5 88t73.5 156.5l-571 1080h98l436 -832q52 -98 59.5 -117t20.5 -77l6 2q5 44 18.5 84t49.5 114l397 826h92l-553 -1147q-32 -78 -68 -134.5t-68 -87t-70 -48.5t-67 -22.5
t-67 -4.5z" />
    <glyph glyph-name="uni04EF" unicode="&#x4ef;" horiz-adv-x="929" 
d="M745 1227v-70h-552v70h552zM909 946l-604 -1356h-78l213 482l-420 874h89l292 -627q41 -88 54.5 -124.5t19.5 -81.5h8q6 47 20 86.5t52 126.5l274 620h80z" />
    <glyph glyph-name="uni04F0" unicode="&#x4f0;" horiz-adv-x="1239" 
d="M412 1747h102v-225h-102v225zM731 1747h103v-225h-103v225zM315 -10q-67 0 -135 14v76q91 -14 142 -14q38 0 66.5 8.5t65.5 35t74.5 88t73.5 156.5l-571 1080h98l436 -832q52 -98 59.5 -117t20.5 -77l6 2q5 44 18.5 84t49.5 114l397 826h92l-553 -1147
q-32 -78 -68 -134.5t-68 -87t-70 -48.5t-67 -22.5t-67 -4.5z" />
    <glyph glyph-name="uni04F1" unicode="&#x4f1;" horiz-adv-x="929" 
d="M391 1311v-246h-102v246h102zM649 1311v-246h-102v246h102zM909 946l-604 -1356h-78l213 482l-420 874h89l292 -627q41 -88 54.5 -124.5t19.5 -81.5h8q6 47 20 86.5t52 126.5l274 620h80z" />
    <glyph glyph-name="uni04F2" unicode="&#x4f2;" horiz-adv-x="1239" 
d="M795 1747l2 -6l-197 -219h-65l-3 6l189 219h74zM692 1528l189 219h73l2 -6l-196 -219h-66zM315 -10q-67 0 -135 14v76q91 -14 142 -14q38 0 66.5 8.5t65.5 35t74.5 88t73.5 156.5l-571 1080h98l436 -832q52 -98 59.5 -117t20.5 -77l6 2q5 44 18.5 84t49.5 114l397 826h92
l-553 -1147q-32 -78 -68 -134.5t-68 -87t-70 -48.5t-67 -22.5t-67 -4.5z" />
    <glyph glyph-name="uni04F3" unicode="&#x4f3;" horiz-adv-x="929" 
d="M344 1030l-2 6l215 310h72l2 -7l-223 -309h-64zM504 1030l-2 6l215 310h71l3 -7l-224 -309h-63zM909 946l-604 -1356h-78l213 482l-420 874h89l292 -627q41 -88 54.5 -124.5t19.5 -81.5h8q6 47 20 86.5t52 126.5l274 620h80z" />
    <glyph glyph-name="uni04F4" unicode="&#x4f4;" horiz-adv-x="1175" 
d="M332 1747h102v-225h-102v225zM651 1747h103v-225h-103v225zM920 0v635q0 31 6 49l-2 2q-271 -84 -494 -84q-182 0 -275.5 95.5t-93.5 303.5v433h82v-433q0 -91 20.5 -153.5t61 -96.5t91.5 -48.5t120 -14.5q109 0 217 19.5t267 64.5v662h81v-1434h-81z" />
    <glyph glyph-name="uni04F5" unicode="&#x4f5;" horiz-adv-x="886" 
d="M309 1311v-246h-102v246h102zM567 1311v-246h-102v246h102zM670 946h73v-606v-340h-73v391q0 42 8 58l-2 2q-178 -76 -336 -76q-151 0 -230 68t-79 221v282h73v-282q0 -118 63.5 -166.5t182.5 -48.5q134 0 320 77v420z" />
    <glyph glyph-name="uni04F8" unicode="&#x4f8;" horiz-adv-x="1474" 
d="M643 1747v-225h-102v225h102zM963 1747v-225h-103v225h103zM655 795q208 0 326.5 -108t118.5 -290t-118 -289.5t-327 -107.5h-481v989v445h82v-592q0 -31 -6 -49l2 -2q12 4 53 4h350zM1219 1434h81v-1434h-81v1434zM655 78q175 0 267 86t92 233t-92 233.5t-267 86.5h-350
q-41 0 -53 4l-2 -2q6 -18 6 -49v-545q0 -31 -6 -49l2 -2q12 4 53 4h350z" />
    <glyph glyph-name="uni04F9" unicode="&#x4f9;" horiz-adv-x="1189" 
d="M535 1311v-246h-103v246h103zM793 1311v-246h-103v246h103zM557 582q143 0 229 -78t86 -213t-86 -213t-229 -78h-403v684v262h73v-315q0 -42 -8 -58l2 -2q22 11 53 11h283zM963 946h73v-946h-73v946zM557 70q113 0 175.5 60.5t62.5 160.5t-62.5 160.5t-175.5 60.5h-283
q-33 0 -53 10l-2 -2q8 -16 8 -57v-346q0 -34 -10 -54l2 -2q18 9 57 9h281z" />
    <glyph glyph-name="uni04FC" unicode="&#x4fc;" horiz-adv-x="1224" 
d="M1040 164q4 -5 21.5 -32t23.5 -36.5t22.5 -35.5t23 -40t19.5 -38.5t18.5 -42.5t12.5 -41t10 -44.5t3 -43.5q0 -101 -68.5 -160.5t-191.5 -59.5h-105v78h109q77 0 123.5 36t46.5 106q0 27 -8 57.5t-16 52.5t-31 61.5t-33 55.5t-42.5 65t-41.5 62l-227 342q-4 6 -32.5 47
t-52.5 79.5t-32 61.5h-4q-7 -21 -23.5 -48.5t-51 -77t-42.5 -62.5l-334 -506h-106l364 547q8 12 24 37t24 36.5t21 31.5t21 31t19 25.5t19.5 24.5t17.5 19v4q-15 17 -34.5 43t-32.5 45.5t-43.5 65.5t-45.5 69l-305 455h106l285 -433q14 -22 46.5 -68.5t48.5 -73t22 -46.5h4
q6 20 20 43.5t47 71t50 73.5l284 433h107l-305 -455q-5 -8 -39 -59.5t-65 -96t-52 -67.5v-4q12 -12 25 -28t29.5 -39.5t27 -40t32 -49.5t31.5 -48z" />
    <glyph glyph-name="uni04FD" unicode="&#x4fd;" horiz-adv-x="937" 
d="M621 -410v74h104q62 0 98.5 36.5t36.5 111.5q0 51 -23 104.5t-46.5 87t-84.5 111.5q-13 17 -20 26l-172 221q-37 48 -55 91h-4q-21 -47 -56 -91l-286 -362h-93l336 432q36 46 54 64v6q-23 18 -62 69l-293 375h92l252 -319q34 -42 56 -90h4q23 51 55 90l252 319h92
l-293 -375q-6 -7 -14.5 -18.5t-11.5 -15l-9 -10.5t-11.5 -12.5t-14.5 -12.5v-6q28 -28 53 -64l223 -291q87 -112 113 -161q45 -84 45 -168q0 -102 -57.5 -162t-159.5 -60h-100z" />
    <glyph glyph-name="uni0510" unicode="&#x510;" horiz-adv-x="1204" 
d="M621 -31q-251 0 -374.5 109t-123.5 307q0 165 82.5 254.5t222.5 114.5q70 12 168 12v4q-95 5 -172 29q-116 36 -181 116t-65 201q0 166 108 257t324 91q284 0 484 -112l-39 -76q-89 51 -206.5 78.5t-238.5 27.5q-172 0 -259 -73t-87 -197q0 -152 112.5 -231.5
t313.5 -79.5h201v-72h-203q-238 0 -358.5 -83t-120.5 -261q0 -334 416 -334q247 0 446 119l41 -80q-207 -121 -491 -121z" />
    <glyph glyph-name="uni0511" unicode="&#x511;" horiz-adv-x="921" 
d="M485 -31q-193 0 -293 71t-100 206q0 133 79.5 190t227.5 64v6q-262 21 -262 231q0 120 88 180t254 60q194 0 375 -80l-31 -70q-178 76 -346 76q-262 0 -262 -174q0 -194 279 -194h110v-70h-110q-172 0 -248 -50t-76 -161q0 -211 303 -211q195 0 371 86l37 -70
q-188 -90 -396 -90z" />
    <glyph glyph-name="uni0512" unicode="&#x512;" horiz-adv-x="1474" 
d="M1300 1434v-1434v-147q0 -133 -74.5 -198t-203.5 -65h-111v78h115q193 0 193 185v258v1198q0 31 6 49l-2 2q-12 -4 -54 -4h-731q-41 0 -53 4l-2 -2q6 -18 6 -49v-1039q0 -143 -58.5 -211.5t-185.5 -68.5q-12 0 -94 4v82q78 -4 88 -4q85 0 126.5 45.5t41.5 152.5v1164h993
z" />
    <glyph glyph-name="uni0513" unicode="&#x513;" horiz-adv-x="1069" 
d="M926 946v-1087q0 -129 -62 -199t-176 -70h-106v72h110q75 0 117.5 49.5t42.5 147.5v970q0 34 10 54l-2 2q-16 -8 -57 -8h-434q-42 0 -58 8l-2 -2q10 -20 10 -54v-608q0 -225 -198 -225h-90v70h90q125 0 125 155v725h680z" />
    <glyph glyph-name="uni051C" unicode="&#x51c;" horiz-adv-x="1925" 
d="M969 1464l336 -1020q49 -146 73 -270h8q26 131 72 266l328 994h98l-498 -1465h-8l-364 1088q-39 119 -47 190h-9q-8 -71 -47 -190l-364 -1088h-8l-498 1465h98l328 -994q46 -135 72 -266h8q23 117 74 270l335 1020h13z" />
    <glyph glyph-name="uni051D" unicode="&#x51d;" horiz-adv-x="1449" 
d="M399 -20l-379 966h91l237 -635q42 -111 49 -188h9q10 75 55 188l260 656h8l260 -656q45 -113 55 -188h9q7 77 49 188l237 635h91l-379 -966h-9l-268 667q-24 60 -32 92.5t-13 83.5h-8q-5 -51 -13 -83.5t-32 -92.5l-268 -667h-9z" />
    <glyph glyph-name="uni0524" unicode="&#x524;" horiz-adv-x="1382" 
d="M1260 51h61v-338h-82v287h-61v1309q0 31 6 49l-2 2q-12 -4 -54 -4h-823q-41 0 -53 4l-2 -2q6 -18 6 -49v-1309h-82v1434h1086v-1383z" />
    <glyph glyph-name="uni0525" unicode="&#x525;" horiz-adv-x="1034" 
d="M926 39h57v-326h-74v287h-57v829q0 34 10 54l-2 2q-16 -8 -57 -8h-527q-41 0 -57 8l-2 -2q10 -20 10 -54v-829h-73v946h772v-907z" />
    <glyph glyph-name="uni0526" unicode="&#x526;" horiz-adv-x="1226" 
d="M1114 51h51v-338h-82v287h-51v432q0 91 -20.5 153.5t-61 96.5t-91.5 48.5t-120 14.5q-110 0 -217.5 -19t-265.5 -64v-662h-82v1434h82v-635q0 -31 -6 -49l2 -2q268 83 493 83q182 0 275.5 -95.5t93.5 -303.5v-381z" />
    <glyph glyph-name="uni0527" unicode="&#x527;" horiz-adv-x="1097" 
d="M989 39h58v-326h-74v287h-58v559q0 163 -78 253.5t-219 90.5q-178 0 -279 -130t-101 -359v-414h-74v1464h74v-577q0 -173 -17 -260l8 -4q79 354 392 354q180 0 274 -107.5t94 -310.5v-520z" />
    </font>
</defs>
</svg>
