<?xml version="1.0" standalone="no"?>
<!DOCTYPE svg PUBLIC "-//W3C//DTD SVG 1.1//EN" "http://www.w3.org/Graphics/SVG/1.1/DTD/svg11.dtd" >
<svg xmlns="http://www.w3.org/2000/svg" xmlns:xlink="http://www.w3.org/1999/xlink" version="1.1">
<metadata>
Created by FontForge 20170731 at Sat Jul 23 01:52:15 2022
 By Aleksey,,,
Copyright (c) 2015 by Reto Moser. All rights reserved.
</metadata>
<defs>
<font id="GTEestiProText-ThinItalic" horiz-adv-x="1228" >
  <font-face 
    font-family="GT Eesti Pro Text Thin"
    font-weight="300"
    font-style="italic"
    font-stretch="normal"
    units-per-em="2048"
    panose-1="0 0 4 0 0 0 0 0 0 0"
    ascent="1536"
    descent="-512"
    x-height="946"
    cap-height="1434"
    bbox="-627 -516 2454 1878"
    underline-thickness="102"
    underline-position="-307"
    slope="-11"
    unicode-range="U+0020-FB02"
  />
<missing-glyph horiz-adv-x="1609" 
d="M852 -31q-213 0 -384 96.5t-267.5 267.5t-96.5 384q0 214 96.5 385t267.5 266.5t384 95.5q160 0 299 -56t237.5 -154.5t154.5 -237.5t56 -299q0 -213 -95.5 -384t-266.5 -267.5t-385 -96.5zM852 20q199 0 359 91t250.5 253t90.5 363l-104 133l-143 -61l-140 184l-161 -90
l-152 242l-152 -242l-161 90l-140 -184l-143 61l-104 -133q0 -201 90.5 -363t250.5 -253t359 -91zM641 651q-31 0 -51.5 20.5t-20.5 51.5t20.5 51.5t51.5 20.5t51.5 -20.5t20.5 -51.5t-20.5 -51.5t-51.5 -20.5zM1061 651q-31 0 -51.5 20.5t-20.5 51.5t20.5 51.5t51.5 20.5
t51.5 -20.5t20.5 -51.5t-20.5 -51.5t-51.5 -20.5zM766 522l74 207q3 17 22 10q6 -2 9.5 -8.5t0.5 -13.5l-57 -160h70q7 0 12.5 -5.5t5.5 -12.5q0 -6 -5.5 -11.5t-12.5 -5.5h-119zM449 350q-61 0 -101.5 40t-40.5 102q0 61 40 101t102 40q61 0 101 -39.5t40 -101.5t-40 -102
t-101 -40zM1253 350q-61 0 -101 40t-40 102t40 101.5t101 39.5q62 0 102 -40t40 -101q0 -62 -40.5 -102t-101.5 -40zM852 395q-96 0 -127 -61q-6 -12 -18 -12q-17 0 -17 18q0 35 50 63.5t112 28.5t112 -28.5t50 -63.5q0 -18 -17 -18q-12 0 -18 12q-31 61 -127 61z" />
    <glyph glyph-name="fi" unicode="fi" horiz-adv-x="1075" 
d="M795 1452l-21 -100h-16q-114 0 -181 -63t-92 -195l-18 -99q-6 -30 -21 -57l3 -2q17 10 65 10h180l-16 -96h-182q-44 0 -62 10l-4 -2q6 -29 -2 -65l-154 -793h-106l154 793q8 38 22 65l-2 2q-22 -10 -68 -10h-149l18 96h150q47 0 61 -10l4 2q-3 24 2 55l21 113
q34 177 125.5 261.5t251.5 84.5h37zM1114 1434l-53 -267h-121l51 267h123zM1020 946l-184 -946h-107l184 946h107z" />
    <glyph glyph-name="fl" unicode="fl" horiz-adv-x="1091" 
d="M1128 1464l-284 -1464h-109l285 1464h108zM795 1452l-21 -100h-16q-114 0 -181 -63t-92 -195l-18 -99q-6 -30 -21 -57l3 -2q17 10 65 10h180l-16 -96h-182q-44 0 -62 10l-4 -2q6 -29 -2 -65l-154 -793h-106l154 793q8 38 22 65l-2 2q-22 -10 -68 -10h-149l18 96h150
q47 0 61 -10l4 2q-3 24 2 55l21 113q34 177 125.5 261.5t251.5 84.5h37z" />
    <glyph glyph-name="f_f" unicode="ff" horiz-adv-x="1341" 
d="M795 1452l-21 -100h-16q-114 0 -181 -63t-92 -195l-18 -99q-6 -30 -21 -57l3 -2q17 10 65 10h180l-16 -96h-182q-44 0 -62 10l-4 -2q6 -29 -2 -65l-154 -793h-106l154 793q8 38 22 65l-2 2q-22 -10 -68 -10h-149l18 96h150q47 0 61 -10l4 2q-3 24 2 55l21 113
q34 177 125.5 261.5t251.5 84.5h37zM1466 1452l-20 -100h-16q-114 0 -181 -63t-92 -195l-18 -99q-6 -30 -21 -57l2 -2q18 10 66 10h180l-16 -96h-183q-43 0 -61 10l-4 -2q6 -29 -2 -65l-154 -793h-106l153 793q8 34 23 65l-2 2q-22 -10 -68 -10h-149l18 96h150q47 0 61 -10
l4 2q-3 24 2 55l21 113q34 177 125.5 261.5t251.5 84.5h36z" />
    <glyph glyph-name="f_f_i" unicode="ffi" horiz-adv-x="1744" 
d="M795 1452l-21 -100h-16q-114 0 -181 -63t-92 -195l-18 -99q-6 -30 -21 -57l3 -2q17 10 65 10h180l-16 -96h-182q-44 0 -62 10l-4 -2q6 -29 -2 -65l-154 -793h-106l154 793q8 38 22 65l-2 2q-22 -10 -68 -10h-149l18 96h150q47 0 61 -10l4 2q-3 24 2 55l21 113
q34 177 125.5 261.5t251.5 84.5h37zM1466 1452l-20 -100h-16q-114 0 -181 -63t-92 -195l-18 -99q-6 -30 -21 -57l2 -2q18 10 66 10h180l-16 -96h-183q-43 0 -61 10l-4 -2q6 -29 -2 -65l-154 -793h-106l153 793q8 34 23 65l-2 2q-22 -10 -68 -10h-149l18 96h150q47 0 61 -10
l4 2q-3 24 2 55l21 113q34 177 125.5 261.5t251.5 84.5h36zM1784 1434l-53 -267h-121l51 267h123zM1690 946l-185 -946h-106l184 946h107z" />
    <glyph glyph-name="f_f_l" unicode="ffl" horiz-adv-x="1761" 
d="M1798 1464l-285 -1464h-108l285 1464h108zM795 1452l-21 -100h-16q-114 0 -181 -63t-92 -195l-18 -99q-6 -30 -21 -57l3 -2q17 10 65 10h180l-16 -96h-182q-44 0 -62 10l-4 -2q6 -29 -2 -65l-154 -793h-106l154 793q8 38 22 65l-2 2q-22 -10 -68 -10h-149l18 96h150
q47 0 61 -10l4 2q-3 24 2 55l21 113q34 177 125.5 261.5t251.5 84.5h37zM1466 1452l-20 -100h-16q-114 0 -181 -63t-92 -195l-18 -99q-6 -30 -21 -57l2 -2q18 10 66 10h180l-16 -96h-183q-43 0 -61 10l-4 -2q6 -29 -2 -65l-154 -793h-106l153 793q8 34 23 65l-2 2
q-22 -10 -68 -10h-149l18 96h150q47 0 61 -10l4 2q-3 24 2 55l21 113q34 177 125.5 261.5t251.5 84.5h36z" />
    <glyph glyph-name=".notdef" horiz-adv-x="1609" 
d="M852 -31q-213 0 -384 96.5t-267.5 267.5t-96.5 384q0 214 96.5 385t267.5 266.5t384 95.5q160 0 299 -56t237.5 -154.5t154.5 -237.5t56 -299q0 -213 -95.5 -384t-266.5 -267.5t-385 -96.5zM852 20q199 0 359 91t250.5 253t90.5 363l-104 133l-143 -61l-140 184l-161 -90
l-152 242l-152 -242l-161 90l-140 -184l-143 61l-104 -133q0 -201 90.5 -363t250.5 -253t359 -91zM641 651q-31 0 -51.5 20.5t-20.5 51.5t20.5 51.5t51.5 20.5t51.5 -20.5t20.5 -51.5t-20.5 -51.5t-51.5 -20.5zM1061 651q-31 0 -51.5 20.5t-20.5 51.5t20.5 51.5t51.5 20.5
t51.5 -20.5t20.5 -51.5t-20.5 -51.5t-51.5 -20.5zM766 522l74 207q3 17 22 10q6 -2 9.5 -8.5t0.5 -13.5l-57 -160h70q7 0 12.5 -5.5t5.5 -12.5q0 -6 -5.5 -11.5t-12.5 -5.5h-119zM449 350q-61 0 -101.5 40t-40.5 102q0 61 40 101t102 40q61 0 101 -39.5t40 -101.5t-40 -102
t-101 -40zM1253 350q-61 0 -101 40t-40 102t40 101.5t101 39.5q62 0 102 -40t40 -101q0 -62 -40.5 -102t-101.5 -40zM852 395q-96 0 -127 -61q-6 -12 -18 -12q-17 0 -17 18q0 35 50 63.5t112 28.5t112 -28.5t50 -63.5q0 -18 -17 -18q-12 0 -18 12q-31 61 -127 61z" />
    <glyph glyph-name=".null" horiz-adv-x="0" 
 />
    <glyph glyph-name="nonmarkingreturn" horiz-adv-x="682" 
 />
    <glyph glyph-name="NULL" horiz-adv-x="30" 
 />
    <glyph glyph-name="NULL" horiz-adv-x="30" 
 />
    <glyph glyph-name="space" unicode=" " horiz-adv-x="645" 
 />
    <glyph glyph-name="exclam" unicode="!" horiz-adv-x="624" 
d="M557 1434l-223 -1022h-74l174 1022h123zM131 0l37 184h180l-37 -184h-180z" />
    <glyph glyph-name="quotedbl" unicode="&#x22;" horiz-adv-x="532" 
d="M422 1464l-133 -518h-47l69 518h111zM608 1464l-133 -518h-47l70 518h110z" />
    <glyph glyph-name="numbersign" unicode="#" 
d="M1249 944h-262l-151 -405h260l-13 -70h-274l-176 -469h-80l176 469h-319l-177 -469h-79l176 469h-258l12 70h270l154 405h-270l12 70h285l157 420h80l-158 -420h320l158 420h79l-157 -420h248zM756 539l151 405h-319l-154 -405h322z" />
    <glyph glyph-name="dollar" unicode="$" horiz-adv-x="1148" 
d="M428 -168l21 98l1 12q2 12 5 21t8 17l-2 4q-20 -4 -47 0q-103 18 -203 72t-170 120l72 88q84 -75 157.5 -114t163.5 -62q41 -10 45 -14l4 2q-4 17 0 43l113 579l-70 56q-209 152 -209 340q0 138 98.5 228.5t276.5 90.5q32 0 43 -8l2 2q-3 14 4 35l21 108h61l-20 -110
q-13 -32 -15 -35l3 -2q12 5 32 0q86 -20 143 -43t148 -80l-67 -98q-69 47 -118 69.5t-120 42.5q-18 3 -35 13l-2 -2q0 -19 -4 -43l-92 -478l102 -77q108 -79 162.5 -164t54.5 -205q0 -177 -115 -273t-315 -96q-33 0 -51 8l-4 -2q4 -18 0 -45l-21 -98h-61zM625 811l2 2
q0 25 6 74l76 381q2 14 10 43l-2 2q-8 -4 -25 -4q-125 0 -193.5 -61t-68.5 -156q0 -77 44 -134.5t120 -111.5q22 -18 31 -35zM532 70q9 4 58 4q137 2 215 70t78 190q0 49 -13.5 90.5t-42 77.5t-56.5 61t-73 60q-19 14 -29 23t-15 15.5t-7 8.5l-2 -2q0 -24 -6 -62l-94 -487
q-2 -11 -15 -47z" />
    <glyph glyph-name="percent" unicode="%" horiz-adv-x="1550" 
d="M518 805q-124 0 -207.5 71t-83.5 203q0 149 103 257t260 108q124 0 207.5 -72.5t83.5 -204.5q0 -148 -103.5 -255t-259.5 -107zM260 0l1000 1382h83l-999 -1382h-84zM522 885q121 0 198 86.5t77 193.5q0 96 -60 147.5t-153 51.5q-121 0 -197 -87t-76 -196q0 -94 60 -145
t151 -51zM1055 -10q-124 0 -207.5 72t-83.5 204q0 149 102.5 256t259.5 107q124 0 207.5 -71.5t83.5 -203.5q0 -149 -102.5 -256.5t-259.5 -107.5zM1061 70q121 0 196.5 86.5t75.5 195.5q0 94 -60 145.5t-151 51.5q-121 0 -197.5 -87t-76.5 -194q0 -96 60 -147t153 -51z" />
    <glyph glyph-name="ampersand" unicode="&#x26;" horiz-adv-x="1357" 
d="M1085 1382l43 -98l-4 -4h-499q-58 0 -99 16v-4l498 -954h2q7 17 35 53q71 91 105.5 143t80.5 136l99 -45q-124 -211 -226 -330q-31 -36 -47 -43v-2l127 -244v-6h-123l-90 174h-2q-38 -76 -179.5 -139.5t-273.5 -63.5q-198 0 -319 114t-121 300q0 180 113.5 305.5
t333.5 190.5q44 14 67 14v2l-250 477l2 8h727zM647 819h-2q-23 -26 -51 -31q-189 -54 -286 -154t-97 -241q0 -144 90.5 -228.5t243.5 -84.5q88 0 169 32.5t175 104.5q36 26 55 29v2z" />
    <glyph glyph-name="quotesingle" unicode="'" horiz-adv-x="352" 
d="M426 1464l-131 -518h-53l69 518h115z" />
    <glyph glyph-name="parenleft" unicode="(" horiz-adv-x="659" 
d="M721 1556l82 -67q-282 -287 -415.5 -566.5t-133.5 -603.5q0 -401 178 -714l-88 -51q-197 349 -197 757q0 160 31 310.5t82 274t127.5 245.5t155.5 218t178 197z" />
    <glyph glyph-name="parenright" unicode=")" horiz-adv-x="659" 
d="M-29 -446l-80 67q282 289 414.5 568t132.5 602q0 399 -178 716l90 49q195 -345 195 -755q0 -160 -31 -311.5t-81.5 -274.5t-127.5 -245t-155.5 -218t-178.5 -198z" />
    <glyph glyph-name="asterisk" unicode="*" horiz-adv-x="849" 
d="M393 801l-74 55l199 242l-303 80l29 88l288 -113l-16 311h92l-18 -311l291 113l28 -86l-301 -80l199 -244l-74 -53l-170 262z" />
    <glyph glyph-name="plus" unicode="+" 
d="M676 1108v-465h465v-65h-465v-467h-70v467h-465v65h465v465h70z" />
    <glyph glyph-name="comma" unicode="," horiz-adv-x="446" 
d="M-61 -342l190 528h150l-273 -528h-67z" />
    <glyph glyph-name="hyphen" unicode="-" horiz-adv-x="743" 
d="M662 612l-23 -108h-526l22 108h527z" />
    <glyph glyph-name="period" unicode="." horiz-adv-x="421" 
d="M29 0l37 184h180l-37 -184h-180z" />
    <glyph glyph-name="slash" unicode="/" horiz-adv-x="1175" 
d="M14 -162l-67 45l1300 1659l68 -45z" />
    <glyph glyph-name="zero" unicode="0" horiz-adv-x="1193" 
d="M547 -31q-201 0 -308.5 135.5t-107.5 389.5q0 260 76 469.5t214 329.5t312 120q200 0 307 -135.5t107 -388.5q0 -259 -76 -469t-213.5 -330.5t-310.5 -120.5zM545 74q140 0 253 108.5t175.5 295.5t62.5 413q0 200 -79 309t-224 109q-139 0 -252 -108.5t-176 -295.5
t-63 -413q0 -199 80 -308.5t223 -109.5z" />
    <glyph glyph-name="one" unicode="1" horiz-adv-x="679" 
d="M639 1382l-270 -1382h-109l189 958q13 70 22 101.5t29 77.5l-4 4q-22 -23 -90 -60l-213 -108l22 112l299 177l53 120h72z" />
    <glyph glyph-name="two" unicode="2" horiz-adv-x="1017" 
d="M664 1413q168 0 271 -80.5t103 -230.5q0 -116 -66 -222.5t-212 -242.5l-434 -395q-127 -117 -189 -152l2 -4q70 16 201 16h508v-4l-74 -98h-846v6l756 701q115 106 177.5 198.5t62.5 188.5q0 108 -77.5 161.5t-189.5 53.5q-92 0 -181 -32t-191 -89l-47 92
q227 133 426 133z" />
    <glyph glyph-name="three" unicode="3" horiz-adv-x="1036" 
d="M647 1413q167 0 258.5 -76t91.5 -215q0 -125 -79 -211.5t-218 -124.5q-47 -14 -100 -18l-2 -8q44 0 92 -10q110 -25 178 -109t68 -227q0 -98 -33 -178.5t-97.5 -140.5t-166.5 -93t-233 -33q-242 0 -429 113l58 94q91 -51 177 -76.5t189 -25.5q200 0 311 89t111 257
q0 154 -105.5 222.5t-332.5 68.5l18 100q137 0 243.5 32t171.5 101.5t65 167.5q0 102 -67 150.5t-177 48.5q-102 0 -184 -27t-170 -76l-47 92q202 113 409 113z" />
    <glyph glyph-name="four" unicode="4" horiz-adv-x="1124" 
d="M1055 1382l-185 -946q-2 -8 -5 -25t-5 -26v-2q12 2 37 2h160l-62 -100h-116q-27 0 -35 2l-4 -2q1 -7 -4 -43l-50 -242h-100l47 238q3 27 10 47l-2 2q-14 -2 -43 -2h-696l18 92l926 1005h109zM924 1231q-41 -57 -80 -98l-611 -652q-54 -63 -92 -96v-6q31 6 111 6h448
q42 0 60 -4l2 2q0 11 10 61l131 676q16 81 27 109z" />
    <glyph glyph-name="five" unicode="5" horiz-adv-x="993" 
d="M1104 1382l-57 -104h-441q-39 0 -49 2l-4 -2q-9 -39 -35 -94l-129 -258q-37 -67 -57 -84l2 -4q83 34 170 34q85 0 156.5 -24.5t127.5 -72.5t87.5 -127t31.5 -181q0 -104 -32 -192.5t-95.5 -157.5t-167 -108.5t-237.5 -39.5q-241 0 -424 125l63 96q167 -116 371 -116
q89 0 160.5 23.5t117 62t76 90.5t43.5 106t13 111q0 84 -26.5 145.5t-73.5 95.5t-102.5 50t-121.5 16q-113 0 -276 -43l-7 8l316 643h600z" />
    <glyph glyph-name="six" unicode="6" horiz-adv-x="1132" 
d="M520 -31q-129 0 -230.5 46.5t-162.5 141t-61 222.5q0 130 70 266t241 309l448 457h144l-342 -340q-154 -154 -283 -297l4 -4q137 129 303 129q174 0 291 -112.5t117 -305.5q0 -225 -155 -368.5t-384 -143.5zM520 74q185 0 305.5 111.5t120.5 293.5q0 81 -27 143.5t-73 99
t-101 55t-118 20.5q-183 6 -319 -114.5t-136 -295.5q0 -141 93.5 -227t254.5 -86z" />
    <glyph glyph-name="seven" unicode="7" horiz-adv-x="886" 
d="M1047 1382l2 -4l-899 -1378h-117l780 1192q57 83 68 94l-4 2q-24 -8 -105 -8h-582l58 102h799z" />
    <glyph glyph-name="eight" unicode="8" horiz-adv-x="1132" 
d="M516 -31q-205 0 -322.5 97.5t-117.5 267.5q0 161 106 271.5t285 135.5v4q-215 56 -215 275q0 177 127.5 285t333.5 108q186 0 292.5 -87t106.5 -239q0 -137 -87 -228t-253 -128v-4q121 -20 183.5 -99t62.5 -210q0 -203 -136.5 -326t-365.5 -123zM635 786q161 0 263.5 83
t102.5 212q0 107 -77 168.5t-211 61.5q-157 0 -254 -81.5t-97 -213.5q0 -109 71.5 -169.5t201.5 -60.5zM524 72q179 0 282 93t103 253q0 266 -305 266q-183 0 -299.5 -96.5t-116.5 -249.5q0 -126 89 -196t247 -70z" />
    <glyph glyph-name="nine" unicode="9" horiz-adv-x="1083" 
d="M229 0l346 340q172 165 277 274l-6 4q-150 -133 -318 -133q-173 0 -280 118t-107 300q0 140 63 255.5t183.5 185t274.5 69.5q95 0 177.5 -27t146.5 -78.5t101 -135t37 -189.5q0 -131 -65.5 -251.5t-239.5 -289.5l-457 -442h-133zM575 588q117 0 217.5 52t161 145
t60.5 206q0 146 -96.5 232t-253.5 86q-185 0 -298.5 -117t-113.5 -287q0 -146 86.5 -231.5t236.5 -85.5z" />
    <glyph glyph-name="colon" unicode=":" horiz-adv-x="425" 
d="M178 762l37 184h180l-37 -184h-180zM31 0l37 184h180l-37 -184h-180z" />
    <glyph glyph-name="semicolon" unicode=";" horiz-adv-x="446" 
d="M195 762l36 184h181l-37 -184h-180zM-61 -342l190 528h150l-273 -528h-67z" />
    <glyph glyph-name="less" unicode="&#x3c;" 
d="M1049 1038v-75l-801 -351l801 -350v-76l-889 394v67z" />
    <glyph glyph-name="equal" unicode="=" 
d="M1159 819l-2 -65h-1036l2 65h1036zM1157 471v-65h-1036v65h1036z" />
    <glyph glyph-name="greater" unicode="&#x3e;" 
d="M233 1038l891 -391v-67l-891 -394v76l801 350l-801 351v75z" />
    <glyph glyph-name="question" unicode="?" horiz-adv-x="798" 
d="M580 1464q138 0 211 -58.5t73 -170.5q0 -84 -44.5 -149.5t-155.5 -147.5l-140 -100q-66 -47 -94.5 -90t-28.5 -93q0 -47 26 -84.5t101 -97.5l-75 -84q-91 72 -126.5 129.5t-35.5 132.5t36.5 136t116.5 120l138 99q97 69 131.5 114t34.5 103q0 66 -46 102.5t-129 36.5
q-146 0 -319 -107l-47 99q204 110 373 110zM223 0l37 184h180l-37 -184h-180z" />
    <glyph glyph-name="at" unicode="@" horiz-adv-x="2023" 
d="M934 -307q-364 0 -587.5 217t-223.5 571q0 268 123.5 481t343.5 332t497 119q233 0 412 -86.5t277 -244t98 -363.5q0 -161 -55.5 -297t-151 -214.5t-209.5 -78.5q-92 0 -144.5 45.5t-49.5 122.5h-7q-107 -191 -329 -191q-148 0 -238 80t-90 213q0 148 100 238t263 90
q121 0 205 -49t122 -143l6 2l13 75q14 85 14 119q0 94 -51.5 135t-167.5 41q-123 0 -305 -43l-21 88q181 47 332 47q155 0 229 -59t74 -182q0 -51 -16 -133l-47 -244q-7 -31 -7 -51q0 -55 30.5 -85t86.5 -30q86 0 159.5 67.5t117 183t43.5 249.5q0 274 -190.5 442
t-499.5 168q-186 0 -347.5 -64t-276.5 -175t-181 -267.5t-66 -335.5q0 -318 197.5 -509t525.5 -191q231 0 432 90l27 -82q-238 -98 -467 -98zM938 195q127 0 219 71.5t92 169.5q0 88 -78 145.5t-196 57.5q-120 0 -195 -67.5t-75 -174.5q0 -92 63.5 -147t169.5 -55z" />
    <glyph glyph-name="A" unicode="A" horiz-adv-x="1361" 
d="M-63 0l929 1464h13l362 -1464h-117l-114 461h-648l-288 -461h-137zM414 557q58 4 114 4h353q56 0 114 -4v2q-21 41 -37 119l-94 414q-23 120 -20 176h-4q-23 -67 -88 -176l-254 -414q-47 -76 -84 -119v-2z" />
    <glyph glyph-name="B" unicode="B" horiz-adv-x="1288" 
d="M78 0l278 1434h463q175 0 276 -84t101 -230q0 -117 -64 -203t-182 -129q-68 -25 -139 -30l-2 -8q68 -2 133 -19q104 -31 158.5 -108t54.5 -193q0 -196 -147.5 -313t-395.5 -117h-534zM344 799q10 4 53 4h285q183 0 286 79.5t103 219.5q0 110 -72.5 167.5t-212.5 57.5
h-286q-39 0 -51 4l-5 -2q2 -9 -4 -49l-82 -430q-4 -28 -16 -49zM209 102q10 4 53 4h348q199 0 310.5 86t111.5 240q0 132 -87 200t-255 68h-311q-42 0 -51 7l-4 -5q3 -21 -5 -49l-96 -499q-5 -33 -16 -50z" />
    <glyph glyph-name="C" unicode="C" horiz-adv-x="1456" 
d="M791 -31q-304 0 -481 176t-177 478q0 240 110.5 432.5t307 300.5t442.5 108q283 0 492 -164l-72 -96q-199 146 -432 146q-204 0 -370 -94t-260.5 -260t-94.5 -369q0 -256 145.5 -399.5t405.5 -143.5q111 0 214 33.5t224 107.5l64 -96q-124 -83 -248.5 -121.5
t-269.5 -38.5z" />
    <glyph glyph-name="D" unicode="D" horiz-adv-x="1435" 
d="M78 0l278 1434h428q280 0 447.5 -166.5t167.5 -446.5q0 -180 -64.5 -333t-179.5 -260.5t-278 -167.5t-355 -60h-444zM209 102q10 4 53 4h270q213 0 383.5 91t266.5 253.5t96 364.5q0 236 -137 374t-371 138h-270q-39 0 -51 4l-5 -2q2 -7 -4 -49l-217 -1126
q-6 -30 -16 -50z" />
    <glyph glyph-name="E" unicode="E" horiz-adv-x="1050" 
d="M1145 1434l-21 -107h-624q-39 0 -51 4l-5 -2q4 -23 -4 -49l-73 -389q-6 -27 -17 -49l2 -2q14 4 54 4h561l-21 -107h-559q-35 0 -53 6l-2 -2q3 -17 -4 -51l-105 -536q-6 -30 -16 -50l2 -2q12 4 53 4h635l-20 -106h-799l278 1434h789z" />
    <glyph glyph-name="F" unicode="F" horiz-adv-x="1040" 
d="M1155 1434l-20 -107h-635q-39 0 -51 4l-5 -2q4 -23 -4 -49l-80 -426q-14 -48 -16 -51l2 -2q18 6 53 6h578l-21 -109h-577q-32 0 -53 7l-2 -3q2 -14 -5 -51l-126 -651h-115l278 1434h799z" />
    <glyph glyph-name="G" unicode="G" horiz-adv-x="1665" 
d="M827 -31q-320 0 -505 178.5t-185 487.5q0 242 108 431t302.5 293.5t443.5 104.5q157 0 290.5 -48t258.5 -148l-82 -92q-210 174 -477 174q-210 0 -375 -90.5t-256.5 -252.5t-91.5 -368q0 -261 151.5 -408t417.5 -147q262 0 445 154t229 411l-4 2q-50 -16 -143 -16h-457
l18 106h725l-10 -51q-60 -339 -271.5 -530t-531.5 -191z" />
    <glyph glyph-name="H" unicode="H" horiz-adv-x="1429" 
d="M1448 1434l-279 -1434h-116l129 666q8 39 16 51l-2 2q-24 -6 -55 -6h-760q-36 0 -51 6l-2 -2q0 -31 -4 -51l-129 -666h-117l278 1434h117l-111 -566q-8 -38 -14 -49v-4q14 6 55 6h760q39 0 51 -6l5 4q-4 19 2 49l110 566h117z" />
    <glyph glyph-name="I" unicode="I" horiz-adv-x="454" 
d="M473 1434l-278 -1434h-117l278 1434h117z" />
    <glyph glyph-name="J" unicode="J" horiz-adv-x="563" 
d="M580 1434l-226 -1166q-29 -150 -104.5 -214t-212.5 -64q-24 0 -78 4l23 110q36 -4 67 -4q79 0 126 44t67 145l223 1145h115z" />
    <glyph glyph-name="K" unicode="K" horiz-adv-x="1193" 
d="M1290 1434l-641 -535q-142 -115 -192 -147l-2 -4q21 -14 39 -33t49 -58.5t49 -60.5l481 -596h-149l-594 748l-4 -3q-2 -76 -35 -241l-98 -504h-115l278 1434h115l-80 -416q-32 -162 -59 -242l2 -4l786 662h170z" />
    <glyph glyph-name="L" unicode="L" horiz-adv-x="1011" 
d="M471 1434l-248 -1278q-7 -33 -16 -52l2 -2q21 7 53 7h649l-20 -109h-813l278 1434h115z" />
    <glyph glyph-name="M" unicode="M" horiz-adv-x="1753" 
d="M776 -27l-176 959q-18 109 -18 231h-7q-25 -109 -83 -233l-429 -930h-126l671 1462h13l186 -1054q15 -94 12 -191h8q39 106 86 191l596 1054h13l110 -1462h-116l-64 930q-10 150 4 233h-6q-4 -9 -17.5 -42t-21.5 -51.5t-27 -57t-43 -80.5l-553 -959h-12z" />
    <glyph glyph-name="N" unicode="N" horiz-adv-x="1449" 
d="M375 1454l669 -1069q66 -104 82 -164l4 2q2 92 35 258l187 953h114l-282 -1454h-19l-663 1071q-67 99 -84 161l-4 -2q-2 -90 -35 -256l-186 -954h-115l282 1454h15z" />
    <glyph glyph-name="O" unicode="O" horiz-adv-x="1724" 
d="M848 -31q-324 0 -516.5 185.5t-192.5 494.5q0 173 63.5 324.5t173.5 259t265 169.5t332 62q322 0 515 -185.5t193 -494.5q0 -231 -107.5 -417.5t-298.5 -292t-427 -105.5zM850 84q203 0 365 91t253 253t91 365q0 249 -162.5 403t-425.5 154q-203 0 -365.5 -90.5
t-254 -253t-91.5 -365.5q0 -249 163 -403t427 -154z" />
    <glyph glyph-name="P" unicode="P" horiz-adv-x="1085" 
d="M772 1434q177 0 279 -93t102 -256q0 -190 -132.5 -304.5t-352.5 -114.5h-295q-42 0 -54 6l-2 -4q2 -5 -4 -50l-120 -618h-115l278 1434h416zM449 1331l-5 -2q1 -4 -4 -49l-88 -459q-2 -13 -14 -51l2 -2q10 4 53 4h277q167 0 264.5 83t97.5 224q0 117 -69 182.5t-193 65.5
h-270q-39 0 -51 4z" />
    <glyph glyph-name="Q" unicode="Q" horiz-adv-x="1714" 
d="M842 -6q-318 0 -509.5 183t-191.5 487q0 227 107 410.5t296.5 286.5t424.5 103q319 0 511.5 -181t192.5 -480q0 -278 -169.5 -473t-469.5 -264l-2 -5q247 35 332 35h186l-18 -102h-690zM848 106q148 0 279 54t224 146.5t147 222t54 276.5q0 246 -161 395.5t-424 149.5
q-201 0 -362.5 -89.5t-252 -248t-90.5 -355.5q0 -248 161 -399.5t425 -151.5z" />
    <glyph glyph-name="R" unicode="R" horiz-adv-x="1179" 
d="M772 1434q179 0 282 -88.5t103 -241.5q0 -185 -125 -294.5t-336 -109.5q-38 0 -73 9l-2 -2q46 -38 75 -91l359 -616h-133l-406 696h-139q-39 0 -51 4l-2 -2q1 -4 -5 -51l-126 -647h-115l278 1434h416zM449 1331l-5 -2q1 -4 -4 -49l-82 -430q-4 -26 -16 -49l4 -2q8 4 51 4
h301q153 0 244.5 79.5t91.5 211.5q0 112 -69 172.5t-197 60.5h-268q-39 0 -51 4z" />
    <glyph glyph-name="S" unicode="S" horiz-adv-x="1056" 
d="M516 -31q-147 0 -282 55t-244 160l76 95q210 -195 452 -195q146 0 225.5 66t79.5 188q0 82 -42 151t-140 148l-168 139q-108 87 -157.5 172.5t-49.5 184.5q0 152 102 241.5t277 89.5q107 0 205 -35t213 -114l-72 -103q-176 138 -350 138q-118 0 -186 -58.5t-68 -158.5
q0 -136 164 -267l180 -143q113 -91 163 -181t50 -202q0 -175 -113 -273t-315 -98z" />
    <glyph glyph-name="T" unicode="T" horiz-adv-x="1046" 
d="M1212 1434l-20 -109h-395q-36 0 -54 6l-2 -2q4 -22 -2 -51l-247 -1278h-117l248 1278q8 38 14 51l-2 2q-18 -6 -53 -6h-396l21 109h1005z" />
    <glyph glyph-name="U" unicode="U" horiz-adv-x="1382" 
d="M631 -31q-229 0 -355 116t-126 327q0 72 16 147l172 875h123l-174 -891q-13 -66 -13 -121q0 -160 95.5 -248t267.5 -88q195 0 319.5 116.5t167.5 340.5l174 891h123l-178 -908q-51 -272 -207 -414.5t-405 -142.5z" />
    <glyph glyph-name="V" unicode="V" horiz-adv-x="1239" 
d="M1409 1434l-879 -1463h-14l-313 1463h129l203 -1006q25 -129 22 -229h8q29 86 113 229l588 1006h143z" />
    <glyph glyph-name="W" unicode="W" horiz-adv-x="1914" 
d="M444 -29l-229 1463h123l129 -932q20 -136 20 -266h9q60 144 127 270l510 956h16l141 -954q23 -160 23 -270h8q55 141 121 266l495 930h136l-797 -1463h-12l-156 1026q-15 104 -8 189h-8q-22 -77 -80 -189l-557 -1026h-11z" />
    <glyph glyph-name="X" unicode="X" horiz-adv-x="1208" 
d="M1319 1434l-395 -461q-148 -168 -203 -221l-2 -7q36 -51 106 -202l262 -543h-135l-227 485q-59 127 -74 187h-4q-31 -53 -143 -185l-412 -487h-155l473 551q7 8 50.5 59.5t77.5 89.5t56 58l2 4q-21 33 -111 221l-219 451h137l189 -412q12 -27 28 -62t23 -51t14 -36
t11 -37h4q5 10 13 22t15.5 22t23 29t25 30.5t32 38t34.5 40.5l350 416h154z" />
    <glyph glyph-name="Y" unicode="Y" horiz-adv-x="1107" 
d="M1268 1434l-643 -883l-107 -551h-115l105 551l-295 883h129l193 -609q33 -102 38 -192h7q32 77 110 192l432 609h146z" />
    <glyph glyph-name="Z" unicode="Z" horiz-adv-x="1193" 
d="M1305 1434l2 -4l-1147 -1334v-6q49 21 205 21h720l-79 -111h-1061v6l1147 1335l-2 7q-62 -25 -207 -25h-596l80 111h938z" />
    <glyph glyph-name="bracketleft" unicode="[" horiz-adv-x="636" 
d="M821 1528l-18 -92h-234q-39 0 -57 6l-2 -2q3 -24 -2 -56l-330 -1685q-6 -34 -18 -55l2 -2q14 6 61 6h232l-19 -92h-387l385 1972h387z" />
    <glyph glyph-name="backslash" unicode="\" horiz-adv-x="1122" 
d="M874 -178l-606 1714l78 31l610 -1717z" />
    <glyph glyph-name="bracketright" unicode="]" horiz-adv-x="634" 
d="M-158 -444l19 92h231q46 0 60 -6l2 2q-3 24 2 55l327 1685q11 42 19 56l-2 2q-14 -6 -62 -6h-231l18 92h387l-383 -1972h-387z" />
    <glyph glyph-name="asciicircum" unicode="^" 
d="M737 1464l303 -659h-98l-264 581l-264 -581h-99l303 659h119z" />
    <glyph glyph-name="underscore" unicode="_" horiz-adv-x="1122" 
d="M-80 -123l19 92h1050l-18 -92h-1051z" />
    <glyph glyph-name="grave" unicode="`" horiz-adv-x="534" 
d="M434 1448l129 -305l-2 -10h-82l-188 307l2 8h141z" />
    <glyph glyph-name="a" unicode="a" horiz-adv-x="1060" 
d="M406 -31q-160 0 -258.5 89t-98.5 235q0 157 110 253.5t292 96.5q144 0 237 -64.5t127 -168.5l6 2q-2 18 13 108q18 105 18 154q0 105 -59.5 155t-188.5 50q-138 0 -323 -45l-23 98q169 45 350 45q348 0 348 -279q0 -46 -12 -123l-113 -575h-106q21 100 51 170l-8 2
q-54 -98 -148 -150.5t-214 -52.5zM428 68q141 0 242.5 73.5t101.5 177.5q0 98 -88 162t-221 64q-137 0 -218 -69.5t-81 -182.5q0 -104 70.5 -164.5t193.5 -60.5z" />
    <glyph glyph-name="b" unicode="b" horiz-adv-x="1236" 
d="M614 -31q-163 0 -265.5 74.5t-139.5 220.5l-6 -2q0 -115 -33 -262h-107l285 1464h109l-103 -518q-36 -171 -61 -229l6 -2q62 125 174 193.5t254 68.5q196 0 314 -122.5t118 -324.5q0 -161 -69.5 -289t-194.5 -200t-281 -72zM602 72q192 0 319.5 130t127.5 326
q0 158 -93 252t-251 94q-194 0 -326.5 -134t-132.5 -330q0 -158 95 -248t261 -90z" />
    <glyph glyph-name="c" unicode="c" horiz-adv-x="1017" 
d="M563 -31q-218 0 -349.5 128.5t-131.5 340.5q0 236 155 387.5t398 151.5q206 0 364 -125l-63 -86q-141 108 -305 108q-188 0 -312 -123.5t-124 -310.5q0 -163 103 -265.5t267 -102.5q135 0 275 86l51 -92q-160 -97 -328 -97z" />
    <glyph glyph-name="d" unicode="d" horiz-adv-x="1239" 
d="M510 -31q-196 0 -314 122.5t-118 324.5q0 244 152.5 402.5t387.5 158.5q167 0 271.5 -76.5t138.5 -222.5l6 2q0 92 33 266l102 518h107l-285 -1464h-106q38 176 59 229l-6 4q-60 -126 -171.5 -195t-256.5 -69zM535 72q194 0 326 134.5t132 330.5q0 158 -96.5 247.5
t-265.5 89.5q-192 0 -317.5 -129t-125.5 -327q0 -159 94 -252.5t253 -93.5z" />
    <glyph glyph-name="e" unicode="e" horiz-adv-x="1118" 
d="M520 -33q-211 0 -327.5 116t-116.5 325q0 246 160 407.5t403 161.5q193 0 304.5 -102t111.5 -279q0 -58 -19 -135h-760q-60 0 -83 10l-3 -2v-16q-4 -54 -4 -60q0 -150 90.5 -235.5t249.5 -85.5q108 0 198 41.5t185 136.5l72 -80q-109 -106 -219 -154.5t-242 -48.5z
M205 535q28 14 82 14h575q40 0 84 -12l4 2q-2 14 -2 55q0 134 -83.5 209.5t-231.5 75.5q-158 0 -281.5 -98.5t-148.5 -243.5z" />
    <glyph glyph-name="f" unicode="f" horiz-adv-x="671" 
d="M795 1452l-21 -100h-16q-114 0 -181 -63t-92 -195l-18 -99q-6 -30 -21 -57l3 -2q17 10 65 10h180l-16 -96h-182q-44 0 -62 10l-4 -2q6 -29 -2 -65l-154 -793h-106l154 793q8 38 22 65l-2 2q-22 -10 -68 -10h-149l18 96h150q47 0 61 -10l4 2q-3 24 2 55l21 113
q34 177 125.5 261.5t251.5 84.5h37z" />
    <glyph glyph-name="g" unicode="g" horiz-adv-x="1220" 
d="M471 -440q-268 0 -465 151l70 90q105 -76 195.5 -107.5t203.5 -31.5q180 0 275.5 81t136.5 271q26 119 33.5 146.5t23.5 68.5l-4 4q-60 -126 -172.5 -195t-255.5 -69q-196 0 -314 123t-118 326q0 243 153.5 401t389.5 158q164 0 268 -75t139 -220l6 2q0 122 33 262h105
l-183 -946q-44 -229 -169 -334.5t-351 -105.5zM535 72q193 0 325.5 134t132.5 329q0 158 -95.5 248.5t-264.5 90.5q-191 0 -317 -129t-126 -327q0 -158 94 -252t251 -94z" />
    <glyph glyph-name="h" unicode="h" horiz-adv-x="1134" 
d="M457 1464l-111 -561q-28 -135 -63 -239l8 -2q69 163 170.5 239t249.5 76q152 0 231.5 -81.5t79.5 -236.5q0 -65 -18 -157l-99 -502h-106l100 506q12 56 12 127q0 119 -60 182.5t-175 63.5q-161 0 -271 -118.5t-153 -336.5l-80 -424h-109l285 1464h109z" />
    <glyph glyph-name="i" unicode="i" horiz-adv-x="403" 
d="M442 1434l-53 -267h-121l51 267h123zM348 946l-184 -946h-107l185 946h106z" />
    <glyph glyph-name="j" unicode="j" horiz-adv-x="403" 
d="M442 1434l-53 -267h-121l51 267h123zM348 946l-213 -1098q-30 -154 -111 -221t-229 -67h-22l20 104h21q89 0 141.5 44.5t73.5 150.5l213 1087h106z" />
    <glyph glyph-name="k" unicode="k" horiz-adv-x="911" 
d="M457 1464l-140 -708q-28 -150 -59 -226l4 -4l500 420h158l-439 -358q-71 -58 -121 -84l2 -2q33 -17 93 -86l350 -416h-141l-408 498l-6 -4q0 -83 -29 -228l-49 -266h-109l285 1464h109z" />
    <glyph glyph-name="l" unicode="l" horiz-adv-x="419" 
d="M457 1464l-285 -1464h-109l285 1464h109z" />
    <glyph glyph-name="m" unicode="m" horiz-adv-x="1675" 
d="M57 0l185 946h106q-35 -176 -67 -252l6 -2q123 285 366 285q125 0 194 -70t73 -200h6q47 130 141.5 200t222.5 70q134 0 206.5 -76t72.5 -215q0 -68 -19 -158l-104 -528h-109l107 543q14 77 14 119q0 104 -52.5 158t-152.5 54q-136 0 -227.5 -98.5t-126.5 -283.5
l-96 -492h-105l103 524q14 71 14 135q0 215 -197 215q-138 0 -232 -106.5t-134 -310.5l-88 -457h-107z" />
    <glyph glyph-name="n" unicode="n" horiz-adv-x="1126" 
d="M57 0l185 946h106l-10 -51q-25 -127 -66 -236l9 -2q71 165 172.5 242.5t248.5 77.5q152 0 232 -81.5t80 -236.5q0 -60 -19 -157l-96 -502h-106l98 506q12 44 12 127q0 119 -60 182.5t-175 63.5q-160 0 -270.5 -118.5t-151.5 -336.5l-82 -424h-107z" />
    <glyph glyph-name="o" unicode="o" horiz-adv-x="1183" 
d="M539 -31q-215 0 -338 119t-123 324q0 119 43.5 224t118.5 179.5t180 118t225 43.5q215 0 338 -118.5t123 -323.5q0 -159 -73.5 -288.5t-203.5 -203.5t-290 -74zM549 72q124 0 227 61.5t162 168t59 233.5q0 157 -97.5 248t-264.5 91q-189 0 -319 -134t-130 -328
q0 -157 98 -248.5t265 -91.5z" />
    <glyph glyph-name="p" unicode="p" horiz-adv-x="1232" 
d="M-23 -410l265 1356h106q-35 -166 -59 -227l4 -4q61 124 174 193t254 69q196 0 315 -123t119 -324q0 -244 -153 -402.5t-388 -158.5q-166 0 -270 75t-141 220l-8 -2q3 -103 -31 -262l-80 -410h-107zM602 70q191 0 316.5 130t125.5 328q0 160 -93.5 254.5t-252.5 94.5
q-194 0 -326 -134.5t-132 -332.5q0 -158 96.5 -249t265.5 -91z" />
    <glyph glyph-name="q" unicode="q" horiz-adv-x="1216" 
d="M803 -410l82 414q34 168 59 225l-6 4q-60 -126 -171.5 -195t-256.5 -69q-196 0 -314 122.5t-118 324.5q0 244 154 402.5t391 158.5q163 0 265.5 -75t139.5 -220l8 2q-3 94 31 262h107l-265 -1356h-106zM535 70q194 0 326 134.5t132 332.5q0 160 -95.5 250t-264.5 90
q-192 0 -318.5 -130.5t-126.5 -328.5q0 -160 93.5 -254t253.5 -94z" />
    <glyph glyph-name="r" unicode="r" horiz-adv-x="667" 
d="M57 0l185 946h106q-37 -183 -80 -315l8 -4q63 185 154 267.5t232 82.5q28 0 71 -6l-22 -117q-55 6 -82 6q-141 0 -245.5 -130t-147.5 -357l-72 -373h-107z" />
    <glyph glyph-name="s" unicode="s" horiz-adv-x="817" 
d="M53 219q86 -78 164.5 -112.5t169.5 -34.5q94 0 145.5 38.5t51.5 108.5q0 47 -28 88.5t-91 85.5l-119 80q-94 64 -134 124.5t-40 137.5q0 111 76.5 176.5t206.5 65.5q168 0 317 -105l-59 -92q-134 94 -256 94q-82 0 -128 -38t-46 -105q0 -49 27 -84t104 -90l112 -76
q94 -66 131 -124t37 -138q0 -120 -80.5 -185t-230.5 -65q-114 0 -210.5 40t-188.5 126z" />
    <glyph glyph-name="t" unicode="t" horiz-adv-x="622" 
d="M557 1452l-88 -446q-8 -34 -23 -68v-2q18 10 66 10h143l-18 -96h-141q-44 0 -62 10l-4 -2q5 -23 -2 -65l-154 -793h-106l154 793q7 44 22 65l-4 2q-23 -10 -66 -10h-141l19 96h141q47 0 61 -10l4 2q-5 30 4 68l70 362l115 84h10z" />
    <glyph glyph-name="u" unicode="u" horiz-adv-x="1075" 
d="M1030 946l-184 -946h-107q39 191 72 274l-8 5q-69 -160 -164 -235t-229 -75q-151 0 -234.5 87t-79.5 239q2 50 17 131l102 520h109l-103 -514q-10 -69 -12 -113q-6 -120 52 -184.5t173 -64.5q152 0 259.5 118.5t148.5 333.5l82 424h106z" />
    <glyph glyph-name="v" unicode="v" horiz-adv-x="968" 
d="M377 -18l-258 964h117l141 -573q15 -61 20 -82.5t10 -58.5t5 -76h4q15 39 34 76t32 58t53 83l366 573h133l-635 -964h-22z" />
    <glyph glyph-name="w" unicode="w" horiz-adv-x="1480" 
d="M322 -18l-193 964h113l104 -586q19 -105 14 -178h7q31 79 92 178l360 605h19l127 -605q22 -105 22 -178h6q19 63 82 178l332 586h129l-569 -964h-19l-133 622q-12 56 -14.5 93.5t0.5 74.5h-4q-25 -79 -78 -168l-377 -622h-20z" />
    <glyph glyph-name="x" unicode="x" horiz-adv-x="929" 
d="M967 946l-367 -385q-3 -3 -12.5 -13.5t-17 -18t-19.5 -17.5t-23 -16l-2 -7q17 -17 41 -63l250 -426h-119l-194 338q-32 66 -37 96h-4q-27 -47 -78 -98l-322 -336h-135l420 440q53 53 66 62l2 6q-23 23 -47 67l-215 371h118l166 -291q27 -44 37 -100h4q27 47 78 100
l277 291h133z" />
    <glyph glyph-name="y" unicode="y" horiz-adv-x="960" 
d="M1028 946l-862 -1356h-121l311 484l-237 872h110l158 -586q22 -84 28 -126t3 -93l8 2q23 74 102 199l379 604h121z" />
    <glyph glyph-name="z" unicode="z" horiz-adv-x="921" 
d="M-61 0l-2 10l833 854l-2 6q-38 -16 -76 -20t-135 -4h-383l82 100h721l2 -8l-836 -856l4 -4q36 15 68 18.5t113 3.5h485l-88 -100h-786z" />
    <glyph glyph-name="braceleft" unicode="{" horiz-adv-x="759" 
d="M496 -444q-132 0 -202.5 61t-70.5 186q0 60 10 109l72 367q8 54 8 69q0 77 -52.5 116.5t-166.5 43.5l23 113q139 6 208 59.5t91 167.5l65 334q33 180 130 263t266 83h49l-19 -98h-43q-121 0 -188 -59t-92 -189l-64 -332q-25 -130 -100 -200t-215 -83l-2 -8
q112 -10 163.5 -59t51.5 -138q0 -45 -10 -86l-72 -374q-8 -41 -8 -82q0 -85 44 -124.5t138 -39.5h53l-18 -100h-49z" />
    <glyph glyph-name="bar" unicode="|" horiz-adv-x="538" 
d="M45 -457l379 1946h86l-379 -1946h-86z" />
    <glyph glyph-name="braceright" unicode="}" horiz-adv-x="757" 
d="M291 1528q132 0 202 -61.5t70 -186.5q0 -58 -10 -109l-74 -366q-6 -37 -6 -68q0 -79 51 -117t166 -42l-20 -113q-138 -6 -207.5 -60t-91.5 -167l-66 -336q-35 -180 -131 -263t-266 -83h-49l20 98h43q119 0 187 59t94 189l63 334q25 130 99.5 198.5t214.5 81.5l2 8
q-111 10 -162 59t-51 138q0 45 8 86l74 375q6 46 6 84q0 83 -44.5 123.5t-136.5 40.5h-53l19 98h49z" />
    <glyph glyph-name="asciitilde" unicode="~" 
d="M408 741q66 0 133 -23t113.5 -50.5t108.5 -50.5t118 -23q68 0 124.5 28.5t120.5 82.5l58 -82q-155 -129 -310 -129q-66 0 -133 23t-113.5 50.5t-108.5 50.5t-118 23q-68 0 -124.5 -28.5t-120.5 -82.5l-58 82q155 129 310 129z" />
    <glyph glyph-name="exclamdown" unicode="&#xa1;" horiz-adv-x="626" 
d="M508 1012l-37 -185h-180l37 185h180zM82 -422l223 1024h74l-174 -1024h-123z" />
    <glyph glyph-name="cent" unicode="&#xa2;" horiz-adv-x="1017" 
d="M424 -135l14 67q4 30 17 52l-2 2q-37 0 -64 8q-141 43 -223 164.5t-82 285.5q0 139 58.5 253.5t172.5 189t267 88.5q36 3 61 -2l2 2q-3 15 4 45l13 63h61l-12 -61q-6 -31 -13 -49l2 -2q19 7 45 -2q85 -20 139.5 -44t116.5 -73l-63 -86q-104 75 -209 98q-28 5 -51 15
l-2 -2q3 -27 -4 -58l-131 -665q-12 -59 -23 -82l2 -2q32 4 55 4q132 3 267 86l49 -94q-160 -97 -328 -97q-37 0 -59 11l-2 -3q3 -25 -4 -55l-13 -57h-61zM467 76l4 2q0 33 10 84l129 659q7 37 17 56l-2 2q-39 -9 -66 -11q-162 -25 -262 -144.5t-100 -283.5q0 -118 53.5 -205
t146.5 -129q59 -20 70 -30z" />
    <glyph glyph-name="sterling" unicode="&#xa3;" horiz-adv-x="1189" 
d="M629 -29q-72 0 -173.5 39t-148.5 39q-64 0 -182 -59l-39 88q62 33 114.5 73.5t100 92.5t75 117t27.5 135q0 20 -2.5 41t-6 37t-10.5 40t-11 36t-14 39.5t-13 37.5h-203l13 61h118q35 0 58 -6l2 2q-16 19 -23 43q-24 84 -24 164q0 85 27.5 159.5t81 134t142 94t201.5 34.5
q219 0 387 -141l-67 -92q-137 131 -320 131q-84 0 -150.5 -26.5t-107 -72t-61.5 -101.5t-21 -118q0 -78 43 -205h461l-12 -61h-377q-39 0 -55 8l-2 -2q12 -21 20 -49q35 -103 35 -186q0 -40 -8.5 -77.5t-20 -66t-33 -58t-37.5 -47.5t-44.5 -41.5t-42.5 -34t-42.5 -30
t-35.5 -24.5l2 -8q61 30 117 30q51 0 130.5 -35.5t135.5 -35.5q135 0 280 141l60 -82q-173 -158 -344 -158z" />
    <glyph glyph-name="currency" unicode="&#xa4;" 
d="M1128 662q0 -190 -118 -320l116 -117l-43 -39l-114 117q-131 -115 -322 -115q-187 0 -321 115l-117 -117l-39 41l115 115q-119 135 -119 324q0 184 119 319l-113 115l41 41l115 -115q132 113 319 113q188 0 322 -115l116 117l41 -41l-116 -115q118 -130 118 -323z
M647 285q171 0 276 106.5t105 270.5q0 166 -105 273t-274 107q-171 0 -276 -106t-105 -270q0 -166 105 -273.5t274 -107.5z" />
    <glyph glyph-name="yen" unicode="&#xa5;" horiz-adv-x="1193" 
d="M455 0l92 483h-385l12 62h322q32 0 57 -8l2 4q-16 26 -23 55l-20 63h-315l12 62h227q35 0 62 -8l4 4q-21 40 -29 65l-180 600h113l176 -624q25 -91 28 -168h4q30 68 95 168l417 624h127l-419 -612q-24 -33 -48 -53l2 -2q20 6 66 6h227l-12 -62h-313l-56 -79
q-11 -17 -34 -37l2 -4q27 6 61 6h318l-13 -62h-385l-92 -483h-102z" />
    <glyph glyph-name="brokenbar" unicode="&#xa6;" horiz-adv-x="538" 
d="M268 690l156 799h86l-156 -799h-86zM293 371l-162 -828h-86l162 828h86z" />
    <glyph glyph-name="section" unicode="&#xa7;" horiz-adv-x="1081" 
d="M682 1362q-139 0 -213 -61t-74 -156q0 -55 26 -98.5t68 -70t96.5 -52t110.5 -44.5t110.5 -48.5t96.5 -63t68 -88.5t26 -125q0 -124 -74 -201t-202 -125q113 -85 113 -231q0 -144 -101 -234t-295 -90q-110 0 -215.5 30t-185.5 81l63 94q168 -102 338 -102q139 0 213 61
t74 156q0 62 -33.5 108.5t-86.5 75.5t-117.5 54t-129 53.5t-117.5 64t-86.5 95.5t-33.5 139q0 64 21.5 117t61.5 91.5t87 66t108 50.5q-112 84 -112 232q0 144 100.5 233.5t294.5 89.5q110 0 214.5 -29.5t184.5 -80.5l-61 -94q-168 102 -338 102zM889 551q0 46 -18.5 83
t-47 61t-72.5 47t-84 38t-94 36.5t-90 39.5q-252 -93 -252 -268q0 -46 18.5 -83t47 -61t72.5 -47t84 -38t94 -36.5t90 -39.5q252 93 252 268z" />
    <glyph glyph-name="dieresis" unicode="&#xa8;" horiz-adv-x="655" 
d="M410 1434l-48 -246h-120l47 246h121zM739 1434l-47 -246h-123l49 246h121z" />
    <glyph glyph-name="copyright" unicode="&#xa9;" horiz-adv-x="1742" 
d="M920 1464q208 0 379.5 -96t271.5 -268.5t100 -386.5q0 -210 -99.5 -381t-271.5 -267t-382 -96q-156 0 -294.5 56.5t-239 155.5t-159.5 239.5t-59 300.5q0 158 58.5 296.5t159 236t240 154t296.5 56.5zM918 1391q-188 0 -342 -86t-243 -240t-89 -344q0 -195 89.5 -350.5
t244 -241.5t342.5 -86q187 0 341 86t243 240t89 344q0 195 -89.5 350.5t-243.5 241.5t-342 86zM922 1188q169 0 311 -101l-47 -75q-126 86 -266 86q-168 0 -270.5 -103.5t-102.5 -267.5q0 -169 102.5 -273t268.5 -104q150 0 268 84l51 -78q-146 -98 -317 -98
q-208 0 -339.5 132t-131.5 337q0 202 131.5 331.5t341.5 129.5z" />
    <glyph glyph-name="ordfeminine" unicode="&#xaa;" horiz-adv-x="788" 
d="M438 692q-110 0 -177.5 59t-67.5 154q0 104 74 168t194 64q85 0 149.5 -35.5t96.5 -100.5l8 3q0 30 12 94q6 35 6 59q0 60 -36 87.5t-119 27.5q-86 0 -222 -37l-18 86q153 39 254 39q118 0 176.5 -44.5t58.5 -141.5q0 -39 -14 -113l-70 -348h-98q9 48 37 123l-4 2
q-81 -146 -240 -146zM463 776q85 0 147 46.5t62 109.5q0 55 -54 91t-137 36t-130.5 -41t-47.5 -111q0 -59 44 -95t116 -36z" />
    <glyph glyph-name="guillemotleft" unicode="&#xab;" horiz-adv-x="778" 
d="M545 856l-2 -8l-232 -246q-86 -91 -111 -115t-44 -34v-9q3 -2 5.5 -4t5 -4.5t5.5 -7l6 -9t7.5 -12t8 -14t10.5 -18.5t12.5 -22.5t15.5 -27.5t18 -32l127 -221l-2 -9h-99l-221 396l375 397h115zM817 856l-2 -8l-231 -246q-84 -88 -110 -113.5t-46 -35.5v-9q3 -2 5.5 -4
t5 -4.5t5.5 -7l6 -9t7.5 -12t8 -14t10.5 -18.5t12.5 -22.5t15.5 -27.5t18 -32l125 -221l-2 -9h-96l-223 396l376 397h115z" />
    <glyph glyph-name="logicalnot" unicode="&#xac;" 
d="M174 885h936v-70v-473h-66v473h-870v70z" />
    <glyph glyph-name="uni00AD" unicode="&#xad;" horiz-adv-x="743" 
d="M662 612l-23 -108h-526l22 108h527z" />
    <glyph glyph-name="registered" unicode="&#xae;" horiz-adv-x="1177" 
d="M688 1464q207 0 342 -134.5t135 -344.5q0 -203 -134.5 -337t-342.5 -134q-207 0 -341 134.5t-134 344.5q0 203 134.5 337t340.5 134zM690 1403q-179 0 -296.5 -115.5t-117.5 -294.5q0 -185 117.5 -301.5t294.5 -116.5q179 0 296.5 115.5t117.5 294.5q0 185 -117.5 301.5
t-294.5 116.5zM731 1270q70 0 116 -40.5t46 -109.5q0 -66 -47 -107.5t-119 -41.5l-2 -6q22 -11 55 -52l133 -163v-9h-75l-181 228h-55v-228h-65v529h194zM727 1206h-125v-176h125q43 0 70.5 25t27.5 63q0 41 -28 64.5t-70 23.5z" />
    <glyph glyph-name="macron" unicode="&#xaf;" horiz-adv-x="770" 
d="M840 1356l-17 -88h-565l16 88h566z" />
    <glyph glyph-name="degree" unicode="&#xb0;" horiz-adv-x="739" 
d="M498 1413q121 0 201.5 -78.5t80.5 -201.5q0 -120 -80 -198.5t-200 -78.5q-121 0 -202 79t-81 202q0 120 79.5 198t201.5 78zM498 1348q-90 0 -150.5 -59.5t-60.5 -151.5q0 -95 60 -155t151 -60q93 0 153 59t60 152q0 96 -60 155.5t-153 59.5z" />
    <glyph glyph-name="plusminus" unicode="&#xb1;" 
d="M655 1069l2 -297h455l-2 -65h-455l2 -297h-69l-2 297h-455l2 65h455l-2 297h69zM1110 313v-65h-979v65h979z" />
    <glyph glyph-name="uni00B2" unicode="&#xb2;" horiz-adv-x="770" 
d="M94 713l-2 6l508 465q73 65 113.5 122.5t40.5 116.5q0 60 -42 94.5t-104 34.5q-111 0 -262 -104l-51 80q165 119 319 119q112 0 178 -56.5t66 -152.5q0 -80 -43 -150t-141 -160l-256 -235q-67 -62 -121 -94l2 -2q68 10 143 10h312l2 -4l-72 -90h-590z" />
    <glyph glyph-name="uni00B3" unicode="&#xb3;" horiz-adv-x="749" 
d="M414 692q-166 0 -289 70l47 92q118 -66 244 -66t191 53.5t65 143.5t-70 135t-219 45l18 90q133 0 218.5 47.5t85.5 135.5q0 63 -42.5 89.5t-105.5 26.5q-102 0 -240 -65l-36 84q148 74 288 74q116 0 180 -51t64 -146q0 -85 -49.5 -134.5t-140.5 -78.5q-27 -9 -70 -14v-6
q11 0 65 -9q66 -19 111 -77.5t45 -147.5q0 -55 -19.5 -104.5t-60 -92.5t-112.5 -68.5t-168 -25.5z" />
    <glyph glyph-name="acute" unicode="&#xb4;" horiz-adv-x="534" 
d="M623 1448l-2 -8l-308 -307h-82l2 10l248 305h142z" />
    <glyph glyph-name="uni00B5" unicode="&#xb5;" horiz-adv-x="1075" 
d="M924 946h106l-184 -946h-107q39 191 72 274l-8 5q-69 -160 -164 -235t-229 -75q-169 0 -252 109l-95 -488h-104l139 719q3 58 15 117l102 520h109l-80 -405h2l-35 -181q0 -7 -1 -21t-1 -20q-6 -120 52 -184.5t173 -64.5q152 0 259.5 118.5t148.5 333.5z" />
    <glyph glyph-name="paragraph" unicode="&#xb6;" horiz-adv-x="1191" 
d="M1276 1434l-19 -88h-114l-303 -1563h-95l304 1563h-281l-303 -1563h-94l166 852q-146 0 -237 99t-91 259q0 134 69 235.5t182.5 153.5t252.5 52h563z" />
    <glyph glyph-name="periodcentered" unicode="&#xb7;" horiz-adv-x="385" 
d="M158 762l37 184h180l-37 -184h-180z" />
    <glyph glyph-name="cedilla" unicode="&#xb8;" horiz-adv-x="479" 
d="M160 25l-64 -111q28 -7 49.5 -15.5t45 -23t36.5 -37t13 -51.5q0 -28 -10.5 -53.5t-34.5 -48t-46 -39t-63 -36.5t-67 -31.5t-74 -31.5l-15 47l61.5 31.5t49.5 26.5t42.5 26.5t28 24t20 26.5t5.5 27q0 32 -33 51t-104 33l102 185h58z" />
    <glyph glyph-name="uni00B9" unicode="&#xb9;" horiz-adv-x="538" 
d="M332 713l119 604q9 53 32 110l-2 5q-18 -18 -59 -39l-143 -70l20 102l203 117l35 84h71l-176 -913h-100z" />
    <glyph glyph-name="ordmasculine" unicode="&#xba;" horiz-adv-x="897" 
d="M520 692q-141 0 -228 78t-87 217q0 158 106 265.5t279 107.5q142 0 229.5 -78t87.5 -217q0 -158 -107 -265.5t-280 -107.5zM522 782q122 0 203.5 79.5t81.5 199.5q0 99 -60 154t-157 55q-123 0 -205 -79.5t-82 -199.5q0 -99 60.5 -154t158.5 -55z" />
    <glyph glyph-name="guillemotright" unicode="&#xbb;" horiz-adv-x="776" 
d="M-43 63l2 9l229 245q86 91 111.5 115.5t44.5 34.5v8q-3 2 -5.5 4.5t-6 6.5t-6 7.5t-7.5 11t-8.5 14.5t-10.5 19.5t-13.5 23.5t-16.5 29.5t-20 35.5l-125 221l2 8h98l221 -395l-376 -398h-113zM227 63l2 9l232 245l1 1l1 1l1 1l1 1l1 1l1 1l1 1l1 1l1 1l1 1l1 1l1 1l1 1
l1 1l1 1l1 1l1 1l1 1l1 2q101 107 122 121q6 5 14 9v8q-3 2 -5.5 4.5t-6 6.5t-6 7.5t-7.5 11t-8.5 14.5t-10.5 19.5t-13.5 23.5t-16.5 29.5t-20 35.5l-127 221l2 8h99l221 -395l-375 -398h-115z" />
    <glyph glyph-name="onequarter" unicode="&#xbc;" horiz-adv-x="1382" 
d="M104 0l1000 1382h84l-1000 -1382h-84zM295 592l104 538q8 49 29 95l-4 2q-15 -18 -49 -33l-144 -61l15 73l192 101l31 75h53l-153 -790h-74zM1026 0l25 127q4 22 8 33h-2q-8 -2 -27 -2h-399l10 59l533 574h79l-102 -533q-4 -18 -10 -31l2 -2q6 2 22 2h97l-41 -69h-68
q-19 0 -25 2h-2q0 -19 -2 -29l-24 -131h-74zM729 223q28 4 66 4h239q27 0 37 -4l4 2q-2 12 2 39l68 348q10 57 18 80l-2 2q-17 -28 -53 -67l-330 -351q-31 -35 -49 -51v-2z" />
    <glyph glyph-name="onehalf" unicode="&#xbd;" horiz-adv-x="1347" 
d="M104 0l1000 1382h84l-1000 -1382h-84zM295 592l104 538q8 49 29 95l-4 2q-15 -18 -49 -33l-144 -61l15 73l192 101l31 75h53l-153 -790h-74zM639 0l-4 6l422 400q135 128 135 219q0 56 -37 81t-94 25q-95 0 -215 -59l-31 67q136 70 252 70q95 0 152 -46t57 -136
q0 -68 -38 -128t-124 -143l-219 -211q-69 -61 -102 -79v-3q35 9 120 9h273l-53 -72h-494z" />
    <glyph glyph-name="threequarters" unicode="&#xbe;" horiz-adv-x="1570" 
d="M385 573q-142 0 -246 56l37 71q115 -51 215 -51q112 0 171 46.5t59 129.5q0 81 -61 120.5t-198 39.5l15 72q127 0 203.5 40.5t76.5 121.5q0 108 -145 108q-97 0 -207 -47l-24 66q112 55 235 55q106 0 164.5 -47.5t58.5 -130.5q0 -88 -65.5 -137.5t-169.5 -57.5v-4
q88 0 143 -51t55 -146q0 -50 -16.5 -93t-52 -80.5t-99 -59t-149.5 -21.5zM295 0l999 1382h84l-999 -1382h-84zM1217 0l24 127q4 22 8 33h-2q-8 -2 -26 -2h-400l10 59l533 574h80l-103 -533q-4 -18 -10 -31l2 -2q6 2 23 2h96l-41 -69h-68q-18 0 -24 2h-2q0 -19 -2 -29
l-25 -131h-73zM920 223q28 4 65 4h240q27 0 37 -4l4 2q-2 12 2 39l67 348q9 51 19 80l-2 2q-15 -25 -54 -67l-329 -351q-31 -35 -49 -51v-2z" />
    <glyph glyph-name="questiondown" unicode="&#xbf;" horiz-adv-x="731" 
d="M551 1014l-37 -185h-180l37 185h180zM195 -451q-138 0 -210.5 59t-72.5 169q0 86 44 151.5t155 147.5l139 100q66 47 94.5 89.5t28.5 92.5q0 46 -26.5 85t-100.5 98l76 82q90 -70 126.5 -129t36.5 -134q0 -144 -153 -254l-137 -98q-98 -69 -133 -114.5t-35 -102.5
q0 -66 46 -103.5t128 -37.5q145 0 319 108l47 -98q-201 -111 -372 -111z" />
    <glyph glyph-name="Agrave" unicode="&#xc0;" horiz-adv-x="1361" 
d="M786 1747l144 -219l-4 -6h-82l-199 219l4 6h137zM-63 0l929 1464h13l362 -1464h-117l-114 461h-648l-288 -461h-137zM414 557q58 4 114 4h353q56 0 114 -4v2q-21 41 -37 119l-94 414q-23 120 -20 176h-4q-23 -67 -88 -176l-254 -414q-47 -76 -84 -119v-2z" />
    <glyph glyph-name="Aacute" unicode="&#xc1;" horiz-adv-x="1361" 
d="M1212 1747v-6l-282 -219h-82l-2 6l229 219h137zM-63 0l929 1464h13l362 -1464h-117l-114 461h-648l-288 -461h-137zM414 557q58 4 114 4h353q56 0 114 -4v2q-21 41 -37 119l-94 414q-23 120 -20 176h-4q-23 -67 -88 -176l-254 -414q-47 -76 -84 -119v-2z" />
    <glyph glyph-name="Acircumflex" unicode="&#xc2;" horiz-adv-x="1361" 
d="M575 1522l3 6l286 239h131l195 -239l-2 -6h-109l-73 90q-5 6 -15.5 18.5t-14 16t-11 13t-10 13.5t-7 11.5t-6.5 13t-4.5 13t-3.5 15.5h-6q-18 -31 -40 -53t-75 -61l-115 -90h-123zM-63 0l929 1464h13l362 -1464h-117l-114 461h-648l-288 -461h-137zM414 557q58 4 114 4
h353q56 0 114 -4v2q-21 41 -37 119l-94 414q-23 120 -20 176h-4q-23 -67 -88 -176l-254 -414q-47 -76 -84 -119v-2z" />
    <glyph glyph-name="Atilde" unicode="&#xc3;" horiz-adv-x="1361" 
d="M1077 1534q-50 0 -112.5 28t-118 55.5t-90.5 27.5q-61 0 -119 -89l-57 21q43 80 73 111q56 59 131 59q41 0 89.5 -17.5t85 -38t78 -38t69.5 -17.5q62 0 117 90l57 -22q-18 -35 -29.5 -54t-37.5 -51.5t-60 -48.5t-76 -16zM-63 0l929 1464h13l362 -1464h-117l-114 461h-648
l-288 -461h-137zM414 557q58 4 114 4h353q56 0 114 -4v2q-21 41 -37 119l-94 414q-23 120 -20 176h-4q-23 -67 -88 -176l-254 -414q-47 -76 -84 -119v-2z" />
    <glyph glyph-name="Adieresis" unicode="&#xc4;" horiz-adv-x="1361" 
d="M700 1747h123l-45 -225h-121zM1028 1747h123l-45 -225h-121zM-63 0l929 1464h13l362 -1464h-117l-114 461h-648l-288 -461h-137zM414 557q58 4 114 4h353q56 0 114 -4v2q-21 41 -37 119l-94 414q-23 120 -20 176h-4q-23 -67 -88 -176l-254 -414q-47 -76 -84 -119v-2z" />
    <glyph glyph-name="Aring" unicode="&#xc5;" horiz-adv-x="1361" 
d="M895 1401l346 -1401h-117l-114 461h-648l-288 -461h-137l890 1401q-83 12 -128.5 67.5t-45.5 135.5q0 117 77.5 195.5t199.5 78.5q101 0 157 -57.5t56 -149.5q0 -109 -68.5 -185t-179.5 -85zM725 1608q0 -67 38.5 -105.5t108.5 -38.5q89 0 145 59t56 144q0 67 -39 105
t-110 38q-88 0 -143.5 -58.5t-55.5 -143.5zM995 557v2q-21 41 -37 119l-94 414q-23 120 -20 176h-4q-23 -67 -88 -176l-254 -414q-47 -76 -84 -119v-2q58 4 114 4h353q56 0 114 -4z" />
    <glyph glyph-name="AE" unicode="&#xc6;" horiz-adv-x="1804" 
d="M1374 1327q-41 0 -53 4l-2 -2q3 -17 -4 -51l-76 -387q-7 -31 -16 -49l4 -2q12 4 53 4h504l-21 -107h-503q-42 0 -54 6l-2 -4q3 -15 -4 -49l-104 -534q-6 -30 -17 -52l2 -2q14 4 54 4h569l-21 -106h-727l82 414q7 35 15 51v2q-21 -6 -56 -6h-516l-403 -461h-141l1249 1434
h766l-19 -107h-559zM1016 561q41 0 53 -6l2 4q-3 14 4 49l123 615q11 50 31 120h-4q-29 -52 -84 -112l-516 -602q-46 -54 -86 -74l2 -4q37 10 112 10h363z" />
    <glyph glyph-name="Ccedilla" unicode="&#xc7;" horiz-adv-x="1456" 
d="M981 1350q-204 0 -370 -94t-260.5 -260t-94.5 -369q0 -256 145.5 -399.5t405.5 -143.5q111 0 214 33.5t224 107.5l64 -96q-236 -157 -504 -160l-33 -55q28 -7 49.5 -15.5t45 -23t36 -37t12.5 -51.5q0 -34 -18 -64.5t-41.5 -52t-69 -46.5t-76.5 -39t-89 -38l-15 47
l61.5 31.5t49.5 26.5t42.5 26.5t28 24t20 26.5t5.5 27q0 32 -33 51t-104 33l72 129q-286 14 -450.5 188.5t-164.5 465.5q0 240 110.5 432.5t307 300.5t442.5 108q283 0 492 -164l-72 -96q-199 146 -432 146z" />
    <glyph glyph-name="Egrave" unicode="&#xc8;" horiz-adv-x="1050" 
d="M705 1747l143 -219l-4 -6h-82l-199 219l4 6h138zM1145 1434l-21 -107h-624q-39 0 -51 4l-5 -2q4 -23 -4 -49l-73 -389q-6 -27 -17 -49l2 -2q14 4 54 4h561l-21 -107h-559q-35 0 -53 6l-2 -2q3 -17 -4 -51l-105 -536q-6 -30 -16 -50l2 -2q12 4 53 4h635l-20 -106h-799
l278 1434h789z" />
    <glyph glyph-name="Eacute" unicode="&#xc9;" horiz-adv-x="1050" 
d="M1130 1747v-6l-282 -219h-82l-2 6l229 219h137zM1145 1434l-21 -107h-624q-39 0 -51 4l-5 -2q4 -23 -4 -49l-73 -389q-6 -27 -17 -49l2 -2q14 4 54 4h561l-21 -107h-559q-35 0 -53 6l-2 -2q3 -17 -4 -51l-105 -536q-6 -30 -16 -50l2 -2q12 4 53 4h635l-20 -106h-799
l278 1434h789z" />
    <glyph glyph-name="Ecircumflex" unicode="&#xca;" horiz-adv-x="1050" 
d="M494 1522l2 6l286 239h131l195 -239l-2 -6h-109l-73 90q-5 6 -15.5 18.5t-14 16t-11 13t-10 13.5t-7 11.5t-6.5 13t-4.5 13t-3.5 15.5h-6q-18 -31 -40 -53t-75 -61l-115 -90h-122zM1145 1434l-21 -107h-624q-39 0 -51 4l-5 -2q4 -23 -4 -49l-73 -389q-6 -27 -17 -49l2 -2
q14 4 54 4h561l-21 -107h-559q-35 0 -53 6l-2 -2q3 -17 -4 -51l-105 -536q-6 -30 -16 -50l2 -2q12 4 53 4h635l-20 -106h-799l278 1434h789z" />
    <glyph glyph-name="Edieresis" unicode="&#xcb;" horiz-adv-x="1050" 
d="M618 1747h123l-45 -225h-121zM946 1747h123l-45 -225h-121zM1145 1434l-21 -107h-624q-39 0 -51 4l-5 -2q4 -23 -4 -49l-73 -389q-6 -27 -17 -49l2 -2q14 4 54 4h561l-21 -107h-559q-35 0 -53 6l-2 -2q3 -17 -4 -51l-105 -536q-6 -30 -16 -50l2 -2q12 4 53 4h635
l-20 -106h-799l278 1434h789z" />
    <glyph glyph-name="Igrave" unicode="&#xcc;" horiz-adv-x="454" 
d="M332 1747l143 -219l-4 -6h-82l-199 219l5 6h137zM473 1434l-278 -1434h-117l278 1434h117z" />
    <glyph glyph-name="Iacute" unicode="&#xcd;" horiz-adv-x="454" 
d="M760 1747v-6l-283 -219h-82l-2 6l230 219h137zM473 1434l-278 -1434h-117l278 1434h117z" />
    <glyph glyph-name="Icircumflex" unicode="&#xce;" horiz-adv-x="454" 
d="M123 1522l2 6l287 239h131l194 -239l-2 -6h-108l-74 90q-5 6 -15.5 18.5t-14 16t-11 13t-10 13.5t-7 11.5t-6.5 13t-4.5 13t-3.5 15.5h-6q-18 -31 -40 -53t-75 -61l-114 -90h-123zM473 1434l-278 -1434h-117l278 1434h117z" />
    <glyph glyph-name="Idieresis" unicode="&#xcf;" horiz-adv-x="454" 
d="M248 1747h123l-45 -225h-121zM575 1747h123l-45 -225h-121zM473 1434l-278 -1434h-117l278 1434h117z" />
    <glyph glyph-name="Eth" unicode="&#xd0;" horiz-adv-x="1513" 
d="M862 1434q283 0 449 -163t166 -454q0 -184 -68 -338.5t-186 -259t-278.5 -162t-344.5 -57.5h-444l123 629q3 26 14 49l-2 2q-14 -4 -53 -4h-197l18 104h197q41 0 53 -6l2 4q-3 14 4 49l21 97l98 510h428zM610 106q120 0 231.5 31t204.5 92t162.5 145t108.5 196.5
t39 240.5q0 246 -139 381t-369 135h-268q-42 0 -54 4l-2 -2q3 -16 -4 -49l-69 -356l-19 -97q-7 -33 -16 -49l2 -4q12 6 53 6h422l-19 -104h-423q-40 0 -52 4l-4 -2q4 -21 -2 -49l-92 -475q-8 -39 -16 -50l2 -2q14 4 53 4h270z" />
    <glyph glyph-name="Ntilde" unicode="&#xd1;" horiz-adv-x="1449" 
d="M1118 1534q-50 0 -112.5 28t-118 55.5t-90.5 27.5q-61 0 -119 -89l-57 21q43 80 73 111q56 59 131 59q41 0 89.5 -17.5t85 -38t78 -38t69.5 -17.5q62 0 117 90l57 -22q-18 -35 -29.5 -54t-37.5 -51.5t-60 -48.5t-76 -16zM375 1454l669 -1069q66 -104 82 -164l4 2
q2 92 35 258l187 953h114l-282 -1454h-19l-663 1071q-67 99 -84 161l-4 -2q-2 -90 -35 -256l-186 -954h-115l282 1454h15z" />
    <glyph glyph-name="Ograve" unicode="&#xd2;" horiz-adv-x="1724" 
d="M909 1747l144 -219l-4 -6h-82l-199 219l4 6h137zM848 -31q-324 0 -516.5 185.5t-192.5 494.5q0 173 63.5 324.5t173.5 259t265 169.5t332 62q322 0 515 -185.5t193 -494.5q0 -231 -107.5 -417.5t-298.5 -292t-427 -105.5zM850 84q203 0 365 91t253 253t91 365
q0 249 -162.5 403t-425.5 154q-203 0 -365.5 -90.5t-254 -253t-91.5 -365.5q0 -249 163 -403t427 -154z" />
    <glyph glyph-name="Oacute" unicode="&#xd3;" horiz-adv-x="1724" 
d="M1337 1747v-6l-282 -219h-82l-2 6l229 219h137zM848 -31q-324 0 -516.5 185.5t-192.5 494.5q0 173 63.5 324.5t173.5 259t265 169.5t332 62q322 0 515 -185.5t193 -494.5q0 -231 -107.5 -417.5t-298.5 -292t-427 -105.5zM850 84q203 0 365 91t253 253t91 365
q0 249 -162.5 403t-425.5 154q-203 0 -365.5 -90.5t-254 -253t-91.5 -365.5q0 -249 163 -403t427 -154z" />
    <glyph glyph-name="Ocircumflex" unicode="&#xd4;" horiz-adv-x="1724" 
d="M698 1522l2 6l287 239h131l195 -239l-2 -6h-109l-74 90q-3 4 -12.5 14.5t-12 13.5t-9 11.5t-8.5 11.5t-7 9.5t-6.5 10t-5 9.5t-4.5 11t-3 11t-3 12h-6q-18 -31 -40 -53t-75 -61l-115 -90h-123zM848 -31q-324 0 -516.5 185.5t-192.5 494.5q0 173 63.5 324.5t173.5 259
t265 169.5t332 62q322 0 515 -185.5t193 -494.5q0 -231 -107.5 -417.5t-298.5 -292t-427 -105.5zM850 84q203 0 365 91t253 253t91 365q0 249 -162.5 403t-425.5 154q-203 0 -365.5 -90.5t-254 -253t-91.5 -365.5q0 -249 163 -403t427 -154z" />
    <glyph glyph-name="Otilde" unicode="&#xd5;" horiz-adv-x="1724" 
d="M1200 1534q-50 0 -112.5 28t-118 55.5t-90.5 27.5q-61 0 -119 -89l-58 21q44 81 76 113q55 57 129 57q41 0 89.5 -17.5t85 -38t78 -38t69.5 -17.5q62 0 117 90l57 -22q-18 -35 -29.5 -54t-37.5 -51.5t-60 -48.5t-76 -16zM848 -31q-324 0 -516.5 185.5t-192.5 494.5
q0 173 63.5 324.5t173.5 259t265 169.5t332 62q322 0 515 -185.5t193 -494.5q0 -231 -107.5 -417.5t-298.5 -292t-427 -105.5zM850 84q203 0 365 91t253 253t91 365q0 249 -162.5 403t-425.5 154q-203 0 -365.5 -90.5t-254 -253t-91.5 -365.5q0 -249 163 -403t427 -154z" />
    <glyph glyph-name="Odieresis" unicode="&#xd6;" horiz-adv-x="1724" 
d="M823 1747h123l-45 -225h-121zM1151 1747h123l-45 -225h-121zM848 -31q-324 0 -516.5 185.5t-192.5 494.5q0 173 63.5 324.5t173.5 259t265 169.5t332 62q322 0 515 -185.5t193 -494.5q0 -231 -107.5 -417.5t-298.5 -292t-427 -105.5zM850 84q203 0 365 91t253 253t91 365
q0 249 -162.5 403t-425.5 154q-203 0 -365.5 -90.5t-254 -253t-91.5 -365.5q0 -249 163 -403t427 -154z" />
    <glyph glyph-name="multiply" unicode="&#xd7;" 
d="M1022 1042l49 -51l-381 -383l379 -379l-47 -49l-379 381l-383 -383l-51 51l383 383l-381 379l47 49l381 -381z" />
    <glyph glyph-name="Oslash" unicode="&#xd8;" horiz-adv-x="1724" 
d="M1487 1280q194 -185 194 -496q0 -231 -107.5 -417.5t-298.5 -292t-427 -105.5q-260 0 -440 125l-117 -129l-49 39l114 127q-217 186 -217 518q0 173 63.5 324.5t173.5 259t265 169.5t332 62q279 0 467 -143l127 141l47 -41zM260 641q0 -131 46.5 -238.5t133.5 -181.5
l916 1010q-153 119 -385 119q-203 0 -365.5 -90.5t-254 -253t-91.5 -365.5zM850 84q203 0 365 91t253 253t91 365q0 244 -156 397l-914 -1006q145 -100 361 -100z" />
    <glyph glyph-name="Ugrave" unicode="&#xd9;" horiz-adv-x="1382" 
d="M795 1747l143 -219l-4 -6h-82l-199 219l4 6h138zM631 -31q-229 0 -355 116t-126 327q0 72 16 147l172 875h123l-174 -891q-13 -66 -13 -121q0 -160 95.5 -248t267.5 -88q195 0 319.5 116.5t167.5 340.5l174 891h123l-178 -908q-51 -272 -207 -414.5t-405 -142.5z" />
    <glyph glyph-name="Uacute" unicode="&#xda;" horiz-adv-x="1382" 
d="M1221 1747v-6l-283 -219h-82l-2 6l229 219h138zM631 -31q-229 0 -355 116t-126 327q0 72 16 147l172 875h123l-174 -891q-13 -66 -13 -121q0 -160 95.5 -248t267.5 -88q195 0 319.5 116.5t167.5 340.5l174 891h123l-178 -908q-51 -272 -207 -414.5t-405 -142.5z" />
    <glyph glyph-name="Ucircumflex" unicode="&#xdb;" horiz-adv-x="1382" 
d="M584 1522l2 6l286 239h132l194 -239l-2 -6h-109l-73 90q-5 6 -15.5 18.5t-14 16t-11 13t-10 13.5t-7 11.5t-6.5 13t-4.5 13t-3.5 15.5h-6q-18 -31 -40 -53t-75 -61l-114 -90h-123zM631 -31q-229 0 -355 116t-126 327q0 72 16 147l172 875h123l-174 -891q-13 -66 -13 -121
q0 -160 95.5 -248t267.5 -88q195 0 319.5 116.5t167.5 340.5l174 891h123l-178 -908q-51 -272 -207 -414.5t-405 -142.5z" />
    <glyph glyph-name="Udieresis" unicode="&#xdc;" horiz-adv-x="1382" 
d="M709 1747h122l-45 -225h-120zM1036 1747h123l-45 -225h-121zM631 -31q-229 0 -355 116t-126 327q0 72 16 147l172 875h123l-174 -891q-13 -66 -13 -121q0 -160 95.5 -248t267.5 -88q195 0 319.5 116.5t167.5 340.5l174 891h123l-178 -908q-51 -272 -207 -414.5
t-405 -142.5z" />
    <glyph glyph-name="Yacute" unicode="&#xdd;" horiz-adv-x="1107" 
d="M1077 1747v-6l-282 -219h-82l-2 6l229 219h137zM1268 1434l-643 -883l-107 -551h-115l105 551l-295 883h129l193 -609q33 -102 38 -192h7q32 77 110 192l432 609h146z" />
    <glyph glyph-name="Thorn" unicode="&#xde;" horiz-adv-x="1120" 
d="M78 0l278 1434h115l-51 -269q-6 -27 -17 -49l3 -2q14 4 53 4h252q178 0 279.5 -94t101.5 -254q0 -184 -129 -302t-355 -118h-299q-33 0 -51 6l-4 -2q4 -22 -2 -51l-59 -303h-115zM276 453q14 4 56 4h278q166 0 263.5 82.5t97.5 224.5q0 122 -70 185t-192 63h-271
q-41 0 -51 6l-2 -4q0 -29 -4 -49l-90 -459q-6 -34 -17 -51z" />
    <glyph glyph-name="germandbls" unicode="&#xdf;" horiz-adv-x="1126" 
d="M672 813q177 -9 269.5 -101t92.5 -259q0 -225 -155.5 -344t-452.5 -119h-145l20 98h127q246 0 372 92t126 273q0 158 -105 233.5t-325 75.5l18 94q188 0 300 83t112 222q0 94 -61 147.5t-167 53.5q-135 0 -212 -73.5t-109 -233.5l-256 -1321h-109l260 1335
q40 204 144 299.5t286 95.5q154 0 244 -77t90 -209q0 -151 -94.5 -244.5t-269.5 -116.5v-4z" />
    <glyph glyph-name="agrave" unicode="&#xe0;" horiz-adv-x="1060" 
d="M559 1448l129 -305l-2 -10h-82l-188 307l2 8h141zM406 -31q-160 0 -258.5 89t-98.5 235q0 157 110 253.5t292 96.5q144 0 237 -64.5t127 -168.5l6 2q-2 18 13 108q18 105 18 154q0 105 -59.5 155t-188.5 50q-138 0 -323 -45l-23 98q169 45 350 45q348 0 348 -279
q0 -46 -12 -123l-113 -575h-106q21 100 51 170l-8 2q-54 -98 -148 -150.5t-214 -52.5zM428 68q141 0 242.5 73.5t101.5 177.5q0 98 -88 162t-221 64q-137 0 -218 -69.5t-81 -182.5q0 -104 70.5 -164.5t193.5 -60.5z" />
    <glyph glyph-name="aacute" unicode="&#xe1;" horiz-adv-x="1060" 
d="M1014 1448l-2 -8l-307 -307h-82l2 10l247 305h142zM406 -31q-160 0 -258.5 89t-98.5 235q0 157 110 253.5t292 96.5q144 0 237 -64.5t127 -168.5l6 2q-2 18 13 108q18 105 18 154q0 105 -59.5 155t-188.5 50q-138 0 -323 -45l-23 98q169 45 350 45q348 0 348 -279
q0 -46 -12 -123l-113 -575h-106q21 100 51 170l-8 2q-54 -98 -148 -150.5t-214 -52.5zM428 68q141 0 242.5 73.5t101.5 177.5q0 98 -88 162t-221 64q-137 0 -218 -69.5t-81 -182.5q0 -104 70.5 -164.5t193.5 -60.5z" />
    <glyph glyph-name="acircumflex" unicode="&#xe2;" horiz-adv-x="1060" 
d="M778 1448l183 -309l-3 -6h-100l-96 157q-25 39 -34 59.5t-13 49.5h-4q-27 -49 -90 -109l-156 -157h-117l2 6l301 309h127zM406 -31q-160 0 -258.5 89t-98.5 235q0 157 110 253.5t292 96.5q144 0 237 -64.5t127 -168.5l6 2q-2 18 13 108q18 105 18 154q0 105 -59.5 155
t-188.5 50q-138 0 -323 -45l-23 98q169 45 350 45q348 0 348 -279q0 -46 -12 -123l-113 -575h-106q21 100 51 170l-8 2q-54 -98 -148 -150.5t-214 -52.5zM428 68q141 0 242.5 73.5t101.5 177.5q0 98 -88 162t-221 64q-137 0 -218 -69.5t-81 -182.5q0 -104 70.5 -164.5
t193.5 -60.5z" />
    <glyph glyph-name="atilde" unicode="&#xe3;" horiz-adv-x="1060" 
d="M825 1202q-40 0 -88 17.5t-84.5 39t-77.5 39t-69 17.5q-62 0 -121 -90l-57 20q44 83 75 116q55 58 129 58q51 0 113.5 -28.5t118 -57t90.5 -28.5q64 0 117 90l57 -21q-14 -27 -22 -43t-28 -44t-39.5 -43.5t-49.5 -28.5t-64 -13zM406 -31q-160 0 -258.5 89t-98.5 235
q0 157 110 253.5t292 96.5q144 0 237 -64.5t127 -168.5l6 2q-2 18 13 108q18 105 18 154q0 105 -59.5 155t-188.5 50q-138 0 -323 -45l-23 98q169 45 350 45q348 0 348 -279q0 -46 -12 -123l-113 -575h-106q21 100 51 170l-8 2q-54 -98 -148 -150.5t-214 -52.5zM428 68
q141 0 242.5 73.5t101.5 177.5q0 98 -88 162t-221 64q-137 0 -218 -69.5t-81 -182.5q0 -104 70.5 -164.5t193.5 -60.5z" />
    <glyph glyph-name="adieresis" unicode="&#xe4;" horiz-adv-x="1060" 
d="M610 1434l-47 -246h-121l47 246h121zM940 1434l-47 -246h-123l49 246h121zM406 -31q-160 0 -258.5 89t-98.5 235q0 157 110 253.5t292 96.5q144 0 237 -64.5t127 -168.5l6 2q-2 18 13 108q18 105 18 154q0 105 -59.5 155t-188.5 50q-138 0 -323 -45l-23 98q169 45 350 45
q348 0 348 -279q0 -46 -12 -123l-113 -575h-106q21 100 51 170l-8 2q-54 -98 -148 -150.5t-214 -52.5zM428 68q141 0 242.5 73.5t101.5 177.5q0 98 -88 162t-221 64q-137 0 -218 -69.5t-81 -182.5q0 -104 70.5 -164.5t193.5 -60.5z" />
    <glyph glyph-name="aring" unicode="&#xe5;" horiz-adv-x="1060" 
d="M702 1530q103 0 164.5 -62.5t61.5 -158.5q0 -108 -72.5 -183t-187.5 -75q-105 0 -166.5 62.5t-61.5 158.5q0 109 72.5 183.5t189.5 74.5zM698 1464q-86 0 -136 -54.5t-50 -135.5q0 -73 42 -115.5t116 -42.5q85 0 135.5 55t50.5 136q0 72 -42.5 114.5t-115.5 42.5z
M406 -31q-160 0 -258.5 89t-98.5 235q0 157 110 253.5t292 96.5q144 0 237 -64.5t127 -168.5l6 2q-2 18 13 108q18 105 18 154q0 105 -59.5 155t-188.5 50q-138 0 -323 -45l-23 98q169 45 350 45q348 0 348 -279q0 -46 -12 -123l-113 -575h-106q21 100 51 170l-8 2
q-54 -98 -148 -150.5t-214 -52.5zM428 68q141 0 242.5 73.5t101.5 177.5q0 98 -88 162t-221 64q-137 0 -218 -69.5t-81 -182.5q0 -104 70.5 -164.5t193.5 -60.5z" />
    <glyph glyph-name="ae" unicode="&#xe6;" horiz-adv-x="1837" 
d="M1257 -33q-160 0 -263 76.5t-130 222.5h-6q-113 -297 -444 -297q-161 0 -263 85.5t-102 236.5q0 150 105 251t292 101q145 0 239.5 -60t129.5 -161l6 2q-1 11 13 96q20 127 20 160q0 194 -242 194q-134 0 -329 -45l-25 101q186 47 358 47q67 0 119.5 -11t98.5 -36.5
t73 -73.5t31 -117h4q65 110 176 174t250 64q193 0 296 -107t103 -274q0 -58 -18 -135h-723q-55 0 -84 10l-2 -2v-16q-4 -40 -4 -60q0 -148 86 -234.5t242 -86.5q79 0 149.5 26.5t116.5 61.5t100 90l72 -80q-44 -44 -83.5 -75.5t-94.5 -63t-122 -48t-145 -16.5zM954 535
q32 14 82 14h539q54 0 84 -12l2 2v55q0 131 -78.5 208t-222.5 77q-75 0 -140 -22t-110 -57.5t-79 -81.5t-52.5 -91t-26.5 -90zM426 68q135 0 240.5 70.5t105.5 180.5q0 100 -89.5 163t-223.5 63q-76 0 -134.5 -22.5t-92.5 -60.5t-51 -82t-17 -91q0 -102 72 -161.5t190 -59.5
z" />
    <glyph glyph-name="ccedilla" unicode="&#xe7;" horiz-adv-x="1017" 
d="M631 874q-188 0 -312 -123.5t-124 -310.5q0 -163 103 -265.5t267 -102.5q135 0 275 86l51 -92q-160 -97 -328 -97h-2l-33 -55q28 -7 49.5 -15.5t45 -23t36.5 -37t13 -51.5q0 -28 -10.5 -53.5t-34.5 -48t-46 -39t-63 -36.5t-67 -31.5t-74 -31.5l-15 47l61.5 31.5
t49.5 26.5t42.5 26.5t28 24t20 26.5t5.5 27q0 32 -33 51t-104 33l74 131q-194 17 -309 143.5t-115 323.5q0 236 155 387.5t398 151.5q206 0 364 -125l-63 -86q-141 108 -305 108z" />
    <glyph glyph-name="egrave" unicode="&#xe8;" horiz-adv-x="1118" 
d="M598 1448l129 -305l-2 -10h-82l-188 307l2 8h141zM520 -33q-211 0 -327.5 116t-116.5 325q0 246 160 407.5t403 161.5q193 0 304.5 -102t111.5 -279q0 -58 -19 -135h-760q-60 0 -83 10l-3 -2v-16q-4 -54 -4 -60q0 -150 90.5 -235.5t249.5 -85.5q108 0 198 41.5t185 136.5
l72 -80q-109 -106 -219 -154.5t-242 -48.5zM205 535q28 14 82 14h575q40 0 84 -12l4 2q-2 14 -2 55q0 134 -83.5 209.5t-231.5 75.5q-158 0 -281.5 -98.5t-148.5 -243.5z" />
    <glyph glyph-name="eacute" unicode="&#xe9;" horiz-adv-x="1118" 
d="M1053 1448l-2 -8l-308 -307h-81l2 10l247 305h142zM520 -33q-211 0 -327.5 116t-116.5 325q0 246 160 407.5t403 161.5q193 0 304.5 -102t111.5 -279q0 -58 -19 -135h-760q-60 0 -83 10l-3 -2v-16q-4 -54 -4 -60q0 -150 90.5 -235.5t249.5 -85.5q108 0 198 41.5
t185 136.5l72 -80q-109 -106 -219 -154.5t-242 -48.5zM205 535q28 14 82 14h575q40 0 84 -12l4 2q-2 14 -2 55q0 134 -83.5 209.5t-231.5 75.5q-158 0 -281.5 -98.5t-148.5 -243.5z" />
    <glyph glyph-name="ecircumflex" unicode="&#xea;" horiz-adv-x="1118" 
d="M817 1448l182 -309l-2 -6h-100l-96 157q-25 39 -34 59.5t-13 49.5h-4q-26 -47 -91 -109l-155 -157h-117l2 6l301 309h127zM520 -33q-211 0 -327.5 116t-116.5 325q0 246 160 407.5t403 161.5q193 0 304.5 -102t111.5 -279q0 -58 -19 -135h-760q-60 0 -83 10l-3 -2v-16
q-4 -54 -4 -60q0 -150 90.5 -235.5t249.5 -85.5q108 0 198 41.5t185 136.5l72 -80q-109 -106 -219 -154.5t-242 -48.5zM205 535q28 14 82 14h575q40 0 84 -12l4 2q-2 14 -2 55q0 134 -83.5 209.5t-231.5 75.5q-158 0 -281.5 -98.5t-148.5 -243.5z" />
    <glyph glyph-name="edieresis" unicode="&#xeb;" horiz-adv-x="1118" 
d="M649 1434l-47 -246h-121l47 246h121zM979 1434l-47 -246h-123l49 246h121zM520 -33q-211 0 -327.5 116t-116.5 325q0 246 160 407.5t403 161.5q193 0 304.5 -102t111.5 -279q0 -58 -19 -135h-760q-60 0 -83 10l-3 -2v-16q-4 -54 -4 -60q0 -150 90.5 -235.5t249.5 -85.5
q108 0 198 41.5t185 136.5l72 -80q-109 -106 -219 -154.5t-242 -48.5zM205 535q28 14 82 14h575q40 0 84 -12l4 2q-2 14 -2 55q0 134 -83.5 209.5t-231.5 75.5q-158 0 -281.5 -98.5t-148.5 -243.5z" />
    <glyph glyph-name="igrave" unicode="&#xec;" horiz-adv-x="403" 
d="M291 1448l67 -305l-4 -10h-86l-92 307l2 8h113zM348 946l-184 -946h-107l185 946h106z" />
    <glyph glyph-name="iacute" unicode="&#xed;" horiz-adv-x="403" 
d="M569 1448l-2 -8l-186 -307h-94l2 10l160 305h120zM348 946l-184 -946h-107l185 946h106z" />
    <glyph glyph-name="icircumflex" unicode="&#xee;" horiz-adv-x="403" 
d="M446 1448l93 -309l-2 -6h-88l-41 157q-17 77 -19 109h-4q-20 -51 -59 -109l-107 -157h-104l2 6l215 309h114zM348 946l-184 -946h-107l185 946h106z" />
    <glyph glyph-name="idieresis" unicode="&#xef;" horiz-adv-x="403" 
d="M338 1434l-47 -246h-121l47 246h121zM555 1434l-47 -246h-123l47 246h123zM348 946l-184 -946h-107l185 946h106z" />
    <glyph glyph-name="eth" unicode="&#xf0;" horiz-adv-x="1284" 
d="M940 1317q122 -84 181 -220t59 -341q0 -157 -33 -287.5t-90.5 -222t-136 -154.5t-169 -93t-190.5 -30q-216 0 -346.5 132t-130.5 343q0 145 62 265t184 194t282 74q211 0 333 -121.5t120 -312.5h8q17 153 14 254q-9 315 -233 454l-227 -170l-41 52l205 153
q-124 58 -302 76l21 92q235 -32 367 -102l217 164l36 -56zM573 70q98 0 179.5 36.5t134 98t81.5 141.5t29 168q0 177 -107 270t-272 93q-103 0 -185.5 -37t-133.5 -99.5t-77.5 -139t-26.5 -159.5q0 -173 106 -272.5t272 -99.5z" />
    <glyph glyph-name="ntilde" unicode="&#xf1;" horiz-adv-x="1126" 
d="M860 1202q-40 0 -88 17.5t-84.5 39t-77.5 39t-69 17.5q-62 0 -121 -90l-58 20q15 28 19.5 36t21.5 36t30 40t34.5 29.5t46 25t53.5 7.5q51 0 113.5 -28.5t118 -57t90.5 -28.5q64 0 117 90l57 -21q-14 -27 -22 -43t-28 -44t-39.5 -43.5t-49.5 -28.5t-64 -13zM57 0l185 946
h106l-10 -51q-25 -127 -66 -236l9 -2q71 165 172.5 242.5t248.5 77.5q152 0 232 -81.5t80 -236.5q0 -60 -19 -157l-96 -502h-106l98 506q12 44 12 127q0 119 -60 182.5t-175 63.5q-160 0 -270.5 -118.5t-151.5 -336.5l-82 -424h-107z" />
    <glyph glyph-name="ograve" unicode="&#xf2;" horiz-adv-x="1183" 
d="M600 1448l129 -305l-2 -10h-82l-188 307l2 8h141zM539 -31q-215 0 -338 119t-123 324q0 119 43.5 224t118.5 179.5t180 118t225 43.5q215 0 338 -118.5t123 -323.5q0 -159 -73.5 -288.5t-203.5 -203.5t-290 -74zM549 72q124 0 227 61.5t162 168t59 233.5q0 157 -97.5 248
t-264.5 91q-189 0 -319 -134t-130 -328q0 -157 98 -248.5t265 -91.5z" />
    <glyph glyph-name="oacute" unicode="&#xf3;" horiz-adv-x="1183" 
d="M1055 1448l-2 -8l-308 -307h-81l2 10l247 305h142zM539 -31q-215 0 -338 119t-123 324q0 119 43.5 224t118.5 179.5t180 118t225 43.5q215 0 338 -118.5t123 -323.5q0 -159 -73.5 -288.5t-203.5 -203.5t-290 -74zM549 72q124 0 227 61.5t162 168t59 233.5
q0 157 -97.5 248t-264.5 91q-189 0 -319 -134t-130 -328q0 -157 98 -248.5t265 -91.5z" />
    <glyph glyph-name="ocircumflex" unicode="&#xf4;" horiz-adv-x="1183" 
d="M819 1448l182 -309l-2 -6h-100l-96 157q-25 39 -34 59.5t-13 49.5h-4q-27 -49 -90 -109l-156 -157h-117l2 6l301 309h127zM539 -31q-215 0 -338 119t-123 324q0 119 43.5 224t118.5 179.5t180 118t225 43.5q215 0 338 -118.5t123 -323.5q0 -159 -73.5 -288.5
t-203.5 -203.5t-290 -74zM549 72q124 0 227 61.5t162 168t59 233.5q0 157 -97.5 248t-264.5 91q-189 0 -319 -134t-130 -328q0 -157 98 -248.5t265 -91.5z" />
    <glyph glyph-name="otilde" unicode="&#xf5;" horiz-adv-x="1183" 
d="M866 1202q-40 0 -88 17.5t-84.5 39t-77.5 39t-69 17.5q-62 0 -121 -90l-57 20q44 83 75 116q55 58 129 58q51 0 113.5 -28.5t118 -57t90.5 -28.5q64 0 117 90l57 -21q-14 -27 -22 -43t-28 -44t-39.5 -43.5t-49.5 -28.5t-64 -13zM539 -31q-215 0 -338 119t-123 324
q0 119 43.5 224t118.5 179.5t180 118t225 43.5q215 0 338 -118.5t123 -323.5q0 -159 -73.5 -288.5t-203.5 -203.5t-290 -74zM549 72q124 0 227 61.5t162 168t59 233.5q0 157 -97.5 248t-264.5 91q-189 0 -319 -134t-130 -328q0 -157 98 -248.5t265 -91.5z" />
    <glyph glyph-name="odieresis" unicode="&#xf6;" horiz-adv-x="1183" 
d="M651 1434l-47 -246h-121l47 246h121zM981 1434l-47 -246h-123l49 246h121zM539 -31q-215 0 -338 119t-123 324q0 119 43.5 224t118.5 179.5t180 118t225 43.5q215 0 338 -118.5t123 -323.5q0 -159 -73.5 -288.5t-203.5 -203.5t-290 -74zM549 72q124 0 227 61.5t162 168
t59 233.5q0 157 -97.5 248t-264.5 91q-189 0 -319 -134t-130 -328q0 -157 98 -248.5t265 -91.5z" />
    <glyph glyph-name="divide" unicode="&#xf7;" 
d="M702 991v-151h-124v151h124zM1169 643v-65h-1058v65h1058zM702 381v-154h-124v154h124z" />
    <glyph glyph-name="oslash" unicode="&#xf8;" horiz-adv-x="1183" 
d="M1124 936l-114 -107q96 -116 96 -294q0 -159 -73.5 -288.5t-203.5 -203.5t-290 -74q-200 0 -326 107l-111 -105l-41 39l113 107q-96 113 -96 295q0 119 43.5 224t118.5 179.5t180 118t225 43.5q200 0 326 -107l112 107zM186 412q0 -131 70 -217l633 598q-93 81 -254 81
q-189 0 -319 -134t-130 -328zM997 535q0 131 -67 217l-635 -598q97 -82 254 -82q124 0 227 61.5t162 168t59 233.5z" />
    <glyph glyph-name="ugrave" unicode="&#xf9;" horiz-adv-x="1075" 
d="M545 1448l129 -305l-2 -10h-82l-189 307l2 8h142zM1030 946l-184 -946h-107q39 191 72 274l-8 5q-69 -160 -164 -235t-229 -75q-151 0 -234.5 87t-79.5 239q2 50 17 131l102 520h109l-103 -514q-10 -69 -12 -113q-6 -120 52 -184.5t173 -64.5q152 0 259.5 118.5
t148.5 333.5l82 424h106z" />
    <glyph glyph-name="uacute" unicode="&#xfa;" horiz-adv-x="1075" 
d="M999 1448l-2 -8l-307 -307h-82l2 10l248 305h141zM1030 946l-184 -946h-107q39 191 72 274l-8 5q-69 -160 -164 -235t-229 -75q-151 0 -234.5 87t-79.5 239q2 50 17 131l102 520h109l-103 -514q-10 -69 -12 -113q-6 -120 52 -184.5t173 -64.5q152 0 259.5 118.5
t148.5 333.5l82 424h106z" />
    <glyph glyph-name="ucircumflex" unicode="&#xfb;" horiz-adv-x="1075" 
d="M764 1448l182 -309l-2 -6h-100l-96 157q-25 40 -34.5 60t-13.5 49h-4q-27 -49 -90 -109l-155 -157h-117l2 6l301 309h127zM1030 946l-184 -946h-107q39 191 72 274l-8 5q-69 -160 -164 -235t-229 -75q-151 0 -234.5 87t-79.5 239q2 50 17 131l102 520h109l-103 -514
q-10 -69 -12 -113q-6 -120 52 -184.5t173 -64.5q152 0 259.5 118.5t148.5 333.5l82 424h106z" />
    <glyph glyph-name="udieresis" unicode="&#xfc;" horiz-adv-x="1075" 
d="M596 1434l-47 -246h-121l47 246h121zM926 1434l-47 -246h-123l49 246h121zM1030 946l-184 -946h-107q39 191 72 274l-8 5q-69 -160 -164 -235t-229 -75q-151 0 -234.5 87t-79.5 239q2 50 17 131l102 520h109l-103 -514q-10 -69 -12 -113q-6 -120 52 -184.5t173 -64.5
q152 0 259.5 118.5t148.5 333.5l82 424h106z" />
    <glyph glyph-name="yacute" unicode="&#xfd;" horiz-adv-x="960" 
d="M952 1448l-2 -8l-307 -307h-82l2 10l248 305h141zM1028 946l-862 -1356h-121l311 484l-237 872h110l158 -586q22 -84 28 -126t3 -93l8 2q23 74 102 199l379 604h121z" />
    <glyph glyph-name="thorn" unicode="&#xfe;" horiz-adv-x="1239" 
d="M-16 -410l362 1844h107l-97 -488q-35 -165 -59 -227l4 -4q64 129 177.5 195.5t250.5 66.5q190 0 311 -119.5t121 -327.5q0 -156 -65.5 -283t-189.5 -202.5t-283 -75.5q-166 0 -270.5 75.5t-141.5 219.5l-8 -2q3 -101 -31 -262l-80 -410h-108zM610 70q136 0 239 66
t153.5 169t50.5 223q0 159 -93.5 254t-252.5 95q-99 0 -185.5 -37.5t-146 -101t-93.5 -149t-34 -179.5q0 -154 93.5 -247t268.5 -93z" />
    <glyph glyph-name="ydieresis" unicode="&#xff;" horiz-adv-x="960" 
d="M549 1434l-47 -246h-121l47 246h121zM879 1434l-48 -246h-122l49 246h121zM1028 946l-862 -1356h-121l311 484l-237 872h110l158 -586q22 -84 28 -126t3 -93l8 2q23 74 102 199l379 604h121z" />
    <glyph glyph-name="Amacron" unicode="&#x100;" horiz-adv-x="1361" 
d="M629 1671h567l-18 -86h-566zM-63 0l929 1464h13l362 -1464h-117l-114 461h-648l-288 -461h-137zM414 557q58 4 114 4h353q56 0 114 -4v2q-21 41 -37 119l-94 414q-23 120 -20 176h-4q-23 -67 -88 -176l-254 -414q-47 -76 -84 -119v-2z" />
    <glyph glyph-name="amacron" unicode="&#x101;" horiz-adv-x="1060" 
d="M983 1356l-16 -88h-566l17 88h565zM406 -31q-160 0 -258.5 89t-98.5 235q0 157 110 253.5t292 96.5q144 0 237 -64.5t127 -168.5l6 2q-2 18 13 108q18 105 18 154q0 105 -59.5 155t-188.5 50q-138 0 -323 -45l-23 98q169 45 350 45q348 0 348 -279q0 -46 -12 -123
l-113 -575h-106q21 100 51 170l-8 2q-54 -98 -148 -150.5t-214 -52.5zM428 68q141 0 242.5 73.5t101.5 177.5q0 98 -88 162t-221 64q-137 0 -218 -69.5t-81 -182.5q0 -104 70.5 -164.5t193.5 -60.5z" />
    <glyph glyph-name="Abreve" unicode="&#x102;" horiz-adv-x="1361" 
d="M885 1522q-110 0 -174 50t-64 138q0 26 6 53h86q-4 -28 -4 -43q0 -55 40.5 -85.5t117.5 -30.5q90 0 148.5 41.5t80.5 117.5h90q-26 -113 -114 -177t-213 -64zM-63 0l929 1464h13l362 -1464h-117l-114 461h-648l-288 -461h-137zM414 557q58 4 114 4h353q56 0 114 -4v2
q-21 41 -37 119l-94 414q-23 120 -20 176h-4q-23 -67 -88 -176l-254 -414q-47 -76 -84 -119v-2z" />
    <glyph glyph-name="abreve" unicode="&#x103;" horiz-adv-x="1060" 
d="M666 1147q-111 0 -176.5 59t-65.5 162q0 34 6 68h86q-4 -36 -4 -52q0 -75 41.5 -114t118.5 -39q89 0 151 54t82 151h84q-24 -143 -110 -216t-213 -73zM406 -31q-160 0 -258.5 89t-98.5 235q0 157 110 253.5t292 96.5q144 0 237 -64.5t127 -168.5l6 2q-2 18 13 108
q18 105 18 154q0 105 -59.5 155t-188.5 50q-138 0 -323 -45l-23 98q169 45 350 45q348 0 348 -279q0 -46 -12 -123l-113 -575h-106q21 100 51 170l-8 2q-54 -98 -148 -150.5t-214 -52.5zM428 68q141 0 242.5 73.5t101.5 177.5q0 98 -88 162t-221 64q-137 0 -218 -69.5
t-81 -182.5q0 -104 70.5 -164.5t193.5 -60.5z" />
    <glyph glyph-name="Aogonek" unicode="&#x104;" horiz-adv-x="1361" 
d="M911 -244q0 -57 82 -57q50 0 111 14l-4 -80q-66 -16 -133 -16q-73 0 -112.5 31.5t-39.5 87.5q0 78 71.5 149.5t225.5 161.5l-102 414h-648l-288 -461h-137l929 1464h13l362 -1464h-90q-126 -82 -183 -137.5t-57 -106.5zM995 557v2q-21 41 -37 119l-94 414
q-23 120 -20 176h-4q-23 -67 -88 -176l-254 -414q-47 -76 -84 -119v-2q58 4 114 4h353q56 0 114 -4z" />
    <glyph glyph-name="aogonek" unicode="&#x105;" horiz-adv-x="1060" 
d="M608 977q348 0 348 -279q0 -46 -12 -123l-113 -575h-67q-126 -82 -183 -137.5t-57 -106.5q0 -57 82 -57q50 0 111 14l-4 -80q-66 -16 -133 -16q-73 0 -112.5 31.5t-39.5 87.5q0 79 75 152t234 165q11 47 39 117l-8 2q-54 -98 -148 -150.5t-214 -52.5q-160 0 -258.5 89
t-98.5 235q0 157 110 253.5t292 96.5q144 0 237 -64.5t127 -168.5l6 2q-2 18 13 108q18 105 18 154q0 105 -59.5 155t-188.5 50q-138 0 -323 -45l-23 98q169 45 350 45zM428 68q141 0 242.5 73.5t101.5 177.5q0 98 -88 162t-221 64q-137 0 -218 -69.5t-81 -182.5
q0 -104 70.5 -164.5t193.5 -60.5z" />
    <glyph glyph-name="Cacute" unicode="&#x106;" horiz-adv-x="1456" 
d="M1337 1747v-6l-282 -219h-82l-2 6l229 219h137zM791 -31q-304 0 -481 176t-177 478q0 240 110.5 432.5t307 300.5t442.5 108q283 0 492 -164l-72 -96q-199 146 -432 146q-204 0 -370 -94t-260.5 -260t-94.5 -369q0 -256 145.5 -399.5t405.5 -143.5q111 0 214 33.5
t224 107.5l64 -96q-124 -83 -248.5 -121.5t-269.5 -38.5z" />
    <glyph glyph-name="cacute" unicode="&#x107;" horiz-adv-x="1017" 
d="M1020 1448l-2 -8l-307 -307h-82l2 10l248 305h141zM563 -31q-218 0 -349.5 128.5t-131.5 340.5q0 236 155 387.5t398 151.5q206 0 364 -125l-63 -86q-141 108 -305 108q-188 0 -312 -123.5t-124 -310.5q0 -163 103 -265.5t267 -102.5q135 0 275 86l51 -92
q-160 -97 -328 -97z" />
    <glyph glyph-name="Ccircumflex" unicode="&#x108;" horiz-adv-x="1456" 
d="M700 1522l2 6l287 239h131l195 -239l-2 -6h-109l-74 90q-3 4 -12.5 14.5t-12 13.5t-9 11.5t-8.5 11.5t-7 9.5t-6.5 10t-5 9.5t-4.5 11t-3 11t-3 12h-6q-18 -31 -40 -53t-75 -61l-115 -90h-123zM791 -31q-304 0 -481 176t-177 478q0 240 110.5 432.5t307 300.5t442.5 108
q283 0 492 -164l-72 -96q-199 146 -432 146q-204 0 -370 -94t-260.5 -260t-94.5 -369q0 -256 145.5 -399.5t405.5 -143.5q111 0 214 33.5t224 107.5l64 -96q-124 -83 -248.5 -121.5t-269.5 -38.5z" />
    <glyph glyph-name="ccircumflex" unicode="&#x109;" horiz-adv-x="1017" 
d="M784 1448l183 -309l-2 -6h-101l-96 157q-25 39 -34 59.5t-13 49.5h-4q-27 -49 -90 -109l-156 -157h-117l2 6l301 309h127zM563 -31q-218 0 -349.5 128.5t-131.5 340.5q0 236 155 387.5t398 151.5q206 0 364 -125l-63 -86q-141 108 -305 108q-188 0 -312 -123.5
t-124 -310.5q0 -163 103 -265.5t267 -102.5q135 0 275 86l51 -92q-160 -97 -328 -97z" />
    <glyph glyph-name="Cdotaccent" unicode="&#x10a;" horiz-adv-x="1456" 
d="M1110 1747l-43 -225h-117l43 225h117zM791 -31q-304 0 -481 176t-177 478q0 240 110.5 432.5t307 300.5t442.5 108q283 0 492 -164l-72 -96q-199 146 -432 146q-204 0 -370 -94t-260.5 -260t-94.5 -369q0 -256 145.5 -399.5t405.5 -143.5q111 0 214 33.5t224 107.5
l64 -96q-124 -83 -248.5 -121.5t-269.5 -38.5z" />
    <glyph glyph-name="cdotaccent" unicode="&#x10b;" horiz-adv-x="1017" 
d="M778 1434l-53 -267h-121l51 267h123zM563 -31q-218 0 -349.5 128.5t-131.5 340.5q0 236 155 387.5t398 151.5q206 0 364 -125l-63 -86q-141 108 -305 108q-188 0 -312 -123.5t-124 -310.5q0 -163 103 -265.5t267 -102.5q135 0 275 86l51 -92q-160 -97 -328 -97z" />
    <glyph glyph-name="Ccaron" unicode="&#x10c;" horiz-adv-x="1456" 
d="M1362 1767l-2 -6l-287 -239h-131l-194 239l2 6h106l78 -90q37 -40 51 -61.5t21 -52.5h6q18 31 39 51.5t75 62.5l113 90h123zM791 -31q-304 0 -481 176t-177 478q0 240 110.5 432.5t307 300.5t442.5 108q283 0 492 -164l-72 -96q-199 146 -432 146q-204 0 -370 -94
t-260.5 -260t-94.5 -369q0 -256 145.5 -399.5t405.5 -143.5q111 0 214 33.5t224 107.5l64 -96q-124 -83 -248.5 -121.5t-269.5 -38.5z" />
    <glyph glyph-name="ccaron" unicode="&#x10d;" horiz-adv-x="1017" 
d="M598 1114l-184 311l2 5h98l96 -156q37 -61 47 -109h7q14 27 29.5 46t58.5 63l153 156h121l-2 -5l-301 -311h-125zM563 -31q-218 0 -349.5 128.5t-131.5 340.5q0 236 155 387.5t398 151.5q206 0 364 -125l-63 -86q-141 108 -305 108q-188 0 -312 -123.5t-124 -310.5
q0 -163 103 -265.5t267 -102.5q135 0 275 86l51 -92q-160 -97 -328 -97z" />
    <glyph glyph-name="Dcaron" unicode="&#x10e;" horiz-adv-x="1435" 
d="M1151 1767l-2 -6l-287 -239h-131l-194 239l2 6h106l78 -90q37 -40 51 -61.5t21 -52.5h6q18 31 39 51.5t75 62.5l113 90h123zM78 0l278 1434h428q280 0 447.5 -166.5t167.5 -446.5q0 -180 -64.5 -333t-179.5 -260.5t-278 -167.5t-355 -60h-444zM209 102q10 4 53 4h270
q213 0 383.5 91t266.5 253.5t96 364.5q0 236 -137 374t-371 138h-270q-39 0 -51 4l-5 -2q2 -7 -4 -49l-217 -1126q-6 -30 -16 -50z" />
    <glyph glyph-name="dcaron" unicode="&#x10f;" horiz-adv-x="1400" 
d="M1475 1495h118l-211 -381h-55zM510 -31q-196 0 -314 122.5t-118 324.5q0 244 152.5 402.5t387.5 158.5q167 0 271.5 -76.5t138.5 -222.5l6 2q0 92 33 266l102 518h107l-285 -1464h-106q38 176 59 229l-6 4q-60 -126 -171.5 -195t-256.5 -69zM535 72q194 0 326 134.5
t132 330.5q0 158 -96.5 247.5t-265.5 89.5q-192 0 -317.5 -129t-125.5 -327q0 -159 94 -252.5t253 -93.5z" />
    <glyph glyph-name="Dcroat" unicode="&#x110;" horiz-adv-x="1400" 
d="M862 1434q283 0 449 -163t166 -454q0 -184 -68 -338.5t-186 -259t-278.5 -162t-344.5 -57.5h-444l123 629q3 26 14 49l-2 2q-14 -4 -53 -4h-197l18 104h197q41 0 53 -6l2 4q-3 14 4 49l21 97l98 510h428zM610 106q120 0 231.5 31t204.5 92t162.5 145t108.5 196.5
t39 240.5q0 246 -139 381t-369 135h-268q-42 0 -54 4l-2 -2q3 -16 -4 -49l-69 -356l-19 -97q-7 -33 -16 -49l2 -4q12 6 53 6h422l-19 -104h-423q-40 0 -52 4l-4 -2q4 -21 -2 -49l-92 -475q-8 -39 -16 -50l2 -2q14 4 53 4h270z" />
    <glyph glyph-name="dcroat" unicode="&#x111;" horiz-adv-x="1226" 
d="M1282 1255h86l-16 -75h-86q-34 0 -52 10l-4 -2q5 -14 -2 -58l-16 -83l-201 -1047h-106q38 177 59 229l-6 4q-61 -129 -175 -196.5t-253 -67.5q-190 0 -311 120.5t-121 326.5q0 156 66 283.5t190.5 202.5t283.5 75q168 0 271 -76t139 -219l8 2q-3 93 31 262l18 101l17 83
q10 42 20 58l-2 2q-20 -10 -55 -10h-309l16 75h307q34 0 54 -10l2 2q-5 14 2 58l30 159h107l-31 -159q-7 -40 -18 -58v-2q20 10 57 10zM535 72q196 0 327 135t131 330q0 153 -94 245t-268 92q-135 0 -237.5 -64t-154 -166.5t-51.5 -225.5q0 -159 94 -252.5t253 -93.5z" />
    <glyph glyph-name="Emacron" unicode="&#x112;" horiz-adv-x="1050" 
d="M547 1671h567l-18 -86h-566zM1145 1434l-21 -107h-624q-39 0 -51 4l-5 -2q4 -23 -4 -49l-73 -389q-6 -27 -17 -49l2 -2q14 4 54 4h561l-21 -107h-559q-35 0 -53 6l-2 -2q3 -17 -4 -51l-105 -536q-6 -30 -16 -50l2 -2q12 4 53 4h635l-20 -106h-799l278 1434h789z" />
    <glyph glyph-name="emacron" unicode="&#x113;" horiz-adv-x="1118" 
d="M1022 1356l-16 -88h-566l17 88h565zM520 -33q-211 0 -327.5 116t-116.5 325q0 246 160 407.5t403 161.5q193 0 304.5 -102t111.5 -279q0 -58 -19 -135h-760q-60 0 -83 10l-3 -2v-16q-4 -54 -4 -60q0 -150 90.5 -235.5t249.5 -85.5q108 0 198 41.5t185 136.5l72 -80
q-109 -106 -219 -154.5t-242 -48.5zM205 535q28 14 82 14h575q40 0 84 -12l4 2q-2 14 -2 55q0 134 -83.5 209.5t-231.5 75.5q-158 0 -281.5 -98.5t-148.5 -243.5z" />
    <glyph glyph-name="Ebreve" unicode="&#x114;" horiz-adv-x="1050" 
d="M803 1522q-110 0 -174 50t-64 138q0 26 6 53h84q0 -7 -1 -22t-1 -21q0 -55 40 -85.5t116 -30.5q91 0 150 41.5t81 117.5h88q-24 -113 -112.5 -177t-212.5 -64zM1145 1434l-21 -107h-624q-39 0 -51 4l-5 -2q4 -23 -4 -49l-73 -389q-6 -27 -17 -49l2 -2q14 4 54 4h561
l-21 -107h-559q-35 0 -53 6l-2 -2q3 -17 -4 -51l-105 -536q-6 -30 -16 -50l2 -2q12 4 53 4h635l-20 -106h-799l278 1434h789z" />
    <glyph glyph-name="ebreve" unicode="&#x115;" horiz-adv-x="1118" 
d="M705 1147q-111 0 -176.5 59t-65.5 162q0 34 6 68h86q-4 -36 -4 -52q0 -75 41.5 -114t118.5 -39q89 0 151 54t82 151h84q-24 -143 -110 -216t-213 -73zM520 -33q-211 0 -327.5 116t-116.5 325q0 246 160 407.5t403 161.5q193 0 304.5 -102t111.5 -279q0 -58 -19 -135h-760
q-60 0 -83 10l-3 -2v-16q-4 -54 -4 -60q0 -150 90.5 -235.5t249.5 -85.5q108 0 198 41.5t185 136.5l72 -80q-109 -106 -219 -154.5t-242 -48.5zM205 535q28 14 82 14h575q40 0 84 -12l4 2q-2 14 -2 55q0 134 -83.5 209.5t-231.5 75.5q-158 0 -281.5 -98.5t-148.5 -243.5z
" />
    <glyph glyph-name="Edotaccent" unicode="&#x116;" horiz-adv-x="1050" 
d="M905 1747l-43 -225h-117l43 225h117zM1145 1434l-21 -107h-624q-39 0 -51 4l-5 -2q4 -23 -4 -49l-73 -389q-6 -27 -17 -49l2 -2q14 4 54 4h561l-21 -107h-559q-35 0 -53 6l-2 -2q3 -17 -4 -51l-105 -536q-6 -30 -16 -50l2 -2q12 4 53 4h635l-20 -106h-799l278 1434h789z
" />
    <glyph glyph-name="edotaccent" unicode="&#x117;" horiz-adv-x="1118" 
d="M811 1434l-53 -267h-121l51 267h123zM520 -33q-211 0 -327.5 116t-116.5 325q0 246 160 407.5t403 161.5q193 0 304.5 -102t111.5 -279q0 -58 -19 -135h-760q-60 0 -83 10l-3 -2v-16q-4 -54 -4 -60q0 -150 90.5 -235.5t249.5 -85.5q108 0 198 41.5t185 136.5l72 -80
q-109 -106 -219 -154.5t-242 -48.5zM205 535q28 14 82 14h575q40 0 84 -12l4 2q-2 14 -2 55q0 134 -83.5 209.5t-231.5 75.5q-158 0 -281.5 -98.5t-148.5 -243.5z" />
    <glyph glyph-name="Eogonek" unicode="&#x118;" horiz-adv-x="1050" 
d="M500 1327q-39 0 -51 4l-5 -2q4 -23 -4 -49l-73 -389q-6 -27 -17 -49l2 -2q14 4 54 4h561l-21 -107h-559q-35 0 -53 6l-2 -2q3 -17 -4 -51l-105 -536q-6 -30 -16 -50l2 -2q12 4 53 4h635l-20 -106h-62q-126 -82 -183 -137.5t-57 -106.5q0 -57 82 -57q50 0 111 14l-4 -80
q-66 -16 -133 -16q-73 0 -112.5 31.5t-39.5 87.5q0 67 54.5 129.5t166.5 134.5h-622l278 1434h789l-21 -107h-624z" />
    <glyph glyph-name="eogonek" unicode="&#x119;" horiz-adv-x="1118" 
d="M276 461q-60 0 -83 10l-3 -2v-16q-4 -54 -4 -60q0 -150 90.5 -235.5t249.5 -85.5q108 0 198 41.5t185 136.5l72 -80q-105 -102 -215 -154q-144 -94 -205 -150.5t-61 -109.5q0 -57 82 -57q49 0 110 14l-4 -80q-66 -16 -133 -16q-73 0 -112.5 31.5t-39.5 87.5
q0 60 43.5 115.5t133.5 117.5q-10 0 -30 -1t-30 -1q-211 0 -327.5 116t-116.5 325q0 246 160 407.5t403 161.5q193 0 304.5 -102t111.5 -279q0 -58 -19 -135h-760zM633 879q-158 0 -281.5 -98.5t-148.5 -243.5l2 -2q28 14 82 14h575q40 0 84 -12l4 2q-2 14 -2 55
q0 134 -83.5 209.5t-231.5 75.5z" />
    <glyph glyph-name="Ecaron" unicode="&#x11a;" horiz-adv-x="1050" 
d="M1155 1767l-2 -6l-287 -239h-131l-194 239l2 6h106l78 -90q37 -40 51 -61.5t21 -52.5h6q18 30 39 50.5t76 63.5l112 90h123zM1145 1434l-21 -107h-624q-39 0 -51 4l-5 -2q4 -23 -4 -49l-73 -389q-6 -27 -17 -49l2 -2q14 4 54 4h561l-21 -107h-559q-35 0 -53 6l-2 -2
q3 -17 -4 -51l-105 -536q-6 -30 -16 -50l2 -2q12 4 53 4h635l-20 -106h-799l278 1434h789z" />
    <glyph glyph-name="ecaron" unicode="&#x11b;" horiz-adv-x="1118" 
d="M631 1114l-185 311l3 5h98l96 -156q37 -61 47 -109h6q14 27 29.5 46t58.5 63l154 156h121l-2 -5l-301 -311h-125zM520 -33q-211 0 -327.5 116t-116.5 325q0 246 160 407.5t403 161.5q193 0 304.5 -102t111.5 -279q0 -58 -19 -135h-760q-60 0 -83 10l-3 -2v-16
q-4 -54 -4 -60q0 -150 90.5 -235.5t249.5 -85.5q108 0 198 41.5t185 136.5l72 -80q-109 -106 -219 -154.5t-242 -48.5zM205 535q28 14 82 14h575q40 0 84 -12l4 2q-2 14 -2 55q0 134 -83.5 209.5t-231.5 75.5q-158 0 -281.5 -98.5t-148.5 -243.5z" />
    <glyph glyph-name="Gcircumflex" unicode="&#x11c;" horiz-adv-x="1665" 
d="M717 1522l2 6l287 239h131l194 -239l-2 -6h-108l-74 90q-5 6 -15.5 18.5t-14 16t-11 13t-10 13.5t-7 11.5t-6.5 13t-4.5 13t-3.5 15.5h-6q-18 -31 -40 -53t-75 -61l-114 -90h-123zM827 -31q-320 0 -505 178.5t-185 487.5q0 242 108 431t302.5 293.5t443.5 104.5
q157 0 290.5 -48t258.5 -148l-82 -92q-210 174 -477 174q-210 0 -375 -90.5t-256.5 -252.5t-91.5 -368q0 -261 151.5 -408t417.5 -147q262 0 445 154t229 411l-4 2q-50 -16 -143 -16h-457l18 106h725l-10 -51q-60 -339 -271.5 -530t-531.5 -191z" />
    <glyph glyph-name="gcircumflex" unicode="&#x11d;" horiz-adv-x="1220" 
d="M801 1448l182 -309l-2 -6h-100l-97 157q-25 39 -34 59.5t-13 49.5h-4q-27 -49 -90 -109l-156 -157h-116l2 6l301 309h127zM471 -440q-268 0 -465 151l70 90q105 -76 195.5 -107.5t203.5 -31.5q180 0 275.5 81t136.5 271q26 119 33.5 146.5t23.5 68.5l-4 4
q-60 -126 -172.5 -195t-255.5 -69q-196 0 -314 123t-118 326q0 243 153.5 401t389.5 158q164 0 268 -75t139 -220l6 2q0 122 33 262h105l-183 -946q-44 -229 -169 -334.5t-351 -105.5zM535 72q193 0 325.5 134t132.5 329q0 158 -95.5 248.5t-264.5 90.5q-191 0 -317 -129
t-126 -327q0 -158 94 -252t251 -94z" />
    <glyph glyph-name="Gbreve" unicode="&#x11e;" horiz-adv-x="1665" 
d="M1026 1522q-110 0 -174 50t-64 138q0 22 7 53h84q0 -7 -1 -22t-1 -21q0 -55 40 -85.5t115 -30.5q91 0 150.5 41.5t81.5 117.5h88q-24 -113 -112.5 -177t-213.5 -64zM827 -31q-320 0 -505 178.5t-185 487.5q0 242 108 431t302.5 293.5t443.5 104.5q157 0 290.5 -48
t258.5 -148l-82 -92q-210 174 -477 174q-210 0 -375 -90.5t-256.5 -252.5t-91.5 -368q0 -261 151.5 -408t417.5 -147q262 0 445 154t229 411l-4 2q-50 -16 -143 -16h-457l18 106h725l-10 -51q-60 -339 -271.5 -530t-531.5 -191z" />
    <glyph glyph-name="gbreve" unicode="&#x11f;" horiz-adv-x="1220" 
d="M688 1147q-111 0 -176.5 59t-65.5 162q0 28 7 68h86q-4 -36 -4 -52q0 -75 41 -114t118 -39q89 0 151.5 54t82.5 151h84q-24 -143 -110 -216t-214 -73zM471 -440q-268 0 -465 151l70 90q105 -76 195.5 -107.5t203.5 -31.5q180 0 275.5 81t136.5 271q26 119 33.5 146.5
t23.5 68.5l-4 4q-60 -126 -172.5 -195t-255.5 -69q-196 0 -314 123t-118 326q0 243 153.5 401t389.5 158q164 0 268 -75t139 -220l6 2q0 122 33 262h105l-183 -946q-44 -229 -169 -334.5t-351 -105.5zM535 72q193 0 325.5 134t132.5 329q0 158 -95.5 248.5t-264.5 90.5
q-191 0 -317 -129t-126 -327q0 -158 94 -252t251 -94z" />
    <glyph glyph-name="Gdotaccent" unicode="&#x120;" horiz-adv-x="1665" 
d="M1128 1747l-43 -225h-116l43 225h116zM827 -31q-320 0 -505 178.5t-185 487.5q0 242 108 431t302.5 293.5t443.5 104.5q157 0 290.5 -48t258.5 -148l-82 -92q-210 174 -477 174q-210 0 -375 -90.5t-256.5 -252.5t-91.5 -368q0 -261 151.5 -408t417.5 -147q262 0 445 154
t229 411l-4 2q-50 -16 -143 -16h-457l18 106h725l-10 -51q-60 -339 -271.5 -530t-531.5 -191z" />
    <glyph glyph-name="gdotaccent" unicode="&#x121;" horiz-adv-x="1220" 
d="M795 1434l-54 -267h-120l51 267h123zM471 -440q-268 0 -465 151l70 90q105 -76 195.5 -107.5t203.5 -31.5q180 0 275.5 81t136.5 271q26 119 33.5 146.5t23.5 68.5l-4 4q-60 -126 -172.5 -195t-255.5 -69q-196 0 -314 123t-118 326q0 243 153.5 401t389.5 158
q164 0 268 -75t139 -220l6 2q0 122 33 262h105l-183 -946q-44 -229 -169 -334.5t-351 -105.5zM535 72q193 0 325.5 134t132.5 329q0 158 -95.5 248.5t-264.5 90.5q-191 0 -317 -129t-126 -327q0 -158 94 -252t251 -94z" />
    <glyph glyph-name="Gcommaaccent" unicode="&#x122;" horiz-adv-x="1665" 
d="M827 -31q-320 0 -505 178.5t-185 487.5q0 242 108 431t302.5 293.5t443.5 104.5q157 0 290.5 -48t258.5 -148l-82 -92q-210 174 -477 174q-210 0 -375 -90.5t-256.5 -252.5t-91.5 -368q0 -261 151.5 -408t417.5 -147q262 0 445 154t229 411l-4 2q-50 -16 -143 -16h-457
l18 106h725l-10 -51q-60 -339 -271.5 -530t-531.5 -191zM858 -104l-190 -336h-70l139 336h121z" />
    <glyph glyph-name="gcommaaccent" unicode="&#x123;" horiz-adv-x="1204" 
d="M745 1133h-124l206 319h68zM471 -440q-268 0 -465 151l70 90q105 -76 195.5 -107.5t203.5 -31.5q180 0 275.5 81t136.5 271q26 119 33.5 146.5t23.5 68.5l-4 4q-60 -126 -172.5 -195t-255.5 -69q-196 0 -314 123t-118 326q0 243 153.5 401t389.5 158q164 0 268 -75
t139 -220l6 2q0 122 33 262h105l-183 -946q-44 -229 -169 -334.5t-351 -105.5zM535 72q193 0 325.5 134t132.5 329q0 158 -95.5 248.5t-264.5 90.5q-191 0 -317 -129t-126 -327q0 -158 94 -252t251 -94z" />
    <glyph glyph-name="Hcircumflex" unicode="&#x124;" horiz-adv-x="1409" 
d="M606 1522l2 6l287 239h131l197 -239l-2 -6h-111l-74 90q-3 4 -12.5 14.5t-12 13.5t-9 11.5t-8.5 11.5t-7 9.5t-6.5 10t-5 9.5t-4.5 11t-3 11t-3 12h-4q-20 -31 -42.5 -53t-74.5 -61l-115 -90h-123zM1448 1434l-279 -1434h-116l129 666q8 39 16 51l-2 2q-24 -6 -55 -6
h-760q-36 0 -51 6l-2 -2q0 -31 -4 -51l-129 -666h-117l278 1434h117l-111 -566q-8 -38 -14 -49v-4q14 6 55 6h760q39 0 51 -6l5 4q-4 19 2 49l110 566h117z" />
    <glyph glyph-name="hcircumflex" unicode="&#x125;" horiz-adv-x="1134" 
d="M106 1522l3 6l286 239h131l195 -239l-2 -6h-109l-73 90q-5 6 -15.5 18.5t-14 16t-11 13t-10 13.5t-7 11.5t-6.5 13t-4.5 13t-3.5 15.5h-6q-18 -31 -40 -53t-75 -61l-115 -90h-123zM457 1464l-111 -561q-28 -135 -63 -239l8 -2q69 163 170.5 239t249.5 76
q152 0 231.5 -81.5t79.5 -236.5q0 -65 -18 -157l-99 -502h-106l100 506q12 56 12 127q0 119 -60 182.5t-175 63.5q-161 0 -271 -118.5t-153 -336.5l-80 -424h-109l285 1464h109z" />
    <glyph glyph-name="Hbar" unicode="&#x126;" horiz-adv-x="1480" 
d="M68 0l198 1022q8 34 15 49l-2 2q-12 -4 -52 -4h-96l21 98h96q39 0 47 -4l4 2q-3 16 4 49l43 220h115l-43 -220q-6 -32 -15 -49v-2q14 4 52 4h770q37 0 47 -4l4 2q-4 21 2 49l45 220h115l-45 -220q-8 -38 -13 -49v-2q12 4 52 4h96l-19 -98h-96q-39 0 -49 4l-4 -2
q4 -23 -2 -49l-199 -1022h-115l130 668q7 36 16 49l-4 2q-12 -4 -51 -4h-768q-40 0 -48 4l-4 -2q3 -16 -4 -49l-129 -668h-114zM336 815q21 6 53 6h766q34 0 49 -6l4 4q-3 15 4 47l31 156q8 38 14 49l-2 2q-12 -4 -51 -4h-768q-39 0 -49 4l-4 -2q3 -18 -4 -49l-29 -156
q-8 -38 -14 -47v-4z" />
    <glyph glyph-name="hbar" unicode="&#x127;" horiz-adv-x="1122" 
d="M696 977q153 0 232.5 -81t79.5 -237q0 -53 -17 -157l-98 -502h-107l99 506q14 52 14 127q0 119 -61 182.5t-176 63.5q-160 0 -270.5 -118.5t-151.5 -336.5l-82 -424h-107l185 946l36 184q6 37 19 58v2q-23 -10 -58 -10h-86l15 75h86q34 0 51 -10l4 2q-6 15 2 58l31 159
h106l-30 -159q-7 -38 -19 -58v-2q23 10 56 10h309l-15 -75h-307q-36 0 -53 10l-4 -2q7 -17 0 -58l-37 -184l-10 -51q-27 -137 -64 -236l8 -2q69 164 171.5 242t248.5 78z" />
    <glyph glyph-name="Itilde" unicode="&#x128;" horiz-adv-x="454" 
d="M623 1534q-50 0 -112.5 28t-118.5 55.5t-91 27.5q-61 0 -119 -89l-57 21q44 81 76 113q55 57 129 57q41 0 89 -17.5t84.5 -38t78 -38t69.5 -17.5q62 0 117 90l57 -22q-15 -29 -22 -42.5t-27.5 -42.5t-39.5 -44t-49 -28t-64 -13zM473 1434l-278 -1434h-117l278 1434h117z
" />
    <glyph glyph-name="itilde" unicode="&#x129;" horiz-adv-x="403" 
d="M272 1419q35 0 69 -19t56.5 -41.5t48 -41.5t46.5 -19q24 0 45 20.5t47 65.5l51 -24q-70 -158 -174 -158q-35 0 -69 18.5t-56 41t-47.5 41t-46.5 18.5q-24 0 -45 -20.5t-47 -65.5l-52 25q71 159 174 159zM348 946l-184 -946h-107l185 946h106z" />
    <glyph glyph-name="Imacron" unicode="&#x12a;" horiz-adv-x="454" 
d="M176 1671h567l-18 -86h-565zM473 1434l-278 -1434h-117l278 1434h117z" />
    <glyph glyph-name="imacron" unicode="&#x12b;" horiz-adv-x="403" 
d="M567 1341l-18 -84h-402l19 84h401zM348 946l-184 -946h-107l185 946h106z" />
    <glyph glyph-name="Ibreve" unicode="&#x12c;" horiz-adv-x="454" 
d="M432 1522q-110 0 -173.5 49.5t-63.5 138.5q0 26 6 53h84q0 -7 -1 -22t-1 -21q0 -55 40 -85.5t115 -30.5q91 0 150.5 41.5t81.5 117.5h88q-24 -113 -112.5 -177t-213.5 -64zM473 1434l-278 -1434h-117l278 1434h117z" />
    <glyph glyph-name="ibreve" unicode="&#x12d;" horiz-adv-x="403" 
d="M342 1147q-88 0 -137 52t-49 153q0 43 8 84h86q-8 -39 -8 -80q0 -127 102 -127q64 0 98 49.5t52 157.5h86q-20 -149 -78.5 -219t-159.5 -70zM348 946l-184 -946h-107l185 946h106z" />
    <glyph glyph-name="Iogonek" unicode="&#x12e;" horiz-adv-x="454" 
d="M145 0q-127 -83 -184 -138t-57 -106q0 -57 84 -57q49 0 110 14l-4 -80q-66 -16 -133 -16q-73 0 -112 31.5t-39 87.5q0 75 66.5 144t207.5 153l272 1401h117l-278 -1434h-50z" />
    <glyph glyph-name="iogonek" unicode="&#x12f;" horiz-adv-x="403" 
d="M319 1434h123l-53 -267h-121zM66 41l176 905h106l-184 -946h-51q-127 -83 -184.5 -138t-57.5 -106q0 -57 84 -57q50 0 111 14l-5 -80q-66 -16 -133 -16q-73 0 -112 31.5t-39 87.5q0 76 70 146t219 159z" />
    <glyph glyph-name="Idotaccent" unicode="&#x130;" horiz-adv-x="454" 
d="M532 1747l-43 -225h-116l43 225h116zM473 1434l-278 -1434h-117l278 1434h117z" />
    <glyph glyph-name="dotlessi" unicode="&#x131;" horiz-adv-x="403" 
d="M348 946l-184 -946h-107l185 946h106z" />
    <glyph glyph-name="IJ" unicode="&#x132;" horiz-adv-x="1017" 
d="M473 1434l-278 -1434h-117l278 1434h117zM1034 1434l-225 -1166q-29 -150 -104.5 -214t-212.5 -64q-24 0 -78 4l22 110q36 -4 68 -4q79 0 125.5 44t66.5 145l224 1145h114z" />
    <glyph glyph-name="ij" unicode="&#x133;" horiz-adv-x="806" 
d="M442 1434l-53 -267h-121l51 267h123zM846 1434l-53 -267h-121l51 267h123zM348 946l-184 -946h-107l185 946h106zM752 946l-213 -1098q-30 -154 -111 -221t-229 -67h-23l21 104h20q89 0 141.5 44.5t73.5 150.5l213 1087h107z" />
    <glyph glyph-name="Jcircumflex" unicode="&#x134;" horiz-adv-x="563" 
d="M227 1522l2 6l287 239h131l195 -239l-2 -6h-109l-74 90q-3 4 -12.5 14.5t-12 13.5t-9 11.5t-8.5 11.5t-7 9.5t-6.5 10t-5 9.5t-4.5 11t-3 11t-3 12h-6q-18 -31 -40 -53t-75 -61l-115 -90h-123zM580 1434l-226 -1166q-29 -150 -104.5 -214t-212.5 -64q-24 0 -78 4l23 110
q36 -4 67 -4q79 0 126 44t67 145l223 1145h115z" />
    <glyph glyph-name="jcircumflex" unicode="&#x135;" horiz-adv-x="403" 
d="M446 1448l93 -309l-2 -6h-88l-41 157q-17 77 -19 109h-4q-20 -51 -59 -109l-107 -157h-104l2 6l215 309h114zM348 946l-213 -1098q-30 -154 -111 -221t-229 -67h-22l20 104h21q89 0 141.5 44.5t73.5 150.5l213 1087h106z" />
    <glyph glyph-name="Kcommaaccent" unicode="&#x136;" horiz-adv-x="1193" 
d="M1290 1434l-641 -535q-142 -115 -192 -147l-2 -4q21 -14 39 -33t49 -58.5t49 -60.5l481 -596h-149l-594 748l-4 -3q-2 -76 -35 -241l-98 -504h-115l278 1434h115l-80 -416q-32 -162 -59 -242l2 -4l786 662h170zM592 -104l-191 -336h-69l139 336h121z" />
    <glyph glyph-name="kcommaaccent" unicode="&#x137;" horiz-adv-x="911" 
d="M457 1464l-140 -708q-28 -150 -59 -226l4 -4l500 420h158l-439 -358q-71 -58 -121 -84l2 -2q33 -17 93 -86l350 -416h-141l-408 498l-6 -4q0 -83 -29 -228l-49 -266h-109l285 1464h109zM469 -104l-190 -336h-70l139 336h121z" />
    <glyph glyph-name="kgreenlandic" unicode="&#x138;" horiz-adv-x="911" 
d="M63 0l185 946h108l-39 -190q-28 -150 -59 -226l4 -4l500 420h158l-441 -358q-71 -58 -121 -84l2 -2q35 -15 93 -86l352 -416h-141l-408 498l-6 -4q0 -83 -29 -228l-49 -266h-109z" />
    <glyph glyph-name="Lacute" unicode="&#x139;" horiz-adv-x="1011" 
d="M766 1747v-6l-283 -219h-82l-2 6l230 219h137zM471 1434l-248 -1278q-7 -33 -16 -52l2 -2q21 7 53 7h649l-20 -109h-813l278 1434h115z" />
    <glyph glyph-name="lacute" unicode="&#x13a;" horiz-adv-x="401" 
d="M733 1747v-6l-284 -219h-82v6l229 219h137zM457 1464l-285 -1464h-109l285 1464h109z" />
    <glyph glyph-name="Lcommaaccent" unicode="&#x13b;" horiz-adv-x="1011" 
d="M471 1434l-248 -1278q-7 -33 -16 -52l2 -2q21 7 53 7h649l-20 -109h-813l278 1434h115zM530 -104l-190 -336h-70l140 336h120z" />
    <glyph glyph-name="lcommaaccent" unicode="&#x13c;" horiz-adv-x="419" 
d="M457 1464l-285 -1464h-109l285 1464h109zM164 -104l-191 -336h-69l139 336h121z" />
    <glyph glyph-name="Lcaron" unicode="&#x13d;" horiz-adv-x="1011" 
d="M891 1495h121l-213 -426h-56zM471 1434l-248 -1278q-7 -33 -16 -52l2 -2q21 7 53 7h649l-20 -109h-813l278 1434h115z" />
    <glyph glyph-name="lcaron" unicode="&#x13e;" horiz-adv-x="559" 
d="M633 1495h119l-213 -381h-54zM457 1464l-285 -1464h-109l285 1464h109z" />
    <glyph glyph-name="Ldot" unicode="&#x13f;" horiz-adv-x="1011" 
d="M471 1434l-248 -1278q-7 -33 -16 -52l2 -2q21 7 53 7h649l-20 -109h-813l278 1434h115zM670 762l37 184h180l-37 -184h-180z" />
    <glyph glyph-name="ldot" unicode="&#x140;" horiz-adv-x="577" 
d="M457 1464l-285 -1464h-109l285 1464h109zM440 762l37 184h180l-36 -184h-181z" />
    <glyph glyph-name="Lslash" unicode="&#x141;" horiz-adv-x="1011" 
d="M78 0l115 602q2 13 5.5 22.5t6.5 14.5t14 20l-4 3q-26 -24 -57 -37l-140 -56l17 86l184 74l137 705h115l-119 -619q-9 -33 -26 -55l2 -2q32 26 59 35l397 159l-14 -88l-444 -174l-103 -534q-7 -30 -16 -52l2 -2q17 7 53 7h649l-20 -109h-813z" />
    <glyph glyph-name="lslash" unicode="&#x142;" horiz-adv-x="489" 
d="M98 0l133 672q10 56 31 86l-4 2q-27 -27 -84 -55l-119 -56l17 88l186 88l125 639h106l-96 -510q-7 -37 -12.5 -51.5t-18.5 -34.5l3 -2q31 27 73 45l125 58l-14 -86l-191 -90l-153 -793h-107z" />
    <glyph glyph-name="Nacute" unicode="&#x143;" horiz-adv-x="1449" 
d="M1253 1747v-6l-282 -219h-82l-2 6l229 219h137zM375 1454l669 -1069q66 -104 82 -164l4 2q2 92 35 258l187 953h114l-282 -1454h-19l-663 1071q-67 99 -84 161l-4 -2q-2 -90 -35 -256l-186 -954h-115l282 1454h15z" />
    <glyph glyph-name="nacute" unicode="&#x144;" horiz-adv-x="1126" 
d="M1049 1448l-2 -8l-308 -307h-82l2 10l248 305h142zM57 0l185 946h106l-10 -51q-25 -127 -66 -236l9 -2q71 165 172.5 242.5t248.5 77.5q152 0 232 -81.5t80 -236.5q0 -60 -19 -157l-96 -502h-106l98 506q12 44 12 127q0 119 -60 182.5t-175 63.5q-160 0 -270.5 -118.5
t-151.5 -336.5l-82 -424h-107z" />
    <glyph glyph-name="Ncommaaccent" unicode="&#x145;" horiz-adv-x="1449" 
d="M375 1454l669 -1069q66 -104 82 -164l4 2q2 92 35 258l187 953h114l-282 -1454h-19l-663 1071q-67 99 -84 161l-4 -2q-2 -90 -35 -256l-186 -954h-115l282 1454h15zM694 -104l-190 -336h-70l139 336h121z" />
    <glyph glyph-name="ncommaaccent" unicode="&#x146;" horiz-adv-x="1126" 
d="M57 0l185 946h106l-10 -51q-25 -127 -66 -236l9 -2q71 165 172.5 242.5t248.5 77.5q152 0 232 -81.5t80 -236.5q0 -60 -19 -157l-96 -502h-106l98 506q12 44 12 127q0 119 -60 182.5t-175 63.5q-160 0 -270.5 -118.5t-151.5 -336.5l-82 -424h-107zM514 -104l-190 -336
h-70l139 336h121z" />
    <glyph glyph-name="Ncaron" unicode="&#x147;" horiz-adv-x="1449" 
d="M1278 1767l-2 -6l-287 -239h-131l-194 239l2 6h106l78 -90q37 -40 51 -61.5t21 -52.5h6q18 31 39 51.5t75 62.5l113 90h123zM375 1454l669 -1069q66 -104 82 -164l4 2q2 92 35 258l187 953h114l-282 -1454h-19l-663 1071q-67 99 -84 161l-4 -2q-2 -90 -35 -256l-186 -954
h-115l282 1454h15z" />
    <glyph glyph-name="ncaron" unicode="&#x148;" horiz-adv-x="1126" 
d="M629 1114l-185 311l2 5h99l96 -156q37 -61 47 -109h6q14 27 29.5 46t58.5 63l154 156h121l-2 -5l-301 -311h-125zM57 0l185 946h106l-10 -51q-25 -127 -66 -236l9 -2q71 165 172.5 242.5t248.5 77.5q152 0 232 -81.5t80 -236.5q0 -60 -19 -157l-96 -502h-106l98 506
q12 44 12 127q0 119 -60 182.5t-175 63.5q-160 0 -270.5 -118.5t-151.5 -336.5l-82 -424h-107z" />
    <glyph glyph-name="napostrophe" unicode="&#x149;" horiz-adv-x="1126" 
d="M264 1495h121l-213 -426h-55zM57 0l185 946h106l-10 -51q-25 -127 -66 -236l9 -2q71 165 172.5 242.5t248.5 77.5q152 0 232 -81.5t80 -236.5q0 -60 -19 -157l-96 -502h-106l98 506q12 44 12 127q0 119 -60 182.5t-175 63.5q-160 0 -270.5 -118.5t-151.5 -336.5l-82 -424
h-107z" />
    <glyph glyph-name="Eng" unicode="&#x14a;" horiz-adv-x="1449" 
d="M1466 1434l-282 -1454h-8l-15 -76q-31 -163 -111 -238.5t-229 -75.5h-94l23 113h94q161 0 200 203l41 205l-583 940q-67 99 -84 161l-4 -2q-2 -90 -35 -256l-186 -954h-115l282 1454h15l669 -1069q66 -104 82 -164l4 2q2 92 35 258l187 953h114z" />
    <glyph glyph-name="eng" unicode="&#x14b;" horiz-adv-x="1126" 
d="M1014 659q0 -60 -19 -157l-96 -502l-25 -125q-32 -162 -108.5 -224.5t-208.5 -62.5h-92l18 101h88q80 0 127.5 42.5t69.5 147.5l25 121l98 506q12 44 12 127q0 119 -60 182.5t-175 63.5q-160 0 -270.5 -118.5t-151.5 -336.5l-82 -424h-107l185 946h106l-10 -51
q-25 -127 -66 -236l9 -2q71 165 172.5 242.5t248.5 77.5q152 0 232 -81.5t80 -236.5z" />
    <glyph glyph-name="Omacron" unicode="&#x14c;" horiz-adv-x="1724" 
d="M752 1671h567l-19 -86h-565zM848 -31q-324 0 -516.5 185.5t-192.5 494.5q0 173 63.5 324.5t173.5 259t265 169.5t332 62q322 0 515 -185.5t193 -494.5q0 -231 -107.5 -417.5t-298.5 -292t-427 -105.5zM850 84q203 0 365 91t253 253t91 365q0 249 -162.5 403t-425.5 154
q-203 0 -365.5 -90.5t-254 -253t-91.5 -365.5q0 -249 163 -403t427 -154z" />
    <glyph glyph-name="omacron" unicode="&#x14d;" horiz-adv-x="1183" 
d="M1024 1356l-16 -88h-566l17 88h565zM539 -31q-215 0 -338 119t-123 324q0 119 43.5 224t118.5 179.5t180 118t225 43.5q215 0 338 -118.5t123 -323.5q0 -159 -73.5 -288.5t-203.5 -203.5t-290 -74zM549 72q124 0 227 61.5t162 168t59 233.5q0 157 -97.5 248t-264.5 91
q-189 0 -319 -134t-130 -328q0 -157 98 -248.5t265 -91.5z" />
    <glyph glyph-name="Obreve" unicode="&#x14e;" horiz-adv-x="1724" 
d="M1008 1522q-110 0 -174 50t-64 138q0 26 6 53h84q0 -7 -1 -22t-1 -21q0 -55 40 -85.5t116 -30.5q91 0 150 41.5t81 117.5h88q-24 -113 -112.5 -177t-212.5 -64zM848 -31q-324 0 -516.5 185.5t-192.5 494.5q0 173 63.5 324.5t173.5 259t265 169.5t332 62q322 0 515 -185.5
t193 -494.5q0 -231 -107.5 -417.5t-298.5 -292t-427 -105.5zM850 84q203 0 365 91t253 253t91 365q0 249 -162.5 403t-425.5 154q-203 0 -365.5 -90.5t-254 -253t-91.5 -365.5q0 -249 163 -403t427 -154z" />
    <glyph glyph-name="obreve" unicode="&#x14f;" horiz-adv-x="1183" 
d="M707 1147q-111 0 -176.5 59t-65.5 162q0 34 6 68h86q-4 -36 -4 -52q0 -75 41.5 -114t118.5 -39q89 0 151 54t82 151h84q-24 -143 -110 -216t-213 -73zM539 -31q-215 0 -338 119t-123 324q0 119 43.5 224t118.5 179.5t180 118t225 43.5q215 0 338 -118.5t123 -323.5
q0 -159 -73.5 -288.5t-203.5 -203.5t-290 -74zM549 72q124 0 227 61.5t162 168t59 233.5q0 157 -97.5 248t-264.5 91q-189 0 -319 -134t-130 -328q0 -157 98 -248.5t265 -91.5z" />
    <glyph glyph-name="Ohungarumlaut" unicode="&#x150;" horiz-adv-x="1724" 
d="M1221 1747v-6l-242 -219h-86v6l233 219h95zM1077 1528l234 219h94v-6l-242 -219h-86v6zM848 -31q-324 0 -516.5 185.5t-192.5 494.5q0 173 63.5 324.5t173.5 259t265 169.5t332 62q322 0 515 -185.5t193 -494.5q0 -231 -107.5 -417.5t-298.5 -292t-427 -105.5zM850 84
q203 0 365 91t253 253t91 365q0 249 -162.5 403t-425.5 154q-203 0 -365.5 -90.5t-254 -253t-91.5 -365.5q0 -249 163 -403t427 -154z" />
    <glyph glyph-name="ohungarumlaut" unicode="&#x151;" horiz-adv-x="1183" 
d="M551 1133v6l266 311h98v-6l-274 -311h-90zM739 1133v6l265 311h100v-6l-277 -311h-88zM539 -31q-215 0 -338 119t-123 324q0 119 43.5 224t118.5 179.5t180 118t225 43.5q215 0 338 -118.5t123 -323.5q0 -159 -73.5 -288.5t-203.5 -203.5t-290 -74zM549 72
q124 0 227 61.5t162 168t59 233.5q0 157 -97.5 248t-264.5 91q-189 0 -319 -134t-130 -328q0 -157 98 -248.5t265 -91.5z" />
    <glyph glyph-name="OE" unicode="&#x152;" horiz-adv-x="2359" 
d="M836 -31q-165 0 -298 51.5t-220.5 142.5t-134 214t-46.5 268q0 168 62 318t172.5 261t272.5 175.5t353 64.5q107 0 198.5 -23.5t156.5 -62t116 -92t81.5 -109.5t49.5 -118l5 2q0 54 10 100l53 273h787l-19 -107h-623q-41 0 -53 4l-2 -2q3 -16 -4 -49l-76 -389
q-8 -38 -16 -49l4 -2q12 4 53 4h566l-21 -107h-565q-32 0 -53 6l-3 -2q3 -17 -4 -51l-102 -536q-7 -32 -16 -50l2 -2q12 4 53 4h631l-21 -106h-794l28 139q18 92 31 125l-4 2q-90 -138 -246 -217.5t-364 -79.5zM836 86q210 0 373 91.5t252 252t89 363.5q0 260 -154.5 407.5
t-410.5 147.5q-162 0 -299.5 -57.5t-230.5 -154.5t-145 -225.5t-52 -271.5q0 -120 38 -221t110 -175t182 -115.5t248 -41.5z" />
    <glyph glyph-name="oe" unicode="&#x153;" horiz-adv-x="2007" 
d="M537 -31q-208 0 -334.5 117t-126.5 324q0 157 71.5 286t202.5 205t295 76q157 0 273.5 -73.5t152.5 -207.5h2q61 130 183.5 205.5t279.5 75.5q194 0 297.5 -106t103.5 -275q0 -58 -18 -135h-729q-57 0 -82 10l-4 -2l2 -16q-4 -20 -4 -60q0 -150 87.5 -235.5t242.5 -85.5
q113 0 198.5 46t169.5 132l72 -80q-96 -96 -199.5 -149.5t-245.5 -53.5q-157 0 -261.5 73t-145.5 214h-2q-70 -133 -195 -209t-286 -76zM1120 535q28 14 80 14h547q52 0 82 -12l4 2v55q0 131 -80 208t-225 77q-91 0 -166.5 -31.5t-124.5 -83t-78.5 -109.5t-40.5 -118z
M541 72q133 0 238.5 64.5t161.5 169t56 226.5q0 158 -97.5 250t-260.5 92q-132 0 -237.5 -64.5t-161.5 -169.5t-56 -226q0 -158 98 -250t259 -92z" />
    <glyph glyph-name="Racute" unicode="&#x154;" horiz-adv-x="1179" 
d="M1102 1747v-6l-283 -219h-82l-2 6l230 219h137zM772 1434q179 0 282 -88.5t103 -241.5q0 -185 -125 -294.5t-336 -109.5q-38 0 -73 9l-2 -2q46 -38 75 -91l359 -616h-133l-406 696h-139q-39 0 -51 4l-2 -2q1 -4 -5 -51l-126 -647h-115l278 1434h416zM449 1331l-5 -2
q1 -4 -4 -49l-82 -430q-4 -26 -16 -49l4 -2q8 4 51 4h301q153 0 244.5 79.5t91.5 211.5q0 112 -69 172.5t-197 60.5h-268q-39 0 -51 4z" />
    <glyph glyph-name="racute" unicode="&#x155;" horiz-adv-x="667" 
d="M852 1448l-2 -8l-307 -307h-82l2 10l248 305h141zM57 0l185 946h106q-37 -183 -80 -315l8 -4q63 185 154 267.5t232 82.5q28 0 71 -6l-22 -117q-55 6 -82 6q-141 0 -245.5 -130t-147.5 -357l-72 -373h-107z" />
    <glyph glyph-name="Rcommaaccent" unicode="&#x156;" horiz-adv-x="1179" 
d="M772 1434q179 0 282 -88.5t103 -241.5q0 -185 -125 -294.5t-336 -109.5q-38 0 -73 9l-2 -2q46 -38 75 -91l359 -616h-133l-406 696h-139q-39 0 -51 4l-2 -2q1 -4 -5 -51l-126 -647h-115l278 1434h416zM449 1331l-5 -2q1 -4 -4 -49l-82 -430q-4 -26 -16 -49l4 -2q8 4 51 4
h301q153 0 244.5 79.5t91.5 211.5q0 112 -69 172.5t-197 60.5h-268q-39 0 -51 4zM604 -104l-190 -336h-70l139 336h121z" />
    <glyph glyph-name="rcommaaccent" unicode="&#x157;" horiz-adv-x="667" 
d="M57 0l185 946h106q-37 -183 -80 -315l8 -4q63 185 154 267.5t232 82.5q28 0 71 -6l-22 -117q-55 6 -82 6q-141 0 -245.5 -130t-147.5 -357l-72 -373h-107zM160 -104l-191 -336h-69l139 336h121z" />
    <glyph glyph-name="Rcaron" unicode="&#x158;" horiz-adv-x="1179" 
d="M1126 1767l-2 -6l-286 -239h-131l-195 239l2 6h107l77 -90q37 -40 51 -61.5t21 -52.5h6q18 30 39 50.5t76 63.5l113 90h122zM772 1434q179 0 282 -88.5t103 -241.5q0 -185 -125 -294.5t-336 -109.5q-38 0 -73 9l-2 -2q46 -38 75 -91l359 -616h-133l-406 696h-139
q-39 0 -51 4l-2 -2q1 -4 -5 -51l-126 -647h-115l278 1434h416zM449 1331l-5 -2q1 -4 -4 -49l-82 -430q-4 -26 -16 -49l4 -2q8 4 51 4h301q153 0 244.5 79.5t91.5 211.5q0 112 -69 172.5t-197 60.5h-268q-39 0 -51 4z" />
    <glyph glyph-name="rcaron" unicode="&#x159;" horiz-adv-x="667" 
d="M430 1114l-184 311l2 5h98l96 -156q37 -61 47 -109h7q14 27 29.5 46t58.5 63l153 156h121l-2 -5l-301 -311h-125zM57 0l185 946h106q-37 -183 -80 -315l8 -4q63 185 154 267.5t232 82.5q28 0 71 -6l-22 -117q-55 6 -82 6q-141 0 -245.5 -130t-147.5 -357l-72 -373h-107z
" />
    <glyph glyph-name="Sacute" unicode="&#x15a;" horiz-adv-x="1056" 
d="M1024 1747v-6l-283 -219h-82l-2 6l230 219h137zM516 -31q-147 0 -282 55t-244 160l76 95q210 -195 452 -195q146 0 225.5 66t79.5 188q0 82 -42 151t-140 148l-168 139q-108 87 -157.5 172.5t-49.5 184.5q0 152 102 241.5t277 89.5q107 0 205 -35t213 -114l-72 -103
q-176 138 -350 138q-118 0 -186 -58.5t-68 -158.5q0 -136 164 -267l180 -143q113 -91 163 -181t50 -202q0 -175 -113 -273t-315 -98z" />
    <glyph glyph-name="sacute" unicode="&#x15b;" horiz-adv-x="817" 
d="M868 1448l-2 -8l-307 -307h-82l2 10l248 305h141zM53 219q86 -78 164.5 -112.5t169.5 -34.5q94 0 145.5 38.5t51.5 108.5q0 47 -28 88.5t-91 85.5l-119 80q-94 64 -134 124.5t-40 137.5q0 111 76.5 176.5t206.5 65.5q168 0 317 -105l-59 -92q-134 94 -256 94
q-82 0 -128 -38t-46 -105q0 -49 27 -84t104 -90l112 -76q94 -66 131 -124t37 -138q0 -120 -80.5 -185t-230.5 -65q-114 0 -210.5 40t-188.5 126z" />
    <glyph glyph-name="Scircumflex" unicode="&#x15c;" horiz-adv-x="1056" 
d="M387 1522l2 6l287 239h131l194 -239l-2 -6h-108l-74 90q-5 6 -15.5 18.5t-14 16t-11 13t-10 13.5t-7 11.5t-6.5 13t-4.5 13t-3.5 15.5h-6q-18 -32 -40 -53.5t-74 -60.5l-115 -90h-123zM516 -31q-147 0 -282 55t-244 160l76 95q210 -195 452 -195q146 0 225.5 66t79.5 188
q0 82 -42 151t-140 148l-168 139q-108 87 -157.5 172.5t-49.5 184.5q0 152 102 241.5t277 89.5q107 0 205 -35t213 -114l-72 -103q-176 138 -350 138q-118 0 -186 -58.5t-68 -158.5q0 -136 164 -267l180 -143q113 -91 163 -181t50 -202q0 -175 -113 -273t-315 -98z" />
    <glyph glyph-name="scircumflex" unicode="&#x15d;" horiz-adv-x="817" 
d="M633 1448l182 -309l-2 -6h-100l-97 157q-25 39 -34 59.5t-13 49.5h-4q-27 -49 -90 -109l-156 -157h-116l2 6l301 309h127zM53 219q86 -78 164.5 -112.5t169.5 -34.5q94 0 145.5 38.5t51.5 108.5q0 47 -28 88.5t-91 85.5l-119 80q-94 64 -134 124.5t-40 137.5
q0 111 76.5 176.5t206.5 65.5q168 0 317 -105l-59 -92q-134 94 -256 94q-82 0 -128 -38t-46 -105q0 -49 27 -84t104 -90l112 -76q94 -66 131 -124t37 -138q0 -120 -80.5 -185t-230.5 -65q-114 0 -210.5 40t-188.5 126z" />
    <glyph glyph-name="Scedilla" unicode="&#x15e;" horiz-adv-x="1056" 
d="M641 1350q-118 0 -186 -58.5t-68 -158.5q0 -136 164 -267l180 -143q113 -91 163 -181t50 -202q0 -171 -107 -269t-300 -102l-33 -55q28 -7 49.5 -15.5t45 -23t36 -37t12.5 -51.5q0 -28 -10.5 -53.5t-34.5 -48t-46 -39t-63 -36.5t-67 -31.5t-74 -31.5l-14 47l61.5 31.5
t49.5 26.5t42.5 26.5t28 24t20 26.5t5.5 27q0 32 -33 51t-104 33l71 129q-280 15 -489 215l76 95q210 -195 452 -195q146 0 225.5 66t79.5 188q0 82 -42 151t-140 148l-168 139q-108 87 -157.5 172.5t-49.5 184.5q0 152 102 241.5t277 89.5q107 0 205 -35t213 -114l-72 -103
q-176 138 -350 138z" />
    <glyph glyph-name="scedilla" unicode="&#x15f;" horiz-adv-x="817" 
d="M457 874q-82 0 -128 -38t-46 -105q0 -49 27 -84t104 -90l112 -76q94 -66 131 -124t37 -138q0 -120 -79.5 -185t-227.5 -65l-33 -55q28 -7 49.5 -15.5t45 -23t36.5 -37t13 -51.5q0 -28 -10.5 -53.5t-34.5 -48t-46 -39t-63 -36.5t-67 -31.5t-74 -31.5l-15 47l61.5 31.5
t49.5 26.5t42.5 26.5t28 24t20 26.5t5.5 27q0 32 -33 51t-104 33l74 131q-188 15 -348 164l69 84q86 -78 164.5 -112.5t169.5 -34.5q94 0 145.5 38.5t51.5 108.5q0 47 -28 88.5t-91 85.5l-119 80q-94 64 -134 124.5t-40 137.5q0 111 76.5 176.5t206.5 65.5q168 0 317 -105
l-59 -92q-134 94 -256 94z" />
    <glyph glyph-name="Scaron" unicode="&#x160;" horiz-adv-x="1056" 
d="M1049 1767l-2 -6l-287 -239h-131l-195 239l2 6h107l78 -90q36 -39 50 -61t21 -53h6q18 30 39 50.5t76 63.5l113 90h123zM516 -31q-147 0 -282 55t-244 160l76 95q210 -195 452 -195q146 0 225.5 66t79.5 188q0 82 -42 151t-140 148l-168 139q-108 87 -157.5 172.5
t-49.5 184.5q0 152 102 241.5t277 89.5q107 0 205 -35t213 -114l-72 -103q-176 138 -350 138q-118 0 -186 -58.5t-68 -158.5q0 -136 164 -267l180 -143q113 -91 163 -181t50 -202q0 -175 -113 -273t-315 -98z" />
    <glyph glyph-name="scaron" unicode="&#x161;" horiz-adv-x="817" 
d="M449 1114l-185 311l2 5h99l96 -156q37 -61 47 -109h6q14 27 29.5 46t58.5 63l154 156h121l-3 -5l-301 -311h-124zM53 219q86 -78 164.5 -112.5t169.5 -34.5q94 0 145.5 38.5t51.5 108.5q0 47 -28 88.5t-91 85.5l-119 80q-94 64 -134 124.5t-40 137.5q0 111 76.5 176.5
t206.5 65.5q168 0 317 -105l-59 -92q-134 94 -256 94q-82 0 -128 -38t-46 -105q0 -49 27 -84t104 -90l112 -76q94 -66 131 -124t37 -138q0 -120 -80.5 -185t-230.5 -65q-114 0 -210.5 40t-188.5 126z" />
    <glyph glyph-name="uni0162" unicode="&#x162;" horiz-adv-x="1046" 
d="M207 1434h1005l-20 -109h-395q-36 0 -54 6l-2 -2q4 -22 -2 -51l-247 -1278h-27l-49 -86q28 -7 49.5 -15.5t45 -23t36 -37t12.5 -51.5q0 -28 -10.5 -53.5t-34.5 -48t-46 -39t-63 -36.5t-67 -31.5t-74 -31.5l-14 47l61.5 31.5t49.5 26.5t42.5 26.5t28 24t20 26.5t5.5 27
q0 32 -33 51t-105 33l89 160h-33l248 1278q8 38 14 51l-2 2q-18 -6 -53 -6h-396z" />
    <glyph glyph-name="uni0163" unicode="&#x163;" horiz-adv-x="622" 
d="M512 946h143l-18 -96h-141q-44 0 -62 10l-4 -2q5 -23 -2 -65l-154 -793h-22l-49 -86q28 -7 49.5 -15.5t45 -23t36 -37t12.5 -51.5q0 -28 -10.5 -53.5t-34.5 -48t-46 -39t-63 -36.5t-67 -31.5t-74 -31.5l-14 47l61.5 31.5t49.5 26.5t42.5 26.5t28 24t20 26.5t5.5 27
q0 32 -33 51t-105 33l89 160h-27l154 793q7 44 22 65l-4 2q-23 -10 -66 -10h-141l19 96h141q47 0 61 -10l4 2q-5 30 4 68l70 362l115 84h10l-88 -446q-8 -34 -23 -68v-2q18 10 66 10z" />
    <glyph glyph-name="Tcaron" unicode="&#x164;" horiz-adv-x="1046" 
d="M1079 1767l-2 -6l-286 -239h-132l-194 239l2 6h106l78 -90q37 -40 51 -61.5t21 -52.5h6q18 30 39 50.5t76 63.5l112 90h123zM1212 1434l-20 -109h-395q-36 0 -54 6l-2 -2q4 -22 -2 -51l-247 -1278h-117l248 1278q8 38 14 51l-2 2q-18 -6 -53 -6h-396l21 109h1005z" />
    <glyph glyph-name="tcaron" unicode="&#x165;" horiz-adv-x="737" 
d="M793 1495h118l-213 -381h-55zM557 1452l-88 -446q-8 -34 -23 -68v-2q18 10 66 10h143l-18 -96h-141q-44 0 -62 10l-4 -2q5 -23 -2 -65l-154 -793h-106l154 793q7 44 22 65l-4 2q-23 -10 -66 -10h-141l19 96h141q47 0 61 -10l4 2q-5 30 4 68l70 362l115 84h10z" />
    <glyph glyph-name="Tbar" unicode="&#x166;" horiz-adv-x="1077" 
d="M811 1327q-39 0 -51 4l-4 -2q4 -21 -2 -49l-56 -287q-6 -28 -16 -49l2 -2q12 4 51 4h250l-18 -102h-252q-37 0 -49 4l-2 -2q3 -15 -5 -49l-155 -797h-115l156 797q8 38 14 49l-2 2q-12 -4 -49 -4h-250l18 102h250q39 0 49 -4l5 2q-3 16 4 49l55 287q6 28 16 49l-4 2
q-12 -4 -53 -4h-412l21 107h1036l-20 -107h-412z" />
    <glyph glyph-name="tbar" unicode="&#x167;" horiz-adv-x="620" 
d="M434 1368l117 90h2l-88 -452q-5 -33 -19 -64l3 -2q14 6 61 6h143l-18 -96h-143q-42 0 -58 8l-6 -2q3 -31 -2 -53l-20 -98q-7 -41 -15 -54v-4q21 6 53 6h148l-17 -75h-145q-41 0 -51 4l-2 -2q3 -18 -4 -50l-103 -530h-102l102 530q8 36 15 50l-2 2q-12 -4 -52 -4h-133
l15 75h133q34 0 49 -6l4 4q-3 14 4 54l21 96q10 47 14 55v2q-21 -8 -64 -8h-141l19 96h141q47 0 59 -6l4 2q-3 27 6 64z" />
    <glyph glyph-name="Utilde" unicode="&#x168;" horiz-adv-x="1382" 
d="M1085 1534q-51 0 -113 28t-117.5 55.5t-90.5 27.5q-61 0 -119 -89l-57 21q44 81 76 113q55 57 129 57q41 0 89 -17.5t84.5 -38t78 -38t69.5 -17.5q62 0 117 90l57 -22q-18 -35 -29.5 -54t-37.5 -51.5t-60 -48.5t-76 -16zM631 -31q-229 0 -355 116t-126 327q0 72 16 147
l172 875h123l-174 -891q-13 -66 -13 -121q0 -160 95.5 -248t267.5 -88q195 0 319.5 116.5t167.5 340.5l174 891h123l-178 -908q-51 -272 -207 -414.5t-405 -142.5z" />
    <glyph glyph-name="utilde" unicode="&#x169;" horiz-adv-x="1075" 
d="M811 1202q-40 0 -88 17.5t-84.5 39t-77.5 39t-69 17.5q-62 0 -121 -90l-58 20q15 28 19.5 36t21.5 36t30 40t34.5 29.5t46 25t53.5 7.5q51 0 113.5 -28.5t118 -57t90.5 -28.5q63 0 116 90l58 -21q-14 -27 -22 -43t-28 -44t-39.5 -43.5t-49.5 -28.5t-64 -13zM1030 946
l-184 -946h-107q39 191 72 274l-8 5q-69 -160 -164 -235t-229 -75q-151 0 -234.5 87t-79.5 239q2 50 17 131l102 520h109l-103 -514q-10 -69 -12 -113q-6 -120 52 -184.5t173 -64.5q152 0 259.5 118.5t148.5 333.5l82 424h106z" />
    <glyph glyph-name="Umacron" unicode="&#x16a;" horiz-adv-x="1382" 
d="M637 1671h567l-18 -86h-565zM631 -31q-229 0 -355 116t-126 327q0 72 16 147l172 875h123l-174 -891q-13 -66 -13 -121q0 -160 95.5 -248t267.5 -88q195 0 319.5 116.5t167.5 340.5l174 891h123l-178 -908q-51 -272 -207 -414.5t-405 -142.5z" />
    <glyph glyph-name="umacron" unicode="&#x16b;" horiz-adv-x="1075" 
d="M969 1356l-17 -88h-565l16 88h566zM1030 946l-184 -946h-107q39 191 72 274l-8 5q-69 -160 -164 -235t-229 -75q-151 0 -234.5 87t-79.5 239q2 50 17 131l102 520h109l-103 -514q-10 -69 -12 -113q-6 -120 52 -184.5t173 -64.5q152 0 259.5 118.5t148.5 333.5l82 424h106
z" />
    <glyph glyph-name="Ubreve" unicode="&#x16c;" horiz-adv-x="1382" 
d="M893 1522q-110 0 -174 50t-64 138q0 22 7 53h83q0 -7 -1 -22t-1 -21q0 -55 40 -85.5t116 -30.5q91 0 150 41.5t81 117.5h89q-24 -113 -112.5 -177t-213.5 -64zM631 -31q-229 0 -355 116t-126 327q0 72 16 147l172 875h123l-174 -891q-13 -66 -13 -121q0 -160 95.5 -248
t267.5 -88q195 0 319.5 116.5t167.5 340.5l174 891h123l-178 -908q-51 -272 -207 -414.5t-405 -142.5z" />
    <glyph glyph-name="ubreve" unicode="&#x16d;" horiz-adv-x="1075" 
d="M651 1147q-111 0 -176 59t-65 162q0 34 6 68h86q-4 -36 -4 -52q0 -75 41 -114t118 -39q89 0 151.5 54t82.5 151h84q-24 -143 -110 -216t-214 -73zM1030 946l-184 -946h-107q39 191 72 274l-8 5q-69 -160 -164 -235t-229 -75q-151 0 -234.5 87t-79.5 239q2 50 17 131
l102 520h109l-103 -514q-10 -69 -12 -113q-6 -120 52 -184.5t173 -64.5q152 0 259.5 118.5t148.5 333.5l82 424h106z" />
    <glyph glyph-name="Uring" unicode="&#x16e;" horiz-adv-x="1382" 
d="M877 1399q-101 0 -158 57t-57 148q0 117 77.5 195.5t198.5 78.5q101 0 157 -57.5t56 -149.5q0 -116 -76.5 -194t-197.5 -78zM881 1464q89 0 144.5 59t55.5 144q0 67 -39 105t-110 38q-88 0 -143.5 -58.5t-55.5 -143.5q0 -67 39 -105.5t109 -38.5zM631 -31
q-229 0 -355 116t-126 327q0 72 16 147l172 875h123l-174 -891q-13 -66 -13 -121q0 -160 95.5 -248t267.5 -88q195 0 319.5 116.5t167.5 340.5l174 891h123l-178 -908q-51 -272 -207 -414.5t-405 -142.5z" />
    <glyph glyph-name="uring" unicode="&#x16f;" horiz-adv-x="1075" 
d="M686 1530q103 0 164 -62.5t61 -158.5q0 -108 -72.5 -183t-187.5 -75q-105 0 -166 62.5t-61 158.5q0 109 72.5 183.5t189.5 74.5zM682 1464q-86 0 -136 -54.5t-50 -135.5q0 -73 41.5 -115.5t115.5 -42.5q85 0 136 55t51 136q0 72 -42.5 114.5t-115.5 42.5zM1030 946
l-184 -946h-107q39 191 72 274l-8 5q-69 -160 -164 -235t-229 -75q-151 0 -234.5 87t-79.5 239q2 50 17 131l102 520h109l-103 -514q-10 -69 -12 -113q-6 -120 52 -184.5t173 -64.5q152 0 259.5 118.5t148.5 333.5l82 424h106z" />
    <glyph glyph-name="Uhungarumlaut" unicode="&#x170;" horiz-adv-x="1382" 
d="M1104 1747v-6l-242 -219h-86v6l234 219h94zM961 1528l233 219h94v-6l-241 -219h-86v6zM631 -31q-229 0 -355 116t-126 327q0 72 16 147l172 875h123l-174 -891q-13 -66 -13 -121q0 -160 95.5 -248t267.5 -88q195 0 319.5 116.5t167.5 340.5l174 891h123l-178 -908
q-51 -272 -207 -414.5t-405 -142.5z" />
    <glyph glyph-name="uhungarumlaut" unicode="&#x171;" horiz-adv-x="1075" 
d="M496 1133v6l266 311h98v-6l-274 -311h-90zM684 1133v6l264 311h101v-6l-277 -311h-88zM1030 946l-184 -946h-107q39 191 72 274l-8 5q-69 -160 -164 -235t-229 -75q-151 0 -234.5 87t-79.5 239q2 50 17 131l102 520h109l-103 -514q-10 -69 -12 -113q-6 -120 52 -184.5
t173 -64.5q152 0 259.5 118.5t148.5 333.5l82 424h106z" />
    <glyph glyph-name="Uogonek" unicode="&#x172;" horiz-adv-x="1382" 
d="M1298 1434h123l-178 -908q-51 -270 -206.5 -413t-401.5 -144q-100 -68 -147.5 -118t-47.5 -95q0 -57 82 -57q50 0 111 14l-4 -80q-66 -16 -133 -16q-73 0 -112.5 31.5t-39.5 87.5q0 61 45 118.5t139 120.5q-182 25 -280 138t-98 299q0 72 16 147l172 875h123l-174 -891
q-13 -66 -13 -121q0 -160 95.5 -248t267.5 -88q195 0 319.5 116.5t167.5 340.5z" />
    <glyph glyph-name="uogonek" unicode="&#x173;" horiz-adv-x="1075" 
d="M795 0q-126 -82 -183 -137.5t-57 -106.5q0 -57 82 -57q50 0 111 14l-5 -80q-66 -16 -133 -16q-73 0 -112 31.5t-39 87.5q0 76 70.5 147.5t218.5 159.5q42 179 63 231l-8 5q-69 -160 -164 -235t-229 -75q-151 0 -234.5 87t-79.5 239q2 50 17 131l102 520h109l-103 -514
q-10 -69 -12 -113q-6 -120 52 -184.5t173 -64.5q152 0 259.5 118.5t148.5 333.5l82 424h106l-184 -946h-51z" />
    <glyph glyph-name="Wcircumflex" unicode="&#x174;" horiz-adv-x="1914" 
d="M844 1522l2 6l287 239h131l194 -239l-2 -6h-108l-74 90q-5 6 -15.5 18.5t-14 16t-11 13t-10 13.5t-7 11.5t-6.5 13t-4.5 13t-3.5 15.5h-6q-18 -31 -40 -53t-75 -61l-114 -90h-123zM444 -29l-229 1463h123l129 -932q20 -136 20 -266h9q60 144 127 270l510 956h16l141 -954
q23 -160 23 -270h8q55 141 121 266l495 930h136l-797 -1463h-12l-156 1026q-15 104 -8 189h-8q-22 -77 -80 -189l-557 -1026h-11z" />
    <glyph glyph-name="wcircumflex" unicode="&#x175;" horiz-adv-x="1480" 
d="M981 1448l182 -309l-2 -6h-100l-96 157q-25 39 -34 59.5t-13 49.5h-5q-27 -49 -90 -109l-155 -157h-117l2 6l301 309h127zM322 -18l-193 964h113l104 -586q19 -105 14 -178h7q31 79 92 178l360 605h19l127 -605q22 -105 22 -178h6q19 63 82 178l332 586h129l-569 -964
h-19l-133 622q-12 56 -14.5 93.5t0.5 74.5h-4q-25 -79 -78 -168l-377 -622h-20z" />
    <glyph glyph-name="Ycircumflex" unicode="&#x176;" horiz-adv-x="1107" 
d="M440 1522l2 6l287 239h131l195 -239l-2 -6h-109l-74 90q-3 4 -12.5 14.5t-12 13.5t-9 11.5t-8.5 11.5t-7 9.5t-6.5 10t-5 9.5t-4.5 11t-3 11t-3 12h-6q-18 -31 -40 -53t-75 -61l-115 -90h-123zM1268 1434l-643 -883l-107 -551h-115l105 551l-295 883h129l193 -609
q33 -102 38 -192h7q32 77 110 192l432 609h146z" />
    <glyph glyph-name="ycircumflex" unicode="&#x177;" horiz-adv-x="960" 
d="M717 1448l182 -309l-2 -6h-100l-97 157q-25 39 -34 59.5t-13 49.5h-4q-27 -49 -90 -109l-156 -157h-116l2 6l301 309h127zM1028 946l-862 -1356h-121l311 484l-237 872h110l158 -586q22 -84 28 -126t3 -93l8 2q23 74 102 199l379 604h121z" />
    <glyph glyph-name="Ydieresis" unicode="&#x178;" horiz-adv-x="1107" 
d="M565 1747h123l-45 -225h-121zM893 1747h123l-45 -225h-121zM1268 1434l-643 -883l-107 -551h-115l105 551l-295 883h129l193 -609q33 -102 38 -192h7q32 77 110 192l432 609h146z" />
    <glyph glyph-name="Zacute" unicode="&#x179;" horiz-adv-x="1193" 
d="M1141 1747v-6l-283 -219h-82l-2 6l230 219h137zM1305 1434l2 -4l-1147 -1334v-6q49 21 205 21h720l-79 -111h-1061v6l1147 1335l-2 7q-62 -25 -207 -25h-596l80 111h938z" />
    <glyph glyph-name="zacute" unicode="&#x17a;" horiz-adv-x="921" 
d="M1006 1448l-2 -8l-308 -307h-82l2 10l248 305h142zM-61 0l-2 10l833 854l-2 6q-38 -16 -76 -20t-135 -4h-383l82 100h721l2 -8l-836 -856l4 -4q36 15 68 18.5t113 3.5h485l-88 -100h-786z" />
    <glyph glyph-name="Zdotaccent" unicode="&#x17b;" horiz-adv-x="1193" 
d="M913 1747l-43 -225h-116l43 225h116zM1305 1434l2 -4l-1147 -1334v-6q49 21 205 21h720l-79 -111h-1061v6l1147 1335l-2 7q-62 -25 -207 -25h-596l80 111h938z" />
    <glyph glyph-name="zdotaccent" unicode="&#x17c;" horiz-adv-x="921" 
d="M764 1434l-53 -267h-121l51 267h123zM-61 0l-2 10l833 854l-2 6q-38 -16 -76 -20t-135 -4h-383l82 100h721l2 -8l-836 -856l4 -4q36 15 68 18.5t113 3.5h485l-88 -100h-786z" />
    <glyph glyph-name="Zcaron" unicode="&#x17d;" horiz-adv-x="1193" 
d="M1165 1767l-2 -6l-286 -239h-132l-194 239l2 6h106l78 -90q37 -40 51 -61.5t21 -52.5h6q18 30 39 50.5t76 63.5l112 90h123zM1305 1434l2 -4l-1147 -1334v-6q49 21 205 21h720l-79 -111h-1061v6l1147 1335l-2 7q-62 -25 -207 -25h-596l80 111h938z" />
    <glyph glyph-name="zcaron" unicode="&#x17e;" horiz-adv-x="921" 
d="M586 1114l-185 311l2 5h99l96 -156q37 -61 47 -109h6q14 27 29.5 46t58.5 63l154 156h121l-2 -5l-301 -311h-125zM-61 0l-2 10l833 854l-2 6q-38 -16 -76 -20t-135 -4h-383l82 100h721l2 -8l-836 -856l4 -4q36 15 68 18.5t113 3.5h485l-88 -100h-786z" />
    <glyph glyph-name="florin" unicode="&#x192;" horiz-adv-x="849" 
d="M860 1403q45 0 92 -8l-18 -97q-65 7 -86 7q-95 0 -168 -60t-94 -180l-13 -70q-6 -32 -16 -51l2 -2q12 4 55 4h248l-12 -61h-248q-41 0 -53 4l-2 -2q0 -32 -6 -62l-181 -931q-31 -160 -107.5 -233t-221.5 -73q-52 0 -123 6l16 97q57 -6 117 -6q87 0 139 50.5t76 172.5
l178 917q10 43 19 62l-2 2q-14 -4 -58 -4h-207l13 61h207q43 0 55 -4l2 2q-3 20 4 49l18 88q65 322 375 322z" />
    <glyph glyph-name="AEacute" unicode="&#x1fc;" horiz-adv-x="1804" 
d="M1544 1522h-82l-2 6l230 219h137v-6zM1374 1327q-41 0 -53 4l-2 -2q3 -17 -4 -51l-76 -387q-7 -31 -16 -49l4 -2q12 4 53 4h504l-21 -107h-503q-42 0 -54 6l-2 -4q3 -15 -4 -49l-104 -534q-6 -30 -17 -52l2 -2q14 4 54 4h569l-21 -106h-727l82 414q7 35 15 51v2
q-21 -6 -56 -6h-516l-403 -461h-141l1249 1434h766l-19 -107h-559zM1016 561q41 0 53 -6l2 4q-3 14 4 49l123 615q11 50 31 120h-4q-29 -52 -84 -112l-516 -602q-46 -54 -86 -74l2 -4q37 10 112 10h363z" />
    <glyph glyph-name="aeacute" unicode="&#x1fd;" horiz-adv-x="1837" 
d="M1397 1448l-2 -8l-308 -307h-81l2 10l247 305h142zM1257 -33q-160 0 -263 76.5t-130 222.5h-6q-113 -297 -444 -297q-161 0 -263 85.5t-102 236.5q0 150 105 251t292 101q145 0 239.5 -60t129.5 -161l6 2q-1 11 13 96q20 127 20 160q0 194 -242 194q-134 0 -329 -45
l-25 101q186 47 358 47q67 0 119.5 -11t98.5 -36.5t73 -73.5t31 -117h4q65 110 176 174t250 64q193 0 296 -107t103 -274q0 -58 -18 -135h-723q-55 0 -84 10l-2 -2v-16q-4 -40 -4 -60q0 -148 86 -234.5t242 -86.5q79 0 149.5 26.5t116.5 61.5t100 90l72 -80
q-44 -44 -83.5 -75.5t-94.5 -63t-122 -48t-145 -16.5zM954 535q32 14 82 14h539q54 0 84 -12l2 2v55q0 131 -78.5 208t-222.5 77q-75 0 -140 -22t-110 -57.5t-79 -81.5t-52.5 -91t-26.5 -90zM426 68q135 0 240.5 70.5t105.5 180.5q0 100 -89.5 163t-223.5 63
q-76 0 -134.5 -22.5t-92.5 -60.5t-51 -82t-17 -91q0 -102 72 -161.5t190 -59.5z" />
    <glyph glyph-name="Oslashacute" unicode="&#x1fe;" horiz-adv-x="1638" 
d="M1366 1741l-285 -219h-82v6l230 219h137v-6zM1487 1280q194 -185 194 -496q0 -231 -107.5 -417.5t-298.5 -292t-427 -105.5q-260 0 -440 125l-117 -129l-49 39l114 127q-217 186 -217 518q0 173 63.5 324.5t173.5 259t265 169.5t332 62q279 0 467 -143l127 141l47 -41z
M260 641q0 -131 46.5 -238.5t133.5 -181.5l916 1010q-153 119 -385 119q-203 0 -365.5 -90.5t-254 -253t-91.5 -365.5zM850 84q203 0 365 91t253 253t91 365q0 244 -156 397l-914 -1006q145 -100 361 -100z" />
    <glyph glyph-name="oslashacute" unicode="&#x1ff;" horiz-adv-x="1183" 
d="M1073 1440l-307 -307h-82l2 10l248 305h141zM1124 936l-114 -107q96 -116 96 -294q0 -159 -73.5 -288.5t-203.5 -203.5t-290 -74q-200 0 -326 107l-111 -105l-41 39l113 107q-96 113 -96 295q0 119 43.5 224t118.5 179.5t180 118t225 43.5q200 0 326 -107l112 107z
M186 412q0 -131 70 -217l633 598q-93 81 -254 81q-189 0 -319 -134t-130 -328zM997 535q0 131 -67 217l-635 -598q97 -82 254 -82q124 0 227 61.5t162 168t59 233.5z" />
    <glyph glyph-name="Scommaaccent" unicode="&#x218;" horiz-adv-x="1056" 
d="M516 -31q-147 0 -282 55t-244 160l76 95q210 -195 452 -195q146 0 225.5 66t79.5 188q0 82 -42 151t-140 148l-168 139q-108 87 -157.5 172.5t-49.5 184.5q0 152 102 241.5t277 89.5q107 0 205 -35t213 -114l-72 -103q-176 138 -350 138q-118 0 -186 -58.5t-68 -158.5
q0 -136 164 -267l180 -143q113 -91 163 -181t50 -202q0 -175 -113 -273t-315 -98zM567 -104l-190 -336h-70l139 336h121z" />
    <glyph glyph-name="scommaaccent" unicode="&#x219;" horiz-adv-x="817" 
d="M53 219q86 -78 164.5 -112.5t169.5 -34.5q94 0 145.5 38.5t51.5 108.5q0 47 -28 88.5t-91 85.5l-119 80q-94 64 -134 124.5t-40 137.5q0 111 76.5 176.5t206.5 65.5q168 0 317 -105l-59 -92q-134 94 -256 94q-82 0 -128 -38t-46 -105q0 -49 27 -84t104 -90l112 -76
q94 -66 131 -124t37 -138q0 -120 -80.5 -185t-230.5 -65q-114 0 -210.5 40t-188.5 126zM418 -104l-191 -336h-69l139 336h121z" />
    <glyph glyph-name="uni021A" unicode="&#x21a;" horiz-adv-x="1046" 
d="M1212 1434l-20 -109h-395q-36 0 -54 6l-2 -2q4 -22 -2 -51l-247 -1278h-117l248 1278q8 38 14 51l-2 2q-18 -6 -53 -6h-396l21 109h1005zM479 -104l-190 -336h-70l139 336h121z" />
    <glyph glyph-name="uni021B" unicode="&#x21b;" horiz-adv-x="622" 
d="M557 1452l-88 -446q-8 -34 -23 -68v-2q18 10 66 10h143l-18 -96h-141q-44 0 -62 10l-4 -2q5 -23 -2 -65l-154 -793h-106l154 793q7 44 22 65l-4 2q-23 -10 -66 -10h-141l19 96h141q47 0 61 -10l4 2q-5 30 4 68l70 362l115 84h10zM266 -104l-190 -336h-70l139 336h121z
" />
    <glyph glyph-name="uni0237" unicode="&#x237;" horiz-adv-x="403" 
d="M348 946l-213 -1098q-30 -154 -111 -221t-229 -67h-22l20 104h21q89 0 141.5 44.5t73.5 150.5l213 1087h106z" />
    <glyph glyph-name="uni02BC" unicode="&#x2bc;" horiz-adv-x="348" 
d="M350 1495h121l-213 -426h-55z" />
    <glyph glyph-name="circumflex" unicode="&#x2c6;" horiz-adv-x="817" 
d="M662 1448l182 -309l-2 -6h-101l-96 157q-25 39 -34 59.5t-13 49.5h-4q-27 -49 -90 -109l-156 -157h-117l2 6l302 309h127z" />
    <glyph glyph-name="caron" unicode="&#x2c7;" horiz-adv-x="815" 
d="M471 1114l-184 311l2 5h98l96 -156q37 -61 47 -109h7q14 27 29.5 46t58.5 63l153 156h121l-2 -5l-301 -311h-125z" />
    <glyph glyph-name="breve" unicode="&#x2d8;" horiz-adv-x="763" 
d="M524 1147q-111 0 -176 59t-65 162q0 34 6 68h86q-4 -36 -4 -52q0 -75 41 -114t118 -39q89 0 151.5 54t82.5 151h84q-24 -143 -110 -216t-214 -73z" />
    <glyph glyph-name="dotaccent" unicode="&#x2d9;" horiz-adv-x="327" 
d="M412 1434l-54 -267h-120l51 267h123z" />
    <glyph glyph-name="ring" unicode="&#x2da;" horiz-adv-x="692" 
d="M524 1530q103 0 164.5 -62.5t61.5 -158.5q0 -108 -73 -183t-188 -75q-105 0 -166 62.5t-61 158.5q0 109 72.5 183.5t189.5 74.5zM520 1464q-86 0 -136 -54.5t-50 -135.5q0 -73 42 -115.5t116 -42.5q85 0 135.5 55t50.5 136q0 72 -42.5 114.5t-115.5 42.5z" />
    <glyph glyph-name="ogonek" unicode="&#x2db;" horiz-adv-x="520" 
d="M113 -383q-73 0 -112.5 31.5t-39.5 87.5q0 79 75 152t236 167l56 -35q-146 -97 -208.5 -154t-62.5 -110q0 -57 82 -57q50 0 111 14l-4 -80q-66 -16 -133 -16z" />
    <glyph glyph-name="tilde" unicode="&#x2dc;" horiz-adv-x="878" 
d="M750 1202q-40 0 -88.5 17.5t-85 39t-77.5 39t-69 17.5q-62 0 -121 -90l-57 20q15 28 19.5 36t21.5 36t30 40t34.5 29.5t46 25t53.5 7.5q51 0 113.5 -28.5t117.5 -57t90 -28.5q64 0 117 90l57 -21q-14 -28 -22 -43t-28 -43.5t-39 -44t-49 -28.5t-64 -13z" />
    <glyph glyph-name="hungarumlaut" unicode="&#x2dd;" horiz-adv-x="698" 
d="M231 1133v6l267 311h98v-6l-274 -311h-91zM420 1133v6l264 311h100v-6l-276 -311h-88z" />
    <glyph glyph-name="gravecomb" unicode="&#x300;" horiz-adv-x="0" 
d="M-100 1448l129 -305l-2 -10h-82l-189 307l2 8h142z" />
    <glyph glyph-name="acutecomb" unicode="&#x301;" horiz-adv-x="0" 
d="M88 1448l-2 -8l-307 -307h-82l2 10l248 305h141z" />
    <glyph glyph-name="uni0302" unicode="&#x302;" horiz-adv-x="0" 
d="M-156 1448l183 -309l-2 -6h-101l-96 157q-25 39 -34 59.5t-13 49.5h-4q-27 -49 -90 -109l-156 -157h-117l2 6l301 309h127z" />
    <glyph glyph-name="tildecomb" unicode="&#x303;" horiz-adv-x="0" 
d="M-129 1202q-40 0 -88.5 17.5t-85 39t-77.5 39t-69 17.5q-61 0 -120 -90l-58 20q15 28 19.5 36t21.5 36t30 40t34.5 29.5t46 25t53.5 7.5q51 0 113.5 -28.5t118 -57t90.5 -28.5q63 0 116 90l58 -21q-14 -27 -22 -43t-28 -44t-39.5 -43.5t-49.5 -28.5t-64 -13z" />
    <glyph glyph-name="uni0304" unicode="&#x304;" horiz-adv-x="0" 
d="M70 1356l-17 -88h-565l16 88h566z" />
    <glyph glyph-name="uni0306" unicode="&#x306;" horiz-adv-x="0" 
d="M-240 1147q-111 0 -176 59t-65 162q0 34 6 68h86q-4 -36 -4 -52q0 -75 41.5 -114t118.5 -39q89 0 151 54t82 151h84q-24 -143 -110 -216t-214 -73z" />
    <glyph glyph-name="uni0307" unicode="&#x307;" horiz-adv-x="0" 
d="M84 1434l-53 -267h-121l51 267h123z" />
    <glyph glyph-name="uni0308" unicode="&#x308;" horiz-adv-x="0" 
d="M-246 1434l-47 -246h-121l47 246h121zM84 1434l-47 -246h-123l49 246h121z" />
    <glyph glyph-name="uni030A" unicode="&#x30a;" horiz-adv-x="0" 
d="M-170 1530q103 0 164 -62.5t61 -158.5q0 -108 -72.5 -183t-187.5 -75q-105 0 -166 62.5t-61 158.5q0 109 72.5 183.5t189.5 74.5zM-174 1464q-86 0 -136 -54.5t-50 -135.5q0 -73 41.5 -115.5t115.5 -42.5q85 0 136 55t51 136q0 72 -42.5 114.5t-115.5 42.5z" />
    <glyph glyph-name="uni030B" unicode="&#x30b;" horiz-adv-x="0" 
d="M-467 1133v6l266 311h99v-6l-275 -311h-90zM-279 1133v6l265 311h100v-6l-276 -311h-89z" />
    <glyph glyph-name="uni030C" unicode="&#x30c;" horiz-adv-x="0" 
d="M-342 1114l-184 311l2 5h98l96 -156q37 -61 47 -109h7q14 27 29.5 46t58.5 63l153 156h121l-2 -5l-301 -311h-125z" />
    <glyph glyph-name="uni0326" unicode="&#x326;" horiz-adv-x="0" 
d="M-215 -104l-191 -336h-69l139 336h121z" />
    <glyph glyph-name="uni0327" unicode="&#x327;" horiz-adv-x="0" 
d="M-319 25l-64 -111q28 -7 49.5 -15.5t45 -23t36 -37t12.5 -51.5q0 -28 -10.5 -53.5t-34.5 -48t-46 -39t-63 -36.5t-67 -31.5t-74 -31.5l-14 47l61.5 31.5t49.5 26.5t42.5 26.5t28 24t20 26.5t5.5 27q0 32 -33 51t-104 33l102 185h58z" />
    <glyph glyph-name="uni0328" unicode="&#x328;" horiz-adv-x="0" 
d="M-408 -383q-73 0 -112 31.5t-39 87.5q0 79 75 152t236 167l55 -35q-145 -96 -207.5 -153.5t-62.5 -110.5q0 -57 82 -57q50 0 111 14l-4 -80q-66 -16 -134 -16z" />
    <glyph glyph-name="uni0394" unicode="&#x394;" horiz-adv-x="1271" 
d="M623 1434l544 -1434h-1204l547 1434h113zM565 1313l-463 -1258h926z" />
    <glyph glyph-name="uni03A9" unicode="&#x3a9;" horiz-adv-x="1712" 
d="M870 1464q165 0 303.5 -53t232.5 -146.5t146 -223t52 -279.5q0 -263 -163.5 -441.5t-428.5 -230.5l2 -4q90 12 147 12h393l-2 -98h-600v160q248 43 394.5 207.5t146.5 394.5q0 127 -43.5 236.5t-122.5 190t-197 127t-260 46.5q-144 0 -263 -46.5t-198 -126.5t-122 -188
t-43 -231q0 -236 147.5 -401.5t396.5 -208.5v-160h-602v98h394q70 0 147 -12l-2 4q-128 26 -235.5 84t-187 143.5t-123.5 202.5t-44 254q0 145 52 271t146 219t232.5 146.5t304.5 53.5z" />
    <glyph glyph-name="pi" unicode="&#x3c0;" 
d="M1268 977l-19 -98h-231l-170 -879h-103l170 879h-372l-371 -879h-102l368 879h-8q-170 0 -303 -41l20 98q125 41 291 41h830z" />
    <glyph glyph-name="uni0401" unicode="&#x401;" horiz-adv-x="1050" 
d="M618 1747h123l-45 -225h-121zM946 1747h123l-45 -225h-121zM1145 1434l-21 -107h-624q-39 0 -51 4l-5 -2q4 -23 -4 -49l-73 -389q-6 -27 -17 -49l2 -2q14 4 54 4h561l-21 -107h-559q-35 0 -53 6l-2 -2q3 -17 -4 -51l-105 -536q-6 -30 -16 -50l2 -2q12 4 53 4h635
l-20 -106h-799l278 1434h789z" />
    <glyph glyph-name="uni0402" unicode="&#x402;" horiz-adv-x="1423" 
d="M1044 842q159 0 236.5 -59.5t77.5 -194.5q0 -48 -10 -103l-13 -65l-10 -53q-19 -96 -46 -159t-75 -112.5t-124.5 -72.5t-186.5 -23h-166l21 106h153q144 0 213 61.5t98 201.5l11 51l12 63q8 39 8 76q0 94 -58.5 132t-172.5 38q-178 0 -488 -82l-127 -647h-114l200 1034
l47 246q4 28 15 49l-2 2q-12 -4 -54 -4h-303l21 107h1026l-21 -107h-507q-42 0 -54 4l-2 -2q4 -21 -2 -49l-47 -246h-2l-41 -213q-5 -33 -18 -59l2 -2q283 82 503 82z" />
    <glyph glyph-name="uni0403" unicode="&#x403;" horiz-adv-x="991" 
d="M1092 1747v-6l-285 -219h-82v6l229 219h138zM78 0l278 1434h801l-20 -109h-637q-33 0 -51 6l-5 -2q3 -17 -4 -51l-247 -1278h-115z" />
    <glyph glyph-name="uni0404" unicode="&#x404;" horiz-adv-x="1458" 
d="M995 1464q277 0 492 -164l-72 -96q-189 146 -434 146q-265 0 -450 -145t-248 -382q-7 -22 -23 -55l2 -4q18 6 57 6h646l-21 -106h-631q-38 0 -53 6l-4 -2v-33q4 -267 149.5 -409t401.5 -142q127 0 229 36t211 105l64 -96q-121 -81 -245.5 -120.5t-272.5 -39.5
q-307 0 -482.5 177t-175.5 477q0 180 62 335t173 267t272.5 175.5t352.5 63.5z" />
    <glyph glyph-name="uni0405" unicode="&#x405;" horiz-adv-x="1056" 
d="M516 -31q-147 0 -282 55t-244 160l76 95q210 -195 452 -195q146 0 225.5 66t79.5 188q0 82 -42 151t-140 148l-168 139q-108 87 -157.5 172.5t-49.5 184.5q0 152 102 241.5t277 89.5q107 0 205 -35t213 -114l-72 -103q-176 138 -350 138q-118 0 -186 -58.5t-68 -158.5
q0 -136 164 -267l180 -143q113 -91 163 -181t50 -202q0 -175 -113 -273t-315 -98z" />
    <glyph glyph-name="uni0406" unicode="&#x406;" horiz-adv-x="454" 
d="M473 1434l-278 -1434h-117l278 1434h117z" />
    <glyph glyph-name="uni0407" unicode="&#x407;" horiz-adv-x="454" 
d="M248 1747h123l-45 -225h-121zM575 1747h123l-45 -225h-121zM473 1434l-278 -1434h-117l278 1434h117z" />
    <glyph glyph-name="uni0408" unicode="&#x408;" horiz-adv-x="563" 
d="M580 1434l-226 -1166q-29 -150 -104.5 -214t-212.5 -64q-24 0 -78 4l23 110q36 -4 67 -4q79 0 126 44t67 145l223 1145h115z" />
    <glyph glyph-name="uni0409" unicode="&#x409;" horiz-adv-x="2195" 
d="M1714 811q201 0 316.5 -92t115.5 -275q0 -202 -140 -323t-380 -121h-493l192 989l59 291q6 32 15 49l-2 2q-14 -4 -54 -4h-692q-41 0 -51 4l-4 -2q4 -21 -2 -49l-78 -393l-119 -604q-29 -157 -103.5 -225t-215.5 -68q-82 0 -119 6l23 108q33 -4 108 -4q78 0 125.5 43.5
t67.5 145.5l118 598l107 547h1020l-86 -445l-25 -131q-13 -43 -16 -49l2 -2q12 4 53 4h258zM1628 106q193 0 296.5 93t103.5 243q0 130 -83 196.5t-237 66.5h-274q-42 0 -54 6l-2 -4q4 -20 -2 -50l-96 -503q-9 -36 -16 -50l2 -2q12 4 53 4h309z" />
    <glyph glyph-name="uni040A" unicode="&#x40a;" horiz-adv-x="2082" 
d="M78 0l278 1434h115l-111 -576q-7 -31 -16 -49l2 -2q12 4 53 4h758q41 0 53 -4l2 2q-3 15 5 49l112 576h115l-111 -576q-7 -31 -16 -49l2 -2q12 4 53 4h230q201 0 316.5 -92t115.5 -275q0 -202 -140.5 -323t-380.5 -121h-462l127 657q7 37 14 50l-2 2q-12 -4 -53 -4h-758
q-41 0 -53 4l-2 -2q4 -22 -2 -50l-129 -657h-115zM1182 102q12 4 53 4h281q193 0 296 92.5t103 243.5q0 130 -83 196.5t-237 66.5h-243q-36 0 -54 6l-2 -2q4 -23 -2 -52l-98 -503q-6 -30 -16 -50z" />
    <glyph glyph-name="uni040B" unicode="&#x40b;" horiz-adv-x="1476" 
d="M985 913q338 0 338 -299q0 -76 -20 -163l-89 -451h-116l92 475q12 52 12 115q0 117 -60.5 162t-176.5 45q-161 0 -414 -80l-141 -717h-115l201 1034l47 244q4 31 14 51l-2 2q-18 -6 -53 -6h-316l21 109h1005l-20 -109h-475q-33 0 -51 6l-4 -2q3 -20 -3 -51l-47 -244
l-26 -143q-9 -40 -21 -60l2 -2q235 84 418 84z" />
    <glyph glyph-name="uni040C" unicode="&#x40c;" horiz-adv-x="1249" 
d="M1102 1747v-6l-283 -219h-82l-2 6l230 219h137zM1018 -4q-209 0 -225 211l-35 332q-8 88 -55.5 127t-149.5 39h-168q-49 0 -61 4l-5 -2q3 -37 -6 -86l-120 -621h-115l278 1434h115l-104 -545q-7 -36 -27 -82l2 -2q24 6 66 6h167q100 0 161.5 41t119.5 149l133 261
q49 96 124 136t185 40q24 0 78 -4l-22 -111q-36 4 -58 4q-73 0 -123 -27.5t-83 -89.5l-127 -245q-56 -110 -122.5 -154t-174.5 -49v-4q104 -4 149 -50t53 -145l31 -313q9 -83 44 -113.5t108 -30.5q13 0 75 5l-22 -111q-62 -4 -86 -4z" />
    <glyph glyph-name="uni040E" unicode="&#x40e;" horiz-adv-x="1249" 
d="M1112 1767q-25 -132 -105 -201t-210 -69q-114 0 -180 53.5t-66 149.5q0 21 8 67h82q-6 -27 -6 -51q0 -139 164 -139q186 0 227 190h86zM184 -12q-72 0 -139 18l29 113q83 -19 121 -19q43 0 79 9t81 35.5t95 82t105 140.5l-342 1067h127l248 -791q30 -96 35.5 -122
t7.5 -81l6 2q16 52 36.5 92.5t69.5 114.5l529 785h137l-762 -1139q-50 -76 -98.5 -131.5t-92 -89t-90.5 -53t-89 -26.5t-93 -7z" />
    <glyph glyph-name="uni040F" unicode="&#x40f;" horiz-adv-x="1429" 
d="M512 -287l47 240q7 35 14 49l-2 2q-14 -4 -53 -4h-440l278 1434h115l-248 -1280q-7 -35 -16 -50l2 -4q12 6 53 6h762q39 0 51 -6l4 4q-3 15 4 50l248 1280h117l-279 -1434h-440q-41 0 -53 4l-2 -2q4 -21 -2 -49l-47 -240h-113z" />
    <glyph glyph-name="uni0410" unicode="&#x410;" horiz-adv-x="1361" 
d="M-63 0l929 1464h13l362 -1464h-117l-114 461h-648l-288 -461h-137zM414 557q58 4 114 4h353q56 0 114 -4v2q-21 41 -37 119l-94 414q-23 120 -20 176h-4q-23 -67 -88 -176l-254 -414q-47 -76 -84 -119v-2z" />
    <glyph glyph-name="uni0411" unicode="&#x411;" horiz-adv-x="1243" 
d="M500 1325q-33 0 -51 6l-5 -2q4 -24 -4 -51l-37 -188l-43 -232q-6 -28 -16 -49l2 -2q12 4 53 4h279q201 0 317.5 -92t116.5 -275q0 -202 -141 -323t-381 -121h-512l211 1090l67 344h842l-20 -109h-678zM377 705q-39 0 -51 6l-4 -4q4 -18 -3 -50l-96 -503q-9 -36 -16 -50
l2 -2q12 4 53 4h330q193 0 296 92.5t103 243.5q0 130 -82.5 196.5t-236.5 66.5h-295z" />
    <glyph glyph-name="uni0412" unicode="&#x412;" horiz-adv-x="1288" 
d="M78 0l278 1434h463q175 0 276 -84t101 -230q0 -117 -64 -203t-182 -129q-68 -25 -139 -30l-2 -8q68 -2 133 -19q104 -31 158.5 -108t54.5 -193q0 -196 -147.5 -313t-395.5 -117h-534zM344 799q10 4 53 4h285q183 0 286 79.5t103 219.5q0 110 -72.5 167.5t-212.5 57.5
h-286q-39 0 -51 4l-5 -2q2 -9 -4 -49l-82 -430q-4 -28 -16 -49zM209 102q10 4 53 4h348q199 0 310.5 86t111.5 240q0 132 -87 200t-255 68h-311q-42 0 -51 7l-4 -5q3 -21 -5 -49l-96 -499q-5 -33 -16 -50z" />
    <glyph glyph-name="uni0413" unicode="&#x413;" horiz-adv-x="991" 
d="M78 0l278 1434h801l-20 -109h-637q-33 0 -51 6l-5 -2q3 -17 -4 -51l-247 -1278h-115z" />
    <glyph glyph-name="uni0414" unicode="&#x414;" horiz-adv-x="1370" 
d="M-121 -287l76 389h113q27 0 43 -8l2 2q7 26 30 60q179 253 276 481.5t156 515.5l56 281h715l-248 -1284q-6 -29 -17 -50l2 -2q14 4 56 4h82l-76 -389h-113l45 236q7 37 17 49l-2 4q-14 -6 -56 -6h-940q-41 0 -51 6l-4 -4q3 -14 -4 -49l-45 -236h-113zM236 96q14 6 57 6
h631q41 0 51 -4l2 2q0 32 4 50l219 1130q5 25 17 49l-3 2q-14 -4 -53 -4h-385q-41 0 -53 4l-2 -2q3 -16 -4 -49l-27 -137q-116 -582 -457 -1045z" />
    <glyph glyph-name="uni0415" unicode="&#x415;" horiz-adv-x="1050" 
d="M1145 1434l-21 -107h-624q-39 0 -51 4l-5 -2q4 -23 -4 -49l-73 -389q-6 -27 -17 -49l2 -2q14 4 54 4h561l-21 -107h-559q-35 0 -53 6l-2 -2q3 -17 -4 -51l-105 -536q-6 -30 -16 -50l2 -2q12 4 53 4h635l-20 -106h-799l278 1434h789z" />
    <glyph glyph-name="uni0416" unicode="&#x416;" horiz-adv-x="1867" 
d="M1921 1438q22 0 80 -4l-23 -109q-36 4 -57 4q-73 0 -122.5 -28.5t-82.5 -90.5l-129 -245q-56 -111 -121.5 -154.5t-173.5 -48.5v-4q98 -5 143.5 -48.5t51.5 -144.5l20 -315q4 -80 40.5 -112t109.5 -32q11 0 74 5l-23 -111q-62 -4 -84 -4q-212 0 -223 219l-23 328
q-4 88 -51.5 126t-150.5 38h-86q-50 0 -62 4l-4 -2q3 -37 -6 -86l-119 -623h-113l121 623q5 36 27 86l-2 2q-16 -4 -64 -4h-90q-95 0 -153.5 -38t-98.5 -126l-157 -344q-47 -106 -120.5 -154.5t-185.5 -48.5q-24 0 -86 4l23 113q50 -4 68 -4q73 0 120.5 31t81.5 108l146 327
q43 95 105 137.5t165 45.5v4q-101 5 -151.5 51t-63.5 154l-31 243q-9 65 -47.5 92t-109.5 27q-26 0 -62 -4l21 109q54 4 73 4q101 0 157 -41t69 -137l37 -259q15 -107 65.5 -149.5t155.5 -42.5h90q37 0 61 -6l2 2q-3 35 6 82l107 547h113l-107 -547q-8 -38 -27 -82l3 -2
q24 6 65 6h88q101 0 164 42t119 150l135 261q90 176 303 176z" />
    <glyph glyph-name="uni0417" unicode="&#x417;" horiz-adv-x="1300" 
d="M571 -31q-297 0 -534 152l61 100q112 -67 224 -103t251 -36q211 0 321 87.5t110 244.5q0 80 -28.5 139t-79.5 92t-112.5 48.5t-136.5 15.5h-205l21 106h203q108 0 201 35.5t153.5 109t60.5 170.5q0 224 -317 224q-214 0 -440 -80l-33 104q254 86 481 86q210 0 320 -84
t110 -239q0 -131 -75.5 -220.5t-221.5 -132.5q-73 -20 -178 -26l-2 -6q88 0 158 -13q106 -24 172.5 -104t66.5 -217q0 -69 -16.5 -131.5t-57.5 -122.5t-102 -103t-157.5 -69.5t-217.5 -26.5z" />
    <glyph glyph-name="uni0418" unicode="&#x418;" horiz-adv-x="1449" 
d="M1456 1454h14l-282 -1454h-115l182 944q27 138 68 256l-4 2q-41 -64 -145 -164l-1086 -1058h-14l282 1454h115l-182 -945q-27 -138 -68 -256l6 -2q43 67 144 164z" />
    <glyph glyph-name="uni0419" unicode="&#x419;" horiz-adv-x="1449" 
d="M1260 1767q-25 -132 -105.5 -201t-210.5 -69q-114 0 -180 53.5t-66 149.5q0 15 9 67h81q-6 -27 -6 -51q0 -139 164 -139q187 0 228 190h86zM1456 1454h14l-282 -1454h-115l182 944q27 138 68 256l-4 2q-41 -64 -145 -164l-1086 -1058h-14l282 1454h115l-182 -945
q-27 -138 -68 -256l6 -2q43 67 144 164z" />
    <glyph glyph-name="uni041A" unicode="&#x41a;" horiz-adv-x="1249" 
d="M1018 -4q-209 0 -225 211l-35 332q-8 88 -55.5 127t-149.5 39h-168q-49 0 -61 4l-5 -2q3 -37 -6 -86l-120 -621h-115l278 1434h115l-104 -545q-7 -36 -27 -82l2 -2q24 6 66 6h167q100 0 161.5 41t119.5 149l133 261q49 96 124 136t185 40q24 0 78 -4l-22 -111
q-36 4 -58 4q-73 0 -123 -27.5t-83 -89.5l-127 -245q-56 -110 -122.5 -154t-174.5 -49v-4q104 -4 149 -50t53 -145l31 -313q9 -83 44 -113.5t108 -30.5q13 0 75 5l-22 -111q-62 -4 -86 -4z" />
    <glyph glyph-name="uni041B" unicode="&#x41b;" horiz-adv-x="1511" 
d="M1528 1434l-113 -582l-166 -852h-116l165 852l84 428q6 32 15 49v2q-16 -4 -56 -4h-690q-41 0 -51 4l-4 -2q4 -21 -2 -49l-78 -393l-119 -604q-29 -157 -103.5 -225t-215.5 -68q-68 0 -119 6l23 108q45 -4 108 -4q78 0 125.5 43.5t67.5 145.5l118 598l107 547h1020z" />
    <glyph glyph-name="uni041C" unicode="&#x41c;" horiz-adv-x="1753" 
d="M776 -27l-176 959q-18 109 -18 231h-7q-25 -109 -83 -233l-429 -930h-126l671 1462h13l186 -1054q15 -94 12 -191h8q39 106 86 191l596 1054h13l110 -1462h-116l-64 930q-10 150 4 233h-6q-4 -9 -17.5 -42t-21.5 -51.5t-27 -57t-43 -80.5l-553 -959h-12z" />
    <glyph glyph-name="uni041D" unicode="&#x41d;" horiz-adv-x="1429" 
d="M1448 1434l-279 -1434h-116l129 666q8 39 16 51l-2 2q-24 -6 -55 -6h-760q-36 0 -51 6l-2 -2q0 -31 -4 -51l-129 -666h-117l278 1434h117l-111 -566q-8 -38 -14 -49v-4q14 6 55 6h760q39 0 51 -6l5 4q-4 19 2 49l110 566h117z" />
    <glyph glyph-name="uni041E" unicode="&#x41e;" horiz-adv-x="1683" 
d="M848 -31q-324 0 -516.5 185.5t-192.5 494.5q0 173 63.5 324.5t173.5 259t265 169.5t332 62q322 0 515 -185.5t193 -494.5q0 -231 -107.5 -417.5t-298.5 -292t-427 -105.5zM850 84q203 0 365 91t253 253t91 365q0 249 -162.5 403t-425.5 154q-203 0 -365.5 -90.5
t-254 -253t-91.5 -365.5q0 -249 163 -403t427 -154z" />
    <glyph glyph-name="uni041F" unicode="&#x41f;" horiz-adv-x="1423" 
d="M78 0l278 1434h1084l-279 -1434h-114l247 1280q5 25 17 49l-2 2q-14 -4 -54 -4h-755q-39 0 -51 4l-5 -2q3 -16 -4 -49l-247 -1280h-115z" />
    <glyph glyph-name="uni0420" unicode="&#x420;" horiz-adv-x="1085" 
d="M772 1434q177 0 279 -93t102 -256q0 -190 -132.5 -304.5t-352.5 -114.5h-295q-42 0 -54 6l-2 -4q2 -5 -4 -50l-120 -618h-115l278 1434h416zM449 1331l-5 -2q1 -4 -4 -49l-88 -459q-2 -13 -14 -51l2 -2q10 4 53 4h277q167 0 264.5 83t97.5 224q0 117 -69 182.5t-193 65.5
h-270q-39 0 -51 4z" />
    <glyph glyph-name="uni0421" unicode="&#x421;" horiz-adv-x="1456" 
d="M791 -31q-304 0 -481 176t-177 478q0 240 110.5 432.5t307 300.5t442.5 108q283 0 492 -164l-72 -96q-199 146 -432 146q-204 0 -370 -94t-260.5 -260t-94.5 -369q0 -256 145.5 -399.5t405.5 -143.5q111 0 214 33.5t224 107.5l64 -96q-124 -83 -248.5 -121.5
t-269.5 -38.5z" />
    <glyph glyph-name="uni0422" unicode="&#x422;" horiz-adv-x="1046" 
d="M1212 1434l-20 -109h-395q-36 0 -54 6l-2 -2q4 -22 -2 -51l-247 -1278h-117l248 1278q8 38 14 51l-2 2q-18 -6 -53 -6h-396l21 109h1005z" />
    <glyph glyph-name="uni0423" unicode="&#x423;" horiz-adv-x="1249" 
d="M184 -12q-72 0 -139 18l29 113q83 -19 121 -19q43 0 79 9t81 35.5t95 82t105 140.5l-342 1067h127l248 -791q30 -96 35.5 -122t7.5 -81l6 2q16 52 36.5 92.5t69.5 114.5l529 785h137l-762 -1139q-50 -76 -98.5 -131.5t-92 -89t-90.5 -53t-89 -26.5t-93 -7z" />
    <glyph glyph-name="uni0424" unicode="&#x424;" horiz-adv-x="1757" 
d="M733 -20l12 63q4 29 15 51v2q-32 -4 -74 -4q-108 0 -204 34.5t-173.5 102.5t-122.5 181t-45 258q0 313 204.5 493t574.5 180q57 0 71 -4l4 2q-4 23 2 52l13 63h108l-12 -63q-5 -36 -16 -52v-2q32 4 75 4q109 0 205 -34.5t173 -102t122 -180.5t45 -258
q0 -315 -204.5 -494.5t-573.5 -179.5q-58 0 -74 4l-2 -2q4 -22 -2 -51l-12 -63h-109zM784 195l2 2q-2 16 5 53l172 934q11 41 18 53l-2 2q-16 -4 -72 -4q-161 -1 -285.5 -44t-203 -119.5t-118.5 -179t-40 -226.5q0 -98 25 -178t67.5 -133t101 -88.5t123.5 -51.5t136 -16
q55 0 71 -4zM872 195q14 4 70 4q161 1 285.5 43.5t203 118.5t118.5 178t40 225q0 121 -36.5 213.5t-100 147.5t-143 82.5t-172.5 27.5q-56 0 -70 4l-2 -2q0 -33 -4 -53l-174 -934q-3 -19 -17 -53z" />
    <glyph glyph-name="uni0425" unicode="&#x425;" horiz-adv-x="1220" 
d="M1319 1434l-395 -461q-148 -168 -203 -221l-2 -7q36 -51 106 -202l262 -543h-135l-227 485q-59 127 -74 187h-4q-31 -53 -143 -185l-412 -487h-155l473 551q7 8 50.5 59.5t77.5 89.5t56 58l2 4q-21 33 -111 221l-219 451h137l189 -412q12 -27 28 -62t23 -51t14 -36
t11 -37h4q5 10 13 22t15.5 22t23 29t25 30.5t32 38t34.5 40.5l350 416h154z" />
    <glyph glyph-name="uni0426" unicode="&#x426;" horiz-adv-x="1409" 
d="M1073 -287l47 240q6 32 15 49l-2 2q-12 -4 -54 -4h-1001l278 1434h115l-248 -1280q-6 -30 -16 -50l2 -2q12 4 53 4h694q40 0 54 -4l2 2q-3 16 4 50l248 1280h114l-248 -1280q-6 -30 -16 -50l2 -2q12 4 53 4h91l-76 -393h-111z" />
    <glyph glyph-name="uni0427" unicode="&#x427;" horiz-adv-x="1193" 
d="M817 0l119 604q5 36 20 62l-2 2q-242 -82 -446 -82q-371 0 -371 301q0 64 21 157l78 390h116l-84 -420q-10 -51 -10 -105q0 -120 68.5 -164.5t197.5 -44.5q169 0 447 82l125 652h116l-278 -1434h-117z" />
    <glyph glyph-name="uni0428" unicode="&#x428;" horiz-adv-x="2117" 
d="M78 0l278 1434h115l-248 -1280q-6 -30 -16 -50l2 -2q12 4 53 4h619q39 0 53 -4l2 2q-3 16 4 50l248 1280h115l-248 -1280q-5 -27 -17 -50l2 -2q12 4 54 4h616q41 0 53 -4l4 2q-4 22 2 50l250 1280h115l-276 -1434h-1780z" />
    <glyph glyph-name="uni0429" unicode="&#x429;" horiz-adv-x="2162" 
d="M1923 106h90l-76 -393h-112l47 240q7 35 14 49l-2 2q-12 -4 -53 -4h-1753l278 1434h113l-248 -1280q-6 -30 -16 -50l2 -2q12 4 53 4h619q41 0 53 -4l2 2q-3 16 4 50l248 1280h117l-250 -1280q-5 -27 -17 -50l2 -2q12 4 54 4h618q39 0 53 -4l2 2q-3 16 4 50l248 1280h115
l-248 -1280q-6 -30 -16 -50l2 -2q12 4 53 4z" />
    <glyph glyph-name="uni042A" unicode="&#x42a;" horiz-adv-x="1384" 
d="M903 811q201 0 316.5 -92t115.5 -275q0 -202 -140 -323t-380 -121h-512l193 989l57 291q7 35 14 49l-2 2q-14 -4 -53 -4h-326l21 107h489l-86 -445l-24 -131q-5 -25 -17 -49l2 -2q12 4 54 4h278zM817 106q193 0 296.5 93t103.5 243q0 130 -83 196.5t-237 66.5h-295
q-39 0 -51 6l-4 -4q4 -20 -2 -50l-96 -503q-8 -32 -17 -50l2 -2q12 4 53 4h330z" />
    <glyph glyph-name="uni042B" unicode="&#x42b;" horiz-adv-x="1515" 
d="M678 811q201 0 317.5 -92t116.5 -275q0 -202 -140 -323t-380 -121h-514l278 1434h115l-86 -443h2l-27 -133q-6 -28 -16 -49l2 -2q14 4 53 4h279zM1415 1434h117l-279 -1434h-116zM594 106q193 0 295 92.5t102 243.5q0 130 -82.5 196.5t-236.5 66.5h-295q-39 0 -51 6
l-4 -4q5 -24 -3 -50l-96 -503q-10 -42 -16 -50l2 -2q14 4 53 4h332z" />
    <glyph glyph-name="uni042C" unicode="&#x42c;" horiz-adv-x="1161" 
d="M678 811q201 0 317.5 -92t116.5 -275q0 -202 -140 -323t-380 -121h-514l278 1434h115l-86 -443h2l-27 -133q-6 -28 -16 -49l2 -2q14 4 53 4h279zM594 106q193 0 295 92.5t102 243.5q0 130 -82.5 196.5t-236.5 66.5h-295q-39 0 -51 6l-4 -4q5 -24 -3 -50l-96 -503
q-10 -42 -16 -50l2 -2q14 4 53 4h332z" />
    <glyph glyph-name="uni042D" unicode="&#x42d;" horiz-adv-x="1458" 
d="M559 -31q-276 0 -491 164l71 96q187 -145 434 -145q265 0 450.5 144.5t248.5 381.5q6 22 22 58l-2 2q-18 -6 -57 -6h-645l20 106h631q38 0 53 -6l4 4v31q-4 268 -148.5 409.5t-401.5 141.5q-127 0 -229.5 -36.5t-211.5 -105.5l-61 97q121 80 244.5 119.5t271.5 39.5
q307 0 482 -176.5t175 -476.5q0 -180 -62 -335t-173 -267t-272.5 -176t-352.5 -64z" />
    <glyph glyph-name="uni042E" unicode="&#x42e;" horiz-adv-x="2117" 
d="M1364 1464q322 0 515.5 -185.5t193.5 -494.5q0 -173 -63.5 -324.5t-173.5 -259t-265 -169.5t-332 -62q-323 0 -516 185t-193 495v15h-161q-31 0 -47 8l-3 -4q1 -6 -6 -52l-120 -616h-115l278 1434h115l-119 -613q-6 -37 -14 -53l2 -2q21 6 51 6h148q27 201 139.5 358.5
t291.5 245.5t394 88zM1241 82q203 0 365.5 91.5t254 254t91.5 365.5q0 249 -163 403t-427 154q-204 0 -366 -91t-253.5 -253.5t-91.5 -366.5q0 -249 163 -403t427 -154z" />
    <glyph glyph-name="uni042F" unicode="&#x42f;" horiz-adv-x="1183" 
d="M-63 0l602 616q52 55 110 91l-2 2q-40 -9 -65 -9q-42 0 -84.5 10t-86.5 34.5t-78 61t-55.5 94.5t-21.5 130q0 83 29 155.5t85 128.5t145 88t202 32h483l-278 -1434h-115l125 647q5 29 16 51l-2 2q-12 -4 -51 -4h-125l-680 -696h-153zM965 799l4 2q-3 18 4 49l82 430
q6 34 16 49l-2 2q-14 -4 -53 -4h-297q-164 0 -254 -77.5t-90 -215.5q0 -231 287 -231h251q40 0 52 -4z" />
    <glyph glyph-name="uni0430" unicode="&#x430;" horiz-adv-x="1060" 
d="M406 -31q-160 0 -258.5 89t-98.5 235q0 157 110 253.5t292 96.5q144 0 237 -64.5t127 -168.5l6 2q-2 18 13 108q18 105 18 154q0 105 -59.5 155t-188.5 50q-138 0 -323 -45l-23 98q169 45 350 45q348 0 348 -279q0 -46 -12 -123l-113 -575h-106q21 100 51 170l-8 2
q-54 -98 -148 -150.5t-214 -52.5zM428 68q141 0 242.5 73.5t101.5 177.5q0 98 -88 162t-221 64q-137 0 -218 -69.5t-81 -182.5q0 -104 70.5 -164.5t193.5 -60.5z" />
    <glyph glyph-name="uni0431" unicode="&#x431;" horiz-adv-x="1241" 
d="M592 -31q-97 0 -179 27t-149 85t-105 159.5t-38 238.5q0 106 20.5 213t65 215.5t128 197.5t195.5 136q66 27 154 47t193 36t112 17q123 21 144 107h106q-15 -80 -65.5 -125t-143.5 -66q-3 -1 -183.5 -34t-268.5 -68q-160 -64 -250.5 -204.5t-116.5 -379.5h6q22 85 60 152
t85 111t104.5 73t117 41.5t125.5 12.5q201 0 327.5 -114t126.5 -319q0 -113 -39 -213.5t-110 -178t-180.5 -122.5t-241.5 -45zM608 74q131 0 233.5 61.5t156 162.5t53.5 222q0 165 -99.5 253.5t-257.5 86.5q-99 -1 -186 -37.5t-147 -96.5t-94 -140t-34 -166
q0 -161 107 -253.5t268 -92.5z" />
    <glyph glyph-name="uni0432" unicode="&#x432;" horiz-adv-x="1044" 
d="M807 477q55 -22 87 -72t32 -122q0 -128 -98 -205.5t-269 -77.5h-502l72 367l49 254l64 325h463q124 0 197 -54t73 -161q0 -152 -152 -205q-57 -18 -131 -24l-2 -4q70 -3 117 -21zM285 621h-2l-7 -31q-6 -39 -18 -58l2 -2q22 11 57 11h279q137 0 200.5 47.5t63.5 126.5
q0 135 -180 135h-303q-41 0 -55 8l-3 -2q6 -25 0 -53zM567 96q123 0 183.5 53.5t60.5 137.5q0 79 -57 121.5t-166 42.5h-289q-35 0 -53 10l-2 -2q6 -24 -2 -58l-9 -34h3l-46 -224q-3 -31 -20 -53l2 -2q18 8 59 8h336z" />
    <glyph glyph-name="uni0433" unicode="&#x433;" horiz-adv-x="757" 
d="M57 0l185 946h598l-21 -96h-442q-41 0 -55 8l-3 -2q6 -25 0 -53l-155 -803h-107z" />
    <glyph glyph-name="uni0434" unicode="&#x434;" horiz-adv-x="1093" 
d="M-106 -287l73 379h72q33 0 47 -8l2 2q0 22 23 51q48 65 78 110t75 125.5t79 176t56 205.5l37 192h582l-156 -807q-7 -33 -20 -53l2 -2q16 8 57 8h55l-73 -379h-103l47 240q8 36 21 53l-2 2q-18 -8 -60 -8h-686q-41 0 -55 8l-2 -2q6 -25 0 -53l-47 -240h-102zM184 84
q18 8 60 8h456q42 0 56 -8l2 2q-6 25 0 53l129 666q8 37 20 53l-2 2q-18 -8 -59 -8h-275q-41 0 -55 8l-2 -2q6 -25 0 -53l-12 -55q-42 -203 -135.5 -393.5t-184.5 -270.5z" />
    <glyph glyph-name="uni0435" unicode="&#x435;" horiz-adv-x="1118" 
d="M520 -33q-211 0 -327.5 116t-116.5 325q0 246 160 407.5t403 161.5q193 0 304.5 -102t111.5 -279q0 -58 -19 -135h-760q-60 0 -83 10l-3 -2v-16q-4 -54 -4 -60q0 -150 90.5 -235.5t249.5 -85.5q108 0 198 41.5t185 136.5l72 -80q-109 -106 -219 -154.5t-242 -48.5z
M205 535q28 14 82 14h575q40 0 84 -12l4 2q-2 14 -2 55q0 134 -83.5 209.5t-231.5 75.5q-158 0 -281.5 -98.5t-148.5 -243.5z" />
    <glyph glyph-name="uni0436" unicode="&#x436;" horiz-adv-x="1366" 
d="M1343 950h76l-20 -94h-58q-78 0 -127 -84l-75 -135q-42 -76 -95.5 -106t-134.5 -33l-2 -4q81 -3 121 -31t47 -94l19 -179q6 -55 27.5 -77.5t66.5 -22.5h65l-20 -94h-80q-74 0 -112 39.5t-46 122.5l-14 155q-8 71 -41 103.5t-104 32.5h-50q-47 0 -63 4l-2 -2q3 -37 -6 -86
l-72 -365h-61h-45l73 365q9 49 27 86l-2 2q-16 -4 -64 -4h-51q-63 0 -108.5 -34t-79.5 -104l-84 -172q-68 -143 -217 -143h-84l18 94h64q48 0 78.5 23.5t56.5 76.5l88 179q31 66 81.5 94t131.5 31l2 4q-82 3 -123 32.5t-55 106.5l-23 135q-9 43 -31 63.5t-63 20.5h-57l18 94
h76q59 0 94 -26t47 -86l33 -162q14 -73 48 -105t106 -32h49q47 0 63 -4l2 2q-3 35 6 81l64 328h63h43l-63 -328q-6 -32 -27 -81l2 -2q16 4 64 4h51q65 0 104.5 31t81.5 106l97 162q66 112 206 112z" />
    <glyph glyph-name="uni0437" unicode="&#x437;" horiz-adv-x="933" 
d="M387 -31q-225 0 -418 105l58 96q170 -100 370 -100q153 0 230.5 52t77.5 148q0 89 -68 137t-197 48h-207l21 90h205q127 0 206.5 47.5t79.5 138.5q0 146 -215 146q-154 0 -362 -80l-33 96q215 84 406 84q152 0 234.5 -55.5t82.5 -169.5q0 -104 -75.5 -170t-233.5 -76
l-2 -6q121 -6 192.5 -62.5t71.5 -169.5q0 -59 -22 -110.5t-69.5 -95t-132.5 -68.5t-200 -25z" />
    <glyph glyph-name="uni0438" unicode="&#x438;" horiz-adv-x="1089" 
d="M53 -18l189 964h106l-100 -504q-25 -144 -55 -243l4 -2q45 65 135 149l682 619h22l-188 -965h-107l101 504q26 146 55 244l-4 2q-47 -68 -135 -150l-682 -618h-23z" />
    <glyph glyph-name="uni0439" unicode="&#x439;" horiz-adv-x="1089" 
d="M670 1024q-111 0 -176.5 59t-65.5 162q0 33 6 68h86q-4 -36 -4 -51q0 -75 41.5 -114.5t118.5 -39.5q89 0 151 54t82 151h84q-24 -143 -110 -216t-213 -73zM53 -18l189 964h106l-100 -504q-25 -144 -55 -243l4 -2q45 65 135 149l682 619h22l-188 -965h-107l101 504
q26 146 55 244l-4 2q-47 -68 -135 -150l-682 -618h-23z" />
    <glyph glyph-name="uni043A" unicode="&#x43a;" horiz-adv-x="954" 
d="M748 -4q-150 0 -164 162l-15 155q-6 69 -39 101t-104 32h-121q-46 0 -61 5l-4 -2q3 -34 -7 -87l-69 -362h-107l185 946h106l-63 -325q-8 -44 -27 -82l2 -2q16 4 66 4h118q64 0 104 30.5t81 104.5l96 162q64 112 209 112h76l-21 -94h-57q-75 0 -125 -84l-76 -135
q-43 -77 -95 -106.5t-138 -32.5v-4q83 -5 122.5 -34.5t45.5 -97.5l18 -172q6 -53 28.5 -76.5t65.5 -23.5h66l-21 -94h-75z" />
    <glyph glyph-name="uni043B" unicode="&#x43b;" horiz-adv-x="1132" 
d="M1075 946l-182 -946h-109l158 803q7 30 21 53l-2 2q-16 -8 -58 -8h-450q-42 0 -58 8l-2 -2q7 -20 0 -53l-20 -119l-88 -455q-25 -122 -88 -177.5t-177 -55.5h-83l18 96h76q59 0 95.5 36.5t53.5 117.5l86 438l49 262h760z" />
    <glyph glyph-name="uni043C" unicode="&#x43c;" horiz-adv-x="1314" 
d="M565 -16l-123 546q-26 110 -26 199h-6q-22 -88 -78 -201l-277 -528h-121l496 965h19l135 -611q20 -100 20 -168h4q28 73 82 168l365 611h18l125 -965h-104l-70 530q-14 112 -4 201h-6q-34 -85 -101 -199l-329 -548h-19z" />
    <glyph glyph-name="uni043D" unicode="&#x43d;" horiz-adv-x="1112" 
d="M948 946h107l-185 -946h-106l80 412q7 39 20 57l-2 2q-22 -10 -55 -10h-506q-35 0 -53 10l-2 -2q5 -19 -2 -57l-80 -412h-107l185 946h104l-65 -342q-6 -34 -19 -55l2 -2q20 10 55 10h506q37 0 54 -10l2 2q-5 14 2 55z" />
    <glyph glyph-name="uni043E" unicode="&#x43e;" horiz-adv-x="1183" 
d="M539 -31q-215 0 -338 119t-123 324q0 119 43.5 224t118.5 179.5t180 118t225 43.5q215 0 338 -118.5t123 -323.5q0 -159 -73.5 -288.5t-203.5 -203.5t-290 -74zM549 72q124 0 227 61.5t162 168t59 233.5q0 157 -97.5 248t-264.5 91q-189 0 -319 -134t-130 -328
q0 -157 98 -248.5t265 -91.5z" />
    <glyph glyph-name="uni043F" unicode="&#x43f;" horiz-adv-x="1071" 
d="M1026 946l-184 -946h-107l156 803q8 37 20 53l-2 2q-18 -8 -59 -8h-483q-42 0 -56 8l-2 -2q6 -25 0 -53l-155 -803h-107l184 946h795z" />
    <glyph glyph-name="uni0440" unicode="&#x440;" horiz-adv-x="1232" 
d="M-23 -410l265 1356h106q-35 -166 -59 -227l4 -4q61 124 174 193t254 69q196 0 315 -123t119 -324q0 -244 -153 -402.5t-388 -158.5q-166 0 -270 75t-141 220l-8 -2q3 -103 -31 -262l-80 -410h-107zM602 70q191 0 316.5 130t125.5 328q0 160 -93.5 254.5t-252.5 94.5
q-194 0 -326 -134.5t-132 -332.5q0 -158 96.5 -249t265.5 -91z" />
    <glyph glyph-name="uni0441" unicode="&#x441;" horiz-adv-x="1017" 
d="M563 -31q-218 0 -349.5 128.5t-131.5 340.5q0 236 155 387.5t398 151.5q206 0 364 -125l-63 -86q-141 108 -305 108q-188 0 -312 -123.5t-124 -310.5q0 -163 103 -265.5t267 -102.5q135 0 275 86l51 -92q-160 -97 -328 -97z" />
    <glyph glyph-name="uni0442" unicode="&#x442;" horiz-adv-x="919" 
d="M999 946l-18 -96h-346q-41 0 -55 8l-2 -2q6 -25 0 -53l-15 -70l-143 -733h-107l144 733l14 70q8 36 21 53l-3 2q-18 -8 -59 -8h-346l18 96h897z" />
    <glyph glyph-name="uni0443" unicode="&#x443;" horiz-adv-x="960" 
d="M1028 946l-862 -1356h-121l311 484l-237 872h110l158 -586q22 -84 28 -126t3 -93l8 2q23 74 102 199l379 604h121z" />
    <glyph glyph-name="uni0444" unicode="&#x444;" horiz-adv-x="1740" 
d="M649 -410l90 455q19 100 54 195h-7q-112 -271 -362 -271q-161 0 -248.5 107.5t-87.5 312.5q0 165 54 297.5t159 211.5t244 79q133 0 222 -72.5t103 -212.5h7q3 86 26 209l96 494h101l-96 -494q-20 -103 -52 -194h4q61 141 149.5 205.5t215.5 64.5q163 0 248.5 -107.5
t85.5 -310.5q0 -256 -127.5 -423t-339.5 -167q-129 0 -213.5 70t-102.5 217l-4 -2q-8 -109 -28 -209l-90 -455h-101zM449 70q111 0 201.5 68t138.5 177t47 232q0 150 -73.5 240t-203.5 90q-112 0 -195 -69.5t-123 -178.5t-40 -240q2 -152 63 -235.5t185 -83.5zM1182 70
q112 0 195.5 71t124 182t40.5 242q0 309 -239 309q-113 0 -205 -68t-141.5 -177t-49.5 -232q0 -145 73 -236t202 -91z" />
    <glyph glyph-name="uni0445" unicode="&#x445;" horiz-adv-x="929" 
d="M967 946l-367 -385q-3 -3 -12.5 -13.5t-17 -18t-19.5 -17.5t-23 -16l-2 -7q17 -17 41 -63l250 -426h-119l-194 338q-32 66 -37 96h-4q-27 -47 -78 -98l-322 -336h-135l420 440q53 53 66 62l2 6q-23 23 -47 67l-215 371h118l166 -291q27 -44 37 -100h4q27 47 78 100
l277 291h133z" />
    <glyph glyph-name="uni0446" unicode="&#x446;" horiz-adv-x="1105" 
d="M791 -287l47 240q8 37 20 53l-2 2q-18 -8 -59 -8h-740l185 946h106l-158 -803q-8 -37 -20 -53l2 -2q18 8 59 8h476q41 0 55 -8l2 2q-6 25 0 53l158 803h106l-158 -803q-8 -37 -20 -53l2 -2q18 8 59 8h58l-76 -383h-102z" />
    <glyph glyph-name="uni0447" unicode="&#x447;" horiz-adv-x="925" 
d="M764 946h106l-61 -317l-64 -318l-59 -311h-106l59 311l12 58q9 51 23 69l-2 2q-177 -71 -334 -71q-44 0 -80.5 5t-73.5 19.5t-62 38.5t-40.5 65t-15.5 95q0 50 12 115l47 239h106l-43 -225q-14 -69 -14 -113q0 -139 184 -139q124 0 326 72l18 88z" />
    <glyph glyph-name="uni0448" unicode="&#x448;" horiz-adv-x="1656" 
d="M1495 946h107l-185 -946h-1360l185 946h106l-158 -803q-8 -37 -20 -53l2 -2q18 8 59 8h422q42 0 56 -8l2 2q-6 25 0 53l157 803h107l-158 -803q-8 -37 -20 -53l2 -2q18 8 59 8h422q41 0 55 -8l2 2q-6 25 0 53z" />
    <glyph glyph-name="uni0449" unicode="&#x449;" horiz-adv-x="1675" 
d="M1362 -287l47 240q8 36 21 53l-3 2q-18 -8 -59 -8h-1311l185 946h106l-158 -803q-8 -37 -20 -53l2 -2q18 8 59 8h422q42 0 56 -8l2 2q-6 25 0 53l157 803h107l-158 -803q-8 -37 -20 -53l2 -2q18 8 59 8h422q41 0 55 -8l2 2q-6 25 0 53l158 803h107l-158 -803
q-8 -36 -21 -53l2 -2q18 8 60 8h53l-74 -383h-102z" />
    <glyph glyph-name="uni044A" unicode="&#x44a;" horiz-adv-x="1142" 
d="M760 590q131 0 219 -67.5t88 -203.5q0 -144 -98.5 -231.5t-268.5 -87.5h-428l74 379l82 424q8 36 21 53l-3 2q-18 -8 -59 -8h-305l20 96h461l-51 -260l-10 -49q-4 -31 -21 -55l2 -2q22 10 58 10h219zM702 96q127 0 190.5 60.5t63.5 156.5q0 179 -213 179h-221
q-33 0 -53 10l-2 -2q5 -14 -2 -56l-12 -65l-47 -236q-8 -36 -21 -53l2 -2q18 8 59 8h256z" />
    <glyph glyph-name="uni044B" unicode="&#x44b;" horiz-adv-x="1230" 
d="M545 590q131 0 219 -67.5t88 -203.5q0 -144 -98.5 -231.5t-268.5 -87.5h-428l74 379l59 307l52 260h106l-51 -260l-10 -49q-4 -31 -21 -55l2 -2q22 10 58 10h219zM1069 946h107l-185 -946h-106zM487 96q128 0 191 60.5t63 156.5q0 179 -213 179h-221q-33 0 -53 10l-2 -2
q5 -14 -2 -56l-12 -65l-48 -236q-8 -37 -20 -53l2 -2q18 8 59 8h256z" />
    <glyph glyph-name="uni044C" unicode="&#x44c;" horiz-adv-x="927" 
d="M545 590q131 0 219 -67.5t88 -203.5q0 -144 -98.5 -231.5t-268.5 -87.5h-428l74 379l59 307l52 260h106l-51 -260l-10 -49q-4 -31 -21 -55l2 -2q22 10 58 10h219zM487 96q128 0 191 60.5t63 156.5q0 179 -213 179h-221q-33 0 -53 10l-2 -2q5 -14 -2 -56l-12 -65l-48 -236
q-8 -37 -20 -53l2 -2q18 8 59 8h256z" />
    <glyph glyph-name="uni044D" unicode="&#x44d;" horiz-adv-x="1026" 
d="M381 -31q-209 0 -363 125l64 86q143 -108 307 -108q158 0 269.5 84t146.5 219q7 30 26 59l-2 2q-23 -10 -55 -10h-432l10 94h424q33 0 53 -10l2 2q-13 53 -16 74q-17 131 -112 209.5t-232 78.5q-144 0 -293 -86l-51 93q166 96 344 96q210 0 336.5 -129t126.5 -342
q0 -152 -68.5 -274t-195 -192.5t-289.5 -70.5z" />
    <glyph glyph-name="uni044E" unicode="&#x44e;" horiz-adv-x="1503" 
d="M965 977q215 0 338.5 -119t123.5 -323q0 -159 -74 -288.5t-204.5 -203.5t-290.5 -74q-213 0 -337 119.5t-124 323.5v14h-104q-39 0 -53 8l-4 -2q7 -17 0 -55l-74 -377h-105l185 946h104l-74 -375q-6 -39 -20 -57l2 -2q23 10 55 10h99q37 200 191 327.5t366 127.5zM868 72
q189 0 320 134.5t131 328.5q0 156 -98.5 247.5t-266.5 91.5q-189 0 -318.5 -134t-129.5 -328q0 -157 97.5 -248.5t264.5 -91.5z" />
    <glyph glyph-name="uni044F" unicode="&#x44f;" horiz-adv-x="937" 
d="M883 946l-68 -340l-57 -295l-60 -311h-108l61 311l6 37q9 39 21 55l-2 3q-22 -11 -55 -11h-121l-422 -395h-139v4l342 322q49 49 106 80l-2 2q-34 -13 -70 -9q-89 1 -152 77t-63 179q0 134 98 212.5t265 78.5h420zM709 606l39 197q9 38 20 53l-2 2q-19 -8 -59 -8h-244
q-116 0 -183 -52t-67 -141q0 -75 47 -120t125 -45h252q26 0 55 -11l2 2q-5 14 2 58z" />
    <glyph glyph-name="uni0451" unicode="&#x451;" horiz-adv-x="1118" 
d="M637 1294l-43 -229h-125l43 229h125zM944 1294l-43 -229h-125l43 229h125zM520 -33q-211 0 -327.5 116t-116.5 325q0 246 160 407.5t403 161.5q193 0 304.5 -102t111.5 -279q0 -58 -19 -135h-760q-60 0 -83 10l-3 -2v-16q-4 -54 -4 -60q0 -150 90.5 -235.5t249.5 -85.5
q108 0 198 41.5t185 136.5l72 -80q-109 -106 -219 -154.5t-242 -48.5zM205 535q28 14 82 14h575q40 0 84 -12l4 2q-2 14 -2 55q0 134 -83.5 209.5t-231.5 75.5q-158 0 -281.5 -98.5t-148.5 -243.5z" />
    <glyph glyph-name="uni0452" unicode="&#x452;" horiz-adv-x="1122" 
d="M696 977q153 0 232.5 -81t79.5 -237q0 -53 -17 -157l-98 -502l-25 -125q-32 -162 -108.5 -224.5t-208.5 -62.5h-92l18 101h88q80 0 127.5 42.5t69.5 147.5l24 121l99 506q14 52 14 127q0 119 -61 182.5t-176 63.5q-160 0 -270.5 -118.5t-151.5 -336.5l-82 -424h-107
l185 946l36 184q6 37 19 58v2q-23 -10 -58 -10h-86l15 75h86q34 0 51 -10l4 2q-6 15 2 58l31 159h106l-30 -159q-7 -38 -19 -58v-2q23 10 56 10h309l-15 -75h-307q-36 0 -53 10l-4 -2q7 -17 0 -58l-37 -184l-10 -51q-27 -137 -64 -236l8 -2q69 164 171.5 242t248.5 78z" />
    <glyph glyph-name="uni0453" unicode="&#x453;" horiz-adv-x="757" 
d="M920 1346l-314 -316h-94l256 316h152zM57 0l185 946h598l-21 -96h-442q-41 0 -55 8l-3 -2q6 -25 0 -53l-155 -803h-107z" />
    <glyph glyph-name="uni0454" unicode="&#x454;" horiz-adv-x="1015" 
d="M633 977q206 0 364 -125l-63 -86q-143 108 -307 108q-159 0 -270 -84t-146 -219q-6 -28 -27 -59v-2q25 10 58 10h430l-8 -94h-426q-34 0 -52 10l-2 -2q15 -62 17 -74q15 -131 110.5 -209.5t233.5 -78.5q144 0 293 86l51 -92q-171 -97 -344 -97q-211 0 -337 129t-126 342
q0 113 40 212t111.5 171t175 113t224.5 41z" />
    <glyph glyph-name="uni0455" unicode="&#x455;" horiz-adv-x="817" 
d="M53 219q86 -78 164.5 -112.5t169.5 -34.5q94 0 145.5 38.5t51.5 108.5q0 47 -28 88.5t-91 85.5l-119 80q-94 64 -134 124.5t-40 137.5q0 111 76.5 176.5t206.5 65.5q168 0 317 -105l-59 -92q-134 94 -256 94q-82 0 -128 -38t-46 -105q0 -49 27 -84t104 -90l112 -76
q94 -66 131 -124t37 -138q0 -120 -80.5 -185t-230.5 -65q-114 0 -210.5 40t-188.5 126z" />
    <glyph glyph-name="uni0456" unicode="&#x456;" horiz-adv-x="403" 
d="M442 1434l-53 -267h-121l51 267h123zM348 946l-184 -946h-107l185 946h106z" />
    <glyph glyph-name="uni0457" unicode="&#x457;" horiz-adv-x="403" 
d="M268 1294l-43 -229h-125l43 229h125zM575 1294l-43 -229h-124l43 229h124zM348 946l-184 -946h-107l185 946h106z" />
    <glyph glyph-name="uni0458" unicode="&#x458;" horiz-adv-x="403" 
d="M442 1434l-53 -267h-121l51 267h123zM348 946l-213 -1098q-30 -154 -111 -221t-229 -67h-22l20 104h21q89 0 141.5 44.5t73.5 150.5l213 1087h106z" />
    <glyph glyph-name="uni0459" unicode="&#x459;" horiz-adv-x="1656" 
d="M1274 590q131 0 219 -67.5t88 -203.5q0 -144 -98.5 -231.5t-268.5 -87.5h-430l158 803q7 30 21 53l-2 2q-16 -8 -58 -8h-450q-42 0 -58 8l-2 -2q7 -20 0 -53l-22 -119h2l-88 -455q-23 -121 -87 -177t-178 -56h-83l18 96h76q59 0 95.5 36.5t53.5 117.5l86 438l49 262h762
l-61 -309q-6 -34 -19 -55l2 -2q20 10 56 10h219zM1217 96q127 0 190 60.5t63 156.5q0 179 -213 179h-221q-36 0 -53 10l-2 -2q5 -18 -2 -56l-59 -301q-8 -36 -21 -53l2 -2q18 8 60 8h256z" />
    <glyph glyph-name="uni045A" unicode="&#x45a;" horiz-adv-x="1624" 
d="M1239 590q63 0 117 -15.5t98 -47t69 -85t25 -123.5q0 -144 -98.5 -231.5t-267.5 -87.5h-424l86 444q6 33 20 56v2q-18 -8 -57 -8h-500q-37 0 -51 8l-4 -2q5 -14 -2 -56l-86 -444h-107l185 946h106l-61 -309q-6 -35 -21 -55l2 -2q22 10 58 10h499q35 0 52 -10l2 2
q-3 13 4 55l59 309h100l-59 -309q-6 -37 -20 -55l2 -2q23 10 55 10h219zM1184 96q127 0 189.5 60.5t62.5 156.5q0 179 -213 179h-219q-37 0 -54 10l-4 -2q5 -14 -2 -56l-57 -301q-8 -36 -21 -53l2 -2q18 8 60 8h256z" />
    <glyph glyph-name="uni045B" unicode="&#x45b;" horiz-adv-x="1122" 
d="M696 977q153 0 232.5 -81t79.5 -237q0 -53 -17 -157l-98 -502h-107l99 506q14 52 14 127q0 119 -61 182.5t-176 63.5q-160 0 -270.5 -118.5t-151.5 -336.5l-82 -424h-107l185 946l36 184q6 37 19 58v2q-23 -10 -58 -10h-86l15 75h86q34 0 51 -10l4 2q-6 15 2 58l31 159
h106l-30 -159q-7 -38 -19 -58v-2q23 10 56 10h309l-15 -75h-307q-36 0 -53 10l-4 -2q7 -17 0 -58l-37 -184l-10 -51q-27 -137 -64 -236l8 -2q69 164 171.5 242t248.5 78z" />
    <glyph glyph-name="uni045C" unicode="&#x45c;" horiz-adv-x="954" 
d="M932 1346l-314 -316h-94l256 316h152zM748 -4q-150 0 -164 162l-15 155q-6 69 -39 101t-104 32h-121q-46 0 -61 5l-4 -2q3 -34 -7 -87l-69 -362h-107l185 946h106l-63 -325q-8 -44 -27 -82l2 -2q16 4 66 4h118q64 0 104 30.5t81 104.5l96 162q64 112 209 112h76l-21 -94
h-57q-75 0 -125 -84l-76 -135q-43 -77 -95 -106.5t-138 -32.5v-4q83 -5 122.5 -34.5t45.5 -97.5l18 -172q6 -53 28.5 -76.5t65.5 -23.5h66l-21 -94h-75z" />
    <glyph glyph-name="uni045E" unicode="&#x45e;" horiz-adv-x="960" 
d="M573 1024q-111 0 -176 59t-65 162q0 33 6 68h86q-4 -36 -4 -51q0 -75 41.5 -114.5t118.5 -39.5q89 0 151 54t82 151h84q-24 -143 -110 -216t-214 -73zM1028 946l-862 -1356h-121l311 484l-237 872h110l158 -586q22 -84 28 -126t3 -93l8 2q23 74 102 199l379 604h121z" />
    <glyph glyph-name="uni045F" unicode="&#x45f;" horiz-adv-x="1093" 
d="M348 -287l47 240q8 36 21 53l-2 2q-18 -8 -60 -8h-297l185 946h106l-158 -803q-8 -37 -20 -53l2 -2q18 8 59 8h486q41 0 55 -8l2 2q-6 25 0 53l156 803h106l-184 -946h-297q-41 0 -55 8l-2 -2q6 -25 0 -53l-47 -240h-103z" />
    <glyph glyph-name="uni0462" unicode="&#x462;" horiz-adv-x="1288" 
d="M205 0l203 1036q8 38 14 49l-2 5q-16 -7 -53 -7h-228l19 103h227q41 0 53 -4l2 2q-3 18 4 49l39 201h117l-39 -201q-7 -31 -16 -49l2 -2q12 4 53 4h404l-21 -103h-403q-38 0 -52 7l-4 -5q4 -19 -2 -49l-33 -178q-13 -42 -16 -49l2 -2q12 4 53 4h277q201 0 317.5 -92
t116.5 -275q0 -202 -141 -323t-381 -121h-512zM338 102q12 4 53 4h328q193 0 297 93t104 243q0 130 -83.5 196.5t-237.5 66.5h-291q-41 0 -53 6l-2 -4q4 -20 -2 -50l-99 -503q-9 -36 -16 -50z" />
    <glyph glyph-name="uni0463" unicode="&#x463;" horiz-adv-x="976" 
d="M592 590q63 0 117 -15.5t98 -47t69 -85t25 -123.5q0 -144 -98.5 -231.5t-267.5 -87.5h-431l158 805q5 33 23 57l-2 2q-22 -10 -58 -10h-141l18 92h142q36 0 53 -10l2 2q-6 22 0 57l92 469h107l-90 -469q-6 -37 -21 -57l2 -2q23 10 57 10h314l-19 -92h-313q-36 0 -53 10
l-2 -2q4 -16 -4 -55l-33 -170q-7 -35 -21 -55l2 -2q23 10 56 10h219zM535 96q128 0 190.5 60.5t62.5 156.5q0 179 -213 179h-219q-36 0 -53 10l-4 -2q5 -14 -2 -56l-57 -301q-8 -36 -21 -53l2 -2q18 8 60 8h254z" />
    <glyph glyph-name="uni0472" unicode="&#x472;" horiz-adv-x="1724" 
d="M971 1464q320 0 515 -185t195 -495q0 -168 -61 -317.5t-169 -259.5t-264.5 -174t-338.5 -64q-320 0 -514.5 185t-194.5 495q0 168 61 317.5t168.5 259.5t264 174t338.5 64zM272 813q-10 -33 -22 -47l2 -4q20 6 53 6h1213q33 0 51 -6l4 4q-4 14 -8 68q-17 242 -181.5 379
t-418.5 137q-267 0 -451.5 -148.5t-241.5 -388.5zM1548 623q5 27 21 45v4q-23 -6 -56 -6h-1212q-33 0 -51 6l-4 -4q4 -8 8 -68q17 -242 182 -379t420 -137q267 0 451 149t241 390z" />
    <glyph glyph-name="uni0473" unicode="&#x473;" horiz-adv-x="1183" 
d="M645 977q208 0 334.5 -115.5t126.5 -326.5q0 -114 -41.5 -217.5t-114.5 -180.5t-180 -122.5t-231 -45.5q-208 0 -334.5 115.5t-126.5 327.5q0 153 70 281.5t201 206t296 77.5zM995 500l2 4q2 10 2 39q-1 155 -100.5 244.5t-263.5 89.5q-172 0 -291.5 -107.5
t-150.5 -265.5l2 -4q27 12 79 12h644q53 0 77 -12zM549 70q173 0 292 107t150 265l-2 4q-27 -12 -80 -12h-643q-54 0 -78 12l-2 -4q-2 -10 -2 -39q1 -155 100.5 -244t264.5 -89z" />
    <glyph glyph-name="uni0474" unicode="&#x474;" horiz-adv-x="1308" 
d="M494 -29l-291 1463h123l180 -1000q26 -135 24 -223h9q9 26 21 53t21.5 44.5t32 59t35.5 66.5l416 770q27 50 47.5 82.5t50.5 67.5t61 54.5t74.5 32.5t96.5 13q36 0 86 -4l-19 -109q-57 5 -69 5q-67 0 -115.5 -43.5t-112.5 -157.5l-659 -1174h-12z" />
    <glyph glyph-name="uni0475" unicode="&#x475;" horiz-adv-x="1011" 
d="M1069 965h23l-21 -105h-20q-53 0 -89.5 -21t-74.5 -79l-500 -778h-22l-246 964h117l131 -571q30 -130 32 -217h7q16 40 34 76t32 59.5t50 81.5l271 434q50 82 111 119t165 37z" />
    <glyph glyph-name="uni048E" unicode="&#x48e;" horiz-adv-x="1085" 
d="M1153 1085q0 -146 -81 -249.5t-222 -145.5l158 -215l-52 -39l-176 238q-74 -8 -112 -8h-295q-42 0 -54 6l-2 -4q2 -5 -4 -50l-120 -618h-115l278 1434h416q177 0 279 -93t102 -256zM780 784q119 25 185.5 102.5t66.5 192.5q0 117 -69 182.5t-193 65.5h-270q-39 0 -51 4
l-5 -2q1 -4 -4 -49l-88 -459q-2 -13 -14 -51l2 -2q10 4 53 4h277q25 0 37 2l-119 162l51 39z" />
    <glyph glyph-name="uni048F" unicode="&#x48f;" horiz-adv-x="1232" 
d="M1155 530q0 -159 -69 -286t-189 -199l125 -151l-47 -39l-133 161q-103 -47 -228 -47q-166 0 -270 75t-141 220l-8 -2q3 -103 -31 -262l-80 -410h-107l265 1356h106q-35 -166 -59 -227l4 -4q61 124 174 193t254 69q196 0 315 -123t119 -324zM602 70q88 0 170 32l-149 183
l45 39l159 -195q101 59 159 164t58 235q0 160 -93.5 254.5t-252.5 94.5q-194 0 -326 -134.5t-132 -332.5q0 -158 96.5 -249t265.5 -91z" />
    <glyph glyph-name="uni0490" unicode="&#x490;" horiz-adv-x="993" 
d="M1100 1720h114l-73 -393h-641q-39 0 -51 4l-5 -2q3 -16 -4 -49l-247 -1280h-115l278 1434h637q42 0 54 -4l2 2q-3 16 4 49z" />
    <glyph glyph-name="uni0491" unicode="&#x491;" horiz-adv-x="768" 
d="M799 1233h106l-74 -383h-454q-41 0 -55 8l-3 -2q6 -25 0 -53l-155 -803h-107l185 946h452q42 0 56 -8l2 2q-6 25 0 53z" />
    <glyph glyph-name="uni0492" unicode="&#x492;" horiz-adv-x="1116" 
d="M621 1325q-34 0 -52 6l-2 -2q3 -17 -4 -51l-37 -188l-30 -162q-5 -25 -17 -49l2 -2q12 4 54 4h426l-21 -109h-426q-35 0 -53 6l-2 -2q2 -12 -2 -51l-142 -725h-116l141 725q8 38 14 51l-2 2q-18 -6 -53 -6h-219l20 109h219q42 0 54 -4l2 2q-3 16 4 49l33 162l65 344h805
l-22 -109h-639z" />
    <glyph glyph-name="uni0493" unicode="&#x493;" horiz-adv-x="839" 
d="M459 850q-42 0 -56 8l-4 -2q7 -20 0 -53l-43 -219q-7 -43 -18 -58l2 -2q25 11 55 11h299l-20 -99h-297q-33 0 -51 10l-2 -2q4 -14 -5 -49l-75 -395h-109l78 395q8 33 20 49l-2 2q-23 -10 -55 -10h-123l19 99h123q32 0 51 -11l2 2q-4 18 2 58l69 362h601l-19 -96h-442z
" />
    <glyph glyph-name="uni0494" unicode="&#x494;" horiz-adv-x="1239" 
d="M500 1327q-39 0 -51 4l-5 -2q4 -21 -2 -49l-47 -246h-2l-41 -213q-5 -33 -18 -59l2 -2q274 82 481 82q157 0 236.5 -59.5t79.5 -192.5q0 -36 -11 -115l-28 -143l-66 -344q-19 -98 -48 -167t-79 -123.5t-129.5 -81t-189.5 -26.5h-121l22 107h109q141 0 216.5 73t104.5 220
l66 342l27 141q8 44 8 82q0 98 -57.5 136t-172.5 38q-173 0 -465 -82l-126 -647h-115l201 1034l77 400h811l-20 -107h-647z" />
    <glyph glyph-name="uni0495" unicode="&#x495;" horiz-adv-x="929" 
d="M279 -410l18 101h98q111 0 174 51.5t88 177.5l66 340q8 54 8 70q0 137 -174 137q-126 0 -319 -72l-78 -395h-103l185 946h622l-18 -96h-471q-42 0 -56 8l-2 -2q6 -25 0 -53l-47 -236q-10 -51 -22 -67l2 -2q184 69 342 69q244 0 244 -211q0 -44 -9 -94l-69 -362
q-60 -310 -359 -310h-120z" />
    <glyph glyph-name="uni0496" unicode="&#x496;" horiz-adv-x="1910" 
d="M1921 1438q22 0 80 -4l-23 -109q-36 4 -57 4q-73 0 -122.5 -28.5t-82.5 -90.5l-129 -245q-56 -111 -121.5 -154.5t-173.5 -48.5v-4q98 -5 143.5 -48.5t51.5 -144.5l20 -315q4 -80 40.5 -112t109.5 -32q11 0 74 5l-9 -37h66l-72 -361h-108l55 283h-39q-212 0 -223 219
l-23 328q-4 88 -51.5 126t-150.5 38h-86q-50 0 -62 4l-4 -2q3 -37 -6 -86l-119 -623h-113l121 623q5 36 27 86l-2 2q-16 -4 -64 -4h-90q-95 0 -153.5 -38t-98.5 -126l-157 -344q-47 -106 -120.5 -154.5t-185.5 -48.5q-24 0 -86 4l23 113q50 -4 68 -4q73 0 120.5 31t81.5 108
l146 327q43 95 105 137.5t165 45.5v4q-101 5 -151.5 51t-63.5 154l-31 243q-9 65 -47.5 92t-109.5 27q-26 0 -62 -4l21 109q54 4 73 4q101 0 157 -41t69 -137l37 -259q15 -107 65.5 -149.5t155.5 -42.5h90q37 0 61 -6l2 2q-3 35 6 82l107 547h113l-107 -547q-8 -38 -27 -82
l3 -2q24 6 65 6h88q101 0 164 42t119 150l135 261q90 176 303 176z" />
    <glyph glyph-name="uni0497" unicode="&#x497;" horiz-adv-x="1462" 
d="M1343 950h76l-20 -94h-58q-78 0 -127 -84l-75 -135q-42 -76 -95.5 -106t-134.5 -33l-2 -4q81 -3 121 -31t47 -94l19 -179q6 -55 27.5 -77.5t66.5 -22.5h65l-6 -31h72l-68 -346h-98l55 283h-55q-74 0 -112 39.5t-46 122.5l-14 155q-8 71 -41 103.5t-104 32.5h-50
q-47 0 -63 4l-2 -2q3 -37 -6 -86l-72 -365h-61h-45l73 365q9 49 27 86l-2 2q-16 -4 -64 -4h-51q-63 0 -108.5 -34t-79.5 -104l-84 -172q-68 -143 -217 -143h-84l18 94h64q48 0 78.5 23.5t56.5 76.5l88 179q31 66 81.5 94t131.5 31l2 4q-82 3 -123 32.5t-55 106.5l-23 135
q-9 43 -31 63.5t-63 20.5h-57l18 94h76q59 0 94 -26t47 -86l33 -162q14 -73 48 -105t106 -32h49q47 0 63 -4l2 2q-3 35 6 81l64 328h63h43l-63 -328q-6 -32 -27 -81l2 -2q16 4 64 4h51q65 0 104.5 31t81.5 106l97 162q66 112 206 112z" />
    <glyph glyph-name="uni0498" unicode="&#x498;" horiz-adv-x="1300" 
d="M883 743q106 -24 172.5 -104t66.5 -217q0 -67 -16 -128.5t-55 -120.5t-97.5 -102.5t-149.5 -71t-206 -30.5l-33 -55q28 -7 49.5 -15.5t45 -23t36.5 -37t13 -51.5q0 -28 -10.5 -53.5t-34.5 -48t-46 -39t-63 -36.5t-67 -31.5t-74 -31.5l-15 47l61.5 31.5t49.5 26.5
t42.5 26.5t28 24t20 26.5t5.5 27q0 32 -33 51t-104 33l72 129q-279 8 -504 152l61 100q112 -67 224 -103t251 -36q211 0 321 87.5t110 244.5q0 80 -28.5 139t-79.5 92t-112.5 48.5t-136.5 15.5h-205l21 106h203q108 0 201 35.5t153.5 109t60.5 170.5q0 224 -317 224
q-214 0 -440 -80l-33 104q254 86 481 86q210 0 320 -84t110 -239q0 -131 -75.5 -220.5t-221.5 -132.5q-73 -20 -178 -26l-2 -6q88 0 158 -13z" />
    <glyph glyph-name="uni0499" unicode="&#x499;" horiz-adv-x="933" 
d="M547 500q121 -6 192.5 -62.5t71.5 -169.5q0 -57 -20.5 -107t-64.5 -93t-123 -69t-185 -30l-33 -55q28 -7 49.5 -15.5t45 -23t36 -37t12.5 -51.5q0 -28 -10.5 -53.5t-34.5 -48t-46 -39t-63 -36.5t-67 -31.5t-74 -31.5l-14 47l61.5 31.5t49.5 26.5t42.5 26.5t28 24t20 26.5
t5.5 27q0 32 -33 51t-104 33l71 129q-207 5 -391 105l58 96q170 -100 370 -100q153 0 230.5 52t77.5 148q0 89 -68 137t-197 48h-207l21 90h205q127 0 206.5 47.5t79.5 138.5q0 146 -215 146q-154 0 -362 -80l-33 96q215 84 406 84q152 0 234.5 -55.5t82.5 -169.5
q0 -104 -75.5 -170t-233.5 -76z" />
    <glyph glyph-name="uni049A" unicode="&#x49a;" horiz-adv-x="1294" 
d="M1298 1438q24 0 78 -4l-22 -111q-36 4 -58 4q-73 0 -123 -27.5t-83 -89.5l-127 -245q-56 -110 -122.5 -154t-174.5 -49v-4q104 -4 149 -50t53 -145l31 -313q9 -83 44 -113.5t108 -30.5q13 0 75 5l-8 -37h53l-71 -361h-109l56 283h-29q-209 0 -225 211l-35 332
q-8 88 -55.5 127t-149.5 39h-168q-49 0 -61 4l-5 -2q3 -37 -6 -86l-120 -621h-115l278 1434h115l-104 -545q-7 -36 -27 -82l2 -2q24 6 66 6h167q100 0 161.5 41t119.5 149l133 261q49 96 124 136t185 40z" />
    <glyph glyph-name="uni049B" unicode="&#x49b;" horiz-adv-x="1054" 
d="M934 950h76l-21 -94h-57q-75 0 -125 -84l-76 -135q-43 -77 -95 -106.5t-138 -32.5v-4q83 -5 122.5 -34.5t45.5 -97.5l18 -172q6 -53 28.5 -76.5t65.5 -23.5h66l-8 -31h73l-67 -346h-99l56 283h-51q-150 0 -164 162l-15 155q-6 69 -39 101t-104 32h-121q-46 0 -61 5l-4 -2
q3 -34 -7 -87l-69 -362h-107l185 946h106l-63 -325q-8 -44 -27 -82l2 -2q16 4 66 4h118q64 0 104 30.5t81 104.5l96 162q64 112 209 112z" />
    <glyph glyph-name="uni049C" unicode="&#x49c;" horiz-adv-x="1249" 
d="M1298 1438q24 0 78 -4l-22 -111q-36 4 -58 4q-73 0 -123 -27.5t-83 -89.5l-127 -245q-56 -110 -122.5 -154t-174.5 -49v-4q104 -4 149 -50t53 -145l31 -313q9 -83 44 -113.5t108 -30.5q13 0 75 5l-22 -111q-62 -4 -86 -4q-209 0 -225 211l-35 332q-8 88 -55.5 127
t-149.5 39h-14l-64 -318h-69l61 318h-82q-49 0 -61 4l-5 -2q3 -37 -6 -86l-120 -621h-115l278 1434h115l-104 -545q-7 -36 -27 -82l2 -2q24 6 66 6h79l62 311h69l-59 -311h16q100 0 161.5 41t119.5 149l133 261q49 96 124 136t185 40z" />
    <glyph glyph-name="uni049D" unicode="&#x49d;" horiz-adv-x="954" 
d="M934 950h76l-21 -94h-57q-75 0 -125 -84l-76 -135q-43 -77 -95 -106.5t-138 -32.5v-4q83 -5 122.5 -34.5t45.5 -97.5l18 -172q6 -53 28.5 -76.5t65.5 -23.5h66l-21 -94h-75q-150 0 -164 162l-15 155q-6 69 -39 101t-104 32h-12l-49 -262h-60l51 262h-51q-46 0 -61 5
l-4 -2q3 -34 -7 -87l-69 -362h-107l185 946h106l-63 -325q-8 -44 -27 -82l2 -2q16 4 66 4h49l49 256h59l-51 -256h12q64 0 104 30.5t81 104.5l96 162q64 112 209 112z" />
    <glyph glyph-name="uni049E" unicode="&#x49e;" horiz-adv-x="1378" 
d="M1430 1438q21 0 75 -4l-22 -111q-36 4 -58 4q-73 0 -123 -27.5t-83 -89.5l-127 -245q-56 -110 -122.5 -154t-174.5 -49v-4q104 -4 150.5 -50.5t51.5 -144.5l21 -313q6 -82 42 -113t109 -31q11 0 74 5l-20 -111q-62 -4 -86 -4q-99 0 -159.5 50.5t-66.5 160.5l-22 332
q-6 88 -55 127t-152 39h-168q-49 0 -61 4l-4 -2q3 -33 -7 -86l-120 -621h-115l201 1036q8 38 14 49l-2 5q-16 -7 -53 -7h-228l19 103h227q41 0 53 -4l2 2q-3 18 4 49l39 201h117l-39 -201q-7 -31 -16 -49l2 -2q12 4 53 4h262l-18 -103h-264q-38 0 -52 7l-4 -5q4 -19 -2 -49
l-28 -153q-7 -36 -27 -82l2 -2q24 6 66 6h167q101 0 163.5 43.5t119.5 152.5l133 261q49 95 126.5 135.5t185.5 40.5z" />
    <glyph glyph-name="uni049F" unicode="&#x49f;" horiz-adv-x="950" 
d="M928 950h76l-19 -94h-57q-78 0 -125 -84l-78 -135q-43 -77 -94.5 -106.5t-136.5 -32.5l-2 -4q84 -5 123.5 -34.5t46.5 -97.5l18 -172q4 -53 26.5 -76.5t67.5 -23.5h64l-21 -94h-76q-74 0 -114 39t-47 123l-15 155q-6 69 -40 101t-105 32h-119q-43 0 -63 5l-2 -2
q3 -34 -7 -87l-71 -362h-107l185 946l36 184q6 38 21 58l-2 2q-23 -10 -58 -10h-86l17 75h84q36 0 53 -10l2 2q-5 19 2 58l31 159h106l-30 -159q-7 -43 -19 -58l2 -2q23 10 56 10h309l-17 -75h-307q-36 0 -53 10l-2 -2q4 -18 -2 -58l-37 -184l-63 -325q-8 -44 -27 -82l2 -2
q16 4 65 4h119q65 0 104.5 30t82.5 105l94 162q67 112 209 112z" />
    <glyph glyph-name="uni04A0" unicode="&#x4a0;" horiz-adv-x="1478" 
d="M1528 1438q24 0 78 -4l-23 -111q-36 4 -57 4q-73 0 -123.5 -27.5t-83.5 -89.5l-127 -245q-56 -110 -122.5 -154t-174.5 -49v-4q104 -4 150.5 -50.5t52.5 -144.5l20 -313q6 -82 42 -113t108 -31q12 0 75 5l-22 -111q-58 -4 -84 -4q-213 0 -227 211l-23 332q-4 88 -53 127
t-152 39h-168q-49 0 -61 4l-4 -2q3 -37 -6 -86l-121 -621h-115l199 1032l49 248q6 28 16 49l-2 2q-14 -4 -55 -4h-328l21 107h491l-75 -402l-29 -149q-7 -36 -27 -82l2 -2q24 6 66 6h168q100 0 161.5 43t120.5 153l134 261q49 95 126 135.5t183 40.5z" />
    <glyph glyph-name="uni04A1" unicode="&#x4a1;" horiz-adv-x="1132" 
d="M1110 950h76l-19 -94h-57q-75 0 -125 -84l-78 -135q-43 -76 -94.5 -106t-136.5 -33l-2 -4q84 -5 123.5 -34.5t46.5 -97.5l18 -172q4 -53 26.5 -76.5t67.5 -23.5h64l-19 -94h-77q-74 0 -114.5 39t-47.5 123l-14 155q-6 69 -40 101t-106 32h-119q-43 0 -63 5l-2 -2
q3 -37 -6 -87l-72 -362h-107l142 727l16 76q8 36 21 53l-2 2q-18 -8 -60 -8h-268l20 96h422l-43 -219l-18 -106q-8 -44 -27 -82l2 -2q16 4 64 4h121q64 0 102.5 30t81.5 105l94 162q67 112 209 112z" />
    <glyph glyph-name="uni04A2" unicode="&#x4a2;" horiz-adv-x="1372" 
d="M1448 1434l-264 -1360h63l-71 -361h-109l55 287h-69l129 666q8 39 16 51l-2 2q-24 -6 -55 -6h-760q-36 0 -51 6l-2 -2q0 -31 -4 -51l-129 -666h-117l278 1434h117l-111 -566q-8 -38 -14 -49v-4q14 6 55 6h760q39 0 51 -6l5 4q-4 19 2 49l110 566h117z" />
    <glyph glyph-name="uni04A3" unicode="&#x4a3;" horiz-adv-x="1101" 
d="M1055 946l-172 -887h73l-67 -346h-98l55 287h-82l80 412q7 39 20 57l-2 2q-22 -10 -55 -10h-506q-35 0 -53 10l-2 -2q5 -19 -2 -57l-80 -412h-107l185 946h104l-65 -342q-6 -34 -19 -55l2 -2q20 10 55 10h506q37 0 54 -10l2 2q-5 14 2 55l65 342h107z" />
    <glyph glyph-name="uni04A4" unicode="&#x4a4;" horiz-adv-x="1822" 
d="M1294 1434h695l-21 -109h-528q-36 0 -54 6l-2 -2q3 -17 -4 -51l-32 -164l-215 -1114h-117l129 666q6 32 16 51l-2 2q-21 -6 -55 -6h-723q-36 0 -51 6l-2 -2q0 -31 -4 -51l-129 -666h-117l278 1434h117l-111 -566q-8 -38 -14 -49v-4q14 6 55 6h723q40 0 52 -6l4 4
q-4 19 2 49l47 246z" />
    <glyph glyph-name="uni04A5" unicode="&#x4a5;" horiz-adv-x="1378" 
d="M913 946h547l-20 -96h-391q-42 0 -56 8l-2 -2q6 -25 0 -53l-20 -113l-135 -690h-107l80 412q7 39 20 57l-2 2q-23 -10 -57 -10h-469q-35 0 -53 10l-2 -2q5 -19 -2 -57l-80 -412h-107l185 946h104l-65 -342q-6 -34 -19 -55l2 -2q20 10 55 10h469q36 0 54 -10l2 2
q-5 14 2 55l16 86h2z" />
    <glyph glyph-name="uni04A6" unicode="&#x4a6;" horiz-adv-x="2187" 
d="M1815 872q159 0 237 -59t78 -192q0 -43 -12 -105l-19 -96l-10 -53q-19 -96 -46 -159t-75 -112.5t-124.5 -72.5t-186.5 -23h-166l20 106h154q145 0 213.5 61t97.5 202l11 51l18 94q8 39 8 76q0 95 -57.5 132.5t-173.5 37.5q-181 0 -488 -80l-133 -680h-114l200 1036
l47 244q6 31 17 49l-2 2q-14 -4 -54 -4h-755q-39 0 -51 4l-5 -2q3 -16 -4 -49l-247 -1280h-115l278 1434h1084l-76 -398l-37 -184q-5 -34 -18 -59l2 -2q105 32 244 56.5t260 24.5z" />
    <glyph glyph-name="uni04A7" unicode="&#x4a7;" horiz-adv-x="1601" 
d="M963 -410l20 101h96q106 0 172 52.5t90 176.5l62 318q10 44 10 86q0 87 -41.5 120t-128.5 33q-128 0 -319 -71l-78 -406h-105l158 803q8 36 21 53l-2 2q-18 -8 -60 -8h-483q-42 0 -56 8l-2 -2q6 -25 0 -53l-157 -803h-103l185 946h788l-72 -371q-12 -50 -24 -67l2 -2
q183 72 336 72q123 0 185.5 -52.5t62.5 -165.5q0 -54 -15 -127l-63 -333q-28 -148 -115.5 -229t-230.5 -81h-133z" />
    <glyph glyph-name="uni04A8" unicode="&#x4a8;" horiz-adv-x="1593" 
d="M723 -31q-96 0 -180.5 21.5t-160 70.5t-129 122.5t-85 183t-31.5 245.5q0 127 25.5 245.5t85 230t147 194t221.5 132.5t299 50q173 0 302 -53l-52 -102q-120 43 -256 43q-138 0 -250.5 -45.5t-185.5 -119t-122 -172t-70 -200t-21 -207.5q0 -268 128 -401t343 -133
q58 0 180 16v4q-54 9 -88 66q-54 74 -82 178.5t-28 216.5q0 87 16.5 168.5t52 155.5t87.5 129t127.5 87.5t166.5 32.5q159 0 244.5 -96.5t85.5 -275.5q0 -78 -16.5 -160t-50.5 -165.5t-93.5 -161.5t-138.5 -134q-59 -41 -111 -47l2 -4q59 -14 125 -14q102 0 217 61l35 -94
q-139 -68 -272 -68q-70 0 -129 13.5t-76 40.5l-4 -3q-111 -51 -258 -51zM1004 123h4q5 12 19 22.5t37 23.5t36 24q129 92 201.5 236.5t72.5 307.5q0 146 -58 212.5t-159 66.5q-103 0 -179.5 -64t-113.5 -167.5t-37 -229.5q0 -207 103 -348q14 -17 40 -42t34 -42z" />
    <glyph glyph-name="uni04A9" unicode="&#x4a9;" horiz-adv-x="1148" 
d="M483 -31q-80 0 -149 21.5t-129 68.5t-94.5 133t-34.5 203t35.5 220t104.5 185t181 129.5t254 47.5q129 0 244 -43l-47 -94q-85 37 -193 37q-114 0 -205 -39.5t-147 -107t-85.5 -153t-29.5 -182.5q0 -88 24 -153t67 -100.5t91 -53t107 -20.5q54 0 105 -2l2 4
q-42 19 -68 49q-65 77 -65 207q0 68 19.5 131t57 116.5t101.5 86t145 32.5q114 0 184 -62.5t70 -189.5q0 -208 -182 -336q-36 -26 -84 -41v-2q41 -8 84 -8q66 2 162 49l32 -82q-116 -51 -221 -51q-123 0 -147 41h-4q-77 -41 -185 -41zM684 78l4 2q1 7 5 12.5t12 12
t14.5 10.5t19.5 11t19 11q72 45 119 126.5t47 170.5q0 83 -41.5 122.5t-110.5 39.5q-102 0 -159.5 -79t-57.5 -193q0 -50 11.5 -91t33 -70.5t40 -47.5t44.5 -37z" />
    <glyph glyph-name="uni04AA" unicode="&#x4aa;" horiz-adv-x="1456" 
d="M981 1350q-204 0 -370 -94t-260.5 -260t-94.5 -369q0 -256 145.5 -399.5t405.5 -143.5q111 0 214 33.5t224 107.5l64 -96q-236 -157 -504 -160l-33 -55q28 -7 49.5 -15.5t45 -23t36 -37t12.5 -51.5q0 -34 -18 -64.5t-41.5 -52t-69 -46.5t-76.5 -39t-89 -38l-15 47
l61.5 31.5t49.5 26.5t42.5 26.5t28 24t20 26.5t5.5 27q0 32 -33 51t-104 33l72 129q-286 14 -450.5 188.5t-164.5 465.5q0 240 110.5 432.5t307 300.5t442.5 108q283 0 492 -164l-72 -96q-199 146 -432 146z" />
    <glyph glyph-name="uni04AB" unicode="&#x4ab;" horiz-adv-x="1017" 
d="M631 874q-188 0 -312 -123.5t-124 -310.5q0 -163 103 -265.5t267 -102.5q135 0 275 86l51 -92q-160 -97 -328 -97h-2l-33 -55q28 -7 49.5 -15.5t45 -23t36.5 -37t13 -51.5q0 -28 -10.5 -53.5t-34.5 -48t-46 -39t-63 -36.5t-67 -31.5t-74 -31.5l-15 47l61.5 31.5
t49.5 26.5t42.5 26.5t28 24t20 26.5t5.5 27q0 32 -33 51t-104 33l74 131q-194 17 -309 143.5t-115 323.5q0 236 155 387.5t398 151.5q206 0 364 -125l-63 -86q-141 108 -305 108z" />
    <glyph glyph-name="uni04AC" unicode="&#x4ac;" horiz-adv-x="1046" 
d="M207 1434h1005l-20 -109h-395q-36 0 -54 6l-2 -2q4 -22 -2 -51l-233 -1204h63l-71 -361h-109l55 287h-69l248 1278q8 38 14 51l-2 2q-18 -6 -53 -6h-396z" />
    <glyph glyph-name="uni04AD" unicode="&#x4ad;" horiz-adv-x="919" 
d="M999 946l-18 -96h-346q-41 0 -55 8l-2 -2q6 -25 0 -53l-15 -70l-131 -674h74l-68 -346h-98l55 287h-82l144 733l14 70q8 36 21 53l-3 2q-18 -8 -59 -8h-346l18 96h897z" />
    <glyph glyph-name="uni04AE" unicode="&#x4ae;" horiz-adv-x="1087" 
d="M1257 1434l-643 -883l-106 -551h-115l105 551l-295 883h129l192 -609q34 -106 39 -192h6q30 73 111 192l432 609h145z" />
    <glyph glyph-name="uni04AF" unicode="&#x4af;" horiz-adv-x="968" 
d="M1034 946l-581 -883l-93 -473h-106l96 494l-231 862h117l141 -573q15 -61 20 -82.5t10 -58.5t5 -76h4q15 39 34 76t32 58t53 83l366 573h133z" />
    <glyph glyph-name="uni04B0" unicode="&#x4b0;" horiz-adv-x="1089" 
d="M618 549q18 6 54 6h258l-21 -104h-262q-35 0 -53 6l-2 -2q4 -23 -2 -52l-76 -403h-117l76 403q8 40 14 52l-2 2q-21 -6 -53 -6h-264l20 104h256q36 0 54 -6l2 2l-297 883h133l190 -609q32 -105 37 -190h6q40 88 111 190l428 609h152l-644 -883z" />
    <glyph glyph-name="uni04B1" unicode="&#x4b1;" horiz-adv-x="968" 
d="M451 59q19 7 49 7h254l-19 -91h-254q-37 0 -53 9l-2 -2q5 -18 -2 -56l-68 -336h-106l67 336q6 36 21 56l-2 2q-20 -9 -57 -9h-256l18 91h254q35 0 51 -9l2 2h8l-237 887h117l141 -573q15 -61 20 -82.5t10 -58.5t5 -76h4q15 39 34 76t32 58t53 83l366 573h133z" />
    <glyph glyph-name="uni04B2" unicode="&#x4b2;" horiz-adv-x="1251" 
d="M825 543l228 -469h75l-71 -361h-109l56 287h-52l-227 485q-59 127 -74 187h-4q-31 -53 -143 -185l-412 -487h-155l473 551q7 8 50.5 59.5t77.5 89.5t56 58l2 4q-21 33 -111 221l-219 451h137l189 -412q12 -27 28 -62t23 -51t14 -36t11 -37h4q5 10 13 22t15.5 22t23 29
t25 30.5t32 38t34.5 40.5l350 416h154l-395 -461q-148 -168 -203 -221l-2 -7q36 -51 106 -202z" />
    <glyph glyph-name="uni04B3" unicode="&#x4b3;" horiz-adv-x="1024" 
d="M567 426l215 -367h99l-68 -346h-98l55 287h-72l-194 338q-32 66 -37 96h-4q-27 -47 -78 -98l-322 -336h-135l420 440q53 53 66 62l2 6q-23 23 -47 67l-215 371h118l166 -291q27 -44 37 -100h4q27 47 78 100l277 291h133l-367 -385q-3 -3 -12.5 -13.5t-17 -18t-19.5 -17.5
t-23 -16l-2 -7q17 -17 41 -63z" />
    <glyph glyph-name="uni04B4" unicode="&#x4b4;" horiz-adv-x="1703" 
d="M1411 102q14 4 55 4h88l-75 -393h-115l47 240q6 28 16 49l-2 2q-14 -4 -55 -4h-985l193 981l57 297q8 38 14 51l-2 2q-18 -6 -53 -6h-408l21 109h1010l-21 -109h-387q-35 0 -53 6l-2 -2q4 -22 -2 -51l-60 -297l-160 -827q-6 -30 -16 -50l2 -2q14 4 55 4h678q42 0 52 -4
l4 2q-4 22 2 50l247 1280h117l-248 -1280q-6 -30 -16 -50z" />
    <glyph glyph-name="uni04B5" unicode="&#x4b5;" horiz-adv-x="1269" 
d="M1030 88q18 8 60 8h43l-76 -383h-103l47 240q8 36 21 53l-2 2q-18 -8 -59 -8h-699l127 653l31 150q8 37 20 53l-2 2q-18 -8 -59 -8h-295l18 96h760l-18 -96h-260q-42 0 -56 8l-2 -2q6 -25 0 -53l-30 -150l-101 -510q-8 -37 -20 -53l2 -2q18 8 59 8h449q41 0 55 -8l2 2
q-6 25 0 53l156 803h106l-155 -803q-8 -36 -21 -53z" />
    <glyph glyph-name="uni04B6" unicode="&#x4b6;" horiz-adv-x="1136" 
d="M1212 1434l-264 -1360h64l-72 -361h-109l56 287h-70l119 604q5 36 20 62l-2 2q-242 -82 -446 -82q-371 0 -371 301q0 64 21 157l78 390h116l-84 -420q-10 -51 -10 -105q0 -120 68.5 -164.5t197.5 -44.5q169 0 447 82l125 652h116z" />
    <glyph glyph-name="uni04B7" unicode="&#x4b7;" horiz-adv-x="907" 
d="M809 629l-64 -318l-49 -252h66l-66 -346h-100l55 287h-71l59 311l12 58q9 51 23 69l-2 2q-177 -71 -334 -71q-44 0 -80.5 5t-73.5 19.5t-62 38.5t-40.5 65t-15.5 95q0 50 12 115l47 239h106l-43 -225q-14 -69 -14 -113q0 -139 184 -139q124 0 326 72l18 88l62 317h106z
" />
    <glyph glyph-name="uni04B8" unicode="&#x4b8;" horiz-adv-x="1193" 
d="M1096 1434h116l-278 -1434h-117l119 604q5 36 20 62l-2 2q-192 -63 -354 -78l-57 -297h-72l57 293h-20q-371 0 -371 301q0 64 21 157l78 390h116l-84 -420q-10 -51 -10 -105q0 -120 68.5 -164.5t197.5 -44.5h27l63 328h72l-63 -323q135 14 348 77z" />
    <glyph glyph-name="uni04B9" unicode="&#x4b9;" horiz-adv-x="925" 
d="M764 946h106l-61 -317l-64 -318l-59 -311h-106l59 311l12 58q9 51 23 69l-2 2q-123 -52 -238 -65l-39 -201h-57l37 195h-37q-44 0 -80.5 5t-73.5 19.5t-62 38.5t-40.5 65t-15.5 95q0 50 12 115l47 239h106l-43 -225q-14 -69 -14 -113q0 -139 184 -139q6 0 18.5 1t18.5 1
l43 223h58l-41 -217q86 13 229 64l18 88z" />
    <glyph glyph-name="uni04BA" unicode="&#x4ba;" horiz-adv-x="1193" 
d="M471 1434l-119 -605q-5 -33 -18 -59l2 -4q238 82 444 82q371 0 371 -301q0 -63 -18 -158l-80 -389h-117l84 420q12 62 12 104q0 120 -69.5 165.5t-198.5 45.5q-93 0 -194 -19.5t-253 -64.5l-124 -651h-115l278 1434h115z" />
    <glyph glyph-name="uni04BB" unicode="&#x4bb;" horiz-adv-x="1134" 
d="M457 1464l-111 -561q-28 -135 -63 -239l8 -2q69 163 170.5 239t249.5 76q152 0 231.5 -81.5t79.5 -236.5q0 -65 -18 -157l-99 -502h-106l100 506q12 56 12 127q0 119 -60 182.5t-175 63.5q-161 0 -271 -118.5t-153 -336.5l-80 -424h-109l285 1464h109z" />
    <glyph glyph-name="uni04BC" unicode="&#x4bc;" horiz-adv-x="1853" 
d="M1020 -31q-129 0 -238.5 33t-186 89.5t-130.5 133t-79.5 163t-25.5 179.5q0 60 13 97l-2 2q-32 -11 -74 -11q-93 0 -145 49.5t-52 141.5q0 39 31 129h102q-28 -73 -28 -109q0 -55 30.5 -79.5t102.5 -24.5q35 0 45 -4l4 2q-2 31 10 78q79 290 291 458t510 168
q185 0 326 -64.5t224 -197t83 -317.5q0 -66 -29 -230h-1251q-38 0 -68 11l-2 -4q2 -14 2 -84q0 -98 34.5 -185.5t99.5 -157t171 -110.5t238 -41q295 0 528 219l78 -90q-273 -244 -612 -244zM500 756q31 6 73 6h1039q76 0 92 -8l6 4q-2 10 -1.5 18t1.5 34t0 50q0 160 -68 272
t-182.5 165t-265.5 53q-111 0 -208.5 -29t-170 -77.5t-130.5 -115.5t-96 -139.5t-61 -152.5q-13 -40 -30 -78z" />
    <glyph glyph-name="uni04BD" unicode="&#x4bd;" horiz-adv-x="1298" 
d="M707 -33q-214 0 -335.5 112.5t-121.5 309.5q0 54 12 78l-2 2q-19 -8 -63 -8q-158 0 -158 145q0 52 33 117h86q-27 -71 -27 -102q0 -72 72 -72q41 0 65 -8l4 2q-2 10 2 35q35 170 188.5 284.5t348.5 114.5q194 0 306 -102t112 -279q0 -45 -19 -135h-764q-64 0 -84 10
l-2 -2v-16q-4 -46 -4 -60q0 -154 92 -237.5t259 -83.5q109 0 197 40.5t188 137.5l71 -80q-115 -108 -220.5 -155.5t-235.5 -47.5zM379 535q25 14 80 14h577q50 0 84 -12l4 2q-2 14 -2 55q0 133 -84 209t-233 76q-160 0 -280 -96.5t-148 -245.5z" />
    <glyph glyph-name="uni04BE" unicode="&#x4be;" horiz-adv-x="1853" 
d="M551 655q-38 0 -68 11l-2 -4q2 -14 2 -84q0 -98 34.5 -185.5t99.5 -157t171 -110.5t238 -41q295 0 528 219l78 -90q-157 -141 -334 -201q-139 -93 -198.5 -148.5t-59.5 -107.5q0 -57 82 -57q50 0 111 14l-4 -80q-66 -16 -131 -16q-74 0 -114 31.5t-40 87.5q0 61 45 118
t137 121q-52 -6 -106 -6q-129 0 -238.5 33t-186 89.5t-130.5 133t-79.5 163t-25.5 179.5q0 60 13 97l-2 2q-32 -11 -74 -11q-93 0 -145 49.5t-52 141.5q0 39 31 129h102q-28 -73 -28 -109q0 -55 30.5 -79.5t102.5 -24.5q35 0 45 -4l4 2q-2 31 10 78q79 290 291 458t510 168
q185 0 326 -64.5t224 -197t83 -317.5q0 -66 -29 -230h-1251zM528 836q-13 -40 -30 -78l2 -2q31 6 73 6h1039q76 0 92 -8l6 4q-2 10 -1.5 18t1.5 34t0 50q0 160 -68 272t-182.5 165t-265.5 53q-111 0 -208.5 -29t-170 -77.5t-130.5 -115.5t-96 -139.5t-61 -152.5z" />
    <glyph glyph-name="uni04BF" unicode="&#x4bf;" horiz-adv-x="1298" 
d="M446 461q-64 0 -84 10l-2 -2v-16q-4 -46 -4 -60q0 -154 92 -237.5t259 -83.5q109 0 197 40.5t188 137.5l71 -80q-116 -110 -219 -156q-138 -90 -200 -148.5t-62 -109.5q0 -57 84 -57q50 0 111 14l-7 -80q-62 -16 -131 -16q-73 0 -112 31.5t-39 87.5q0 60 42.5 115.5
t131.5 117.5q-9 0 -27 -1t-28 -1q-214 0 -335.5 112.5t-121.5 309.5q0 54 12 78l-2 2q-19 -8 -63 -8q-158 0 -158 145q0 52 33 117h86q-27 -71 -27 -102q0 -72 72 -72q41 0 65 -8l4 2q-2 10 2 35q35 170 188.5 284.5t348.5 114.5q194 0 306 -102t112 -279q0 -45 -19 -135
h-764zM805 879q-160 0 -280 -96.5t-148 -245.5l2 -2q25 14 80 14h577q50 0 84 -12l4 2q-2 14 -2 55q0 133 -84 209t-233 76z" />
    <glyph glyph-name="uni04C0" unicode="&#x4c0;" horiz-adv-x="454" 
d="M473 1434l-278 -1434h-117l278 1434h117z" />
    <glyph glyph-name="uni04C1" unicode="&#x4c1;" horiz-adv-x="1867" 
d="M1124 1497q-114 0 -179.5 53.5t-65.5 149.5q0 21 8 67h82q-6 -27 -6 -51q0 -139 163 -139q187 0 228 190h86q-25 -132 -105.5 -201t-210.5 -69zM1921 1438q22 0 80 -4l-23 -109q-36 4 -57 4q-73 0 -122.5 -28.5t-82.5 -90.5l-129 -245q-56 -111 -121.5 -154.5
t-173.5 -48.5v-4q98 -5 143.5 -48.5t51.5 -144.5l20 -315q4 -80 40.5 -112t109.5 -32q11 0 74 5l-23 -111q-62 -4 -84 -4q-212 0 -223 219l-23 328q-4 88 -51.5 126t-150.5 38h-86q-50 0 -62 4l-4 -2q3 -37 -6 -86l-119 -623h-113l121 623q5 36 27 86l-2 2q-16 -4 -64 -4
h-90q-95 0 -153.5 -38t-98.5 -126l-157 -344q-47 -106 -120.5 -154.5t-185.5 -48.5q-24 0 -86 4l23 113q50 -4 68 -4q73 0 120.5 31t81.5 108l146 327q43 95 105 137.5t165 45.5v4q-101 5 -151.5 51t-63.5 154l-31 243q-9 65 -47.5 92t-109.5 27q-26 0 -62 -4l21 109
q54 4 73 4q101 0 157 -41t69 -137l37 -259q15 -107 65.5 -149.5t155.5 -42.5h90q37 0 61 -6l2 2q-3 35 6 82l107 547h113l-107 -547q-8 -38 -27 -82l3 -2q24 6 65 6h88q101 0 164 42t119 150l135 261q90 176 303 176z" />
    <glyph glyph-name="uni04C2" unicode="&#x4c2;" horiz-adv-x="1366" 
d="M786 1024q-111 0 -176 59t-65 162q0 33 6 68h86q-4 -36 -4 -51q0 -75 41.5 -114.5t118.5 -39.5q89 0 151 54t82 151h84q-24 -143 -110 -216t-214 -73zM1343 950h76l-20 -94h-58q-78 0 -127 -84l-75 -135q-42 -76 -95.5 -106t-134.5 -33l-2 -4q81 -3 121 -31t47 -94
l19 -179q6 -55 27.5 -77.5t66.5 -22.5h65l-20 -94h-80q-74 0 -112 39.5t-46 122.5l-14 155q-8 71 -41 103.5t-104 32.5h-50q-47 0 -63 4l-2 -2q3 -37 -6 -86l-72 -365h-61h-45l73 365q9 49 27 86l-2 2q-16 -4 -64 -4h-51q-63 0 -108.5 -34t-79.5 -104l-84 -172
q-68 -143 -217 -143h-84l18 94h64q48 0 78.5 23.5t56.5 76.5l88 179q31 66 81.5 94t131.5 31l2 4q-82 3 -123 32.5t-55 106.5l-23 135q-9 43 -31 63.5t-63 20.5h-57l18 94h76q59 0 94 -26t47 -86l33 -162q14 -73 48 -105t106 -32h49q47 0 63 -4l2 2q-3 35 6 81l64 328h63h43
l-63 -328q-6 -32 -27 -81l2 -2q16 4 64 4h51q65 0 104.5 31t81.5 106l97 162q66 112 206 112z" />
    <glyph glyph-name="uni04C3" unicode="&#x4c3;" horiz-adv-x="1212" 
d="M1262 1438q31 0 81 -4l-22 -111q-27 6 -57 6q-74 0 -123.5 -28.5t-81.5 -90.5l-127 -245q-48 -96 -116.5 -144t-184.5 -63v-4q243 -2 366 -68.5t123 -220.5q0 -68 -20 -170l-60 -307q-15 -78 -36 -136.5t-55.5 -109.5t-82 -83.5t-116 -50.5t-156.5 -18h-121l23 107h108
q141 0 216 73t104 220l59 305q18 94 18 131q0 51 -16 92t-43.5 70t-72 50t-93 33.5t-115.5 20t-130 10.5t-146 3q-49 0 -61 4l-5 -2q3 -37 -6 -86l-120 -621h-115l278 1434h115l-109 -557q-9 -54 -26 -82l2 -2q24 6 65 6h140q97 0 159.5 44t124.5 167l129 250
q48 93 123.5 135.5t182.5 42.5z" />
    <glyph glyph-name="uni04C4" unicode="&#x4c4;" horiz-adv-x="946" 
d="M285 -410l20 101h96q106 0 172 52.5t91 176.5l49 248q6 50 6 92q0 186 -281 186l-135 3q-47 0 -63 4l-2 -2q3 -33 -7 -86l-71 -365h-103l185 946h102l-63 -328q-7 -34 -27 -81l2 -2q16 4 63 4h117q69 0 114 31.5t87 105.5l96 162q63 112 193 112h75l-18 -94h-57
q-78 0 -125 -84l-78 -135q-46 -80 -94 -106.5t-137 -28.5l-3 -6q165 0 251.5 -52.5t86.5 -177.5q0 -38 -12 -102l-51 -258q-31 -160 -115.5 -238t-234.5 -78h-129z" />
    <glyph glyph-name="uni04C5" unicode="&#x4c5;" horiz-adv-x="1513" 
d="M1528 1434l-254 -1311h100l-217 -410h-102l141 287h-63l165 852l84 428q6 32 15 49v2q-16 -4 -56 -4h-690q-41 0 -51 4l-4 -2q4 -21 -2 -49l-78 -393l-119 -604q-29 -157 -103.5 -225t-215.5 -68q-68 0 -119 6l23 108q45 -4 108 -4q78 0 125.5 43.5t67.5 145.5l118 598
l107 547h1020z" />
    <glyph glyph-name="uni04C6" unicode="&#x4c6;" horiz-adv-x="1138" 
d="M1075 946l-160 -823h99l-217 -410h-103l142 287h-52l158 803q7 30 21 53l-2 2q-16 -8 -58 -8h-450q-42 0 -58 8l-2 -2q7 -20 0 -53l-20 -119l-88 -455q-25 -122 -88 -177.5t-177 -55.5h-83l18 96h76q59 0 95.5 36.5t53.5 117.5l86 438l49 262h760z" />
    <glyph glyph-name="uni04C7" unicode="&#x4c7;" horiz-adv-x="1431" 
d="M717 -410l20 113h92q164 0 203 203l150 760q6 34 16 51l-2 2q-24 -6 -55 -6h-760q-36 0 -51 6l-2 -2q0 -31 -4 -51l-129 -666h-117l278 1434h117l-111 -566q-4 -32 -14 -49v-4q14 6 55 6h760q39 0 51 -6l5 4q-4 19 2 49l110 566h117l-297 -1528q-31 -165 -112.5 -240.5
t-233.5 -75.5h-88z" />
    <glyph glyph-name="uni04C8" unicode="&#x4c8;" horiz-adv-x="1112" 
d="M948 946h107l-185 -946l-24 -125q-32 -162 -109 -224.5t-209 -62.5h-92l19 101h88q80 0 127 42.5t69 147.5l25 121l80 412q7 39 20 57l-2 2q-22 -10 -55 -10h-506q-35 0 -53 10l-2 -2q5 -19 -2 -57l-80 -412h-107l185 946h104l-65 -342q-6 -34 -19 -55l2 -2q20 10 55 10
h506q37 0 54 -10l2 2q-5 14 2 55z" />
    <glyph glyph-name="uni04C9" unicode="&#x4c9;" horiz-adv-x="1429" 
d="M1448 1434l-256 -1311h98l-217 -410h-102l141 287h-59l129 666q8 39 16 51l-2 2q-24 -6 -55 -6h-760q-36 0 -51 6l-2 -2q0 -31 -4 -51l-129 -666h-117l278 1434h117l-111 -566q-8 -38 -14 -49v-4q14 6 55 6h760q39 0 51 -6l5 4q-4 19 2 49l110 566h117z" />
    <glyph glyph-name="uni04CA" unicode="&#x4ca;" horiz-adv-x="1118" 
d="M1055 946l-160 -823h98l-219 -410h-100l141 287h-51l80 412q7 39 20 57l-2 2q-22 -10 -55 -10h-506q-35 0 -53 10l-2 -2q5 -19 -2 -57l-80 -412h-107l185 946h104l-65 -342q-6 -34 -19 -55l2 -2q20 10 55 10h506q37 0 54 -10l2 2q-5 14 2 55l65 342h107z" />
    <glyph glyph-name="uni04CB" unicode="&#x4cb;" horiz-adv-x="1193" 
d="M1212 1434l-278 -1434h-78l-55 -287h-111l70 361h71l105 530q5 36 20 62l-2 2q-242 -82 -446 -82q-371 0 -371 301q0 64 21 157l78 390h116l-84 -420q-10 -51 -10 -105q0 -120 68.5 -164.5t197.5 -44.5q169 0 447 82l125 652h116z" />
    <glyph glyph-name="uni04CC" unicode="&#x4cc;" horiz-adv-x="925" 
d="M764 946h106l-61 -317l-64 -318l-59 -311h-82l-55 -287h-98l67 346h72l49 252l12 58q9 51 23 69l-2 2q-177 -71 -334 -71q-44 0 -80.5 5t-73.5 19.5t-62 38.5t-40.5 65t-15.5 95q0 50 12 115l47 239h106l-43 -225q-14 -69 -14 -113q0 -139 184 -139q124 0 326 72l18 88z
" />
    <glyph glyph-name="uni04CD" unicode="&#x4cd;" horiz-adv-x="1800" 
d="M1622 123h100l-217 -410h-100l141 287h-30l-64 930q-10 150 4 233h-6q-4 -9 -17.5 -42t-21.5 -51.5t-27 -57t-43 -80.5l-553 -959h-12l-176 959q-18 109 -18 231h-7q-25 -109 -83 -233l-429 -930h-126l671 1462h13l186 -1054q15 -94 12 -191h8q39 106 86 191l596 1054h13
z" />
    <glyph glyph-name="uni04CE" unicode="&#x4ce;" horiz-adv-x="1363" 
d="M1182 123h104l-217 -410h-102l141 287h-14l-70 530q-14 112 -4 201h-6q-34 -85 -101 -199l-329 -548h-19l-123 546q-26 110 -26 199h-6q-22 -88 -78 -201l-277 -528h-121l496 965h19l135 -611q20 -100 20 -168h4q28 73 82 168l365 611h18z" />
    <glyph glyph-name="uni04CF" unicode="&#x4cf;" horiz-adv-x="403" 
d="M348 946l-184 -946h-107l185 946h106z" />
    <glyph glyph-name="uni04D0" unicode="&#x4d0;" horiz-adv-x="1361" 
d="M1186 1767q-25 -132 -105.5 -201t-210.5 -69q-114 0 -179.5 53.5t-65.5 149.5q0 21 8 67h82q-6 -27 -6 -51q0 -139 163 -139q187 0 228 190h86zM-63 0l929 1464h13l362 -1464h-117l-114 461h-648l-288 -461h-137zM414 557q58 4 114 4h353q56 0 114 -4v2q-21 41 -37 119
l-94 414q-23 120 -20 176h-4q-23 -67 -88 -176l-254 -414q-47 -76 -84 -119v-2z" />
    <glyph glyph-name="uni04D1" unicode="&#x4d1;" horiz-adv-x="1060" 
d="M637 1024q-111 0 -176.5 59t-65.5 162q0 33 6 68h86q-4 -36 -4 -51q0 -75 41.5 -114.5t118.5 -39.5q89 0 151.5 54t82.5 151h84q-24 -143 -110 -216t-214 -73zM406 -31q-160 0 -258.5 89t-98.5 235q0 157 110 253.5t292 96.5q144 0 237 -64.5t127 -168.5l6 2
q-2 18 13 108q18 105 18 154q0 105 -59.5 155t-188.5 50q-138 0 -323 -45l-23 98q169 45 350 45q348 0 348 -279q0 -46 -12 -123l-113 -575h-106q21 100 51 170l-8 2q-54 -98 -148 -150.5t-214 -52.5zM428 68q141 0 242.5 73.5t101.5 177.5q0 98 -88 162t-221 64
q-137 0 -218 -69.5t-81 -182.5q0 -104 70.5 -164.5t193.5 -60.5z" />
    <glyph glyph-name="uni04D2" unicode="&#x4d2;" horiz-adv-x="1361" 
d="M700 1747h123l-45 -225h-121zM1028 1747h123l-45 -225h-121zM-63 0l929 1464h13l362 -1464h-117l-114 461h-648l-288 -461h-137zM414 557q58 4 114 4h353q56 0 114 -4v2q-21 41 -37 119l-94 414q-23 120 -20 176h-4q-23 -67 -88 -176l-254 -414q-47 -76 -84 -119v-2z" />
    <glyph glyph-name="uni04D3" unicode="&#x4d3;" horiz-adv-x="1060" 
d="M600 1294l-43 -229h-125l43 229h125zM907 1294l-43 -229h-125l43 229h125zM406 -31q-160 0 -258.5 89t-98.5 235q0 157 110 253.5t292 96.5q144 0 237 -64.5t127 -168.5l6 2q-2 18 13 108q18 105 18 154q0 105 -59.5 155t-188.5 50q-138 0 -323 -45l-23 98q169 45 350 45
q348 0 348 -279q0 -46 -12 -123l-113 -575h-106q21 100 51 170l-8 2q-54 -98 -148 -150.5t-214 -52.5zM428 68q141 0 242.5 73.5t101.5 177.5q0 98 -88 162t-221 64q-137 0 -218 -69.5t-81 -182.5q0 -104 70.5 -164.5t193.5 -60.5z" />
    <glyph glyph-name="uni04D4" unicode="&#x4d4;" horiz-adv-x="1804" 
d="M1374 1327q-41 0 -53 4l-2 -2q3 -17 -4 -51l-76 -387q-7 -31 -16 -49l4 -2q12 4 53 4h504l-21 -107h-503q-42 0 -54 6l-2 -4q3 -15 -4 -49l-104 -534q-6 -30 -17 -52l2 -2q14 4 54 4h569l-21 -106h-727l82 414q7 35 15 51v2q-21 -6 -56 -6h-516l-403 -461h-141l1249 1434
h766l-19 -107h-559zM1016 561q41 0 53 -6l2 4q-3 14 4 49l123 615q11 50 31 120h-4q-29 -52 -84 -112l-516 -602q-46 -54 -86 -74l2 -4q37 10 112 10h363z" />
    <glyph glyph-name="uni04D5" unicode="&#x4d5;" horiz-adv-x="1837" 
d="M1257 -33q-160 0 -263 76.5t-130 222.5h-6q-113 -297 -444 -297q-161 0 -263 85.5t-102 236.5q0 150 105 251t292 101q145 0 239.5 -60t129.5 -161l6 2q-1 11 13 96q20 127 20 160q0 194 -242 194q-134 0 -329 -45l-25 101q186 47 358 47q67 0 119.5 -11t98.5 -36.5
t73 -73.5t31 -117h4q65 110 176 174t250 64q193 0 296 -107t103 -274q0 -58 -18 -135h-723q-55 0 -84 10l-2 -2v-16q-4 -40 -4 -60q0 -148 86 -234.5t242 -86.5q79 0 149.5 26.5t116.5 61.5t100 90l72 -80q-44 -44 -83.5 -75.5t-94.5 -63t-122 -48t-145 -16.5zM954 535
q32 14 82 14h539q54 0 84 -12l2 2v55q0 131 -78.5 208t-222.5 77q-75 0 -140 -22t-110 -57.5t-79 -81.5t-52.5 -91t-26.5 -90zM426 68q135 0 240.5 70.5t105.5 180.5q0 100 -89.5 163t-223.5 63q-76 0 -134.5 -22.5t-92.5 -60.5t-51 -82t-17 -91q0 -102 72 -161.5t190 -59.5
z" />
    <glyph glyph-name="uni04D6" unicode="&#x4d6;" horiz-adv-x="1050" 
d="M1104 1767q-25 -132 -105.5 -201t-210.5 -69q-114 0 -179.5 53.5t-65.5 149.5q0 21 8 67h82q-6 -27 -6 -51q0 -139 164 -139q186 0 227 190h86zM1145 1434l-21 -107h-624q-39 0 -51 4l-5 -2q4 -23 -4 -49l-73 -389q-6 -27 -17 -49l2 -2q14 4 54 4h561l-21 -107h-559
q-35 0 -53 6l-2 -2q3 -17 -4 -51l-105 -536q-6 -30 -16 -50l2 -2q12 4 53 4h635l-20 -106h-799l278 1434h789z" />
    <glyph glyph-name="uni04D7" unicode="&#x4d7;" horiz-adv-x="1118" 
d="M674 1024q-111 0 -176.5 59t-65.5 162q0 33 6 68h86q-4 -36 -4 -51q0 -75 41.5 -114.5t118.5 -39.5q89 0 151 54t82 151h84q-24 -143 -110 -216t-213 -73zM520 -33q-211 0 -327.5 116t-116.5 325q0 246 160 407.5t403 161.5q193 0 304.5 -102t111.5 -279q0 -58 -19 -135
h-760q-60 0 -83 10l-3 -2v-16q-4 -54 -4 -60q0 -150 90.5 -235.5t249.5 -85.5q108 0 198 41.5t185 136.5l72 -80q-109 -106 -219 -154.5t-242 -48.5zM205 535q28 14 82 14h575q40 0 84 -12l4 2q-2 14 -2 55q0 134 -83.5 209.5t-231.5 75.5q-158 0 -281.5 -98.5
t-148.5 -243.5z" />
    <glyph glyph-name="uni04D8" unicode="&#x4d8;" horiz-adv-x="1624" 
d="M922 1464q145 0 264.5 -39t209.5 -116.5t139.5 -202t49.5 -285.5q0 -241 -104.5 -435t-294.5 -305.5t-430 -111.5q-137 0 -251 38t-200 112.5t-134 196t-48 278.5q0 76 27 184h1249q45 0 74 -10l4 4q-9 14 -9 78q0 160 -73 274.5t-196.5 170t-285.5 55.5
q-286 0 -524 -193l-61 98q261 209 594 209zM1462 678q-31 -6 -86 -6h-1044q-76 0 -92 8l-7 -4q2 -4 2 -13t-1 -32t-1 -43q1 -130 42.5 -228.5t114.5 -157.5t166 -88.5t204 -29.5q95 0 180 21t149 54.5t119 79.5t93 93.5t67.5 98t45.5 91.5t24 76q14 55 26 78z" />
    <glyph glyph-name="uni04D9" unicode="&#x4d9;" horiz-adv-x="1118" 
d="M598 979q211 0 327.5 -115.5t116.5 -324.5q0 -246 -160 -408t-403 -162q-192 0 -304 102t-112 279q0 58 19 135h760q64 0 84 -10l2 2v17q4 54 4 59q0 151 -90 236t-250 85q-106 0 -196.5 -41.5t-186.5 -136.5l-72 80q111 106 220.5 154.5t240.5 48.5zM913 412
q-30 -15 -79 -15h-578q-37 0 -84 13l-2 -2v-56q0 -133 83.5 -208.5t231.5 -75.5q158 0 281.5 98.5t148.5 243.5z" />
    <glyph glyph-name="uni04DA" unicode="&#x4da;" horiz-adv-x="1624" 
d="M809 1747h123l-45 -225h-121zM1137 1747h123l-46 -225h-120zM922 1464q145 0 264.5 -39t209.5 -116.5t139.5 -202t49.5 -285.5q0 -241 -104.5 -435t-294.5 -305.5t-430 -111.5q-137 0 -251 38t-200 112.5t-134 196t-48 278.5q0 76 27 184h1249q45 0 74 -10l4 4
q-9 14 -9 78q0 160 -73 274.5t-196.5 170t-285.5 55.5q-286 0 -524 -193l-61 98q261 209 594 209zM1462 678q-31 -6 -86 -6h-1044q-76 0 -92 8l-7 -4q2 -4 2 -13t-1 -32t-1 -43q1 -130 42.5 -228.5t114.5 -157.5t166 -88.5t204 -29.5q95 0 180 21t149 54.5t119 79.5t93 93.5
t67.5 98t45.5 91.5t24 76q14 55 26 78z" />
    </font>
</defs>
</svg>
