<?xml version="1.0" standalone="no"?>
<!DOCTYPE svg PUBLIC "-//W3C//DTD SVG 1.1//EN" "http://www.w3.org/Graphics/SVG/1.1/DTD/svg11.dtd" >
<svg xmlns="http://www.w3.org/2000/svg" xmlns:xlink="http://www.w3.org/1999/xlink" version="1.1">
<metadata>
Created by FontForge 20170731 at Sat Jul 23 01:52:15 2022
 By Aleksey,,,
Copyright (c) 2015 by Reto Moser. All rights reserved.
</metadata>
<defs>
<font id="GTEestiProText-Thin" horiz-adv-x="1228" >
  <font-face 
    font-family="GT Eesti Pro Text Thin"
    font-weight="300"
    font-stretch="normal"
    units-per-em="2048"
    panose-1="0 0 4 0 0 0 0 0 0 0"
    ascent="1536"
    descent="-512"
    x-height="946"
    cap-height="1434"
    bbox="-786 -516 2275 1843"
    underline-thickness="102"
    underline-position="-307"
    unicode-range="U+0020-FB02"
  />
<missing-glyph horiz-adv-x="1576" 
d="M788 -31q-213 0 -384 96.5t-267 267.5t-96 384q0 160 56.5 299t155 237.5t237 154.5t298.5 56q214 0 385 -95.5t267 -266.5t96 -385q0 -213 -96 -384t-267 -267.5t-385 -96.5zM788 20q149 0 279 53.5t223 146.5t146 224.5t53 282.5l-105 133l-143 -61l-139 184l-162 -90
l-152 242l-151 -242l-162 90l-139 -184l-143 61l-105 -133q0 -201 90.5 -363t250.5 -253t359 -91zM578 651q-31 0 -51.5 20.5t-20.5 51.5t20.5 51.5t51.5 20.5t51 -20.5t20 -51.5t-20 -51.5t-51 -20.5zM997 651q-31 0 -51 20.5t-20 51.5t20 51.5t51 20.5t51.5 -20.5
t20.5 -51.5t-20.5 -51.5t-51.5 -20.5zM702 522l74 207q1 7 8.5 10t14.5 0q6 -2 9.5 -8.5t0.5 -13.5l-57 -160h69q8 0 13.5 -5.5t5.5 -12.5q0 -6 -6 -11.5t-13 -5.5h-119zM385 350q-61 0 -101 40t-40 102t40 101.5t101 39.5t101 -39.5t40 -101.5t-40 -102t-101 -40zM1190 350
q-61 0 -101 40t-40 102t39.5 101.5t101.5 39.5t101.5 -39.5t39.5 -101.5t-40 -102t-101 -40zM788 395q-95 0 -126 -61q-6 -12 -19 -12q-16 0 -16 18q0 35 49.5 63.5t111.5 28.5t112 -28.5t50 -63.5q0 -18 -16 -18q-13 0 -19 12q-31 61 -127 61z" />
    <glyph glyph-name="fi" unicode="fi" horiz-adv-x="1085" 
d="M600 1452v-98h-16q-110 0 -167 -59t-57 -201v-99q0 -33 -8 -57l2 -2q16 10 64 10h182v-96h-182q-44 0 -64 10l-2 -2q8 -20 8 -65v-793h-102v793q0 40 10 65l-4 2q-20 -10 -63 -10h-150v96h150q47 0 63 -10l4 2q-10 23 -10 55v101q0 97 25 168t69.5 111.5t100 59.5
t122.5 19h25zM936 1434v-267h-121v267h121zM928 946v-946h-105v946h105z" />
    <glyph glyph-name="fl" unicode="fl" horiz-adv-x="1083" 
d="M928 1464v-1464h-105v1464h105zM600 1452v-98h-16q-110 0 -167 -59t-57 -201v-99q0 -33 -8 -57l2 -2q16 10 64 10h182v-96h-182q-44 0 -64 10l-2 -2q8 -20 8 -65v-793h-102v793q0 40 10 65l-4 2q-20 -10 -63 -10h-150v96h150q47 0 63 -10l4 2q-10 23 -10 55v101
q0 97 25 168t69.5 111.5t100 59.5t122.5 19h25z" />
    <glyph glyph-name="f_f" unicode="ff" horiz-adv-x="1335" 
d="M600 1452v-98h-16q-110 0 -167 -59t-57 -201v-99q0 -33 -8 -57l2 -2q16 10 64 10h182v-96h-182q-44 0 -64 10l-2 -2q8 -20 8 -65v-793h-102v793q0 40 10 65l-4 2q-20 -10 -63 -10h-150v96h150q47 0 63 -10l4 2q-10 23 -10 55v101q0 97 25 168t69.5 111.5t100 59.5
t122.5 19h25zM1268 1452v-98h-17q-110 0 -166.5 -59t-56.5 -201v-99q0 -33 -8 -57l2 -2q16 10 63 10h183v-96h-183q-43 0 -63 10l-2 -2q8 -20 8 -65v-793h-102v793q0 40 10 65l-4 2q-20 -10 -64 -10h-149v96h149q48 0 64 -10l4 2q-10 23 -10 55v101q0 97 25 168t69.5 111.5
t100 59.5t122.5 19h25z" />
    <glyph glyph-name="f_f_i" unicode="ffi" horiz-adv-x="1753" 
d="M600 1452v-98h-16q-110 0 -167 -59t-57 -201v-99q0 -33 -8 -57l2 -2q16 10 64 10h182v-96h-182q-44 0 -64 10l-2 -2q8 -20 8 -65v-793h-102v793q0 40 10 65l-4 2q-20 -10 -63 -10h-150v96h150q47 0 63 -10l4 2q-10 23 -10 55v101q0 97 25 168t69.5 111.5t100 59.5
t122.5 19h25zM1268 1452v-98h-17q-110 0 -166.5 -59t-56.5 -201v-99q0 -33 -8 -57l2 -2q16 10 63 10h183v-96h-183q-43 0 -63 10l-2 -2q8 -20 8 -65v-793h-102v793q0 40 10 65l-4 2q-20 -10 -64 -10h-149v96h149q48 0 64 -10l4 2q-10 23 -10 55v101q0 97 25 168t69.5 111.5
t100 59.5t122.5 19h25zM1604 1434v-267h-121v267h121zM1595 946v-946h-104v946h104z" />
    <glyph glyph-name="f_f_l" unicode="ffl" horiz-adv-x="1751" 
d="M1595 1464v-1464h-104v1464h104zM600 1452v-98h-16q-110 0 -167 -59t-57 -201v-99q0 -33 -8 -57l2 -2q16 10 64 10h182v-96h-182q-44 0 -64 10l-2 -2q8 -20 8 -65v-793h-102v793q0 40 10 65l-4 2q-20 -10 -63 -10h-150v96h150q47 0 63 -10l4 2q-10 23 -10 55v101
q0 97 25 168t69.5 111.5t100 59.5t122.5 19h25zM1268 1452v-98h-17q-110 0 -166.5 -59t-56.5 -201v-99q0 -33 -8 -57l2 -2q16 10 63 10h183v-96h-183q-43 0 -63 10l-2 -2q8 -20 8 -65v-793h-102v793q0 40 10 65l-4 2q-20 -10 -64 -10h-149v96h149q48 0 64 -10l4 2
q-10 23 -10 55v101q0 97 25 168t69.5 111.5t100 59.5t122.5 19h25z" />
    <glyph glyph-name=".notdef" horiz-adv-x="1576" 
d="M788 -31q-213 0 -384 96.5t-267 267.5t-96 384q0 160 56.5 299t155 237.5t237 154.5t298.5 56q214 0 385 -95.5t267 -266.5t96 -385q0 -213 -96 -384t-267 -267.5t-385 -96.5zM788 20q149 0 279 53.5t223 146.5t146 224.5t53 282.5l-105 133l-143 -61l-139 184l-162 -90
l-152 242l-151 -242l-162 90l-139 -184l-143 61l-105 -133q0 -201 90.5 -363t250.5 -253t359 -91zM578 651q-31 0 -51.5 20.5t-20.5 51.5t20.5 51.5t51.5 20.5t51 -20.5t20 -51.5t-20 -51.5t-51 -20.5zM997 651q-31 0 -51 20.5t-20 51.5t20 51.5t51 20.5t51.5 -20.5
t20.5 -51.5t-20.5 -51.5t-51.5 -20.5zM702 522l74 207q1 7 8.5 10t14.5 0q6 -2 9.5 -8.5t0.5 -13.5l-57 -160h69q8 0 13.5 -5.5t5.5 -12.5q0 -6 -6 -11.5t-13 -5.5h-119zM385 350q-61 0 -101 40t-40 102t40 101.5t101 39.5t101 -39.5t40 -101.5t-40 -102t-101 -40zM1190 350
q-61 0 -101 40t-40 102t39.5 101.5t101.5 39.5t101.5 -39.5t39.5 -101.5t-40 -102t-101 -40zM788 395q-95 0 -126 -61q-6 -12 -19 -12q-16 0 -16 18q0 35 49.5 63.5t111.5 28.5t112 -28.5t50 -63.5q0 -18 -16 -18q-13 0 -19 12q-31 61 -127 61z" />
    <glyph glyph-name=".null" horiz-adv-x="0" 
 />
    <glyph glyph-name="nonmarkingreturn" horiz-adv-x="682" 
 />
    <glyph glyph-name="NULL" horiz-adv-x="30" 
 />
    <glyph glyph-name="NULL" horiz-adv-x="30" 
 />
    <glyph glyph-name="space" unicode=" " horiz-adv-x="653" 
 />
    <glyph glyph-name="exclam" unicode="!" horiz-adv-x="614" 
d="M270 412l-24 1022h125l-27 -1022h-74zM217 0v184h180v-184h-180z" />
    <glyph glyph-name="quotedbl" unicode="&#x22;" horiz-adv-x="532" 
d="M358 1464l-30 -518h-47l-15 215l-12 -215h-47l-33 518h184z" />
    <glyph glyph-name="numbersign" unicode="#" horiz-adv-x="1323" 
d="M1204 944h-262l-74 -405h262v-70h-274l-84 -469h-80l84 469h-319l-84 -469h-80l84 469h-258v70h270l74 405h-270v70h282l78 420h80l-78 -420h322l75 420h80l-78 -420h250v-70zM788 539l74 405h-319l-74 -405h319z" />
    <glyph glyph-name="dollar" unicode="$" horiz-adv-x="1005" 
d="M500 -168v80q0 40 6 65l-2 3q-18 -9 -58 -9q-84 5 -186 36.5t-184 80.5l51 94q107 -54 172 -75t156 -33q35 -6 47 -15l4 2q-6 29 -6 80v553l-111 78q-51 36 -86.5 67t-69.5 72.5t-51.5 91t-17.5 107.5q0 74 27 132t71.5 92t93.5 52.5t101 22.5q38 0 49 -8l2 2
q-8 33 -8 76v71h61v-71q0 -43 -8 -76l4 -2q22 11 59 8q102 -12 256 -74l-43 -96q-121 52 -221 66q-36 5 -51 20l-4 -4q8 -27 8 -61v-476l111 -77q62 -44 104 -80.5t80 -84t57 -103t19 -120.5q0 -143 -87 -233t-237 -111q-22 -3 -51 7l-2 -2q6 -25 6 -66v-82h-61zM502 813h2
q-4 35 -4 74v373q0 34 6 61l-2 2q-16 -13 -43 -18q-79 -10 -134 -56t-55 -131q0 -80 44 -138t147 -128q25 -14 39 -39zM559 61q23 18 49 21q108 19 161.5 81.5t53.5 151.5q0 49 -14.5 90.5t-45.5 78t-61.5 63t-78.5 61.5q-44 34 -68 60h-2q8 -33 8 -76v-449q0 -49 -6 -80z
" />
    <glyph glyph-name="percent" unicode="%" horiz-adv-x="1531" 
d="M424 772q-140 0 -231 91t-91 231q0 139 91 229t231 90t230.5 -90t90.5 -229q0 -140 -91 -231t-230 -91zM297 0l809 1382h82l-809 -1382h-82zM424 850q108 0 174 67t66 177q0 108 -66 174.5t-174 66.5q-109 0 -174.5 -66t-65.5 -175q0 -110 65.5 -177t174.5 -67zM1108 -10
q-140 0 -231 90t-91 229t91 230.5t231 91.5t231 -91.5t91 -230.5t-91 -229t-231 -90zM1108 68q109 0 174.5 66t65.5 175q0 110 -65.5 177t-174.5 67q-108 0 -174 -67t-66 -177q0 -109 66 -175t174 -66z" />
    <glyph glyph-name="ampersand" unicode="&#x26;" horiz-adv-x="1349" 
d="M895 1382l63 -98l-2 -4h-501q-54 0 -93 16l-2 -4l689 -954h2q0 22 22 55q66 107 133 279l101 -41q-71 -187 -160 -328q-27 -35 -43 -41v-2l182 -254v-6h-133l-123 176h-4q-27 -69 -157.5 -137t-288.5 -68q-213 0 -346.5 119.5t-133.5 325.5q0 167 90.5 283t255.5 180
q28 14 64 14l2 2l-346 479v8h729zM563 821h-4q-8 -21 -41 -33q-303 -112 -303 -366q0 -158 103 -252t264 -94q190 0 346 139q29 25 49 27v4z" />
    <glyph glyph-name="quotesingle" unicode="'" horiz-adv-x="352" 
d="M233 1464l-30 -518h-53l-31 518h114z" />
    <glyph glyph-name="parenleft" unicode="(" horiz-adv-x="604" 
d="M465 1550l84 -61q-168 -212 -252 -439t-84 -499q0 -269 84.5 -496.5t249.5 -431.5l-82 -63q-356 437 -356 991q0 161 28 307.5t80 270t111 222.5t137 199z" />
    <glyph glyph-name="parenright" unicode=")" horiz-adv-x="604" 
d="M180 1550q78 -100 137.5 -198.5t112 -222.5t81 -270.5t28.5 -307.5q0 -551 -359 -991l-82 63q166 204 251 431t85 497q0 271 -84.5 498t-251.5 440z" />
    <glyph glyph-name="asterisk" unicode="*" horiz-adv-x="849" 
d="M256 801l-74 55l197 242l-301 80l28 88l289 -113l-16 311h92l-18 -311l290 113l29 -86l-301 -80l199 -244l-74 -53l-170 262z" />
    <glyph glyph-name="plus" unicode="+" 
d="M649 1110v-467h465v-65h-465v-467h-69v467h-465v65h465v467h69z" />
    <glyph glyph-name="comma" unicode="," horiz-adv-x="438" 
d="M90 -342l88 528h148l-170 -528h-66z" />
    <glyph glyph-name="hyphen" unicode="-" horiz-adv-x="743" 
d="M635 612v-108h-526v108h526z" />
    <glyph glyph-name="period" unicode="." horiz-adv-x="421" 
d="M121 0v184h180v-184h-180z" />
    <glyph glyph-name="slash" unicode="/" horiz-adv-x="1177" 
d="M137 -162l-76 43l977 1659l78 -43z" />
    <glyph glyph-name="zero" unicode="0" horiz-adv-x="1198" 
d="M598 1413q225 0 358.5 -187t133.5 -534t-133.5 -535t-358.5 -188q-224 0 -356.5 188t-132.5 535t132 534t357 187zM598 1317q-175 0 -280 -166t-105 -459t105 -459.5t280 -166.5q176 0 280.5 166t104.5 460t-104.5 459.5t-280.5 165.5z" />
    <glyph glyph-name="one" unicode="1" horiz-adv-x="661" 
d="M459 1382v-1382h-105v961q0 70 3 101t14 77l-6 4q-19 -27 -78 -60l-193 -110v112l266 177l29 120h70z" />
    <glyph glyph-name="two" unicode="2" horiz-adv-x="1009" 
d="M528 1413q174 0 277.5 -92.5t103.5 -261.5q0 -202 -194 -420l-353 -397q-89 -104 -159 -152l4 -4q53 16 155 16h556l2 -4l-56 -98h-844l-2 6l619 701q164 181 164 346q0 127 -79.5 193.5t-197.5 66.5q-170 0 -370 -166l-60 82q210 184 434 184z" />
    <glyph glyph-name="three" unicode="3" horiz-adv-x="999" 
d="M473 1413q181 0 278 -88.5t97 -232.5q0 -104 -60.5 -183.5t-162.5 -111.5q-42 -15 -115 -21v-8q77 0 113 -10q133 -27 215 -117.5t82 -245.5q0 -193 -122 -309.5t-362 -116.5q-208 0 -385 101l37 98q93 -48 172 -73t170 -25q181 0 281 82.5t100 238.5q0 164 -118.5 242
t-375.5 78v100q189 0 305.5 69.5t116.5 194.5q0 116 -75 178t-207 62q-158 0 -334 -107l-45 90q197 115 395 115z" />
    <glyph glyph-name="four" unicode="4" horiz-adv-x="1124" 
d="M879 1382v-948q0 -35 -2 -49l2 -4q10 4 34 4h160l-41 -98h-119q-24 0 -34 2l-2 -2q2 -10 2 -43v-244h-103v240q0 35 2 47l-2 2q-14 -2 -41 -2h-696v86l733 1009h107zM776 1249q-18 -48 -61 -110l-492 -672q-49 -66 -67 -84l4 -6q36 8 88 8h469q41 0 61 -4l2 2
q-4 18 -4 61v697q0 67 8 106z" />
    <glyph glyph-name="five" unicode="5" horiz-adv-x="1021" 
d="M958 1382l-38 -102h-439q-39 0 -51 2l-2 -2q0 -34 -16 -94l-78 -260q-14 -44 -41 -84l2 -4q83 34 182 34q211 0 332 -113t121 -308q0 -224 -141 -353t-392 -129q-216 0 -379 103l39 98q174 -100 351 -100q102 0 182.5 29t130 80.5t75 118t25.5 144.5q0 161 -104.5 246.5
t-267.5 85.5q-117 0 -267 -43l-6 8l191 643h591z" />
    <glyph glyph-name="six" unicode="6" horiz-adv-x="1093" 
d="M768 1401l-272 -330q-102 -124 -153 -193.5t-97 -146.5l6 -4q76 98 155.5 135t174.5 37q199 0 323.5 -130t124.5 -329q0 -208 -133.5 -339.5t-341.5 -131.5q-95 0 -181 31.5t-153 90t-107 152t-40 208.5q0 244 202 499l359 451h133zM555 799q-164 0 -269.5 -103.5
t-105.5 -263.5q0 -161 105 -262.5t274 -101.5q161 0 262 101t101 267q0 161 -102 262t-265 101z" />
    <glyph glyph-name="seven" unicode="7" horiz-adv-x="882" 
d="M866 1382l2 -4l-628 -1378h-113l551 1190q32 74 47 94l-2 2q-36 -8 -107 -8h-583l39 104h794z" />
    <glyph glyph-name="eight" unicode="8" horiz-adv-x="1110" 
d="M555 -31q-214 0 -337.5 105.5t-123.5 287.5q0 147 83 246.5t226 124.5v8q-126 28 -197 113.5t-71 208.5q0 161 113.5 255.5t306.5 94.5t306.5 -94.5t113.5 -255.5q0 -123 -71 -208.5t-197 -113.5v-8q143 -25 226 -124.5t83 -246.5q0 -182 -123.5 -287.5t-337.5 -105.5z
M555 786q139 0 225 74.5t86 194.5q0 119 -84.5 189.5t-226.5 70.5t-226.5 -70.5t-84.5 -189.5q0 -120 86.5 -194.5t224.5 -74.5zM555 68q164 0 258 80t94 221q0 146 -94.5 230.5t-257.5 84.5q-162 0 -256 -84.5t-94 -230.5q0 -141 93 -221t257 -80z" />
    <glyph glyph-name="nine" unicode="9" horiz-adv-x="1052" 
d="M526 1413q96 0 181 -30.5t152 -89t106 -152t39 -211.5q0 -130 -47.5 -247t-149.5 -237l-365 -446h-129l279 340q152 182 227 285l-8 4q-129 -146 -315 -146q-198 0 -323.5 131.5t-125.5 329.5q0 209 134 339t345 130zM528 1313q-164 0 -268 -100.5t-104 -266.5
q0 -161 100.5 -260.5t263.5 -99.5q165 0 270 102t105 264q0 159 -101 260t-266 101z" />
    <glyph glyph-name="colon" unicode=":" horiz-adv-x="421" 
d="M121 762v184h180v-184h-180zM121 0v184h180v-184h-180z" />
    <glyph glyph-name="semicolon" unicode=";" horiz-adv-x="458" 
d="M166 762v184h180v-184h-180zM90 -342l88 528h148l-170 -528h-66z" />
    <glyph glyph-name="less" unicode="&#x3c;" 
d="M1059 1040v-77l-803 -351l803 -350v-76l-889 392v69z" />
    <glyph glyph-name="equal" unicode="=" 
d="M1133 819v-65h-1037v65h1037zM1133 471v-68h-1037v68h1037z" />
    <glyph glyph-name="greater" unicode="&#x3e;" 
d="M170 1040l889 -393v-69l-889 -392v76l803 350l-803 351v77z" />
    <glyph glyph-name="question" unicode="?" horiz-adv-x="778" 
d="M391 1464q144 0 227.5 -72.5t83.5 -197.5q0 -86 -38 -144.5t-103 -111.5l-123 -102q-44 -37 -66 -72.5t-22 -81.5q0 -64 38 -105.5t128 -101.5l-61 -86q-93 60 -128 95q-87 84 -87 196q0 130 114 223l119 98q61 49 90 89t29 96q0 84 -59.5 130t-151.5 46
q-130 0 -293 -113l-51 88q177 127 354 127zM307 0v184h180v-184h-180z" />
    <glyph glyph-name="at" unicode="@" horiz-adv-x="1935" 
d="M1006 -307q-135 0 -263.5 33.5t-241.5 103.5t-198 169.5t-134.5 240t-49.5 305.5q0 163 43.5 302.5t122 242.5t187 176t240 110t279.5 37q237 0 424 -95t294.5 -276t107.5 -421q0 -139 -34.5 -248t-109.5 -176.5t-182 -67.5q-79 0 -138 43t-69 133h-6q-92 -199 -328 -199
q-154 0 -249 85t-95 231q0 139 92.5 222t249.5 83q237 0 320 -188l6 2q-8 49 -8 133q-1 121 -65 176t-189 55t-283 -41l-20 94q182 41 303 41q174 0 260 -77.5t86 -245.5v-295q0 -83 39 -124.5t102 -41.5q110 0 168.5 111t58.5 288q0 166 -58.5 302t-159 224.5t-233.5 136.5
t-284 48q-126 0 -241.5 -31.5t-214 -96t-171.5 -156t-114 -218.5t-41 -276q0 -148 44 -274t120 -215.5t178 -152.5t218 -93.5t239 -30.5q226 0 422 94l34 -84q-220 -98 -458 -98zM965 195q125 0 203.5 64.5t78.5 160.5q0 94 -79 156.5t-203 62.5q-118 0 -186 -62.5
t-68 -156.5q0 -96 66.5 -160.5t187.5 -64.5z" />
    <glyph glyph-name="A" unicode="A" horiz-adv-x="1353" 
d="M29 0l641 1464h14l641 -1464h-125l-199 461h-649l-198 -461h-125zM383 557q36 4 115 4h356q79 0 115 -4l2 2q-31 45 -62 119l-174 412q-50 123 -55 176h-8q-6 -56 -54 -176l-174 -412q-32 -77 -61 -119v-2z" />
    <glyph glyph-name="B" unicode="B" horiz-adv-x="1271" 
d="M170 0v1434h498q185 0 291 -93t106 -256q0 -207 -180 -290q-65 -24 -129 -31v-8q60 0 131 -15q132 -32 201 -121.5t69 -226.5q0 -185 -124 -289t-345 -104h-518zM279 799q10 4 53 4h276q161 0 249.5 72.5t88.5 203.5q0 120 -74 184t-213 64h-327q-43 0 -53 4l-3 -2
q7 -21 7 -49v-430q0 -28 -7 -49zM279 102q10 4 53 4h348q356 0 356 291q0 149 -97.5 226t-287.5 77h-319q-41 0 -53 7l-3 -5q7 -18 7 -49v-499q0 -29 -7 -50z" />
    <glyph glyph-name="C" unicode="C" horiz-adv-x="1429" 
d="M850 -31q-342 0 -552 206.5t-210 541.5t210 541t552 206q274 0 498 -164l-70 -96q-105 77 -207 112.5t-223 35.5q-284 0 -461.5 -176.5t-177.5 -458.5t177.5 -458.5t461.5 -176.5q121 0 223 35t207 112l70 -96q-224 -164 -498 -164z" />
    <glyph glyph-name="D" unicode="D" horiz-adv-x="1415" 
d="M604 1434q216 0 380.5 -89t254.5 -252t90 -376t-90 -376t-254.5 -252t-380.5 -89h-434v1434h434zM279 1331l-3 -2q7 -21 7 -49v-1126q0 -29 -7 -50l3 -2q10 4 53 4h272q275 0 439.5 166.5t164.5 444.5t-165 444t-439 166h-272q-43 0 -53 4z" />
    <glyph glyph-name="E" unicode="E" horiz-adv-x="1046" 
d="M956 1434v-107h-624q-41 0 -53 4l-3 -2q7 -21 7 -49v-389q0 -28 -7 -49l3 -2q12 4 53 4h559v-107h-559q-35 0 -53 6l-3 -2q7 -21 7 -51v-536q0 -29 -7 -50l3 -2q12 4 53 4h633v-106h-795v1434h786z" />
    <glyph glyph-name="F" unicode="F" horiz-adv-x="1038" 
d="M965 1434v-107h-633q-41 0 -53 4l-3 -2q7 -21 7 -49v-426q0 -30 -7 -51l3 -2q18 6 53 6h577v-109h-577q-32 0 -53 7l-3 -3q7 -21 7 -51v-651h-113v1434h795z" />
    <glyph glyph-name="G" unicode="G" horiz-adv-x="1644" 
d="M852 1464q150 0 279.5 -46.5t257.5 -141.5l-74 -98q-116 89 -228.5 131.5t-240.5 42.5q-279 0 -458 -181.5t-179 -461.5q0 -180 81 -323.5t227 -223.5t331 -80q124 0 227.5 37.5t171 97t115 135.5t68.5 150.5t22 144.5l-2 2q-32 -14 -139 -14h-463v106h723v-45
q0 -105 -27 -207t-85 -196.5t-141 -166t-205 -114.5t-267 -43q-219 0 -391.5 93t-269.5 262t-97 385q0 165 56 305t155.5 239t242 155t310.5 56z" />
    <glyph glyph-name="H" unicode="H" horiz-adv-x="1423" 
d="M1255 1434v-1434h-112v666q0 33 6 51l-4 2q-18 -6 -51 -6h-762q-35 0 -53 6l-3 -2q7 -21 7 -51v-666h-113v1434h113v-566q0 -32 -7 -49l3 -4q12 6 53 6h762q39 0 51 -6l4 4q-6 15 -6 49v566h112z" />
    <glyph glyph-name="I" unicode="I" horiz-adv-x="450" 
d="M283 1434v-1434h-113v1434h113z" />
    <glyph glyph-name="J" unicode="J" horiz-adv-x="559" 
d="M391 1434v-1143q0 -155 -63 -228t-197 -73q-14 0 -80 4v110q62 -4 70 -4q81 0 119.5 45t38.5 144v1145h112z" />
    <glyph glyph-name="K" unicode="K" horiz-adv-x="1187" 
d="M1098 1434l-539 -531q-63 -64 -92.5 -91t-63.5 -48v-2q19 -11 37.5 -25.5t29.5 -25.5l40.5 -40.5t48.5 -47.5l619 -623h-164l-742 748l-2 -3q13 -99 13 -241v-504h-113v1434h113v-416q0 -146 -13 -242l2 -4l666 662h160z" />
    <glyph glyph-name="L" unicode="L" horiz-adv-x="1007" 
d="M283 1434v-1278q0 -31 -7 -52l3 -2q21 7 53 7h647v-109h-809v1434h113z" />
    <glyph glyph-name="M" unicode="M" horiz-adv-x="1755" 
d="M872 -27l-362 967q-51 138 -64 231h-8q-3 -102 -39 -233l-245 -938h-117l383 1462h14l391 -1046q29 -79 49 -193h9q16 108 47 193l391 1046h14l383 -1462h-116l-246 938q-36 131 -39 233h-8q-12 -91 -62 -231l-364 -967h-11z" />
    <glyph glyph-name="N" unicode="N" horiz-adv-x="1443" 
d="M184 1454l877 -1063q93 -119 113 -164l4 2q-17 111 -17 258v947h113v-1454h-14l-877 1062q-93 119 -113 164l-4 -2q17 -110 17 -258v-946h-113v1454h14z" />
    <glyph glyph-name="O" unicode="O" horiz-adv-x="1669" 
d="M836 1464q160 0 299 -56t237.5 -154.5t154.5 -237.5t56 -299q0 -214 -95.5 -385t-266.5 -267t-385 -96t-385 96t-267 267t-96 385t96 385t267 266.5t385 95.5zM836 1352q-275 0 -451 -178.5t-176 -456.5t176 -456.5t451 -178.5q180 0 323 81t223 226t80 328t-80 328
t-223 226t-323 81z" />
    <glyph glyph-name="P" unicode="P" horiz-adv-x="1075" 
d="M610 1434q191 0 305.5 -104.5t114.5 -280.5q0 -175 -113.5 -279t-302.5 -104h-282q-43 0 -53 6l-3 -4q7 -17 7 -50v-618h-113v1434h440zM279 1331l-3 -2q7 -21 7 -49v-459q0 -30 -7 -51l3 -2q10 4 53 4h278q140 0 220.5 74.5t80.5 202.5q0 129 -80 203.5t-221 74.5h-278
q-43 0 -53 4z" />
    <glyph glyph-name="Q" unicode="Q" horiz-adv-x="1667" 
d="M836 -6q-214 0 -384.5 94t-267 262.5t-96.5 380.5t95 379.5t265.5 260.5t385.5 93q217 0 387.5 -93t265 -259.5t94.5 -378.5q0 -257 -168 -446q-147 -166 -362 -219l2 -9q224 37 321 37h178v-102h-716zM836 109q180 0 322.5 79t222 221t79.5 322q0 275 -173.5 448
t-452.5 173q-278 0 -451.5 -173.5t-173.5 -447.5q0 -181 80 -323t222.5 -220.5t324.5 -78.5z" />
    <glyph glyph-name="R" unicode="R" horiz-adv-x="1181" 
d="M627 1434q186 0 294.5 -99.5t108.5 -269.5q0 -166 -107.5 -265.5t-277.5 -99.5q-34 0 -67 11v-9q45 -28 88 -79l481 -623h-148l-536 696h-133q-41 0 -51 4l-3 -2q7 -21 7 -51v-647h-113v1434h457zM279 1331l-3 -2q7 -21 7 -49v-430q0 -28 -7 -49l3 -2q10 4 53 4h297
q134 0 208 69t74 193q0 122 -74 192t-208 70h-297q-43 0 -53 4z" />
    <glyph glyph-name="S" unicode="S" horiz-adv-x="1001" 
d="M518 1464q164 0 350 -86l-53 -108q-163 82 -295 82q-124 0 -192 -53.5t-68 -147.5q0 -70 42.5 -128t146.5 -132l217 -156q139 -98 198.5 -188t59.5 -207q0 -174 -117 -272.5t-318 -98.5q-119 0 -234 34.5t-208 94.5l57 105q189 -121 385 -121q147 0 231.5 68t84.5 184
q0 82 -48.5 151t-164.5 152l-225 164q-123 87 -174.5 166t-51.5 182q0 148 99.5 231.5t277.5 83.5z" />
    <glyph glyph-name="T" unicode="T" horiz-adv-x="1046" 
d="M1026 1434v-109h-397q-36 0 -54 6l-2 -2q7 -21 7 -51v-1278h-113v1278q0 33 6 51l-2 2q-21 -6 -53 -6h-398v109h1006z" />
    <glyph glyph-name="U" unicode="U" horiz-adv-x="1390" 
d="M1233 1434v-912q0 -257 -144.5 -405t-394.5 -148q-249 0 -393.5 148.5t-144.5 404.5v912h118v-895q0 -213 112 -334t308 -121q197 0 309.5 121t112.5 334v895h117z" />
    <glyph glyph-name="V" unicode="V" horiz-adv-x="1234" 
d="M1221 1434l-596 -1463h-13l-596 1463h131l400 -1014q50 -130 67 -230h9q12 89 67 230l397 1014h134z" />
    <glyph glyph-name="W" unicode="W" horiz-adv-x="1931" 
d="M973 1462l325 -960q52 -151 74 -271h8q19 117 70 267l313 936h131l-512 -1463h-12l-356 1030q-37 113 -45 187h-8q-5 -72 -43 -187l-357 -1030h-12l-512 1463h131l311 -936q52 -146 72 -267h8q22 120 74 271l323 960h17z" />
    <glyph glyph-name="X" unicode="X" horiz-adv-x="1208" 
d="M1126 1434l-352 -533q-65 -100 -100 -143v-4q14 -16 29 -36t24.5 -34.5t37 -54.5t44.5 -66l371 -563h-142l-358 549q-60 98 -72 133h-8q-14 -44 -74 -133l-358 -549h-139l370 563q102 153 136 191v4q-21 26 -103 143l-352 533h141l291 -449q76 -116 88 -151h8
q11 33 86 151l293 449h139z" />
    <glyph glyph-name="Y" unicode="Y" horiz-adv-x="1110" 
d="M1083 1434l-473 -883v-551h-112v551l-471 883h139l311 -609q39 -75 52.5 -108t23.5 -82h4q10 48 23 81.5t51 108.5l311 609h141z" />
    <glyph glyph-name="Z" unicode="Z" horiz-adv-x="1185" 
d="M1130 1434l3 -4l-900 -1334l3 -4q43 21 180 21h731l-57 -113h-1053v6l903 1335l-2 5q-65 -25 -190 -25h-631l57 113h956z" />
    <glyph glyph-name="bracketleft" unicode="[" horiz-adv-x="645" 
d="M610 1528v-92h-235q-39 0 -60 6l-2 -2q9 -21 9 -56v-1685q0 -34 -9 -55l2 -2q14 6 60 6h235v-92h-389v1972h389z" />
    <glyph glyph-name="backslash" unicode="\" horiz-adv-x="1175" 
d="M139 1540l975 -1657l-76 -43l-977 1657z" />
    <glyph glyph-name="bracketright" unicode="]" horiz-adv-x="645" 
d="M37 1528h389v-1972h-389v92h233q46 0 60 -6l2 2q-8 28 -8 55v1685q0 28 8 56l-2 2q-21 -6 -60 -6h-233v92z" />
    <glyph glyph-name="asciicircum" unicode="^" 
d="M674 1464l303 -659h-98l-265 581l-264 -581h-98l303 659h119z" />
    <glyph glyph-name="underscore" unicode="_" horiz-adv-x="1122" 
d="M1087 -31v-90h-1050v90h1050z" />
    <glyph glyph-name="grave" unicode="`" horiz-adv-x="530" 
d="M240 1448l188 -305v-10h-82l-244 307v8h138z" />
    <glyph glyph-name="a" unicode="a" horiz-adv-x="1038" 
d="M520 977q195 0 287 -90t92 -279v-608h-102q0 80 12 186l-4 2q-46 -102 -144 -160.5t-223 -58.5q-165 0 -266.5 93.5t-101.5 244.5q0 154 101 245t271 91q124 0 222 -57t139 -152l6 4q-7 25 -8.5 50t-1.5 114q-1 139 -70.5 205.5t-210.5 66.5q-140 0 -317 -57l-31 103
q196 57 350 57zM461 547q-126 0 -202.5 -67t-76.5 -177q0 -107 76.5 -172t202.5 -65q134 0 225.5 69t91.5 170t-92 171.5t-225 70.5z" />
    <glyph glyph-name="b" unicode="b" horiz-adv-x="1230" 
d="M672 -31q-152 0 -261 73.5t-165 211.5l-8 -2q20 -82 20 -252h-102v1464h104v-518q0 -181 -16 -254l6 -4q53 140 161.5 214.5t260.5 74.5q211 0 343 -140t132 -364t-132 -364t-343 -140zM664 74q169 0 270.5 108.5t101.5 288.5q0 182 -104 291.5t-277 109.5
q-179 0 -291 -111t-112 -288q0 -178 114.5 -288.5t297.5 -110.5z" />
    <glyph glyph-name="c" unicode="c" horiz-adv-x="983" 
d="M594 -31q-227 0 -368.5 140t-141.5 364t141.5 364t368.5 140q175 0 321 -92l-51 -92q-134 81 -274 81q-172 0 -283.5 -113t-111.5 -288q0 -174 112 -287.5t283 -113.5q139 0 274 82l51 -93q-146 -92 -321 -92z" />
    <glyph glyph-name="d" unicode="d" horiz-adv-x="1230" 
d="M559 -31q-211 0 -343 140t-132 364t132 364t343 140q152 0 261.5 -75t160.5 -214l6 4q-16 73 -16 254v518h104v-1464h-102q0 158 20 252l-8 2q-56 -138 -165 -211.5t-261 -73.5zM569 74q182 0 296 110.5t114 288.5q0 177 -112.5 288t-291.5 111q-173 0 -276.5 -109.5
t-103.5 -291.5q0 -180 102.5 -288.5t271.5 -108.5z" />
    <glyph glyph-name="e" unicode="e" horiz-adv-x="1103" 
d="M567 977q207 0 329 -133t122 -359v-24h-742q-66 0 -86 10l-2 -2l5 -18q3 -175 106.5 -278t275.5 -103q108 0 190.5 44t160.5 144l73 -68q-162 -221 -426 -221q-223 0 -356 138t-133 368q0 229 131.5 365.5t351.5 136.5zM565 879q-159 0 -258.5 -91.5t-113.5 -250.5l2 -2
q25 14 84 14h534q55 0 92 -12l2 2q-12 162 -101.5 251t-240.5 89z" />
    <glyph glyph-name="f" unicode="f" horiz-adv-x="667" 
d="M600 1452v-98h-16q-110 0 -167 -59t-57 -201v-99q0 -33 -8 -57l2 -2q16 10 64 10h182v-96h-182q-44 0 -64 10l-2 -2q8 -20 8 -65v-793h-102v793q0 40 10 65l-4 2q-20 -10 -63 -10h-150v96h150q47 0 63 -10l4 2q-10 23 -10 55v101q0 97 25 168t69.5 111.5t100 59.5
t122.5 19h25z" />
    <glyph glyph-name="g" unicode="g" horiz-adv-x="1212" 
d="M561 977q150 0 258.5 -74.5t161.5 -212.5l6 4q-16 78 -16 252h102v-936q0 -221 -127.5 -335.5t-374.5 -114.5q-235 0 -415 108l53 94q98 -54 184 -77t185 -23q193 0 294 89.5t101 262.5v52q0 113 18 186l-8 2q-59 -139 -166 -212t-254 -73q-214 0 -346.5 139t-132.5 365
q0 225 132 364.5t345 139.5zM578 872q-175 0 -279 -109t-104 -292q0 -182 103 -289.5t275 -107.5q179 0 292.5 111t113.5 288q0 175 -112 287t-289 112z" />
    <glyph glyph-name="h" unicode="h" horiz-adv-x="1130" 
d="M260 1464v-561q0 -160 -16 -248l8 -4q83 326 381 326q173 0 266.5 -104.5t93.5 -299.5v-573h-104v561q0 149 -72.5 232.5t-202.5 83.5q-166 0 -260 -120.5t-94 -332.5v-424h-104v1464h104z" />
    <glyph glyph-name="i" unicode="i" horiz-adv-x="417" 
d="M268 1434v-267h-121v267h121zM260 946v-946h-104v946h104z" />
    <glyph glyph-name="j" unicode="j" horiz-adv-x="417" 
d="M268 1434v-267h-121v267h121zM260 946v-1087q0 -299 -285 -299h-18v104h20q88 0 133.5 46.5t45.5 148.5v1087h104z" />
    <glyph glyph-name="k" unicode="k" horiz-adv-x="925" 
d="M260 1464v-708q0 -135 -16 -226l4 -4l442 420h156l-387 -348q-73 -70 -105 -84l4 -2q41 -23 109 -86l444 -426h-151l-512 498l-4 -4q16 -91 16 -228v-266h-104v1464h104z" />
    <glyph glyph-name="l" unicode="l" horiz-adv-x="417" 
d="M260 1464v-1464h-104v1464h104z" />
    <glyph glyph-name="m" unicode="m" horiz-adv-x="1669" 
d="M150 0v946h102q0 -168 -19 -252l9 -2q32 141 116 213t213 72q127 0 203 -68.5t98 -201.5h9q22 127 108.5 198.5t220.5 71.5q154 0 238 -98t84 -279v-600h-105v580q0 146 -62.5 221.5t-184.5 75.5q-141 0 -215 -98.5t-74 -286.5v-492h-103v580q0 146 -62.5 221.5
t-184.5 75.5q-140 0 -214.5 -99t-74.5 -286v-492h-102z" />
    <glyph glyph-name="n" unicode="n" horiz-adv-x="1122" 
d="M623 977q176 0 269 -104t93 -300v-573h-104v561q0 150 -72 233t-203 83q-166 0 -260 -120.5t-94 -332.5v-424h-102v946h102q0 -201 -19 -301l9 -4q85 336 381 336z" />
    <glyph glyph-name="o" unicode="o" horiz-adv-x="1183" 
d="M592 977q223 0 365.5 -141.5t142.5 -362.5q0 -220 -143 -362t-365 -142q-221 0 -364.5 142t-143.5 362q0 221 143 362.5t365 141.5zM592 874q-174 0 -285.5 -112t-111.5 -289q0 -175 112 -288t285 -113t285 113t112 288q0 177 -111.5 289t-285.5 112z" />
    <glyph glyph-name="p" unicode="p" horiz-adv-x="1222" 
d="M664 977q211 0 343 -140t132 -364t-132 -364t-343 -140q-151 0 -259.5 73.5t-164.5 211.5l-9 -2q21 -86 21 -201v-461h-102v1356h100q0 -183 -14 -260l6 -2q53 140 162.5 216.5t259.5 76.5zM649 872q-180 0 -292.5 -111t-112.5 -288q0 -178 114 -288.5t297 -110.5
q169 0 271 108.5t102 288.5q0 182 -103.5 291.5t-275.5 109.5z" />
    <glyph glyph-name="q" unicode="q" horiz-adv-x="1224" 
d="M559 977q151 0 260 -76.5t162 -216.5l6 2q-14 77 -14 260h102v-1356h-104v461q0 123 22 201l-8 2q-57 -139 -165.5 -212t-260.5 -73q-211 0 -343 140t-132 364t132 364t343 140zM575 872q-173 0 -276.5 -109.5t-103.5 -291.5q0 -180 102.5 -288.5t271.5 -108.5
q182 0 296 110.5t114 288.5q0 177 -112.5 288t-291.5 111z" />
    <glyph glyph-name="r" unicode="r" horiz-adv-x="665" 
d="M563 977q29 0 72 -6v-119q-58 8 -80 8q-145 0 -224 -127.5t-79 -359.5v-373h-102v946h102q0 -215 -21 -325l11 -5q32 183 111.5 272t209.5 89z" />
    <glyph glyph-name="s" unicode="s" horiz-adv-x="849" 
d="M444 -31q-218 0 -395 121l53 90q159 -110 347 -110q106 0 165.5 41t59.5 114q0 52 -37 92.5t-117 75.5l-178 82q-109 51 -160 113.5t-51 146.5q0 114 83 178t232 64q165 0 314 -76l-47 -94q-143 70 -267 70q-98 0 -151 -36.5t-53 -101.5q0 -54 36 -94t121 -78l170 -78
q115 -53 165 -114t50 -150q0 -120 -89.5 -188t-250.5 -68z" />
    <glyph glyph-name="t" unicode="t" horiz-adv-x="620" 
d="M360 1452v-446q0 -39 -10 -68l4 -2q16 10 64 10h143v-96h-143q-44 0 -64 10l-4 -2q10 -25 10 -65v-793h-102v793q0 45 8 65l-2 2q-20 -10 -63 -10h-142v96h142q47 0 63 -10l2 2q-8 23 -8 68v362l96 84h6z" />
    <glyph glyph-name="u" unicode="u" horiz-adv-x="1077" 
d="M938 946v-946h-102q0 202 18 291l-8 4q-40 -165 -131 -245.5t-238 -80.5q-168 0 -258 107t-90 305v565h109v-557q0 -152 69.5 -235.5t196.5 -83.5q154 0 242 120.5t88 331.5v424h104z" />
    <glyph glyph-name="v" unicode="v" horiz-adv-x="956" 
d="M936 946l-447 -964h-22l-447 964h127l254 -575q4 -10 18 -43t17 -40t12 -30.5t12 -34.5t8 -29.5t9 -37.5h4q2 12 4.5 23t4.5 19.5t5.5 20t5.5 18t7.5 20t7 18.5t8.5 21.5t9.5 21.5t11.5 25.5t12 27.5l252 575h127z" />
    <glyph glyph-name="w" unicode="w" horiz-adv-x="1449" 
d="M401 -18l-381 964h121l219 -586q41 -108 48 -184h8q9 69 55 184l244 605h18l244 -605q48 -112 57 -184h8q4 69 48 184l217 586h123l-383 -964h-19l-254 622q-24 57 -32 88.5t-13 79.5h-8q-8 -76 -45 -168l-256 -622h-19z" />
    <glyph glyph-name="x" unicode="x" horiz-adv-x="940" 
d="M20 0l330 432q39 50 53 62v6q-20 16 -59 67l-287 379h125l224 -289q43 -55 61 -108h6q15 44 62 108l223 289h125l-287 -379q-39 -51 -59 -67v-6q14 -12 53 -62l330 -432h-127l-258 334q-46 58 -62 104h-6q-16 -46 -59 -104l-261 -334h-127z" />
    <glyph glyph-name="y" unicode="y" horiz-adv-x="950" 
d="M930 946l-596 -1356h-109l209 480l-414 876h121l275 -602q35 -76 48 -114.5t19 -86.5h9q7 75 63 199l262 604h113z" />
    <glyph glyph-name="z" unicode="z" horiz-adv-x="921" 
d="M31 0l-4 10l680 852l-5 4q-36 -16 -73 -20t-131 -4h-420l63 104h744l4 -8l-676 -852l4 -4q34 15 66 18.5t112 3.5h492l-70 -104h-786z" />
    <glyph glyph-name="braceleft" unicode="{" horiz-adv-x="757" 
d="M186 559q136 -13 197 -82t61 -201v-374q0 -130 57 -188t177 -58h43v-100h-49q-168 0 -249 84t-81 262v377q0 114 -58.5 168.5t-195.5 60.5v113q138 6 196 59.5t58 167.5v334q0 178 81 262t249 84h49v-98h-43q-120 0 -177 -59t-57 -189v-332q0 -132 -61 -201t-197 -82v-8z
" />
    <glyph glyph-name="bar" unicode="|" horiz-adv-x="569" 
d="M242 -440v1929h86v-1929h-86z" />
    <glyph glyph-name="braceright" unicode="}" horiz-adv-x="757" 
d="M569 559v8q-135 13 -196.5 82t-61.5 201v332q0 130 -56 189t-175 59h-43v98h47q169 0 250.5 -84t81.5 -262v-334q0 -114 58 -167.5t196 -59.5v-113q-137 -6 -195.5 -60.5t-58.5 -168.5v-377q0 -178 -81.5 -262t-250.5 -84h-47v100h43q119 0 175 58t56 188v374
q0 132 61.5 201t196.5 82z" />
    <glyph glyph-name="asciitilde" unicode="~" 
d="M379 741q67 0 134.5 -23t114.5 -50.5t109 -50.5t119 -23q66 0 123.5 28.5t120.5 82.5l57 -82q-152 -129 -307 -129q-67 0 -134.5 23t-114.5 50.5t-109 50.5t-119 23q-67 0 -124 -28.5t-120 -82.5l-57 82q155 129 307 129z" />
    <glyph glyph-name="exclamdown" unicode="&#xa1;" horiz-adv-x="614" 
d="M217 1012h180v-185h-180v185zM270 602h74l27 -1024h-125z" />
    <glyph glyph-name="cent" unicode="&#xa2;" horiz-adv-x="1015" 
d="M573 -135v39q0 58 9 78l-2 2q-24 -15 -84 -2q-178 34 -282.5 166t-104.5 325q0 198 110.5 332.5t296.5 163.5q47 8 66 -6l2 2q-11 22 -11 73v45h62v-45q0 -50 -10 -73l2 -2q18 14 57 10q140 -16 254 -99l-55 -88q-98 67 -201 82q-41 5 -55 21h-2q10 -20 10 -90v-639
q0 -81 -10 -101l2 -2q14 13 73 23q101 23 183 80l55 -88q-110 -81 -238 -97q-53 -8 -73 9l-2 -2q10 -16 10 -78v-39h-62zM580 57l2 2q-9 28 -9 101v639q0 66 11 88h-2q-22 -15 -74 -25q-135 -35 -213 -140.5t-78 -248.5q0 -142 78 -249t211 -140q60 -13 74 -27z" />
    <glyph glyph-name="sterling" unicode="&#xa3;" horiz-adv-x="1114" 
d="M709 -29q-73 0 -173.5 39t-144.5 39q-67 0 -170 -59l-55 92q102 62 166.5 154.5t64.5 201.5q0 49 -18 104.5t-31.5 82t-54.5 102.5h-195v61h121q35 0 53 -10l2 2q-13 11 -32 49q-43 91 -43 209q0 168 110 271.5t301 103.5q195 0 363 -119l-60 -90q-143 107 -305 107
q-137 0 -219 -76t-82 -199q0 -99 78 -248h465v-61h-373q-51 0 -71 10v-2q44 -67 72 -149t28 -154q0 -45 -12 -86.5t-28 -70.5t-42.5 -59.5t-44.5 -47t-44 -38.5q-9 -8 -13 -11l2 -6q57 28 110 28q47 0 126.5 -34.5t139.5 -34.5q137 0 273 143l65 -88q-69 -71 -154 -113.5
t-175 -42.5z" />
    <glyph glyph-name="currency" unicode="&#xa4;" 
d="M975 983q117 -130 117 -319t-117 -322l117 -117l-41 -39l-117 117q-131 -115 -320 -115q-190 0 -321 115l-117 -117l-39 41l117 117q-117 130 -117 320q0 189 117 319l-117 117l41 41l117 -117q131 115 319 115q189 0 320 -115l117 117l41 -41zM614 285q169 0 273 106
t104 273t-104 272.5t-273 105.5t-272.5 -105.5t-103.5 -272.5t103.5 -273t272.5 -106z" />
    <glyph glyph-name="yen" unicode="&#xa5;" horiz-adv-x="1095" 
d="M496 0v483h-385v62h342q18 0 41 -8l2 2q-7 5 -12 10t-8 9.5t-5 6.5l-45 94h-315v62h251q23 0 41 -8l3 2q-17 15 -25 35l-313 632h120l295 -624q47 -97 62 -168h6q16 75 61 168l295 624h121l-313 -632q-7 -17 -25 -35l2 -2q18 8 41 8h250v-62h-313l-45 -94q-2 -2 -5 -6.5
t-8 -9.5t-12 -10l2 -2q23 8 41 8h340v-62h-385v-483h-102z" />
    <glyph glyph-name="brokenbar" unicode="&#xa6;" horiz-adv-x="569" 
d="M242 690v799h86v-799h-86zM328 371v-811h-86v811h86z" />
    <glyph glyph-name="section" unicode="&#xa7;" horiz-adv-x="1079" 
d="M764 233q158 -91 158 -251q0 -138 -100 -223t-285 -85q-220 0 -416 133l57 91q191 -121 361 -121q134 0 205 55.5t71 144.5q0 64 -39.5 111t-102 76t-138.5 53.5t-152.5 53.5t-139 66.5t-102 102t-39.5 150.5q0 205 215 315q-76 44 -117.5 104.5t-41.5 149.5
q0 137 100.5 221t286.5 84q224 0 416 -133l-60 -90q-188 121 -360 121q-134 0 -205.5 -56t-71.5 -145q0 -64 39.5 -111t102 -75.5t138.5 -53t152.5 -53t139 -65.5t102 -101.5t39.5 -150.5q0 -207 -213 -318zM209 600q0 -42 14 -76.5t41.5 -60.5t59 -46t77 -38.5t84 -31.5
t91 -31.5t88.5 -32.5q35 16 66.5 37t65.5 52.5t54 75t20 93.5q0 48 -20.5 87t-50.5 64.5t-80.5 50.5t-92.5 39.5t-106 37t-104 38.5q-207 -98 -207 -258z" />
    <glyph glyph-name="dieresis" unicode="&#xa8;" horiz-adv-x="655" 
d="M223 1434v-246h-121v246h121zM553 1434v-246h-121v246h121z" />
    <glyph glyph-name="copyright" unicode="&#xa9;" horiz-adv-x="1726" 
d="M864 -31q-210 0 -380 95.5t-267.5 267t-97.5 385.5t97.5 385.5t267.5 266.5t380 95q156 0 294 -56t237.5 -153.5t157 -237t57.5 -300.5t-57.5 -300.5t-157 -237.5t-237.5 -154t-294 -56zM864 43q188 0 341 85.5t241 240t88 348.5t-88 348.5t-241 240t-341 85.5
t-341 -85.5t-241.5 -240t-88.5 -348.5t88.5 -348.5t241.5 -240t341 -85.5zM866 258q-206 0 -336.5 130t-130.5 335q0 206 130 335.5t337 129.5q178 0 314 -101l-50 -77q-118 84 -266 84q-166 0 -266 -101t-100 -270q0 -167 100 -268t266 -101q148 0 266 84l52 -80
q-142 -100 -316 -100z" />
    <glyph glyph-name="ordfeminine" unicode="&#xaa;" horiz-adv-x="780" 
d="M346 692q-110 0 -179 60.5t-69 162.5q0 101 69 161.5t183 60.5q80 0 144.5 -35t95.5 -101l4 3q-6 29 -6 106q0 162 -185 162q-86 0 -208 -37l-25 86q142 39 242 39q138 0 205 -59.5t67 -192.5v-395h-100q0 59 12 123l-4 2q-30 -66 -95 -106t-151 -40zM377 776
q81 0 136.5 40t55.5 102t-56 101.5t-136 39.5q-83 0 -128.5 -40t-45.5 -104q0 -62 46 -100.5t128 -38.5z" />
    <glyph glyph-name="guillemotleft" unicode="&#xab;" horiz-adv-x="800" 
d="M473 858v-8l-174 -234q-62 -85 -85.5 -112.5t-41.5 -40.5v-4q18 -12 41 -40t86 -114l174 -233v-9h-119l-297 398l297 397h119zM764 858v-8l-174 -234q-62 -85 -85.5 -112.5t-41.5 -40.5v-4q18 -12 41 -40t86 -114l174 -233v-9h-119l-299 398l299 397h119z" />
    <glyph glyph-name="logicalnot" unicode="&#xac;" 
d="M145 885h938v-68v-475h-71v475h-867v68z" />
    <glyph glyph-name="uni00AD" unicode="&#xad;" horiz-adv-x="745" 
d="M635 612v-108h-526v108h526z" />
    <glyph glyph-name="registered" unicode="&#xae;" horiz-adv-x="1075" 
d="M539 1464q206 0 338.5 -132.5t132.5 -342.5t-132.5 -342.5t-338.5 -132.5q-208 0 -340.5 132.5t-132.5 342.5t132.5 342.5t340.5 132.5zM539 1403q-179 0 -293.5 -114.5t-114.5 -299.5q0 -186 114.5 -300t293.5 -114q176 0 290.5 115t114.5 299t-114.5 299t-290.5 115z
M580 1270q70 0 114.5 -39.5t44.5 -110.5q0 -66 -45.5 -107.5t-120.5 -41.5v-4q18 -7 35 -31l150 -186v-9h-76l-176 228h-55v-228h-64v529h193zM571 1206h-120v-176h120q47 0 74 22.5t27 67.5q0 86 -101 86z" />
    <glyph glyph-name="macron" unicode="&#xaf;" horiz-adv-x="768" 
d="M666 1356v-88h-564v88h564z" />
    <glyph glyph-name="degree" unicode="&#xb0;" horiz-adv-x="753" 
d="M377 1413q121 0 199.5 -77.5t78.5 -200.5q0 -124 -78.5 -201.5t-199.5 -77.5t-200 78t-79 201t79 200.5t200 77.5zM377 1348q-92 0 -151.5 -59.5t-59.5 -153.5q0 -96 59.5 -154.5t151.5 -58.5t151.5 58.5t59.5 154.5q0 94 -59.5 153.5t-151.5 59.5z" />
    <glyph glyph-name="plusminus" unicode="&#xb1;" 
d="M649 1069v-297h455v-65h-455v-297h-69v297h-455v65h455v297h69zM1104 315v-67h-979v67h979z" />
    <glyph glyph-name="uni00B2" unicode="&#xb2;" horiz-adv-x="770" 
d="M47 713l-4 6l420 465q106 117 106 217q0 72 -49 111.5t-123 39.5q-115 0 -241 -102l-58 76q147 121 310 121q121 0 192.5 -64t71.5 -176q0 -71 -33.5 -137t-101.5 -142l-215 -237q-62 -67 -101 -94v-2q42 10 127 10h340l2 -2l-55 -90h-588z" />
    <glyph glyph-name="uni00B3" unicode="&#xb3;" horiz-adv-x="755" 
d="M350 692q-155 0 -291 66l35 92q135 -64 250 -64q119 0 182.5 48t63.5 143q0 97 -81 142.5t-263 45.5v90q130 0 209.5 41t79.5 117q0 67 -47.5 104t-131.5 37q-107 0 -241 -67l-39 82q143 78 297 78q128 0 197 -60.5t69 -156.5q0 -65 -39.5 -116.5t-107.5 -76.5
q-16 -8 -72 -14v-6q32 0 72 -9q87 -21 141.5 -78t54.5 -155q0 -129 -86 -206t-252 -77z" />
    <glyph glyph-name="acute" unicode="&#xb4;" horiz-adv-x="530" 
d="M428 1448v-8l-244 -307h-82v10l189 305h137z" />
    <glyph glyph-name="uni00B5" unicode="&#xb5;" horiz-adv-x="1077" 
d="M834 946h104v-946h-102q0 202 18 291l-8 4q-40 -165 -131 -245.5t-238 -80.5q-157 0 -248 94v-473h-100v951v405h109v-557q0 -152 69.5 -235.5t196.5 -83.5q154 0 242 120.5t88 331.5v424z" />
    <glyph glyph-name="paragraph" unicode="&#xb6;" horiz-adv-x="1187" 
d="M1085 1434v-88h-114v-1563h-94v1563h-283v-1563h-94v852q-172 0 -285 110.5t-113 296.5q0 184 117.5 288t300.5 104h565z" />
    <glyph glyph-name="periodcentered" unicode="&#xb7;" horiz-adv-x="385" 
d="M102 762v184h181v-184h-181z" />
    <glyph glyph-name="cedilla" unicode="&#xb8;" horiz-adv-x="477" 
d="M248 25l-41 -111q34 -8 58 -17t52 -25.5t43 -42.5t15 -60q0 -47 -40.5 -90t-75.5 -63t-121 -62q-9 -5 -13 -7l-23 47q92 50 133 83.5t41 70.5q0 36 -36 56t-117 36l67 185h58z" />
    <glyph glyph-name="uni00B9" unicode="&#xb9;" horiz-adv-x="538" 
d="M287 713v606q0 59 12 111l-4 4q-15 -18 -53 -39l-129 -70v100l180 117l20 84h72v-913h-98z" />
    <glyph glyph-name="ordmasculine" unicode="&#xba;" horiz-adv-x="888" 
d="M444 1360q152 0 249.5 -93t97.5 -241t-97.5 -241t-249.5 -93t-249 93t-97 241t97 241t249 93zM444 1268q-105 0 -175 -67t-70 -175t70 -175t175 -67t176.5 67t71.5 175t-71.5 175t-176.5 67z" />
    <glyph glyph-name="guillemotright" unicode="&#xbb;" horiz-adv-x="798" 
d="M37 858h119l297 -397l-297 -398h-119v9l174 233q63 86 86 114t41 40v4q-18 13 -41.5 40.5t-85.5 112.5l-174 234v8zM326 858h118l299 -397l-299 -398h-118v9l174 233q63 86 86 114t41 40v4q-18 13 -41.5 40.5t-85.5 112.5l-174 234v8z" />
    <glyph glyph-name="onequarter" unicode="&#xbc;" horiz-adv-x="1374" 
d="M272 592v538q0 52 11 95l-4 2q-12 -18 -46 -33l-131 -61v73l174 101l17 75h55v-790h-76zM201 0l809 1382h82l-809 -1382h-82zM1108 0v127q0 13 4 33h-2q-10 -2 -29 -2h-399v59l422 574h78v-531q0 -23 -2 -31l2 -2q6 2 22 2h96l-28 -71h-68q-16 0 -22 2h-2q2 -8 2 -29
v-131h-74zM770 225q28 4 66 4h235q27 0 39 -4l2 2q-2 10 -2 39v348q0 60 2 76l-2 2q-11 -26 -41 -63l-258 -350q-25 -36 -41 -52v-2z" />
    <glyph glyph-name="onehalf" unicode="&#xbd;" horiz-adv-x="1417" 
d="M272 592v538q0 52 11 95l-4 2q-12 -18 -46 -33l-131 -61v73l174 101l17 75h55v-790h-76zM201 0l809 1382h82l-809 -1382h-82zM799 0l-4 6l342 400q94 106 94 196q0 64 -40.5 96.5t-109.5 32.5q-95 0 -209 -78l-36 68q131 88 251 88q104 0 165 -54.5t61 -148.5
q0 -63 -29.5 -122t-89.5 -128l-180 -209q-56 -64 -88 -79l2 -5q37 11 108 11h295v-2l-41 -72h-491z" />
    <glyph glyph-name="threequarters" unicode="&#xbe;" horiz-adv-x="1558" 
d="M338 573q-132 0 -234 52l27 73q100 -49 201 -49q99 0 154 42t55 126q0 87 -67 127.5t-218 40.5v72q111 0 178.5 37t67.5 106q0 63 -42 95t-116 32q-94 0 -199 -57l-30 65q121 66 241 66q109 0 166.5 -52t57.5 -137q0 -77 -51.5 -126.5t-137.5 -55.5v-6q102 0 166 -55.5
t64 -151.5q0 -111 -72.5 -177.5t-210.5 -66.5zM385 0l809 1382h82l-809 -1382h-82zM1294 0v127q0 13 4 33h-2q-10 -2 -28 -2h-400v59l422 574h78v-531q0 -23 -2 -31l2 -2q6 2 23 2h96l-29 -71h-67q-17 0 -23 2h-2q2 -8 2 -29v-131h-74zM956 225q28 4 66 4h235q27 0 39 -4
l2 2q-2 10 -2 39v348q0 60 2 76l-2 2q-11 -26 -41 -63l-258 -350q-25 -36 -41 -52v-2z" />
    <glyph glyph-name="questiondown" unicode="&#xbf;" horiz-adv-x="716" 
d="M430 1024v-184h-180v184h180zM348 -440q-144 0 -227.5 72.5t-83.5 197.5q0 86 37.5 145t103.5 111l121 102q45 36 66.5 71.5t21.5 82.5q0 34 -10.5 61.5t-37 54t-48.5 43t-68 48.5l60 86q36 -23 48.5 -31.5t45.5 -33t48.5 -43.5t35.5 -48t28.5 -62.5t8.5 -72.5
q0 -133 -115 -221l-119 -98q-62 -51 -90.5 -91.5t-28.5 -95.5q0 -84 60 -130t151 -46q130 0 293 113l53 -88q-177 -127 -354 -127z" />
    <glyph glyph-name="Agrave" unicode="&#xc0;" horiz-adv-x="1353" 
d="M535 1747l186 -219l-2 -6h-82l-242 219l2 6h138zM29 0l641 1464h14l641 -1464h-125l-199 461h-649l-198 -461h-125zM383 557q36 4 115 4h356q79 0 115 -4l2 2q-31 45 -62 119l-174 412q-50 123 -55 176h-8q-6 -56 -54 -176l-174 -412q-32 -77 -61 -119v-2z" />
    <glyph glyph-name="Aacute" unicode="&#xc1;" horiz-adv-x="1353" 
d="M956 1747l2 -6l-241 -219h-82l-2 6l186 219h137zM29 0l641 1464h14l641 -1464h-125l-199 461h-649l-198 -461h-125zM383 557q36 4 115 4h356q79 0 115 -4l2 2q-31 45 -62 119l-174 412q-50 123 -55 176h-8q-6 -56 -54 -176l-174 -412q-32 -77 -61 -119v-2z" />
    <glyph glyph-name="Acircumflex" unicode="&#xc2;" horiz-adv-x="1353" 
d="M369 1522v6l241 239h131l240 -239v-6h-113l-98 92q-43 39 -61 60.5t-31 51.5h-6q-11 -29 -28.5 -50t-61.5 -62l-99 -92h-114zM29 0l641 1464h14l641 -1464h-125l-199 461h-649l-198 -461h-125zM383 557q36 4 115 4h356q79 0 115 -4l2 2q-31 45 -62 119l-174 412
q-50 123 -55 176h-8q-6 -56 -54 -176l-174 -412q-32 -77 -61 -119v-2z" />
    <glyph glyph-name="Atilde" unicode="&#xc3;" horiz-adv-x="1353" 
d="M416 1556l-62 23q61 166 187 166q47 0 111 -27.5t123.5 -55.5t94.5 -28q65 0 107 92l61 -22q-12 -33 -25.5 -58t-35.5 -52t-54 -41.5t-71 -14.5q-47 0 -111.5 28t-124 55.5t-94.5 27.5q-64 0 -106 -93zM29 0l641 1464h14l641 -1464h-125l-199 461h-649l-198 -461h-125z
M383 557q36 4 115 4h356q79 0 115 -4l2 2q-31 45 -62 119l-174 412q-50 123 -55 176h-8q-6 -56 -54 -176l-174 -412q-32 -77 -61 -119v-2z" />
    <glyph glyph-name="Adieresis" unicode="&#xc4;" horiz-adv-x="1353" 
d="M453 1747h120v-225h-120v225zM780 1747h121v-225h-121v225zM29 0l641 1464h14l641 -1464h-125l-199 461h-649l-198 -461h-125zM383 557q36 4 115 4h356q79 0 115 -4l2 2q-31 45 -62 119l-174 412q-50 123 -55 176h-8q-6 -56 -54 -176l-174 -412q-32 -77 -61 -119v-2z" />
    <glyph glyph-name="Aring" unicode="&#xc5;" horiz-adv-x="1353" 
d="M702 1421l623 -1421h-125l-199 461h-649l-198 -461h-125l622 1421q-85 7 -137.5 65.5t-52.5 143.5q0 92 60.5 152.5t154.5 60.5t155.5 -60.5t61.5 -152.5q0 -84 -53.5 -142t-137.5 -67zM532 1630q0 -63 40.5 -103t103.5 -40t104 40t41 103q0 64 -41 105t-104 41
t-103.5 -41t-40.5 -105zM969 557l2 2q-31 45 -62 119l-174 412q-50 123 -55 176h-8q-6 -56 -54 -176l-174 -412q-32 -77 -61 -119v-2q36 4 115 4h356q79 0 115 -4z" />
    <glyph glyph-name="AE" unicode="&#xc6;" horiz-adv-x="1851" 
d="M1194 106h573v-106h-725v414q0 30 7 51l-5 2q-18 -6 -51 -6h-520l-313 -461h-131l970 1434h760v-107h-565q-39 0 -51 4l-4 -2q6 -18 6 -51v-387q0 -31 -6 -49l4 -2q12 4 51 4h510v-107h-510q-39 0 -51 6l-4 -4q6 -15 6 -49v-534q0 -34 -6 -52l4 -2q12 4 51 4zM1049 559
q-7 17 -7 49v617q0 49 7 121h-5q-23 -58 -61 -115l-399 -602q-32 -51 -72 -74l2 -4q35 10 113 10h366q39 0 51 -6z" />
    <glyph glyph-name="Ccedilla" unicode="&#xc7;" horiz-adv-x="1429" 
d="M1348 133q-218 -161 -490 -164l-20 -55q34 -8 58 -17t52 -25.5t43 -42.5t15 -60q0 -47 -40.5 -90t-75.5 -63t-121 -62q-9 -5 -13 -7l-23 47q92 50 133 83.5t41 70.5q0 36 -36 56t-117 36l47 131q-321 14 -517 219t-196 527q0 335 210 541t552 206q274 0 498 -164l-70 -96
q-105 77 -207 112.5t-223 35.5q-284 0 -461.5 -176.5t-177.5 -458.5t177.5 -458.5t461.5 -176.5q121 0 223 35t207 112z" />
    <glyph glyph-name="Egrave" unicode="&#xc8;" horiz-adv-x="1046" 
d="M453 1747l186 -219l-2 -6h-82l-242 219l2 6h138zM956 1434v-107h-624q-41 0 -53 4l-3 -2q7 -21 7 -49v-389q0 -28 -7 -49l3 -2q12 4 53 4h559v-107h-559q-35 0 -53 6l-3 -2q7 -21 7 -51v-536q0 -29 -7 -50l3 -2q12 4 53 4h633v-106h-795v1434h786z" />
    <glyph glyph-name="Eacute" unicode="&#xc9;" horiz-adv-x="1046" 
d="M874 1747l3 -6l-242 -219h-82l-2 6l186 219h137zM956 1434v-107h-624q-41 0 -53 4l-3 -2q7 -21 7 -49v-389q0 -28 -7 -49l3 -2q12 4 53 4h559v-107h-559q-35 0 -53 6l-3 -2q7 -21 7 -51v-536q0 -29 -7 -50l3 -2q12 4 53 4h633v-106h-795v1434h786z" />
    <glyph glyph-name="Ecircumflex" unicode="&#xca;" horiz-adv-x="1046" 
d="M287 1522v6l241 239h131l240 -239v-6h-113l-98 92q-43 39 -61 60.5t-31 51.5h-6q-11 -29 -28.5 -50t-61.5 -62l-99 -92h-114zM956 1434v-107h-624q-41 0 -53 4l-3 -2q7 -21 7 -49v-389q0 -28 -7 -49l3 -2q12 4 53 4h559v-107h-559q-35 0 -53 6l-3 -2q7 -21 7 -51v-536
q0 -29 -7 -50l3 -2q12 4 53 4h633v-106h-795v1434h786z" />
    <glyph glyph-name="Edieresis" unicode="&#xcb;" horiz-adv-x="1046" 
d="M371 1747h121v-225h-121v225zM698 1747h121v-225h-121v225zM956 1434v-107h-624q-41 0 -53 4l-3 -2q7 -21 7 -49v-389q0 -28 -7 -49l3 -2q12 4 53 4h559v-107h-559q-35 0 -53 6l-3 -2q7 -21 7 -51v-536q0 -29 -7 -50l3 -2q12 4 53 4h633v-106h-795v1434h786z" />
    <glyph glyph-name="Igrave" unicode="&#xcc;" horiz-adv-x="450" 
d="M82 1747l186 -219l-2 -6h-82l-241 219l2 6h137zM283 1434v-1434h-113v1434h113z" />
    <glyph glyph-name="Iacute" unicode="&#xcd;" horiz-adv-x="450" 
d="M506 1747l2 -6l-242 -219h-82l-2 6l187 219h137zM283 1434v-1434h-113v1434h113z" />
    <glyph glyph-name="Icircumflex" unicode="&#xce;" horiz-adv-x="450" 
d="M-82 1522v6l242 239h131l239 -239v-6h-112l-99 92q-43 39 -61 60.5t-31 51.5h-6q-11 -29 -28.5 -50t-61.5 -62l-98 -92h-115zM283 1434v-1434h-113v1434h113z" />
    <glyph glyph-name="Idieresis" unicode="&#xcf;" horiz-adv-x="450" 
d="M2 1747h121v-225h-121v225zM330 1747h121v-225h-121v225zM283 1434v-1434h-113v1434h113z" />
    <glyph glyph-name="Eth" unicode="&#xd0;" horiz-adv-x="1480" 
d="M678 1434q205 0 366 -85t254 -249.5t93 -382.5t-93 -382.5t-254 -249.5t-366 -85h-442v629q0 31 6 49l-2 2q-12 -4 -54 -4h-170v100h170q42 0 54 -4l2 2q-6 18 -6 49v611h442zM664 104q129 0 239 40.5t192 116.5t128.5 193.5t46.5 262.5t-46.5 261.5t-128.5 192t-192 116
t-239 40.5h-267q-39 0 -51 4l-4 -2q6 -18 6 -49v-457q0 -31 -6 -49l4 -2q12 4 51 4h424v-100h-424q-39 0 -51 4l-4 -2q6 -18 6 -49v-477q0 -32 -6 -50l4 -2q12 4 51 4h267z" />
    <glyph glyph-name="Ntilde" unicode="&#xd1;" horiz-adv-x="1443" 
d="M489 1556l-61 23q12 33 25.5 58t35.5 52t54 41.5t71 14.5q47 0 111.5 -27.5t124 -55.5t94.5 -28q65 0 107 92l61 -22q-12 -33 -25.5 -58t-35.5 -52t-54 -41.5t-71 -14.5q-47 0 -111.5 28t-124 55.5t-94.5 27.5q-65 0 -107 -93zM184 1454l877 -1063q93 -119 113 -164l4 2
q-17 111 -17 258v947h113v-1454h-14l-877 1062q-93 119 -113 164l-4 -2q17 -110 17 -258v-946h-113v1454h14z" />
    <glyph glyph-name="Ograve" unicode="&#xd2;" horiz-adv-x="1669" 
d="M692 1747l187 -219l-2 -6h-82l-242 219l2 6h137zM836 1464q160 0 299 -56t237.5 -154.5t154.5 -237.5t56 -299q0 -214 -95.5 -385t-266.5 -267t-385 -96t-385 96t-267 267t-96 385t96 385t267 266.5t385 95.5zM836 1352q-275 0 -451 -178.5t-176 -456.5t176 -456.5
t451 -178.5q180 0 323 81t223 226t80 328t-80 328t-223 226t-323 81z" />
    <glyph glyph-name="Oacute" unicode="&#xd3;" horiz-adv-x="1669" 
d="M1116 1747l2 -6l-241 -219h-82l-2 6l186 219h137zM836 1464q160 0 299 -56t237.5 -154.5t154.5 -237.5t56 -299q0 -214 -95.5 -385t-266.5 -267t-385 -96t-385 96t-267 267t-96 385t96 385t267 266.5t385 95.5zM836 1352q-275 0 -451 -178.5t-176 -456.5t176 -456.5
t451 -178.5q180 0 323 81t223 226t80 328t-80 328t-223 226t-323 81z" />
    <glyph glyph-name="Ocircumflex" unicode="&#xd4;" horiz-adv-x="1669" 
d="M526 1522v6l242 239h131l240 -239v-6h-113l-98 92q-43 39 -61 60.5t-31 51.5h-7q-11 -29 -28.5 -50t-61.5 -62l-98 -92h-115zM836 1464q160 0 299 -56t237.5 -154.5t154.5 -237.5t56 -299q0 -214 -95.5 -385t-266.5 -267t-385 -96t-385 96t-267 267t-96 385t96 385
t267 266.5t385 95.5zM836 1352q-275 0 -451 -178.5t-176 -456.5t176 -456.5t451 -178.5q180 0 323 81t223 226t80 328t-80 328t-223 226t-323 81z" />
    <glyph glyph-name="Otilde" unicode="&#xd5;" horiz-adv-x="1669" 
d="M573 1556l-61 23q12 33 25.5 58t35.5 52t54 41.5t71 14.5q47 0 111.5 -27.5t124 -55.5t94.5 -28q65 0 107 92l61 -22q-12 -33 -25.5 -58t-35.5 -52t-54 -41.5t-71 -14.5q-47 0 -111.5 28t-124 55.5t-94.5 27.5q-65 0 -107 -93zM836 1464q160 0 299 -56t237.5 -154.5
t154.5 -237.5t56 -299q0 -214 -95.5 -385t-266.5 -267t-385 -96t-385 96t-267 267t-96 385t96 385t267 266.5t385 95.5zM836 1352q-275 0 -451 -178.5t-176 -456.5t176 -456.5t451 -178.5q180 0 323 81t223 226t80 328t-80 328t-223 226t-323 81z" />
    <glyph glyph-name="Odieresis" unicode="&#xd6;" horiz-adv-x="1669" 
d="M610 1747h121v-225h-121v225zM938 1747h121v-225h-121v225zM836 1464q160 0 299 -56t237.5 -154.5t154.5 -237.5t56 -299q0 -214 -95.5 -385t-266.5 -267t-385 -96t-385 96t-267 267t-96 385t96 385t267 266.5t385 95.5zM836 1352q-275 0 -451 -178.5t-176 -456.5
t176 -456.5t451 -178.5q180 0 323 81t223 226t80 328t-80 328t-223 226t-323 81z" />
    <glyph glyph-name="multiply" unicode="&#xd7;" 
d="M995 1042l52 -51l-383 -381l383 -381l-52 -51l-381 383l-381 -383l-51 51l383 381l-383 381l51 51l381 -383z" />
    <glyph glyph-name="Oslash" unicode="&#xd8;" horiz-adv-x="1669" 
d="M1298 1317q134 -101 209.5 -256.5t75.5 -343.5q0 -214 -95.5 -385t-266.5 -267t-385 -96q-230 0 -414 113l-78 -111l-51 33l78 113q-134 101 -208.5 256.5t-74.5 343.5q0 214 96 385t267 266.5t385 95.5q232 0 411 -112l78 110l53 -32zM209 717q0 -158 60.5 -289
t170.5 -215l740 1044q-155 95 -344 95q-275 0 -451 -178.5t-176 -456.5zM836 82q180 0 323 81t223 226t80 328q0 157 -61 287.5t-170 216.5l-742 -1045q153 -94 347 -94z" />
    <glyph glyph-name="Ugrave" unicode="&#xd9;" horiz-adv-x="1390" 
d="M553 1747l186 -219l-2 -6h-82l-241 219l2 6h137zM1233 1434v-912q0 -257 -144.5 -405t-394.5 -148q-249 0 -393.5 148.5t-144.5 404.5v912h118v-895q0 -213 112 -334t308 -121q197 0 309.5 121t112.5 334v895h117z" />
    <glyph glyph-name="Uacute" unicode="&#xda;" horiz-adv-x="1390" 
d="M975 1747l2 -6l-242 -219h-82l-2 6l187 219h137zM1233 1434v-912q0 -257 -144.5 -405t-394.5 -148q-249 0 -393.5 148.5t-144.5 404.5v912h118v-895q0 -213 112 -334t308 -121q197 0 309.5 121t112.5 334v895h117z" />
    <glyph glyph-name="Ucircumflex" unicode="&#xdb;" horiz-adv-x="1390" 
d="M387 1522v6l242 239h131l239 -239v-6h-112l-99 92q-43 39 -61 60.5t-31 51.5h-6q-11 -29 -28.5 -50t-61.5 -62l-98 -92h-115zM1233 1434v-912q0 -257 -144.5 -405t-394.5 -148q-249 0 -393.5 148.5t-144.5 404.5v912h118v-895q0 -213 112 -334t308 -121q197 0 309.5 121
t112.5 334v895h117z" />
    <glyph glyph-name="Udieresis" unicode="&#xdc;" horiz-adv-x="1390" 
d="M471 1747h121v-225h-121v225zM799 1747h121v-225h-121v225zM1233 1434v-912q0 -257 -144.5 -405t-394.5 -148q-249 0 -393.5 148.5t-144.5 404.5v912h118v-895q0 -213 112 -334t308 -121q197 0 309.5 121t112.5 334v895h117z" />
    <glyph glyph-name="Yacute" unicode="&#xdd;" horiz-adv-x="1110" 
d="M836 1747l2 -6l-242 -219h-82l-2 6l186 219h138zM1083 1434l-473 -883v-551h-112v551l-471 883h139l311 -609q39 -75 52.5 -108t23.5 -82h4q10 48 23 81.5t51 108.5l311 609h141z" />
    <glyph glyph-name="Thorn" unicode="&#xde;" horiz-adv-x="1073" 
d="M283 1434v-267q0 -28 -7 -49l3 -2q12 4 49 4h278q195 0 309.5 -105t114.5 -278t-114.5 -278t-309.5 -105h-278q-37 0 -49 4l-3 -2q7 -21 7 -49v-307h-113v1434h113zM279 1018l-3 -2q7 -21 7 -49v-459q0 -28 -7 -49l3 -2q12 4 49 4h278q139 0 222 71t83 205t-83 205.5
t-222 71.5h-278q-37 0 -49 4z" />
    <glyph glyph-name="germandbls" unicode="&#xdf;" horiz-adv-x="1116" 
d="M602 813q194 0 312 -102.5t118 -288.5q0 -211 -135 -321.5t-393 -110.5h-133v98h123q209 0 319.5 80t110.5 256q0 179 -123 258.5t-365 79.5v94q163 0 257.5 70t94.5 198q0 113 -67.5 175.5t-183.5 62.5q-57 0 -105.5 -18t-87.5 -54t-61.5 -96t-22.5 -139v-1321h-104
v1319q0 185 100.5 298t280.5 113q176 0 268 -94t92 -233q0 -131 -73.5 -213t-221.5 -103v-8z" />
    <glyph glyph-name="agrave" unicode="&#xe0;" horiz-adv-x="1038" 
d="M371 1448l188 -305v-10h-82l-244 307v8h138zM520 977q195 0 287 -90t92 -279v-608h-102q0 80 12 186l-4 2q-46 -102 -144 -160.5t-223 -58.5q-165 0 -266.5 93.5t-101.5 244.5q0 154 101 245t271 91q124 0 222 -57t139 -152l6 4q-7 25 -8.5 50t-1.5 114
q-1 139 -70.5 205.5t-210.5 66.5q-140 0 -317 -57l-31 103q196 57 350 57zM461 547q-126 0 -202.5 -67t-76.5 -177q0 -107 76.5 -172t202.5 -65q134 0 225.5 69t91.5 170t-92 171.5t-225 70.5z" />
    <glyph glyph-name="aacute" unicode="&#xe1;" horiz-adv-x="1038" 
d="M813 1448v-8l-244 -307h-82v10l189 305h137zM520 977q195 0 287 -90t92 -279v-608h-102q0 80 12 186l-4 2q-46 -102 -144 -160.5t-223 -58.5q-165 0 -266.5 93.5t-101.5 244.5q0 154 101 245t271 91q124 0 222 -57t139 -152l6 4q-7 25 -8.5 50t-1.5 114
q-1 139 -70.5 205.5t-210.5 66.5q-140 0 -317 -57l-31 103q196 57 350 57zM461 547q-126 0 -202.5 -67t-76.5 -177q0 -107 76.5 -172t202.5 -65q134 0 225.5 69t91.5 170t-92 171.5t-225 70.5z" />
    <glyph glyph-name="acircumflex" unicode="&#xe2;" horiz-adv-x="1038" 
d="M586 1448l223 -309v-6h-109l-110 157q-54 77 -66 117h-4q-9 -29 -20.5 -51t-42.5 -66l-113 -157h-108v6l223 309h127zM520 977q195 0 287 -90t92 -279v-608h-102q0 80 12 186l-4 2q-46 -102 -144 -160.5t-223 -58.5q-165 0 -266.5 93.5t-101.5 244.5q0 154 101 245
t271 91q124 0 222 -57t139 -152l6 4q-7 25 -8.5 50t-1.5 114q-1 139 -70.5 205.5t-210.5 66.5q-140 0 -317 -57l-31 103q196 57 350 57zM461 547q-126 0 -202.5 -67t-76.5 -177q0 -107 76.5 -172t202.5 -65q134 0 225.5 69t91.5 170t-92 171.5t-225 70.5z" />
    <glyph glyph-name="atilde" unicode="&#xe3;" horiz-adv-x="1038" 
d="M377 1415q49 0 112.5 -30t120.5 -59.5t90 -29.5q64 0 109 101l61 -23q-54 -170 -182 -170q-39 0 -87.5 18.5t-86.5 40t-80 40t-69 18.5q-69 0 -109 -98l-63 22q59 170 184 170zM520 977q195 0 287 -90t92 -279v-608h-102q0 80 12 186l-4 2q-46 -102 -144 -160.5
t-223 -58.5q-165 0 -266.5 93.5t-101.5 244.5q0 154 101 245t271 91q124 0 222 -57t139 -152l6 4q-7 25 -8.5 50t-1.5 114q-1 139 -70.5 205.5t-210.5 66.5q-140 0 -317 -57l-31 103q196 57 350 57zM461 547q-126 0 -202.5 -67t-76.5 -177q0 -107 76.5 -172t202.5 -65
q134 0 225.5 69t91.5 170t-92 171.5t-225 70.5z" />
    <glyph glyph-name="adieresis" unicode="&#xe4;" horiz-adv-x="1038" 
d="M420 1434v-246h-121v246h121zM750 1434v-246h-121v246h121zM520 977q195 0 287 -90t92 -279v-608h-102q0 80 12 186l-4 2q-46 -102 -144 -160.5t-223 -58.5q-165 0 -266.5 93.5t-101.5 244.5q0 154 101 245t271 91q124 0 222 -57t139 -152l6 4q-7 25 -8.5 50t-1.5 114
q-1 139 -70.5 205.5t-210.5 66.5q-140 0 -317 -57l-31 103q196 57 350 57zM461 547q-126 0 -202.5 -67t-76.5 -177q0 -107 76.5 -172t202.5 -65q134 0 225.5 69t91.5 170t-92 171.5t-225 70.5z" />
    <glyph glyph-name="aring" unicode="&#xe5;" horiz-adv-x="1038" 
d="M524 1530q106 0 175 -68t69 -172t-69 -171.5t-175 -67.5t-174.5 67.5t-68.5 171.5t68.5 172t174.5 68zM524 1464q-79 0 -126.5 -48t-47.5 -126t47.5 -126t126.5 -48t126.5 48t47.5 126t-47.5 126t-126.5 48zM520 977q195 0 287 -90t92 -279v-608h-102q0 80 12 186l-4 2
q-46 -102 -144 -160.5t-223 -58.5q-165 0 -266.5 93.5t-101.5 244.5q0 154 101 245t271 91q124 0 222 -57t139 -152l6 4q-7 25 -8.5 50t-1.5 114q-1 139 -70.5 205.5t-210.5 66.5q-140 0 -317 -57l-31 103q196 57 350 57zM461 547q-126 0 -202.5 -67t-76.5 -177
q0 -107 76.5 -172t202.5 -65q134 0 225.5 69t91.5 170t-92 171.5t-225 70.5z" />
    <glyph glyph-name="ae" unicode="&#xe6;" horiz-adv-x="1812" 
d="M446 -31q-167 0 -271.5 91.5t-104.5 246.5q0 154 100 245t268 91q123 0 222.5 -54t140.5 -155l6 4q-7 37 -10 166q-1 141 -71.5 205.5t-207.5 64.5q-138 0 -319 -57l-29 103q184 57 346 57q332 0 348 -279h4q34 126 142.5 202.5t263.5 76.5q115 0 204 -39.5t143 -108.5
t81 -156t27 -188v-24h-744q-60 0 -84 8l-2 -4l2 -10q9 -178 111.5 -281.5t273.5 -103.5q65 0 118.5 14.5t96 44.5t70.5 58t63 71l74 -68q-164 -221 -422 -221q-183 0 -295.5 93t-140.5 237h-6q-13 -150 -122.5 -240t-275.5 -90zM905 535q28 14 82 14h537q54 0 92 -12l2 2
q-14 160 -102.5 250t-245.5 90q-152 0 -253 -90t-116 -252zM461 66q131 0 224 68t93 171q0 104 -93.5 173t-223.5 69t-204.5 -69t-74.5 -173q0 -106 74.5 -172.5t204.5 -66.5z" />
    <glyph glyph-name="ccedilla" unicode="&#xe7;" horiz-adv-x="983" 
d="M915 61q-146 -92 -319 -92l-21 -55q34 -8 58 -17t52 -25.5t43 -42.5t15 -60q0 -36 -17 -66t-59 -59.5t-70 -44.5t-91 -46l-12 -6l-23 47q92 50 133 83.5t41 70.5q0 36 -36 56t-117 36l49 131q-206 17 -331.5 154.5t-125.5 347.5q0 224 141.5 364t368.5 140q175 0 321 -92
l-51 -92q-134 81 -274 81q-172 0 -283.5 -113t-111.5 -288q0 -174 112 -287.5t283 -113.5q139 0 274 82z" />
    <glyph glyph-name="egrave" unicode="&#xe8;" horiz-adv-x="1103" 
d="M422 1448l188 -305v-10h-82l-243 307v8h137zM567 977q207 0 329 -133t122 -359v-24h-742q-66 0 -86 10l-2 -2l5 -18q3 -175 106.5 -278t275.5 -103q108 0 190.5 44t160.5 144l73 -68q-162 -221 -426 -221q-223 0 -356 138t-133 368q0 229 131.5 365.5t351.5 136.5z
M565 879q-159 0 -258.5 -91.5t-113.5 -250.5l2 -2q25 14 84 14h534q55 0 92 -12l2 2q-12 162 -101.5 251t-240.5 89z" />
    <glyph glyph-name="eacute" unicode="&#xe9;" horiz-adv-x="1103" 
d="M864 1448v-8l-243 -307h-82v10l188 305h137zM567 977q207 0 329 -133t122 -359v-24h-742q-66 0 -86 10l-2 -2l5 -18q3 -175 106.5 -278t275.5 -103q108 0 190.5 44t160.5 144l73 -68q-162 -221 -426 -221q-223 0 -356 138t-133 368q0 229 131.5 365.5t351.5 136.5z
M565 879q-159 0 -258.5 -91.5t-113.5 -250.5l2 -2q25 14 84 14h534q55 0 92 -12l2 2q-12 162 -101.5 251t-240.5 89z" />
    <glyph glyph-name="ecircumflex" unicode="&#xea;" horiz-adv-x="1103" 
d="M637 1448l223 -309v-6h-108l-111 157q-54 77 -66 117h-4q-9 -29 -20.5 -51t-42.5 -66l-113 -157h-108v6l223 309h127zM567 977q207 0 329 -133t122 -359v-24h-742q-66 0 -86 10l-2 -2l5 -18q3 -175 106.5 -278t275.5 -103q108 0 190.5 44t160.5 144l73 -68
q-162 -221 -426 -221q-223 0 -356 138t-133 368q0 229 131.5 365.5t351.5 136.5zM565 879q-159 0 -258.5 -91.5t-113.5 -250.5l2 -2q25 14 84 14h534q55 0 92 -12l2 2q-12 162 -101.5 251t-240.5 89z" />
    <glyph glyph-name="edieresis" unicode="&#xeb;" horiz-adv-x="1103" 
d="M471 1434v-246h-121v246h121zM801 1434v-246h-121v246h121zM567 977q207 0 329 -133t122 -359v-24h-742q-66 0 -86 10l-2 -2l5 -18q3 -175 106.5 -278t275.5 -103q108 0 190.5 44t160.5 144l73 -68q-162 -221 -426 -221q-223 0 -356 138t-133 368q0 229 131.5 365.5
t351.5 136.5zM565 879q-159 0 -258.5 -91.5t-113.5 -250.5l2 -2q25 14 84 14h534q55 0 92 -12l2 2q-12 162 -101.5 251t-240.5 89z" />
    <glyph glyph-name="igrave" unicode="&#xec;" horiz-adv-x="417" 
d="M0 1448h127l117 -305v-10h-74l-170 307v8zM260 946v-946h-104v946h104z" />
    <glyph glyph-name="iacute" unicode="&#xed;" horiz-adv-x="417" 
d="M422 1448v-8l-170 -307h-74v10l117 305h127zM260 946v-946h-104v946h104z" />
    <glyph glyph-name="icircumflex" unicode="&#xee;" horiz-adv-x="417" 
d="M262 1448l174 -309v-6h-96l-86 157q-37 67 -43 109h-4q-8 -42 -45 -109l-86 -157h-96v6l174 309h108zM260 946v-946h-104v946h104z" />
    <glyph glyph-name="idieresis" unicode="&#xef;" horiz-adv-x="417" 
d="M145 1434v-246h-120v246h120zM393 1434v-246h-121v246h121zM260 946v-946h-104v946h104z" />
    <glyph glyph-name="eth" unicode="&#xf0;" horiz-adv-x="1210" 
d="M758 1321q344 -201 344 -696q0 -139 -28 -251t-76.5 -186.5t-116.5 -124.5t-144.5 -72t-163.5 -22q-228 0 -365.5 143.5t-137.5 368.5q0 224 135 360t352 136q192 0 310 -109.5t147 -294.5h8q-16 188 -31 263q-61 279 -311 415l-195 -170l-51 52l174 153q-136 58 -321 76
l14 92q228 -25 387 -98l178 160l49 -56zM582 70q172 0 278.5 107t106.5 288q0 187 -110.5 299.5t-291.5 112.5q-176 0 -281.5 -109t-105.5 -287q0 -187 112.5 -299t291.5 -112z" />
    <glyph glyph-name="ntilde" unicode="&#xf1;" horiz-adv-x="1122" 
d="M436 1415q49 0 112.5 -30t121 -59.5t90.5 -29.5q63 0 108 101l62 -23q-54 -170 -182 -170q-39 0 -87.5 18.5t-87 40t-80.5 40t-69 18.5q-69 0 -109 -98l-63 22q59 170 184 170zM623 977q176 0 269 -104t93 -300v-573h-104v561q0 150 -72 233t-203 83q-166 0 -260 -120.5
t-94 -332.5v-424h-102v946h102q0 -201 -19 -301l9 -4q85 336 381 336z" />
    <glyph glyph-name="ograve" unicode="&#xf2;" horiz-adv-x="1183" 
d="M438 1448l189 -305v-10h-82l-244 307v8h137zM592 977q223 0 365.5 -141.5t142.5 -362.5q0 -220 -143 -362t-365 -142q-221 0 -364.5 142t-143.5 362q0 221 143 362.5t365 141.5zM592 874q-174 0 -285.5 -112t-111.5 -289q0 -175 112 -288t285 -113t285 113t112 288
q0 177 -111.5 289t-285.5 112z" />
    <glyph glyph-name="oacute" unicode="&#xf3;" horiz-adv-x="1183" 
d="M883 1448v-8l-244 -307h-82v10l188 305h138zM592 977q223 0 365.5 -141.5t142.5 -362.5q0 -220 -143 -362t-365 -142q-221 0 -364.5 142t-143.5 362q0 221 143 362.5t365 141.5zM592 874q-174 0 -285.5 -112t-111.5 -289q0 -175 112 -288t285 -113t285 113t112 288
q0 177 -111.5 289t-285.5 112z" />
    <glyph glyph-name="ocircumflex" unicode="&#xf4;" horiz-adv-x="1183" 
d="M655 1448l224 -309v-6h-109l-111 157q-32 47 -44 68t-21 49h-4q-14 -45 -64 -117l-112 -157h-109v6l223 309h127zM592 977q223 0 365.5 -141.5t142.5 -362.5q0 -220 -143 -362t-365 -142q-221 0 -364.5 142t-143.5 362q0 221 143 362.5t365 141.5zM592 874
q-174 0 -285.5 -112t-111.5 -289q0 -175 112 -288t285 -113t285 113t112 288q0 177 -111.5 289t-285.5 112z" />
    <glyph glyph-name="otilde" unicode="&#xf5;" horiz-adv-x="1183" 
d="M446 1415q49 0 112.5 -30t121 -59.5t90.5 -29.5q64 0 109 101l61 -23q-54 -170 -182 -170q-39 0 -87.5 18.5t-87 40t-80.5 40t-69 18.5q-68 0 -108 -98l-64 22q59 170 184 170zM592 977q223 0 365.5 -141.5t142.5 -362.5q0 -220 -143 -362t-365 -142q-221 0 -364.5 142
t-143.5 362q0 221 143 362.5t365 141.5zM592 874q-174 0 -285.5 -112t-111.5 -289q0 -175 112 -288t285 -113t285 113t112 288q0 177 -111.5 289t-285.5 112z" />
    <glyph glyph-name="odieresis" unicode="&#xf6;" horiz-adv-x="1183" 
d="M487 1434v-246h-120v246h120zM817 1434v-246h-121v246h121zM592 977q223 0 365.5 -141.5t142.5 -362.5q0 -220 -143 -362t-365 -142q-221 0 -364.5 142t-143.5 362q0 221 143 362.5t365 141.5zM592 874q-174 0 -285.5 -112t-111.5 -289q0 -175 112 -288t285 -113t285 113
t112 288q0 177 -111.5 289t-285.5 112z" />
    <glyph glyph-name="divide" unicode="&#xf7;" 
d="M680 991v-149h-131v149h131zM1145 645v-67h-1061v67h1061zM680 381v-154h-131v154h131z" />
    <glyph glyph-name="oslash" unicode="&#xf8;" horiz-adv-x="1183" 
d="M948 846q152 -146 152 -373q0 -220 -143 -362t-365 -142q-180 0 -318 101l-84 -99l-47 39l86 101q-145 142 -145 362q0 221 143 362.5t365 141.5q176 0 307 -92l78 92l49 -41zM195 473q0 -170 104 -280l528 610q-99 71 -235 71q-174 0 -285.5 -112t-111.5 -289zM592 72
q173 0 285 113t112 288q0 179 -112 291l-531 -612q104 -80 246 -80z" />
    <glyph glyph-name="ugrave" unicode="&#xf9;" horiz-adv-x="1077" 
d="M383 1448l188 -305v-10h-82l-243 307v8h137zM938 946v-946h-102q0 202 18 291l-8 4q-40 -165 -131 -245.5t-238 -80.5q-168 0 -258 107t-90 305v565h109v-557q0 -152 69.5 -235.5t196.5 -83.5q154 0 242 120.5t88 331.5v424h104z" />
    <glyph glyph-name="uacute" unicode="&#xfa;" horiz-adv-x="1077" 
d="M825 1448v-8l-243 -307h-82v10l188 305h137zM938 946v-946h-102q0 202 18 291l-8 4q-40 -165 -131 -245.5t-238 -80.5q-168 0 -258 107t-90 305v565h109v-557q0 -152 69.5 -235.5t196.5 -83.5q154 0 242 120.5t88 331.5v424h104z" />
    <glyph glyph-name="ucircumflex" unicode="&#xfb;" horiz-adv-x="1077" 
d="M600 1448l223 -309v-6h-108l-111 157q-32 47 -44 68t-21 49h-4q-14 -45 -64 -117l-113 -157h-108v6l223 309h127zM938 946v-946h-102q0 202 18 291l-8 4q-40 -165 -131 -245.5t-238 -80.5q-168 0 -258 107t-90 305v565h109v-557q0 -152 69.5 -235.5t196.5 -83.5
q154 0 242 120.5t88 331.5v424h104z" />
    <glyph glyph-name="udieresis" unicode="&#xfc;" horiz-adv-x="1077" 
d="M432 1434v-246h-121v246h121zM762 1434v-246h-121v246h121zM938 946v-946h-102q0 202 18 291l-8 4q-40 -165 -131 -245.5t-238 -80.5q-168 0 -258 107t-90 305v565h109v-557q0 -152 69.5 -235.5t196.5 -83.5q154 0 242 120.5t88 331.5v424h104z" />
    <glyph glyph-name="yacute" unicode="&#xfd;" horiz-adv-x="950" 
d="M770 1448v-8l-244 -307h-82v10l189 305h137zM930 946l-596 -1356h-109l209 480l-414 876h121l275 -602q35 -76 48 -114.5t19 -86.5h9q7 75 63 199l262 604h113z" />
    <glyph glyph-name="thorn" unicode="&#xfe;" horiz-adv-x="1230" 
d="M156 -410v1844h104v-492q0 -151 -16 -235l6 -5q56 130 166 202.5t258 72.5q99 0 185 -35t149.5 -98.5t100 -159t36.5 -211.5t-37 -212t-100.5 -159.5t-150 -98t-185.5 -34.5q-297 0 -424 264l-8 -2q20 -87 20 -196v-445h-104zM664 74q166 0 269 107t103 290
q0 185 -105 293t-274 108q-182 0 -293.5 -112.5t-111.5 -286.5q0 -173 112.5 -286t299.5 -113z" />
    <glyph glyph-name="ydieresis" unicode="&#xff;" horiz-adv-x="950" 
d="M375 1434v-246h-121v246h121zM705 1434v-246h-121v246h121zM930 946l-596 -1356h-109l209 480l-414 876h121l275 -602q35 -76 48 -114.5t19 -86.5h9q7 75 63 199l262 604h113z" />
    <glyph glyph-name="Amacron" unicode="&#x100;" horiz-adv-x="1353" 
d="M393 1671h565v-86h-565v86zM29 0l641 1464h14l641 -1464h-125l-199 461h-649l-198 -461h-125zM383 557q36 4 115 4h356q79 0 115 -4l2 2q-31 45 -62 119l-174 412q-50 123 -55 176h-8q-6 -56 -54 -176l-174 -412q-32 -77 -61 -119v-2z" />
    <glyph glyph-name="amacron" unicode="&#x101;" horiz-adv-x="1038" 
d="M805 1356v-88h-563v88h563zM520 977q195 0 287 -90t92 -279v-608h-102q0 80 12 186l-4 2q-46 -102 -144 -160.5t-223 -58.5q-165 0 -266.5 93.5t-101.5 244.5q0 154 101 245t271 91q124 0 222 -57t139 -152l6 4q-7 25 -8.5 50t-1.5 114q-1 139 -70.5 205.5t-210.5 66.5
q-140 0 -317 -57l-31 103q196 57 350 57zM461 547q-126 0 -202.5 -67t-76.5 -177q0 -107 76.5 -172t202.5 -65q134 0 225.5 69t91.5 170t-92 171.5t-225 70.5z" />
    <glyph glyph-name="Abreve" unicode="&#x102;" horiz-adv-x="1353" 
d="M956 1747q-1 -103 -78.5 -164t-201.5 -61q-123 0 -200.5 61t-78.5 164h86q5 -64 56.5 -102.5t136.5 -38.5q86 0 137.5 38.5t56.5 102.5h86zM29 0l641 1464h14l641 -1464h-125l-199 461h-649l-198 -461h-125zM383 557q36 4 115 4h356q79 0 115 -4l2 2q-31 45 -62 119
l-174 412q-50 123 -55 176h-8q-6 -56 -54 -176l-174 -412q-32 -77 -61 -119v-2z" />
    <glyph glyph-name="abreve" unicode="&#x103;" horiz-adv-x="1038" 
d="M803 1436q0 -135 -77.5 -212t-203.5 -77q-124 0 -201 77t-77 212h86q3 -98 53.5 -151.5t138.5 -53.5q90 0 141 53.5t54 151.5h86zM520 977q195 0 287 -90t92 -279v-608h-102q0 80 12 186l-4 2q-46 -102 -144 -160.5t-223 -58.5q-165 0 -266.5 93.5t-101.5 244.5
q0 154 101 245t271 91q124 0 222 -57t139 -152l6 4q-7 25 -8.5 50t-1.5 114q-1 139 -70.5 205.5t-210.5 66.5q-140 0 -317 -57l-31 103q196 57 350 57zM461 547q-126 0 -202.5 -67t-76.5 -177q0 -107 76.5 -172t202.5 -65q134 0 225.5 69t91.5 170t-92 171.5t-225 70.5z" />
    <glyph glyph-name="Aogonek" unicode="&#x104;" horiz-adv-x="1353" 
d="M1149 -301q46 0 100 14l11 -75q-61 -21 -125 -21q-75 0 -127 35t-52 102q0 70 56.5 138.5t171.5 146.5l-183 422h-649l-198 -461h-125l641 1464h14l641 -1464h-86q-98 -72 -145 -126.5t-47 -102.5q0 -72 102 -72zM969 557l2 2q-31 45 -62 119l-174 412q-50 123 -55 176
h-8q-6 -56 -54 -176l-174 -412q-32 -77 -61 -119v-2q36 4 115 4h356q79 0 115 -4z" />
    <glyph glyph-name="aogonek" unicode="&#x105;" horiz-adv-x="1038" 
d="M831 0q-98 -72 -145 -126.5t-47 -102.5q0 -72 102 -72q47 0 101 14l10 -75q-61 -21 -125 -21q-75 0 -126.5 35t-51.5 102q0 73 61.5 144.5t186.5 154.5q1 23 12 133l-4 2q-46 -102 -144 -160.5t-223 -58.5q-165 0 -266.5 93.5t-101.5 244.5q0 154 101 245t271 91
q124 0 222 -57t139 -152l6 4q-7 25 -8.5 50t-1.5 114q-1 139 -70.5 205.5t-210.5 66.5q-140 0 -317 -57l-31 103q196 57 350 57q195 0 287 -90t92 -279v-608h-68zM461 66q134 0 225.5 69t91.5 170t-92 171.5t-225 70.5q-126 0 -202.5 -67t-76.5 -177q0 -107 76.5 -172
t202.5 -65z" />
    <glyph glyph-name="Cacute" unicode="&#x106;" horiz-adv-x="1429" 
d="M1106 1747l2 -6l-242 -219h-82l-2 6l187 219h137zM850 -31q-342 0 -552 206.5t-210 541.5t210 541t552 206q274 0 498 -164l-70 -96q-105 77 -207 112.5t-223 35.5q-284 0 -461.5 -176.5t-177.5 -458.5t177.5 -458.5t461.5 -176.5q121 0 223 35t207 112l70 -96
q-224 -164 -498 -164z" />
    <glyph glyph-name="cacute" unicode="&#x107;" horiz-adv-x="983" 
d="M866 1448v-8l-243 -307h-82v10l188 305h137zM594 -31q-227 0 -368.5 140t-141.5 364t141.5 364t368.5 140q175 0 321 -92l-51 -92q-134 81 -274 81q-172 0 -283.5 -113t-111.5 -288q0 -174 112 -287.5t283 -113.5q139 0 274 82l51 -93q-146 -92 -321 -92z" />
    <glyph glyph-name="Ccircumflex" unicode="&#x108;" horiz-adv-x="1429" 
d="M518 1522v6l242 239h131l239 -239v-6h-112l-98 92q-44 39 -62 60.5t-31 51.5h-6q-11 -29 -28.5 -50t-61.5 -62l-98 -92h-115zM850 -31q-342 0 -552 206.5t-210 541.5t210 541t552 206q274 0 498 -164l-70 -96q-105 77 -207 112.5t-223 35.5q-284 0 -461.5 -176.5
t-177.5 -458.5t177.5 -458.5t461.5 -176.5q121 0 223 35t207 112l70 -96q-224 -164 -498 -164z" />
    <glyph glyph-name="ccircumflex" unicode="&#x109;" horiz-adv-x="983" 
d="M639 1448l223 -309v-6h-108l-111 157q-32 47 -44 68t-21 49h-5q-9 -29 -20.5 -51t-42.5 -66l-113 -157h-108v6l223 309h127zM594 -31q-227 0 -368.5 140t-141.5 364t141.5 364t368.5 140q175 0 321 -92l-51 -92q-134 81 -274 81q-172 0 -283.5 -113t-111.5 -288
q0 -174 112 -287.5t283 -113.5q139 0 274 82l51 -93q-146 -92 -321 -92z" />
    <glyph glyph-name="Cdotaccent" unicode="&#x10a;" horiz-adv-x="1429" 
d="M885 1747v-225h-117v225h117zM850 -31q-342 0 -552 206.5t-210 541.5t210 541t552 206q274 0 498 -164l-70 -96q-105 77 -207 112.5t-223 35.5q-284 0 -461.5 -176.5t-177.5 -458.5t177.5 -458.5t461.5 -176.5q121 0 223 35t207 112l70 -96q-224 -164 -498 -164z" />
    <glyph glyph-name="cdotaccent" unicode="&#x10b;" horiz-adv-x="983" 
d="M637 1434v-267h-121v267h121zM594 -31q-227 0 -368.5 140t-141.5 364t141.5 364t368.5 140q175 0 321 -92l-51 -92q-134 81 -274 81q-172 0 -283.5 -113t-111.5 -288q0 -174 112 -287.5t283 -113.5q139 0 274 82l51 -93q-146 -92 -321 -92z" />
    <glyph glyph-name="Ccaron" unicode="&#x10c;" horiz-adv-x="1429" 
d="M1130 1767v-6l-239 -239h-131l-242 239v6h115l98 -92q44 -41 61.5 -62t28.5 -50h6q13 29 30.5 50t62.5 62l98 92h112zM850 -31q-342 0 -552 206.5t-210 541.5t210 541t552 206q274 0 498 -164l-70 -96q-105 77 -207 112.5t-223 35.5q-284 0 -461.5 -176.5t-177.5 -458.5
t177.5 -458.5t461.5 -176.5q121 0 223 35t207 112l70 -96q-224 -164 -498 -164z" />
    <glyph glyph-name="ccaron" unicode="&#x10d;" horiz-adv-x="983" 
d="M512 1133l-242 309v6h111l125 -158l10.5 -14t10 -13t8.5 -11t7.5 -10.5t6 -9t6 -9.5t5 -9t5 -10.5t4 -10t4.5 -11.5h5q2 6 4.5 11.5t4 10t5 10.5t5 9t6 9.5t6 9t7.5 10.5t8.5 11t10 13l10.5 14l125 158h111v-6l-242 -309h-127zM594 -31q-227 0 -368.5 140t-141.5 364
t141.5 364t368.5 140q175 0 321 -92l-51 -92q-134 81 -274 81q-172 0 -283.5 -113t-111.5 -288q0 -174 112 -287.5t283 -113.5q139 0 274 82l51 -93q-146 -92 -321 -92z" />
    <glyph glyph-name="Dcaron" unicode="&#x10e;" horiz-adv-x="1415" 
d="M909 1767v-6l-239 -239h-131l-242 239v6h115l98 -92q44 -41 61.5 -62t28.5 -50h6q13 29 30.5 50t61.5 62l99 92h112zM604 1434q216 0 380.5 -89t254.5 -252t90 -376t-90 -376t-254.5 -252t-380.5 -89h-434v1434h434zM279 1331l-3 -2q7 -21 7 -49v-1126q0 -29 -7 -50l3 -2
q10 4 53 4h272q275 0 439.5 166.5t164.5 444.5t-165 444t-439 166h-272q-43 0 -53 4z" />
    <glyph glyph-name="dcaron" unicode="&#x10f;" horiz-adv-x="1374" 
d="M1247 1495h121l-121 -381h-65zM559 -31q-211 0 -343 140t-132 364t132 364t343 140q152 0 261.5 -75t160.5 -214l6 4q-16 73 -16 254v518h104v-1464h-102q0 158 20 252l-8 2q-56 -138 -165 -211.5t-261 -73.5zM569 74q182 0 296 110.5t114 288.5q0 177 -112.5 288
t-291.5 111q-173 0 -276.5 -109.5t-103.5 -291.5q0 -180 102.5 -288.5t271.5 -108.5z" />
    <glyph glyph-name="Dcroat" unicode="&#x110;" horiz-adv-x="1480" 
d="M678 1434q205 0 366 -85t254 -249.5t93 -382.5t-93 -382.5t-254 -249.5t-366 -85h-442v629q0 31 6 49l-2 2q-12 -4 -54 -4h-170v100h170q42 0 54 -4l2 2q-6 18 -6 49v611h442zM664 104q129 0 239 40.5t192 116.5t128.5 193.5t46.5 262.5t-46.5 261.5t-128.5 192t-192 116
t-239 40.5h-267q-39 0 -51 4l-4 -2q6 -18 6 -49v-457q0 -31 -6 -49l4 -2q12 4 51 4h424v-100h-424q-39 0 -51 4l-4 -2q6 -18 6 -49v-477q0 -32 -6 -50l4 -2q12 4 51 4h267z" />
    <glyph glyph-name="dcroat" unicode="&#x111;" horiz-adv-x="1208" 
d="M1120 1255h86v-75h-86q-33 0 -53 10l-2 -2q8 -16 8 -58v-1130h-102q0 158 20 252l-8 2q-40 -102 -110 -168t-147 -91.5t-167 -25.5q-204 0 -339.5 136.5t-135.5 367.5q0 116 37 211.5t101 159t150.5 98.5t186.5 35q148 0 257.5 -73.5t164.5 -215.5l6 4q-16 79 -16 254
v184q0 42 8 58l-2 2q-20 -10 -55 -10h-308v75h308q35 0 55 -10l2 2q-8 16 -8 58v159h102v-159q0 -42 -8 -58l2 -2q20 10 53 10zM567 74q187 0 299.5 112.5t112.5 286.5t-112 286.5t-294 112.5q-169 0 -274.5 -108t-105.5 -293q0 -183 104 -290t270 -107z" />
    <glyph glyph-name="Emacron" unicode="&#x112;" horiz-adv-x="1046" 
d="M311 1671h566v-86h-566v86zM956 1434v-107h-624q-41 0 -53 4l-3 -2q7 -21 7 -49v-389q0 -28 -7 -49l3 -2q12 4 53 4h559v-107h-559q-35 0 -53 6l-3 -2q7 -21 7 -51v-536q0 -29 -7 -50l3 -2q12 4 53 4h633v-106h-795v1434h786z" />
    <glyph glyph-name="emacron" unicode="&#x113;" horiz-adv-x="1103" 
d="M856 1356v-88h-563v88h563zM567 977q207 0 329 -133t122 -359v-24h-742q-66 0 -86 10l-2 -2l5 -18q3 -175 106.5 -278t275.5 -103q108 0 190.5 44t160.5 144l73 -68q-162 -221 -426 -221q-223 0 -356 138t-133 368q0 229 131.5 365.5t351.5 136.5zM565 879
q-159 0 -258.5 -91.5t-113.5 -250.5l2 -2q25 14 84 14h534q55 0 92 -12l2 2q-12 162 -101.5 251t-240.5 89z" />
    <glyph glyph-name="Ebreve" unicode="&#x114;" horiz-adv-x="1046" 
d="M874 1747q-1 -103 -78.5 -164t-201.5 -61q-123 0 -200.5 61t-78.5 164h86q5 -64 56.5 -102.5t136.5 -38.5q86 0 137.5 38.5t56.5 102.5h86zM956 1434v-107h-624q-41 0 -53 4l-3 -2q7 -21 7 -49v-389q0 -28 -7 -49l3 -2q12 4 53 4h559v-107h-559q-35 0 -53 6l-3 -2
q7 -21 7 -51v-536q0 -29 -7 -50l3 -2q12 4 53 4h633v-106h-795v1434h786z" />
    <glyph glyph-name="ebreve" unicode="&#x115;" horiz-adv-x="1103" 
d="M854 1436q0 -135 -77.5 -212t-203.5 -77q-124 0 -201 77t-77 212h86q3 -98 53.5 -151.5t138.5 -53.5q90 0 141 53.5t54 151.5h86zM567 977q207 0 329 -133t122 -359v-24h-742q-66 0 -86 10l-2 -2l5 -18q3 -175 106.5 -278t275.5 -103q108 0 190.5 44t160.5 144l73 -68
q-162 -221 -426 -221q-223 0 -356 138t-133 368q0 229 131.5 365.5t351.5 136.5zM565 879q-159 0 -258.5 -91.5t-113.5 -250.5l2 -2q25 14 84 14h534q55 0 92 -12l2 2q-12 162 -101.5 251t-240.5 89z" />
    <glyph glyph-name="Edotaccent" unicode="&#x116;" horiz-adv-x="1046" 
d="M653 1747v-225h-116v225h116zM956 1434v-107h-624q-41 0 -53 4l-3 -2q7 -21 7 -49v-389q0 -28 -7 -49l3 -2q12 4 53 4h559v-107h-559q-35 0 -53 6l-3 -2q7 -21 7 -51v-536q0 -29 -7 -50l3 -2q12 4 53 4h633v-106h-795v1434h786z" />
    <glyph glyph-name="edotaccent" unicode="&#x117;" horiz-adv-x="1103" 
d="M635 1434v-267h-121v267h121zM567 977q207 0 329 -133t122 -359v-24h-742q-66 0 -86 10l-2 -2l5 -18q3 -175 106.5 -278t275.5 -103q108 0 190.5 44t160.5 144l73 -68q-162 -221 -426 -221q-223 0 -356 138t-133 368q0 229 131.5 365.5t351.5 136.5zM565 879
q-159 0 -258.5 -91.5t-113.5 -250.5l2 -2q25 14 84 14h534q55 0 92 -12l2 2q-12 162 -101.5 251t-240.5 89z" />
    <glyph glyph-name="Eogonek" unicode="&#x118;" horiz-adv-x="1046" 
d="M922 0q-98 -72 -145.5 -126.5t-47.5 -102.5q0 -72 102 -72q47 0 101 14l10 -75q-61 -21 -125 -21q-75 0 -126.5 35t-51.5 102q0 115 172 246h-641v1434h786v-107h-624q-41 0 -53 4l-3 -2q7 -21 7 -49v-389q0 -28 -7 -49l3 -2q12 4 53 4h559v-107h-559q-35 0 -53 6l-3 -2
q7 -21 7 -51v-536q0 -29 -7 -50l3 -2q12 4 53 4h633v-106h-43z" />
    <glyph glyph-name="eogonek" unicode="&#x119;" horiz-adv-x="1103" 
d="M276 461q-66 0 -86 10l-2 -2l5 -18q3 -175 106.5 -278t275.5 -103q108 0 190.5 44t160.5 144l73 -68q-80 -110 -196 -170h2q-113 -80 -167 -139.5t-54 -109.5q0 -72 102 -72q46 0 100 14l11 -75q-61 -21 -125 -21q-75 0 -126.5 35t-51.5 102q0 104 137 217q-18 -2 -58 -2
q-223 0 -356 138t-133 368q0 229 131.5 365.5t351.5 136.5q207 0 329 -133t122 -359v-24h-742zM565 879q-159 0 -258.5 -91.5t-113.5 -250.5l2 -2q25 14 84 14h534q55 0 92 -12l2 2q-12 162 -101.5 251t-240.5 89z" />
    <glyph glyph-name="Ecaron" unicode="&#x11a;" horiz-adv-x="1046" 
d="M899 1767v-6l-240 -239h-131l-241 239v6h114l99 -92q44 -41 61.5 -62t28.5 -50h6q13 29 30.5 50t61.5 62l98 92h113zM956 1434v-107h-624q-41 0 -53 4l-3 -2q7 -21 7 -49v-389q0 -28 -7 -49l3 -2q12 4 53 4h559v-107h-559q-35 0 -53 6l-3 -2q7 -21 7 -51v-536
q0 -29 -7 -50l3 -2q12 4 53 4h633v-106h-795v1434h786z" />
    <glyph glyph-name="ecaron" unicode="&#x11b;" horiz-adv-x="1103" 
d="M512 1133l-242 309v6h111l125 -158l10.5 -14t10 -13t8.5 -11t7.5 -10.5t6 -9t6 -9.5t5 -9t5 -10.5t4 -10t4.5 -11.5h5q2 6 4.5 11.5t4 10t5 10.5t5 9t6 9.5t6 9t7.5 10.5t8.5 11t10 13l10.5 14l125 158h111v-6l-242 -309h-127zM567 977q207 0 329 -133t122 -359v-24h-742
q-66 0 -86 10l-2 -2l5 -18q3 -175 106.5 -278t275.5 -103q108 0 190.5 44t160.5 144l73 -68q-162 -221 -426 -221q-223 0 -356 138t-133 368q0 229 131.5 365.5t351.5 136.5zM565 879q-159 0 -258.5 -91.5t-113.5 -250.5l2 -2q25 14 84 14h534q55 0 92 -12l2 2
q-12 162 -101.5 251t-240.5 89z" />
    <glyph glyph-name="Gcircumflex" unicode="&#x11c;" horiz-adv-x="1644" 
d="M543 1522v6l241 239h131l240 -239v-6h-113l-98 92q-43 39 -61 60.5t-31 51.5h-6q-11 -29 -28.5 -50t-61.5 -62l-99 -92h-114zM852 1464q150 0 279.5 -46.5t257.5 -141.5l-74 -98q-116 89 -228.5 131.5t-240.5 42.5q-279 0 -458 -181.5t-179 -461.5q0 -180 81 -323.5
t227 -223.5t331 -80q124 0 227.5 37.5t171 97t115 135.5t68.5 150.5t22 144.5l-2 2q-32 -14 -139 -14h-463v106h723v-45q0 -105 -27 -207t-85 -196.5t-141 -166t-205 -114.5t-267 -43q-219 0 -391.5 93t-269.5 262t-97 385q0 165 56 305t155.5 239t242 155t310.5 56z" />
    <glyph glyph-name="gcircumflex" unicode="&#x11d;" horiz-adv-x="1212" 
d="M641 1448l223 -309v-6h-108l-111 157q-32 47 -44 68t-21 49h-5q-9 -29 -20.5 -51t-42.5 -66l-113 -157h-108v6l223 309h127zM561 977q150 0 258.5 -74.5t161.5 -212.5l6 4q-16 78 -16 252h102v-936q0 -221 -127.5 -335.5t-374.5 -114.5q-235 0 -415 108l53 94
q98 -54 184 -77t185 -23q193 0 294 89.5t101 262.5v52q0 113 18 186l-8 2q-59 -139 -166 -212t-254 -73q-214 0 -346.5 139t-132.5 365q0 225 132 364.5t345 139.5zM578 872q-175 0 -279 -109t-104 -292q0 -182 103 -289.5t275 -107.5q179 0 292.5 111t113.5 288
q0 175 -112 287t-289 112z" />
    <glyph glyph-name="Gbreve" unicode="&#x11e;" horiz-adv-x="1644" 
d="M1130 1747q-1 -103 -78.5 -164t-201.5 -61q-123 0 -200.5 61t-78.5 164h86q5 -64 56.5 -102.5t136.5 -38.5q86 0 137.5 38.5t56.5 102.5h86zM852 1464q150 0 279.5 -46.5t257.5 -141.5l-74 -98q-116 89 -228.5 131.5t-240.5 42.5q-279 0 -458 -181.5t-179 -461.5
q0 -180 81 -323.5t227 -223.5t331 -80q124 0 227.5 37.5t171 97t115 135.5t68.5 150.5t22 144.5l-2 2q-32 -14 -139 -14h-463v106h723v-45q0 -105 -27 -207t-85 -196.5t-141 -166t-205 -114.5t-267 -43q-219 0 -391.5 93t-269.5 262t-97 385q0 165 56 305t155.5 239t242 155
t310.5 56z" />
    <glyph glyph-name="gbreve" unicode="&#x11f;" horiz-adv-x="1212" 
d="M858 1436q0 -135 -77 -212t-203 -77q-124 0 -201.5 77t-77.5 212h86q3 -98 54 -151.5t139 -53.5q89 0 140 53.5t54 151.5h86zM561 977q150 0 258.5 -74.5t161.5 -212.5l6 4q-16 78 -16 252h102v-936q0 -221 -127.5 -335.5t-374.5 -114.5q-235 0 -415 108l53 94
q98 -54 184 -77t185 -23q193 0 294 89.5t101 262.5v52q0 113 18 186l-8 2q-59 -139 -166 -212t-254 -73q-214 0 -346.5 139t-132.5 365q0 225 132 364.5t345 139.5zM578 872q-175 0 -279 -109t-104 -292q0 -182 103 -289.5t275 -107.5q179 0 292.5 111t113.5 288
q0 175 -112 287t-289 112z" />
    <glyph glyph-name="Gdotaccent" unicode="&#x120;" horiz-adv-x="1644" 
d="M909 1747v-225h-116v225h116zM852 1464q150 0 279.5 -46.5t257.5 -141.5l-74 -98q-116 89 -228.5 131.5t-240.5 42.5q-279 0 -458 -181.5t-179 -461.5q0 -180 81 -323.5t227 -223.5t331 -80q124 0 227.5 37.5t171 97t115 135.5t68.5 150.5t22 144.5l-2 2
q-32 -14 -139 -14h-463v106h723v-45q0 -105 -27 -207t-85 -196.5t-141 -166t-205 -114.5t-267 -43q-219 0 -391.5 93t-269.5 262t-97 385q0 165 56 305t155.5 239t242 155t310.5 56z" />
    <glyph glyph-name="gdotaccent" unicode="&#x121;" horiz-adv-x="1212" 
d="M639 1434v-267h-121v267h121zM561 977q150 0 258.5 -74.5t161.5 -212.5l6 4q-16 78 -16 252h102v-936q0 -221 -127.5 -335.5t-374.5 -114.5q-235 0 -415 108l53 94q98 -54 184 -77t185 -23q193 0 294 89.5t101 262.5v52q0 113 18 186l-8 2q-59 -139 -166 -212t-254 -73
q-214 0 -346.5 139t-132.5 365q0 225 132 364.5t345 139.5zM578 872q-175 0 -279 -109t-104 -292q0 -182 103 -289.5t275 -107.5q179 0 292.5 111t113.5 288q0 175 -112 287t-289 112z" />
    <glyph glyph-name="Gcommaaccent" unicode="&#x122;" horiz-adv-x="1644" 
d="M852 1464q150 0 279.5 -46.5t257.5 -141.5l-74 -98q-116 89 -228.5 131.5t-240.5 42.5q-279 0 -458 -181.5t-179 -461.5q0 -180 81 -323.5t227 -223.5t331 -80q124 0 227.5 37.5t171 97t115 135.5t68.5 150.5t22 144.5l-2 2q-32 -14 -139 -14h-463v106h723v-45
q0 -105 -27 -207t-85 -196.5t-141 -166t-205 -114.5t-267 -43q-219 0 -391.5 93t-269.5 262t-97 385q0 165 56 305t155.5 239t242 155t310.5 56zM922 -104l-125 -336h-70l74 336h121z" />
    <glyph glyph-name="gcommaaccent" unicode="&#x123;" horiz-adv-x="1212" 
d="M641 1133h-125l143 319h70zM561 977q150 0 258.5 -74.5t161.5 -212.5l6 4q-16 78 -16 252h102v-936q0 -221 -127.5 -335.5t-374.5 -114.5q-235 0 -415 108l53 94q98 -54 184 -77t185 -23q193 0 294 89.5t101 262.5v52q0 113 18 186l-8 2q-59 -139 -166 -212t-254 -73
q-214 0 -346.5 139t-132.5 365q0 225 132 364.5t345 139.5zM578 872q-175 0 -279 -109t-104 -292q0 -182 103 -289.5t275 -107.5q179 0 292.5 111t113.5 288q0 175 -112 287t-289 112z" />
    <glyph glyph-name="Hcircumflex" unicode="&#x124;" horiz-adv-x="1423" 
d="M403 1522v6l242 239h131l240 -239v-6h-113l-98 92q-43 39 -61 60.5t-31 51.5h-6q-11 -29 -28.5 -49.5t-62.5 -62.5l-98 -92h-115zM1255 1434v-1434h-112v666q0 33 6 51l-4 2q-18 -6 -51 -6h-762q-35 0 -53 6l-3 -2q7 -21 7 -51v-666h-113v1434h113v-566q0 -32 -7 -49
l3 -4q12 6 53 6h762q39 0 51 -6l4 4q-6 15 -6 49v566h112z" />
    <glyph glyph-name="hcircumflex" unicode="&#x125;" horiz-adv-x="1130" 
d="M-98 1522v6l241 239h131l240 -239v-6h-113l-98 92q-43 39 -61 60.5t-31 51.5h-6q-11 -29 -28.5 -50t-61.5 -62l-99 -92h-114zM260 1464v-561q0 -160 -16 -248l8 -4q83 326 381 326q173 0 266.5 -104.5t93.5 -299.5v-573h-104v561q0 149 -72.5 232.5t-202.5 83.5
q-166 0 -260 -120.5t-94 -332.5v-424h-104v1464h104z" />
    <glyph glyph-name="Hbar" unicode="&#x126;" horiz-adv-x="1402" 
d="M160 0v1022q0 37 4 49l-2 2q-10 -4 -49 -4h-113v96h113q39 0 49 -4l2 2q-4 12 -4 49v222h110v-222q0 -31 -6 -49l4 -2q10 4 49 4h768q40 0 52 -4l2 2q-6 18 -6 49v222h112v-222q0 -31 -6 -49l2 -2q12 4 49 4h113v-96h-113q-37 0 -49 4l-2 -2q6 -18 6 -49v-1022h-112v668
q0 31 6 49l-2 2q-12 -4 -52 -4h-768q-39 0 -49 4l-4 -2q6 -18 6 -49v-668h-110zM268 815q15 6 49 6h768q34 0 52 -6l2 4q-6 15 -6 47v156q0 31 6 49l-2 2q-12 -4 -52 -4h-768q-39 0 -49 4l-4 -2q6 -18 6 -49v-156q0 -32 -6 -47z" />
    <glyph glyph-name="hbar" unicode="&#x127;" horiz-adv-x="1126" 
d="M627 977q167 0 263.5 -100t96.5 -302v-575h-104v547q0 170 -75 250t-200 80q-158 0 -256 -115t-98 -338v-424h-102v1130q0 42 8 58l-2 2q-20 -10 -54 -10h-102v75h102q34 0 54 -10l2 2q-8 16 -8 58v159h102v-159q0 -42 -8 -58l2 -2q20 10 55 10h291v-75h-291
q-35 0 -55 10l-2 -2q8 -16 8 -58v-227q0 -164 -16 -248l8 -4q85 326 381 326z" />
    <glyph glyph-name="Itilde" unicode="&#x128;" horiz-adv-x="450" 
d="M-35 1556l-61 23q12 33 25.5 58t35.5 52t54 41.5t71 14.5q47 0 111.5 -27.5t124 -55.5t94.5 -28q64 0 106 92l62 -22q-61 -166 -187 -166q-47 0 -111 28t-123.5 55.5t-94.5 27.5q-65 0 -107 -93zM283 1434v-1434h-113v1434h113z" />
    <glyph glyph-name="itilde" unicode="&#x129;" horiz-adv-x="417" 
d="M98 1415q37 0 75 -18.5t63 -41t54.5 -41t53.5 -18.5q58 0 96 101l64 -23q-11 -35 -23 -61t-31.5 -53t-49 -41.5t-66.5 -14.5t-74.5 18.5t-62.5 40t-54 40t-53 18.5q-58 0 -94 -98l-64 22q11 35 22.5 60.5t31 53t48 42t64.5 14.5zM260 946v-946h-104v946h104z" />
    <glyph glyph-name="Imacron" unicode="&#x12a;" horiz-adv-x="450" 
d="M-57 1671h565v-86h-565v86zM283 1434v-1434h-113v1434h113z" />
    <glyph glyph-name="imacron" unicode="&#x12b;" horiz-adv-x="417" 
d="M408 1356v-88h-400v88h400zM260 946v-946h-104v946h104z" />
    <glyph glyph-name="Ibreve" unicode="&#x12c;" horiz-adv-x="450" 
d="M506 1747q-1 -103 -79 -164t-202 -61q-123 0 -200 61t-78 164h86q5 -64 56 -102.5t136 -38.5q87 0 138.5 38.5t56.5 102.5h86zM283 1434v-1434h-113v1434h113z" />
    <glyph glyph-name="ibreve" unicode="&#x12d;" horiz-adv-x="417" 
d="M432 1436q0 -289 -223 -289t-223 289h86q1 -39 3.5 -66.5t11 -55.5t23 -45.5t39.5 -28.5t60 -11t60 11t39.5 28.5t23 45.5t11 55.5t3.5 66.5h86zM260 946v-946h-104v946h104z" />
    <glyph glyph-name="Iogonek" unicode="&#x12e;" horiz-adv-x="450" 
d="M236 0q-98 -72 -145.5 -126.5t-47.5 -102.5q0 -72 102 -72q47 0 101 14l10 -75q-61 -21 -125 -21q-75 0 -126.5 35t-51.5 102q0 69 54 136t163 143v1401h113v-1434h-47z" />
    <glyph glyph-name="iogonek" unicode="&#x12f;" horiz-adv-x="417" 
d="M147 1434h121v-267h-121v267zM156 43v903h104v-946h-51q-98 -72 -145.5 -126.5t-47.5 -102.5q0 -72 103 -72q46 0 100 14l10 -75q-61 -21 -125 -21q-75 0 -126.5 35t-51.5 102q0 69 57 138t173 151z" />
    <glyph glyph-name="Idotaccent" unicode="&#x130;" horiz-adv-x="450" 
d="M285 1747v-225h-117v225h117zM283 1434v-1434h-113v1434h113z" />
    <glyph glyph-name="dotlessi" unicode="&#x131;" horiz-adv-x="417" 
d="M260 946v-946h-104v946h104z" />
    <glyph glyph-name="IJ" unicode="&#x132;" horiz-adv-x="1011" 
d="M283 1434v-1434h-113v1434h113zM842 1434v-1143q0 -155 -63 -228t-197 -73q-14 0 -80 4v110q62 -4 69 -4q81 0 119.5 45t38.5 144v1145h113z" />
    <glyph glyph-name="ij" unicode="&#x133;" horiz-adv-x="835" 
d="M268 1434v-267h-121v267h121zM686 1434v-267h-121v267h121zM260 946v-946h-104v946h104zM678 946v-1087q0 -299 -285 -299h-18v104h20q88 0 133 46t45 149v1087h105z" />
    <glyph glyph-name="Jcircumflex" unicode="&#x134;" horiz-adv-x="559" 
d="M27 1522v6l241 239h131l240 -239v-6h-113l-98 92q-43 39 -61 60.5t-31 51.5h-6q-11 -29 -28.5 -50t-61.5 -62l-99 -92h-114zM391 1434v-1143q0 -155 -63 -228t-197 -73q-14 0 -80 4v110q62 -4 70 -4q81 0 119.5 45t38.5 144v1145h112z" />
    <glyph glyph-name="jcircumflex" unicode="&#x135;" horiz-adv-x="417" 
d="M262 1448l174 -309v-6h-96l-86 157q-37 67 -43 109h-4q-8 -42 -45 -109l-86 -157h-96v6l174 309h108zM260 946v-1087q0 -299 -285 -299h-18v104h20q88 0 133.5 46.5t45.5 148.5v1087h104z" />
    <glyph glyph-name="Kcommaaccent" unicode="&#x136;" horiz-adv-x="1187" 
d="M1098 1434l-539 -531q-63 -64 -92.5 -91t-63.5 -48v-2q19 -11 37.5 -25.5t29.5 -25.5l40.5 -40.5t48.5 -47.5l619 -623h-164l-742 748l-2 -3q13 -99 13 -241v-504h-113v1434h113v-416q0 -146 -13 -242l2 -4l666 662h160zM682 -104l-125 -336h-70l74 336h121z" />
    <glyph glyph-name="kcommaaccent" unicode="&#x137;" horiz-adv-x="925" 
d="M260 1464v-708q0 -135 -16 -226l4 -4l442 420h156l-387 -348q-73 -70 -105 -84l4 -2q41 -23 109 -86l444 -426h-151l-512 498l-4 -4q16 -91 16 -228v-266h-104v1464h104zM504 -104l-125 -336h-70l74 336h121z" />
    <glyph glyph-name="kgreenlandic" unicode="&#x138;" horiz-adv-x="925" 
d="M156 0v946h104v-190q0 -132 -16 -226l4 -4l436 420h154l-379 -348q-75 -72 -103 -84l4 -2q33 -15 107 -86l442 -426h-151l-510 498l-4 -4q16 -91 16 -228v-266h-104z" />
    <glyph glyph-name="Lacute" unicode="&#x139;" horiz-adv-x="1007" 
d="M506 1747l2 -6l-242 -219h-82l-2 6l187 219h137zM283 1434v-1278q0 -31 -7 -52l3 -2q21 7 53 7h647v-109h-809v1434h113z" />
    <glyph glyph-name="lacute" unicode="&#x13a;" horiz-adv-x="417" 
d="M489 1747l3 -6l-242 -219h-82l-2 6l186 219h137zM260 1464v-1464h-104v1464h104z" />
    <glyph glyph-name="Lcommaaccent" unicode="&#x13b;" horiz-adv-x="1007" 
d="M283 1434v-1278q0 -31 -7 -52l3 -2q21 7 53 7h647v-109h-809v1434h113zM623 -104l-125 -336h-70l74 336h121z" />
    <glyph glyph-name="lcommaaccent" unicode="&#x13c;" horiz-adv-x="417" 
d="M260 1464v-1464h-104v1464h104zM268 -104l-125 -336h-69l73 336h121z" />
    <glyph glyph-name="Lcaron" unicode="&#x13d;" horiz-adv-x="1007" 
d="M690 1495h123l-121 -463h-65zM283 1434v-1278q0 -31 -7 -52l3 -2q21 7 53 7h647v-109h-809v1434h113z" />
    <glyph glyph-name="lcaron" unicode="&#x13e;" horiz-adv-x="573" 
d="M446 1495h123l-123 -381h-65zM260 1464v-1464h-104v1464h104z" />
    <glyph glyph-name="Ldot" unicode="&#x13f;" horiz-adv-x="1007" 
d="M283 1434v-1278q0 -31 -7 -52l3 -2q21 7 53 7h647v-109h-809v1434h113zM682 766v184h180v-184h-180z" />
    <glyph glyph-name="ldot" unicode="&#x140;" horiz-adv-x="555" 
d="M260 1464v-1464h-104v1464h104zM356 762v184h181v-184h-181z" />
    <glyph glyph-name="Lslash" unicode="&#x141;" horiz-adv-x="1003" 
d="M164 0v551q0 54 12 78l-4 2q-27 -30 -68 -49l-108 -56v82l168 88v738h112v-613q0 -57 -14 -86l2 -2q23 26 78 53l336 170v-82l-402 -204v-514q0 -34 -6 -52l4 -2q14 7 52 7h649v-109h-811z" />
    <glyph glyph-name="lslash" unicode="&#x142;" horiz-adv-x="473" 
d="M182 0v674q0 47 17 82l-4 2q-15 -20 -60 -43l-123 -64v82l170 88v643h103v-524q0 -51 -17 -84l2 -2q21 24 62 45l127 66v-82l-174 -92v-791h-103z" />
    <glyph glyph-name="Nacute" unicode="&#x143;" horiz-adv-x="1443" 
d="M1032 1747l2 -6l-241 -219h-82l-2 6l186 219h137zM184 1454l877 -1063q93 -119 113 -164l4 2q-17 111 -17 258v947h113v-1454h-14l-877 1062q-93 119 -113 164l-4 -2q17 -110 17 -258v-946h-113v1454h14z" />
    <glyph glyph-name="nacute" unicode="&#x144;" horiz-adv-x="1122" 
d="M870 1448v-8l-243 -307h-82v10l188 305h137zM623 977q176 0 269 -104t93 -300v-573h-104v561q0 150 -72 233t-203 83q-166 0 -260 -120.5t-94 -332.5v-424h-102v946h102q0 -201 -19 -301l9 -4q85 336 381 336z" />
    <glyph glyph-name="Ncommaaccent" unicode="&#x145;" horiz-adv-x="1443" 
d="M184 1454l877 -1063q93 -119 113 -164l4 2q-17 111 -17 258v947h113v-1454h-14l-877 1062q-93 119 -113 164l-4 -2q17 -110 17 -258v-946h-113v1454h14zM795 -104l-125 -336h-70l74 336h121z" />
    <glyph glyph-name="ncommaaccent" unicode="&#x146;" horiz-adv-x="1122" 
d="M623 977q176 0 269 -104t93 -300v-573h-104v561q0 150 -72 233t-203 83q-166 0 -260 -120.5t-94 -332.5v-424h-102v946h102q0 -201 -19 -301l9 -4q85 336 381 336zM649 -104l-125 -336h-69l73 336h121z" />
    <glyph glyph-name="Ncaron" unicode="&#x147;" horiz-adv-x="1443" 
d="M1055 1767v-6l-240 -239h-131l-242 239v6h115l98 -92q44 -41 61.5 -62t28.5 -50h7q13 29 30.5 50t61.5 62l98 92h113zM184 1454l877 -1063q93 -119 113 -164l4 2q-17 111 -17 258v947h113v-1454h-14l-877 1062q-93 119 -113 164l-4 -2q17 -110 17 -258v-946h-113v1454h14
z" />
    <glyph glyph-name="ncaron" unicode="&#x148;" horiz-adv-x="1122" 
d="M518 1133l-242 309v6h111l125 -158q5 -6 15 -19.5t13.5 -17.5t10 -13.5t9.5 -14t7 -12.5t7 -15t6 -16h4q2 6 4.5 11.5t4 10t5 10.5t5 9t6 9.5t6 9t7.5 10.5t8.5 11t10 13l10.5 14l125 158h111v-6l-242 -309h-127zM623 977q176 0 269 -104t93 -300v-573h-104v561
q0 150 -72 233t-203 83q-166 0 -260 -120.5t-94 -332.5v-424h-102v946h102q0 -201 -19 -301l9 -4q85 336 381 336z" />
    <glyph glyph-name="napostrophe" unicode="&#x149;" horiz-adv-x="1122" 
d="M94 1495h123l-121 -463h-65zM623 977q176 0 269 -104t93 -300v-573h-104v561q0 150 -72 233t-203 83q-166 0 -260 -120.5t-94 -332.5v-424h-102v946h102q0 -201 -19 -301l9 -4q85 336 381 336z" />
    <glyph glyph-name="Eng" unicode="&#x14a;" horiz-adv-x="1443" 
d="M1274 1434v-1454v-101q0 -148 -78.5 -218.5t-216.5 -70.5h-111v109h113q180 0 180 180v219l-778 944q-93 119 -113 164l-4 -2q17 -110 17 -258v-946h-113v1454h14l877 -1063q93 -119 113 -164l4 2q-17 111 -17 258v947h113z" />
    <glyph glyph-name="eng" unicode="&#x14b;" horiz-adv-x="1122" 
d="M985 -123q0 -139 -67.5 -213t-192.5 -74h-107v101h111q73 0 112.5 47.5t39.5 138.5v123v561q0 150 -72 233t-203 83q-166 0 -260 -120.5t-94 -332.5v-424h-102v946h102q0 -201 -19 -301l9 -4q85 336 381 336q176 0 269 -104t93 -300v-696z" />
    <glyph glyph-name="Omacron" unicode="&#x14c;" horiz-adv-x="1669" 
d="M551 1671h565v-86h-565v86zM836 1464q160 0 299 -56t237.5 -154.5t154.5 -237.5t56 -299q0 -214 -95.5 -385t-266.5 -267t-385 -96t-385 96t-267 267t-96 385t96 385t267 266.5t385 95.5zM836 1352q-275 0 -451 -178.5t-176 -456.5t176 -456.5t451 -178.5q180 0 323 81
t223 226t80 328t-80 328t-223 226t-323 81z" />
    <glyph glyph-name="omacron" unicode="&#x14d;" horiz-adv-x="1183" 
d="M874 1356v-88h-563v88h563zM592 977q223 0 365.5 -141.5t142.5 -362.5q0 -220 -143 -362t-365 -142q-221 0 -364.5 142t-143.5 362q0 221 143 362.5t365 141.5zM592 874q-174 0 -285.5 -112t-111.5 -289q0 -175 112 -288t285 -113t285 113t112 288q0 177 -111.5 289
t-285.5 112z" />
    <glyph glyph-name="Obreve" unicode="&#x14e;" horiz-adv-x="1669" 
d="M1114 1747q-1 -103 -78.5 -164t-201.5 -61q-123 0 -200.5 61t-78.5 164h86q5 -64 56.5 -102.5t136.5 -38.5q86 0 137.5 38.5t56.5 102.5h86zM836 1464q160 0 299 -56t237.5 -154.5t154.5 -237.5t56 -299q0 -214 -95.5 -385t-266.5 -267t-385 -96t-385 96t-267 267
t-96 385t96 385t267 266.5t385 95.5zM836 1352q-275 0 -451 -178.5t-176 -456.5t176 -456.5t451 -178.5q180 0 323 81t223 226t80 328t-80 328t-223 226t-323 81z" />
    <glyph glyph-name="obreve" unicode="&#x14f;" horiz-adv-x="1183" 
d="M872 1436q0 -135 -77 -212t-203 -77q-124 0 -201.5 77t-77.5 212h86q3 -98 54 -151.5t139 -53.5q89 0 140 53.5t54 151.5h86zM592 977q223 0 365.5 -141.5t142.5 -362.5q0 -220 -143 -362t-365 -142q-221 0 -364.5 142t-143.5 362q0 221 143 362.5t365 141.5zM592 874
q-174 0 -285.5 -112t-111.5 -289q0 -175 112 -288t285 -113t285 113t112 288q0 177 -111.5 289t-285.5 112z" />
    <glyph glyph-name="Ohungarumlaut" unicode="&#x150;" horiz-adv-x="1669" 
d="M1004 1747l2 -6l-201 -219h-82l-2 6l190 219h93zM901 1528l191 219h92l2 -6l-199 -219h-84zM836 1464q160 0 299 -56t237.5 -154.5t154.5 -237.5t56 -299q0 -214 -95.5 -385t-266.5 -267t-385 -96t-385 96t-267 267t-96 385t96 385t267 266.5t385 95.5zM836 1352
q-275 0 -451 -178.5t-176 -456.5t176 -456.5t451 -178.5q180 0 323 81t223 226t80 328t-80 328t-223 226t-323 81z" />
    <glyph glyph-name="ohungarumlaut" unicode="&#x151;" horiz-adv-x="1183" 
d="M424 1133l-2 6l219 309h94l2 -6l-229 -309h-84zM649 1133l-2 6l219 309h95l2 -6l-230 -309h-84zM592 977q223 0 365.5 -141.5t142.5 -362.5q0 -220 -143 -362t-365 -142q-221 0 -364.5 142t-143.5 362q0 221 143 362.5t365 141.5zM592 874q-174 0 -285.5 -112
t-111.5 -289q0 -175 112 -288t285 -113t285 113t112 288q0 177 -111.5 289t-285.5 112z" />
    <glyph glyph-name="OE" unicode="&#x152;" horiz-adv-x="2359" 
d="M829 -31q-209 0 -378 94.5t-266 266t-97 387.5t97 387.5t266 265.5t378 94q440 0 635 -368l4 2q-6 31 -6 100v236h787v-107h-625q-39 0 -53 4l-2 -2q6 -18 6 -49v-389q0 -33 -6 -51l2 -2q21 6 53 6h561v-107h-561q-39 0 -53 4l-2 -2q6 -18 6 -51v-534q0 -32 -6 -50l2 -2
q14 4 53 4h635v-106h-797v215q0 80 6 125l-4 2q-196 -373 -635 -373zM836 86q134 0 251 49t199 133t129 200.5t47 248.5q0 182 -80 326t-223 224.5t-323 80.5q-274 0 -450.5 -177.5t-176.5 -453.5t176.5 -453.5t450.5 -177.5z" />
    <glyph glyph-name="oe" unicode="&#x153;" horiz-adv-x="2007" 
d="M590 -31q-222 0 -364 141t-142 363t142.5 363t365.5 141q158 0 273 -76t169 -225h8q45 150 154.5 225.5t265.5 75.5q95 0 173 -26.5t130.5 -72t88.5 -108.5t52.5 -134.5t16.5 -150.5v-24h-743q-57 0 -84 8l-2 -2l4 -16q3 -177 107 -279t276 -102q67 0 122 15t97 45.5
t69 58t60 69.5l74 -68q-32 -43 -65.5 -77t-84.5 -69.5t-121 -55t-153 -19.5q-165 0 -278.5 75.5t-158.5 223.5h-8q-50 -147 -166.5 -223t-277.5 -76zM1100 537q27 12 82 12h536q60 0 92 -14l2 4q-15 162 -104.5 251t-245.5 89q-147 0 -248 -87.5t-118 -252.5zM590 72
q169 0 282 111.5t113 289.5t-113 289.5t-282 111.5t-282 -111.5t-113 -289.5t113 -289.5t282 -111.5z" />
    <glyph glyph-name="Racute" unicode="&#x154;" horiz-adv-x="1181" 
d="M823 1747l2 -6l-241 -219h-82l-2 6l186 219h137zM627 1434q186 0 294.5 -99.5t108.5 -269.5q0 -166 -107.5 -265.5t-277.5 -99.5q-34 0 -67 11v-9q45 -28 88 -79l481 -623h-148l-536 696h-133q-41 0 -51 4l-3 -2q7 -21 7 -51v-647h-113v1434h457zM279 1331l-3 -2
q7 -21 7 -49v-430q0 -28 -7 -49l3 -2q10 4 53 4h297q134 0 208 69t74 193q0 122 -74 192t-208 70h-297q-43 0 -53 4z" />
    <glyph glyph-name="racute" unicode="&#x155;" horiz-adv-x="665" 
d="M659 1448v-8l-243 -307h-82v10l188 305h137zM563 977q29 0 72 -6v-119q-58 8 -80 8q-145 0 -224 -127.5t-79 -359.5v-373h-102v946h102q0 -215 -21 -325l11 -5q32 183 111.5 272t209.5 89z" />
    <glyph glyph-name="Rcommaaccent" unicode="&#x156;" horiz-adv-x="1181" 
d="M627 1434q186 0 294.5 -99.5t108.5 -269.5q0 -166 -107.5 -265.5t-277.5 -99.5q-34 0 -67 11v-9q45 -28 88 -79l481 -623h-148l-536 696h-133q-41 0 -51 4l-3 -2q7 -21 7 -51v-647h-113v1434h457zM279 1331l-3 -2q7 -21 7 -49v-430q0 -28 -7 -49l3 -2q10 4 53 4h297
q134 0 208 69t74 193q0 122 -74 192t-208 70h-297q-43 0 -53 4zM702 -104l-124 -336h-70l74 336h120z" />
    <glyph glyph-name="rcommaaccent" unicode="&#x157;" horiz-adv-x="665" 
d="M563 977q29 0 72 -6v-119q-58 8 -80 8q-145 0 -224 -127.5t-79 -359.5v-373h-102v946h102q0 -215 -21 -325l11 -5q32 183 111.5 272t209.5 89zM262 -104l-125 -336h-69l73 336h121z" />
    <glyph glyph-name="Rcaron" unicode="&#x158;" horiz-adv-x="1181" 
d="M846 1767v-6l-240 -239h-131l-242 239v6h115l98 -92q45 -42 62.5 -62.5t28.5 -49.5h6q13 29 30.5 50t61.5 62l98 92h113zM627 1434q186 0 294.5 -99.5t108.5 -269.5q0 -166 -107.5 -265.5t-277.5 -99.5q-34 0 -67 11v-9q45 -28 88 -79l481 -623h-148l-536 696h-133
q-41 0 -51 4l-3 -2q7 -21 7 -51v-647h-113v1434h457zM279 1331l-3 -2q7 -21 7 -49v-430q0 -28 -7 -49l3 -2q10 4 53 4h297q134 0 208 69t74 193q0 122 -74 192t-208 70h-297q-43 0 -53 4z" />
    <glyph glyph-name="rcaron" unicode="&#x159;" horiz-adv-x="665" 
d="M307 1133l-241 309v6h110l125 -158q5 -6 15 -19.5t13.5 -17.5t10 -13.5t9.5 -14t7 -12.5t7 -15t6 -16h4q2 6 4.5 11.5t4 10t5 10.5t5 9t6 9.5t6 9t7.5 10.5t8.5 11t10 13l10.5 14l125 158h111v-6l-242 -309h-127zM563 977q29 0 72 -6v-119q-58 8 -80 8
q-145 0 -224 -127.5t-79 -359.5v-373h-102v946h102q0 -215 -21 -325l11 -5q32 183 111.5 272t209.5 89z" />
    <glyph glyph-name="Sacute" unicode="&#x15a;" horiz-adv-x="1001" 
d="M805 1747l2 -6l-242 -219h-82l-2 6l187 219h137zM518 1464q164 0 350 -86l-53 -108q-163 82 -295 82q-124 0 -192 -53.5t-68 -147.5q0 -70 42.5 -128t146.5 -132l217 -156q139 -98 198.5 -188t59.5 -207q0 -174 -117 -272.5t-318 -98.5q-119 0 -234 34.5t-208 94.5
l57 105q189 -121 385 -121q147 0 231.5 68t84.5 184q0 82 -48.5 151t-164.5 152l-225 164q-123 87 -174.5 166t-51.5 182q0 148 99.5 231.5t277.5 83.5z" />
    <glyph glyph-name="sacute" unicode="&#x15b;" horiz-adv-x="849" 
d="M725 1448v-8l-244 -307h-82v10l189 305h137zM444 -31q-218 0 -395 121l53 90q159 -110 347 -110q106 0 165.5 41t59.5 114q0 52 -37 92.5t-117 75.5l-178 82q-109 51 -160 113.5t-51 146.5q0 114 83 178t232 64q165 0 314 -76l-47 -94q-143 70 -267 70q-98 0 -151 -36.5
t-53 -101.5q0 -54 36 -94t121 -78l170 -78q115 -53 165 -114t50 -150q0 -120 -89.5 -188t-250.5 -68z" />
    <glyph glyph-name="Scircumflex" unicode="&#x15c;" horiz-adv-x="1001" 
d="M215 1522v6l242 239h131l239 -239v-6h-112l-99 92q-43 39 -61 60.5t-31 51.5h-6q-11 -29 -28.5 -50t-61.5 -62l-98 -92h-115zM518 1464q164 0 350 -86l-53 -108q-163 82 -295 82q-124 0 -192 -53.5t-68 -147.5q0 -70 42.5 -128t146.5 -132l217 -156q139 -98 198.5 -188
t59.5 -207q0 -174 -117 -272.5t-318 -98.5q-119 0 -234 34.5t-208 94.5l57 105q189 -121 385 -121q147 0 231.5 68t84.5 184q0 82 -48.5 151t-164.5 152l-225 164q-123 87 -174.5 166t-51.5 182q0 148 99.5 231.5t277.5 83.5z" />
    <glyph glyph-name="scircumflex" unicode="&#x15d;" horiz-adv-x="849" 
d="M498 1448l223 -309v-6h-109l-110 157q-54 77 -66 117h-4q-9 -29 -20.5 -51t-42.5 -66l-113 -157h-109v6l224 309h127zM444 -31q-218 0 -395 121l53 90q159 -110 347 -110q106 0 165.5 41t59.5 114q0 52 -37 92.5t-117 75.5l-178 82q-109 51 -160 113.5t-51 146.5
q0 114 83 178t232 64q165 0 314 -76l-47 -94q-143 70 -267 70q-98 0 -151 -36.5t-53 -101.5q0 -54 36 -94t121 -78l170 -78q115 -53 165 -114t50 -150q0 -120 -89.5 -188t-250.5 -68z" />
    <glyph glyph-name="Scedilla" unicode="&#x15e;" horiz-adv-x="1001" 
d="M924 340q0 -168 -109 -265.5t-299 -105.5l-20 -55q34 -8 58 -17t52 -25.5t43 -42.5t15 -60q0 -47 -40.5 -90t-75.5 -63t-121 -62q-9 -5 -13 -7l-23 47q92 50 133 83.5t41 70.5q0 36 -36 56t-117 36l47 129q-226 9 -412 129l57 105q189 -121 385 -121q147 0 231.5 68
t84.5 184q0 82 -48.5 151t-164.5 152l-225 164q-123 87 -174.5 166t-51.5 182q0 148 99.5 231.5t277.5 83.5q164 0 350 -86l-53 -108q-163 82 -295 82q-124 0 -192 -53.5t-68 -147.5q0 -70 42.5 -128t146.5 -132l217 -156q139 -98 198.5 -188t59.5 -207z" />
    <glyph glyph-name="scedilla" unicode="&#x15f;" horiz-adv-x="849" 
d="M784 225q0 -119 -87.5 -187t-243.5 -69l-21 -55q34 -8 58 -17t52 -25.5t43 -42.5t15 -60q0 -47 -40.5 -90t-75.5 -63t-121 -62q-9 -5 -13 -7l-22 47q92 50 133 83.5t41 70.5q0 35 -36.5 55.5t-117.5 36.5l47 131q-196 13 -346 119l53 90q159 -110 347 -110
q106 0 165.5 41t59.5 114q0 52 -37 92.5t-117 75.5l-178 82q-109 51 -160 113.5t-51 146.5q0 114 83 178t232 64q165 0 314 -76l-47 -94q-143 70 -267 70q-98 0 -151 -36.5t-53 -101.5q0 -54 36 -94t121 -78l170 -78q115 -53 165 -114t50 -150z" />
    <glyph glyph-name="Scaron" unicode="&#x160;" horiz-adv-x="1001" 
d="M827 1767v-6l-239 -239h-131l-242 239v6h115l98 -92q44 -41 61.5 -62t28.5 -50h6q13 29 30.5 50t61.5 62l99 92h112zM518 1464q164 0 350 -86l-53 -108q-163 82 -295 82q-124 0 -192 -53.5t-68 -147.5q0 -70 42.5 -128t146.5 -132l217 -156q139 -98 198.5 -188t59.5 -207
q0 -174 -117 -272.5t-318 -98.5q-119 0 -234 34.5t-208 94.5l57 105q189 -121 385 -121q147 0 231.5 68t84.5 184q0 82 -48.5 151t-164.5 152l-225 164q-123 87 -174.5 166t-51.5 182q0 148 99.5 231.5t277.5 83.5z" />
    <glyph glyph-name="scaron" unicode="&#x161;" horiz-adv-x="849" 
d="M371 1133l-242 309v6h111l125 -158l10.5 -14t10 -13t8.5 -11t7.5 -10.5t6 -9t6 -9.5t5 -9t5 -10.5t4 -10t4.5 -11.5h4q3 9 6 16t7 15t7 12.5t9.5 14t10 13.5t13.5 17.5t15 19.5l125 158h110v-6l-241 -309h-127zM444 -31q-218 0 -395 121l53 90q159 -110 347 -110
q106 0 165.5 41t59.5 114q0 52 -37 92.5t-117 75.5l-178 82q-109 51 -160 113.5t-51 146.5q0 114 83 178t232 64q165 0 314 -76l-47 -94q-143 70 -267 70q-98 0 -151 -36.5t-53 -101.5q0 -54 36 -94t121 -78l170 -78q115 -53 165 -114t50 -150q0 -120 -89.5 -188t-250.5 -68
z" />
    <glyph glyph-name="uni0162" unicode="&#x162;" horiz-adv-x="1046" 
d="M629 1325q-36 0 -54 6l-2 -2q7 -21 7 -51v-1278h-27l-33 -86q34 -8 58 -17t52 -25.5t43 -42.5t15 -60q0 -47 -40.5 -90t-75.5 -63t-121 -62q-9 -5 -13 -7l-22 47q92 50 133 83.5t41 70.5q0 35 -36.5 55.5t-117.5 36.5l60 160h-29v1278q0 33 6 51l-2 2q-21 -6 -53 -6h-398
v109h1006v-109h-397z" />
    <glyph glyph-name="uni0163" unicode="&#x163;" horiz-adv-x="620" 
d="M418 850q-44 0 -64 10l-4 -2q10 -25 10 -65v-793h-20l-33 -86q34 -8 58 -17t52 -25.5t43 -42.5t15 -60q0 -47 -40.5 -90t-75.5 -63t-121 -62q-9 -5 -13 -7l-22 47q92 50 133 83.5t41 70.5q0 35 -36.5 55.5t-117.5 36.5l60 160h-25v793q0 45 8 65l-2 2q-20 -10 -63 -10
h-142v96h142q47 0 63 -10l2 2q-8 23 -8 68v362l96 84h6v-446q0 -39 -10 -68l4 -2q16 10 64 10h143v-96h-143z" />
    <glyph glyph-name="Tcaron" unicode="&#x164;" horiz-adv-x="1046" 
d="M827 1767v-6l-239 -239h-131l-242 239v6h115l98 -92q44 -41 61.5 -62t28.5 -50h6q13 29 30.5 50t61.5 62l99 92h112zM1026 1434v-109h-397q-36 0 -54 6l-2 -2q7 -21 7 -51v-1278h-113v1278q0 33 6 51l-2 2q-21 -6 -53 -6h-398v109h1006z" />
    <glyph glyph-name="tcaron" unicode="&#x165;" horiz-adv-x="739" 
d="M592 1495h121l-121 -381h-66zM360 1452v-446q0 -39 -10 -68l4 -2q16 10 64 10h143v-96h-143q-44 0 -64 10l-4 -2q10 -25 10 -65v-793h-102v793q0 45 8 65l-2 2q-20 -10 -63 -10h-142v96h142q47 0 63 -10l2 2q-8 23 -8 68v362l96 84h6z" />
    <glyph glyph-name="Tbar" unicode="&#x166;" horiz-adv-x="1046" 
d="M629 1327q-42 0 -54 4l-2 -2q7 -21 7 -49v-287q0 -28 -7 -49l2 -2q12 4 52 4h250v-100h-250q-40 0 -52 4l-2 -2q7 -21 7 -49v-799h-113v799q0 31 6 49l-2 2q-12 -4 -51 -4h-250v100h250q39 0 51 -4l2 2q-6 18 -6 49v287q0 31 6 49l-2 2q-12 -4 -53 -4h-398v107h1006v-107
h-397z" />
    <glyph glyph-name="tbar" unicode="&#x167;" horiz-adv-x="620" 
d="M258 0v530q0 38 4 50l-2 2q-10 -4 -49 -4h-135v75h135q34 0 49 -6l2 4q-4 10 -4 51v99q0 33 8 57l-2 2q-20 -10 -63 -10h-142v96h142q47 0 63 -10l2 2q-8 23 -8 68v362l96 84h6v-446q0 -39 -10 -68l4 -2q16 10 64 10h143v-96h-143q-44 0 -64 10l-4 -2q10 -23 10 -57v-99
q0 -36 -6 -51l4 -4q15 6 52 6h145v-75h-145q-42 0 -52 4l-4 -2q6 -18 6 -50v-530h-102z" />
    <glyph glyph-name="Utilde" unicode="&#x168;" horiz-adv-x="1390" 
d="M434 1556l-61 23q12 33 25.5 58t35.5 52t54 41.5t71 14.5q47 0 111.5 -27.5t124 -55.5t94.5 -28q64 0 106 92l62 -22q-61 -166 -187 -166q-47 0 -111 28t-123.5 55.5t-94.5 27.5q-65 0 -107 -93zM1233 1434v-912q0 -257 -144.5 -405t-394.5 -148q-249 0 -393.5 148.5
t-144.5 404.5v912h118v-895q0 -213 112 -334t308 -121q197 0 309.5 121t112.5 334v895h117z" />
    <glyph glyph-name="utilde" unicode="&#x169;" horiz-adv-x="1077" 
d="M391 1415q49 0 112.5 -30t121 -59.5t90.5 -29.5q63 0 108 101l62 -23q-54 -170 -183 -170q-39 0 -87.5 18.5t-86.5 40t-80 40t-69 18.5q-69 0 -109 -98l-63 22q59 170 184 170zM938 946v-946h-102q0 202 18 291l-8 4q-40 -165 -131 -245.5t-238 -80.5q-168 0 -258 107
t-90 305v565h109v-557q0 -152 69.5 -235.5t196.5 -83.5q154 0 242 120.5t88 331.5v424h104z" />
    <glyph glyph-name="Umacron" unicode="&#x16a;" horiz-adv-x="1390" 
d="M412 1671h565v-86h-565v86zM1233 1434v-912q0 -257 -144.5 -405t-394.5 -148q-249 0 -393.5 148.5t-144.5 404.5v912h118v-895q0 -213 112 -334t308 -121q197 0 309.5 121t112.5 334v895h117z" />
    <glyph glyph-name="umacron" unicode="&#x16b;" horiz-adv-x="1077" 
d="M817 1356v-88h-563v88h563zM938 946v-946h-102q0 202 18 291l-8 4q-40 -165 -131 -245.5t-238 -80.5q-168 0 -258 107t-90 305v565h109v-557q0 -152 69.5 -235.5t196.5 -83.5q154 0 242 120.5t88 331.5v424h104z" />
    <glyph glyph-name="Ubreve" unicode="&#x16c;" horiz-adv-x="1390" 
d="M975 1747q-1 -103 -79 -164t-202 -61q-123 0 -200 61t-78 164h86q5 -64 56 -102.5t136 -38.5q87 0 138.5 38.5t56.5 102.5h86zM1233 1434v-912q0 -257 -144.5 -405t-394.5 -148q-249 0 -393.5 148.5t-144.5 404.5v912h118v-895q0 -213 112 -334t308 -121q197 0 309.5 121
t112.5 334v895h117z" />
    <glyph glyph-name="ubreve" unicode="&#x16d;" horiz-adv-x="1077" 
d="M815 1436q0 -135 -77 -212t-203 -77q-124 0 -201.5 77t-77.5 212h86q3 -98 54 -151.5t139 -53.5q89 0 140 53.5t54 151.5h86zM938 946v-946h-102q0 202 18 291l-8 4q-40 -165 -131 -245.5t-238 -80.5q-168 0 -258 107t-90 305v565h109v-557q0 -152 69.5 -235.5
t196.5 -83.5q154 0 242 120.5t88 331.5v424h104z" />
    <glyph glyph-name="Uring" unicode="&#x16e;" horiz-adv-x="1390" 
d="M694 1419q-93 0 -154 60t-61 151q0 92 60.5 152.5t154.5 60.5t155.5 -60.5t61.5 -152.5q0 -91 -61.5 -151t-155.5 -60zM694 1487q63 0 104.5 40t41.5 103q0 64 -41.5 105t-104.5 41t-103 -41t-40 -105q0 -63 40 -103t103 -40zM1233 1434v-912q0 -257 -144.5 -405
t-394.5 -148q-249 0 -393.5 148.5t-144.5 404.5v912h118v-895q0 -213 112 -334t308 -121q197 0 309.5 121t112.5 334v895h117z" />
    <glyph glyph-name="uring" unicode="&#x16f;" horiz-adv-x="1077" 
d="M537 1530q106 0 174.5 -68t68.5 -172t-68.5 -171.5t-174.5 -67.5t-175 67.5t-69 171.5t69 172t175 68zM537 1464q-79 0 -127 -48t-48 -126t48 -126t127 -48t126.5 48t47.5 126t-47.5 126t-126.5 48zM938 946v-946h-102q0 202 18 291l-8 4q-40 -165 -131 -245.5
t-238 -80.5q-168 0 -258 107t-90 305v565h109v-557q0 -152 69.5 -235.5t196.5 -83.5q154 0 242 120.5t88 331.5v424h104z" />
    <glyph glyph-name="Uhungarumlaut" unicode="&#x170;" horiz-adv-x="1390" 
d="M864 1747l2 -6l-200 -219h-82l-2 6l190 219h92zM762 1528l190 219h92l3 -6l-199 -219h-84zM1233 1434v-912q0 -257 -144.5 -405t-394.5 -148q-249 0 -393.5 148.5t-144.5 404.5v912h118v-895q0 -213 112 -334t308 -121q197 0 309.5 121t112.5 334v895h117z" />
    <glyph glyph-name="uhungarumlaut" unicode="&#x171;" horiz-adv-x="1077" 
d="M369 1133l-2 6l219 309h94l2 -6l-229 -309h-84zM594 1133l-2 6l219 309h94l2 -6l-229 -309h-84zM938 946v-946h-102q0 202 18 291l-8 4q-40 -165 -131 -245.5t-238 -80.5q-168 0 -258 107t-90 305v565h109v-557q0 -152 69.5 -235.5t196.5 -83.5q154 0 242 120.5t88 331.5
v424h104z" />
    <glyph glyph-name="Uogonek" unicode="&#x172;" horiz-adv-x="1390" 
d="M1116 1434h117v-912q0 -186 -77.5 -316.5t-219.5 -191.5q-109 -79 -161 -136.5t-52 -106.5q0 -72 102 -72q47 0 101 14l10 -75q-61 -21 -125 -21q-75 0 -126.5 35t-51.5 102q0 102 139 219q-50 -4 -78 -4q-249 0 -393.5 148.5t-144.5 404.5v912h118v-895q0 -213 112 -334
t308 -121q197 0 309.5 121t112.5 334v895z" />
    <glyph glyph-name="uogonek" unicode="&#x173;" horiz-adv-x="1077" 
d="M889 0q-98 -72 -145.5 -126.5t-47.5 -102.5q0 -72 103 -72q46 0 100 14l10 -75q-61 -21 -125 -21q-75 0 -126.5 35t-51.5 102q0 70 57 139t173 148q0 171 18 250l-8 4q-40 -165 -131 -245.5t-238 -80.5q-168 0 -258 107t-90 305v565h109v-557q0 -152 69.5 -235.5
t196.5 -83.5q154 0 242 120.5t88 331.5v424h104v-946h-49z" />
    <glyph glyph-name="Wcircumflex" unicode="&#x174;" horiz-adv-x="1931" 
d="M657 1522v6l242 239h131l240 -239v-6h-113l-98 92q-43 39 -61 60.5t-31 51.5h-6q-11 -29 -28.5 -49.5t-62.5 -62.5l-98 -92h-115zM973 1462l325 -960q52 -151 74 -271h8q19 117 70 267l313 936h131l-512 -1463h-12l-356 1030q-37 113 -45 187h-8q-5 -72 -43 -187
l-357 -1030h-12l-512 1463h131l311 -936q52 -146 72 -267h8q22 120 74 271l323 960h17z" />
    <glyph glyph-name="wcircumflex" unicode="&#x175;" horiz-adv-x="1449" 
d="M788 1448l224 -309v-6h-109l-110 157q-54 77 -66 117h-4q-14 -45 -64 -117l-112 -157h-109v6l224 309h126zM401 -18l-381 964h121l219 -586q41 -108 48 -184h8q9 69 55 184l244 605h18l244 -605q48 -112 57 -184h8q4 69 48 184l217 586h123l-383 -964h-19l-254 622
q-24 57 -32 88.5t-13 79.5h-8q-8 -76 -45 -168l-256 -622h-19z" />
    <glyph glyph-name="Ycircumflex" unicode="&#x176;" horiz-adv-x="1110" 
d="M246 1522v6l241 239h131l240 -239v-6h-113l-98 92q-43 39 -61 60.5t-31 51.5h-6q-11 -29 -28.5 -50t-61.5 -62l-99 -92h-114zM1083 1434l-473 -883v-551h-112v551l-471 883h139l311 -609q39 -75 52.5 -108t23.5 -82h4q10 48 23 81.5t51 108.5l311 609h141z" />
    <glyph glyph-name="ycircumflex" unicode="&#x177;" horiz-adv-x="950" 
d="M543 1448l223 -309v-6h-109l-110 157q-54 77 -66 117h-4q-9 -29 -20.5 -51t-42.5 -66l-113 -157h-108v6l223 309h127zM930 946l-596 -1356h-109l209 480l-414 876h121l275 -602q35 -76 48 -114.5t19 -86.5h9q7 75 63 199l262 604h113z" />
    <glyph glyph-name="Ydieresis" unicode="&#x178;" horiz-adv-x="1110" 
d="M330 1747h121v-225h-121v225zM657 1747h121v-225h-121v225zM1083 1434l-473 -883v-551h-112v551l-471 883h139l311 -609q39 -75 52.5 -108t23.5 -82h4q10 48 23 81.5t51 108.5l311 609h141z" />
    <glyph glyph-name="Zacute" unicode="&#x179;" horiz-adv-x="1185" 
d="M907 1747l2 -6l-241 -219h-82l-2 6l186 219h137zM1130 1434l3 -4l-900 -1334l3 -4q43 21 180 21h731l-57 -113h-1053v6l903 1335l-2 5q-65 -25 -190 -25h-631l57 113h956z" />
    <glyph glyph-name="zacute" unicode="&#x17a;" horiz-adv-x="921" 
d="M793 1448v-8l-244 -307h-82v10l188 305h138zM31 0l-4 10l680 852l-5 4q-36 -16 -73 -20t-131 -4h-420l63 104h744l4 -8l-676 -852l4 -4q34 15 66 18.5t112 3.5h492l-70 -104h-786z" />
    <glyph glyph-name="Zdotaccent" unicode="&#x17b;" horiz-adv-x="1185" 
d="M684 1747v-225h-117v225h117zM1130 1434l3 -4l-900 -1334l3 -4q43 21 180 21h731l-57 -113h-1053v6l903 1335l-2 5q-65 -25 -190 -25h-631l57 113h956z" />
    <glyph glyph-name="zdotaccent" unicode="&#x17c;" horiz-adv-x="921" 
d="M561 1434v-267h-121v267h121zM31 0l-4 10l680 852l-5 4q-36 -16 -73 -20t-131 -4h-420l63 104h744l4 -8l-676 -852l4 -4q34 15 66 18.5t112 3.5h492l-70 -104h-786z" />
    <glyph glyph-name="Zcaron" unicode="&#x17d;" horiz-adv-x="1185" 
d="M932 1767v-6l-240 -239h-131l-242 239v6h115l98 -92q45 -42 62.5 -62.5t28.5 -49.5h6q13 29 30.5 50t61.5 62l98 92h113zM1130 1434l3 -4l-900 -1334l3 -4q43 21 180 21h731l-57 -113h-1053v6l903 1335l-2 5q-65 -25 -190 -25h-631l57 113h956z" />
    <glyph glyph-name="zcaron" unicode="&#x17e;" horiz-adv-x="921" 
d="M438 1133l-241 309v6h110l125 -158q5 -6 15 -19.5t13.5 -17.5t10 -13.5t9.5 -14t7 -12.5t7 -15t6 -16h4q2 6 4.5 11.5t4 10t5 10.5t5 9t6 9.5t6 9t7.5 10.5t8.5 11t10 13l10.5 14l125 158h111v-6l-242 -309h-127zM31 0l-4 10l680 852l-5 4q-36 -16 -73 -20t-131 -4h-420
l63 104h744l4 -8l-676 -852l4 -4q34 15 66 18.5t112 3.5h492l-70 -104h-786z" />
    <glyph glyph-name="florin" unicode="&#x192;" horiz-adv-x="808" 
d="M659 1403q37 0 93 -6v-97q-14 1 -45.5 3t-42.5 2q-98 0 -155.5 -57t-57.5 -183v-70q0 -30 -7 -51l2 -2q14 4 56 4h248v-61h-248q-44 0 -56 4l-2 -2q7 -28 7 -62v-899q0 -97 -24 -166t-66 -105t-88.5 -51.5t-102.5 -15.5q-54 0 -113 6v97q45 -6 115 -6q80 0 128 53t48 170
v917q0 38 6 62l-2 2q-12 -4 -55 -4h-207v61h207q43 0 55 -4l2 2q-6 18 -6 49v51q0 102 26 175.5t72 112t98 55t115 16.5z" />
    <glyph glyph-name="AEacute" unicode="&#x1fc;" horiz-adv-x="1851" 
d="M1405 1522h-82l-2 6l186 219h138l2 -6zM1194 106h573v-106h-725v414q0 30 7 51l-5 2q-18 -6 -51 -6h-520l-313 -461h-131l970 1434h760v-107h-565q-39 0 -51 4l-4 -2q6 -18 6 -51v-387q0 -31 -6 -49l4 -2q12 4 51 4h510v-107h-510q-39 0 -51 6l-4 -4q6 -15 6 -49v-534
q0 -34 -6 -52l4 -2q12 4 51 4zM1049 559q-7 17 -7 49v617q0 49 7 121h-5q-23 -58 -61 -115l-399 -602q-32 -51 -72 -74l2 -4q35 10 113 10h366q39 0 51 -6z" />
    <glyph glyph-name="aeacute" unicode="&#x1fd;" horiz-adv-x="1812" 
d="M1221 1448v-8l-244 -307h-82v10l188 305h138zM446 -31q-167 0 -271.5 91.5t-104.5 246.5q0 154 100 245t268 91q123 0 222.5 -54t140.5 -155l6 4q-7 37 -10 166q-1 141 -71.5 205.5t-207.5 64.5q-138 0 -319 -57l-29 103q184 57 346 57q332 0 348 -279h4
q34 126 142.5 202.5t263.5 76.5q115 0 204 -39.5t143 -108.5t81 -156t27 -188v-24h-744q-60 0 -84 8l-2 -4l2 -10q9 -178 111.5 -281.5t273.5 -103.5q65 0 118.5 14.5t96 44.5t70.5 58t63 71l74 -68q-164 -221 -422 -221q-183 0 -295.5 93t-140.5 237h-6
q-13 -150 -122.5 -240t-275.5 -90zM905 535q28 14 82 14h537q54 0 92 -12l2 2q-14 160 -102.5 250t-245.5 90q-152 0 -253 -90t-116 -252zM461 66q131 0 224 68t93 171q0 104 -93.5 173t-223.5 69t-204.5 -69t-74.5 -173q0 -106 74.5 -172.5t204.5 -66.5z" />
    <glyph glyph-name="Oslashacute" unicode="&#x1fe;" horiz-adv-x="1669" 
d="M877 1522h-82l-2 6l186 219h137l2 -6zM1298 1317q134 -101 209.5 -256.5t75.5 -343.5q0 -214 -95.5 -385t-266.5 -267t-385 -96q-230 0 -414 113l-78 -111l-51 33l78 113q-134 101 -208.5 256.5t-74.5 343.5q0 214 96 385t267 266.5t385 95.5q232 0 411 -112l78 110
l53 -32zM209 717q0 -158 60.5 -289t170.5 -215l740 1044q-155 95 -344 95q-275 0 -451 -178.5t-176 -456.5zM836 82q180 0 323 81t223 226t80 328q0 157 -61 287.5t-170 216.5l-742 -1045q153 -94 347 -94z" />
    <glyph glyph-name="oslashacute" unicode="&#x1ff;" horiz-adv-x="1183" 
d="M877 1440l-244 -307h-82v10l188 305h138v-8zM948 846q152 -146 152 -373q0 -220 -143 -362t-365 -142q-180 0 -318 101l-84 -99l-47 39l86 101q-145 142 -145 362q0 221 143 362.5t365 141.5q176 0 307 -92l78 92l49 -41zM195 473q0 -170 104 -280l528 610
q-99 71 -235 71q-174 0 -285.5 -112t-111.5 -289zM592 72q173 0 285 113t112 288q0 179 -112 291l-531 -612q104 -80 246 -80z" />
    <glyph glyph-name="Scommaaccent" unicode="&#x218;" horiz-adv-x="1001" 
d="M518 1464q164 0 350 -86l-53 -108q-163 82 -295 82q-124 0 -192 -53.5t-68 -147.5q0 -70 42.5 -128t146.5 -132l217 -156q139 -98 198.5 -188t59.5 -207q0 -174 -117 -272.5t-318 -98.5q-119 0 -234 34.5t-208 94.5l57 105q189 -121 385 -121q147 0 231.5 68t84.5 184
q0 82 -48.5 151t-164.5 152l-225 164q-123 87 -174.5 166t-51.5 182q0 148 99.5 231.5t277.5 83.5zM559 -104l-125 -336h-69l73 336h121z" />
    <glyph glyph-name="scommaaccent" unicode="&#x219;" horiz-adv-x="849" 
d="M444 -31q-218 0 -395 121l53 90q159 -110 347 -110q106 0 165.5 41t59.5 114q0 52 -37 92.5t-117 75.5l-178 82q-109 51 -160 113.5t-51 146.5q0 114 83 178t232 64q165 0 314 -76l-47 -94q-143 70 -267 70q-98 0 -151 -36.5t-53 -101.5q0 -54 36 -94t121 -78l170 -78
q115 -53 165 -114t50 -150q0 -120 -89.5 -188t-250.5 -68zM496 -104l-125 -336h-70l74 336h121z" />
    <glyph glyph-name="uni021A" unicode="&#x21a;" horiz-adv-x="1046" 
d="M1026 1434v-109h-397q-36 0 -54 6l-2 -2q7 -21 7 -51v-1278h-113v1278q0 33 6 51l-2 2q-21 -6 -53 -6h-398v109h1006zM584 -104l-125 -336h-70l74 336h121z" />
    <glyph glyph-name="uni021B" unicode="&#x21b;" horiz-adv-x="620" 
d="M360 1452v-446q0 -39 -10 -68l4 -2q16 10 64 10h143v-96h-143q-44 0 -64 10l-4 -2q10 -25 10 -65v-793h-102v793q0 45 8 65l-2 2q-20 -10 -63 -10h-142v96h142q47 0 63 -10l2 2q-8 23 -8 68v362l96 84h6zM371 -104l-125 -336h-70l74 336h121z" />
    <glyph glyph-name="uni0237" unicode="&#x237;" horiz-adv-x="417" 
d="M260 946v-1087q0 -299 -285 -299h-18v104h20q88 0 133.5 46.5t45.5 148.5v1087h104z" />
    <glyph glyph-name="uni02BC" unicode="&#x2bc;" horiz-adv-x="348" 
d="M152 1495h122l-120 -463h-66z" />
    <glyph glyph-name="circumflex" unicode="&#x2c6;" horiz-adv-x="778" 
d="M453 1448l223 -309v-6h-109l-110 157q-54 77 -66 117h-4q-9 -29 -20.5 -51t-42.5 -66l-113 -157h-109v6l224 309h127z" />
    <glyph glyph-name="caron" unicode="&#x2c7;" horiz-adv-x="815" 
d="M344 1133l-242 309v6h111l125 -158q5 -6 15 -19.5t13.5 -17.5t10 -13.5t9.5 -14t7 -12.5t7 -15t6 -16h4q2 6 4.5 11.5t4 10t5 10.5t5 9t6 9.5t6 9t7.5 10.5t8.5 11t10 13l10.5 14l125 158h111v-6l-242 -309h-127z" />
    <glyph glyph-name="breve" unicode="&#x2d8;" horiz-adv-x="763" 
d="M662 1436q0 -135 -77.5 -212t-203.5 -77q-124 0 -201.5 77t-77.5 212h86q3 -98 54 -151.5t139 -53.5q89 0 140 53.5t54 151.5h87z" />
    <glyph glyph-name="dotaccent" unicode="&#x2d9;" horiz-adv-x="325" 
d="M223 1434v-267h-121v267h121z" />
    <glyph glyph-name="ring" unicode="&#x2da;" horiz-adv-x="692" 
d="M346 1530q106 0 175 -68t69 -172t-69 -171.5t-175 -67.5t-175 67.5t-69 171.5t69 172t175 68zM346 1464q-79 0 -126.5 -48t-47.5 -126t47.5 -126t126.5 -48t126.5 48t47.5 126t-47.5 126t-126.5 48z" />
    <glyph glyph-name="ogonek" unicode="&#x2db;" horiz-adv-x="518" 
d="M352 55l62 -35q-113 -80 -167 -139.5t-54 -109.5q0 -72 102 -72q46 0 100 14l11 -75q-61 -21 -125 -21q-75 0 -127 35t-52 102q0 72 61.5 144t188.5 157z" />
    <glyph glyph-name="tilde" unicode="&#x2dc;" horiz-adv-x="882" 
d="M287 1415q49 0 112.5 -30t120.5 -59.5t90 -29.5q64 0 109 101l61 -23q-54 -170 -182 -170q-39 0 -87.5 18.5t-87 40t-80.5 40t-69 18.5q-68 0 -108 -98l-64 22q59 170 185 170z" />
    <glyph glyph-name="hungarumlaut" unicode="&#x2dd;" horiz-adv-x="745" 
d="M104 1133l-2 6l220 309h94l2 -6l-230 -309h-84zM330 1133l-2 6l219 309h94l2 -6l-229 -309h-84z" />
    <glyph glyph-name="gravecomb" unicode="&#x300;" horiz-adv-x="0" 
d="M-291 1448l189 -305v-10h-82l-244 307v8h137z" />
    <glyph glyph-name="acutecomb" unicode="&#x301;" horiz-adv-x="0" 
d="M-102 1448v-8l-244 -307h-82v10l188 305h138z" />
    <glyph glyph-name="uni0302" unicode="&#x302;" horiz-adv-x="0" 
d="M-326 1448l224 -309v-6h-109l-111 157q-32 47 -44 68t-21 49h-4q-14 -45 -64 -117l-112 -157h-109v6l223 309h127z" />
    <glyph glyph-name="tildecomb" unicode="&#x303;" horiz-adv-x="0" 
d="M-596 1415q49 0 112.5 -30t121 -59.5t90.5 -29.5q63 0 108 101l62 -23q-54 -170 -183 -170q-39 0 -87.5 18.5t-86.5 40t-80 40t-69 18.5q-69 0 -109 -98l-63 22q59 170 184 170z" />
    <glyph glyph-name="uni0304" unicode="&#x304;" horiz-adv-x="0" 
d="M-102 1356v-88h-564v88h564z" />
    <glyph glyph-name="uni0306" unicode="&#x306;" horiz-adv-x="0" 
d="M-102 1436q0 -135 -77.5 -212t-203.5 -77q-124 0 -201.5 77t-77.5 212h87q3 -98 53.5 -151.5t138.5 -53.5q90 0 141 53.5t54 151.5h86z" />
    <glyph glyph-name="uni0307" unicode="&#x307;" horiz-adv-x="0" 
d="M-102 1434v-267h-121v267h121z" />
    <glyph glyph-name="uni0308" unicode="&#x308;" horiz-adv-x="0" 
d="M-432 1434v-246h-121v246h121zM-102 1434v-246h-121v246h121z" />
    <glyph glyph-name="uni030A" unicode="&#x30a;" horiz-adv-x="0" 
d="M-346 1530q106 0 175 -68t69 -172t-69 -171.5t-175 -67.5t-175 67.5t-69 171.5t69 172t175 68zM-346 1464q-79 0 -126.5 -48t-47.5 -126t47.5 -126t126.5 -48t126.5 48t47.5 126t-47.5 126t-126.5 48z" />
    <glyph glyph-name="uni030B" unicode="&#x30b;" horiz-adv-x="0" 
d="M-641 1133l-2 6l219 309h94l2 -6l-229 -309h-84zM-416 1133l-2 6l219 309h95l2 -6l-230 -309h-84z" />
    <glyph glyph-name="uni030C" unicode="&#x30c;" horiz-adv-x="0" 
d="M-471 1133l-242 309v6h111l125 -158l10.5 -14t10 -13t8.5 -11t7.5 -10.5t6 -9t6 -9.5t5 -9t5 -10.5t4 -10t4.5 -11.5h4q3 9 6 16t7 15t7 12.5t9.5 14t10 13.5t13.5 17.5t15 19.5l125 158h111v-6l-242 -309h-127z" />
    <glyph glyph-name="uni0326" unicode="&#x326;" horiz-adv-x="0" 
d="M-102 -104l-125 -336h-70l74 336h121z" />
    <glyph glyph-name="uni0327" unicode="&#x327;" horiz-adv-x="0" 
d="M-229 25l-41 -111q34 -8 58 -17t52 -25.5t43 -42.5t15 -60q0 -47 -40.5 -90t-75.5 -63t-121 -62q-9 -5 -13 -7l-23 47q92 50 133 83.5t41 70.5q0 36 -36 56t-117 36l67 185h58z" />
    <glyph glyph-name="uni0328" unicode="&#x328;" horiz-adv-x="0" 
d="M-166 55l62 -35q-113 -81 -167.5 -140t-54.5 -109q0 -72 103 -72q46 0 100 14l10 -75q-61 -21 -125 -21q-75 0 -126.5 35t-51.5 102q0 72 61.5 144t188.5 157z" />
    <glyph glyph-name="uni0394" unicode="&#x394;" horiz-adv-x="1286" 
d="M698 1434l547 -1434h-1204l547 1434h110zM643 1313l-463 -1258h926z" />
    <glyph glyph-name="uni03A9" unicode="&#x3a9;" horiz-adv-x="1630" 
d="M815 1464q218 0 384 -89.5t254.5 -247.5t88.5 -361q0 -265 -158 -443t-426 -233v-4q70 12 148 12h393v-98h-602v166q248 41 393.5 202.5t145.5 389.5q0 267 -168.5 435.5t-452.5 168.5t-452 -168.5t-168 -435.5q0 -229 145 -390t393 -202v-166h-602v98h393q72 0 148 -12
v4q-268 55 -426 233t-158 443q0 203 88.5 361t254.5 247.5t384 89.5z" />
    <glyph glyph-name="pi" unicode="&#x3c0;" horiz-adv-x="1236" 
d="M1176 977v-98h-232v-879h-102v879h-373l-199 -879h-104l199 879h-9q-171 0 -295 -41v98q115 41 283 41h832z" />
    <glyph glyph-name="uni0401" unicode="&#x401;" horiz-adv-x="1046" 
d="M371 1747h121v-225h-121v225zM698 1747h121v-225h-121v225zM956 1434v-107h-624q-41 0 -53 4l-3 -2q7 -21 7 -49v-389q0 -28 -7 -49l3 -2q12 4 53 4h559v-107h-559q-35 0 -53 6l-3 -2q7 -21 7 -51v-536q0 -29 -7 -50l3 -2q12 4 53 4h633v-106h-795v1434h786z" />
    <glyph glyph-name="uni0402" unicode="&#x402;" horiz-adv-x="1396" 
d="M977 842q182 0 274 -86.5t92 -270.5v-118q0 -186 -85 -276.5t-281 -90.5h-162v106h154q148 -1 205 61t57 202v114q0 133 -67.5 189.5t-194.5 56.5q-109 0 -217.5 -19t-264.5 -63v-647h-112v1280q0 31 6 49l-4 2q-12 -4 -51 -4h-306v107h1037v-107h-520q-42 0 -54 4l-2 -2
q6 -18 6 -49v-459q0 -40 -8 -59l2 -2q268 82 496 82z" />
    <glyph glyph-name="uni0403" unicode="&#x403;" horiz-adv-x="991" 
d="M846 1747l2 -6l-242 -219h-82l-2 6l187 219h137zM971 1434v-107h-639q-41 0 -53 4l-3 -2q7 -21 7 -49v-1280h-113v1434h801z" />
    <glyph glyph-name="uni0404" unicode="&#x404;" horiz-adv-x="1425" 
d="M807 -31q-327 0 -523 202.5t-196 545.5t196 545t523 202q298 0 536 -161l-61 -99q-220 148 -477 148q-243 0 -401 -142.5t-189 -388.5q-6 -38 -12 -53l2 -4q18 6 57 6h723v-106h-723q-39 0 -57 6l-2 -2q6 -18 12 -56q31 -246 189 -388t401 -142q258 0 477 147l61 -98
q-240 -162 -536 -162z" />
    <glyph glyph-name="uni0405" unicode="&#x405;" horiz-adv-x="1001" 
d="M518 1464q164 0 350 -86l-53 -108q-163 82 -295 82q-124 0 -192 -53.5t-68 -147.5q0 -70 42.5 -128t146.5 -132l217 -156q139 -98 198.5 -188t59.5 -207q0 -174 -117 -272.5t-318 -98.5q-119 0 -234 34.5t-208 94.5l57 105q189 -121 385 -121q147 0 231.5 68t84.5 184
q0 82 -48.5 151t-164.5 152l-225 164q-123 87 -174.5 166t-51.5 182q0 148 99.5 231.5t277.5 83.5z" />
    <glyph glyph-name="uni0406" unicode="&#x406;" horiz-adv-x="450" 
d="M283 1434v-1434h-113v1434h113z" />
    <glyph glyph-name="uni0407" unicode="&#x407;" horiz-adv-x="450" 
d="M2 1747h121v-225h-121v225zM330 1747h121v-225h-121v225zM283 1434v-1434h-113v1434h113z" />
    <glyph glyph-name="uni0408" unicode="&#x408;" horiz-adv-x="559" 
d="M391 1434v-1143q0 -155 -63 -228t-197 -73q-14 0 -80 4v110q62 -4 70 -4q81 0 119.5 45t38.5 144v1145h112z" />
    <glyph glyph-name="uni0409" unicode="&#x409;" horiz-adv-x="2136" 
d="M1653 811q209 0 329.5 -109.5t120.5 -295.5t-120.5 -296t-329.5 -110h-475v1004v276q0 31 6 49l-2 2q-12 -4 -54 -4h-665q-39 0 -51 4l-4 -2q6 -18 6 -49v-989q0 -154 -62.5 -227.5t-197.5 -73.5q-13 0 -103 4v110q41 -4 94 -4q79 0 117.5 43.5t38.5 143.5v1147h989v-576
q0 -31 -6 -49l2 -2q14 4 53 4h314zM1647 106q163 0 249 80.5t86 219.5q0 138 -86.5 218.5t-248.5 80.5h-308q-32 0 -53 6l-2 -2q6 -18 6 -52v-503q0 -32 -6 -50l2 -2q14 4 53 4h308z" />
    <glyph glyph-name="uni040A" unicode="&#x40a;" horiz-adv-x="2074" 
d="M170 0v1434h113v-576q0 -28 -7 -49l3 -2q12 4 53 4h735q41 0 53 -4l2 2q-6 18 -6 49v576h113v-576q0 -31 -6 -49l2 -2q14 4 53 4h313q209 0 330 -109.5t121 -295.5t-121 -296t-330 -110h-475v657q0 34 6 52l-2 2q-18 -6 -53 -6h-735q-35 0 -53 6l-3 -2q7 -21 7 -52v-657
h-113zM1225 102q14 4 53 4h307q163 0 249.5 80.5t86.5 219.5q0 138 -87 218.5t-249 80.5h-307q-32 0 -53 6l-2 -2q6 -18 6 -52v-503q0 -32 -6 -50z" />
    <glyph glyph-name="uni040B" unicode="&#x40b;" horiz-adv-x="1392" 
d="M956 842q188 0 284.5 -100.5t96.5 -313.5v-428h-112v426q0 165 -71 234t-206 69q-106 0 -211 -19t-256 -63v-647h-112v1280q0 31 6 49l-2 2q-12 -4 -54 -4h-299v107h1006v-107h-496q-39 0 -53 4l-2 -2q6 -18 6 -49v-459q0 -38 -6 -59l2 -2q259 82 479 82z" />
    <glyph glyph-name="uni040C" unicode="&#x40c;" horiz-adv-x="1232" 
d="M895 1747l2 -6l-242 -219h-82l-2 6l187 219h137zM1085 -6q-109 0 -171.5 46.5t-90.5 158.5l-84 331q-22 94 -76 134.5t-155 40.5h-170q-48 0 -64 4l-2 -2q11 -42 11 -86v-621h-113v1434h113v-551q0 -40 -11 -82l2 -2q12 6 64 6h170q104 0 161 44.5t93 160.5l82 250
q55 180 254 180q54 0 88 -6v-109q-36 4 -58 4q-76 0 -120.5 -27.5t-65.5 -91.5l-76 -245q-34 -114 -94 -158t-166 -47v-6q107 -5 163.5 -44.5t80.5 -142.5l78 -319q21 -81 62 -112.5t114 -31.5q16 0 78 5v-109q-50 -6 -97 -6z" />
    <glyph glyph-name="uni040E" unicode="&#x40e;" horiz-adv-x="1247" 
d="M905 1767q0 -127 -76.5 -198.5t-201.5 -71.5q-126 0 -202.5 71.5t-76.5 198.5h86q1 -90 52 -140t141 -50q89 0 140 49.5t52 140.5h86zM322 -12q-62 0 -144 14v107q81 -15 148 -15q36 0 64.5 8.5t63 34t68.5 80t66 137.5l-561 1080h133l405 -791q51 -97 61 -122.5
t21 -82.5l6 2q6 51 19.5 91.5t48.5 117.5l373 785h127l-541 -1139q-39 -95 -83 -158t-90.5 -94.5t-89 -43t-95.5 -11.5z" />
    <glyph glyph-name="uni040F" unicode="&#x40f;" horiz-adv-x="1423" 
d="M657 -287v240q0 28 7 49l-2 2q-14 -4 -54 -4h-438v1434h113v-1280q0 -29 -7 -50l3 -2q12 4 53 4h762q39 0 51 -4l4 2q-6 18 -6 50v1280h112v-1434h-440q-39 0 -51 4l-4 -2q6 -18 6 -49v-240h-109z" />
    <glyph glyph-name="uni0410" unicode="&#x410;" horiz-adv-x="1353" 
d="M29 0l641 1464h14l641 -1464h-125l-199 461h-649l-198 -461h-125zM383 557q36 4 115 4h356q79 0 115 -4l2 2q-31 45 -62 119l-174 412q-50 123 -55 176h-8q-6 -56 -54 -176l-174 -412q-32 -77 -61 -119v-2z" />
    <glyph glyph-name="uni0411" unicode="&#x411;" 
d="M672 811q202 0 322 -108.5t120 -296.5q0 -187 -120 -296.5t-322 -109.5h-502v1090v344h870v-107h-708q-41 0 -53 4l-3 -2q7 -21 7 -49v-422q0 -28 -7 -49l3 -2q12 4 53 4h340zM651 106q169 0 256.5 80.5t87.5 219.5t-87.5 219t-256.5 80h-319q-35 0 -53 6l-3 -2
q7 -21 7 -52v-503q0 -29 -7 -50l3 -2q12 4 53 4h319z" />
    <glyph glyph-name="uni0412" unicode="&#x412;" horiz-adv-x="1271" 
d="M170 0v1434h498q185 0 291 -93t106 -256q0 -207 -180 -290q-65 -24 -129 -31v-8q60 0 131 -15q132 -32 201 -121.5t69 -226.5q0 -185 -124 -289t-345 -104h-518zM279 799q10 4 53 4h276q161 0 249.5 72.5t88.5 203.5q0 120 -74 184t-213 64h-327q-43 0 -53 4l-3 -2
q7 -21 7 -49v-430q0 -28 -7 -49zM279 102q10 4 53 4h348q356 0 356 291q0 149 -97.5 226t-287.5 77h-319q-41 0 -53 7l-3 -5q7 -18 7 -49v-499q0 -29 -7 -50z" />
    <glyph glyph-name="uni0413" unicode="&#x413;" horiz-adv-x="991" 
d="M971 1434v-107h-639q-41 0 -53 4l-3 -2q7 -21 7 -49v-1280h-113v1434h801z" />
    <glyph glyph-name="uni0414" unicode="&#x414;" horiz-adv-x="1351" 
d="M27 -287v389h110q25 0 45 -8l2 2q3 28 19 60q192 394 192 950v328h744v-1284q0 -32 -6 -50l2 -2q12 4 53 4h80v-389h-111v236q0 34 6 49l-2 4q-12 -6 -53 -6h-924q-41 0 -53 6l-2 -4q6 -15 6 -49v-236h-108zM295 96q12 6 55 6h627q39 0 51 -4l4 2q-6 18 -6 50v1130
q0 31 6 49l-4 2q-12 -4 -51 -4h-420q-41 0 -53 4l-2 -2q6 -18 6 -49v-180q0 -272 -54.5 -540.5t-160.5 -459.5z" />
    <glyph glyph-name="uni0415" unicode="&#x415;" horiz-adv-x="1046" 
d="M956 1434v-107h-624q-41 0 -53 4l-3 -2q7 -21 7 -49v-389q0 -28 -7 -49l3 -2q12 4 53 4h559v-107h-559q-35 0 -53 6l-3 -2q7 -21 7 -51v-536q0 -29 -7 -50l3 -2q12 4 53 4h633v-106h-795v1434h786z" />
    <glyph glyph-name="uni0416" unicode="&#x416;" horiz-adv-x="1835" 
d="M139 -4q-30 0 -84 4v113q50 -4 72 -4q71 0 113 30.5t63 108.5l82 327q23 96 76 137t155 46v4q-106 5 -165.5 50t-92.5 153l-75 245q-21 65 -65.5 92t-121.5 27q-19 0 -55 -4v109q58 4 86 4q97 0 158.5 -39.5t93.5 -136.5l84 -261q34 -106 94 -149t162 -43h88q39 0 63 -6
l2 2q-10 42 -10 82v547h111v-547q0 -40 -10 -82l2 -2q30 6 63 6h90q102 0 161 42.5t93 149.5l86 261q31 97 92 136.5t158 39.5q32 0 86 -4v-109q-36 4 -55 4q-77 0 -120.5 -27t-64.5 -92l-77 -245q-33 -109 -91.5 -153.5t-166.5 -49.5v-4q103 -5 155.5 -46t77.5 -137
l82 -327q19 -78 61 -108.5t115 -30.5q22 0 72 4v-113q-58 -4 -86 -4q-112 0 -174.5 46.5t-89.5 156.5l-91 344q-22 87 -74.5 125.5t-148.5 38.5h-90q-43 0 -63 4l-2 -2q10 -38 10 -86v-623h-111v623q0 48 10 86l-2 2q-16 -4 -63 -4h-88q-97 0 -149.5 -38t-75.5 -126
l-88 -344q-29 -110 -92 -156.5t-175 -46.5z" />
    <glyph glyph-name="uni0417" unicode="&#x417;" horiz-adv-x="1191" 
d="M571 -31q-282 0 -489 119l55 107q200 -115 434 -115q182 0 283.5 75t101.5 234q0 165 -113 243.5t-337 78.5h-201v102h199q190 0 293.5 74t103.5 215q0 117 -80.5 184.5t-240.5 67.5q-235 0 -428 -105l-48 105q212 110 482 110q219 0 327.5 -90.5t108.5 -259.5
q0 -122 -63 -201.5t-179 -115.5q-79 -24 -164 -27v-6q92 0 160 -12q140 -26 219.5 -116t79.5 -251q0 -200 -125.5 -308t-378.5 -108z" />
    <glyph glyph-name="uni0418" unicode="&#x418;" horiz-adv-x="1443" 
d="M1260 1454h14v-1454h-113v958q0 146 17 256l-4 3q-22 -50 -113 -162l-877 -1075h-14v1454h113v-957q0 -145 -17 -258l4 -2q24 55 113 164z" />
    <glyph glyph-name="uni0419" unicode="&#x419;" horiz-adv-x="1443" 
d="M1024 1767q0 -127 -76.5 -198.5t-202.5 -71.5q-125 0 -201.5 71.5t-76.5 198.5h86q1 -91 52 -140.5t140 -49.5q90 0 141 50t52 140h86zM1260 1454h14v-1454h-113v958q0 146 17 256l-4 3q-22 -50 -113 -162l-877 -1075h-14v1454h113v-957q0 -145 -17 -258l4 -2
q24 55 113 164z" />
    <glyph glyph-name="uni041A" unicode="&#x41a;" horiz-adv-x="1232" 
d="M1085 -6q-109 0 -171.5 46.5t-90.5 158.5l-84 331q-22 94 -76 134.5t-155 40.5h-170q-48 0 -64 4l-2 -2q11 -42 11 -86v-621h-113v1434h113v-551q0 -40 -11 -82l2 -2q12 6 64 6h170q104 0 161 44.5t93 160.5l82 250q55 180 254 180q54 0 88 -6v-109q-36 4 -58 4
q-76 0 -120.5 -27.5t-65.5 -91.5l-76 -245q-34 -114 -94 -158t-166 -47v-6q107 -5 163.5 -44.5t80.5 -142.5l78 -319q21 -81 62 -112.5t114 -31.5q16 0 78 5v-109q-50 -6 -97 -6z" />
    <glyph glyph-name="uni041B" unicode="&#x41b;" horiz-adv-x="1484" 
d="M1317 1434v-1434h-113v1280q0 31 6 49l-4 2q-12 -4 -51 -4h-692q-39 0 -51 4l-4 -2q6 -18 6 -49v-989q0 -154 -62.5 -227.5t-197.5 -73.5q-13 0 -103 4v110q41 -4 94 -4q79 0 117.5 43.5t38.5 143.5v1147h1016z" />
    <glyph glyph-name="uni041C" unicode="&#x41c;" horiz-adv-x="1755" 
d="M872 -27l-362 967q-51 138 -64 231h-8q-3 -102 -39 -233l-245 -938h-117l383 1462h14l391 -1046q29 -79 49 -193h9q16 108 47 193l391 1046h14l383 -1462h-116l-246 938q-36 131 -39 233h-8q-12 -91 -62 -231l-364 -967h-11z" />
    <glyph glyph-name="uni041D" unicode="&#x41d;" horiz-adv-x="1423" 
d="M1255 1434v-1434h-112v666q0 33 6 51l-4 2q-18 -6 -51 -6h-762q-35 0 -53 6l-3 -2q7 -21 7 -51v-666h-113v1434h113v-566q0 -32 -7 -49l3 -4q12 6 53 6h762q39 0 51 -6l4 4q-6 15 -6 49v566h112z" />
    <glyph glyph-name="uni041E" unicode="&#x41e;" horiz-adv-x="1669" 
d="M836 1464q160 0 299 -56t237.5 -154.5t154.5 -237.5t56 -299q0 -214 -95.5 -385t-266.5 -267t-385 -96t-385 96t-267 267t-96 385t96 385t267 266.5t385 95.5zM836 1352q-275 0 -451 -178.5t-176 -456.5t176 -456.5t451 -178.5q180 0 323 81t223 226t80 328t-80 328
t-223 226t-323 81z" />
    <glyph glyph-name="uni041F" unicode="&#x41f;" horiz-adv-x="1433" 
d="M1264 1434v-1434h-113v1280q0 31 6 49l-2 2q-14 -4 -53 -4h-770q-41 0 -53 4l-3 -2q7 -21 7 -49v-1280h-113v1434h1094z" />
    <glyph glyph-name="uni0420" unicode="&#x420;" horiz-adv-x="1075" 
d="M610 1434q191 0 305.5 -104.5t114.5 -280.5q0 -175 -113.5 -279t-302.5 -104h-282q-43 0 -53 6l-3 -4q7 -17 7 -50v-618h-113v1434h440zM279 1331l-3 -2q7 -21 7 -49v-459q0 -30 -7 -51l3 -2q10 4 53 4h278q140 0 220.5 74.5t80.5 202.5q0 129 -80 203.5t-221 74.5h-278
q-43 0 -53 4z" />
    <glyph glyph-name="uni0421" unicode="&#x421;" horiz-adv-x="1429" 
d="M850 -31q-342 0 -552 206.5t-210 541.5t210 541t552 206q274 0 498 -164l-70 -96q-105 77 -207 112.5t-223 35.5q-284 0 -461.5 -176.5t-177.5 -458.5t177.5 -458.5t461.5 -176.5q121 0 223 35t207 112l70 -96q-224 -164 -498 -164z" />
    <glyph glyph-name="uni0422" unicode="&#x422;" horiz-adv-x="1046" 
d="M1026 1434v-109h-397q-36 0 -54 6l-2 -2q7 -21 7 -51v-1278h-113v1278q0 33 6 51l-2 2q-21 -6 -53 -6h-398v109h1006z" />
    <glyph glyph-name="uni0423" unicode="&#x423;" horiz-adv-x="1247" 
d="M322 -12q-62 0 -144 14v107q81 -15 148 -15q36 0 64.5 8.5t63 34t68.5 80t66 137.5l-561 1080h133l405 -791q51 -97 61 -122.5t21 -82.5l6 2q6 51 19.5 91.5t48.5 117.5l373 785h127l-541 -1139q-39 -95 -83 -158t-90.5 -94.5t-89 -43t-95.5 -11.5z" />
    <glyph glyph-name="uni0424" unicode="&#x424;" horiz-adv-x="1716" 
d="M805 -82v102q0 31 6 52l-2 2q-14 -4 -74 -4q-130 0 -246 43t-205.5 122.5t-142.5 204t-53 277.5t53 277.5t142.5 204t205.5 122.5t246 43q60 0 74 -4l2 2q-6 18 -6 51v103h108v-103q0 -35 -8 -51l2 -2q16 4 74 4q130 0 246 -43t206.5 -122.5t143.5 -204t53 -277.5
t-53 -277.5t-143.5 -204t-206.5 -122.5t-246 -43q-58 0 -74 4l-2 -2q8 -19 8 -52v-102h-108zM815 172l2 2q-8 19 -8 53v979q0 35 8 54l-2 2q-17 -5 -72 -5q-109 -1 -204 -35.5t-169.5 -99.5t-117.5 -169.5t-43 -235.5t43 -235.5t117.5 -170t169.5 -100t204 -35.5q58 0 72 -4
zM903 172q14 4 72 4q108 1 203 35.5t169.5 100t118 170t43.5 235.5t-43.5 235.5t-118 169.5t-169.5 99.5t-203 35.5q-55 0 -72 5l-2 -2q6 -21 6 -54v-979q0 -32 -6 -53z" />
    <glyph glyph-name="uni0425" unicode="&#x425;" horiz-adv-x="1208" 
d="M1126 1434l-352 -533q-65 -100 -100 -143v-4q14 -16 29 -36t24.5 -34.5t37 -54.5t44.5 -66l371 -563h-142l-358 549q-60 98 -72 133h-8q-14 -44 -74 -133l-358 -549h-139l370 563q102 153 136 191v4q-21 26 -103 143l-352 533h141l291 -449q76 -116 88 -151h8
q11 33 86 151l293 449h139z" />
    <glyph glyph-name="uni0426" unicode="&#x426;" horiz-adv-x="1445" 
d="M1249 -287v240q0 25 8 49l-4 2q-12 -4 -53 -4h-1030v1434h113v-1280q0 -23 -9 -50l5 -2q12 4 53 4h729q39 0 53 -4l2 2q-6 18 -6 50v1280h113v-1280q0 -23 -9 -50l5 -2q12 4 53 4h88v-393h-111z" />
    <glyph glyph-name="uni0427" unicode="&#x427;" horiz-adv-x="1191" 
d="M911 0v610q0 36 7 60l-3 2q-246 -82 -481 -82q-189 0 -285 100t-96 314v430h113v-430q0 -163 71.5 -232.5t206.5 -69.5q105 0 210 18.5t257 61.5v652h113v-1434h-113z" />
    <glyph glyph-name="uni0428" unicode="&#x428;" horiz-adv-x="2107" 
d="M170 0v1434h113v-1280q0 -23 -9 -50l5 -2q12 4 53 4h616q41 0 53 -4l3 2q-7 21 -7 50v1280h113v-1280q0 -32 -6 -50l2 -2q12 4 53 4h619q41 0 53 -4l2 2q-6 18 -6 50v1280h112v-1434h-1769z" />
    <glyph glyph-name="uni0429" unicode="&#x429;" horiz-adv-x="2162" 
d="M1989 106h90v-393h-111v240q0 31 6 49l-2 2q-12 -4 -53 -4h-1749v1434h113v-1280q0 -23 -9 -50l5 -2q12 4 53 4h616q41 0 53 -4l3 2q-7 21 -7 50v1280h113v-1280q0 -32 -6 -50l2 -2q12 4 53 4h619q41 0 53 -4l2 2q-6 18 -6 50v1280h112v-1280q0 -32 -6 -50l2 -2
q12 4 54 4z" />
    <glyph glyph-name="uni042A" unicode="&#x42a;" horiz-adv-x="1386" 
d="M903 811q211 0 331 -109.5t120 -295.5t-120 -296t-331 -110h-495v1280q0 33 8 49l-4 2q-12 -4 -54 -4h-338v107h500v-576q0 -31 -6 -49l4 -2q12 4 51 4h334zM897 106q163 0 249.5 80.5t86.5 219.5q0 138 -86 218.5t-250 80.5h-328q-33 0 -51 6l-4 -2q6 -18 6 -52v-503
q0 -32 -6 -50l4 -2q12 4 51 4h328z" />
    <glyph glyph-name="uni042B" unicode="&#x42b;" horiz-adv-x="1511" 
d="M664 811q211 0 330.5 -109.5t119.5 -295.5t-120 -296t-330 -110h-494v991v443h113v-576q0 -28 -7 -49l3 -2q12 4 53 4h332zM1229 1434h112v-1434h-112v1434zM659 106q162 0 249 81t87 219t-87 218.5t-249 80.5h-327q-35 0 -53 6l-3 -2q7 -21 7 -52v-503q0 -29 -7 -50
l3 -2q12 4 53 4h327z" />
    <glyph glyph-name="uni042C" unicode="&#x42c;" horiz-adv-x="1146" 
d="M664 811q211 0 330.5 -109.5t119.5 -295.5t-120 -296t-330 -110h-494v991v443h113v-576q0 -28 -7 -49l3 -2q12 4 53 4h332zM659 106q162 0 249 81t87 219t-87 218.5t-249 80.5h-327q-35 0 -53 6l-3 -2q7 -21 7 -52v-503q0 -29 -7 -50l3 -2q12 4 53 4h327z" />
    <glyph glyph-name="uni042D" unicode="&#x42d;" horiz-adv-x="1425" 
d="M618 -31q-296 0 -536 162l61 98q222 -147 478 -147q243 0 400.5 142t188.5 388q5 33 13 56l-2 2q-18 -6 -58 -6h-723v106h723q40 0 58 -6l2 4q-8 19 -13 53q-31 246 -188.5 388.5t-400.5 142.5q-254 0 -478 -148l-61 99q238 161 536 161q327 0 524 -202t197 -545
t-197 -545.5t-524 -202.5z" />
    <glyph glyph-name="uni042E" unicode="&#x42e;" horiz-adv-x="2088" 
d="M1253 1464q214 0 385 -95.5t267 -266.5t96 -385t-96 -385t-267 -267t-385 -96q-154 0 -288.5 52t-232 143.5t-156.5 221t-68 280.5h-178q-31 0 -49 6l-5 -2q7 -21 7 -54v-616h-113v1434h113v-613q0 -32 -7 -53l5 -2q18 6 49 6h178q19 305 226.5 498.5t518.5 193.5z
M1253 82q275 0 451 178.5t176 456.5q0 182 -79.5 326.5t-223 225.5t-324.5 81q-180 0 -323 -81t-223 -225.5t-80 -326.5q0 -183 80 -328t223 -226t323 -81z" />
    <glyph glyph-name="uni042F" unicode="&#x42f;" horiz-adv-x="1204" 
d="M555 1434h479v-1434h-112v647q0 33 6 51l-2 2q-12 -4 -52 -4h-155l-537 -696h-149l483 623q50 59 88 79v9q-32 -11 -67 -11q-172 0 -278.5 101t-106.5 264q0 169 108 269t295 100zM926 1331q-12 -4 -54 -4h-319q-127 0 -205 -65.5t-78 -196.5t78.5 -196.5t204.5 -65.5
h319q42 0 54 -4l2 2q-6 18 -6 49v430q0 31 6 49z" />
    <glyph glyph-name="uni0430" unicode="&#x430;" horiz-adv-x="1038" 
d="M520 977q195 0 287 -90t92 -279v-608h-102q0 80 12 186l-4 2q-46 -102 -144 -160.5t-223 -58.5q-165 0 -266.5 93.5t-101.5 244.5q0 154 101 245t271 91q124 0 222 -57t139 -152l6 4q-7 25 -8.5 50t-1.5 114q-1 139 -70.5 205.5t-210.5 66.5q-140 0 -317 -57l-31 103
q196 57 350 57zM461 547q-126 0 -202.5 -67t-76.5 -177q0 -107 76.5 -172t202.5 -65q134 0 225.5 69t91.5 170t-92 171.5t-225 70.5z" />
    <glyph glyph-name="uni0431" unicode="&#x431;" horiz-adv-x="1202" 
d="M608 -31q-240 0 -382 158t-142 471q0 211 66 367t206 231q56 30 135.5 54.5t181 48t113.5 26.5q113 35 123 119h103q0 -83 -45.5 -132.5t-141.5 -74.5q-10 -2 -115 -26t-178 -45.5t-122 -47.5q-226 -119 -242 -549h8q15 129 82.5 219.5t165 131.5t217.5 41
q214 2 344.5 -131t130.5 -355q0 -226 -139 -366t-369 -140zM612 72q174 0 285 108.5t111 288.5q0 123 -54 213.5t-142.5 135t-197.5 44.5q-113 0 -205 -45.5t-148 -136t-56 -209.5q0 -182 116 -290.5t291 -108.5z" />
    <glyph glyph-name="uni0432" unicode="&#x432;" horiz-adv-x="983" 
d="M762 467q137 -46 137 -209q0 -124 -82 -191t-217 -67h-450v608v338h448q134 0 206.5 -61.5t72.5 -171.5q0 -67 -29.5 -118t-83.5 -77q-50 -23 -123 -26v-9q65 0 121 -16zM242 856q10 -18 10 -53v-225q0 -42 -8 -58l2 -2q18 10 53 10h236q117 0 173 46.5t56 123.5
q0 152 -191 152h-272q-41 0 -57 8zM582 96q204 0 204 172q0 170 -235 170h-252q-34 0 -53 11l-2 -3q8 -16 8 -55v-248q0 -33 -10 -53l2 -2q16 8 57 8h281z" />
    <glyph glyph-name="uni0433" unicode="&#x433;" horiz-adv-x="757" 
d="M150 0v946h598v-96h-447q-41 0 -57 8l-2 -2q10 -20 10 -53v-803h-102z" />
    <glyph glyph-name="uni0434" unicode="&#x434;" horiz-adv-x="1083" 
d="M37 -287v383h67q34 0 48 -8l2 2q-3 23 12 49q156 273 156 613v194h596v-803q0 -31 -11 -53l2 -2q16 8 58 8h51v-383h-98v240q0 33 10 53l-2 2q-16 -8 -58 -8h-686q-41 0 -57 8l-2 -2q10 -20 10 -53v-240h-98zM248 88q16 8 59 8h461q43 0 57 -8l2 2q-10 20 -10 53v660
q0 33 10 53l-2 2q-19 -8 -57 -8h-297q-36 0 -57 8l-2 -2q10 -20 10 -53v-101q0 -163 -54.5 -348.5t-121.5 -263.5z" />
    <glyph glyph-name="uni0435" unicode="&#x435;" horiz-adv-x="1103" 
d="M567 977q207 0 329 -133t122 -359v-24h-742q-66 0 -86 10l-2 -2l5 -18q3 -175 106.5 -278t275.5 -103q108 0 190.5 44t160.5 144l73 -68q-162 -221 -426 -221q-223 0 -356 138t-133 368q0 229 131.5 365.5t351.5 136.5zM565 879q-159 0 -258.5 -91.5t-113.5 -250.5l2 -2
q25 14 84 14h534q55 0 92 -12l2 2q-12 162 -101.5 251t-240.5 89z" />
    <glyph glyph-name="uni0436" unicode="&#x436;" horiz-adv-x="1349" 
d="M33 -4v94h65q46 0 73 24t42 76l51 179q20 65 66 93.5t127 31.5v4q-82 3 -130 33.5t-75 105.5l-51 135q-29 84 -109 84h-57v94h74q128 0 174 -112l63 -162q28 -75 66 -106t106 -31h51q48 0 64 -4l2 2q-10 42 -10 81v328h98v-328q0 -50 -10 -81l2 -2q20 4 63 4h53
q68 0 106.5 31t66.5 106l63 162q46 112 172 112h76v-94h-58q-42 0 -67 -20t-43 -64l-49 -135q-28 -75 -75.5 -105.5t-129.5 -33.5v-4q81 -3 126.5 -31.5t63.5 -93.5l54 -179q15 -52 41.5 -76t72.5 -24h66v-94h-86q-77 0 -121.5 36t-65.5 107l-49 172q-20 71 -59.5 104.5
t-104.5 33.5h-53q-43 0 -63 4l-2 -2q10 -31 10 -86v-365h-98v365q0 44 10 86l-2 2q-16 -4 -64 -4h-51q-65 0 -104.5 -33.5t-59.5 -104.5l-49 -172q-21 -72 -65 -107.5t-123 -35.5h-84z" />
    <glyph glyph-name="uni0437" unicode="&#x437;" horiz-adv-x="917" 
d="M434 -31q-209 0 -393 92l47 95q168 -86 358 -86q281 0 281 190q0 102 -68 147.5t-223 45.5h-117v96h113q246 0 246 172q0 156 -238 156q-163 0 -334 -76l-40 94q187 82 376 82q168 0 257 -60.5t89 -179.5q0 -103 -65 -161.5t-193 -67.5v-8q147 -6 225.5 -64.5
t78.5 -185.5q0 -137 -102.5 -209t-297.5 -72z" />
    <glyph glyph-name="uni0438" unicode="&#x438;" horiz-adv-x="1105" 
d="M150 -18v964h102v-522q0 -142 -10 -244l6 -2q30 64 106 150l580 637h22v-965h-102v522q0 142 10 244l-6 2q-30 -64 -106 -150l-580 -636h-22z" />
    <glyph glyph-name="uni0439" unicode="&#x439;" horiz-adv-x="1105" 
d="M850 1333q0 -135 -77.5 -212t-203.5 -77q-124 0 -201 77t-77 212h86q3 -98 53.5 -151.5t138.5 -53.5q90 0 141 53.5t54 151.5h86zM150 -18v964h102v-522q0 -142 -10 -244l6 -2q30 64 106 150l580 637h22v-965h-102v522q0 142 10 244l-6 2q-30 -64 -106 -150l-580 -636
h-22z" />
    <glyph glyph-name="uni043A" unicode="&#x43a;" horiz-adv-x="948" 
d="M829 -4q-80 0 -123 34.5t-65 108.5l-47 172q-20 71 -60 104.5t-106 33.5h-121q-43 0 -63 4l-2 -2q10 -42 10 -86v-365h-102v946h102v-328q0 -39 -10 -81l2 -2q20 4 63 4h121q68 0 106 30.5t68 106.5l64 162q42 112 172 112h75v-94h-57q-77 0 -108 -84l-54 -135
q-30 -81 -72 -108.5t-130 -30.5v-4q88 -3 129 -29.5t61 -95.5l53 -179q16 -52 41.5 -76t73.5 -24h63v-94h-84z" />
    <glyph glyph-name="uni043B" unicode="&#x43b;" horiz-adv-x="1071" 
d="M934 946v-946h-105v803q0 31 11 53l-2 2q-14 -8 -58 -8h-391q-41 0 -57 8l-2 -2q10 -20 10 -53v-559q0 -125 -57.5 -186.5t-165.5 -61.5h-88v96h86q62 0 92.5 36.5t30.5 117.5v700h696z" />
    <glyph glyph-name="uni043C" unicode="&#x43c;" horiz-adv-x="1310" 
d="M645 -16l-229 555q-39 96 -64 198h-6q-3 -78 -41 -200l-172 -537h-113l314 965h18l250 -617q40 -106 51 -170h4q10 59 52 170l249 617h19l313 -965h-112l-172 537q-38 122 -41 200h-7q-26 -108 -63 -198l-229 -555h-21z" />
    <glyph glyph-name="uni043D" unicode="&#x43d;" horiz-adv-x="1112" 
d="M858 946h105v-946h-105v412q0 37 10 57l-2 2q-20 -10 -55 -10h-512q-33 0 -53 10l-2 -2q8 -16 8 -57v-412h-102v946h102v-340q0 -41 -8 -57l2 -2q20 10 53 10h512q35 0 55 -10l2 2q-10 20 -10 57v340z" />
    <glyph glyph-name="uni043E" unicode="&#x43e;" horiz-adv-x="1183" 
d="M592 977q223 0 365.5 -141.5t142.5 -362.5q0 -220 -143 -362t-365 -142q-221 0 -364.5 142t-143.5 362q0 221 143 362.5t365 141.5zM592 874q-174 0 -285.5 -112t-111.5 -289q0 -175 112 -288t285 -113t285 113t112 288q0 177 -111.5 289t-285.5 112z" />
    <glyph glyph-name="uni043F" unicode="&#x43f;" horiz-adv-x="1064" 
d="M928 946v-946h-105v803q0 31 11 53l-3 2q-16 -8 -57 -8h-483q-42 0 -58 8l-2 -2q11 -22 11 -53v-803h-103v946h789z" />
    <glyph glyph-name="uni0440" unicode="&#x440;" horiz-adv-x="1222" 
d="M664 977q211 0 343 -140t132 -364t-132 -364t-343 -140q-151 0 -259.5 73.5t-164.5 211.5l-9 -2q21 -86 21 -201v-461h-102v1356h100q0 -183 -14 -260l6 -2q53 140 162.5 216.5t259.5 76.5zM649 872q-180 0 -292.5 -111t-112.5 -288q0 -178 114 -288.5t297 -110.5
q169 0 271 108.5t102 288.5q0 182 -103.5 291.5t-275.5 109.5z" />
    <glyph glyph-name="uni0441" unicode="&#x441;" horiz-adv-x="983" 
d="M594 -31q-227 0 -368.5 140t-141.5 364t141.5 364t368.5 140q175 0 321 -92l-51 -92q-134 81 -274 81q-172 0 -283.5 -113t-111.5 -288q0 -174 112 -287.5t283 -113.5q139 0 274 82l51 -93q-146 -92 -321 -92z" />
    <glyph glyph-name="uni0442" unicode="&#x442;" horiz-adv-x="917" 
d="M10 946h897v-96h-348q-41 0 -57 8l-2 -2q10 -20 10 -53v-803h-102v803q0 33 10 53l-2 2q-16 -8 -58 -8h-348v96z" />
    <glyph glyph-name="uni0443" unicode="&#x443;" horiz-adv-x="950" 
d="M930 946l-596 -1356h-109l209 480l-414 876h121l275 -602q35 -76 48 -114.5t19 -86.5h9q7 75 63 199l262 604h113z" />
    <glyph glyph-name="uni0444" unicode="&#x444;" horiz-adv-x="1736" 
d="M817 -420v465q0 115 12 209l-4 2q-39 -143 -127 -215t-217 -72q-182 0 -284.5 135.5t-102.5 368.5t102.5 368.5t284.5 135.5q129 0 217 -72t127 -213h4q-12 94 -12 209v494h101v-494q0 -125 -13 -209h6q83 285 344 285q182 0 283.5 -135t101.5 -369t-101.5 -369
t-283.5 -135q-262 0 -344 287l-6 -2q13 -84 13 -209v-465h-101zM502 70q143 0 231 116t88 287q0 172 -88 288t-231 116t-220 -110t-77 -294q0 -183 77 -293t220 -110zM1235 70q143 0 220 110t77 293q0 184 -77 294t-220 110t-231.5 -116.5t-88.5 -287.5t88.5 -287
t231.5 -116z" />
    <glyph glyph-name="uni0445" unicode="&#x445;" horiz-adv-x="940" 
d="M20 0l330 432q39 50 53 62v6q-20 16 -59 67l-287 379h125l224 -289q43 -55 61 -108h6q15 44 62 108l223 289h125l-287 -379q-39 -51 -59 -67v-6q14 -12 53 -62l330 -432h-127l-258 334q-46 58 -62 104h-6q-16 -46 -59 -104l-261 -334h-127z" />
    <glyph glyph-name="uni0446" unicode="&#x446;" horiz-adv-x="1073" 
d="M909 -287v240q0 31 11 53l-2 2q-16 -8 -58 -8h-710v946h102v-803q0 -33 -10 -53l2 -2q16 8 57 8h453q41 0 57 -8l2 2q-10 20 -10 53v803h104v-803q0 -33 -10 -53l2 -2q16 8 57 8h54v-383h-101z" />
    <glyph glyph-name="uni0447" unicode="&#x447;" horiz-adv-x="907" 
d="M666 946h102v-635v-311h-102v369q0 51 8 69l-2 2q-170 -71 -326 -71q-157 0 -237 72t-80 229v276h102v-270q0 -113 58.5 -160t172.5 -47q127 0 304 72v405z" />
    <glyph glyph-name="uni0448" unicode="&#x448;" horiz-adv-x="1648" 
d="M1397 946h102v-946h-1349v946h102v-803q0 -33 -10 -53l2 -2q16 8 57 8h422q41 0 57 -8l2 2q-10 20 -10 53v803h105v-803q0 -31 -11 -53l2 -2q16 8 58 8h422q41 0 57 -8l2 2q-10 20 -10 53v803z" />
    <glyph glyph-name="uni0449" unicode="&#x449;" horiz-adv-x="1667" 
d="M1503 -287v240q0 33 10 53l-2 2q-16 -8 -57 -8h-1304v946h102v-803q0 -33 -10 -53l2 -2q16 8 57 8h422q41 0 57 -8l2 2q-10 20 -10 53v803h105v-803q0 -31 -11 -53l2 -2q16 8 58 8h422q41 0 57 -8l2 2q-10 20 -10 53v803h102v-803q0 -33 -10 -53l2 -2q16 8 57 8h54v-383
h-99z" />
    <glyph glyph-name="uni044A" unicode="&#x44a;" horiz-adv-x="1105" 
d="M743 590q146 0 234 -79t88 -216q0 -136 -88.5 -215.5t-235.5 -79.5h-411v686v117q0 26 10 53l-2 2q-14 -8 -57 -8h-271v96h424v-309q0 -34 -8 -55l2 -2q18 10 53 10h262zM739 96q103 0 160 54t57 145t-57 144t-160 53h-258q-35 0 -53 10l-2 -2q8 -21 8 -58v-299
q0 -33 -10 -53l2 -2q14 8 57 8h256z" />
    <glyph glyph-name="uni044B" unicode="&#x44b;" horiz-adv-x="1218" 
d="M559 590q146 0 233 -79t87 -216q0 -135 -88 -215t-232 -80h-409v686v260h102v-309q0 -39 -8 -55l2 -2q18 10 53 10h260zM967 946h102v-946h-102v946zM555 96q101 0 157 54t56 145t-56 144t-157 53h-256q-35 0 -53 10l-2 -2q8 -16 8 -58v-299q0 -33 -10 -53l2 -2
q16 8 57 8h254z" />
    <glyph glyph-name="uni044C" unicode="&#x44c;" horiz-adv-x="919" 
d="M559 590q146 0 233 -79t87 -216q0 -135 -88 -215t-232 -80h-409v686v260h102v-309q0 -39 -8 -55l2 -2q18 10 53 10h260zM555 96q101 0 157 54t56 145t-56 144t-157 53h-256q-35 0 -53 10l-2 -2q8 -16 8 -58v-299q0 -33 -10 -53l2 -2q16 8 57 8h254z" />
    <glyph glyph-name="uni044D" unicode="&#x44d;" horiz-adv-x="993" 
d="M414 -31q-193 0 -346 101l51 88q140 -86 295 -86q149 0 243.5 83.5t118.5 219.5q11 45 17 59l-2 2q-20 -10 -54 -10h-413v94h413q34 0 54 -10l2 2q-6 14 -17 59q-26 136 -120 219.5t-242 83.5q-155 0 -295 -86l-51 89q151 100 346 100q224 0 353.5 -138.5t129.5 -365.5
t-129.5 -365.5t-353.5 -138.5z" />
    <glyph glyph-name="uni044E" unicode="&#x44e;" horiz-adv-x="1513" 
d="M922 977q223 0 365.5 -141.5t142.5 -362.5q0 -220 -143 -362t-365 -142q-208 0 -348.5 127.5t-157.5 329.5h-119q-37 0 -53 8l-2 -2q8 -16 8 -55v-377h-100v946h100v-375q0 -41 -8 -57l2 -2q20 10 53 10h119q17 202 157 328.5t349 126.5zM922 72q173 0 285 113t112 288
q0 177 -111.5 289t-285.5 112t-286 -112.5t-112 -288.5q0 -175 112.5 -288t285.5 -113z" />
    <glyph glyph-name="uni044F" unicode="&#x44f;" horiz-adv-x="960" 
d="M811 946v-635v-311h-102v348q0 39 8 55l-2 3q-22 -11 -56 -11h-137l-358 -395h-133v4l295 322q46 49 92 77l-2 5q-25 -11 -74 -11q-100 5 -174 77t-74 196q0 134 87 205t225 71h405zM717 483q-8 16 -8 56v264q0 33 10 53l-2 2q-21 -8 -58 -8h-243q-100 0 -156.5 -47
t-56.5 -133q0 -85 52.5 -133t145.5 -48h258q35 0 56 -8z" />
    <glyph glyph-name="uni0451" unicode="&#x451;" horiz-adv-x="1103" 
d="M500 1315v-246h-119v246h119zM770 1315v-246h-119v246h119zM567 977q207 0 329 -133t122 -359v-24h-742q-66 0 -86 10l-2 -2l5 -18q3 -175 106.5 -278t275.5 -103q108 0 190.5 44t160.5 144l73 -68q-162 -221 -426 -221q-223 0 -356 138t-133 368q0 229 131.5 365.5
t351.5 136.5zM565 879q-159 0 -258.5 -91.5t-113.5 -250.5l2 -2q25 14 84 14h534q55 0 92 -12l2 2q-12 162 -101.5 251t-240.5 89z" />
    <glyph glyph-name="uni0452" unicode="&#x452;" horiz-adv-x="1126" 
d="M987 -123q0 -139 -67.5 -213t-192.5 -74h-106v101h110q73 0 112.5 47.5t39.5 138.5v123v547q0 170 -75 250t-200 80q-158 0 -256 -115t-98 -338v-424h-102v1130q0 42 8 58l-2 2q-20 -10 -54 -10h-102v75h102q34 0 54 -10l2 2q-8 16 -8 58v159h102v-159q0 -42 -8 -58l2 -2
q20 10 55 10h291v-75h-291q-35 0 -55 10l-2 -2q8 -16 8 -58v-227q0 -164 -16 -248l8 -4q85 326 381 326q167 0 263.5 -100t96.5 -302v-698z" />
    <glyph glyph-name="uni0453" unicode="&#x453;" horiz-adv-x="757" 
d="M745 1346v-9l-247 -307h-82v10l188 306h141zM150 0v946h598v-96h-447q-41 0 -57 8l-2 -2q10 -20 10 -53v-803h-102z" />
    <glyph glyph-name="uni0454" unicode="&#x454;" horiz-adv-x="993" 
d="M580 -31q-224 0 -354 138.5t-130 365.5t130 365.5t354 138.5q195 0 346 -100l-52 -89q-140 86 -294 86q-149 0 -243 -83.5t-120 -219.5q-12 -50 -16 -59l2 -2q20 10 53 10h414v-94h-414q-33 0 -53 10l-2 -2q4 -9 16 -59q24 -136 119 -219.5t244 -83.5q154 0 294 86
l52 -88q-153 -101 -346 -101z" />
    <glyph glyph-name="uni0455" unicode="&#x455;" horiz-adv-x="849" 
d="M444 -31q-218 0 -395 121l53 90q159 -110 347 -110q106 0 165.5 41t59.5 114q0 52 -37 92.5t-117 75.5l-178 82q-109 51 -160 113.5t-51 146.5q0 114 83 178t232 64q165 0 314 -76l-47 -94q-143 70 -267 70q-98 0 -151 -36.5t-53 -101.5q0 -54 36 -94t121 -78l170 -78
q115 -53 165 -114t50 -150q0 -120 -89.5 -188t-250.5 -68z" />
    <glyph glyph-name="uni0456" unicode="&#x456;" horiz-adv-x="417" 
d="M268 1434v-267h-121v267h121zM260 946v-946h-104v946h104z" />
    <glyph glyph-name="uni0457" unicode="&#x457;" horiz-adv-x="417" 
d="M133 1315v-246h-119v246h119zM403 1315v-246h-118v246h118zM260 946v-946h-104v946h104z" />
    <glyph glyph-name="uni0458" unicode="&#x458;" horiz-adv-x="417" 
d="M268 1434v-267h-121v267h121zM260 946v-1087q0 -299 -285 -299h-18v104h20q88 0 133.5 46.5t45.5 148.5v1087h104z" />
    <glyph glyph-name="uni0459" unicode="&#x459;" horiz-adv-x="1609" 
d="M1243 590q146 0 233 -79t87 -216q0 -135 -88 -215t-232 -80h-391v803q0 26 10 53l-2 2q-14 -8 -57 -8h-406q-43 0 -57 8l-2 -2q10 -20 10 -53v-119v-440q0 -248 -225 -248h-94v96h94q123 0 123 154v438h-2v262h712v-309q0 -39 -8 -55l2 -2q17 10 54 10h239zM1239 96
q101 0 157 54t56 145t-56 144t-157 53h-235q-37 0 -54 10l-2 -2q8 -16 8 -58v-299q0 -33 -10 -53l2 -2q16 8 58 8h233z" />
    <glyph glyph-name="uni045A" unicode="&#x45a;" horiz-adv-x="1570" 
d="M150 0v946h102v-309q0 -39 -8 -55l2 -2q18 10 53 10h467q36 0 53 -10l2 2q-8 16 -8 55v309h102v-309q0 -39 -8 -55l2 -2q20 10 56 10h237q146 0 233 -79t87 -216q0 -135 -88 -215t-232 -80h-389v442q0 42 8 58l-2 2q-17 -10 -53 -10h-467q-35 0 -53 10l-2 -2q8 -16 8 -58
v-442h-102zM907 90q16 8 58 8h233q101 0 157 53t56 144t-56 144t-157 53h-233q-36 0 -56 10l-2 -2q8 -16 8 -58v-297q0 -33 -10 -53z" />
    <glyph glyph-name="uni045B" unicode="&#x45b;" horiz-adv-x="1126" 
d="M627 977q167 0 263.5 -100t96.5 -302v-575h-104v547q0 170 -75 250t-200 80q-158 0 -256 -115t-98 -338v-424h-102v1130q0 42 8 58l-2 2q-20 -10 -54 -10h-102v75h102q34 0 54 -10l2 2q-8 16 -8 58v159h102v-159q0 -42 -8 -58l2 -2q20 10 55 10h291v-75h-291
q-35 0 -55 10l-2 -2q8 -16 8 -58v-227q0 -164 -16 -248l8 -4q85 326 381 326z" />
    <glyph glyph-name="uni045C" unicode="&#x45c;" horiz-adv-x="948" 
d="M786 1346v-9l-247 -307h-82v10l188 306h141zM829 -4q-80 0 -123 34.5t-65 108.5l-47 172q-20 71 -60 104.5t-106 33.5h-121q-43 0 -63 4l-2 -2q10 -42 10 -86v-365h-102v946h102v-328q0 -39 -10 -81l2 -2q20 4 63 4h121q68 0 106 30.5t68 106.5l64 162q42 112 172 112h75
v-94h-57q-77 0 -108 -84l-54 -135q-30 -81 -72 -108.5t-130 -30.5v-4q88 -3 129 -29.5t61 -95.5l53 -179q16 -52 41.5 -76t73.5 -24h63v-94h-84z" />
    <glyph glyph-name="uni045E" unicode="&#x45e;" horiz-adv-x="950" 
d="M760 1333q0 -135 -77.5 -212t-203.5 -77q-124 0 -201 77t-77 212h86q3 -98 53.5 -151.5t138.5 -53.5q90 0 141 53.5t54 151.5h86zM930 946l-596 -1356h-109l209 480l-414 876h121l275 -602q35 -76 48 -114.5t19 -86.5h9q7 75 63 199l262 604h113z" />
    <glyph glyph-name="uni045F" unicode="&#x45f;" horiz-adv-x="1087" 
d="M494 -287v240q0 33 10 53l-2 2q-16 -8 -58 -8h-294v946h102v-803q0 -33 -10 -53l2 -2q16 8 57 8h485q42 0 58 -8l2 2q-10 20 -10 53v803h102v-946h-295q-41 0 -57 8l-2 -2q10 -20 10 -53v-240h-100z" />
    <glyph glyph-name="uni0462" unicode="&#x462;" horiz-adv-x="1253" 
d="M772 811q209 0 329 -109.5t120 -295.5t-120 -296t-329 -110h-496v1001q0 29 7 50l-2 2q-14 -4 -54 -4h-227v106h227q33 0 54 -6l2 2q-7 21 -7 51v232h113v-232q0 -33 -6 -51l2 -2q18 6 53 6h404v-106h-404q-41 0 -53 4l-2 -2q6 -18 6 -50v-143q0 -31 -6 -49l2 -2
q12 4 53 4h334zM766 106q163 0 249.5 80.5t86.5 219.5q0 138 -87 218.5t-249 80.5h-328q-35 0 -53 6l-2 -2q6 -18 6 -52v-503q0 -32 -6 -50l2 -2q12 4 53 4h328z" />
    <glyph glyph-name="uni0463" unicode="&#x463;" horiz-adv-x="954" 
d="M588 590q144 0 230.5 -79t86.5 -216q0 -135 -87.5 -215t-231.5 -80h-410v686v127q0 34 8 55l-2 2q-18 -10 -53 -10h-127v86h127q35 0 53 -10l2 2q-8 21 -8 57v469h105v-469q0 -35 -11 -57l2 -2q20 10 56 10h348v-86h-348q-36 0 -56 10l-2 -2q11 -22 11 -55v-176
q0 -33 -11 -55l2 -2q20 10 56 10h260zM584 96q101 0 157 54t56 145t-56 144t-157 53h-256q-36 0 -56 10l-2 -2q11 -22 11 -58v-299q0 -24 -11 -53l2 -2q14 8 58 8h254z" />
    <glyph glyph-name="uni0472" unicode="&#x472;" horiz-adv-x="1669" 
d="M836 1464q159 0 297 -55.5t237 -153t156 -237t57 -301.5q0 -216 -97 -387t-267.5 -266t-382.5 -95t-382.5 95t-268 266.5t-97.5 386.5t97.5 386.5t268 266t382.5 94.5zM211 813q-3 -32 -12 -47l2 -4q20 6 53 6h1163q33 0 51 -6l5 4q-11 15 -15 41q-8 103 -53.5 199.5
t-123 174t-194 124.5t-253.5 47q-118 0 -221 -36t-173 -93t-121.5 -129.5t-77.5 -143.5t-30 -137zM1458 623q3 28 15 45l-5 4q-18 -6 -51 -6h-1163q-33 0 -53 6l-2 -4q7 -13 12 -41q9 -103 55.5 -199.5t123.5 -174t193.5 -124.5t252.5 -47q118 0 221 36t173 93t121.5 129.5
t77 144.5t29.5 138z" />
    <glyph glyph-name="uni0473" unicode="&#x473;" horiz-adv-x="1181" 
d="M592 977q221 0 363.5 -141.5t142.5 -362.5t-142.5 -362.5t-363.5 -141.5q-223 0 -365.5 141.5t-142.5 362.5t142.5 362.5t365.5 141.5zM592 874q-168 0 -275 -98t-124 -272l2 -4q27 12 77 12h637q51 0 78 -12l2 4q-17 174 -123.5 272t-273.5 98zM592 72q167 0 273.5 98
t123.5 272l-2 4q-27 -12 -78 -12h-637q-50 0 -77 12l-2 -4q17 -174 124 -272t275 -98z" />
    <glyph glyph-name="uni0474" unicode="&#x474;" horiz-adv-x="1292" 
d="M1212 1454q30 0 84 -4v-109q-50 5 -67 5q-64 0 -102.5 -35t-71.5 -125l-449 -1215h-14l-576 1463h136l372 -996q34 -90 46 -128.5t22 -100.5h8q3 19 7 38t7.5 33t11 36.5l11.5 34.5t15 42t16 45l280 795q44 120 104 170.5t160 50.5z" />
    <glyph glyph-name="uni0475" unicode="&#x475;" horiz-adv-x="999" 
d="M956 965h33v-105h-20q-54 0 -85.5 -20.5t-56.5 -79.5l-350 -778h-22l-435 964h127l242 -573q3 -7 11.5 -27t10.5 -25.5t9 -21.5t8.5 -21.5t7 -18.5t7 -19.5t5.5 -18.5t6.5 -21t5 -20.5t5.5 -23.5h4q4 22 9.5 41.5t9.5 33.5t12 34.5t12.5 31t16 37t16.5 39.5l186 436
q38 90 86.5 123t138.5 33z" />
    <glyph glyph-name="uni048E" unicode="&#x48e;" horiz-adv-x="1075" 
d="M1030 1049q0 -117 -53.5 -204.5t-149.5 -133.5l150 -203l-51 -39l-162 217q-75 -20 -150 -20h-282q-43 0 -53 6l-3 -4q7 -17 7 -50v-618h-113v1434h440q191 0 305.5 -104.5t114.5 -280.5zM610 772q30 0 84 8l-139 189l53 39l154 -207q149 67 149 248q0 129 -80 203.5
t-221 74.5h-278q-43 0 -53 4l-3 -2q7 -21 7 -49v-459q0 -30 -7 -51l3 -2q10 4 53 4h278z" />
    <glyph glyph-name="uni048F" unicode="&#x48f;" horiz-adv-x="1222" 
d="M1139 473q0 -138 -54 -248.5t-149 -175.5l127 -155l-47 -39l-135 161q-96 -47 -217 -47q-151 0 -259.5 73.5t-164.5 211.5l-9 -2q21 -86 21 -201v-461h-102v1356h100q0 -183 -14 -260l6 -2q53 140 162.5 216.5t259.5 76.5q211 0 343 -140t132 -364zM655 74q86 0 156 28
l-147 183l45 39l157 -193q77 52 119.5 139.5t42.5 200.5q0 182 -103.5 291.5t-275.5 109.5q-180 0 -292.5 -111t-112.5 -288q0 -178 114 -288.5t297 -110.5z" />
    <glyph glyph-name="uni0490" unicode="&#x490;" horiz-adv-x="995" 
d="M864 1720h111v-393h-643q-41 0 -53 4l-3 -2q7 -21 7 -49v-1280h-113v1434h645q41 0 53 -4l2 2q-6 18 -6 49v239z" />
    <glyph glyph-name="uni0491" unicode="&#x491;" horiz-adv-x="796" 
d="M662 1233h104v-383h-465q-41 0 -57 8l-2 -2q10 -20 10 -53v-803h-102v946h462q42 0 58 -8l2 2q-10 20 -10 53v240z" />
    <glyph glyph-name="uni0492" unicode="&#x492;" horiz-adv-x="1079" 
d="M420 1327q-41 0 -53 4l-2 -2q6 -18 6 -49v-432q0 -31 -6 -49l2 -2q12 4 53 4h459v-107h-459q-35 0 -53 6l-2 -2q6 -18 6 -51v-647h-113v647q0 33 6 51l-2 2q-21 -6 -53 -6h-189v107h189q39 0 53 -4l2 2q-6 18 -6 49v586h801v-107h-639z" />
    <glyph glyph-name="uni0493" unicode="&#x493;" horiz-adv-x="831" 
d="M377 850q-42 0 -58 8l-2 -2q11 -22 11 -53v-242q0 -33 -11 -55l2 -2q20 10 56 10h327v-98h-327q-36 0 -56 10l-2 -2q11 -22 11 -57v-367h-105v367q0 41 8 57l-2 2q-20 -10 -53 -10h-117v98h117q33 0 53 -10l2 2q-8 16 -8 55v385h598v-96h-444z" />
    <glyph glyph-name="uni0494" unicode="&#x494;" horiz-adv-x="1181" 
d="M754 842q178 0 269 -86.5t91 -270.5v-497q0 -398 -375 -398h-110v107h108q143 0 203.5 74t60.5 219v493q0 133 -66 189.5t-192 56.5q-106 0 -207.5 -18.5t-252.5 -63.5v-647h-113v1434h811v-107h-649q-41 0 -53 4l-3 -2q7 -21 7 -49v-459q0 -38 -9 -59l2 -2
q259 82 478 82z" />
    <glyph glyph-name="uni0495" unicode="&#x495;" horiz-adv-x="929" 
d="M451 -410v101h96q107 0 162 52.5t55 176.5v340q0 113 -51.5 160t-153.5 47q-126 0 -307 -72v-395h-102v946h622v-96h-471q-41 0 -57 8l-2 -2q10 -20 10 -53v-236q0 -51 -8 -67l2 -2q173 69 327 69q145 0 220 -72t75 -229v-350q0 -326 -311 -326h-106z" />
    <glyph glyph-name="uni0496" unicode="&#x496;" horiz-adv-x="1931" 
d="M1782 74h94v-361h-109v285q-23 -2 -71 -2q-112 0 -174.5 46.5t-89.5 156.5l-91 344q-22 87 -74.5 125.5t-148.5 38.5h-90q-43 0 -63 4l-2 -2q10 -38 10 -86v-623h-111v623q0 48 10 86l-2 2q-16 -4 -63 -4h-88q-97 0 -149.5 -38t-75.5 -126l-88 -344q-29 -110 -92 -156.5
t-175 -46.5q-30 0 -84 4v113q50 -4 72 -4q71 0 113 30.5t63 108.5l82 327q23 96 76 137t155 46v4q-106 5 -165.5 50t-92.5 153l-75 245q-21 65 -65.5 92t-121.5 27q-19 0 -55 -4v109q58 4 86 4q97 0 158.5 -39.5t93.5 -136.5l84 -261q34 -106 94 -149t162 -43h88q39 0 63 -6
l2 2q-10 42 -10 82v547h111v-547q0 -40 -10 -82l2 -2q30 6 63 6h90q102 0 161 42.5t93 149.5l86 261q31 97 92 136.5t158 39.5q32 0 86 -4v-109q-36 4 -55 4q-77 0 -120.5 -27t-64.5 -92l-77 -245q-33 -109 -91.5 -153.5t-166.5 -49.5v-4q103 -5 155.5 -46t77.5 -137
l82 -327q19 -78 61 -108.5t115 -30.5q22 0 72 4v-39z" />
    <glyph glyph-name="uni0497" unicode="&#x497;" horiz-adv-x="1433" 
d="M1317 59h74v-346h-101v283h-59q-77 0 -121.5 36t-65.5 107l-49 172q-20 71 -59.5 104.5t-104.5 33.5h-53q-43 0 -63 4l-2 -2q10 -31 10 -86v-365h-98v365q0 44 10 86l-2 2q-16 -4 -64 -4h-51q-65 0 -104.5 -33.5t-59.5 -104.5l-49 -172q-21 -72 -65 -107.5t-123 -35.5
h-84v94h65q46 0 73 24t42 76l51 179q20 65 66 93.5t127 31.5v4q-82 3 -130 33.5t-75 105.5l-51 135q-29 84 -109 84h-57v94h74q128 0 174 -112l63 -162q28 -75 66 -106t106 -31h51q48 0 64 -4l2 2q-10 42 -10 81v328h98v-328q0 -50 -10 -81l2 -2q20 4 63 4h53q68 0 106.5 31
t66.5 106l63 162q46 112 172 112h76v-94h-58q-42 0 -67 -20t-43 -64l-49 -135q-28 -75 -75.5 -105.5t-129.5 -33.5v-4q81 -3 126.5 -31.5t63.5 -93.5l54 -179q15 -52 41.5 -76t72.5 -24h66v-31z" />
    <glyph glyph-name="uni0498" unicode="&#x498;" horiz-adv-x="1191" 
d="M1075 385q0 -191 -115.5 -299t-347.5 -117l-20 -55q34 -8 58 -17t52 -25.5t43 -42.5t15 -60q0 -47 -40.5 -90t-75.5 -63t-121 -62q-9 -5 -13 -7l-23 47q92 50 133.5 83.5t41.5 70.5q0 35 -36.5 55.5t-117.5 36.5l47 129q-272 3 -473 119l55 107q200 -115 434 -115
q182 0 283.5 75t101.5 234q0 165 -113 243.5t-337 78.5h-201v102h199q190 0 293.5 74t103.5 215q0 117 -80.5 184.5t-240.5 67.5q-235 0 -428 -105l-48 105q212 110 482 110q219 0 327.5 -90.5t108.5 -259.5q0 -122 -63 -201.5t-179 -115.5q-79 -24 -164 -27v-6
q92 0 160 -12q140 -26 219.5 -116t79.5 -251z" />
    <glyph glyph-name="uni0499" unicode="&#x499;" horiz-adv-x="917" 
d="M834 250q0 -131 -93.5 -203t-271.5 -78l-20 -55q33 -8 57.5 -17t52 -25.5t42.5 -42.5t15 -60q0 -36 -17 -66t-59 -59.5t-70 -44.5t-91 -46l-12 -6l-23 47q92 50 133 83.5t41 70.5q0 36 -36 56t-117 36l47 129q-201 5 -371 92l47 95q168 -86 358 -86q281 0 281 190
q0 102 -68 147.5t-223 45.5h-117v96h113q246 0 246 172q0 156 -238 156q-163 0 -334 -76l-40 94q187 82 376 82q168 0 257 -60.5t89 -179.5q0 -103 -65 -161.5t-193 -67.5v-8q147 -6 225.5 -64.5t78.5 -185.5z" />
    <glyph glyph-name="uni049A" unicode="&#x49a;" horiz-adv-x="1304" 
d="M1182 74h69v-361h-110v283q-18 -2 -56 -2q-109 0 -171.5 46.5t-90.5 158.5l-84 331q-22 94 -76 134.5t-155 40.5h-170q-48 0 -64 4l-2 -2q11 -42 11 -86v-621h-113v1434h113v-551q0 -40 -11 -82l2 -2q12 6 64 6h170q104 0 161 44.5t93 160.5l82 250q55 180 254 180
q54 0 88 -6v-109q-36 4 -58 4q-76 0 -120.5 -27.5t-65.5 -91.5l-76 -245q-34 -114 -94 -158t-166 -47v-6q107 -5 163.5 -44.5t80.5 -142.5l78 -319q21 -81 62 -112.5t114 -31.5q16 0 78 5v-35z" />
    <glyph glyph-name="uni049B" unicode="&#x49b;" horiz-adv-x="1030" 
d="M913 59h74v-346h-98v283h-60q-80 0 -123 34.5t-65 108.5l-47 172q-20 71 -60 104.5t-106 33.5h-121q-43 0 -63 4l-2 -2q10 -42 10 -86v-365h-102v946h102v-328q0 -39 -10 -81l2 -2q20 4 63 4h121q68 0 106 30.5t68 106.5l64 162q42 112 172 112h75v-94h-57
q-77 0 -108 -84l-54 -135q-30 -81 -72 -108.5t-130 -30.5v-4q88 -3 129 -29.5t61 -95.5l53 -179q16 -52 41.5 -76t73.5 -24h63v-31z" />
    <glyph glyph-name="uni049C" unicode="&#x49c;" horiz-adv-x="1232" 
d="M866 965q-34 -114 -94 -158t-166 -47v-6q107 -5 163.5 -44.5t80.5 -142.5l78 -319q21 -81 62 -112.5t114 -31.5q16 0 78 5v-109q-50 -6 -97 -6q-109 0 -171.5 46.5t-90.5 158.5l-84 331q-22 94 -76 134.5t-155 40.5h-19v-318h-71v318h-80q-48 0 -64 4l-2 -2
q11 -42 11 -86v-621h-113v1434h113v-551q0 -40 -11 -82l2 -2q12 6 64 6h80v317h71v-317h19q104 0 161 44.5t93 160.5l82 250q55 180 254 180q54 0 88 -6v-109q-36 4 -58 4q-76 0 -120.5 -27.5t-65.5 -91.5z" />
    <glyph glyph-name="uni049D" unicode="&#x49d;" horiz-adv-x="948" 
d="M850 90h63v-94h-84q-80 0 -123 34.5t-65 108.5l-47 172q-20 71 -60 104.5t-106 33.5h-20v-265h-58v265h-43q-43 0 -63 4l-2 -2q10 -42 10 -86v-365h-102v946h102v-328q0 -39 -10 -81l2 -2q20 4 63 4h43v258h58v-258h20q68 0 106 30.5t68 106.5l64 162q42 112 172 112h75
v-94h-57q-77 0 -108 -84l-54 -135q-30 -81 -72 -108.5t-130 -30.5v-4q88 -3 129 -29.5t61 -95.5l53 -179q16 -52 41.5 -76t73.5 -24z" />
    <glyph glyph-name="uni049E" unicode="&#x49e;" horiz-adv-x="1359" 
d="M993 965q-34 -114 -93.5 -158t-166.5 -47v-4q108 -6 164 -46.5t80 -142.5l80 -319q19 -81 60 -112.5t114 -31.5q15 0 78 5v-109q-47 -6 -101 -6q-106 0 -169 47t-91 158l-82 331q-23 92 -77 132t-154 40h-170q-44 0 -64 5l-2 -2q11 -42 11 -87v-618h-113v1038q0 34 6 49
l-2 5q-16 -7 -53 -7h-228v101h228q39 0 53 -4l2 2q-6 18 -6 49v201h113v-201q0 -28 -7 -49l3 -2q12 4 53 4h268v-101h-268q-39 0 -53 7l-3 -5q7 -18 7 -49v-153q0 -38 -11 -80l2 -2q24 6 64 6h170q102 0 159 44t93 157l82 250q30 97 97 138.5t175 41.5q37 0 74 -6v-109
q-40 4 -58 4q-78 0 -122 -27.5t-64 -91.5z" />
    <glyph glyph-name="uni049F" unicode="&#x49f;" horiz-adv-x="991" 
d="M893 90h65v-94h-86q-80 0 -122.5 34.5t-63.5 108.5l-49 172q-20 71 -59.5 104.5t-106.5 33.5h-121q-43 0 -63 4l-2 -2q10 -31 10 -86v-365h-102v946v184q0 42 8 58l-2 2q-20 -10 -54 -10h-143v75h143q34 0 54 -10l2 2q-8 16 -8 58v159h102v-159q0 -42 -8 -58l2 -2
q20 10 55 10h332v-75h-332q-35 0 -55 10l-2 -2q8 -16 8 -58v-184v-328q0 -50 -10 -81l2 -2q20 4 63 4h121q68 0 106 30.5t68 106.5l64 162q42 112 172 112h75v-94h-57q-77 0 -108 -84l-52 -135q-31 -81 -73 -108.5t-131 -30.5v-4q88 -3 129 -29.5t61 -95.5l53 -179
q16 -52 41.5 -76t73.5 -24z" />
    <glyph glyph-name="uni04A0" unicode="&#x4a0;" horiz-adv-x="1472" 
d="M1106 965q-35 -114 -95 -158t-167 -47v-4q108 -6 164.5 -46.5t81.5 -142.5l77 -319q21 -81 62 -112.5t114 -31.5q19 0 76 5v-109q-47 -6 -96 -6q-109 0 -171 46.5t-89 158.5l-84 331q-23 91 -77.5 131.5t-153.5 40.5h-173q-43 0 -63 5l-2 -2q10 -29 10 -87v-618h-112
v1280q0 33 8 49l-4 2q-12 -4 -54 -4h-338v107h500v-549q0 -51 -10 -80l2 -2q30 6 63 6h173q102 0 158.5 44t92.5 157l82 250q31 99 98 139.5t175 40.5q36 0 71 -6v-109q-40 4 -57 4q-76 0 -121 -28t-65 -91z" />
    <glyph glyph-name="uni04A1" unicode="&#x4a1;" horiz-adv-x="1124" 
d="M1028 90h64v-94h-84q-80 0 -122.5 34t-64.5 109l-49 172q-20 69 -60 102t-106 33h-121q-43 0 -63 5l-2 -2q10 -42 10 -87v-362h-104v803q0 26 10 53l-2 2q-14 -8 -58 -8h-266v96h420v-325q0 -40 -10 -82l2 -2q16 4 63 4h121q68 0 107 31t67 104l64 162q43 112 172 112h76
v-94h-58q-77 0 -108 -84l-52 -135q-32 -81 -74 -108.5t-132 -30.5v-4q89 -3 130.5 -29.5t63.5 -95.5l53 -179q14 -52 39.5 -76t73.5 -24z" />
    <glyph glyph-name="uni04A2" unicode="&#x4a2;" horiz-adv-x="1378" 
d="M1255 74h70v-361h-111v287h-71v666q0 33 6 51l-4 2q-18 -6 -51 -6h-762q-35 0 -53 6l-3 -2q7 -21 7 -51v-666h-113v1434h113v-566q0 -32 -7 -49l3 -4q12 6 53 6h762q39 0 51 -6l4 4q-6 15 -6 49v566h112v-1360z" />
    <glyph glyph-name="uni04A3" unicode="&#x4a3;" horiz-adv-x="1079" 
d="M963 59h71v-346h-98v287h-78v412q0 37 10 57l-2 2q-20 -10 -55 -10h-512q-33 0 -53 10l-2 -2q8 -16 8 -57v-412h-102v946h102v-340q0 -41 -8 -57l2 -2q20 10 53 10h512q35 0 55 -10l2 2q-10 20 -10 57v340h105v-887z" />
    <glyph glyph-name="uni04A4" unicode="&#x4a4;" horiz-adv-x="1820" 
d="M1104 1434h696v-109h-534q-34 0 -52 6l-4 -2q7 -21 7 -51v-1278h-113v666q0 33 6 51l-2 2q-18 -6 -53 -6h-723q-35 0 -53 6l-3 -2q7 -21 7 -51v-666h-113v1434h113v-566q0 -32 -7 -49l3 -4q12 6 53 6h723q41 0 53 -6l2 4q-6 15 -6 49v566z" />
    <glyph glyph-name="uni04A5" unicode="&#x4a5;" horiz-adv-x="1353" 
d="M817 946h526v-96h-372q-42 0 -58 8l-2 -2q11 -22 11 -53v-803h-105v412q0 41 8 57l-2 2q-20 -10 -53 -10h-471q-33 0 -53 10l-2 -2q8 -16 8 -57v-412h-102v946h102v-340q0 -41 -8 -57l2 -2q20 10 53 10h471q33 0 53 -10l2 2q-8 16 -8 57v340z" />
    <glyph glyph-name="uni04A6" unicode="&#x4a6;" horiz-adv-x="2158" 
d="M1739 872q181 0 272.5 -86t91.5 -270v-149q0 -186 -84.5 -276.5t-279.5 -90.5h-162v106h154q147 -1 203.5 61t56.5 202v145q0 136 -67 193t-195 57q-111 0 -220 -18.5t-262 -61.5v-684h-112v1280q0 31 6 49l-2 2q-12 -4 -54 -4h-753q-41 0 -53 4l-3 -2q7 -21 7 -49v-1280
h-113v1434h1077v-582q0 -38 -6 -59l2 -2q251 81 496 81z" />
    <glyph glyph-name="uni04A7" unicode="&#x4a7;" horiz-adv-x="1601" 
d="M1260 578q145 0 218.5 -72.5t73.5 -229.5v-360q0 -326 -309 -326h-108v101h96q108 0 163.5 52.5t55.5 176.5v350q0 112 -52.5 159.5t-154.5 47.5q-131 0 -305 -71v-406h-104v643v160q0 33 10 53l-2 2q-14 -8 -58 -8h-483q-41 0 -57 8l-2 -2q10 -20 10 -53v-803h-102v946
h788v-371q0 -45 -10 -67l2 -2q172 72 330 72z" />
    <glyph glyph-name="uni04A8" unicode="&#x4a8;" horiz-adv-x="1568" 
d="M786 -31q-198 0 -352.5 95t-239.5 267.5t-85 395.5q0 333 188 535t500 202q138 0 243 -43l-43 -104q-112 35 -204 35q-252 0 -408 -175t-156 -458q0 -286 158 -465.5t410 -179.5q51 0 106.5 10t63.5 10v4q-23 3 -39 12t-41 33q-91 83 -141 214t-50 286q0 226 101 355.5
t276 129.5q171 0 269 -124t98 -340q0 -172 -62 -315.5t-174 -227.5q-25 -20 -61 -33v-4q16 0 56 -7t81 -7q112 0 215 61l47 -94q-122 -68 -248 -68q-77 0 -141.5 18.5t-83.5 45.5h-4q-46 -29 -121.5 -46.5t-157.5 -17.5zM1051 121h4q8 10 57 49q215 166 215 475
q0 173 -67.5 272t-186.5 99q-120 0 -190 -102t-70 -277q0 -145 50 -264t145 -201q28 -28 43 -51z" />
    <glyph glyph-name="uni04A9" unicode="&#x4a9;" horiz-adv-x="1134" 
d="M563 -31q-213 0 -346 129.5t-133 366.5q0 236 137 374t373 138q106 0 201 -31l-33 -94q-80 25 -166 25q-185 0 -293 -110t-108 -300q0 -177 94.5 -283t253.5 -114q28 -3 82 0v4q-38 13 -62 45q-90 100 -90 260q0 148 75 230.5t206 82.5q134 0 204 -81.5t70 -217.5
q0 -181 -129 -295q-28 -24 -59 -32v-5q15 0 38.5 -2t41.5 -2q77 2 161 45l37 -84q-103 -49 -209 -49q-113 0 -155 39h-4q-83 -39 -187 -39zM715 90h4q98 37 153.5 116.5t55.5 182.5q0 91 -43 149t-129 58q-81 0 -129.5 -54.5t-48.5 -166.5q0 -159 98 -240q5 -6 15.5 -15
t16 -16t7.5 -14z" />
    <glyph glyph-name="uni04AA" unicode="&#x4aa;" horiz-adv-x="1429" 
d="M1348 133q-218 -161 -490 -164l-20 -55q34 -8 58 -17t52 -25.5t43 -42.5t15 -60q0 -47 -40.5 -90t-75.5 -63t-121 -62q-9 -5 -13 -7l-23 47q92 50 133 83.5t41 70.5q0 36 -36 56t-117 36l47 131q-321 14 -517 219t-196 527q0 335 210 541t552 206q274 0 498 -164l-70 -96
q-105 77 -207 112.5t-223 35.5q-284 0 -461.5 -176.5t-177.5 -458.5t177.5 -458.5t461.5 -176.5q121 0 223 35t207 112z" />
    <glyph glyph-name="uni04AB" unicode="&#x4ab;" horiz-adv-x="983" 
d="M915 61q-146 -92 -319 -92l-21 -55q34 -8 58 -17t52 -25.5t43 -42.5t15 -60q0 -36 -17 -66t-59 -59.5t-70 -44.5t-91 -46l-12 -6l-23 47q92 50 133 83.5t41 70.5q0 36 -36 56t-117 36l49 131q-206 17 -331.5 154.5t-125.5 347.5q0 224 141.5 364t368.5 140q175 0 321 -92
l-51 -92q-134 81 -274 81q-172 0 -283.5 -113t-111.5 -288q0 -174 112 -287.5t283 -113.5q139 0 274 82z" />
    <glyph glyph-name="uni04AC" unicode="&#x4ac;" horiz-adv-x="1046" 
d="M629 1325q-36 0 -54 6l-2 -2q7 -21 7 -51v-1204h79v-361h-110v287h-82v1278q0 33 6 51l-2 2q-21 -6 -53 -6h-398v109h1006v-109h-397z" />
    <glyph glyph-name="uni04AD" unicode="&#x4ad;" horiz-adv-x="917" 
d="M559 850q-41 0 -57 8l-2 -2q10 -20 10 -53v-744h74v-346h-99v287h-77v803q0 33 10 53l-2 2q-16 -8 -58 -8h-348v96h897v-96h-348z" />
    <glyph glyph-name="uni04AE" unicode="&#x4ae;" horiz-adv-x="1110" 
d="M1083 1434l-473 -883v-551h-112v551l-471 883h139l311 -609q39 -75 52.5 -108t23.5 -82h4q10 48 23 81.5t51 108.5l311 609h141z" />
    <glyph glyph-name="uni04AF" unicode="&#x4af;" horiz-adv-x="956" 
d="M936 946l-397 -858v-498h-105v463l-414 893h127l254 -575q4 -10 18 -43t17 -40t12 -30.5t12 -34.5t8 -29.5t9 -37.5h4q2 12 4.5 23t4.5 19.5t5.5 20t5.5 18t7.5 20t7 18.5t8.5 21.5t9.5 21.5t11.5 25.5t12 27.5l252 575h127z" />
    <glyph glyph-name="uni04B0" unicode="&#x4b0;" horiz-adv-x="1110" 
d="M614 543q12 4 52 4h241v-101h-248q-37 0 -51 7l-4 -4q6 -15 6 -50v-399h-112v399q0 35 6 50l-2 4q-14 -7 -53 -7h-248v101h241q42 0 54 -4l2 2l-471 889h141l309 -609q55 -109 76 -190h4q19 79 74 190l311 609h141l-473 -889z" />
    <glyph glyph-name="uni04B1" unicode="&#x4b1;" horiz-adv-x="997" 
d="M547 57q18 9 53 9h256v-91h-258q-35 0 -53 9l-2 -2q8 -16 8 -56v-336h-105v336q0 38 9 56l-2 2q-18 -9 -54 -9h-258v91h256q36 0 54 -9h2l-412 889h127l254 -575q4 -10 18 -43t17 -40t12 -30.5t12 -34.5t8 -29.5t9 -37.5h4q2 12 4.5 23t4.5 19.5t5.5 20t5.5 18t7.5 20
t7 18.5t8.5 21.5t9.5 21.5t11.5 25.5t12 27.5l251 575h127l-411 -889h2z" />
    <glyph glyph-name="uni04B2" unicode="&#x4b2;" horiz-adv-x="1280" 
d="M1130 74h95v-361h-111v287h-76l-358 549q-60 98 -72 133h-8q-14 -44 -74 -133l-358 -549h-139l370 563q102 153 136 191v4q-21 26 -103 143l-352 533h141l291 -449q76 -116 88 -151h8q11 33 86 151l293 449h139l-352 -533q-65 -100 -100 -143v-4q14 -16 29 -36
t24.5 -34.5t37 -54.5t44.5 -66z" />
    <glyph glyph-name="uni04B3" unicode="&#x4b3;" horiz-adv-x="997" 
d="M874 59h78v-346h-98v287h-61l-258 334q-46 58 -62 104h-6q-16 -46 -59 -104l-261 -334h-127l330 432q39 50 53 62v6q-20 16 -59 67l-287 379h125l224 -289q43 -55 61 -108h6q15 44 62 108l223 289h125l-287 -379q-39 -51 -59 -67v-6q14 -12 53 -62z" />
    <glyph glyph-name="uni04B4" unicode="&#x4b4;" horiz-adv-x="1695" 
d="M1522 106h90v-393h-111v240q0 31 6 49l-2 2q-12 -4 -53 -4h-944v1280q0 31 6 49l-2 2q-12 -4 -53 -4h-439v107h1037v-107h-387q-42 0 -54 4l-2 -2q7 -21 7 -49v-1126q0 -29 -7 -50l2 -2q12 4 54 4h641q41 0 53 -4l2 2q-6 18 -6 50v1280h113v-1280q0 -29 -7 -50l2 -2
q12 4 54 4z" />
    <glyph glyph-name="uni04B5" unicode="&#x4b5;" horiz-adv-x="1241" 
d="M1128 96h50v-383h-101v240q0 33 10 53l-2 2q-16 -8 -57 -8h-676v803q0 33 10 53l-2 2q-16 -8 -57 -8h-293v96h754v-96h-260q-42 0 -58 8l-2 -2q11 -22 11 -53v-660q0 -31 -11 -53l2 -2q16 8 58 8h424q41 0 57 -8l2 2q-10 20 -10 53v803h102v-803q0 -33 -10 -53l2 -2
q16 8 57 8z" />
    <glyph glyph-name="uni04B6" unicode="&#x4b6;" horiz-adv-x="1157" 
d="M1024 74h80v-361h-111v287h-82v610q0 36 7 60l-3 2q-246 -82 -481 -82q-189 0 -285 100t-96 314v430h113v-430q0 -163 71.5 -232.5t206.5 -69.5q105 0 210 18.5t257 61.5v652h113v-1360z" />
    <glyph glyph-name="uni04B7" unicode="&#x4b7;" horiz-adv-x="886" 
d="M768 59h76v-346h-99v287h-79v369q0 51 8 69l-2 2q-170 -71 -326 -71q-157 0 -237 72t-80 229v276h102v-270q0 -113 58.5 -160t172.5 -47q127 0 304 72v405h102v-635v-252z" />
    <glyph glyph-name="uni04B8" unicode="&#x4b8;" horiz-adv-x="1191" 
d="M911 1434h113v-1434h-113v610q0 36 7 60l-3 2q-164 -55 -340 -74v-266h-69v260q-25 -2 -72 -2q-189 0 -285 100t-96 314v430h113v-430q0 -163 71.5 -232.5t206.5 -69.5q32 0 62 3v364h69v-358q123 13 336 71v652z" />
    <glyph glyph-name="uni04B9" unicode="&#x4b9;" horiz-adv-x="907" 
d="M666 946h102v-635v-311h-102v369q0 51 8 69l-2 2q-128 -53 -244 -67v-187h-59v183h-23q-157 0 -237 72t-80 229v276h102v-270q0 -113 58.5 -160t172.5 -47h7v238h59v-234q103 12 238 68v405z" />
    <glyph glyph-name="uni04BA" unicode="&#x4ba;" horiz-adv-x="1191" 
d="M283 1434v-611q0 -38 -9 -59l2 -2q250 82 482 82q189 0 285 -100t96 -314v-430h-113v430q0 163 -71.5 232t-206.5 69q-105 0 -208.5 -18.5t-256.5 -61.5v-651h-113v1434h113z" />
    <glyph glyph-name="uni04BB" unicode="&#x4bb;" horiz-adv-x="1130" 
d="M260 1464v-561q0 -160 -16 -248l8 -4q83 326 381 326q173 0 266.5 -104.5t93.5 -299.5v-573h-104v561q0 149 -72.5 232.5t-202.5 83.5q-166 0 -260 -120.5t-94 -332.5v-424h-104v1464h104z" />
    <glyph glyph-name="uni04BC" unicode="&#x4bc;" horiz-adv-x="1845" 
d="M1069 -31q-298 0 -496.5 172.5t-236.5 460.5q-4 35 0 62l-2 2q-27 -11 -72 -11q-113 0 -173 62.5t-60 183.5q0 69 18 137h113q-24 -77 -21 -139q2 -72 35.5 -104.5t116.5 -32.5q33 0 45 -4l2 2q-7 36 0 78q33 280 227.5 453t495.5 173q217 0 375.5 -94.5t239.5 -262.5
t81 -390v-62h-1241q-38 0 -70 11l-2 -4q7 -17 15 -58q29 -237 194.5 -379.5t415.5 -142.5q158 0 287.5 58.5t222.5 156.5l76 -92q-108 -108 -256.5 -172t-329.5 -64zM449 756q27 8 69 8h1030q74 0 94 -8l5 4q-13 36 -17 69q-28 242 -176.5 382.5t-394.5 140.5
q-250 0 -407.5 -140.5t-190.5 -373.5q-14 -68 -17 -78z" />
    <glyph glyph-name="uni04BD" unicode="&#x4bd;" horiz-adv-x="1277" 
d="M745 -31q-216 0 -347.5 129t-137.5 340q0 21 2 29l-2 2q-24 -8 -65 -8q-185 0 -185 207q0 45 17 108h90q-17 -60 -17 -104q0 -66 21 -94.5t80 -28.5q44 0 63 -8l2 2q-3 12 2 30q29 188 154.5 296t310.5 108q118 0 208 -39.5t143.5 -108.5t80.5 -156t27 -188v-24h-741
q-61 0 -86 10l-3 -2l5 -18q3 -176 106 -278.5t272 -102.5q67 0 122 14.5t98 44.5t71.5 58t63.5 71l74 -68q-33 -44 -68.5 -78t-87.5 -69t-121.5 -54.5t-151.5 -19.5zM369 535q28 14 84 14h536q60 0 90 -12l4 2q-14 160 -103 250t-247 90q-150 0 -250.5 -90t-115.5 -252z" />
    <glyph glyph-name="uni04BE" unicode="&#x4be;" horiz-adv-x="1845" 
d="M516 655q-38 0 -70 11l-2 -4q7 -17 15 -58q29 -237 194.5 -379.5t415.5 -142.5q158 0 287.5 58.5t222.5 156.5l76 -92q-128 -125 -289 -185q-113 -80 -167 -139.5t-54 -109.5q0 -72 102 -72q47 0 101 14l10 -75q-61 -21 -125 -21q-75 0 -126.5 35t-51.5 102
q0 106 145 223q-82 -8 -131 -8q-298 0 -496.5 172.5t-236.5 460.5q-4 35 0 62l-2 2q-27 -11 -72 -11q-113 0 -173 62.5t-60 183.5q0 69 18 137h113q-24 -77 -21 -139q2 -72 35.5 -104.5t116.5 -32.5q33 0 45 -4l2 2q-7 36 0 78q33 280 227.5 453t495.5 173
q217 0 375.5 -94.5t239.5 -262.5t81 -390v-62h-1241zM444 760l5 -4q27 8 69 8h1030q74 0 94 -8l5 4q-13 36 -17 69q-28 242 -176.5 382.5t-394.5 140.5q-250 0 -407.5 -140.5t-190.5 -373.5q-14 -68 -17 -78z" />
    <glyph glyph-name="uni04BF" unicode="&#x4bf;" horiz-adv-x="1277" 
d="M451 461q-61 0 -86 10l-3 -2l5 -18q3 -176 106 -278.5t272 -102.5q67 0 122 14.5t98 44.5t71.5 58t63.5 71l74 -68q-89 -117 -195 -170q-113 -80 -167 -139.5t-54 -109.5q0 -72 102 -72q47 0 101 14l10 -75q-61 -21 -125 -21q-75 0 -126.5 35t-51.5 102q0 104 137 217
q-18 -2 -60 -2q-216 0 -347.5 129t-137.5 340q0 21 2 29l-2 2q-24 -8 -65 -8q-185 0 -185 207q0 45 17 108h90q-17 -60 -17 -104q0 -66 21 -94.5t80 -28.5q44 0 63 -8l2 2q-3 12 2 30q29 188 154.5 296t310.5 108q118 0 208 -39.5t143.5 -108.5t80.5 -156t27 -188v-24h-741z
M733 879q-150 0 -250.5 -90t-115.5 -252l2 -2q28 14 84 14h536q60 0 90 -12l4 2q-14 160 -103 250t-247 90z" />
    <glyph glyph-name="uni04C0" unicode="&#x4c0;" horiz-adv-x="450" 
d="M283 1434v-1434h-113v1434h113z" />
    <glyph glyph-name="uni04C1" unicode="&#x4c1;" horiz-adv-x="1835" 
d="M1198 1767q0 -127 -76.5 -198.5t-201.5 -71.5q-126 0 -202.5 71.5t-76.5 198.5h86q1 -90 52 -140t141 -50q89 0 140 49.5t52 140.5h86zM139 -4q-30 0 -84 4v113q50 -4 72 -4q71 0 113 30.5t63 108.5l82 327q23 96 76 137t155 46v4q-106 5 -165.5 50t-92.5 153l-75 245
q-21 65 -65.5 92t-121.5 27q-19 0 -55 -4v109q58 4 86 4q97 0 158.5 -39.5t93.5 -136.5l84 -261q34 -106 94 -149t162 -43h88q39 0 63 -6l2 2q-10 42 -10 82v547h111v-547q0 -40 -10 -82l2 -2q30 6 63 6h90q102 0 161 42.5t93 149.5l86 261q31 97 92 136.5t158 39.5
q32 0 86 -4v-109q-36 4 -55 4q-77 0 -120.5 -27t-64.5 -92l-77 -245q-33 -109 -91.5 -153.5t-166.5 -49.5v-4q103 -5 155.5 -46t77.5 -137l82 -327q19 -78 61 -108.5t115 -30.5q22 0 72 4v-113q-58 -4 -86 -4q-112 0 -174.5 46.5t-89.5 156.5l-91 344q-22 87 -74.5 125.5
t-148.5 38.5h-90q-43 0 -63 4l-2 -2q10 -38 10 -86v-623h-111v623q0 48 10 86l-2 2q-16 -4 -63 -4h-88q-97 0 -149.5 -38t-75.5 -126l-88 -344q-29 -110 -92 -156.5t-175 -46.5z" />
    <glyph glyph-name="uni04C2" unicode="&#x4c2;" horiz-adv-x="1349" 
d="M954 1333q0 -135 -77 -212t-203 -77q-124 0 -201.5 77t-77.5 212h86q3 -98 54 -151.5t139 -53.5q89 0 140 53.5t54 151.5h86zM33 -4v94h65q46 0 73 24t42 76l51 179q20 65 66 93.5t127 31.5v4q-82 3 -130 33.5t-75 105.5l-51 135q-29 84 -109 84h-57v94h74
q128 0 174 -112l63 -162q28 -75 66 -106t106 -31h51q48 0 64 -4l2 2q-10 42 -10 81v328h98v-328q0 -50 -10 -81l2 -2q20 4 63 4h53q68 0 106.5 31t66.5 106l63 162q46 112 172 112h76v-94h-58q-42 0 -67 -20t-43 -64l-49 -135q-28 -75 -75.5 -105.5t-129.5 -33.5v-4
q81 -3 126.5 -31.5t63.5 -93.5l54 -179q15 -52 41.5 -76t72.5 -24h66v-94h-86q-77 0 -121.5 36t-65.5 107l-49 172q-20 71 -59.5 104.5t-104.5 33.5h-53q-43 0 -63 4l-2 -2q10 -31 10 -86v-365h-98v365q0 44 10 86l-2 2q-16 -4 -64 -4h-51q-65 0 -104.5 -33.5t-59.5 -104.5
l-49 -172q-21 -72 -65 -107.5t-123 -35.5h-84z" />
    <glyph glyph-name="uni04C3" unicode="&#x4c3;" horiz-adv-x="1220" 
d="M834 965q-29 -95 -88.5 -143.5t-174.5 -63.5v-4q289 -3 422 -94t133 -318v-354q0 -398 -374 -398h-111v107h109q143 0 203.5 74t60.5 219v352q0 67 -18 120t-48 90.5t-79 65t-101.5 43.5t-126.5 26t-143 13.5t-160 4.5q-48 0 -64 4l-2 -2q11 -42 11 -86v-621h-113v1434
h113v-557q0 -40 -11 -82l2 -2q12 6 64 6h139q101 0 157.5 46t92.5 165l82 250q30 95 95 137.5t167 42.5q49 0 84 -6v-109q-40 4 -59 4q-76 0 -120.5 -28t-64.5 -91z" />
    <glyph glyph-name="uni04C4" unicode="&#x4c4;" horiz-adv-x="942" 
d="M692 637q-31 -81 -74 -107t-133 -28v-6q196 0 292.5 -71.5t96.5 -252.5v-256q0 -326 -309 -326h-108v101h96q107 0 163 53t56 176v256q0 270 -330 270l-135 3q-43 0 -63 4l-2 -2q10 -42 10 -86v-365h-102v946h102v-328q0 -39 -10 -81l2 -2q20 4 63 4h117q68 0 106 31
t68 106l64 162q46 112 172 112h75v-94h-57q-80 0 -109 -84z" />
    <glyph glyph-name="uni04C5" unicode="&#x4c5;" horiz-adv-x="1486" 
d="M1317 123h96l-129 -410h-98l86 287h-68v1280q0 31 6 49l-4 2q-12 -4 -51 -4h-692q-39 0 -51 4l-4 -2q6 -18 6 -49v-989q0 -154 -62.5 -227.5t-197.5 -73.5q-13 0 -103 4v110q41 -4 94 -4q79 0 117.5 43.5t38.5 143.5v1147h1016v-1311z" />
    <glyph glyph-name="uni04C6" unicode="&#x4c6;" horiz-adv-x="1079" 
d="M934 123h96l-129 -410h-98l86 287h-60v803q0 31 11 53l-2 2q-14 -8 -58 -8h-391q-41 0 -57 8l-2 -2q10 -20 10 -53v-559q0 -125 -57.5 -186.5t-165.5 -61.5h-88v96h86q62 0 92.5 36.5t30.5 117.5v700h696v-823z" />
    <glyph glyph-name="uni04C7" unicode="&#x4c7;" horiz-adv-x="1423" 
d="M1143 1434h112v-1434h-2v-121q0 -148 -78.5 -218.5t-216.5 -70.5h-110v109h113q180 0 180 180v283l2 -2v506q0 33 6 51l-4 2q-18 -6 -51 -6h-762q-35 0 -53 6l-3 -2q7 -21 7 -51v-666h-113v1434h113v-566q0 -32 -7 -49l3 -4q12 6 53 6h762q39 0 51 -6l4 4q-6 15 -6 49
v566z" />
    <glyph glyph-name="uni04C8" unicode="&#x4c8;" horiz-adv-x="1112" 
d="M963 -123q0 -139 -68 -213t-193 -74h-106v101h111q73 0 112 47.5t39 138.5v123v412q0 37 10 57l-2 2q-20 -10 -55 -10h-512q-33 0 -53 10l-2 -2q8 -16 8 -57v-412h-102v946h102v-340q0 -41 -8 -57l2 -2q20 10 53 10h512q35 0 55 -10l2 2q-10 20 -10 57v340h105v-1069z
" />
    <glyph glyph-name="uni04C9" unicode="&#x4c9;" horiz-adv-x="1425" 
d="M1255 123h97l-129 -410h-99l86 287h-67v666q0 33 6 51l-4 2q-18 -6 -51 -6h-762q-35 0 -53 6l-3 -2q7 -21 7 -51v-666h-113v1434h113v-566q0 -32 -7 -49l3 -4q12 6 53 6h762q39 0 51 -6l4 4q-6 15 -6 49v566h112v-1311z" />
    <glyph glyph-name="uni04CA" unicode="&#x4ca;" horiz-adv-x="1118" 
d="M963 123h98l-129 -410h-98l86 287h-62v412q0 37 10 57l-2 2q-20 -10 -55 -10h-512q-33 0 -53 10l-2 -2q8 -16 8 -57v-412h-102v946h102v-340q0 -41 -8 -57l2 -2q20 10 53 10h512q35 0 55 -10l2 2q-10 20 -10 57v340h105v-823z" />
    <glyph glyph-name="uni04CB" unicode="&#x4cb;" horiz-adv-x="1191" 
d="M1024 1434v-1434h-98v-287h-111v361h96v536q0 36 7 60l-3 2q-246 -82 -481 -82q-189 0 -285 100t-96 314v430h113v-430q0 -163 71.5 -232.5t206.5 -69.5q105 0 210 18.5t257 61.5v652h113z" />
    <glyph glyph-name="uni04CC" unicode="&#x4cc;" horiz-adv-x="915" 
d="M666 946h102v-635v-311h-76v-287h-98v346h72v310q0 51 8 69l-2 2q-170 -71 -326 -71q-157 0 -237 72t-80 229v276h102v-270q0 -113 58.5 -160t172.5 -47q127 0 304 72v405z" />
    <glyph glyph-name="uni04CD" unicode="&#x4cd;" horiz-adv-x="1798" 
d="M1688 123h100l-129 -410h-98l86 287h-45l-246 938q-36 131 -39 233h-8q-12 -91 -62 -231l-364 -967h-11l-362 967q-51 138 -64 231h-8q-3 -102 -39 -233l-245 -938h-117l383 1462h14l391 -1046q29 -79 49 -193h9q16 108 47 193l391 1046h14z" />
    <glyph glyph-name="uni04CE" unicode="&#x4ce;" horiz-adv-x="1351" 
d="M1251 123h90l-129 -410h-98l86 287h-22l-172 537q-38 122 -41 200h-7q-26 -108 -63 -198l-229 -555h-21l-229 555q-39 96 -64 198h-6q-3 -78 -41 -200l-172 -537h-113l314 965h18l250 -617q40 -106 51 -170h4q10 59 52 170l249 617h19z" />
    <glyph glyph-name="uni04CF" unicode="&#x4cf;" horiz-adv-x="417" 
d="M260 946v-946h-104v946h104z" />
    <glyph glyph-name="uni04D0" unicode="&#x4d0;" horiz-adv-x="1353" 
d="M954 1767q0 -127 -76.5 -198.5t-201.5 -71.5q-126 0 -202.5 71.5t-76.5 198.5h86q1 -90 52 -140t141 -50q89 0 140 49.5t52 140.5h86zM29 0l641 1464h14l641 -1464h-125l-199 461h-649l-198 -461h-125zM383 557q36 4 115 4h356q79 0 115 -4l2 2q-31 45 -62 119l-174 412
q-50 123 -55 176h-8q-6 -56 -54 -176l-174 -412q-32 -77 -61 -119v-2z" />
    <glyph glyph-name="uni04D1" unicode="&#x4d1;" horiz-adv-x="1038" 
d="M803 1333q0 -135 -77.5 -212t-203.5 -77q-124 0 -201 77t-77 212h86q3 -98 53.5 -151.5t138.5 -53.5q90 0 141 53.5t54 151.5h86zM520 977q195 0 287 -90t92 -279v-608h-102q0 80 12 186l-4 2q-46 -102 -144 -160.5t-223 -58.5q-165 0 -266.5 93.5t-101.5 244.5
q0 154 101 245t271 91q124 0 222 -57t139 -152l6 4q-7 25 -8.5 50t-1.5 114q-1 139 -70.5 205.5t-210.5 66.5q-140 0 -317 -57l-31 103q196 57 350 57zM461 547q-126 0 -202.5 -67t-76.5 -177q0 -107 76.5 -172t202.5 -65q134 0 225.5 69t91.5 170t-92 171.5t-225 70.5z" />
    <glyph glyph-name="uni04D2" unicode="&#x4d2;" horiz-adv-x="1353" 
d="M453 1747h120v-225h-120v225zM780 1747h121v-225h-121v225zM29 0l641 1464h14l641 -1464h-125l-199 461h-649l-198 -461h-125zM383 557q36 4 115 4h356q79 0 115 -4l2 2q-31 45 -62 119l-174 412q-50 123 -55 176h-8q-6 -56 -54 -176l-174 -412q-32 -77 -61 -119v-2z" />
    <glyph glyph-name="uni04D3" unicode="&#x4d3;" horiz-adv-x="1038" 
d="M449 1315v-246h-119v246h119zM719 1315v-246h-119v246h119zM520 977q195 0 287 -90t92 -279v-608h-102q0 80 12 186l-4 2q-46 -102 -144 -160.5t-223 -58.5q-165 0 -266.5 93.5t-101.5 244.5q0 154 101 245t271 91q124 0 222 -57t139 -152l6 4q-7 25 -8.5 50t-1.5 114
q-1 139 -70.5 205.5t-210.5 66.5q-140 0 -317 -57l-31 103q196 57 350 57zM461 547q-126 0 -202.5 -67t-76.5 -177q0 -107 76.5 -172t202.5 -65q134 0 225.5 69t91.5 170t-92 171.5t-225 70.5z" />
    <glyph glyph-name="uni04D4" unicode="&#x4d4;" horiz-adv-x="1851" 
d="M1194 106h573v-106h-725v414q0 30 7 51l-5 2q-18 -6 -51 -6h-520l-313 -461h-131l970 1434h760v-107h-565q-39 0 -51 4l-4 -2q6 -18 6 -51v-387q0 -31 -6 -49l4 -2q12 4 51 4h510v-107h-510q-39 0 -51 6l-4 -4q6 -15 6 -49v-534q0 -34 -6 -52l4 -2q12 4 51 4zM1049 559
q-7 17 -7 49v617q0 49 7 121h-5q-23 -58 -61 -115l-399 -602q-32 -51 -72 -74l2 -4q35 10 113 10h366q39 0 51 -6z" />
    <glyph glyph-name="uni04D5" unicode="&#x4d5;" horiz-adv-x="1812" 
d="M446 -31q-167 0 -271.5 91.5t-104.5 246.5q0 154 100 245t268 91q123 0 222.5 -54t140.5 -155l6 4q-7 37 -10 166q-1 141 -71.5 205.5t-207.5 64.5q-138 0 -319 -57l-29 103q184 57 346 57q332 0 348 -279h4q34 126 142.5 202.5t263.5 76.5q115 0 204 -39.5t143 -108.5
t81 -156t27 -188v-24h-744q-60 0 -84 8l-2 -4l2 -10q9 -178 111.5 -281.5t273.5 -103.5q65 0 118.5 14.5t96 44.5t70.5 58t63 71l74 -68q-164 -221 -422 -221q-183 0 -295.5 93t-140.5 237h-6q-13 -150 -122.5 -240t-275.5 -90zM905 535q28 14 82 14h537q54 0 92 -12l2 2
q-14 160 -102.5 250t-245.5 90q-152 0 -253 -90t-116 -252zM461 66q131 0 224 68t93 171q0 104 -93.5 173t-223.5 69t-204.5 -69t-74.5 -173q0 -106 74.5 -172.5t204.5 -66.5z" />
    <glyph glyph-name="uni04D6" unicode="&#x4d6;" horiz-adv-x="1046" 
d="M872 1767q0 -127 -76.5 -198.5t-201.5 -71.5q-126 0 -202.5 71.5t-76.5 198.5h86q1 -90 52 -140t141 -50q89 0 140 49.5t52 140.5h86zM956 1434v-107h-624q-41 0 -53 4l-3 -2q7 -21 7 -49v-389q0 -28 -7 -49l3 -2q12 4 53 4h559v-107h-559q-35 0 -53 6l-3 -2q7 -21 7 -51
v-536q0 -29 -7 -50l3 -2q12 4 53 4h633v-106h-795v1434h786z" />
    <glyph glyph-name="uni04D7" unicode="&#x4d7;" horiz-adv-x="1103" 
d="M854 1333q0 -135 -77.5 -212t-203.5 -77q-124 0 -201 77t-77 212h86q3 -98 53.5 -151.5t138.5 -53.5q90 0 141 53.5t54 151.5h86zM567 977q207 0 329 -133t122 -359v-24h-742q-66 0 -86 10l-2 -2l5 -18q3 -175 106.5 -278t275.5 -103q108 0 190.5 44t160.5 144l73 -68
q-162 -221 -426 -221q-223 0 -356 138t-133 368q0 229 131.5 365.5t351.5 136.5zM565 879q-159 0 -258.5 -91.5t-113.5 -250.5l2 -2q25 14 84 14h534q55 0 92 -12l2 2q-12 162 -101.5 251t-240.5 89z" />
    <glyph glyph-name="uni04D8" unicode="&#x4d8;" horiz-adv-x="1603" 
d="M784 1464q161 0 295 -50t231.5 -143t151.5 -234t54 -316q0 -164 -45 -300t-132 -237.5t-224 -158t-312 -56.5q-339 0 -527 202t-188 546v61h1243q36 0 70 -10l2 4q-11 31 -14 57q-18 230 -183 376.5t-426 146.5q-308 0 -524 -205l-74 92q112 104 265.5 164.5t336.5 60.5z
M1401 678q-25 -6 -70 -6h-1038q-76 0 -94 8l-4 -4q13 -35 16 -70q29 -244 180.5 -384t413.5 -140q110 0 201 27t155.5 74t112 113t75 141t40.5 161q5 38 16 78z" />
    <glyph glyph-name="uni04D9" unicode="&#x4d9;" horiz-adv-x="1103" 
d="M537 -31q-207 0 -329 133t-122 359v24h741q66 0 86 -10l2 2l-4 19q-3 175 -107 278t-276 103q-107 0 -189.5 -44.5t-160.5 -144.5l-74 68q162 221 426 221q223 0 356.5 -138t133.5 -368q0 -229 -131.5 -365.5t-351.5 -136.5zM539 68q159 0 258.5 91.5t113.5 250.5l-2 2
q-27 -15 -84 -15h-534q-51 0 -92 13l-2 -2q12 -162 101.5 -251t240.5 -89z" />
    <glyph glyph-name="uni04DA" unicode="&#x4da;" horiz-adv-x="1603" 
d="M565 1747h121v-225h-121v225zM893 1747h121v-225h-121v225zM784 1464q161 0 295 -50t231.5 -143t151.5 -234t54 -316q0 -164 -45 -300t-132 -237.5t-224 -158t-312 -56.5q-339 0 -527 202t-188 546v61h1243q36 0 70 -10l2 4q-11 31 -14 57q-18 230 -183 376.5t-426 146.5
q-308 0 -524 -205l-74 92q112 104 265.5 164.5t336.5 60.5zM1401 678q-25 -6 -70 -6h-1038q-76 0 -94 8l-4 -4q13 -35 16 -70q29 -244 180.5 -384t413.5 -140q110 0 201 27t155.5 74t112 113t75 141t40.5 161q5 38 16 78z" />
    <glyph glyph-name="uni04DB" unicode="&#x4db;" horiz-adv-x="1103" 
d="M457 1315v-246h-119v246h119zM727 1315v-246h-119v246h119zM537 -31q-207 0 -329 133t-122 359v24h741q66 0 86 -10l2 2l-4 19q-3 175 -107 278t-276 103q-107 0 -189.5 -44.5t-160.5 -144.5l-74 68q162 221 426 221q223 0 356.5 -138t133.5 -368q0 -229 -131.5 -365.5
t-351.5 -136.5zM539 68q159 0 258.5 91.5t113.5 250.5l-2 2q-27 -15 -84 -15h-534q-51 0 -92 13l-2 -2q12 -162 101.5 -251t240.5 -89z" />
    <glyph glyph-name="uni04DC" unicode="&#x4dc;" horiz-adv-x="1835" 
d="M694 1747h121v-225h-121v225zM1022 1747h121v-225h-121v225zM139 -4q-30 0 -84 4v113q50 -4 72 -4q71 0 113 30.5t63 108.5l82 327q23 96 76 137t155 46v4q-106 5 -165.5 50t-92.5 153l-75 245q-21 65 -65.5 92t-121.5 27q-19 0 -55 -4v109q58 4 86 4q97 0 158.5 -39.5
t93.5 -136.5l84 -261q34 -106 94 -149t162 -43h88q39 0 63 -6l2 2q-10 42 -10 82v547h111v-547q0 -40 -10 -82l2 -2q30 6 63 6h90q102 0 161 42.5t93 149.5l86 261q31 97 92 136.5t158 39.5q32 0 86 -4v-109q-36 4 -55 4q-77 0 -120.5 -27t-64.5 -92l-77 -245
q-33 -109 -91.5 -153.5t-166.5 -49.5v-4q103 -5 155.5 -46t77.5 -137l82 -327q19 -78 61 -108.5t115 -30.5q22 0 72 4v-113q-58 -4 -86 -4q-112 0 -174.5 46.5t-89.5 156.5l-91 344q-22 87 -74.5 125.5t-148.5 38.5h-90q-43 0 -63 4l-2 -2q10 -38 10 -86v-623h-111v623
q0 48 10 86l-2 2q-16 -4 -63 -4h-88q-97 0 -149.5 -38t-75.5 -126l-88 -344q-29 -110 -92 -156.5t-175 -46.5z" />
    <glyph glyph-name="uni04DD" unicode="&#x4dd;" horiz-adv-x="1349" 
d="M598 1315v-246h-119v246h119zM868 1315v-246h-118v246h118zM33 -4v94h65q46 0 73 24t42 76l51 179q20 65 66 93.5t127 31.5v4q-82 3 -130 33.5t-75 105.5l-51 135q-29 84 -109 84h-57v94h74q128 0 174 -112l63 -162q28 -75 66 -106t106 -31h51q48 0 64 -4l2 2
q-10 42 -10 81v328h98v-328q0 -50 -10 -81l2 -2q20 4 63 4h53q68 0 106.5 31t66.5 106l63 162q46 112 172 112h76v-94h-58q-42 0 -67 -20t-43 -64l-49 -135q-28 -75 -75.5 -105.5t-129.5 -33.5v-4q81 -3 126.5 -31.5t63.5 -93.5l54 -179q15 -52 41.5 -76t72.5 -24h66v-94
h-86q-77 0 -121.5 36t-65.5 107l-49 172q-20 71 -59.5 104.5t-104.5 33.5h-53q-43 0 -63 4l-2 -2q10 -31 10 -86v-365h-98v365q0 44 10 86l-2 2q-16 -4 -64 -4h-51q-65 0 -104.5 -33.5t-59.5 -104.5l-49 -172q-21 -72 -65 -107.5t-123 -35.5h-84z" />
    <glyph glyph-name="uni04DE" unicode="&#x4de;" horiz-adv-x="1191" 
d="M365 1747h120v-225h-120v225zM692 1747h121v-225h-121v225zM571 -31q-282 0 -489 119l55 107q200 -115 434 -115q182 0 283.5 75t101.5 234q0 165 -113 243.5t-337 78.5h-201v102h199q190 0 293.5 74t103.5 215q0 117 -80.5 184.5t-240.5 67.5q-235 0 -428 -105l-48 105
q212 110 482 110q219 0 327.5 -90.5t108.5 -259.5q0 -122 -63 -201.5t-179 -115.5q-79 -24 -164 -27v-6q92 0 160 -12q140 -26 219.5 -116t79.5 -251q0 -200 -125.5 -308t-378.5 -108z" />
    <glyph glyph-name="uni04DF" unicode="&#x4df;" horiz-adv-x="917" 
d="M362 1315v-246h-118v246h118zM633 1315v-246h-119v246h119zM434 -31q-209 0 -393 92l47 95q168 -86 358 -86q281 0 281 190q0 102 -68 147.5t-223 45.5h-117v96h113q246 0 246 172q0 156 -238 156q-163 0 -334 -76l-40 94q187 82 376 82q168 0 257 -60.5t89 -179.5
q0 -103 -65 -161.5t-193 -67.5v-8q147 -6 225.5 -64.5t78.5 -185.5q0 -137 -102.5 -209t-297.5 -72z" />
    <glyph glyph-name="uni04E0" unicode="&#x4e0;" horiz-adv-x="1157" 
d="M537 -31q-281 0 -494 150l55 106q186 -145 437 -145q187 0 287 84.5t100 249.5q0 90 -30.5 152t-93.5 97.5t-149 50.5t-207 15h-123v100l515 508l-3 4q-60 -16 -124 -16h-570v109h844v-105l-539 -514l4 -6q47 16 113 16q108 0 194 -24t151 -73t100.5 -130t35.5 -188
q0 -203 -123 -322t-380 -119z" />
    <glyph glyph-name="uni04E1" unicode="&#x4e1;" horiz-adv-x="897" 
d="M406 -440q-130 0 -252 35t-217 92l49 98q210 -125 422 -125q171 0 265.5 81.5t94.5 231.5q0 160 -105 234t-290 74h-180v96l483 483l-2 4q-51 -16 -125 -16h-518v98h766v-104l-494 -484l4 -4q55 15 111 15q101 0 182.5 -22.5t144.5 -69t97.5 -124.5t34.5 -182
q0 -190 -121.5 -300.5t-349.5 -110.5z" />
    <glyph glyph-name="uni04E2" unicode="&#x4e2;" horiz-adv-x="1443" 
d="M463 1671h565v-86h-565v86zM1260 1454h14v-1454h-113v958q0 146 17 256l-4 3q-22 -50 -113 -162l-877 -1075h-14v1454h113v-957q0 -145 -17 -258l4 -2q24 55 113 164z" />
    <glyph glyph-name="uni04E3" unicode="&#x4e3;" horiz-adv-x="1105" 
d="M852 1356v-88h-563v88h563zM150 -18v964h102v-522q0 -142 -10 -244l6 -2q30 64 106 150l580 637h22v-965h-102v522q0 142 10 244l-6 2q-30 -64 -106 -150l-580 -636h-22z" />
    <glyph glyph-name="uni04E4" unicode="&#x4e4;" horiz-adv-x="1443" 
d="M522 1747h121v-225h-121v225zM850 1747h121v-225h-121v225zM1260 1454h14v-1454h-113v958q0 146 17 256l-4 3q-22 -50 -113 -162l-877 -1075h-14v1454h113v-957q0 -145 -17 -258l4 -2q24 55 113 164z" />
    <glyph glyph-name="uni04E5" unicode="&#x4e5;" horiz-adv-x="1105" 
d="M496 1315v-246h-119v246h119zM766 1315v-246h-119v246h119zM150 -18v964h102v-522q0 -142 -10 -244l6 -2q30 64 106 150l580 637h22v-965h-102v522q0 142 10 244l-6 2q-30 -64 -106 -150l-580 -636h-22z" />
    <glyph glyph-name="uni04E6" unicode="&#x4e6;" horiz-adv-x="1669" 
d="M610 1747h121v-225h-121v225zM938 1747h121v-225h-121v225zM836 1464q160 0 299 -56t237.5 -154.5t154.5 -237.5t56 -299q0 -214 -95.5 -385t-266.5 -267t-385 -96t-385 96t-267 267t-96 385t96 385t267 266.5t385 95.5zM836 1352q-275 0 -451 -178.5t-176 -456.5
t176 -456.5t451 -178.5q180 0 323 81t223 226t80 328t-80 328t-223 226t-323 81z" />
    <glyph glyph-name="uni04E7" unicode="&#x4e7;" horiz-adv-x="1183" 
d="M516 1315v-246h-119v246h119zM786 1315v-246h-118v246h118zM592 977q223 0 365.5 -141.5t142.5 -362.5q0 -220 -143 -362t-365 -142q-221 0 -364.5 142t-143.5 362q0 221 143 362.5t365 141.5zM592 874q-174 0 -285.5 -112t-111.5 -289q0 -175 112 -288t285 -113t285 113
t112 288q0 177 -111.5 289t-285.5 112z" />
    <glyph glyph-name="uni04E8" unicode="&#x4e8;" horiz-adv-x="1669" 
d="M836 1464q159 0 297 -55.5t237 -153t156 -237t57 -301.5q0 -216 -97 -387t-267.5 -266t-382.5 -95t-382.5 95t-268 266.5t-97.5 386.5t97.5 386.5t268 266t382.5 94.5zM211 813q-3 -32 -12 -47l2 -4q20 6 53 6h1163q33 0 51 -6l5 4q-11 15 -15 41q-8 103 -53.5 199.5
t-123 174t-194 124.5t-253.5 47q-118 0 -221 -36t-173 -93t-121.5 -129.5t-77.5 -143.5t-30 -137zM1458 623q3 28 15 45l-5 4q-18 -6 -51 -6h-1163q-33 0 -53 6l-2 -4q7 -13 12 -41q9 -103 55.5 -199.5t123.5 -174t193.5 -124.5t252.5 -47q118 0 221 36t173 93t121.5 129.5
t77 144.5t29.5 138z" />
    <glyph glyph-name="uni04E9" unicode="&#x4e9;" horiz-adv-x="1181" 
d="M592 977q221 0 363.5 -141.5t142.5 -362.5t-142.5 -362.5t-363.5 -141.5q-223 0 -365.5 141.5t-142.5 362.5t142.5 362.5t365.5 141.5zM592 874q-168 0 -275 -98t-124 -272l2 -4q27 12 77 12h637q51 0 78 -12l2 4q-17 174 -123.5 272t-273.5 98zM592 72q167 0 273.5 98
t123.5 272l-2 4q-27 -12 -78 -12h-637q-50 0 -77 12l-2 -4q17 -174 124 -272t275 -98z" />
    <glyph glyph-name="uni04EA" unicode="&#x4ea;" horiz-adv-x="1669" 
d="M731 1747v-225h-121v225h121zM1059 1747v-225h-121v225h121zM836 1464q159 0 297 -55.5t237 -153t156 -237t57 -301.5q0 -216 -97 -387t-267.5 -266t-382.5 -95t-382.5 95t-268 266.5t-97.5 386.5t97.5 386.5t268 266t382.5 94.5zM211 813q-3 -32 -12 -47l2 -4q20 6 53 6
h1163q33 0 51 -6l5 4q-11 15 -15 41q-8 103 -53.5 199.5t-123 174t-194 124.5t-253.5 47q-118 0 -221 -36t-173 -93t-121.5 -129.5t-77.5 -143.5t-30 -137zM1458 623q3 28 15 45l-5 4q-18 -6 -51 -6h-1163q-33 0 -53 6l-2 -4q7 -13 12 -41q9 -103 55.5 -199.5t123.5 -174
t193.5 -124.5t252.5 -47q118 0 221 36t173 93t121.5 129.5t77 144.5t29.5 138z" />
    <glyph glyph-name="uni04EB" unicode="&#x4eb;" horiz-adv-x="1181" 
d="M508 1315v-246h-119v246h119zM778 1315v-246h-119v246h119zM592 977q221 0 363.5 -141.5t142.5 -362.5t-142.5 -362.5t-363.5 -141.5q-223 0 -365.5 141.5t-142.5 362.5t142.5 362.5t365.5 141.5zM592 874q-168 0 -275 -98t-124 -272l2 -4q27 12 77 12h637q51 0 78 -12
l2 4q-17 174 -123.5 272t-273.5 98zM592 72q167 0 273.5 98t123.5 272l-2 4q-27 -12 -78 -12h-637q-50 0 -77 12l-2 -4q17 -174 124 -272t275 -98z" />
    <glyph glyph-name="uni04EC" unicode="&#x4ec;" horiz-adv-x="1425" 
d="M403 1747h121v-225h-121v225zM731 1747h121v-225h-121v225zM618 -31q-296 0 -536 162l61 98q219 -147 478 -147q243 0 400.5 142t188.5 388q5 33 13 56l-2 2q-18 -6 -58 -6h-723v106h723q40 0 58 -6l2 4q-8 19 -13 53q-31 246 -188.5 388.5t-400.5 142.5
q-258 0 -478 -148l-61 99q238 161 536 161q327 0 523 -202t196 -545t-196 -545.5t-523 -202.5z" />
    <glyph glyph-name="uni04ED" unicode="&#x4ed;" horiz-adv-x="993" 
d="M389 1315v-246h-119v246h119zM659 1315v-246h-118v246h118zM414 -31q-193 0 -346 101l51 88q140 -86 295 -86q149 0 243.5 83.5t118.5 219.5q11 45 17 59l-2 2q-20 -10 -54 -10h-413v94h413q34 0 54 -10l2 2q-6 14 -17 59q-26 136 -120 219.5t-242 83.5q-155 0 -295 -86
l-51 89q151 100 346 100q224 0 353.5 -138.5t129.5 -365.5t-129.5 -365.5t-353.5 -138.5z" />
    <glyph glyph-name="uni04EE" unicode="&#x4ee;" horiz-adv-x="1247" 
d="M344 1671h565v-86h-565v86zM322 -12q-62 0 -144 14v107q81 -15 148 -15q36 0 64.5 8.5t63 34t68.5 80t66 137.5l-561 1080h133l405 -791q51 -97 61 -122.5t21 -82.5l6 2q6 51 19.5 91.5t48.5 117.5l373 785h127l-541 -1139q-39 -95 -83 -158t-90.5 -94.5t-89 -43
t-95.5 -11.5z" />
    <glyph glyph-name="uni04EF" unicode="&#x4ef;" horiz-adv-x="950" 
d="M762 1233v-88h-563v88h563zM930 946l-596 -1356h-109l209 480l-414 876h121l275 -602q35 -76 48 -114.5t19 -86.5h9q7 75 63 199l262 604h113z" />
    <glyph glyph-name="uni04F0" unicode="&#x4f0;" horiz-adv-x="1247" 
d="M403 1747h121v-225h-121v225zM731 1747h121v-225h-121v225zM322 -12q-62 0 -144 14v107q81 -15 148 -15q36 0 64.5 8.5t63 34t68.5 80t66 137.5l-561 1080h133l405 -791q51 -97 61 -122.5t21 -82.5l6 2q6 51 19.5 91.5t48.5 117.5l373 785h127l-541 -1139
q-39 -95 -83 -158t-90.5 -94.5t-89 -43t-95.5 -11.5z" />
    <glyph glyph-name="uni04F1" unicode="&#x4f1;" horiz-adv-x="950" 
d="M403 1315v-246h-118v246h118zM674 1315v-246h-119v246h119zM930 946l-596 -1356h-109l209 480l-414 876h121l275 -602q35 -76 48 -114.5t19 -86.5h9q7 75 63 199l262 604h113z" />
    <glyph glyph-name="uni04F2" unicode="&#x4f2;" horiz-adv-x="1247" 
d="M797 1747l2 -6l-201 -219h-82l-2 6l191 219h92zM694 1528l191 219h92l2 -6l-199 -219h-84zM322 -12q-62 0 -144 14v107q81 -15 148 -15q36 0 64.5 8.5t63 34t68.5 80t66 137.5l-561 1080h133l405 -791q51 -97 61 -122.5t21 -82.5l6 2q6 51 19.5 91.5t48.5 117.5l373 785
h127l-541 -1139q-39 -95 -83 -158t-90.5 -94.5t-89 -43t-95.5 -11.5z" />
    <glyph glyph-name="uni04F3" unicode="&#x4f3;" horiz-adv-x="950" 
d="M336 1030l-2 6l219 310h94l2 -7l-229 -309h-84zM520 1030l-2 6l219 310h94l3 -7l-230 -309h-84zM930 946l-596 -1356h-109l209 480l-414 876h121l275 -602q35 -76 48 -114.5t19 -86.5h9q7 75 63 199l262 604h113z" />
    <glyph glyph-name="uni04F4" unicode="&#x4f4;" horiz-adv-x="1191" 
d="M332 1747h121v-225h-121v225zM659 1747h121v-225h-121v225zM911 0v610q0 36 7 60l-3 2q-246 -82 -481 -82q-189 0 -285 100t-96 314v430h113v-430q0 -163 71.5 -232.5t206.5 -69.5q105 0 210 18.5t257 61.5v652h113v-1434h-113z" />
    <glyph glyph-name="uni04F5" unicode="&#x4f5;" horiz-adv-x="907" 
d="M324 1315v-246h-119v246h119zM594 1315v-246h-119v246h119zM666 946h102v-635v-311h-102v369q0 51 8 69l-2 2q-170 -71 -326 -71q-157 0 -237 72t-80 229v276h102v-270q0 -113 58.5 -160t172.5 -47q127 0 304 72v405z" />
    <glyph glyph-name="uni04F8" unicode="&#x4f8;" horiz-adv-x="1511" 
d="M670 1747v-225h-121v225h121zM997 1747v-225h-120v225h120zM664 811q211 0 330.5 -109.5t119.5 -295.5t-120 -296t-330 -110h-494v991v443h113v-576q0 -28 -7 -49l3 -2q12 4 53 4h332zM1229 1434h112v-1434h-112v1434zM659 106q162 0 249 81t87 219t-87 218.5t-249 80.5
h-327q-35 0 -53 6l-3 -2q7 -21 7 -52v-503q0 -29 -7 -50l3 -2q12 4 53 4h327z" />
    <glyph glyph-name="uni04F9" unicode="&#x4f9;" horiz-adv-x="1218" 
d="M545 1315v-246h-119v246h119zM815 1315v-246h-119v246h119zM559 590q146 0 233 -79t87 -216q0 -135 -88 -215t-232 -80h-409v686v260h102v-309q0 -39 -8 -55l2 -2q18 10 53 10h260zM967 946h102v-946h-102v946zM555 96q101 0 157 54t56 145t-56 144t-157 53h-256
q-35 0 -53 10l-2 -2q8 -16 8 -58v-299q0 -33 -10 -53l2 -2q16 8 57 8h254z" />
    <glyph glyph-name="uni04FC" unicode="&#x4fc;" 
d="M1042 203q51 -76 79 -123t53.5 -117.5t25.5 -132.5q0 -113 -75 -176.5t-212 -63.5h-96v109h98q79 0 124.5 34.5t45.5 102.5q0 19 -4 39t-8 36t-16 41t-19 38.5t-26.5 45t-28 45t-34.5 53t-36 54.5l-198 304q-1 2 -32.5 48.5t-51.5 80t-27 55.5h-4q-5 -13 -12.5 -28.5
t-20.5 -36t-23 -35.5t-28 -42.5t-27 -41.5l-321 -492h-139l362 549q112 173 144 203v6q-9 10 -18 21t-15.5 19.5t-17.5 24t-16 23t-19 29t-19 29.5t-23 35.5t-24 37.5l-303 457h141l268 -412q13 -20 36 -55.5t34.5 -53t23.5 -40t17 -37.5h4q6 19 19 41t42.5 67.5t49.5 77.5
l268 412h141l-303 -457q-6 -9 -41 -63.5t-63.5 -95.5t-46.5 -60v-6q12 -12 25 -27.5t30 -40.5t26 -38.5t32 -50t30 -46.5z" />
    <glyph glyph-name="uni04FD" unicode="&#x4fd;" horiz-adv-x="956" 
d="M618 -410v101h101q131 0 131 135q0 48 -22 98.5t-46.5 84.5t-87.5 116l-162 209q-43 58 -59 104h-6q-19 -47 -61 -104l-259 -334h-127l330 432q37 47 56 62v6q-27 19 -60 67l-289 379h125l224 -289q34 -44 63 -108h4q21 55 62 108l223 289h125l-287 -379q-36 -49 -61 -67
v-6q26 -20 55 -62l223 -299q36 -47 56.5 -76.5t43 -70.5t33 -81t10.5 -83q0 -112 -64 -172t-175 -60h-99z" />
    <glyph glyph-name="uni0510" unicode="&#x510;" horiz-adv-x="1191" 
d="M621 -31q-253 0 -378.5 108t-125.5 308q0 161 79.5 251t219.5 116q67 12 159 12v6q-84 2 -163 27q-116 36 -179 115.5t-63 201.5q0 169 108.5 259.5t327.5 90.5q269 0 481 -110l-47 -105q-193 105 -428 105q-160 0 -240.5 -67.5t-80.5 -184.5q0 -141 103.5 -215
t293.5 -74h199v-102h-201q-224 0 -337 -78.5t-113 -243.5q0 -159 101.5 -234t283.5 -75q234 0 434 115l55 -107q-207 -119 -489 -119z" />
    <glyph glyph-name="uni0511" unicode="&#x511;" horiz-adv-x="917" 
d="M483 -31q-195 0 -297 72t-102 209q0 127 78 185.5t225 64.5v8q-128 9 -193 67.5t-65 161.5q0 119 89 179.5t257 60.5q188 0 379 -82l-41 -94q-171 76 -336 76q-237 0 -237 -156q0 -172 245 -172h113v-96h-117q-154 0 -221 -45.5t-67 -147.5q0 -71 37.5 -114.5t97 -59.5
t145.5 -16q188 0 356 86l48 -95q-184 -92 -394 -92z" />
    <glyph glyph-name="uni0512" unicode="&#x512;" horiz-adv-x="1484" 
d="M1317 1434v-1434h-2v-121q0 -148 -78.5 -218.5t-216.5 -70.5h-111v109h113q180 0 180 180v283l2 -2v1120q0 31 6 49l-4 2q-12 -4 -51 -4h-692q-39 0 -51 4l-4 -2q6 -18 6 -49v-989q0 -154 -62.5 -227.5t-197.5 -73.5q-13 0 -103 4v110q41 -4 94 -4q79 0 117.5 43.5
t38.5 143.5v1147h1016z" />
    <glyph glyph-name="uni0513" unicode="&#x513;" horiz-adv-x="1071" 
d="M934 -123q0 -139 -67.5 -213t-192.5 -74h-107v101h111q73 0 112 47.5t39 138.5v123v803q0 31 11 53l-2 2q-14 -8 -58 -8h-391q-41 0 -57 8l-2 -2q10 -20 10 -53v-559q0 -125 -57.5 -186.5t-165.5 -61.5h-88v96h86q62 0 92.5 36.5t30.5 117.5v700h696v-1069z" />
    <glyph glyph-name="uni051C" unicode="&#x51c;" horiz-adv-x="1931" 
d="M973 1462l325 -960q52 -151 74 -271h8q19 117 70 267l313 936h131l-512 -1463h-12l-356 1030q-37 113 -45 187h-8q-5 -72 -43 -187l-357 -1030h-12l-512 1463h131l311 -936q52 -146 72 -267h8q22 120 74 271l323 960h17z" />
    <glyph glyph-name="uni051D" unicode="&#x51d;" horiz-adv-x="1449" 
d="M401 -18l-381 964h121l219 -586q41 -108 48 -184h8q9 69 55 184l244 605h18l244 -605q48 -112 57 -184h8q4 69 48 184l217 586h123l-383 -964h-19l-254 622q-24 57 -32 88.5t-13 79.5h-8q-8 -76 -45 -168l-256 -622h-19z" />
    <glyph glyph-name="uni0524" unicode="&#x524;" horiz-adv-x="1394" 
d="M1264 74h77v-361h-110v287h-80v1280q0 31 6 49l-2 2q-14 -4 -53 -4h-770q-41 0 -53 4l-3 -2q7 -21 7 -49v-1280h-113v1434h1094v-1360z" />
    <glyph glyph-name="uni0525" unicode="&#x525;" horiz-adv-x="1046" 
d="M938 59h63v-346h-98v287h-69v803q0 33 10 53l-2 2q-16 -8 -58 -8h-483q-41 0 -57 8l-2 -2q10 -20 10 -53v-803h-102v946h788v-887z" />
    <glyph glyph-name="uni0526" unicode="&#x526;" horiz-adv-x="1267" 
d="M1139 74h73v-361h-108v287h-78v430q0 163 -71.5 232t-206.5 69q-105 0 -208.5 -18.5t-256.5 -61.5v-651h-113v1434h113v-611q0 -38 -9 -59l2 -2q250 82 482 82q189 0 285 -100t96 -314v-356z" />
    </font>
</defs>
</svg>
