<?xml version="1.0" standalone="no"?>
<!DOCTYPE svg PUBLIC "-//W3C//DTD SVG 1.1//EN" "http://www.w3.org/Graphics/SVG/1.1/DTD/svg11.dtd" >
<svg xmlns="http://www.w3.org/2000/svg" xmlns:xlink="http://www.w3.org/1999/xlink" version="1.1">
<metadata>
Created by FontForge 20170731 at Sat Jul 23 01:52:14 2022
 By Aleksey,,,
Copyright (c) 2015 by Reto Moser. All rights reserved.
</metadata>
<defs>
<font id="GTEestiProText-RegularItalic" horiz-adv-x="1228" >
  <font-face 
    font-family="GT Eesti Pro Text"
    font-weight="400"
    font-style="italic"
    font-stretch="normal"
    units-per-em="2048"
    panose-1="0 0 5 0 0 0 0 0 0 0"
    ascent="1536"
    descent="-512"
    x-height="946"
    cap-height="1434"
    bbox="-670 -516 2384 1847"
    underline-thickness="102"
    underline-position="-307"
    slope="-11"
    unicode-range="U+000D-FB02"
  />
<missing-glyph horiz-adv-x="1609" 
d="M852 -31q-213 0 -384 96.5t-267.5 267.5t-96.5 384q0 214 96.5 385t267.5 266.5t384 95.5q160 0 299 -56t237.5 -154.5t154.5 -237.5t56 -299q0 -213 -95.5 -384t-266.5 -267.5t-385 -96.5zM852 20q199 0 359 91t250.5 253t90.5 363l-104 133l-143 -61l-140 184l-161 -90
l-152 242l-152 -242l-161 90l-140 -184l-143 61l-104 -133q0 -201 90.5 -363t250.5 -253t359 -91zM641 651q-31 0 -51.5 20.5t-20.5 51.5t20.5 51.5t51.5 20.5t51.5 -20.5t20.5 -51.5t-20.5 -51.5t-51.5 -20.5zM1061 651q-31 0 -51.5 20.5t-20.5 51.5t20.5 51.5t51.5 20.5
t51.5 -20.5t20.5 -51.5t-20.5 -51.5t-51.5 -20.5zM766 522l74 207q3 17 22 10q6 -2 9.5 -8.5t0.5 -13.5l-57 -160h70q7 0 12.5 -5.5t5.5 -12.5q0 -6 -5.5 -11.5t-12.5 -5.5h-119zM449 350q-61 0 -101.5 40t-40.5 102q0 61 40 101t102 40q61 0 101 -39.5t40 -101.5t-40 -102
t-101 -40zM1253 350q-61 0 -101 40t-40 102t40 101.5t101 39.5q62 0 102 -40t40 -101q0 -62 -40.5 -102t-101.5 -40zM852 395q-96 0 -127 -61q-6 -12 -18 -12q-17 0 -17 18q0 35 50 63.5t112 28.5t112 -28.5t50 -63.5q0 -18 -17 -18q-12 0 -18 12q-31 61 -127 61z" />
    <glyph glyph-name="fi" unicode="fi" horiz-adv-x="1128" 
d="M799 1452l-35 -186h-14q-90 0 -142.5 -47.5t-72.5 -147.5l-15 -70q-13 -55 -20 -67l6 -4q21 16 86 16h106l-36 -192h-107q-67 0 -80 16l-8 -4q2 -27 -12 -111l-127 -655h-201l127 655q9 56 29 111l-2 4q-27 -16 -91 -16h-84l37 192h84q65 0 84 -16l4 4q-3 20 4 63l21 113
q32 165 132 253.5t253 88.5h74zM1196 1434l-53 -271h-225l53 271h225zM1087 946l-184 -946h-201l185 946h200z" />
    <glyph glyph-name="fl" unicode="fl" horiz-adv-x="1128" 
d="M1188 1464l-285 -1464h-201l285 1464h201zM799 1452l-35 -186h-14q-90 0 -142.5 -47.5t-72.5 -147.5l-15 -70q-13 -55 -20 -67l6 -4q21 16 86 16h106l-36 -192h-107q-67 0 -80 16l-8 -4q2 -27 -12 -111l-127 -655h-201l127 655q9 56 29 111l-2 4q-27 -16 -91 -16h-84
l37 192h84q65 0 84 -16l4 4q-3 20 4 63l21 113q32 165 132 253.5t253 88.5h74z" />
    <glyph glyph-name="f_f" unicode="ff" horiz-adv-x="1323" 
d="M799 1452l-35 -186h-14q-90 0 -142.5 -47.5t-72.5 -147.5l-15 -70q-13 -55 -20 -67l6 -4q21 16 86 16h106l-36 -192h-107q-67 0 -80 16l-8 -4q2 -27 -12 -111l-127 -655h-201l127 655q9 56 29 111l-2 4q-27 -16 -91 -16h-84l37 192h84q65 0 84 -16l4 4q-3 20 4 63l21 113
q32 165 132 253.5t253 88.5h74zM1460 1452l-35 -186h-14q-90 0 -142.5 -47.5t-72.5 -147.5l-14 -70q-12 -51 -21 -67l6 -4q21 16 86 16h107l-37 -192h-106q-67 0 -80 16l-9 -4q2 -27 -12 -111l-127 -655h-201l127 655q9 56 29 111l-2 4q-27 -16 -90 -16h-84l37 192h84
q65 0 84 -16l4 4q-3 20 4 63l20 113q32 165 132 253.5t253 88.5h74z" />
    <glyph glyph-name="f_f_i" unicode="ffi" horiz-adv-x="1789" 
d="M799 1452l-35 -186h-14q-90 0 -142.5 -47.5t-72.5 -147.5l-15 -70q-13 -55 -20 -67l6 -4q21 16 86 16h106l-36 -192h-107q-67 0 -80 16l-8 -4q2 -27 -12 -111l-127 -655h-201l127 655q9 56 29 111l-2 4q-27 -16 -91 -16h-84l37 192h84q65 0 84 -16l4 4q-3 20 4 63l21 113
q32 165 132 253.5t253 88.5h74zM1460 1452l-35 -186h-14q-90 0 -142.5 -47.5t-72.5 -147.5l-14 -70q-12 -51 -21 -67l6 -4q21 16 86 16h107l-37 -192h-106q-67 0 -80 16l-9 -4q2 -27 -12 -111l-127 -655h-201l127 655q9 56 29 111l-2 4q-27 -16 -90 -16h-84l37 192h84
q65 0 84 -16l4 4q-3 20 4 63l20 113q32 165 132 253.5t253 88.5h74zM1858 1434l-54 -271h-225l53 271h226zM1749 946l-184 -946h-201l184 946h201z" />
    <glyph glyph-name="f_f_l" unicode="ffl" horiz-adv-x="1789" 
d="M1849 1464l-284 -1464h-201l285 1464h200zM799 1452l-35 -186h-14q-90 0 -142.5 -47.5t-72.5 -147.5l-15 -70q-13 -55 -20 -67l6 -4q21 16 86 16h106l-36 -192h-107q-67 0 -80 16l-8 -4q2 -27 -12 -111l-127 -655h-201l127 655q9 56 29 111l-2 4q-27 -16 -91 -16h-84
l37 192h84q65 0 84 -16l4 4q-3 20 4 63l21 113q32 165 132 253.5t253 88.5h74zM1460 1452l-35 -186h-14q-90 0 -142.5 -47.5t-72.5 -147.5l-14 -70q-12 -51 -21 -67l6 -4q21 16 86 16h107l-37 -192h-106q-67 0 -80 16l-9 -4q2 -27 -12 -111l-127 -655h-201l127 655
q9 56 29 111l-2 4q-27 -16 -90 -16h-84l37 192h84q65 0 84 -16l4 4q-3 20 4 63l20 113q32 165 132 253.5t253 88.5h74z" />
    <glyph glyph-name=".notdef" horiz-adv-x="1609" 
d="M852 -31q-213 0 -384 96.5t-267.5 267.5t-96.5 384q0 214 96.5 385t267.5 266.5t384 95.5q160 0 299 -56t237.5 -154.5t154.5 -237.5t56 -299q0 -213 -95.5 -384t-266.5 -267.5t-385 -96.5zM852 20q199 0 359 91t250.5 253t90.5 363l-104 133l-143 -61l-140 184l-161 -90
l-152 242l-152 -242l-161 90l-140 -184l-143 61l-104 -133q0 -201 90.5 -363t250.5 -253t359 -91zM641 651q-31 0 -51.5 20.5t-20.5 51.5t20.5 51.5t51.5 20.5t51.5 -20.5t20.5 -51.5t-20.5 -51.5t-51.5 -20.5zM1061 651q-31 0 -51.5 20.5t-20.5 51.5t20.5 51.5t51.5 20.5
t51.5 -20.5t20.5 -51.5t-20.5 -51.5t-51.5 -20.5zM766 522l74 207q3 17 22 10q6 -2 9.5 -8.5t0.5 -13.5l-57 -160h70q7 0 12.5 -5.5t5.5 -12.5q0 -6 -5.5 -11.5t-12.5 -5.5h-119zM449 350q-61 0 -101.5 40t-40.5 102q0 61 40 101t102 40q61 0 101 -39.5t40 -101.5t-40 -102
t-101 -40zM1253 350q-61 0 -101 40t-40 102t40 101.5t101 39.5q62 0 102 -40t40 -101q0 -62 -40.5 -102t-101.5 -40zM852 395q-96 0 -127 -61q-6 -12 -18 -12q-17 0 -17 18q0 35 50 63.5t112 28.5t112 -28.5t50 -63.5q0 -18 -17 -18q-12 0 -18 12q-31 61 -127 61z" />
    <glyph glyph-name=".null" horiz-adv-x="0" 
 />
    <glyph glyph-name="nonmarkingreturn" horiz-adv-x="682" 
 />
    <glyph glyph-name="NULL" horiz-adv-x="0" 
 />
    <glyph glyph-name="NULL" horiz-adv-x="0" 
 />
    <glyph glyph-name="CR" unicode="&#xd;" horiz-adv-x="0" 
 />
    <glyph glyph-name="space" unicode=" " horiz-adv-x="614" 
 />
    <glyph glyph-name="exclam" unicode="!" horiz-adv-x="659" 
d="M641 1434l-250 -1000h-139l139 1000h250zM125 0l49 254h234l-50 -254h-233z" />
    <glyph glyph-name="quotedbl" unicode="&#x22;" horiz-adv-x="622" 
d="M471 1464l-147 -518h-82l53 518h176zM713 1464l-148 -518h-82l54 518h176z" />
    <glyph glyph-name="numbersign" unicode="#" 
d="M1247 934h-250l-143 -379h246l-19 -96h-264l-172 -459h-106l172 459h-295l-172 -459h-107l172 459h-241l18 96h260l143 379h-256l19 96h274l152 404h106l-151 -404h295l151 404h107l-152 -404h232zM748 555l143 379h-295l-143 -379h295z" />
    <glyph glyph-name="dollar" unicode="$" horiz-adv-x="1058" 
d="M389 -168l17 84q8 42 16 59l-4 5q-22 -5 -51 2q-214 41 -367 174l123 170q132 -110 283 -148q46 -12 51 -14l4 2q-2 28 6 63l78 400l-139 114q-78 63 -121 144t-43 172q0 152 110.5 253t304.5 101q23 0 41 -6l2 2q-2 13 5 47l18 94h61l-18 -94q-8 -38 -14 -51l2 -2
q10 1 43 -4q129 -29 266 -111l-115 -178q-108 66 -190 88q-33 11 -41 19l-4 -3q2 -22 -4 -63l-64 -322l135 -108q103 -83 145 -170t42 -186q0 -191 -123 -294.5t-328 -103.5q-27 0 -39 6l-6 -2q2 -25 -4 -57l-16 -82h-62zM594 860l2 2q-2 17 6 68l43 219q4 27 17 70l-3 2
q-6 -4 -14 -4q-94 0 -142 -46t-48 -110q0 -84 116 -172q14 -10 23 -29zM516 162q8 2 22 3.5t17 2.5q96 7 147.5 56.5t51.5 129.5q0 106 -129 207q-19 13 -29 37l-2 -2q0 -26 -8 -72l-58 -295q-2 -7 -6.5 -29.5t-9.5 -33.5z" />
    <glyph glyph-name="percent" unicode="%" horiz-adv-x="1642" 
d="M539 788q-133 0 -222.5 78t-89.5 215q0 94 42.5 176t126 134.5t190.5 52.5q133 0 222 -78t89 -215q0 -94 -42 -176t-125.5 -134.5t-190.5 -52.5zM281 0l1011 1382h117l-1012 -1382h-116zM545 903q60 0 107.5 24t74 62.5t40 79.5t13.5 80q0 83 -55.5 131.5t-144.5 48.5
q-49 0 -89.5 -16.5t-67 -42t-45 -58.5t-26.5 -65.5t-8 -63.5q0 -83 56 -131.5t145 -48.5zM1151 -10q-133 0 -222 78t-89 215q0 94 42 176t125.5 134t190.5 52q133 0 222 -78t89 -215q0 -94 -42 -176t-125.5 -134t-190.5 -52zM1157 104q49 0 89.5 16.5t67 42t45 58.5
t26.5 65.5t8 63.5q0 83 -56 131.5t-145 48.5q-49 0 -89.5 -16t-67 -42t-45 -58.5t-26.5 -65t-8 -63.5q0 -83 56 -132t145 -49z" />
    <glyph glyph-name="ampersand" unicode="&#x26;" horiz-adv-x="1388" 
d="M1055 1382l69 -176l-4 -6h-387q-61 0 -98 12l-2 -2l393 -782h2q5 17 39 59q100 130 154 224l174 -97q-117 -197 -213 -305q-29 -32 -64 -53v-2l133 -250l-2 -4h-239l-64 131h-2q-11 -54 -137.5 -108t-243.5 -54q-213 0 -344 121t-131 316q0 170 102.5 292.5t296.5 184.5
q58 17 66 14l2 2l-250 479l2 4h748zM631 745h-2q-4 -14 -58 -32q-139 -51 -201.5 -119.5t-62.5 -169.5q0 -116 74 -187t194 -71q53 0 105 18t125 62q45 25 65 22l2 2z" />
    <glyph glyph-name="quotesingle" unicode="'" horiz-adv-x="401" 
d="M492 1464l-148 -518h-102l53 518h197z" />
    <glyph glyph-name="parenleft" unicode="(" horiz-adv-x="702" 
d="M711 1579l141 -127q-88 -90 -155.5 -170.5t-139.5 -190t-119 -218t-77.5 -245.5t-30.5 -282q0 -197 48.5 -379.5t123.5 -318.5l-162 -80q-203 374 -203 780q0 180 44.5 354t98 291t147 248t140.5 184t130 139q3 4 5 5.5t4.5 4.5t4.5 5z" />
    <glyph glyph-name="parenright" unicode=")" horiz-adv-x="702" 
d="M31 -432l-142 127q88 91 155.5 171t140 189.5t119.5 218t77.5 245.5t30.5 282q0 197 -48.5 379.5t-123.5 318.5l161 80q203 -374 203 -780q0 -180 -44.5 -354.5t-98 -291t-147 -248t-140.5 -184t-130 -139.5q-9 -9 -13 -14z" />
    <glyph glyph-name="asterisk" unicode="*" horiz-adv-x="843" 
d="M410 778l-129 94l186 211l-274 62l49 151l258 -112l-27 280h160l-27 -280l258 112l49 -151l-274 -62l186 -211l-129 -94l-143 244z" />
    <glyph glyph-name="plus" unicode="+" 
d="M690 1108v-453h451v-90h-451v-454h-98v454h-451v90h451v453h98z" />
    <glyph glyph-name="comma" unicode="," horiz-adv-x="526" 
d="M-45 -342l176 553h231l-296 -553h-111z" />
    <glyph glyph-name="hyphen" unicode="-" horiz-adv-x="813" 
d="M754 643l-37 -190h-629l37 190h629z" />
    <glyph glyph-name="period" unicode="." horiz-adv-x="458" 
d="M20 0l50 254h233l-49 -254h-234z" />
    <glyph glyph-name="slash" unicode="/" horiz-adv-x="1159" 
d="M61 -197l-114 78l1231 1680l116 -80z" />
    <glyph glyph-name="zero" unicode="0" horiz-adv-x="1191" 
d="M563 -31q-211 0 -324.5 136.5t-113.5 388.5q0 262 74.5 471.5t210 328.5t307.5 119q210 0 323 -136t113 -388q0 -261 -74 -470.5t-209 -329.5t-307 -120zM567 164q110 0 196 95.5t132.5 261.5t46.5 374q0 152 -61 238t-168 86q-110 0 -196.5 -95.5t-133.5 -262
t-47 -374.5q0 -151 62 -237t169 -86z" />
    <glyph glyph-name="one" unicode="1" horiz-adv-x="706" 
d="M688 1382l-268 -1382h-203l168 862q19 99 49 176l-4 4q-33 -36 -86 -61l-192 -92l41 207l288 178l56 108h151z" />
    <glyph glyph-name="two" unicode="2" horiz-adv-x="1013" 
d="M670 1413q187 0 288 -84.5t101 -241.5q0 -101 -52.5 -192.5t-201.5 -249.5l-303 -317q-46 -47 -94.5 -90t-73.5 -58l2 -6q5 1 24.5 4.5t34.5 5.5t39.5 5t54 4.5t62.5 1.5h354l2 -5l-145 -190h-840l-2 8l717 740q113 113 158 184t45 137q0 69 -45.5 108.5t-126.5 39.5
q-156 0 -353 -107l-82 176q239 127 437 127z" />
    <glyph glyph-name="three" unicode="3" horiz-adv-x="1017" 
d="M596 1413q185 0 282 -79.5t97 -231.5q0 -118 -69.5 -200.5t-200.5 -119.5q-70 -13 -89 -14l-2 -8q33 0 78 -10q109 -26 172.5 -113t63.5 -213q0 -209 -150 -332t-405 -123q-231 0 -418 111l96 178q88 -51 161.5 -71.5t160.5 -20.5q164 0 252 66.5t88 191.5
q0 123 -90.5 182.5t-276.5 59.5l35 180q170 0 271.5 60t101.5 161q0 71 -49.5 112.5t-135.5 41.5q-62 0 -146.5 -23t-158.5 -61l-80 176q216 100 412 100z" />
    <glyph glyph-name="four" unicode="4" horiz-adv-x="1136" 
d="M1057 1382l-170 -874q-5 -31 -15 -47l5 -4q12 6 38 6h199l-98 -195h-137q-28 0 -37 6l-6 -4q2 -7 -5 -47l-43 -223h-194l43 223q7 41 10 47v4q-15 -6 -41 -6h-614l33 168l854 946h178zM807 1087q-43 -88 -135 -188l-273 -295q-48 -53 -68.5 -75t-43.5 -44t-41 -34l4 -5
q47 17 207 17h186q25 0 37 -6l2 4q0 1 8 47l72 369q25 135 51 208z" />
    <glyph glyph-name="five" unicode="5" horiz-adv-x="940" 
d="M1106 1382l-117 -202h-340q-45 0 -53 2l-2 -2q-11 -37 -35 -93l-53 -104q-30 -55 -57 -82l2 -4q40 4 57 4q186 0 294.5 -112.5t108.5 -305.5q0 -238 -150.5 -376t-408.5 -138q-241 0 -418 117l107 182q160 -104 324 -104q154 0 243.5 83t89.5 224q0 252 -307 252
q-100 0 -221 -25l-4 7l334 677h606z" />
    <glyph glyph-name="six" unicode="6" horiz-adv-x="1097" 
d="M522 -31q-220 0 -345.5 119t-125.5 328q0 161 83 305t312 377l302 307h278l-448 -424q-75 -72 -113.5 -117.5t-83.5 -113.5l4 -2q121 153 287 153q164 0 269.5 -118.5t105.5 -303.5q0 -226 -146.5 -368t-378.5 -142zM520 166q138 0 224.5 85t86.5 220q0 113 -68 176.5
t-188 63.5q-138 0 -226.5 -85.5t-88.5 -219.5q0 -110 70 -175t190 -65z" />
    <glyph glyph-name="seven" unicode="7" horiz-adv-x="890" 
d="M1065 1382l2 -4l-842 -1378h-223l621 989q26 41 52.5 85t38 63t23 35.5t21.5 25.5l-4 4q-46 -14 -187 -14h-417l120 194h795z" />
    <glyph glyph-name="eight" unicode="8" horiz-adv-x="1120" 
d="M500 -31q-205 0 -326 100t-121 269q0 158 104.5 267.5t280.5 142.5v4q-213 64 -213 270q0 172 136 281.5t348 109.5q191 0 303 -91t112 -245q0 -136 -87 -227.5t-234 -110.5v-4q112 -23 171.5 -101.5t59.5 -201.5q0 -200 -147 -331.5t-387 -131.5zM645 829
q117 0 189.5 62t72.5 160q0 83 -53.5 128.5t-151.5 45.5q-118 0 -193 -61.5t-75 -159.5q0 -83 55.5 -129t155.5 -46zM514 158q148 0 229.5 76t81.5 202q0 104 -59 157.5t-172 53.5q-141 0 -231.5 -79.5t-90.5 -205.5q0 -100 62 -152t180 -52z" />
    <glyph glyph-name="nine" unicode="9" horiz-adv-x="1067" 
d="M166 0l473 465q128 128 174 190l-6 4q-139 -172 -313 -172q-154 0 -261.5 121.5t-107.5 294.5q0 143 68 259.5t188 183.5t266 67q212 0 336.5 -122.5t124.5 -329.5q0 -160 -74 -295t-264 -324l-350 -342h-254zM584 678q138 0 228.5 86t90.5 217q0 111 -68.5 173.5
t-191.5 62.5q-135 0 -220 -85t-85 -221q0 -109 65.5 -171t180.5 -62z" />
    <glyph glyph-name="colon" unicode=":" horiz-adv-x="464" 
d="M162 692l49 254h233l-49 -254h-233zM20 0l50 254h233l-49 -254h-234z" />
    <glyph glyph-name="semicolon" unicode=";" horiz-adv-x="526" 
d="M207 692l49 254h233l-49 -254h-233zM-45 -342l176 553h231l-296 -553h-111z" />
    <glyph glyph-name="less" unicode="&#x3c;" 
d="M1061 1069v-108l-801 -349l801 -346v-108l-918 405v101z" />
    <glyph glyph-name="equal" unicode="=" 
d="M1159 852v-94h-1036v94h1036zM1161 467l-2 -92h-1036l2 92h1036z" />
    <glyph glyph-name="greater" unicode="&#x3e;" 
d="M223 1069l918 -405v-101l-918 -405v108l801 346l-801 349v108z" />
    <glyph glyph-name="question" unicode="?" horiz-adv-x="796" 
d="M582 1464q141 0 216.5 -61t75.5 -178q0 -81 -36.5 -146t-120.5 -133l-123 -100q-62 -51 -84.5 -83t-22.5 -67q0 -68 105 -143l-135 -154q-83 57 -129.5 133t-46.5 156q0 71 37 133.5t122 132.5l119 99q55 46 76.5 76.5t21.5 64.5q0 37 -26.5 57.5t-75.5 20.5
q-100 0 -283 -94l-79 180q125 57 214 81.5t175 24.5zM125 0l49 254h234l-50 -254h-233z" />
    <glyph glyph-name="at" unicode="@" horiz-adv-x="1970" 
d="M950 -307q-373 0 -599 217.5t-226 576.5q0 202 70.5 374.5t195.5 293.5t302 189.5t384 68.5q240 0 426.5 -90.5t289.5 -253.5t103 -373q0 -163 -59 -298t-162 -212t-227 -77q-98 0 -156.5 45t-64.5 127h-6q-47 -86 -124.5 -131.5t-176.5 -45.5q-145 0 -237.5 81.5
t-92.5 209.5q0 139 101 230.5t255 91.5q106 0 184 -44t115 -126l6 2q0 14 2 53q9 83 9 111q0 121 -183 121q-101 0 -280 -43l-41 155q191 51 342 51q164 0 244.5 -67t80.5 -203q0 -38 -14 -133l-37 -203q-4 -18 -4 -39q0 -90 94 -90q107 0 183.5 127.5t76.5 308.5
q0 252 -177.5 405.5t-469.5 153.5q-170 0 -315 -56.5t-247.5 -156.5t-160 -242t-57.5 -308q0 -297 180.5 -471.5t487.5 -174.5q219 0 405 86l39 -151q-221 -90 -459 -90zM961 250q93 0 162 52.5t69 123.5q0 63 -58.5 103t-150.5 40t-147.5 -47t-55.5 -125q0 -68 49 -107.5
t132 -39.5z" />
    <glyph glyph-name="A" unicode="A" horiz-adv-x="1425" 
d="M-72 0l967 1464h20l398 -1464h-219l-99 377h-571l-236 -377h-260zM524 555q36 4 115 4h207q77 0 117 -4l2 2q-27 45 -43 117l-54 248q-22 110 -16 163h-12q-12 -52 -80 -163l-150 -248q-47 -76 -88 -117z" />
    <glyph glyph-name="B" unicode="B" horiz-adv-x="1277" 
d="M61 0l279 1434h510q162 0 262 -89t100 -233q0 -122 -63.5 -211t-179.5 -129q-71 -22 -123 -22l-2 -9q48 0 119 -14q97 -22 150.5 -100.5t53.5 -198.5q0 -198 -142 -313t-386 -115h-578zM434 829q21 9 53 9h242q115 0 184.5 58t69.5 155q0 182 -233 182h-187q-33 0 -49 8
l-6 -4q2 -5 -4 -53l-58 -299q-8 -38 -16 -51zM309 193q21 8 53 8h283q146 0 222.5 58.5t76.5 168.5q0 104 -69.5 158.5t-204.5 54.5h-221q-34 0 -50 8l-6 -4q3 -9 -4 -51l-65 -344q-6 -37 -17 -53z" />
    <glyph glyph-name="C" unicode="C" horiz-adv-x="1398" 
d="M795 -31q-306 0 -490 183.5t-184 486.5q0 237 108.5 425.5t302 294t437.5 105.5q283 0 485 -164l-133 -180q-175 129 -377 129q-255 0 -423.5 -171.5t-168.5 -430.5q0 -214 123.5 -338.5t335.5 -124.5q177 0 354 115l115 -178q-229 -152 -485 -152z" />
    <glyph glyph-name="D" unicode="D" horiz-adv-x="1427" 
d="M61 0l279 1434h432q292 0 461.5 -169.5t169.5 -461.5q0 -369 -245.5 -586t-663.5 -217h-433zM309 193q21 8 53 8h197q274 0 445.5 168.5t171.5 435.5q0 201 -111.5 314.5t-308.5 113.5h-193q-33 0 -49 8l-6 -4q3 -23 -4 -51l-180 -938q-7 -35 -17 -51z" />
    <glyph glyph-name="E" unicode="E" horiz-adv-x="1056" 
d="M1153 1434l-39 -201h-551q-33 0 -49 8l-6 -4q4 -18 -4 -53l-49 -256q-5 -31 -17 -51l4 -5q21 9 54 9h483l-39 -201h-483q-32 0 -51 8l-5 -4q2 -12 -4 -53l-73 -381q-9 -39 -17 -53l2 -4q21 8 53 8h560l-39 -201h-822l279 1434h813z" />
    <glyph glyph-name="F" unicode="F" horiz-adv-x="1015" 
d="M1161 1434l-39 -201h-559q-33 0 -49 8l-6 -4q4 -18 -4 -53l-53 -281q-9 -38 -17 -51l2 -4q21 8 53 8h512l-38 -201h-512q-32 0 -50 9l-4 -5q2 -12 -4 -51l-119 -608h-213l279 1434h821z" />
    <glyph glyph-name="G" unicode="G" horiz-adv-x="1632" 
d="M831 -29q-325 0 -516.5 185t-191.5 495q0 173 63.5 324t174.5 258t266.5 168t333.5 61q171 0 321.5 -56t265.5 -161l-166 -166q-88 80 -204.5 124t-241.5 44q-167 0 -301 -76.5t-208.5 -212t-74.5 -303.5q0 -220 129.5 -344.5t356.5 -124.5q215 0 352 113.5t174 312.5
l-4 4q-54 -26 -143 -26h-336l39 201h710l-18 -105q-61 -342 -261.5 -528.5t-519.5 -186.5z" />
    <glyph glyph-name="H" unicode="H" horiz-adv-x="1458" 
d="M1491 1434l-279 -1434h-217l119 608q5 33 16 51l-4 5q-24 -9 -53 -9h-618q-31 0 -49 9l-5 -5q2 -12 -4 -51l-118 -608h-218l279 1434h217l-102 -527q-5 -31 -17 -51l4 -4q19 8 54 8h618q30 0 49 -8l4 4q-2 12 4 51l103 527h217z" />
    <glyph glyph-name="I" unicode="I" horiz-adv-x="524" 
d="M557 1434l-278 -1434h-218l279 1434h217z" />
    <glyph glyph-name="J" unicode="J" horiz-adv-x="616" 
d="M649 1434l-215 -1112q-35 -180 -122.5 -256t-260.5 -76q-25 0 -92 6l39 201q23 -2 76 -2q65 0 99.5 34t51.5 117l211 1088h213z" />
    <glyph glyph-name="K" unicode="K" horiz-adv-x="1261" 
d="M1380 1434l-573 -547q-31 -29 -63.5 -56.5t-64 -53t-44.5 -36.5l-2 -6q34 -28 117 -149l399 -586h-262l-481 731l-7 -2q-4 -108 -30 -240l-95 -489h-213l279 1434h213l-78 -404q-31 -155 -63 -237l6 -5l659 646h303z" />
    <glyph glyph-name="L" unicode="L" horiz-adv-x="1001" 
d="M553 1434l-229 -1182q-5 -31 -17 -51l4 -4q19 8 51 8h566l-39 -205h-828l279 1434h213z" />
    <glyph glyph-name="M" unicode="M" horiz-adv-x="1818" 
d="M815 -14l-184 753q-6 24 -10.5 45.5t-7 41.5t-4.5 33t-2.5 32t-0.5 26v27.5v24.5h-6q-1 -5 -7.5 -31.5t-11.5 -44l-13 -45.5t-19.5 -56t-24.5 -55l-354 -737h-242l711 1454h31l207 -901q13 -54 6 -166h8q25 95 67 166l547 901h33l168 -1454h-201l-90 737q-12 104 8 232
h-6q-5 -12 -17 -43t-21 -51.5t-28.5 -57.5t-45.5 -78l-467 -753h-23z" />
    <glyph glyph-name="N" unicode="N" horiz-adv-x="1511" 
d="M362 1454l699 -889q62 -79 84 -159l6 2q-6 75 29 258l151 768h213l-282 -1454h-19l-698 888q-61 78 -84 160l-6 -2q6 -76 -29 -256l-152 -770h-213l283 1454h18z" />
    <glyph glyph-name="O" unicode="O" horiz-adv-x="1693" 
d="M831 -31q-319 0 -513.5 187t-194.5 493q0 231 107.5 417.5t298.5 292t427 105.5q319 0 514 -187t195 -493q0 -173 -63.5 -324.5t-173.5 -259t-265 -169.5t-332 -62zM840 182q264 0 430 171.5t166 443.5q0 202 -135.5 328t-352.5 126q-264 0 -430 -171t-166 -443
q0 -202 135.5 -328.5t352.5 -126.5z" />
    <glyph glyph-name="P" unicode="P" horiz-adv-x="1124" 
d="M756 1434q198 0 310 -100.5t112 -278.5q0 -199 -134.5 -316.5t-361.5 -117.5h-238q-33 0 -49 8l-6 -4q4 -11 -4 -52l-111 -573h-213l279 1434h416zM514 1241l-6 -4q2 -7 -4 -53l-60 -314q-5 -37 -16 -53l2 -4q21 8 53 8h201q126 0 196 60t70 166q0 88 -55.5 137
t-155.5 49h-176q-33 0 -49 8z" />
    <glyph glyph-name="Q" unicode="Q" horiz-adv-x="1662" 
d="M799 -10q-302 0 -488 185t-186 484q0 171 61.5 320.5t168.5 256t258.5 167.5t324.5 61q310 0 499 -177.5t189 -469.5q0 -252 -127 -410.5t-414 -267.5v-8q205 47 342 47h125l-34 -188h-719zM821 203q255 0 415.5 169t160.5 437q0 196 -130 319t-337 123
q-255 0 -415.5 -168.5t-160.5 -435.5q0 -197 130 -320.5t337 -123.5z" />
    <glyph glyph-name="R" unicode="R" horiz-adv-x="1210" 
d="M741 1434q211 0 326 -99t115 -272q0 -181 -125 -293.5t-326 -112.5q-15 0 -76 9l-2 -2q50 -29 81 -60.5t63 -85.5l311 -518h-256l-381 641h-27q-29 0 -45 8l-6 -4q4 -32 -4 -55l-115 -590h-213l279 1434h401zM514 1241l-6 -4q2 -7 -4 -53l-55 -291q-8 -35 -17 -51l4 -4
q19 8 51 8h226q110 0 172.5 54t62.5 151q0 88 -53 135t-150 47h-182q-33 0 -49 8z" />
    <glyph glyph-name="S" unicode="S" horiz-adv-x="1030" 
d="M485 -31q-139 0 -276 52.5t-238 144.5l131 182q91 -80 191 -123t194 -43q104 0 163 50t59 137q0 97 -119 204l-225 201q-156 138 -156 326q0 165 113 264.5t303 99.5q194 0 407 -135l-121 -190q-160 112 -295 112q-82 0 -130 -42t-48 -109q0 -83 109 -176l209 -185
q97 -86 140.5 -172t43.5 -190q0 -189 -121 -298.5t-334 -109.5z" />
    <glyph glyph-name="T" unicode="T" horiz-adv-x="1064" 
d="M1231 1434l-39 -205h-356q-34 0 -50 8l-6 -4q3 -17 -2 -51l-229 -1182h-213l229 1182q6 35 15 51l-2 4q-19 -8 -54 -8h-356l39 205h1024z" />
    <glyph glyph-name="U" unicode="U" horiz-adv-x="1411" 
d="M639 -31q-238 0 -369 120t-131 339q0 77 19 170l166 836h221l-170 -875q-10 -44 -10 -94q0 -131 78.5 -203t220.5 -72q163 0 268.5 95t140.5 274l170 875h221l-172 -881q-56 -286 -222 -435t-431 -149z" />
    <glyph glyph-name="V" unicode="V" horiz-adv-x="1312" 
d="M1499 1434l-926 -1452h-26l-361 1452h236l176 -803q17 -76 20.5 -148t-0.5 -127h9q65 171 129 275l487 803h256z" />
    <glyph glyph-name="W" unicode="W" horiz-adv-x="1949" 
d="M487 -20l-280 1454h225l123 -740q18 -111 18 -266h9q2 6 7 17q48 126 104 227l14 24l434 758h26l140 -758q11 -59 16 -109.5t5.5 -75.5t0.5 -83h8q58 152 121 266l410 740h248l-846 -1454h-25l-162 833q-14 78 -4 176h-8q-6 -33 -26 -84t-44 -92l-489 -833h-25z" />
    <glyph glyph-name="X" unicode="X" horiz-adv-x="1300" 
d="M1427 1434l-407 -480q-150 -177 -189 -206l-2 -9q41 -68 103 -200l256 -539h-242l-192 430q-52 114 -56 178h-8q-18 -49 -125 -178l-356 -430h-281l480 567q128 151 176 195l2 8q-9 13 -19 31t-18 35t-30 63t-40 84l-217 451h246l158 -361q34 -77 43.5 -105t15.5 -69h8
q23 51 123 172l301 363h270z" />
    <glyph glyph-name="Y" unicode="Y" horiz-adv-x="1148" 
d="M1325 1434l-627 -861l-110 -573h-213l110 573l-288 861h229l131 -451q29 -99 38.5 -143.5t10.5 -104.5h10q25 60 51 104t93 144l303 451h262z" />
    <glyph glyph-name="Z" unicode="Z" horiz-adv-x="1230" 
d="M1348 1434l2 -11l-1028 -1249l2 -6q28 20 71 28.5t140 8.5h614l-148 -205h-1067l-4 10l1026 1247l-2 7q-62 -35 -209 -35h-491l143 205h951z" />
    <glyph glyph-name="bracketleft" unicode="[" horiz-adv-x="714" 
d="M899 1534l-33 -162h-227q-55 0 -78 10l-2 -2q7 -31 -2 -75l-297 -1528q-11 -51 -27 -76l3 -2q23 10 81 10h228l-33 -164h-487l387 1989h487z" />
    <glyph glyph-name="backslash" unicode="\" horiz-adv-x="1234" 
d="M891 -207l-627 1720l160 64l629 -1722z" />
    <glyph glyph-name="bracketright" unicode="]" horiz-adv-x="712" 
d="M-160 -455l33 162h227q55 0 78 -10l2 2q-7 32 2 76l297 1528q10 50 27 75l-2 2q-22 -10 -82 -10h-227l32 164h488l-387 -1989h-488z" />
    <glyph glyph-name="asciicircum" unicode="^" 
d="M774 1464l295 -659h-164l-227 518l-227 -518h-164l295 659h192z" />
    <glyph glyph-name="underscore" unicode="_" horiz-adv-x="1091" 
d="M-109 -190l31 159h1051l-31 -159h-1051z" />
    <glyph glyph-name="grave" unicode="`" horiz-adv-x="645" 
d="M535 1448l137 -311l-4 -4h-138l-239 311l2 4h242z" />
    <glyph glyph-name="a" unicode="a" horiz-adv-x="1032" 
d="M369 -29q-149 0 -242.5 89t-93.5 229q0 158 101 251t274 93q117 0 202.5 -52t128.5 -149l6 2q-11 52 5 148q10 54 10 77q0 63 -49 97.5t-138 34.5q-127 0 -297 -39l-36 182q198 41 358 41q173 0 262.5 -72.5t89.5 -212.5q0 -42 -10 -104l-113 -586h-200q15 90 53 143
l-10 7q-63 -94 -134.5 -136.5t-166.5 -42.5zM442 133q100 0 170 49.5t70 120.5q0 69 -66.5 116.5t-164.5 47.5q-97 0 -152 -46.5t-55 -129.5q0 -72 53 -115t145 -43z" />
    <glyph glyph-name="b" unicode="b" horiz-adv-x="1200" 
d="M625 -31q-132 0 -224.5 62.5t-126.5 173.5l-8 -2q0 -53 -30 -203h-195l285 1464h200l-96 -495q-24 -115 -55 -197l6 -2q50 96 143 151.5t205 55.5q180 0 294 -127.5t114 -327.5q0 -236 -147 -394.5t-365 -158.5zM584 158q148 0 246 103.5t98 260.5q0 124 -71 195t-195 71
q-148 0 -246.5 -103.5t-98.5 -260.5q0 -123 72 -194.5t195 -71.5z" />
    <glyph glyph-name="c" unicode="c" horiz-adv-x="1001" 
d="M559 -31q-223 0 -357 129.5t-134 343.5q0 238 154 386.5t401 148.5q207 0 383 -123l-117 -162q-129 94 -279 94q-145 0 -237 -93.5t-92 -241.5q0 -130 78 -210.5t204 -80.5q112 0 236 65l82 -168q-163 -88 -322 -88z" />
    <glyph glyph-name="d" unicode="d" horiz-adv-x="1200" 
d="M471 -31q-180 0 -294 127.5t-114 327.5q0 236 147 394.5t365 158.5q130 0 222.5 -62.5t126.5 -173.5l8 2q-5 47 26 203l101 518h201l-285 -1464h-195q17 87 47 186l-6 2q-47 -101 -141 -160t-209 -59zM539 158q148 0 246 103.5t98 260.5q0 124 -71 195t-196 71
q-155 0 -249.5 -100t-94.5 -264q0 -123 72 -194.5t195 -71.5z" />
    <glyph glyph-name="e" unicode="e" horiz-adv-x="1099" 
d="M535 -31q-220 0 -346 119t-126 328q0 246 155.5 403.5t397.5 157.5q198 0 312 -104.5t114 -286.5q0 -55 -20 -152h-639q-95 0 -121 17l-6 -5l4 -16v-31q0 -116 71 -178.5t201 -62.5q90 0 165.5 33t160.5 110l119 -143q-109 -101 -211 -145t-231 -44zM283 565
q30 21 100 21h348q90 0 109 -19l6 4q-2 4 -2 11q0 109 -62 166t-182 57q-239 0 -319 -236z" />
    <glyph glyph-name="f" unicode="f" horiz-adv-x="661" 
d="M799 1452l-35 -186h-14q-90 0 -142.5 -47.5t-72.5 -147.5l-15 -70q-13 -55 -20 -67l6 -4q21 16 86 16h106l-36 -192h-107q-67 0 -80 16l-8 -4q2 -27 -12 -111l-127 -655h-201l127 655q9 56 29 111l-2 4q-27 -16 -91 -16h-84l37 192h84q65 0 84 -16l4 4q-3 20 4 63l21 113
q32 165 132 253.5t253 88.5h74z" />
    <glyph glyph-name="g" unicode="g" horiz-adv-x="1189" 
d="M434 -440q-135 0 -255.5 35.5t-203.5 99.5l129 172q160 -115 340 -115q136 0 222.5 65t111.5 187q22 113 49 182l-6 2q-47 -103 -141 -161t-211 -58q-178 0 -292 127.5t-114 327.5q0 154 67 281t184.5 199.5t260.5 72.5q132 0 223.5 -62t125.5 -174l8 2q-5 47 26 203h199
l-182 -944q-82 -442 -541 -442zM539 158q148 0 246 103.5t98 260.5q0 124 -71 195t-196 71q-148 0 -246 -103.5t-98 -260.5q0 -123 72 -194.5t195 -71.5z" />
    <glyph glyph-name="h" unicode="h" horiz-adv-x="1116" 
d="M526 1464l-100 -512q-25 -121 -59 -204l8 -3q65 120 151 176t207 56q146 0 222.5 -77.5t76.5 -223.5q0 -62 -20 -162l-103 -514h-200l100 518q10 44 10 92q0 89 -49 137t-141 48q-118 0 -191.5 -84t-107.5 -256l-88 -455h-201l285 1464h200z" />
    <glyph glyph-name="i" unicode="i" horiz-adv-x="466" 
d="M535 1434l-54 -271h-225l53 271h226zM426 946l-184 -946h-201l184 946h201z" />
    <glyph glyph-name="j" unicode="j" horiz-adv-x="466" 
d="M535 1434l-54 -271h-225l53 271h226zM426 946l-201 -1034q-36 -184 -143 -268t-279 -84h-34l38 196h15q94 0 141.5 45.5t69.5 157.5l192 987h201z" />
    <glyph glyph-name="k" unicode="k" horiz-adv-x="980" 
d="M526 1464l-145 -747q-22 -124 -53 -187l6 -2l432 418h274l-409 -373q-62 -55 -107 -79l-2 -7q36 -20 72 -69l295 -418h-248l-315 481l-9 -4q5 -55 -18 -182l-57 -295h-201l285 1464h200z" />
    <glyph glyph-name="l" unicode="l" horiz-adv-x="466" 
d="M526 1464l-284 -1464h-201l285 1464h200z" />
    <glyph glyph-name="m" unicode="m" horiz-adv-x="1650" 
d="M41 0l184 946h201q-22 -115 -61 -203l6 -4q60 123 139 180.5t188 57.5q114 0 182 -58.5t81 -168.5h8q103 227 319 227q132 0 204.5 -79t72.5 -222q0 -70 -15 -135l-108 -541h-201l102 526q11 62 11 88q0 84 -42 128t-122 44q-103 0 -164.5 -74t-93.5 -237l-92 -475h-195
l105 532q8 36 8 82q0 83 -43 127.5t-121 44.5q-101 0 -165 -76.5t-95 -234.5l-92 -475h-201z" />
    <glyph glyph-name="n" unicode="n" horiz-adv-x="1116" 
d="M41 0l184 946h201l-4 -22q-13 -99 -60 -195l9 -2q63 129 151 189.5t211 60.5q146 0 222.5 -77.5t76.5 -223.5q0 -62 -20 -162l-103 -514h-200l100 518q10 44 10 92q0 89 -49 137t-141 48q-118 0 -191.5 -84t-107.5 -256l-88 -455h-201z" />
    <glyph glyph-name="o" unicode="o" horiz-adv-x="1150" 
d="M526 -31q-213 0 -339 121.5t-126 325.5q0 160 73 288.5t202 200.5t289 72q213 0 339 -121.5t126 -325.5q0 -160 -73 -288.5t-202 -200.5t-289 -72zM545 166q148 0 242 99t94 253q0 123 -73 192.5t-202 69.5q-148 0 -242 -99t-94 -253q0 -123 73 -192.5t202 -69.5z" />
    <glyph glyph-name="p" unicode="p" horiz-adv-x="1202" 
d="M-39 -410l264 1356h201q-22 -106 -49 -174l6 -2q50 96 143 151.5t205 55.5q180 0 294 -127.5t114 -327.5q0 -236 -147 -394.5t-365 -158.5q-132 0 -224.5 62.5t-126.5 173.5l-8 -2q0 -63 -26 -203l-80 -410h-201zM586 158q148 0 246 103.5t98 260.5q0 124 -71 195
t-195 71q-148 0 -246.5 -103.5t-98.5 -260.5q0 -123 72 -194.5t195 -71.5z" />
    <glyph glyph-name="q" unicode="q" horiz-adv-x="1179" 
d="M694 -410l86 410q17 95 47 186l-6 2q-47 -101 -141 -160t-209 -59q-180 0 -294 127.5t-114 327.5q0 236 147 394.5t365 158.5q130 0 222.5 -62.5t126.5 -173.5l8 2q-5 47 26 203h201l-264 -1356h-201zM539 158q148 0 246 103.5t98 260.5q0 124 -71 195t-196 71
q-148 0 -246 -103.5t-98 -260.5q0 -123 72 -194.5t195 -71.5z" />
    <glyph glyph-name="r" unicode="r" horiz-adv-x="716" 
d="M41 0l184 946h201q-28 -132 -74 -250l10 -2q62 149 152.5 215t235.5 66q22 0 32 -2l-45 -232q-35 4 -78 4q-131 0 -218.5 -85.5t-118.5 -243.5l-80 -416h-201z" />
    <glyph glyph-name="s" unicode="s" horiz-adv-x="819" 
d="M88 281q149 -125 295 -125q58 0 92.5 25.5t34.5 68.5q0 28 -16.5 51t-59.5 55l-131 95q-151 109 -151 256q0 124 81.5 197t221.5 73q175 0 340 -109l-101 -161q-131 84 -225 84q-54 0 -83.5 -23.5t-29.5 -65.5q0 -30 18.5 -53t76.5 -65l114 -80q79 -57 115.5 -118.5
t36.5 -137.5q0 -133 -87 -206t-245 -73q-115 0 -223.5 41t-188.5 115z" />
    <glyph glyph-name="t" unicode="t" horiz-adv-x="643" 
d="M606 1452l-80 -410q-15 -79 -28 -108l6 -4q24 16 86 16h94l-37 -192h-94q-64 0 -80 16l-8 -4q2 -33 -12 -111l-127 -655h-201l127 655q12 69 29 111l-5 4q-24 -16 -88 -16h-82l37 192h82q66 0 82 -16l6 4q0 41 13 108l53 273l215 137h12z" />
    <glyph glyph-name="u" unicode="u" horiz-adv-x="1077" 
d="M1047 946l-185 -946h-198q25 123 61 197l-8 2q-70 -121 -150.5 -175.5t-189.5 -54.5q-138 0 -214.5 79t-76.5 222q0 59 16 152l105 524h201l-103 -518q-10 -58 -10 -92q0 -85 45.5 -130.5t130.5 -45.5q110 0 184 84t105 245l88 457h199z" />
    <glyph glyph-name="v" unicode="v" horiz-adv-x="985" 
d="M367 -10l-265 956h222l90 -407q1 -7 6 -29t6.5 -27t5 -23t4.5 -23t3.5 -19.5t2.5 -21.5t1.5 -20t1.5 -22.5v-22.5t-1 -26h9q22 63 43.5 105t74.5 129l250 407h246l-637 -956h-63z" />
    <glyph glyph-name="w" unicode="w" horiz-adv-x="1447" 
d="M315 -10l-202 956h213l69 -428q15 -89 15 -143h8q22 45 86 147l276 439h54l106 -439q22 -93 29 -147h8q20 59 67 143l238 428h238l-576 -956h-53l-121 477q-21 84 -14 139h-11q-20 -63 -69 -139l-305 -477h-56z" />
    <glyph glyph-name="x" unicode="x" horiz-adv-x="983" 
d="M1028 946l-362 -401q-45 -50 -64 -58l-2 -6q7 -2 12.5 -6.5t10.5 -11.5t7.5 -12t7.5 -15.5t7 -13.5l225 -422h-211l-127 260q-32 69 -37 101q-1 8 -1 16h-7q-10 -32 -27.5 -57.5t-56.5 -67.5l-229 -252h-246l408 453q43 49 67 59l3 6q-4 2 -8.5 5.5t-7.5 7t-7 10.5
l-6 10.5t-6.5 12t-5.5 11.5l-195 371h211l100 -196q37 -70 37 -132h4q17 42 33 65t53 65l174 198h246z" />
    <glyph glyph-name="y" unicode="y" horiz-adv-x="995" 
d="M1077 946l-835 -1358h-230l307 496l-217 862h224l98 -454q33 -149 22 -254l9 2q23 83 63 151l332 555h227z" />
    <glyph glyph-name="z" unicode="z" horiz-adv-x="929" 
d="M-76 0l-4 10l707 776l-4 7q-48 -24 -85 -30.5t-112 -6.5h-303l156 190h729l2 -8l-717 -778l4 -6q39 23 83.5 29.5t143.5 6.5h338l-153 -190h-785z" />
    <glyph glyph-name="braceleft" unicode="{" horiz-adv-x="802" 
d="M528 -455q-141 0 -224 73t-83 218q0 52 12 117l60 303q6 30 6 55q0 74 -55 107.5t-174 38.5l41 213q140 6 210.5 52t90.5 148l59 301q38 192 145.5 277.5t296.5 85.5h74l-33 -172h-39q-123 0 -180 -48t-78 -155l-53 -266q-30 -152 -114.5 -232.5t-243.5 -93.5v-8
q125 -10 184 -64.5t59 -156.5q0 -46 -12 -105l-61 -313q-6 -35 -6 -63q0 -66 42.5 -102t143.5 -36h39l-33 -174h-74z" />
    <glyph glyph-name="bar" unicode="|" horiz-adv-x="622" 
d="M45 -457l379 1946h170l-379 -1946h-170z" />
    <glyph glyph-name="braceright" unicode="}" horiz-adv-x="802" 
d="M301 1534q141 0 224 -73t83 -218q0 -53 -12 -117l-59 -303q-7 -35 -7 -55q0 -74 55 -107t175 -38l-41 -213q-139 -6 -210 -52.5t-91 -148.5l-60 -301q-38 -192 -145.5 -277.5t-296.5 -85.5h-74l33 172h39q123 0 180 48t78 155l53 266q30 152 115 232.5t244 93.5v8
q-125 10 -184.5 64.5t-59.5 156.5q0 47 12 105l62 313q6 35 6 64q0 66 -42.5 101.5t-144.5 35.5h-38l32 174h74z" />
    <glyph glyph-name="asciitilde" unicode="~" 
d="M424 752q53 0 102.5 -13.5t88 -32t75.5 -37.5t80.5 -32.5t87.5 -13.5q66 0 115 26t110 78l99 -137q-162 -146 -330 -146q-54 0 -103.5 13.5t-88 32t-75.5 37.5t-80 32.5t-87 13.5q-68 0 -118 -26t-110 -78l-98 135q167 148 332 148z" />
    <glyph glyph-name="exclamdown" unicode="&#xa1;" horiz-adv-x="659" 
d="M541 979l-49 -254h-234l49 254h234zM25 -455l249 1000h140l-140 -1000h-249z" />
    <glyph glyph-name="cent" unicode="&#xa2;" horiz-adv-x="1001" 
d="M426 -135l8 45q10 49 23 74l-2 4q-38 -5 -82 10q-142 48 -223.5 164.5t-81.5 279.5q0 216 130.5 364t358.5 169q48 5 86 -6l4 2q-3 25 6 65l9 47h61l-10 -51q-9 -40 -19 -61l2 -4q28 4 54 0q138 -25 256 -113l-117 -166q-86 59 -164 80q-40 9 -63 20l-3 -2q2 -20 -4 -55
l-100 -512q-12 -48 -16 -57l2 -2l57 6q99 9 201 63l82 -172q-155 -88 -322 -88q-32 0 -55 8l-2 -2q2 -27 -6 -63l-9 -47h-61zM483 166l4 2q3 32 9 57l98 510q5 28 14 51l-2 2q-11 -4 -42 -8.5t-34 -5.5q-120 -25 -184.5 -116.5t-64.5 -206.5q0 -89 37 -154t102 -100
q10 -5 31 -15t32 -16z" />
    <glyph glyph-name="sterling" unicode="&#xa3;" horiz-adv-x="1110" 
d="M621 -29q-73 0 -177 36t-149 36q-61 0 -182 -53l-70 166q62 30 114.5 65t100 82t75 107t27.5 127q0 34 -8 70t-16 57t-25 63h-172l13 61h94q31 0 51 -10l2 2q-17 17 -25 37q-28 86 -28 168q0 85 29.5 161t85.5 136.5t147.5 95.5t206.5 35q126 0 223 -41t184 -110
l-125 -164q-151 119 -290 119q-116 0 -182 -68.5t-66 -165.5q0 -67 51 -195h362l-12 -61h-282q-34 0 -56 12l-2 -2q15 -15 25 -45q28 -82 28 -145q0 -32 -7 -61.5t-16.5 -52t-29 -47t-34 -40t-42.5 -38t-43.5 -33.5t-49 -34t-46.5 -32l2 -8q53 20 101 20q58 0 121.5 -30.5
t113.5 -30.5q67 0 126 33t122 96l92 -158q-186 -160 -362 -160z" />
    <glyph glyph-name="currency" unicode="&#xa4;" 
d="M1128 662q0 -191 -118 -318l116 -119l-43 -39l-114 117q-134 -115 -322 -115q-184 0 -321 115l-117 -117l-37 41l115 115q-121 134 -121 324q0 188 121 319l-115 115l41 41l115 -115q132 113 319 113q188 0 322 -115l116 117l41 -41l-116 -117q118 -131 118 -321z
M647 367q130 0 211.5 83.5t81.5 211.5q0 131 -81 215t-210 84q-130 0 -212.5 -83.5t-82.5 -211.5q0 -129 83 -214t210 -85z" />
    <glyph glyph-name="yen" unicode="&#xa5;" horiz-adv-x="1134" 
d="M377 0l92 479h-365l13 62h289q34 0 61 -6l2 4q-10 16 -20 47l-21 69h-289l13 62h202q33 0 60 -8l4 4q-13 27 -25 63l-176 606h223l133 -571q20 -89 17 -143h8q14 48 72 143l356 571h244l-418 -616q-24 -34 -41 -49l2 -4q27 4 59 4h205l-12 -62h-287l-49 -71
q-33 -40 -39 -45l2 -4q27 6 60 6h290l-12 -62h-364l-93 -479h-196z" />
    <glyph glyph-name="brokenbar" unicode="&#xa6;" horiz-adv-x="622" 
d="M266 680l158 809h170l-158 -809h-170zM377 373l-162 -830h-170l162 830h170z" />
    <glyph glyph-name="section" unicode="&#xa7;" horiz-adv-x="1058" 
d="M489 1135q0 -45 28.5 -80.5t74.5 -61t101 -51t110.5 -58t101.5 -73t74.5 -105t28.5 -145.5q0 -70 -20.5 -126t-59.5 -97.5t-83 -70.5t-104 -56q72 -82 72 -201q0 -70 -24 -129.5t-71.5 -106.5t-127.5 -73.5t-184 -26.5q-215 0 -406 115l119 172q135 -96 291 -96
q94 0 146 37t52 100q0 44 -28.5 79.5t-74.5 61.5t-101 51.5t-110 58.5t-101 73.5t-74.5 105.5t-28.5 146q0 70 20.5 126t59.5 97.5t82.5 70.5t103.5 56q-71 81 -71 200q0 70 24 129.5t71.5 106.5t127.5 73.5t184 26.5q217 0 406 -114l-119 -172q-135 96 -291 96
q-94 0 -146.5 -37.5t-52.5 -101.5zM612 311q189 87 189 234q0 38 -14 70t-34.5 54t-56 45.5t-64 38t-74.5 37t-73 37.5q-188 -87 -188 -233q0 -38 14 -70t34.5 -54.5t56 -46t63.5 -38t74 -37t73 -37.5z" />
    <glyph glyph-name="dieresis" unicode="&#xa8;" horiz-adv-x="751" 
d="M473 1434l-49 -250h-184l49 250h184zM836 1434l-50 -250h-186l49 250h187z" />
    <glyph glyph-name="copyright" unicode="&#xa9;" horiz-adv-x="1738" 
d="M918 1464q154 0 292.5 -57t239.5 -155.5t160 -238.5t59 -298q0 -209 -100 -380.5t-272 -268.5t-379 -97q-206 0 -378 97t-273 269.5t-101 383.5q0 209 100.5 380.5t272.5 268t379 96.5zM918 1352q-173 0 -317.5 -81.5t-229 -227t-84.5 -324.5q0 -182 85 -328.5
t229 -227.5t317 -81t317.5 81.5t228.5 227t84 324.5q0 136 -49.5 255.5t-134.5 202.5t-201 131t-245 48zM924 1192q174 0 311 -100l-72 -131q-36 23 -62.5 36.5t-77.5 28t-103 14.5q-138 0 -224 -87t-86 -224q0 -142 86.5 -229.5t223.5 -87.5q52 0 103 15t77 28.5t63 36.5
l72 -132q-143 -98 -311 -98q-205 0 -340 133.5t-135 333.5q0 197 135 330t340 133z" />
    <glyph glyph-name="ordfeminine" unicode="&#xaa;" horiz-adv-x="823" 
d="M406 692q-111 0 -173.5 58t-62.5 155q0 104 75.5 167t192.5 63q86 0 148.5 -34.5t85.5 -96.5l6 4q0 11 6 41q4 46 4 63q0 49 -30 74.5t-103 25.5q-62 0 -199 -28l-24 143q165 33 274 33q123 0 188.5 -49t65.5 -170q0 -60 -14 -131l-60 -297h-180q14 78 45 131l-6 4
q-44 -77 -98.5 -116.5t-140.5 -39.5zM485 829q57 0 94 29.5t37 73.5q0 39 -29.5 62.5t-82.5 23.5q-57 0 -94 -28t-37 -72q0 -39 29.5 -64t82.5 -25z" />
    <glyph glyph-name="guillemotleft" unicode="&#xab;" horiz-adv-x="913" 
d="M631 856l-2 -8l-236 -256q-76 -84 -105 -111.5t-50 -38.5v-8q13 -9 27.5 -32.5t68.5 -118.5l121 -211l-2 -9h-197l-217 396l373 397h219zM967 856l-2 -8l-236 -256q-75 -83 -104.5 -111t-51.5 -39v-8q13 -9 29.5 -34.5t67.5 -116.5l121 -211l-3 -9h-196l-217 396l373 397
h219z" />
    <glyph glyph-name="logicalnot" unicode="&#xac;" 
d="M174 885h936v-92v-451h-90v451h-846v92z" />
    <glyph glyph-name="uni00AD" unicode="&#xad;" horiz-adv-x="813" 
d="M754 643l-37 -190h-629l37 190h629z" />
    <glyph glyph-name="registered" unicode="&#xae;" horiz-adv-x="1177" 
d="M690 1464q201 0 338 -137.5t137 -339.5q0 -201 -137 -338t-338 -137q-203 0 -340 136.5t-137 340.5q0 201 137.5 338t339.5 137zM690 1370q-158 0 -267.5 -109.5t-109.5 -271.5q0 -163 109.5 -273t267.5 -110q156 0 265.5 109.5t109.5 271.5q0 163 -110 273t-265 110z
M725 1270q68 0 114 -43t46 -107q0 -62 -44 -107.5t-106 -45.5v-6q32 -14 56 -41l141 -156v-10h-117l-182 209h-23l2 -209h-94v516h207zM719 1182h-107v-131h109q29 0 47 18t18 45q0 29 -19.5 48.5t-47.5 19.5z" />
    <glyph glyph-name="macron" unicode="&#xaf;" horiz-adv-x="800" 
d="M874 1374l-28 -143h-596l29 143h595z" />
    <glyph glyph-name="degree" unicode="&#xb0;" horiz-adv-x="741" 
d="M502 1413q120 0 200 -79t80 -204q0 -120 -80 -198t-200 -78q-124 0 -204.5 78.5t-80.5 202.5q0 121 80 199.5t205 78.5zM502 1319q-79 0 -134 -52t-55 -132q0 -83 55 -136t132 -53q79 0 132.5 53t53.5 134q0 83 -53 134.5t-131 51.5z" />
    <glyph glyph-name="plusminus" unicode="&#xb1;" 
d="M668 1069v-283h440l2 -94h-440v-282h-97v282h-440l-2 94h440v283h97zM1110 313l-2 -90h-977l2 90h977z" />
    <glyph glyph-name="uni00B2" unicode="&#xb2;" horiz-adv-x="843" 
d="M74 713l-4 12l505 473q67 63 102.5 108.5t35.5 86.5q0 38 -29.5 61t-79.5 23q-104 0 -246 -93l-90 140q185 123 361 123q132 0 204 -59.5t72 -164.5q0 -79 -43.5 -146t-150.5 -171l-174 -168q-38 -38 -97 -76l2 -2q46 14 164 14h238l4 -10l-129 -151h-645z" />
    <glyph glyph-name="uni00B3" unicode="&#xb3;" horiz-adv-x="827" 
d="M481 694q-78 0 -165 15.5t-142 46.5l76 166q114 -56 231 -56q92 0 143.5 35.5t51.5 95.5q0 59 -59.5 88t-196.5 29l31 160q117 0 183 30.5t66 90.5q0 42 -32.5 63t-83.5 21q-90 0 -224 -52l-63 156q168 64 315 64q141 0 214 -59t73 -156q0 -140 -170 -199
q-62 -19 -84 -21v-6q50 -4 78 -12q64 -19 100.5 -72.5t36.5 -130.5q0 -124 -95 -210.5t-284 -86.5z" />
    <glyph glyph-name="acute" unicode="&#xb4;" horiz-adv-x="645" 
d="M731 1448v-4l-360 -311h-138l-2 4l254 311h246z" />
    <glyph glyph-name="uni00B5" unicode="&#xb5;" horiz-adv-x="1077" 
d="M848 946h199l-185 -946h-198q25 123 61 197l-8 2q-70 -121 -150.5 -175.5t-189.5 -54.5q-95 0 -162 39l-82 -418h-190l151 781q6 42 8 51l105 524h201l-103 -518q-10 -58 -10 -92q0 -85 45.5 -130.5t130.5 -45.5q110 0 184 84t105 245z" />
    <glyph glyph-name="paragraph" unicode="&#xb6;" horiz-adv-x="1273" 
d="M1358 1434l-31 -152h-121l-293 -1499h-161l292 1499h-215l-290 -1499h-162l166 852q-146 0 -237 103.5t-91 265.5q0 196 137 313t367 117h639z" />
    <glyph glyph-name="periodcentered" unicode="&#xb7;" horiz-adv-x="438" 
d="M145 692l50 254h233l-49 -254h-234z" />
    <glyph glyph-name="cedilla" unicode="&#xb8;" horiz-adv-x="518" 
d="M197 59l-72 -129q73 -22 115.5 -52.5t42.5 -80.5q0 -22 -7.5 -43t-25.5 -41t-34.5 -35.5t-47.5 -34t-50 -30t-57 -28.5t-54.5 -24.5t-55.5 -23.5l-19 66q116 59 144 83q30 25 30 48q0 49 -129 80l138 245h82z" />
    <glyph glyph-name="uni00B9" unicode="&#xb9;" horiz-adv-x="589" 
d="M305 713l103 526q13 63 30 92l-4 4q-21 -21 -55 -35l-148 -63l35 174l207 121l47 94h139l-178 -913h-176z" />
    <glyph glyph-name="ordmasculine" unicode="&#xba;" horiz-adv-x="892" 
d="M524 692q-151 0 -242.5 82t-91.5 221q0 155 109 260t285 105q151 0 242.5 -82t91.5 -221q0 -155 -109 -260t-285 -105zM532 850q94 0 149.5 60t55.5 141q0 72 -44 111.5t-118 39.5q-94 0 -149 -60t-55 -141q0 -72 43.5 -111.5t117.5 -39.5z" />
    <glyph glyph-name="guillemotright" unicode="&#xbb;" horiz-adv-x="909" 
d="M-59 63l2 9l235 256q74 82 104 109.5t52 39.5v8q-13 8 -27 31t-69 121l-121 211l2 8h196l217 -395l-372 -398h-219zM274 63l2 9l236 256q74 82 104 109.5t52 39.5v8q-13 9 -28.5 34t-68.5 118l-120 211l2 8h196l217 -395l-372 -398h-220z" />
    <glyph glyph-name="onequarter" unicode="&#xbc;" horiz-adv-x="1415" 
d="M86 0l1012 1382h116l-1011 -1382h-117zM258 592l98 504q7 42 29 71l-4 2q-5 -5 -11 -8.5t-18 -8.5t-20 -9l-144 -68l21 107l188 104l39 96h82l-153 -790h-107zM1016 0l20 104q4 24 13 39l-2 2q-12 -4 -39 -4h-402l17 80l532 570h119l-100 -515q-4 -25 -15 -43h2
q20 5 31 5h106l-59 -97h-63q-25 0 -33 4l-2 -2q4 -15 0 -34l-21 -109h-104zM756 231q14 7 57 7h197q29 0 57 -7l4 2q-6 19 2 52l51 274q17 87 29 117l-2 2q-18 -31 -66 -84l-297 -328q-24 -24 -34 -30z" />
    <glyph glyph-name="onehalf" unicode="&#xbd;" horiz-adv-x="1402" 
d="M86 0l1012 1382h116l-1011 -1382h-117zM258 592l98 504q7 42 29 71l-4 2q-5 -5 -11 -8.5t-18 -8.5t-20 -9l-144 -68l21 107l188 104l39 96h82l-153 -790h-107zM645 0l-4 12l401 389q70 68 108 119t38 98q0 43 -29 66t-82 23q-99 0 -213 -64l-43 90q142 76 264 76
q102 0 158.5 -47t56.5 -133q0 -73 -36.5 -127t-132.5 -151l-5.5 -5.5l-4.5 -4.5l-5.5 -5.5l-5.5 -5.5l-180 -183q-15 -15 -86 -61l2 -2q8 4 18.5 6.5t26 3t26 1t32 0t32.5 -0.5h256l-76 -94h-516z" />
    <glyph glyph-name="threequarters" unicode="&#xbe;" horiz-adv-x="1648" 
d="M410 573q-60 0 -130 15.5t-122 44.5l53 98q112 -55 205 -55q94 0 143 37t49 102q0 137 -237 137l20 105q121 0 189.5 38.5t68.5 106.5q0 94 -139 94q-90 0 -201 -49l-39 94q136 60 254 60q114 0 177 -50.5t63 -140.5q0 -92 -67.5 -141t-180.5 -57v-4q203 -7 203 -191
q0 -108 -74 -176t-235 -68zM319 0l1012 1382h117l-1012 -1382h-117zM1249 0l21 104q4 26 12 39l-2 2q-12 -4 -39 -4h-401l16 80l533 570h118l-100 -515q-5 -27 -14 -43h2q20 5 30 5h107l-59 -97h-64q-25 0 -33 4l-2 -2q4 -15 0 -34l-20 -109h-105zM989 231q14 7 58 7h196
q29 0 57 -7l5 2q-6 19 2 52l51 274q18 92 28 117l-2 2q-20 -34 -65 -84l-297 -328q-22 -22 -35 -30z" />
    <glyph glyph-name="questiondown" unicode="&#xbf;" horiz-adv-x="714" 
d="M678 979l-49 -254h-234l49 254h234zM221 -485q-142 0 -217.5 61t-75.5 178q0 81 37 146t121 133l123 100q61 51 83.5 83t22.5 67q0 69 -104 143l135 154q83 -57 129.5 -133t46.5 -156q0 -70 -37.5 -132.5t-122.5 -133.5l-118 -99q-56 -46 -77.5 -76.5t-21.5 -64.5
q0 -37 27 -57.5t76 -20.5q99 0 282 94l80 -180q-125 -57 -214 -81.5t-175 -24.5z" />
    <glyph glyph-name="Agrave" unicode="&#xc0;" horiz-adv-x="1425" 
d="M852 1747l135 -221l-4 -4h-135l-223 219l4 6h223zM-72 0l967 1464h20l398 -1464h-219l-99 377h-571l-236 -377h-260zM524 555q36 4 115 4h207q77 0 117 -4l2 2q-27 45 -43 117l-54 248q-22 110 -16 163h-12q-12 -52 -80 -163l-150 -248q-47 -76 -88 -117z" />
    <glyph glyph-name="Aacute" unicode="&#xc1;" horiz-adv-x="1425" 
d="M1290 1747v-6l-307 -219h-135l-2 4l221 221h223zM-72 0l967 1464h20l398 -1464h-219l-99 377h-571l-236 -377h-260zM524 555q36 4 115 4h207q77 0 117 -4l2 2q-27 45 -43 117l-54 248q-22 110 -16 163h-12q-12 -52 -80 -163l-150 -248q-47 -76 -88 -117z" />
    <glyph glyph-name="Acircumflex" unicode="&#xc2;" horiz-adv-x="1425" 
d="M578 1522l2 8l276 237h213l186 -237l-2 -8h-170l-43 47q-43 48 -57.5 76t-13.5 65h-8q-13 -38 -39.5 -67t-87.5 -74l-64 -47h-192zM-72 0l967 1464h20l398 -1464h-219l-99 377h-571l-236 -377h-260zM524 555q36 4 115 4h207q77 0 117 -4l2 2q-27 45 -43 117l-54 248
q-22 110 -16 163h-12q-12 -52 -80 -163l-150 -248q-47 -76 -88 -117z" />
    <glyph glyph-name="Atilde" unicode="&#xc3;" horiz-adv-x="1425" 
d="M1092 1522q-53 0 -109.5 22t-106 44t-85.5 22q-67 0 -127 -84l-78 22q85 219 243 219q53 0 109.5 -22t106 -44t85.5 -22q67 0 127 84l78 -22q-85 -219 -243 -219zM-72 0l967 1464h20l398 -1464h-219l-99 377h-571l-236 -377h-260zM524 555q36 4 115 4h207q77 0 117 -4
l2 2q-27 45 -43 117l-54 248q-22 110 -16 163h-12q-12 -52 -80 -163l-150 -248q-47 -76 -88 -117z" />
    <glyph glyph-name="Adieresis" unicode="&#xc4;" horiz-adv-x="1425" 
d="M684 1749h184l-45 -227h-184zM1036 1749h187l-45 -227h-187zM-72 0l967 1464h20l398 -1464h-219l-99 377h-571l-236 -377h-260zM524 555q36 4 115 4h207q77 0 117 -4l2 2q-27 45 -43 117l-54 248q-22 110 -16 163h-12q-12 -52 -80 -163l-150 -248q-47 -76 -88 -117z" />
    <glyph glyph-name="Aring" unicode="&#xc5;" horiz-adv-x="1425" 
d="M940 1372l373 -1372h-219l-99 377h-571l-236 -377h-260l908 1374q-74 17 -115 71.5t-41 133.5q0 113 76.5 190.5t197.5 77.5q102 0 158.5 -58t56.5 -153q0 -101 -63 -176t-166 -88zM782 1583q0 -55 32 -87t91 -32q78 0 120 51.5t42 116.5q0 55 -32 87t-91 32
q-78 0 -120 -51.5t-42 -116.5zM963 555l2 2q-27 45 -43 117l-54 248q-22 110 -16 163h-12q-12 -52 -80 -163l-150 -248q-47 -76 -88 -117l2 -2q36 4 115 4h207q77 0 117 -4z" />
    <glyph glyph-name="AE" unicode="&#xc6;" horiz-adv-x="1810" 
d="M1438 1231q-33 0 -49 8l-7 -4q4 -18 -4 -53l-49 -254q-5 -33 -16 -51l4 -5q21 9 53 9h442l-40 -203h-443q-30 0 -49 8l-4 -4q2 -11 -4 -53l-74 -377q-5 -35 -16 -53l2 -4q21 8 53 8h500l-39 -203h-752l64 328q6 36 16 53l-2 4q-21 -8 -53 -8h-473l-312 -377h-258
l1215 1434h825l-39 -203h-491zM1006 559q36 0 49 -8l6 4q-2 12 4 51l96 494q8 46 43 160h-2q-56 -102 -104 -160l-381 -455q-31 -38 -51 -57.5t-50 -36.5l2 -4q37 12 103 12h285z" />
    <glyph glyph-name="Ccedilla" unicode="&#xc7;" horiz-adv-x="1398" 
d="M944 1249q-255 0 -423.5 -171.5t-168.5 -430.5q0 -214 123.5 -338.5t335.5 -124.5q177 0 354 115l115 -178q-229 -152 -485 -152h-35l-23 -39q73 -22 115.5 -52.5t42.5 -80.5q0 -22 -7.5 -43t-25.5 -41t-34.5 -35.5t-47.5 -34t-50 -30t-57 -28.5t-54.5 -24.5t-55.5 -23.5
l-18 66q116 59 144 83q29 26 30 48q0 49 -129 80l90 163q-257 34 -408 211.5t-151 450.5q0 237 108.5 425.5t302 294t437.5 105.5q283 0 485 -164l-133 -180q-175 129 -377 129z" />
    <glyph glyph-name="Egrave" unicode="&#xc8;" horiz-adv-x="1056" 
d="M729 1747l135 -221l-4 -4h-135l-223 219l4 6h223zM1153 1434l-39 -201h-551q-33 0 -49 8l-6 -4q4 -18 -4 -53l-49 -256q-5 -31 -17 -51l4 -5q21 9 54 9h483l-39 -201h-483q-32 0 -51 8l-5 -4q2 -12 -4 -53l-73 -381q-9 -39 -17 -53l2 -4q21 8 53 8h560l-39 -201h-822
l279 1434h813z" />
    <glyph glyph-name="Eacute" unicode="&#xc9;" horiz-adv-x="1056" 
d="M1167 1747v-6l-307 -219h-135l-2 4l221 221h223zM1153 1434l-39 -201h-551q-33 0 -49 8l-6 -4q4 -18 -4 -53l-49 -256q-5 -31 -17 -51l4 -5q21 9 54 9h483l-39 -201h-483q-32 0 -51 8l-5 -4q2 -12 -4 -53l-73 -381q-9 -39 -17 -53l2 -4q21 8 53 8h560l-39 -201h-822
l279 1434h813z" />
    <glyph glyph-name="Ecircumflex" unicode="&#xca;" horiz-adv-x="1056" 
d="M455 1522l2 8l276 237h213l187 -237l-3 -8h-169l-43 47q-43 48 -58 76t-14 65h-8q-13 -38 -39.5 -67t-87.5 -74l-64 -47h-192zM1153 1434l-39 -201h-551q-33 0 -49 8l-6 -4q4 -18 -4 -53l-49 -256q-5 -31 -17 -51l4 -5q21 9 54 9h483l-39 -201h-483q-32 0 -51 8l-5 -4
q2 -12 -4 -53l-73 -381q-9 -39 -17 -53l2 -4q21 8 53 8h560l-39 -201h-822l279 1434h813z" />
    <glyph glyph-name="Edieresis" unicode="&#xcb;" horiz-adv-x="1056" 
d="M561 1749h184l-45 -227h-184zM913 1749h187l-45 -227h-187zM1153 1434l-39 -201h-551q-33 0 -49 8l-6 -4q4 -18 -4 -53l-49 -256q-5 -31 -17 -51l4 -5q21 9 54 9h483l-39 -201h-483q-32 0 -51 8l-5 -4q2 -12 -4 -53l-73 -381q-9 -39 -17 -53l2 -4q21 8 53 8h560l-39 -201
h-822l279 1434h813z" />
    <glyph glyph-name="Igrave" unicode="&#xcc;" horiz-adv-x="524" 
d="M401 1747l136 -221l-5 -4h-135l-223 219l4 6h223zM557 1434l-278 -1434h-218l279 1434h217z" />
    <glyph glyph-name="Iacute" unicode="&#xcd;" horiz-adv-x="524" 
d="M840 1747v-6l-308 -219h-135l-2 4l221 221h224zM557 1434l-278 -1434h-218l279 1434h217z" />
    <glyph glyph-name="Icircumflex" unicode="&#xce;" horiz-adv-x="524" 
d="M127 1522l2 8l277 237h212l187 -237l-2 -8h-170l-43 47q-43 48 -58 76t-14 65h-8q-13 -38 -39.5 -67t-87.5 -74l-64 -47h-192zM557 1434l-278 -1434h-218l279 1434h217z" />
    <glyph glyph-name="Idieresis" unicode="&#xcf;" horiz-adv-x="524" 
d="M233 1749h185l-45 -227h-185zM586 1749h186l-45 -227h-186zM557 1434l-278 -1434h-218l279 1434h217z" />
    <glyph glyph-name="Eth" unicode="&#xd0;" horiz-adv-x="1521" 
d="M866 1434q290 0 460.5 -169.5t170.5 -461.5q0 -180 -63 -329t-178.5 -254t-286.5 -162.5t-381 -57.5h-432l114 594q6 35 15 51l-2 4q-21 -8 -54 -8h-196l37 190h196q33 0 49 -8l7 4q-2 12 4 52l32 168l76 387h432zM653 201q175 0 314.5 72.5t221 211.5t81.5 320
q0 205 -113.5 316.5t-306.5 111.5h-193q-33 0 -49 8l-6 -4q4 -19 -4 -51l-27 -139l-32 -168q-5 -32 -17 -52l2 -4q21 8 54 8h311l-37 -190h-311q-33 0 -49 8l-7 -4q3 -17 -2 -51l-65 -346q-5 -31 -17 -51l2 -4q21 8 54 8h196z" />
    <glyph glyph-name="Ntilde" unicode="&#xd1;" horiz-adv-x="1511" 
d="M1112 1522q-53 0 -109.5 22t-106 44t-85.5 22q-67 0 -127 -84l-78 22q85 219 244 219q53 0 109.5 -22t106 -44t85.5 -22q67 0 127 84l78 -22q-85 -219 -244 -219zM362 1454l699 -889q62 -79 84 -159l6 2q-6 75 29 258l151 768h213l-282 -1454h-19l-698 888
q-61 78 -84 160l-6 -2q6 -76 -29 -256l-152 -770h-213l283 1454h18z" />
    <glyph glyph-name="Ograve" unicode="&#xd2;" horiz-adv-x="1693" 
d="M915 1747l136 -221l-4 -4h-136l-223 219l4 6h223zM831 -31q-319 0 -513.5 187t-194.5 493q0 231 107.5 417.5t298.5 292t427 105.5q319 0 514 -187t195 -493q0 -173 -63.5 -324.5t-173.5 -259t-265 -169.5t-332 -62zM840 182q264 0 430 171.5t166 443.5q0 202 -135.5 328
t-352.5 126q-264 0 -430 -171t-166 -443q0 -202 135.5 -328.5t352.5 -126.5z" />
    <glyph glyph-name="Oacute" unicode="&#xd3;" horiz-adv-x="1693" 
d="M1354 1747v-6l-307 -219h-136l-2 4l221 221h224zM831 -31q-319 0 -513.5 187t-194.5 493q0 231 107.5 417.5t298.5 292t427 105.5q319 0 514 -187t195 -493q0 -173 -63.5 -324.5t-173.5 -259t-265 -169.5t-332 -62zM840 182q264 0 430 171.5t166 443.5q0 202 -135.5 328
t-352.5 126q-264 0 -430 -171t-166 -443q0 -202 135.5 -328.5t352.5 -126.5z" />
    <glyph glyph-name="Ocircumflex" unicode="&#xd4;" horiz-adv-x="1693" 
d="M641 1522l2 8l277 237h213l186 -237l-2 -8h-170l-43 47q-43 48 -58 76t-14 65h-8q-13 -38 -39.5 -67t-87.5 -74l-63 -47h-193zM831 -31q-319 0 -513.5 187t-194.5 493q0 231 107.5 417.5t298.5 292t427 105.5q319 0 514 -187t195 -493q0 -173 -63.5 -324.5t-173.5 -259
t-265 -169.5t-332 -62zM840 182q264 0 430 171.5t166 443.5q0 202 -135.5 328t-352.5 126q-264 0 -430 -171t-166 -443q0 -202 135.5 -328.5t352.5 -126.5z" />
    <glyph glyph-name="Otilde" unicode="&#xd5;" horiz-adv-x="1693" 
d="M1155 1522q-53 0 -109.5 22t-106 44t-85.5 22q-67 0 -127 -84l-78 22q85 219 244 219q53 0 109.5 -22t106 -44t85.5 -22q67 0 127 84l78 -22q-85 -219 -244 -219zM831 -31q-319 0 -513.5 187t-194.5 493q0 231 107.5 417.5t298.5 292t427 105.5q319 0 514 -187t195 -493
q0 -173 -63.5 -324.5t-173.5 -259t-265 -169.5t-332 -62zM840 182q264 0 430 171.5t166 443.5q0 202 -135.5 328t-352.5 126q-264 0 -430 -171t-166 -443q0 -202 135.5 -328.5t352.5 -126.5z" />
    <glyph glyph-name="Odieresis" unicode="&#xd6;" horiz-adv-x="1693" 
d="M748 1749h184l-45 -227h-185zM1100 1749h186l-45 -227h-186zM831 -31q-319 0 -513.5 187t-194.5 493q0 231 107.5 417.5t298.5 292t427 105.5q319 0 514 -187t195 -493q0 -173 -63.5 -324.5t-173.5 -259t-265 -169.5t-332 -62zM840 182q264 0 430 171.5t166 443.5
q0 202 -135.5 328t-352.5 126q-264 0 -430 -171t-166 -443q0 -202 135.5 -328.5t352.5 -126.5z" />
    <glyph glyph-name="multiply" unicode="&#xd7;" 
d="M1012 1053l67 -72l-370 -371l370 -370l-67 -70l-371 373l-373 -375l-69 72l370 372l-368 369l65 72l375 -375z" />
    <glyph glyph-name="Oslash" unicode="&#xd8;" horiz-adv-x="1693" 
d="M1470 1276q195 -186 195 -492q0 -173 -63.5 -324.5t-173.5 -259t-265 -169.5t-332 -62q-260 0 -446 131l-125 -137l-61 51l125 136q-201 192 -201 499q0 231 107.5 417.5t298.5 292t427 105.5q270 0 455 -137l125 135l59 -51zM352 637q0 -196 127 -320l778 844
q-129 90 -309 90q-264 0 -430 -171t-166 -443zM840 182q264 0 430 171.5t166 443.5q0 188 -119 313l-776 -844q127 -84 299 -84z" />
    <glyph glyph-name="Ugrave" unicode="&#xd9;" horiz-adv-x="1411" 
d="M831 1747l136 -221l-4 -4h-136l-223 219l4 6h223zM639 -31q-238 0 -369 120t-131 339q0 77 19 170l166 836h221l-170 -875q-10 -44 -10 -94q0 -131 78.5 -203t220.5 -72q163 0 268.5 95t140.5 274l170 875h221l-172 -881q-56 -286 -222 -435t-431 -149z" />
    <glyph glyph-name="Uacute" unicode="&#xda;" horiz-adv-x="1411" 
d="M1270 1747v-6l-307 -219h-136l-2 4l222 221h223zM639 -31q-238 0 -369 120t-131 339q0 77 19 170l166 836h221l-170 -875q-10 -44 -10 -94q0 -131 78.5 -203t220.5 -72q163 0 268.5 95t140.5 274l170 875h221l-172 -881q-56 -286 -222 -435t-431 -149z" />
    <glyph glyph-name="Ucircumflex" unicode="&#xdb;" horiz-adv-x="1411" 
d="M557 1522l2 8l277 237h213l186 -237l-2 -8h-170l-43 47q-43 48 -58 76t-14 65h-8q-13 -38 -39.5 -67t-87.5 -74l-63 -47h-193zM639 -31q-238 0 -369 120t-131 339q0 77 19 170l166 836h221l-170 -875q-10 -44 -10 -94q0 -131 78.5 -203t220.5 -72q163 0 268.5 95
t140.5 274l170 875h221l-172 -881q-56 -286 -222 -435t-431 -149z" />
    <glyph glyph-name="Udieresis" unicode="&#xdc;" horiz-adv-x="1411" 
d="M664 1749h184l-45 -227h-185zM1016 1749h186l-45 -227h-186zM639 -31q-238 0 -369 120t-131 339q0 77 19 170l166 836h221l-170 -875q-10 -44 -10 -94q0 -131 78.5 -203t220.5 -72q163 0 268.5 95t140.5 274l170 875h221l-172 -881q-56 -286 -222 -435t-431 -149z" />
    <glyph glyph-name="Yacute" unicode="&#xdd;" horiz-adv-x="1148" 
d="M1137 1747v-6l-308 -219h-135l-2 4l221 221h224zM1325 1434l-627 -861l-110 -573h-213l110 573l-288 861h229l131 -451q29 -99 38.5 -143.5t10.5 -104.5h10q25 60 51 104t93 144l303 451h262z" />
    <glyph glyph-name="Thorn" unicode="&#xde;" horiz-adv-x="1136" 
d="M61 0l279 1434h213l-49 -252q-6 -36 -17 -54l2 -4q24 9 54 9h155q194 0 308 -99t114 -280q0 -192 -129.5 -313.5t-365.5 -121.5h-240q-31 0 -49 9l-6 -4q3 -12 -4 -52l-52 -272h-213zM371 512q21 8 53 8h203q75 0 129 19.5t82.5 53.5t41.5 71t13 79q0 93 -56.5 141
t-154.5 48h-178q-33 0 -49 8l-6 -4q2 -8 -5 -53l-59 -314q-6 -33 -16 -53z" />
    <glyph glyph-name="germandbls" unicode="&#xdf;" horiz-adv-x="1157" 
d="M735 803q169 -9 258.5 -98.5t89.5 -247.5q0 -215 -152.5 -341t-414.5 -126h-158l39 194h99q192 0 284 65t92 200q0 132 -86.5 190.5t-281.5 58.5l35 185q161 0 248 59t87 168q0 77 -47 118.5t-135 41.5q-205 0 -248 -226l-254 -1310h-200l264 1362q32 167 157 267.5
t302 100.5q169 0 273 -89.5t104 -235.5q0 -135 -93 -222.5t-260 -109.5z" />
    <glyph glyph-name="agrave" unicode="&#xe0;" horiz-adv-x="1032" 
d="M567 1448l138 -311l-5 -4h-137l-239 311l2 4h241zM369 -29q-149 0 -242.5 89t-93.5 229q0 158 101 251t274 93q117 0 202.5 -52t128.5 -149l6 2q-11 52 5 148q10 54 10 77q0 63 -49 97.5t-138 34.5q-127 0 -297 -39l-36 182q198 41 358 41q173 0 262.5 -72.5t89.5 -212.5
q0 -42 -10 -104l-113 -586h-200q15 90 53 143l-10 7q-63 -94 -134.5 -136.5t-166.5 -42.5zM442 133q100 0 170 49.5t70 120.5q0 69 -66.5 116.5t-164.5 47.5q-97 0 -152 -46.5t-55 -129.5q0 -72 53 -115t145 -43z" />
    <glyph glyph-name="aacute" unicode="&#xe1;" horiz-adv-x="1032" 
d="M1065 1448v-4l-360 -311h-138l-2 4l254 311h246zM369 -29q-149 0 -242.5 89t-93.5 229q0 158 101 251t274 93q117 0 202.5 -52t128.5 -149l6 2q-11 52 5 148q10 54 10 77q0 63 -49 97.5t-138 34.5q-127 0 -297 -39l-36 182q198 41 358 41q173 0 262.5 -72.5t89.5 -212.5
q0 -42 -10 -104l-113 -586h-200q15 90 53 143l-10 7q-63 -94 -134.5 -136.5t-166.5 -42.5zM442 133q100 0 170 49.5t70 120.5q0 69 -66.5 116.5t-164.5 47.5q-97 0 -152 -46.5t-55 -129.5q0 -72 53 -115t145 -43z" />
    <glyph glyph-name="acircumflex" unicode="&#xe2;" horiz-adv-x="1032" 
d="M778 1448l176 -311v-4h-155l-62 102q-36 59 -46.5 83.5t-10.5 51.5h-8q-11 -28 -32 -52.5t-79 -82.5l-102 -102h-180v4l299 311h200zM369 -29q-149 0 -242.5 89t-93.5 229q0 158 101 251t274 93q117 0 202.5 -52t128.5 -149l6 2q-11 52 5 148q10 54 10 77q0 63 -49 97.5
t-138 34.5q-127 0 -297 -39l-36 182q198 41 358 41q173 0 262.5 -72.5t89.5 -212.5q0 -42 -10 -104l-113 -586h-200q15 90 53 143l-10 7q-63 -94 -134.5 -136.5t-166.5 -42.5zM442 133q100 0 170 49.5t70 120.5q0 69 -66.5 116.5t-164.5 47.5q-97 0 -152 -46.5t-55 -129.5
q0 -72 53 -115t145 -43z" />
    <glyph glyph-name="atilde" unicode="&#xe3;" horiz-adv-x="1032" 
d="M797 1180q-54 0 -110.5 26t-105.5 52t-85 26q-67 0 -127 -92l-80 22q87 228 246 228q42 0 87 -16.5t77 -36t69.5 -36t67.5 -16.5q35 0 64.5 22.5t60.5 70.5l77 -23q-18 -48 -38 -85t-49 -71t-68 -52.5t-86 -18.5zM369 -29q-149 0 -242.5 89t-93.5 229q0 158 101 251
t274 93q117 0 202.5 -52t128.5 -149l6 2q-11 52 5 148q10 54 10 77q0 63 -49 97.5t-138 34.5q-127 0 -297 -39l-36 182q198 41 358 41q173 0 262.5 -72.5t89.5 -212.5q0 -42 -10 -104l-113 -586h-200q15 90 53 143l-10 7q-63 -94 -134.5 -136.5t-166.5 -42.5zM442 133
q100 0 170 49.5t70 120.5q0 69 -66.5 116.5t-164.5 47.5q-97 0 -152 -46.5t-55 -129.5q0 -72 53 -115t145 -43z" />
    <glyph glyph-name="adieresis" unicode="&#xe4;" horiz-adv-x="1032" 
d="M604 1434l-49 -250h-184l49 250h184zM967 1434l-49 -250h-187l49 250h187zM369 -29q-149 0 -242.5 89t-93.5 229q0 158 101 251t274 93q117 0 202.5 -52t128.5 -149l6 2q-11 52 5 148q10 54 10 77q0 63 -49 97.5t-138 34.5q-127 0 -297 -39l-36 182q198 41 358 41
q173 0 262.5 -72.5t89.5 -212.5q0 -42 -10 -104l-113 -586h-200q15 90 53 143l-10 7q-63 -94 -134.5 -136.5t-166.5 -42.5zM442 133q100 0 170 49.5t70 120.5q0 69 -66.5 116.5t-164.5 47.5q-97 0 -152 -46.5t-55 -129.5q0 -72 53 -115t145 -43z" />
    <glyph glyph-name="aring" unicode="&#xe5;" horiz-adv-x="1032" 
d="M664 1530q103 0 168 -62.5t65 -160.5q0 -103 -70 -179.5t-186 -76.5q-103 0 -167 62.5t-64 160.5q0 103 69 179.5t185 76.5zM662 1434q-75 0 -112.5 -48.5t-37.5 -109.5q0 -59 35 -94t96 -35q75 0 112.5 48.5t37.5 109.5q0 59 -35 94t-96 35zM369 -29q-149 0 -242.5 89
t-93.5 229q0 158 101 251t274 93q117 0 202.5 -52t128.5 -149l6 2q-11 52 5 148q10 54 10 77q0 63 -49 97.5t-138 34.5q-127 0 -297 -39l-36 182q198 41 358 41q173 0 262.5 -72.5t89.5 -212.5q0 -42 -10 -104l-113 -586h-200q15 90 53 143l-10 7q-63 -94 -134.5 -136.5
t-166.5 -42.5zM442 133q100 0 170 49.5t70 120.5q0 69 -66.5 116.5t-164.5 47.5q-97 0 -152 -46.5t-55 -129.5q0 -72 53 -115t145 -43z" />
    <glyph glyph-name="ae" unicode="&#xe6;" horiz-adv-x="1751" 
d="M1198 -31q-294 0 -383 219h-4q-134 -217 -408 -217q-176 0 -272 89t-96 235q0 147 96.5 242.5t271.5 95.5q248 0 338 -201l7 2q-12 66 4 148q10 55 10 77q0 54 -42 93t-145 39q-111 0 -296 -39l-37 182q76 17 180 29t178 12q137 0 208 -46t93 -145h6q128 193 377 193
q192 0 301 -107.5t109 -283.5q0 -53 -21 -152h-614q-93 0 -121 17l-6 -5l4 -16v-31q0 -109 64 -175t196 -66q95 0 164.5 35.5t148.5 107.5l119 -143q-96 -93 -194 -141t-236 -48zM958 565q33 21 101 21h323q90 0 109 -19l6 4q-2 4 -2 11q0 110 -59 166.5t-172 56.5
q-231 0 -308 -236zM442 133q102 0 172 50t70 120q0 68 -65.5 116t-167.5 48q-103 0 -154 -50.5t-51 -123.5q0 -77 54 -118.5t142 -41.5z" />
    <glyph glyph-name="ccedilla" unicode="&#xe7;" horiz-adv-x="1001" 
d="M610 786q-145 0 -237 -93.5t-92 -241.5q0 -130 78 -210.5t204 -80.5q112 0 236 65l82 -168q-152 -82 -301 -88l-23 -39q73 -22 115.5 -52.5t42.5 -80.5q0 -22 -7.5 -43t-25.5 -41t-34.5 -35.5t-47.5 -34t-50 -30t-57 -28.5t-54.5 -24.5t-55.5 -23.5l-18 66q116 59 144 83
q29 26 30 48q0 49 -129 80l88 157q-197 19 -313.5 146t-116.5 325q0 238 154 386.5t401 148.5q207 0 383 -123l-117 -162q-129 94 -279 94z" />
    <glyph glyph-name="egrave" unicode="&#xe8;" horiz-adv-x="1099" 
d="M602 1448l137 -311l-4 -4h-137l-240 311l2 4h242zM535 -31q-220 0 -346 119t-126 328q0 246 155.5 403.5t397.5 157.5q198 0 312 -104.5t114 -286.5q0 -55 -20 -152h-639q-95 0 -121 17l-6 -5l4 -16v-31q0 -116 71 -178.5t201 -62.5q90 0 165.5 33t160.5 110l119 -143
q-109 -101 -211 -145t-231 -44zM283 565q30 21 100 21h348q90 0 109 -19l6 4q-2 4 -2 11q0 109 -62 166t-182 57q-239 0 -319 -236z" />
    <glyph glyph-name="eacute" unicode="&#xe9;" horiz-adv-x="1099" 
d="M1100 1448v-4l-361 -311h-137l-2 4l254 311h246zM535 -31q-220 0 -346 119t-126 328q0 246 155.5 403.5t397.5 157.5q198 0 312 -104.5t114 -286.5q0 -55 -20 -152h-639q-95 0 -121 17l-6 -5l4 -16v-31q0 -116 71 -178.5t201 -62.5q90 0 165.5 33t160.5 110l119 -143
q-109 -101 -211 -145t-231 -44zM283 565q30 21 100 21h348q90 0 109 -19l6 4q-2 4 -2 11q0 109 -62 166t-182 57q-239 0 -319 -236z" />
    <glyph glyph-name="ecircumflex" unicode="&#xea;" horiz-adv-x="1099" 
d="M813 1448l176 -311v-4h-155l-62 102q-36 59 -46.5 83.5t-10.5 51.5h-8q-11 -28 -32 -52.5t-79 -82.5l-102 -102h-181v4l299 311h201zM535 -31q-220 0 -346 119t-126 328q0 246 155.5 403.5t397.5 157.5q198 0 312 -104.5t114 -286.5q0 -55 -20 -152h-639q-95 0 -121 17
l-6 -5l4 -16v-31q0 -116 71 -178.5t201 -62.5q90 0 165.5 33t160.5 110l119 -143q-109 -101 -211 -145t-231 -44zM283 565q30 21 100 21h348q90 0 109 -19l6 4q-2 4 -2 11q0 109 -62 166t-182 57q-239 0 -319 -236z" />
    <glyph glyph-name="edieresis" unicode="&#xeb;" horiz-adv-x="1099" 
d="M639 1434l-49 -250h-184l49 250h184zM1001 1434l-49 -250h-186l49 250h186zM535 -31q-220 0 -346 119t-126 328q0 246 155.5 403.5t397.5 157.5q198 0 312 -104.5t114 -286.5q0 -55 -20 -152h-639q-95 0 -121 17l-6 -5l4 -16v-31q0 -116 71 -178.5t201 -62.5
q90 0 165.5 33t160.5 110l119 -143q-109 -101 -211 -145t-231 -44zM283 565q30 21 100 21h348q90 0 109 -19l6 4q-2 4 -2 11q0 109 -62 166t-182 57q-239 0 -319 -236z" />
    <glyph glyph-name="igrave" unicode="&#xec;" horiz-adv-x="466" 
d="M344 1448l76 -311l-4 -4h-150l-106 311l2 4h182zM426 946l-184 -946h-201l184 946h201z" />
    <glyph glyph-name="iacute" unicode="&#xed;" horiz-adv-x="466" 
d="M668 1448v-4l-217 -311h-166l-2 4l180 311h205zM426 946l-184 -946h-201l184 946h201z" />
    <glyph glyph-name="icircumflex" unicode="&#xee;" horiz-adv-x="466" 
d="M506 1448l69 -311v-4h-135l-18 102q-20 121 -21 135h-4q-15 -40 -71 -135l-62 -102h-160v4l201 311h201zM426 946l-184 -946h-201l184 946h201z" />
    <glyph glyph-name="idieresis" unicode="&#xef;" horiz-adv-x="466" 
d="M360 1434l-49 -250h-184l49 250h184zM641 1434l-49 -250h-186l49 250h186zM426 946l-184 -946h-201l184 946h201z" />
    <glyph glyph-name="eth" unicode="&#xf0;" horiz-adv-x="1247" 
d="M961 1300q104 -80 154 -211t50 -327q0 -198 -48.5 -352.5t-133.5 -249t-194.5 -143t-237.5 -48.5q-223 0 -353 132.5t-130 342.5q0 146 63.5 266.5t184.5 192.5t276 72q181 0 282 -97t121 -255h9q3 124 -9 225q-34 241 -190 344l-230 -162l-55 78l187 131q-97 39 -261 55
l31 166q249 -28 395 -104l215 151l54 -80zM575 160q86 0 151.5 30t102 80.5t54.5 108.5t18 121q0 138 -80 212t-217 74q-86 0 -151.5 -30t-102 -80t-54 -108t-17.5 -122q0 -138 79.5 -212t216.5 -74z" />
    <glyph glyph-name="ntilde" unicode="&#xf1;" horiz-adv-x="1116" 
d="M879 1180q-54 0 -110.5 26t-105.5 52t-85 26q-67 0 -127 -92l-80 22q87 228 245 228q42 0 87 -16.5t77 -36t70 -36t68 -16.5q34 0 63 22.5t61 70.5l78 -23q-18 -48 -38 -85t-49 -71t-68 -52.5t-86 -18.5zM41 0l184 946h201l-4 -22q-13 -99 -60 -195l9 -2
q63 129 151 189.5t211 60.5q146 0 222.5 -77.5t76.5 -223.5q0 -62 -20 -162l-103 -514h-200l100 518q10 44 10 92q0 89 -49 137t-141 48q-118 0 -191.5 -84t-107.5 -256l-88 -455h-201z" />
    <glyph glyph-name="ograve" unicode="&#xf2;" horiz-adv-x="1150" 
d="M606 1448l137 -311l-4 -4h-137l-240 311l3 4h241zM526 -31q-213 0 -339 121.5t-126 325.5q0 160 73 288.5t202 200.5t289 72q213 0 339 -121.5t126 -325.5q0 -160 -73 -288.5t-202 -200.5t-289 -72zM545 166q148 0 242 99t94 253q0 123 -73 192.5t-202 69.5
q-148 0 -242 -99t-94 -253q0 -123 73 -192.5t202 -69.5z" />
    <glyph glyph-name="oacute" unicode="&#xf3;" horiz-adv-x="1150" 
d="M1104 1448v-4l-361 -311h-137l-2 4l254 311h246zM526 -31q-213 0 -339 121.5t-126 325.5q0 160 73 288.5t202 200.5t289 72q213 0 339 -121.5t126 -325.5q0 -160 -73 -288.5t-202 -200.5t-289 -72zM545 166q148 0 242 99t94 253q0 123 -73 192.5t-202 69.5
q-148 0 -242 -99t-94 -253q0 -123 73 -192.5t202 -69.5z" />
    <glyph glyph-name="ocircumflex" unicode="&#xf4;" horiz-adv-x="1150" 
d="M817 1448l176 -311v-4h-155l-62 102q-36 59 -46.5 83.5t-10.5 51.5h-8q-11 -28 -32 -52.5t-79 -82.5l-102 -102h-181v4l299 311h201zM526 -31q-213 0 -339 121.5t-126 325.5q0 160 73 288.5t202 200.5t289 72q213 0 339 -121.5t126 -325.5q0 -160 -73 -288.5t-202 -200.5
t-289 -72zM545 166q148 0 242 99t94 253q0 123 -73 192.5t-202 69.5q-148 0 -242 -99t-94 -253q0 -123 73 -192.5t202 -69.5z" />
    <glyph glyph-name="otilde" unicode="&#xf5;" horiz-adv-x="1150" 
d="M836 1180q-54 0 -110.5 26t-105.5 52t-85 26q-67 0 -127 -92l-80 22q87 228 245 228q42 0 87 -16.5t77 -36t69.5 -36t67.5 -16.5q35 0 64.5 22.5t60.5 70.5l78 -23q-18 -48 -38 -85t-49 -71t-68 -52.5t-86 -18.5zM526 -31q-213 0 -339 121.5t-126 325.5q0 160 73 288.5
t202 200.5t289 72q213 0 339 -121.5t126 -325.5q0 -160 -73 -288.5t-202 -200.5t-289 -72zM545 166q148 0 242 99t94 253q0 123 -73 192.5t-202 69.5q-148 0 -242 -99t-94 -253q0 -123 73 -192.5t202 -69.5z" />
    <glyph glyph-name="odieresis" unicode="&#xf6;" horiz-adv-x="1150" 
d="M643 1434l-49 -250h-184l49 250h184zM1006 1434l-50 -250h-186l49 250h187zM526 -31q-213 0 -339 121.5t-126 325.5q0 160 73 288.5t202 200.5t289 72q213 0 339 -121.5t126 -325.5q0 -160 -73 -288.5t-202 -200.5t-289 -72zM545 166q148 0 242 99t94 253
q0 123 -73 192.5t-202 69.5q-148 0 -242 -99t-94 -253q0 -123 73 -192.5t202 -69.5z" />
    <glyph glyph-name="divide" unicode="&#xf7;" 
d="M719 1016v-172h-154v172h154zM1171 657v-92h-1060v92h1060zM719 377v-172h-154v172h154z" />
    <glyph glyph-name="oslash" unicode="&#xf8;" horiz-adv-x="1150" 
d="M1116 928l-119 -111q93 -117 93 -287q0 -160 -73 -288.5t-202 -200.5t-289 -72q-200 0 -325 109l-113 -107l-51 47l117 109q-93 117 -93 289q0 160 73 288.5t202 200.5t289 72q200 0 325 -109l117 109zM270 428q0 -92 41 -154l484 449q-72 57 -189 57q-148 0 -242 -99
t-94 -253zM881 518q0 92 -41 154l-482 -449q69 -57 187 -57q148 0 242 99t94 253z" />
    <glyph glyph-name="ugrave" unicode="&#xf9;" horiz-adv-x="1077" 
d="M586 1448l137 -311l-4 -4h-137l-240 311l2 4h242zM1047 946l-185 -946h-198q25 123 61 197l-8 2q-70 -121 -150.5 -175.5t-189.5 -54.5q-138 0 -214.5 79t-76.5 222q0 59 16 152l105 524h201l-103 -518q-10 -58 -10 -92q0 -85 45.5 -130.5t130.5 -45.5q110 0 184 84
t105 245l88 457h199z" />
    <glyph glyph-name="uacute" unicode="&#xfa;" horiz-adv-x="1077" 
d="M1083 1448v-4l-360 -311h-137l-2 4l254 311h245zM1047 946l-185 -946h-198q25 123 61 197l-8 2q-70 -121 -150.5 -175.5t-189.5 -54.5q-138 0 -214.5 79t-76.5 222q0 59 16 152l105 524h201l-103 -518q-10 -58 -10 -92q0 -85 45.5 -130.5t130.5 -45.5q110 0 184 84
t105 245l88 457h199z" />
    <glyph glyph-name="ucircumflex" unicode="&#xfb;" horiz-adv-x="1077" 
d="M797 1448l176 -311v-4h-156l-61 102q-37 61 -47.5 84.5t-10.5 50.5h-8q-11 -28 -32 -53t-78 -82l-103 -102h-180v4l299 311h201zM1047 946l-185 -946h-198q25 123 61 197l-8 2q-70 -121 -150.5 -175.5t-189.5 -54.5q-138 0 -214.5 79t-76.5 222q0 59 16 152l105 524h201
l-103 -518q-10 -58 -10 -92q0 -85 45.5 -130.5t130.5 -45.5q110 0 184 84t105 245l88 457h199z" />
    <glyph glyph-name="udieresis" unicode="&#xfc;" horiz-adv-x="1077" 
d="M623 1434l-50 -250h-184l49 250h185zM985 1434l-49 -250h-186l49 250h186zM1047 946l-185 -946h-198q25 123 61 197l-8 2q-70 -121 -150.5 -175.5t-189.5 -54.5q-138 0 -214.5 79t-76.5 222q0 59 16 152l105 524h201l-103 -518q-10 -58 -10 -92q0 -85 45.5 -130.5
t130.5 -45.5q110 0 184 84t105 245l88 457h199z" />
    <glyph glyph-name="yacute" unicode="&#xfd;" horiz-adv-x="995" 
d="M1044 1448v-4l-360 -311h-137l-2 4l254 311h245zM1077 946l-835 -1358h-230l307 496l-217 862h224l98 -454q33 -149 22 -254l9 2q23 83 63 151l332 555h227z" />
    <glyph glyph-name="thorn" unicode="&#xfe;" horiz-adv-x="1202" 
d="M-39 -410l358 1844h201l-94 -488q-21 -106 -49 -174l6 -2q51 100 145.5 153.5t202.5 53.5q175 0 291.5 -124.5t116.5 -330.5q0 -152 -65 -278.5t-183 -200.5t-264 -74q-128 0 -222.5 60.5t-128.5 175.5l-8 -2q0 -71 -26 -203l-80 -410h-201zM586 158q107 0 187 54
t118.5 135.5t38.5 174.5q0 122 -70 194t-196 72q-81 0 -147.5 -31.5t-109 -83.5t-65.5 -116t-23 -133q0 -122 70.5 -194t196.5 -72z" />
    <glyph glyph-name="ydieresis" unicode="&#xff;" horiz-adv-x="995" 
d="M584 1434l-49 -250h-185l49 250h185zM946 1434l-49 -250h-186l49 250h186zM1077 946l-835 -1358h-230l307 496l-217 862h224l98 -454q33 -149 22 -254l9 2q23 83 63 151l332 555h227z" />
    <glyph glyph-name="Amacron" unicode="&#x100;" horiz-adv-x="1425" 
d="M647 1688h600l-26 -134h-600zM-72 0l967 1464h20l398 -1464h-219l-99 377h-571l-236 -377h-260zM524 555q36 4 115 4h207q77 0 117 -4l2 2q-27 45 -43 117l-54 248q-22 110 -16 163h-12q-12 -52 -80 -163l-150 -248q-47 -76 -88 -117z" />
    <glyph glyph-name="amacron" unicode="&#x101;" horiz-adv-x="1032" 
d="M981 1374l-29 -143h-596l29 143h596zM369 -29q-149 0 -242.5 89t-93.5 229q0 158 101 251t274 93q117 0 202.5 -52t128.5 -149l6 2q-11 52 5 148q10 54 10 77q0 63 -49 97.5t-138 34.5q-127 0 -297 -39l-36 182q198 41 358 41q173 0 262.5 -72.5t89.5 -212.5
q0 -42 -10 -104l-113 -586h-200q15 90 53 143l-10 7q-63 -94 -134.5 -136.5t-166.5 -42.5zM442 133q100 0 170 49.5t70 120.5q0 69 -66.5 116.5t-164.5 47.5q-97 0 -152 -46.5t-55 -129.5q0 -72 53 -115t145 -43z" />
    <glyph glyph-name="Abreve" unicode="&#x102;" horiz-adv-x="1425" 
d="M924 1518q-118 0 -182 54.5t-64 153.5v23h145v-14q0 -40 31 -61t88 -21q117 0 158 96h143q-28 -109 -112 -170t-207 -61zM-72 0l967 1464h20l398 -1464h-219l-99 377h-571l-236 -377h-260zM524 555q36 4 115 4h207q77 0 117 -4l2 2q-27 45 -43 117l-54 248
q-22 110 -16 163h-12q-12 -52 -80 -163l-150 -248q-47 -76 -88 -117z" />
    <glyph glyph-name="abreve" unicode="&#x103;" horiz-adv-x="1032" 
d="M649 1147q-116 0 -184 58.5t-68 166.5q0 30 9 74h133q-4 -36 -4 -49q0 -123 120 -123q143 0 181 172h135q-26 -146 -107.5 -222.5t-214.5 -76.5zM369 -29q-149 0 -242.5 89t-93.5 229q0 158 101 251t274 93q117 0 202.5 -52t128.5 -149l6 2q-11 52 5 148q10 54 10 77
q0 63 -49 97.5t-138 34.5q-127 0 -297 -39l-36 182q198 41 358 41q173 0 262.5 -72.5t89.5 -212.5q0 -42 -10 -104l-113 -586h-200q15 90 53 143l-10 7q-63 -94 -134.5 -136.5t-166.5 -42.5zM442 133q100 0 170 49.5t70 120.5q0 69 -66.5 116.5t-164.5 47.5
q-97 0 -152 -46.5t-55 -129.5q0 -72 53 -115t145 -43z" />
    <glyph glyph-name="Aogonek" unicode="&#x104;" horiz-adv-x="1425" 
d="M1020 -260q40 0 84 12l12 -110q-78 -29 -151 -29q-69 0 -111.5 33.5t-42.5 91.5q0 76 64.5 142t207.5 157l-88 340h-571l-236 -377h-260l967 1464h20l398 -1464h-160q-105 -74 -152 -123t-47 -88q0 -49 66 -49zM963 555l2 2q-27 45 -43 117l-54 248q-22 110 -16 163h-12
q-12 -52 -80 -163l-150 -248q-47 -76 -88 -117l2 -2q36 4 115 4h207q77 0 117 -4z" />
    <glyph glyph-name="aogonek" unicode="&#x105;" horiz-adv-x="1032" 
d="M598 975q173 0 262.5 -72.5t89.5 -212.5q0 -42 -10 -104l-113 -586h-125q-104 -74 -151 -123t-47 -88q0 -49 65 -49q41 0 84 12l13 -110q-78 -29 -152 -29q-69 0 -111.5 33.5t-42.5 91.5q0 76 65 142t210 159q13 58 45 104l-10 7q-63 -94 -134.5 -136.5t-166.5 -42.5
q-149 0 -242.5 89t-93.5 229q0 158 101 251t274 93q117 0 202.5 -52t128.5 -149l6 2q-11 52 5 148q10 54 10 77q0 63 -49 97.5t-138 34.5q-127 0 -297 -39l-36 182q198 41 358 41zM442 133q100 0 170 49.5t70 120.5q0 69 -66.5 116.5t-164.5 47.5q-97 0 -152 -46.5
t-55 -129.5q0 -72 53 -115t145 -43z" />
    <glyph glyph-name="Cacute" unicode="&#x106;" horiz-adv-x="1398" 
d="M1352 1747v-6l-308 -219h-135l-2 4l221 221h224zM795 -31q-306 0 -490 183.5t-184 486.5q0 237 108.5 425.5t302 294t437.5 105.5q283 0 485 -164l-133 -180q-175 129 -377 129q-255 0 -423.5 -171.5t-168.5 -430.5q0 -214 123.5 -338.5t335.5 -124.5q177 0 354 115
l115 -178q-229 -152 -485 -152z" />
    <glyph glyph-name="cacute" unicode="&#x107;" horiz-adv-x="1001" 
d="M1067 1448v-4l-360 -311h-138l-2 4l254 311h246zM559 -31q-223 0 -357 129.5t-134 343.5q0 238 154 386.5t401 148.5q207 0 383 -123l-117 -162q-129 94 -279 94q-145 0 -237 -93.5t-92 -241.5q0 -130 78 -210.5t204 -80.5q112 0 236 65l82 -168q-163 -88 -322 -88z" />
    <glyph glyph-name="Ccircumflex" unicode="&#x108;" horiz-adv-x="1398" 
d="M639 1522l2 8l277 237h212l187 -237l-2 -8h-170l-43 47q-43 48 -58 76t-14 65h-8q-13 -38 -39.5 -67t-87.5 -74l-64 -47h-192zM795 -31q-306 0 -490 183.5t-184 486.5q0 237 108.5 425.5t302 294t437.5 105.5q283 0 485 -164l-133 -180q-175 129 -377 129
q-255 0 -423.5 -171.5t-168.5 -430.5q0 -214 123.5 -338.5t335.5 -124.5q177 0 354 115l115 -178q-229 -152 -485 -152z" />
    <glyph glyph-name="ccircumflex" unicode="&#x109;" horiz-adv-x="1001" 
d="M780 1448l176 -311v-4h-155l-62 102q-36 59 -46.5 83.5t-10.5 51.5h-8q-11 -28 -32 -52.5t-79 -82.5l-102 -102h-180v4l299 311h200zM559 -31q-223 0 -357 129.5t-134 343.5q0 238 154 386.5t401 148.5q207 0 383 -123l-117 -162q-129 94 -279 94q-145 0 -237 -93.5
t-92 -241.5q0 -130 78 -210.5t204 -80.5q112 0 236 65l82 -168q-163 -88 -322 -88z" />
    <glyph glyph-name="Cdotaccent" unicode="&#x10a;" horiz-adv-x="1398" 
d="M1124 1751l-45 -231h-202l45 231h202zM795 -31q-306 0 -490 183.5t-184 486.5q0 237 108.5 425.5t302 294t437.5 105.5q283 0 485 -164l-133 -180q-175 129 -377 129q-255 0 -423.5 -171.5t-168.5 -430.5q0 -214 123.5 -338.5t335.5 -124.5q177 0 354 115l115 -178
q-229 -152 -485 -152z" />
    <glyph glyph-name="cdotaccent" unicode="&#x10b;" horiz-adv-x="1001" 
d="M821 1434l-53 -271h-225l53 271h225zM559 -31q-223 0 -357 129.5t-134 343.5q0 238 154 386.5t401 148.5q207 0 383 -123l-117 -162q-129 94 -279 94q-145 0 -237 -93.5t-92 -241.5q0 -130 78 -210.5t204 -80.5q112 0 236 65l82 -168q-163 -88 -322 -88z" />
    <glyph glyph-name="Ccaron" unicode="&#x10c;" horiz-adv-x="1398" 
d="M1364 1767l-2 -8l-279 -237h-213l-184 237l2 8h170l45 -47q43 -45 58 -74t14 -67h8q13 38 38.5 66.5t86.5 74.5l61 47h195zM795 -31q-306 0 -490 183.5t-184 486.5q0 237 108.5 425.5t302 294t437.5 105.5q283 0 485 -164l-133 -180q-175 129 -377 129
q-255 0 -423.5 -171.5t-168.5 -430.5q0 -214 123.5 -338.5t335.5 -124.5q177 0 354 115l115 -178q-229 -152 -485 -152z" />
    <glyph glyph-name="ccaron" unicode="&#x10d;" horiz-adv-x="1001" 
d="M537 1124l-177 312v4h156l62 -103q36 -59 46.5 -83.5t10.5 -51.5h8q11 28 32 52.5t79 82.5l102 103h180v-4l-299 -312h-200zM559 -31q-223 0 -357 129.5t-134 343.5q0 238 154 386.5t401 148.5q207 0 383 -123l-117 -162q-129 94 -279 94q-145 0 -237 -93.5t-92 -241.5
q0 -130 78 -210.5t204 -80.5q112 0 236 65l82 -168q-163 -88 -322 -88z" />
    <glyph glyph-name="Dcaron" unicode="&#x10e;" horiz-adv-x="1427" 
d="M1171 1767l-2 -8l-278 -237h-213l-184 237l2 8h170l45 -47q43 -44 57.5 -73.5t13.5 -67.5h9q13 38 38.5 66.5t85.5 74.5l62 47h194zM61 0l279 1434h432q292 0 461.5 -169.5t169.5 -461.5q0 -369 -245.5 -586t-663.5 -217h-433zM309 193q21 8 53 8h197q274 0 445.5 168.5
t171.5 435.5q0 201 -111.5 314.5t-308.5 113.5h-193q-33 0 -49 8l-6 -4q3 -23 -4 -51l-180 -938q-7 -35 -17 -51z" />
    <glyph glyph-name="dcaron" unicode="&#x10f;" horiz-adv-x="1404" 
d="M1419 1495h195l-248 -416h-96zM471 -31q-180 0 -294 127.5t-114 327.5q0 236 147 394.5t365 158.5q130 0 222.5 -62.5t126.5 -173.5l8 2q-5 47 26 203l101 518h201l-285 -1464h-195q17 87 47 186l-6 2q-47 -101 -141 -160t-209 -59zM539 158q148 0 246 103.5t98 260.5
q0 124 -71 195t-196 71q-155 0 -249.5 -100t-94.5 -264q0 -123 72 -194.5t195 -71.5z" />
    <glyph glyph-name="Dcroat" unicode="&#x110;" horiz-adv-x="1380" 
d="M866 1434q290 0 460.5 -169.5t170.5 -461.5q0 -180 -63 -329t-178.5 -254t-286.5 -162.5t-381 -57.5h-432l114 594q6 35 15 51l-2 4q-21 -8 -54 -8h-196l37 190h196q33 0 49 -8l7 4q-2 12 4 52l32 168l76 387h432zM653 201q175 0 314.5 72.5t221 211.5t81.5 320
q0 205 -113.5 316.5t-306.5 111.5h-193q-33 0 -49 8l-6 -4q4 -19 -4 -51l-27 -139l-32 -168q-5 -32 -17 -52l2 -4q21 8 54 8h311l-37 -190h-311q-33 0 -49 8l-7 -4q3 -17 -2 -51l-65 -346q-5 -31 -17 -51l2 -4q21 8 54 8h196z" />
    <glyph glyph-name="dcroat" unicode="&#x111;" horiz-adv-x="1210" 
d="M1274 1284h84l-25 -123h-84q-39 0 -55 8l-2 -2q6 -25 0 -53l-18 -92l-199 -1022h-195q17 95 47 186l-6 2q-47 -101 -141 -160t-209 -59q-180 0 -294 127.5t-114 327.5q0 236 147 394.5t365 158.5q130 0 222.5 -62.5t126.5 -173.5l8 2q-5 47 26 203l15 76l18 92
q9 36 21 53l-2 2q-19 -8 -60 -8h-258l25 123h258q39 0 55 -8l4 2q-6 20 0 53l27 133h201l-27 -133q-7 -30 -21 -53v-2q19 8 60 8zM539 158q148 0 246 103.5t98 260.5q0 124 -71 195t-196 71q-155 0 -249.5 -100t-94.5 -264q0 -123 72 -194.5t195 -71.5z" />
    <glyph glyph-name="Emacron" unicode="&#x112;" horiz-adv-x="1056" 
d="M524 1688h600l-26 -134h-600zM1153 1434l-39 -201h-551q-33 0 -49 8l-6 -4q4 -18 -4 -53l-49 -256q-5 -31 -17 -51l4 -5q21 9 54 9h483l-39 -201h-483q-32 0 -51 8l-5 -4q2 -12 -4 -53l-73 -381q-9 -39 -17 -53l2 -4q21 8 53 8h560l-39 -201h-822l279 1434h813z" />
    <glyph glyph-name="emacron" unicode="&#x113;" horiz-adv-x="1099" 
d="M1016 1374l-29 -143h-596l29 143h596zM535 -31q-220 0 -346 119t-126 328q0 246 155.5 403.5t397.5 157.5q198 0 312 -104.5t114 -286.5q0 -55 -20 -152h-639q-95 0 -121 17l-6 -5l4 -16v-31q0 -116 71 -178.5t201 -62.5q90 0 165.5 33t160.5 110l119 -143
q-109 -101 -211 -145t-231 -44zM283 565q30 21 100 21h348q90 0 109 -19l6 4q-2 4 -2 11q0 109 -62 166t-182 57q-239 0 -319 -236z" />
    <glyph glyph-name="Ebreve" unicode="&#x114;" horiz-adv-x="1056" 
d="M801 1518q-118 0 -182 54.5t-64 153.5v23h145v-14q0 -40 31 -61t88 -21q117 0 158 96h143q-28 -109 -112 -170t-207 -61zM1153 1434l-39 -201h-551q-33 0 -49 8l-6 -4q4 -18 -4 -53l-49 -256q-5 -31 -17 -51l4 -5q21 9 54 9h483l-39 -201h-483q-32 0 -51 8l-5 -4
q2 -12 -4 -53l-73 -381q-9 -39 -17 -53l2 -4q21 8 53 8h560l-39 -201h-822l279 1434h813z" />
    <glyph glyph-name="ebreve" unicode="&#x115;" horiz-adv-x="1099" 
d="M684 1147q-116 0 -184 58.5t-68 166.5q0 35 8 74h133q-4 -36 -4 -49q0 -123 121 -123q142 0 180 172h136q-26 -146 -107.5 -222.5t-214.5 -76.5zM535 -31q-220 0 -346 119t-126 328q0 246 155.5 403.5t397.5 157.5q198 0 312 -104.5t114 -286.5q0 -55 -20 -152h-639
q-95 0 -121 17l-6 -5l4 -16v-31q0 -116 71 -178.5t201 -62.5q90 0 165.5 33t160.5 110l119 -143q-109 -101 -211 -145t-231 -44zM283 565q30 21 100 21h348q90 0 109 -19l6 4q-2 4 -2 11q0 109 -62 166t-182 57q-239 0 -319 -236z" />
    <glyph glyph-name="Edotaccent" unicode="&#x116;" horiz-adv-x="1056" 
d="M940 1751l-45 -231h-203l45 231h203zM1153 1434l-39 -201h-551q-33 0 -49 8l-6 -4q4 -18 -4 -53l-49 -256q-5 -31 -17 -51l4 -5q21 9 54 9h483l-39 -201h-483q-32 0 -51 8l-5 -4q2 -12 -4 -53l-73 -381q-9 -39 -17 -53l2 -4q21 8 53 8h560l-39 -201h-822l279 1434h813z
" />
    <glyph glyph-name="edotaccent" unicode="&#x117;" horiz-adv-x="1099" 
d="M854 1434l-53 -271h-226l54 271h225zM535 -31q-220 0 -346 119t-126 328q0 246 155.5 403.5t397.5 157.5q198 0 312 -104.5t114 -286.5q0 -55 -20 -152h-639q-95 0 -121 17l-6 -5l4 -16v-31q0 -116 71 -178.5t201 -62.5q90 0 165.5 33t160.5 110l119 -143
q-109 -101 -211 -145t-231 -44zM283 565q30 21 100 21h348q90 0 109 -19l6 4q-2 4 -2 11q0 109 -62 166t-182 57q-239 0 -319 -236z" />
    <glyph glyph-name="Eogonek" unicode="&#x118;" horiz-adv-x="1056" 
d="M563 1233q-33 0 -49 8l-6 -4q4 -18 -4 -53l-49 -256q-5 -31 -17 -51l4 -5q21 9 54 9h483l-39 -201h-483q-32 0 -51 8l-5 -4q2 -12 -4 -53l-73 -381q-9 -39 -17 -53l2 -4q21 8 53 8h560l-39 -201h-113q-105 -74 -152 -123t-47 -88q0 -49 66 -49q41 0 84 12l12 -110
q-78 -29 -151 -29q-69 0 -111.5 33.5t-42.5 91.5q0 68 52 127.5t163 134.5h-582l279 1434h813l-39 -201h-551z" />
    <glyph glyph-name="eogonek" unicode="&#x119;" horiz-adv-x="1099" 
d="M383 434q-95 0 -121 17l-6 -5l4 -16v-31q0 -116 71 -178.5t201 -62.5q90 0 165.5 33t160.5 110l119 -143q-125 -116 -246 -158q-105 -74 -152 -123t-47 -88q0 -49 66 -49q40 0 84 12l12 -110q-78 -29 -151 -29q-69 0 -111.5 33.5t-42.5 91.5q0 62 42 115.5t130 115.5h-26
q-220 0 -346 119t-126 328q0 246 155.5 403.5t397.5 157.5q198 0 312 -104.5t114 -286.5q0 -55 -20 -152h-639zM600 805q-239 0 -319 -236l2 -4q30 21 100 21h348q90 0 109 -19l6 4q-2 4 -2 11q0 109 -62 166t-182 57z" />
    <glyph glyph-name="Ecaron" unicode="&#x11a;" horiz-adv-x="1056" 
d="M1180 1767l-2 -8l-279 -237h-213l-184 237l2 8h170l45 -47q43 -45 58 -74t14 -67h8q13 38 38.5 66.5t86.5 74.5l61 47h195zM1153 1434l-39 -201h-551q-33 0 -49 8l-6 -4q4 -18 -4 -53l-49 -256q-5 -31 -17 -51l4 -5q21 9 54 9h483l-39 -201h-483q-32 0 -51 8l-5 -4
q2 -12 -4 -53l-73 -381q-9 -39 -17 -53l2 -4q21 8 53 8h560l-39 -201h-822l279 1434h813z" />
    <glyph glyph-name="ecaron" unicode="&#x11b;" horiz-adv-x="1099" 
d="M569 1124l-176 312v4h156l61 -103q37 -61 47.5 -84.5t10.5 -50.5h8q11 28 32 53t78 82l103 103h180v-4l-299 -312h-201zM535 -31q-220 0 -346 119t-126 328q0 246 155.5 403.5t397.5 157.5q198 0 312 -104.5t114 -286.5q0 -55 -20 -152h-639q-95 0 -121 17l-6 -5l4 -16
v-31q0 -116 71 -178.5t201 -62.5q90 0 165.5 33t160.5 110l119 -143q-109 -101 -211 -145t-231 -44zM283 565q30 21 100 21h348q90 0 109 -19l6 4q-2 4 -2 11q0 109 -62 166t-182 57q-239 0 -319 -236z" />
    <glyph glyph-name="Gcircumflex" unicode="&#x11c;" horiz-adv-x="1632" 
d="M645 1522l2 8l277 237h213l186 -237l-2 -8h-170l-43 47q-43 48 -58 76t-14 65h-8q-13 -38 -39.5 -67t-87.5 -74l-63 -47h-193zM831 -29q-325 0 -516.5 185t-191.5 495q0 173 63.5 324t174.5 258t266.5 168t333.5 61q171 0 321.5 -56t265.5 -161l-166 -166
q-88 80 -204.5 124t-241.5 44q-167 0 -301 -76.5t-208.5 -212t-74.5 -303.5q0 -220 129.5 -344.5t356.5 -124.5q215 0 352 113.5t174 312.5l-4 4q-54 -26 -143 -26h-336l39 201h710l-18 -105q-61 -342 -261.5 -528.5t-519.5 -186.5z" />
    <glyph glyph-name="gcircumflex" unicode="&#x11d;" horiz-adv-x="1189" 
d="M823 1448l176 -311v-4h-155l-62 102q-36 59 -46.5 83.5t-10.5 51.5h-8q-11 -28 -32 -52.5t-79 -82.5l-102 -102h-180v4l299 311h200zM434 -440q-135 0 -255.5 35.5t-203.5 99.5l129 172q160 -115 340 -115q136 0 222.5 65t111.5 187q22 113 49 182l-6 2
q-47 -103 -141 -161t-211 -58q-178 0 -292 127.5t-114 327.5q0 154 67 281t184.5 199.5t260.5 72.5q132 0 223.5 -62t125.5 -174l8 2q-5 47 26 203h199l-182 -944q-82 -442 -541 -442zM539 158q148 0 246 103.5t98 260.5q0 124 -71 195t-196 71q-148 0 -246 -103.5
t-98 -260.5q0 -123 72 -194.5t195 -71.5z" />
    <glyph glyph-name="Gbreve" unicode="&#x11e;" horiz-adv-x="1632" 
d="M991 1518q-118 0 -182 54.5t-64 153.5v23h146v-14q0 -40 31 -61t88 -21q116 0 157 96h144q-28 -109 -112.5 -170t-207.5 -61zM831 -29q-325 0 -516.5 185t-191.5 495q0 173 63.5 324t174.5 258t266.5 168t333.5 61q171 0 321.5 -56t265.5 -161l-166 -166
q-88 80 -204.5 124t-241.5 44q-167 0 -301 -76.5t-208.5 -212t-74.5 -303.5q0 -220 129.5 -344.5t356.5 -124.5q215 0 352 113.5t174 312.5l-4 4q-54 -26 -143 -26h-336l39 201h710l-18 -105q-61 -342 -261.5 -528.5t-519.5 -186.5z" />
    <glyph glyph-name="gbreve" unicode="&#x11f;" horiz-adv-x="1189" 
d="M694 1147q-116 0 -184 58.5t-68 166.5q0 30 9 74h133q-4 -36 -4 -49q0 -123 120 -123q143 0 181 172h135q-26 -146 -107.5 -222.5t-214.5 -76.5zM434 -440q-135 0 -255.5 35.5t-203.5 99.5l129 172q160 -115 340 -115q136 0 222.5 65t111.5 187q22 113 49 182l-6 2
q-47 -103 -141 -161t-211 -58q-178 0 -292 127.5t-114 327.5q0 154 67 281t184.5 199.5t260.5 72.5q132 0 223.5 -62t125.5 -174l8 2q-5 47 26 203h199l-182 -944q-82 -442 -541 -442zM539 158q148 0 246 103.5t98 260.5q0 124 -71 195t-196 71q-148 0 -246 -103.5
t-98 -260.5q0 -123 72 -194.5t195 -71.5z" />
    <glyph glyph-name="Gdotaccent" unicode="&#x120;" horiz-adv-x="1632" 
d="M1130 1751l-45 -231h-202l45 231h202zM831 -29q-325 0 -516.5 185t-191.5 495q0 173 63.5 324t174.5 258t266.5 168t333.5 61q171 0 321.5 -56t265.5 -161l-166 -166q-88 80 -204.5 124t-241.5 44q-167 0 -301 -76.5t-208.5 -212t-74.5 -303.5q0 -220 129.5 -344.5
t356.5 -124.5q215 0 352 113.5t174 312.5l-4 4q-54 -26 -143 -26h-336l39 201h710l-18 -105q-61 -342 -261.5 -528.5t-519.5 -186.5z" />
    <glyph glyph-name="gdotaccent" unicode="&#x121;" horiz-adv-x="1189" 
d="M864 1434l-53 -271h-225l53 271h225zM434 -440q-135 0 -255.5 35.5t-203.5 99.5l129 172q160 -115 340 -115q136 0 222.5 65t111.5 187q22 113 49 182l-6 2q-47 -103 -141 -161t-211 -58q-178 0 -292 127.5t-114 327.5q0 154 67 281t184.5 199.5t260.5 72.5
q132 0 223.5 -62t125.5 -174l8 2q-5 47 26 203h199l-182 -944q-82 -442 -541 -442zM539 158q148 0 246 103.5t98 260.5q0 124 -71 195t-196 71q-148 0 -246 -103.5t-98 -260.5q0 -123 72 -194.5t195 -71.5z" />
    <glyph glyph-name="Gcommaaccent" unicode="&#x122;" horiz-adv-x="1632" 
d="M831 -29q-325 0 -516.5 185t-191.5 495q0 173 63.5 324t174.5 258t266.5 168t333.5 61q171 0 321.5 -56t265.5 -161l-166 -166q-88 80 -204.5 124t-241.5 44q-167 0 -301 -76.5t-208.5 -212t-74.5 -303.5q0 -220 129.5 -344.5t356.5 -124.5q215 0 352 113.5t174 312.5
l-4 4q-54 -26 -143 -26h-336l39 201h710l-18 -105q-61 -342 -261.5 -528.5t-519.5 -186.5zM856 -104l-229 -336h-107l135 336h201z" />
    <glyph glyph-name="gcommaaccent" unicode="&#x123;" horiz-adv-x="1177" 
d="M799 1133h-211l237 329h107zM434 -440q-135 0 -255.5 35.5t-203.5 99.5l129 172q160 -115 340 -115q136 0 222.5 65t111.5 187q22 113 49 182l-6 2q-47 -103 -141 -161t-211 -58q-178 0 -292 127.5t-114 327.5q0 154 67 281t184.5 199.5t260.5 72.5q132 0 223.5 -62
t125.5 -174l8 2q-5 47 26 203h199l-182 -944q-82 -442 -541 -442zM539 158q148 0 246 103.5t98 260.5q0 124 -71 195t-196 71q-148 0 -246 -103.5t-98 -260.5q0 -123 72 -194.5t195 -71.5z" />
    <glyph glyph-name="Hcircumflex" unicode="&#x124;" horiz-adv-x="1458" 
d="M594 1522l2 8l276 237h213l187 -237l-2 -8h-170l-43 47q-43 48 -58 76t-14 65h-8q-13 -38 -39.5 -67t-87.5 -74l-64 -47h-192zM1491 1434l-279 -1434h-217l119 608q5 33 16 51l-4 5q-24 -9 -53 -9h-618q-31 0 -49 9l-5 -5q2 -12 -4 -51l-118 -608h-218l279 1434h217
l-102 -527q-5 -31 -17 -51l4 -4q19 8 54 8h618q30 0 49 -8l4 4q-2 12 4 51l103 527h217z" />
    <glyph glyph-name="hcircumflex" unicode="&#x125;" horiz-adv-x="1116" 
d="M100 1522l2 8l277 237h213l186 -237l-2 -8h-170l-43 47q-43 48 -57.5 76t-13.5 65h-9q-13 -38 -39.5 -67t-87.5 -74l-63 -47h-193zM526 1464l-100 -512q-25 -121 -59 -204l8 -3q65 120 151 176t207 56q146 0 222.5 -77.5t76.5 -223.5q0 -62 -20 -162l-103 -514h-200
l100 518q10 44 10 92q0 89 -49 137t-141 48q-118 0 -191.5 -84t-107.5 -256l-88 -455h-201l285 1464h200z" />
    <glyph glyph-name="Hbar" unicode="&#x126;" horiz-adv-x="1437" 
d="M51 0l195 1001q7 37 14 50l-4 2q-16 -4 -39 -4h-104l34 184h105q28 0 37 -6l6 4q-2 11 4 47l31 156h209l-31 -156q-7 -38 -12 -47l2 -4q15 6 41 6h655q28 0 37 -6l6 4q-2 11 4 47l31 156h209l-31 -156q-7 -38 -12 -47l2 -4q15 6 39 6h106l-35 -184h-106q-21 0 -37 4
l-4 -2q2 -11 -6 -50l-195 -1001h-209l119 612q6 36 14 50l-4 4q-14 -7 -41 -7h-651q-27 0 -41 7l-4 -4q1 -6 -6 -50l-119 -612h-209zM426 852q12 6 41 6h651q29 0 41 -6l4 4q-1 5 6 47l19 98q7 37 14 50l-4 2q-16 -4 -39 -4h-655q-23 0 -39 4l-4 -2q2 -11 -6 -50l-19 -98
q-6 -37 -14 -47z" />
    <glyph glyph-name="hbar" unicode="&#x127;" horiz-adv-x="1126" 
d="M743 977q146 0 222.5 -77.5t76.5 -223.5q0 -62 -20 -162l-102 -514h-201l100 518q10 44 10 92q0 89 -49 137t-141 48q-118 0 -191.5 -84t-107.5 -256l-88 -455h-201l217 1114q8 36 21 53l-2 2q-18 -8 -60 -8h-84l25 123h84q41 0 55 -8l2 2q-6 25 0 53l27 133h201
l-27 -133q-8 -36 -21 -53l3 -2q18 8 59 8h258l-25 -123h-258q-41 0 -55 8l-2 -2q6 -25 0 -53l-33 -168l-4 -22q-14 -102 -59 -195l8 -2q63 129 151 189.5t211 60.5z" />
    <glyph glyph-name="Itilde" unicode="&#x128;" horiz-adv-x="524" 
d="M641 1522q-53 0 -109.5 22t-106 44t-85.5 22q-67 0 -127 -84l-78 22q85 219 244 219q53 0 109.5 -22t106 -44t85.5 -22q67 0 127 84l78 -22q-85 -219 -244 -219zM557 1434l-278 -1434h-218l279 1434h217z" />
    <glyph glyph-name="itilde" unicode="&#x129;" horiz-adv-x="466" 
d="M305 1442q32 0 68 -16.5t61 -36t53.5 -36t47.5 -16.5q24 0 43.5 23t42.5 70l77 -23q-35 -102 -88 -164.5t-121 -62.5q-41 0 -85.5 26t-82 52t-61.5 26q-25 0 -45.5 -23t-42.5 -69l-78 22q35 102 89 165t122 63zM426 946l-184 -946h-201l184 946h201z" />
    <glyph glyph-name="Imacron" unicode="&#x12a;" horiz-adv-x="524" 
d="M197 1688h600l-27 -134h-600zM557 1434l-278 -1434h-218l279 1434h217z" />
    <glyph glyph-name="imacron" unicode="&#x12b;" horiz-adv-x="466" 
d="M614 1374l-28 -143h-432l28 143h432zM426 946l-184 -946h-201l184 946h201z" />
    <glyph glyph-name="Ibreve" unicode="&#x12c;" horiz-adv-x="524" 
d="M473 1518q-118 0 -182 54.5t-64 153.5v23h146v-14q0 -40 31 -61t88 -21q116 0 157 96h144q-28 -109 -112.5 -170t-207.5 -61zM557 1434l-278 -1434h-218l279 1434h217z" />
    <glyph glyph-name="ibreve" unicode="&#x12d;" horiz-adv-x="466" 
d="M369 1147q-100 0 -153.5 60.5t-53.5 162.5q0 36 6 76h133q-4 -40 -4 -60q0 -112 82 -112q91 0 115 172h135q-38 -299 -260 -299zM426 946l-184 -946h-201l184 946h201z" />
    <glyph glyph-name="Iogonek" unicode="&#x12e;" horiz-adv-x="524" 
d="M172 0q-105 -74 -152 -123t-47 -88q0 -49 66 -49q41 0 84 12l12 -110q-78 -29 -151 -29q-69 0 -111.5 33.5t-42.5 91.5q0 70 56 131.5t177 142.5l277 1422h217l-278 -1434h-107z" />
    <glyph glyph-name="iogonek" unicode="&#x12f;" horiz-adv-x="466" 
d="M309 1434h226l-54 -271h-225zM49 39l176 907h201l-184 -946h-125q-105 -74 -152 -123t-47 -88q0 -49 66 -49q40 0 84 12l12 -110q-78 -29 -152 -29q-68 0 -110.5 33.5t-42.5 91.5q0 76 65 142t209 159z" />
    <glyph glyph-name="Idotaccent" unicode="&#x130;" horiz-adv-x="524" 
d="M612 1751l-45 -231h-202l45 231h202zM557 1434l-278 -1434h-218l279 1434h217z" />
    <glyph glyph-name="dotlessi" unicode="&#x131;" horiz-adv-x="466" 
d="M426 946l-184 -946h-201l184 946h201z" />
    <glyph glyph-name="IJ" unicode="&#x132;" horiz-adv-x="1140" 
d="M557 1434l-278 -1434h-218l279 1434h217zM1174 1434l-216 -1112q-35 -180 -122.5 -256t-260.5 -76q-25 0 -92 6l39 201q23 -2 76 -2q65 0 100 34t52 117l211 1088h213z" />
    <glyph glyph-name="ij" unicode="&#x133;" horiz-adv-x="933" 
d="M535 1434l-54 -271h-225l53 271h226zM1001 1434l-53 -271h-225l53 271h225zM426 946l-184 -946h-201l184 946h201zM893 946l-201 -1034q-36 -184 -143 -268t-279 -84h-34l38 196h15q94 0 141.5 45.5t69.5 157.5l192 987h201z" />
    <glyph glyph-name="Jcircumflex" unicode="&#x134;" horiz-adv-x="616" 
d="M217 1522l2 8l277 237h213l186 -237l-2 -8h-170l-43 47q-43 48 -58 76t-14 65h-8q-13 -38 -39.5 -67t-87.5 -74l-63 -47h-193zM649 1434l-215 -1112q-35 -180 -122.5 -256t-260.5 -76q-25 0 -92 6l39 201q23 -2 76 -2q65 0 99.5 34t51.5 117l211 1088h213z" />
    <glyph glyph-name="jcircumflex" unicode="&#x135;" horiz-adv-x="466" 
d="M506 1448l69 -311v-4h-135l-18 102q-20 121 -21 135h-4q-15 -40 -71 -135l-62 -102h-160v4l201 311h201zM426 946l-201 -1034q-36 -184 -143 -268t-279 -84h-34l38 196h15q94 0 141.5 45.5t69.5 157.5l192 987h201z" />
    <glyph glyph-name="Kcommaaccent" unicode="&#x136;" horiz-adv-x="1261" 
d="M1380 1434l-573 -547q-31 -29 -63.5 -56.5t-64 -53t-44.5 -36.5l-2 -6q34 -28 117 -149l399 -586h-262l-481 731l-7 -2q-4 -108 -30 -240l-95 -489h-213l279 1434h213l-78 -404q-31 -155 -63 -237l6 -5l659 646h303zM610 -104l-229 -336h-107l136 336h200z" />
    <glyph glyph-name="kcommaaccent" unicode="&#x137;" horiz-adv-x="980" 
d="M526 1464l-145 -747q-22 -124 -53 -187l6 -2l432 418h274l-409 -373q-62 -55 -107 -79l-2 -7q36 -20 72 -69l295 -418h-248l-315 481l-9 -4q5 -55 -18 -182l-57 -295h-201l285 1464h200zM539 -104l-230 -336h-106l135 336h201z" />
    <glyph glyph-name="kgreenlandic" unicode="&#x138;" horiz-adv-x="980" 
d="M41 0l184 946h201l-45 -229q-22 -124 -53 -187l6 -2l432 418h274l-413 -373q-62 -55 -107 -79l-2 -7q36 -20 72 -69l299 -418h-248l-315 481l-9 -4q5 -55 -18 -182l-57 -295h-201z" />
    <glyph glyph-name="Lacute" unicode="&#x139;" horiz-adv-x="1001" 
d="M858 1747v-6l-307 -219h-135l-2 4l221 221h223zM553 1434l-229 -1182q-5 -31 -17 -51l4 -4q19 8 51 8h566l-39 -205h-828l279 1434h213z" />
    <glyph glyph-name="lacute" unicode="&#x13a;" horiz-adv-x="466" 
d="M811 1747v-6l-307 -219h-135l-2 4l221 221h223zM526 1464l-284 -1464h-201l285 1464h200z" />
    <glyph glyph-name="Lcommaaccent" unicode="&#x13b;" horiz-adv-x="1001" 
d="M553 1434l-229 -1182q-5 -31 -17 -51l4 -4q19 8 51 8h566l-39 -205h-828l279 1434h213zM561 -104l-229 -336h-107l135 336h201z" />
    <glyph glyph-name="lcommaaccent" unicode="&#x13c;" horiz-adv-x="466" 
d="M526 1464l-284 -1464h-201l285 1464h200zM227 -104l-229 -336h-107l136 336h200z" />
    <glyph glyph-name="Lcaron" unicode="&#x13d;" horiz-adv-x="1001" 
d="M877 1495h194l-248 -477h-96zM553 1434l-229 -1182q-5 -31 -17 -51l4 -4q19 8 51 8h566l-39 -205h-828l279 1434h213z" />
    <glyph glyph-name="lcaron" unicode="&#x13e;" horiz-adv-x="659" 
d="M674 1495h194l-247 -416h-97zM526 1464l-284 -1464h-201l285 1464h200z" />
    <glyph glyph-name="Ldot" unicode="&#x13f;" horiz-adv-x="1001" 
d="M553 1434l-229 -1182q-5 -31 -17 -51l4 -4q19 8 51 8h566l-39 -205h-828l279 1434h213zM668 692l49 254h233l-49 -254h-233z" />
    <glyph glyph-name="ldot" unicode="&#x140;" horiz-adv-x="704" 
d="M526 1464l-284 -1464h-201l285 1464h200zM494 692l49 254h233l-49 -254h-233z" />
    <glyph glyph-name="Lslash" unicode="&#x141;" horiz-adv-x="1001" 
d="M61 0l107 557q6 31 29 66l-4 4q-24 -26 -64 -41l-117 -45l31 157l166 64l131 672h213l-102 -531q-9 -43 -35 -76l4 -4q42 36 74 47l333 127l-30 -157l-387 -148l-86 -440q-8 -35 -17 -51l4 -4q19 8 51 8h566l-39 -205h-828z" />
    <glyph glyph-name="lslash" unicode="&#x142;" horiz-adv-x="569" 
d="M92 0l109 563q12 67 39 107l-4 2q-30 -30 -93 -62l-106 -53l31 158l180 88l129 661h201l-95 -479q-8 -39 -14.5 -55t-28.5 -45l4 -2q30 26 107 65l100 49l-30 -157l-183 -88l-145 -752h-201z" />
    <glyph glyph-name="Nacute" unicode="&#x143;" horiz-adv-x="1511" 
d="M1311 1747v-6l-307 -219h-136l-2 4l221 221h224zM362 1454l699 -889q62 -79 84 -159l6 2q-6 75 29 258l151 768h213l-282 -1454h-19l-698 888q-61 78 -84 160l-6 -2q6 -76 -29 -256l-152 -770h-213l283 1454h18z" />
    <glyph glyph-name="nacute" unicode="&#x144;" horiz-adv-x="1116" 
d="M1147 1448v-4l-361 -311h-137l-2 4l254 311h246zM41 0l184 946h201l-4 -22q-13 -99 -60 -195l9 -2q63 129 151 189.5t211 60.5q146 0 222.5 -77.5t76.5 -223.5q0 -62 -20 -162l-103 -514h-200l100 518q10 44 10 92q0 89 -49 137t-141 48q-118 0 -191.5 -84t-107.5 -256
l-88 -455h-201z" />
    <glyph glyph-name="Ncommaaccent" unicode="&#x145;" horiz-adv-x="1511" 
d="M362 1454l699 -889q62 -79 84 -159l6 2q-6 75 29 258l151 768h213l-282 -1454h-19l-698 888q-61 78 -84 160l-6 -2q6 -76 -29 -256l-152 -770h-213l283 1454h18zM807 -104l-229 -336h-107l135 336h201z" />
    <glyph glyph-name="ncommaaccent" unicode="&#x146;" horiz-adv-x="1116" 
d="M41 0l184 946h201l-4 -22q-13 -99 -60 -195l9 -2q63 129 151 189.5t211 60.5q146 0 222.5 -77.5t76.5 -223.5q0 -62 -20 -162l-103 -514h-200l100 518q10 44 10 92q0 89 -49 137t-141 48q-118 0 -191.5 -84t-107.5 -256l-88 -455h-201zM561 -104l-229 -336h-107l135 336
h201z" />
    <glyph glyph-name="Ncaron" unicode="&#x147;" horiz-adv-x="1511" 
d="M1323 1767l-2 -8l-279 -237h-213l-184 237l2 8h170l45 -47q43 -45 58 -74t14 -67h8q13 38 38.5 66.5t86.5 74.5l61 47h195zM362 1454l699 -889q62 -79 84 -159l6 2q-6 75 29 258l151 768h213l-282 -1454h-19l-698 888q-61 78 -84 160l-6 -2q6 -76 -29 -256l-152 -770
h-213l283 1454h18z" />
    <glyph glyph-name="ncaron" unicode="&#x148;" horiz-adv-x="1116" 
d="M616 1124l-176 312v4h156l61 -103q37 -61 47.5 -84.5t10.5 -50.5h8q11 28 32 52.5t79 82.5l102 103h180v-4l-299 -312h-201zM41 0l184 946h201l-4 -22q-13 -99 -60 -195l9 -2q63 129 151 189.5t211 60.5q146 0 222.5 -77.5t76.5 -223.5q0 -62 -20 -162l-103 -514h-200
l100 518q10 44 10 92q0 89 -49 137t-141 48q-118 0 -191.5 -84t-107.5 -256l-88 -455h-201z" />
    <glyph glyph-name="napostrophe" unicode="&#x149;" horiz-adv-x="1116" 
d="M209 1495h194l-247 -477h-97zM41 0l184 946h201l-4 -22q-13 -99 -60 -195l9 -2q63 129 151 189.5t211 60.5q146 0 222.5 -77.5t76.5 -223.5q0 -62 -20 -162l-103 -514h-200l100 518q10 44 10 92q0 89 -49 137t-141 48q-118 0 -191.5 -84t-107.5 -256l-88 -455h-201z" />
    <glyph glyph-name="Eng" unicode="&#x14a;" horiz-adv-x="1511" 
d="M1544 1434l-282 -1454h-11q-22 -114 -61 -191t-94.5 -120t-120 -61t-150.5 -18h-96l43 217h94q144 0 181 183l36 192l-538 686q-61 78 -84 160l-6 -2q6 -76 -29 -256l-152 -770h-213l283 1454h18l699 -889q62 -79 84 -159l6 2q-6 75 29 258l151 768h213z" />
    <glyph glyph-name="eng" unicode="&#x14b;" horiz-adv-x="1116" 
d="M733 977q146 0 222.5 -77.5t76.5 -223.5q0 -62 -20 -162l-103 -514l-26 -139q-52 -277 -332 -277h-109l35 183h78q61 0 90.5 27.5t40.5 86.5l23 119l100 518q10 44 10 92q0 89 -49 137t-141 48q-118 0 -191.5 -84t-107.5 -256l-88 -455h-201l184 946h201l-4 -22
q-13 -99 -60 -195l9 -2q63 129 151 189.5t211 60.5z" />
    <glyph glyph-name="Omacron" unicode="&#x14c;" horiz-adv-x="1693" 
d="M711 1688h600l-27 -134h-600zM831 -31q-319 0 -513.5 187t-194.5 493q0 231 107.5 417.5t298.5 292t427 105.5q319 0 514 -187t195 -493q0 -173 -63.5 -324.5t-173.5 -259t-265 -169.5t-332 -62zM840 182q264 0 430 171.5t166 443.5q0 202 -135.5 328t-352.5 126
q-264 0 -430 -171t-166 -443q0 -202 135.5 -328.5t352.5 -126.5z" />
    <glyph glyph-name="omacron" unicode="&#x14d;" horiz-adv-x="1150" 
d="M1020 1374l-29 -143h-596l29 143h596zM526 -31q-213 0 -339 121.5t-126 325.5q0 160 73 288.5t202 200.5t289 72q213 0 339 -121.5t126 -325.5q0 -160 -73 -288.5t-202 -200.5t-289 -72zM545 166q148 0 242 99t94 253q0 123 -73 192.5t-202 69.5q-148 0 -242 -99
t-94 -253q0 -123 73 -192.5t202 -69.5z" />
    <glyph glyph-name="Obreve" unicode="&#x14e;" horiz-adv-x="1693" 
d="M987 1518q-118 0 -182 54.5t-64 153.5v23h146v-14q0 -40 31 -61t88 -21q116 0 157 96h144q-28 -109 -112.5 -170t-207.5 -61zM831 -31q-319 0 -513.5 187t-194.5 493q0 231 107.5 417.5t298.5 292t427 105.5q319 0 514 -187t195 -493q0 -173 -63.5 -324.5t-173.5 -259
t-265 -169.5t-332 -62zM840 182q264 0 430 171.5t166 443.5q0 202 -135.5 328t-352.5 126q-264 0 -430 -171t-166 -443q0 -202 135.5 -328.5t352.5 -126.5z" />
    <glyph glyph-name="obreve" unicode="&#x14f;" horiz-adv-x="1150" 
d="M688 1147q-116 0 -184 58.5t-68 166.5q0 35 8 74h134q-5 -45 -5 -49q0 -123 121 -123q142 0 180 172h136q-26 -146 -107.5 -222.5t-214.5 -76.5zM526 -31q-213 0 -339 121.5t-126 325.5q0 160 73 288.5t202 200.5t289 72q213 0 339 -121.5t126 -325.5q0 -160 -73 -288.5
t-202 -200.5t-289 -72zM545 166q148 0 242 99t94 253q0 123 -73 192.5t-202 69.5q-148 0 -242 -99t-94 -253q0 -123 73 -192.5t202 -69.5z" />
    <glyph glyph-name="Ohungarumlaut" unicode="&#x150;" horiz-adv-x="1693" 
d="M1178 1747l2 -6l-252 -219h-140v4l238 221h152zM1038 1526l238 221h151l3 -6l-252 -219h-138zM831 -31q-319 0 -513.5 187t-194.5 493q0 231 107.5 417.5t298.5 292t427 105.5q319 0 514 -187t195 -493q0 -173 -63.5 -324.5t-173.5 -259t-265 -169.5t-332 -62zM840 182
q264 0 430 171.5t166 443.5q0 202 -135.5 328t-352.5 126q-264 0 -430 -171t-166 -443q0 -202 135.5 -328.5t352.5 -126.5z" />
    <glyph glyph-name="ohungarumlaut" unicode="&#x151;" horiz-adv-x="1150" 
d="M481 1133l-2 4l297 311h166v-4l-309 -311h-152zM743 1133l-2 4l295 311h166v-4l-309 -311h-150zM526 -31q-213 0 -339 121.5t-126 325.5q0 160 73 288.5t202 200.5t289 72q213 0 339 -121.5t126 -325.5q0 -160 -73 -288.5t-202 -200.5t-289 -72zM545 166q148 0 242 99
t94 253q0 123 -73 192.5t-202 69.5q-148 0 -242 -99t-94 -253q0 -123 73 -192.5t202 -69.5z" />
    <glyph glyph-name="OE" unicode="&#x152;" horiz-adv-x="2260" 
d="M819 -31q-315 0 -505.5 184.5t-190.5 495.5q0 133 37.5 255.5t110.5 224t174 177t235 117t287 41.5q98 0 180 -18.5t134 -43.5t99.5 -66.5t70 -70.5t52.5 -73l4 2q0 24 13 100l26 140h811l-39 -201h-549q-33 0 -49 8l-6 -4q4 -18 -4 -53l-49 -256q-5 -33 -16 -51l4 -5
q21 9 53 9h481l-39 -201h-479q-32 0 -51 8l-4 -4q2 -12 -4 -53l-74 -381q-9 -42 -16 -53l2 -4q21 8 53 8h555l-39 -201h-819l14 78q7 49 31 100l-2 2q-165 -211 -492 -211zM831 186q183 0 322.5 81t211 215.5t71.5 299.5q0 226 -136 347.5t-358 121.5q-137 0 -250.5 -51.5
t-186.5 -137.5t-113 -194.5t-40 -224.5q0 -214 130 -335.5t349 -121.5z" />
    <glyph glyph-name="oe" unicode="&#x153;" horiz-adv-x="1910" 
d="M528 -31q-215 0 -341 120.5t-126 326.5q0 241 159.5 401t397.5 160q138 0 244 -55.5t150 -151.5h4q62 100 169 153.5t245 53.5q196 0 309.5 -104.5t113.5 -286.5q0 -55 -20 -152h-639q-96 0 -121 17l-6 -5l4 -16v-31q0 -116 71 -178.5t201 -62.5q90 0 165.5 33t160.5 110
l119 -143q-109 -101 -211 -145t-231 -44q-141 0 -237 51t-159 158h-4q-82 -107 -183.5 -158t-234.5 -51zM1094 565q30 21 100 21h348q90 0 109 -19l6 4q-2 4 -2 11q0 109 -62 166t-182 57q-239 0 -319 -236zM545 166q148 0 242 99t94 253q0 123 -73 192.5t-202 69.5
q-148 0 -242 -99t-94 -253q0 -123 73 -192.5t202 -69.5z" />
    <glyph glyph-name="Racute" unicode="&#x154;" horiz-adv-x="1210" 
d="M1096 1747v-6l-308 -219h-135l-2 4l221 221h224zM741 1434q211 0 326 -99t115 -272q0 -181 -125 -293.5t-326 -112.5q-15 0 -76 9l-2 -2q50 -29 81 -60.5t63 -85.5l311 -518h-256l-381 641h-27q-29 0 -45 8l-6 -4q4 -32 -4 -55l-115 -590h-213l279 1434h401zM514 1241
l-6 -4q2 -7 -4 -53l-55 -291q-8 -35 -17 -51l4 -4q19 8 51 8h226q110 0 172.5 54t62.5 151q0 88 -53 135t-150 47h-182q-33 0 -49 8z" />
    <glyph glyph-name="racute" unicode="&#x155;" horiz-adv-x="716" 
d="M924 1448v-4l-361 -311h-137l-2 4l254 311h246zM41 0l184 946h201q-28 -132 -74 -250l10 -2q62 149 152.5 215t235.5 66q22 0 32 -2l-45 -232q-35 4 -78 4q-131 0 -218.5 -85.5t-118.5 -243.5l-80 -416h-201z" />
    <glyph glyph-name="Rcommaaccent" unicode="&#x156;" horiz-adv-x="1210" 
d="M741 1434q211 0 326 -99t115 -272q0 -181 -125 -293.5t-326 -112.5q-15 0 -76 9l-2 -2q50 -29 81 -60.5t63 -85.5l311 -518h-256l-381 641h-27q-29 0 -45 8l-6 -4q4 -32 -4 -55l-115 -590h-213l279 1434h401zM514 1241l-6 -4q2 -7 -4 -53l-55 -291q-8 -35 -17 -51l4 -4
q19 8 51 8h226q110 0 172.5 54t62.5 151q0 88 -53 135t-150 47h-182q-33 0 -49 8zM657 -104l-229 -336h-106l135 336h200z" />
    <glyph glyph-name="rcommaaccent" unicode="&#x157;" horiz-adv-x="716" 
d="M41 0l184 946h201q-28 -132 -74 -250l10 -2q62 149 152.5 215t235.5 66q22 0 32 -2l-45 -232q-35 4 -78 4q-131 0 -218.5 -85.5t-118.5 -243.5l-80 -416h-201zM246 -104l-230 -336h-106l135 336h201z" />
    <glyph glyph-name="Rcaron" unicode="&#x158;" horiz-adv-x="1210" 
d="M1108 1767l-2 -8l-279 -237h-213l-184 237l2 8h170l45 -47q43 -45 58 -74t14 -67h8q13 38 38.5 66.5t86.5 74.5l61 47h195zM741 1434q211 0 326 -99t115 -272q0 -181 -125 -293.5t-326 -112.5q-15 0 -76 9l-2 -2q50 -29 81 -60.5t63 -85.5l311 -518h-256l-381 641h-27
q-29 0 -45 8l-6 -4q4 -32 -4 -55l-115 -590h-213l279 1434h401zM514 1241l-6 -4q2 -7 -4 -53l-55 -291q-8 -35 -17 -51l4 -4q19 8 51 8h226q110 0 172.5 54t62.5 151q0 88 -53 135t-150 47h-182q-33 0 -49 8z" />
    <glyph glyph-name="rcaron" unicode="&#x159;" horiz-adv-x="716" 
d="M393 1124l-176 312v4h156l61 -103q37 -61 47.5 -84.5t10.5 -50.5h8q11 28 32 53t78 82l103 103h180v-4l-299 -312h-201zM41 0l184 946h201q-28 -132 -74 -250l10 -2q62 149 152.5 215t235.5 66q22 0 32 -2l-45 -232q-35 4 -78 4q-131 0 -218.5 -85.5t-118.5 -243.5
l-80 -416h-201z" />
    <glyph glyph-name="Sacute" unicode="&#x15a;" horiz-adv-x="1030" 
d="M1012 1747v-6l-307 -219h-136l-2 4l221 221h224zM485 -31q-139 0 -276 52.5t-238 144.5l131 182q91 -80 191 -123t194 -43q104 0 163 50t59 137q0 97 -119 204l-225 201q-156 138 -156 326q0 165 113 264.5t303 99.5q194 0 407 -135l-121 -190q-160 112 -295 112
q-82 0 -130 -42t-48 -109q0 -83 109 -176l209 -185q97 -86 140.5 -172t43.5 -190q0 -189 -121 -298.5t-334 -109.5z" />
    <glyph glyph-name="sacute" unicode="&#x15b;" horiz-adv-x="819" 
d="M985 1448v-4l-360 -311h-138l-2 4l254 311h246zM88 281q149 -125 295 -125q58 0 92.5 25.5t34.5 68.5q0 28 -16.5 51t-59.5 55l-131 95q-151 109 -151 256q0 124 81.5 197t221.5 73q175 0 340 -109l-101 -161q-131 84 -225 84q-54 0 -83.5 -23.5t-29.5 -65.5
q0 -30 18.5 -53t76.5 -65l114 -80q79 -57 115.5 -118.5t36.5 -137.5q0 -133 -87 -206t-245 -73q-115 0 -223.5 41t-188.5 115z" />
    <glyph glyph-name="Scircumflex" unicode="&#x15c;" horiz-adv-x="1030" 
d="M299 1522l2 8l277 237h213l186 -237l-2 -8h-170l-43 47q-43 48 -58 76t-14 65h-8q-13 -38 -39.5 -67t-87.5 -74l-63 -47h-193zM485 -31q-139 0 -276 52.5t-238 144.5l131 182q91 -80 191 -123t194 -43q104 0 163 50t59 137q0 97 -119 204l-225 201q-156 138 -156 326
q0 165 113 264.5t303 99.5q194 0 407 -135l-121 -190q-160 112 -295 112q-82 0 -130 -42t-48 -109q0 -83 109 -176l209 -185q97 -86 140.5 -172t43.5 -190q0 -189 -121 -298.5t-334 -109.5z" />
    <glyph glyph-name="scircumflex" unicode="&#x15d;" horiz-adv-x="819" 
d="M698 1448l176 -311v-4h-155l-62 102q-36 59 -46.5 83.5t-10.5 51.5h-8q-11 -28 -32 -52.5t-79 -82.5l-102 -102h-180v4l299 311h200zM88 281q149 -125 295 -125q58 0 92.5 25.5t34.5 68.5q0 28 -16.5 51t-59.5 55l-131 95q-151 109 -151 256q0 124 81.5 197t221.5 73
q175 0 340 -109l-101 -161q-131 84 -225 84q-54 0 -83.5 -23.5t-29.5 -65.5q0 -30 18.5 -53t76.5 -65l114 -80q79 -57 115.5 -118.5t36.5 -137.5q0 -133 -87 -206t-245 -73q-115 0 -223.5 41t-188.5 115z" />
    <glyph glyph-name="Scedilla" unicode="&#x15e;" horiz-adv-x="1030" 
d="M756 739q97 -86 140.5 -172t43.5 -190q0 -184 -115.5 -293t-318.5 -115l-23 -39q73 -22 115.5 -52.5t42.5 -80.5q0 -22 -7.5 -43t-25.5 -41t-34.5 -35.5t-47.5 -34t-50 -30t-57 -28.5t-54.5 -24.5t-55.5 -23.5l-18 66q116 59 144 83q30 25 30 48q0 49 -129 80l88 157
q-124 10 -243 61.5t-210 133.5l131 182q91 -80 191 -123t194 -43q104 0 163 50t59 137q0 97 -119 204l-225 201q-156 138 -156 326q0 165 113 264.5t303 99.5q194 0 407 -135l-121 -190q-160 112 -295 112q-82 0 -130 -42t-48 -109q0 -83 109 -176z" />
    <glyph glyph-name="scedilla" unicode="&#x15f;" horiz-adv-x="819" 
d="M565 504q79 -57 115.5 -118.5t36.5 -137.5q0 -131 -83 -203.5t-235 -75.5l-22 -39q73 -22 115.5 -52.5t42.5 -80.5q0 -22 -7.5 -43t-25.5 -41t-34.5 -35.5t-47.5 -34t-50 -30t-57 -28.5t-54.5 -24.5t-55.5 -23.5l-19 66q116 59 144 83q30 25 30 48q0 49 -129 80l88 159
q-97 11 -187 50t-157 102l115 156q149 -125 295 -125q58 0 92.5 25.5t34.5 68.5q0 28 -16.5 51t-59.5 55l-131 95q-151 109 -151 256q0 124 81.5 197t221.5 73q175 0 340 -109l-101 -161q-131 84 -225 84q-54 0 -83.5 -23.5t-29.5 -65.5q0 -30 18.5 -53t76.5 -65z" />
    <glyph glyph-name="Scaron" unicode="&#x160;" horiz-adv-x="1030" 
d="M1024 1767l-2 -8l-279 -237h-213l-184 237l2 8h170l45 -47q43 -45 58 -74t14 -67h8q13 38 38.5 66.5t86.5 74.5l61 47h195zM485 -31q-139 0 -276 52.5t-238 144.5l131 182q91 -80 191 -123t194 -43q104 0 163 50t59 137q0 97 -119 204l-225 201q-156 138 -156 326
q0 165 113 264.5t303 99.5q194 0 407 -135l-121 -190q-160 112 -295 112q-82 0 -130 -42t-48 -109q0 -83 109 -176l209 -185q97 -86 140.5 -172t43.5 -190q0 -189 -121 -298.5t-334 -109.5z" />
    <glyph glyph-name="scaron" unicode="&#x161;" horiz-adv-x="819" 
d="M455 1124l-176 312v4h155l62 -103q36 -59 46.5 -83.5t10.5 -51.5h8q11 28 32 52.5t79 82.5l102 103h180v-4l-299 -312h-200zM88 281q149 -125 295 -125q58 0 92.5 25.5t34.5 68.5q0 28 -16.5 51t-59.5 55l-131 95q-151 109 -151 256q0 124 81.5 197t221.5 73
q175 0 340 -109l-101 -161q-131 84 -225 84q-54 0 -83.5 -23.5t-29.5 -65.5q0 -30 18.5 -53t76.5 -65l114 -80q79 -57 115.5 -118.5t36.5 -137.5q0 -133 -87 -206t-245 -73q-115 0 -223.5 41t-188.5 115z" />
    <glyph glyph-name="uni0162" unicode="&#x162;" horiz-adv-x="1064" 
d="M207 1434h1024l-39 -205h-356q-34 0 -50 8l-6 -4q3 -17 -2 -51l-229 -1182h-62l-38 -70q73 -22 115 -52.5t42 -80.5q0 -22 -7.5 -43t-25.5 -41t-34.5 -35.5t-47.5 -34t-50 -30t-57 -28.5t-54.5 -24.5t-55.5 -23.5l-18 66q116 59 144 83q30 25 30 48q0 49 -129 80l105 186
h-70l229 1182q6 35 15 51l-2 4q-19 -8 -54 -8h-356z" />
    <glyph glyph-name="uni0163" unicode="&#x163;" horiz-adv-x="643" 
d="M590 946h94l-37 -192h-94q-64 0 -80 16l-8 -4q2 -33 -12 -111l-127 -655h-56l-39 -70q73 -22 115.5 -52.5t42.5 -80.5q0 -22 -7.5 -43t-25.5 -41t-34.5 -35.5t-47.5 -34t-50 -30t-57 -28.5t-54.5 -24.5t-55.5 -23.5l-18 66q116 59 144 83q30 25 30 48q0 49 -129 80
l104 186h-63l127 655q12 69 29 111l-5 4q-24 -16 -88 -16h-82l37 192h82q66 0 82 -16l6 4q0 41 13 108l53 273l215 137h12l-80 -410q-15 -79 -28 -108l6 -4q24 16 86 16z" />
    <glyph glyph-name="Tcaron" unicode="&#x164;" horiz-adv-x="1064" 
d="M1122 1767l-2 -8l-278 -237h-213l-185 237l2 8h170l46 -47q43 -44 57.5 -73.5t13.5 -67.5h8q13 38 38.5 66.5t86.5 74.5l62 47h194zM1231 1434l-39 -205h-356q-34 0 -50 8l-6 -4q3 -17 -2 -51l-229 -1182h-213l229 1182q6 35 15 51l-2 4q-19 -8 -54 -8h-356l39 205h1024z
" />
    <glyph glyph-name="tcaron" unicode="&#x165;" horiz-adv-x="821" 
d="M815 1495h195l-248 -416h-96zM606 1452l-80 -410q-15 -79 -28 -108l6 -4q24 16 86 16h94l-37 -192h-94q-64 0 -80 16l-8 -4q2 -33 -12 -111l-127 -655h-201l127 655q12 69 29 111l-5 4q-24 -16 -88 -16h-82l37 192h82q66 0 82 -16l6 4q0 41 13 108l53 273l215 137h12z
" />
    <glyph glyph-name="Tbar" unicode="&#x166;" horiz-adv-x="1064" 
d="M834 1233q-34 0 -50 8l-6 -4q3 -17 -2 -51l-37 -195h-2q-7 -38 -12 -47l2 -4q15 6 41 6h246l-37 -184h-246q-25 0 -37 4l-6 -2q3 -8 -4 -49l-139 -715h-209l139 715q6 34 12 49l-2 2q-20 -4 -41 -4h-243l37 184h243q28 0 37 -6l6 4q-2 11 4 47h2l37 195q6 35 15 51l-2 4
q-21 -8 -54 -8h-358l39 201h1024l-39 -201h-358z" />
    <glyph glyph-name="tbar" unicode="&#x167;" horiz-adv-x="643" 
d="M377 1296l227 162h2l-80 -416q-12 -62 -30 -108l6 -4q31 16 88 16h94l-39 -192h-94q-56 0 -80 16l-8 -4q2 -29 -4 -68l-4 -20q-10 -55 -19 -70l4 -4q15 6 45 6h123l-24 -123h-123q-32 0 -41 9l-6 -4q2 -13 -4 -52l-86 -440h-199l86 440q7 41 12 52l-2 4q-15 -9 -43 -9
h-115l25 123h115q27 0 39 -6l4 4q-3 14 10 70l4 18q9 38 21 70l-2 4q-31 -16 -91 -16h-82l39 192h82q58 0 82 -16l4 4q0 31 15 108z" />
    <glyph glyph-name="Utilde" unicode="&#x168;" horiz-adv-x="1411" 
d="M1071 1522q-53 0 -109.5 22t-106 44t-85.5 22q-67 0 -127 -84l-78 22q85 219 244 219q53 0 109.5 -22t106 -44t85.5 -22q67 0 127 84l78 -22q-85 -219 -244 -219zM639 -31q-238 0 -369 120t-131 339q0 77 19 170l166 836h221l-170 -875q-10 -44 -10 -94q0 -131 78.5 -203
t220.5 -72q163 0 268.5 95t140.5 274l170 875h221l-172 -881q-56 -286 -222 -435t-431 -149z" />
    <glyph glyph-name="utilde" unicode="&#x169;" horiz-adv-x="1077" 
d="M815 1180q-54 0 -110.5 26t-105.5 52t-85 26q-67 0 -127 -92l-80 22q87 228 246 228q42 0 87 -16.5t77 -36t69.5 -36t67.5 -16.5q35 0 64.5 22.5t60.5 70.5l78 -23q-18 -48 -38.5 -85t-49 -71t-68 -52.5t-86.5 -18.5zM1047 946l-185 -946h-198q25 123 61 197l-8 2
q-70 -121 -150.5 -175.5t-189.5 -54.5q-138 0 -214.5 79t-76.5 222q0 59 16 152l105 524h201l-103 -518q-10 -58 -10 -92q0 -85 45.5 -130.5t130.5 -45.5q110 0 184 84t105 245l88 457h199z" />
    <glyph glyph-name="Umacron" unicode="&#x16a;" horiz-adv-x="1411" 
d="M627 1688h600l-27 -134h-600zM639 -31q-238 0 -369 120t-131 339q0 77 19 170l166 836h221l-170 -875q-10 -44 -10 -94q0 -131 78.5 -203t220.5 -72q163 0 268.5 95t140.5 274l170 875h221l-172 -881q-56 -286 -222 -435t-431 -149z" />
    <glyph glyph-name="umacron" unicode="&#x16b;" horiz-adv-x="1077" 
d="M999 1374l-28 -143h-596l28 143h596zM1047 946l-185 -946h-198q25 123 61 197l-8 2q-70 -121 -150.5 -175.5t-189.5 -54.5q-138 0 -214.5 79t-76.5 222q0 59 16 152l105 524h201l-103 -518q-10 -58 -10 -92q0 -85 45.5 -130.5t130.5 -45.5q110 0 184 84t105 245l88 457
h199z" />
    <glyph glyph-name="Ubreve" unicode="&#x16c;" horiz-adv-x="1411" 
d="M903 1518q-118 0 -182 54.5t-64 153.5v23h146v-14q0 -40 31 -61t88 -21q116 0 157 96h144q-28 -109 -112.5 -170t-207.5 -61zM639 -31q-238 0 -369 120t-131 339q0 77 19 170l166 836h221l-170 -875q-10 -44 -10 -94q0 -131 78.5 -203t220.5 -72q163 0 268.5 95
t140.5 274l170 875h221l-172 -881q-56 -286 -222 -435t-431 -149z" />
    <glyph glyph-name="ubreve" unicode="&#x16d;" horiz-adv-x="1077" 
d="M668 1147q-116 0 -184 58.5t-68 166.5q0 35 8 74h133q-4 -36 -4 -49q0 -123 121 -123q142 0 180 172h135q-26 -146 -107.5 -222.5t-213.5 -76.5zM1047 946l-185 -946h-198q25 123 61 197l-8 2q-70 -121 -150.5 -175.5t-189.5 -54.5q-138 0 -214.5 79t-76.5 222
q0 59 16 152l105 524h201l-103 -518q-10 -58 -10 -92q0 -85 45.5 -130.5t130.5 -45.5q110 0 184 84t105 245l88 457h199z" />
    <glyph glyph-name="Uring" unicode="&#x16e;" horiz-adv-x="1411" 
d="M874 1368q-102 0 -158.5 58t-56.5 153q0 113 77 190.5t198 77.5q102 0 158.5 -58t56.5 -153q0 -113 -77 -190.5t-198 -77.5zM885 1464q78 0 120 51.5t42 116.5q0 55 -32 87t-91 32q-78 0 -120 -51.5t-42 -116.5q0 -55 32 -87t91 -32zM639 -31q-238 0 -369 120t-131 339
q0 77 19 170l166 836h221l-170 -875q-10 -44 -10 -94q0 -131 78.5 -203t220.5 -72q163 0 268.5 95t140.5 274l170 875h221l-172 -881q-56 -286 -222 -435t-431 -149z" />
    <glyph glyph-name="uring" unicode="&#x16f;" horiz-adv-x="1077" 
d="M682 1530q103 0 168 -62.5t65 -160.5q0 -103 -70 -179.5t-186 -76.5q-103 0 -167 62.5t-64 160.5q0 103 69 179.5t185 76.5zM680 1434q-75 0 -112.5 -48.5t-37.5 -109.5q0 -59 35.5 -94t96.5 -35q75 0 112 48.5t37 109.5q0 59 -35 94t-96 35zM1047 946l-185 -946h-198
q25 123 61 197l-8 2q-70 -121 -150.5 -175.5t-189.5 -54.5q-138 0 -214.5 79t-76.5 222q0 59 16 152l105 524h201l-103 -518q-10 -58 -10 -92q0 -85 45.5 -130.5t130.5 -45.5q110 0 184 84t105 245l88 457h199z" />
    <glyph glyph-name="Uhungarumlaut" unicode="&#x170;" horiz-adv-x="1411" 
d="M1094 1747l2 -6l-252 -219h-139v4l237 221h152zM954 1526l238 221h151l3 -6l-252 -219h-138zM639 -31q-238 0 -369 120t-131 339q0 77 19 170l166 836h221l-170 -875q-10 -44 -10 -94q0 -131 78.5 -203t220.5 -72q163 0 268.5 95t140.5 274l170 875h221l-172 -881
q-56 -286 -222 -435t-431 -149z" />
    <glyph glyph-name="uhungarumlaut" unicode="&#x171;" horiz-adv-x="1077" 
d="M461 1133l-2 4l297 311h166v-4l-310 -311h-151zM723 1133l-2 4l295 311h166v-4l-310 -311h-149zM1047 946l-185 -946h-198q25 123 61 197l-8 2q-70 -121 -150.5 -175.5t-189.5 -54.5q-138 0 -214.5 79t-76.5 222q0 59 16 152l105 524h201l-103 -518q-10 -58 -10 -92
q0 -85 45.5 -130.5t130.5 -45.5q110 0 184 84t105 245l88 457h199z" />
    <glyph glyph-name="Uogonek" unicode="&#x172;" horiz-adv-x="1411" 
d="M1243 1434h221l-172 -881q-56 -286 -222 -435t-431 -149h-10q-80 -60 -117 -102t-37 -76q0 -49 66 -49q41 0 84 12l12 -110q-78 -29 -152 -29q-68 0 -110.5 33.5t-42.5 91.5q0 63 44.5 119t137.5 121q-181 29 -278 144.5t-97 303.5q0 77 19 170l166 836h221l-170 -875
q-10 -44 -10 -94q0 -131 78.5 -203t220.5 -72q163 0 268.5 95t140.5 274z" />
    <glyph glyph-name="uogonek" unicode="&#x173;" horiz-adv-x="1077" 
d="M748 0q-105 -74 -152 -123t-47 -88q0 -49 65 -49q40 0 84 12l13 -110q-78 -29 -152 -29q-68 0 -110.5 33.5t-42.5 91.5q0 75 64 141.5t200 153.5q21 89 55 164l-8 2q-70 -121 -150.5 -175.5t-189.5 -54.5q-138 0 -214.5 79t-76.5 222q0 59 16 152l105 524h201l-103 -518
q-10 -58 -10 -92q0 -85 45.5 -130.5t130.5 -45.5q110 0 184 84t105 245l88 457h199l-185 -946h-114z" />
    <glyph glyph-name="Wcircumflex" unicode="&#x174;" horiz-adv-x="1949" 
d="M829 1522l2 8l277 237h213l186 -237l-2 -8h-170l-43 47q-43 48 -57.5 76t-13.5 65h-9q-13 -38 -39.5 -67t-87.5 -74l-63 -47h-193zM487 -20l-280 1454h225l123 -740q18 -111 18 -266h9q2 6 7 17q48 126 104 227l14 24l434 758h26l140 -758q11 -59 16 -109.5t5.5 -75.5
t0.5 -83h8q58 152 121 266l410 740h248l-846 -1454h-25l-162 833q-14 78 -4 176h-8q-6 -33 -26 -84t-44 -92l-489 -833h-25z" />
    <glyph glyph-name="wcircumflex" unicode="&#x175;" horiz-adv-x="1447" 
d="M973 1448l176 -311v-4h-156l-61 102q-37 61 -47.5 84.5t-10.5 50.5h-8q-11 -28 -32 -53t-78 -82l-103 -102h-180v4l299 311h201zM315 -10l-202 956h213l69 -428q15 -89 15 -143h8q22 45 86 147l276 439h54l106 -439q22 -93 29 -147h8q20 59 67 143l238 428h238l-576 -956
h-53l-121 477q-21 84 -14 139h-11q-20 -63 -69 -139l-305 -477h-56z" />
    <glyph glyph-name="Ycircumflex" unicode="&#x176;" horiz-adv-x="1148" 
d="M424 1522l2 8l276 237h213l187 -237l-2 -8h-170l-43 47q-43 48 -58 76t-14 65h-8q-13 -38 -39.5 -67t-87.5 -74l-64 -47h-192zM1325 1434l-627 -861l-110 -573h-213l110 573l-288 861h229l131 -451q29 -99 38.5 -143.5t10.5 -104.5h10q25 60 51 104t93 144l303 451h262z
" />
    <glyph glyph-name="ycircumflex" unicode="&#x177;" horiz-adv-x="995" 
d="M758 1448l176 -311v-4h-156l-61 102q-37 61 -47.5 84.5t-10.5 50.5h-8q-11 -28 -32 -53t-78 -82l-103 -102h-180v4l299 311h201zM1077 946l-835 -1358h-230l307 496l-217 862h224l98 -454q33 -149 22 -254l9 2q23 83 63 151l332 555h227z" />
    <glyph glyph-name="Ydieresis" unicode="&#x178;" horiz-adv-x="1148" 
d="M530 1749h185l-45 -227h-185zM883 1749h186l-45 -227h-186zM1325 1434l-627 -861l-110 -573h-213l110 573l-288 861h229l131 -451q29 -99 38.5 -143.5t10.5 -104.5h10q25 60 51 104t93 144l303 451h262z" />
    <glyph glyph-name="Zacute" unicode="&#x179;" horiz-adv-x="1230" 
d="M1223 1747v-6l-308 -219h-135l-2 4l221 221h224zM1348 1434l2 -11l-1028 -1249l2 -6q28 20 71 28.5t140 8.5h614l-148 -205h-1067l-4 10l1026 1247l-2 7q-62 -35 -209 -35h-491l143 205h951z" />
    <glyph glyph-name="zacute" unicode="&#x17a;" horiz-adv-x="929" 
d="M1098 1448v-4l-361 -311h-137l-2 4l254 311h246zM-76 0l-4 10l707 776l-4 7q-48 -24 -85 -30.5t-112 -6.5h-303l156 190h729l2 -8l-717 -778l4 -6q39 23 83.5 29.5t143.5 6.5h338l-153 -190h-785z" />
    <glyph glyph-name="Zdotaccent" unicode="&#x17b;" horiz-adv-x="1230" 
d="M995 1751l-45 -231h-202l45 231h202zM1348 1434l2 -11l-1028 -1249l2 -6q28 20 71 28.5t140 8.5h614l-148 -205h-1067l-4 10l1026 1247l-2 7q-62 -35 -209 -35h-491l143 205h951z" />
    <glyph glyph-name="zdotaccent" unicode="&#x17c;" horiz-adv-x="929" 
d="M852 1434l-53 -271h-226l54 271h225zM-76 0l-4 10l707 776l-4 7q-48 -24 -85 -30.5t-112 -6.5h-303l156 190h729l2 -8l-717 -778l4 -6q39 23 83.5 29.5t143.5 6.5h338l-153 -190h-785z" />
    <glyph glyph-name="Zcaron" unicode="&#x17d;" horiz-adv-x="1230" 
d="M1235 1767l-2 -8l-279 -237h-213l-184 237l2 8h170l45 -47q43 -45 58 -74t14 -67h8q13 38 38.5 66.5t86.5 74.5l61 47h195zM1348 1434l2 -11l-1028 -1249l2 -6q28 20 71 28.5t140 8.5h614l-148 -205h-1067l-4 10l1026 1247l-2 7q-62 -35 -209 -35h-491l143 205h951z" />
    <glyph glyph-name="zcaron" unicode="&#x17e;" horiz-adv-x="929" 
d="M567 1124l-176 312v4h156l61 -103q37 -61 47.5 -84.5t10.5 -50.5h8q11 28 32 53t78 82l103 103h180v-4l-299 -312h-201zM-76 0l-4 10l707 776l-4 7q-48 -24 -85 -30.5t-112 -6.5h-303l156 190h729l2 -8l-717 -778l4 -6q39 23 83.5 29.5t143.5 6.5h338l-153 -190h-785z
" />
    <glyph glyph-name="florin" unicode="&#x192;" horiz-adv-x="817" 
d="M844 1399q50 0 90 -6l-37 -183q-58 4 -80 4q-185 0 -217 -186l-4 -24q-1 -2 -3 -11t-5.5 -23t-7.5 -28l2 -2q18 6 63 6h195l-13 -61h-194q-26 0 -62 6l-2 -2q-1 -9 -16 -103l-172 -888q-30 -154 -124.5 -232t-233.5 -78q-46 0 -132 9l35 178q47 -4 99 -4q65 0 107 39.5
t61 136.5l161 839q14 69 25 103l-2 2q-30 -6 -66 -6h-155l12 61h156q48 0 63 -6l2 2q0 13 6 55l13 56q40 185 149.5 265.5t286.5 80.5z" />
    <glyph glyph-name="AEacute" unicode="&#x1fc;" horiz-adv-x="1810" 
d="M1573 1522h-135l-2 4l221 221h223v-6zM1438 1231q-33 0 -49 8l-7 -4q4 -18 -4 -53l-49 -254q-5 -33 -16 -51l4 -5q21 9 53 9h442l-40 -203h-443q-30 0 -49 8l-4 -4q2 -11 -4 -53l-74 -377q-5 -35 -16 -53l2 -4q21 8 53 8h500l-39 -203h-752l64 328q6 36 16 53l-2 4
q-21 -8 -53 -8h-473l-312 -377h-258l1215 1434h825l-39 -203h-491zM1006 559q36 0 49 -8l6 4q-2 12 4 51l96 494q8 46 43 160h-2q-56 -102 -104 -160l-381 -455q-31 -38 -51 -57.5t-50 -36.5l2 -4q37 12 103 12h285z" />
    <glyph glyph-name="aeacute" unicode="&#x1fd;" horiz-adv-x="1751" 
d="M1417 1448v-4l-360 -311h-137l-2 4l253 311h246zM1198 -31q-294 0 -383 219h-4q-134 -217 -408 -217q-176 0 -272 89t-96 235q0 147 96.5 242.5t271.5 95.5q248 0 338 -201l7 2q-12 66 4 148q10 55 10 77q0 54 -42 93t-145 39q-111 0 -296 -39l-37 182q76 17 180 29
t178 12q137 0 208 -46t93 -145h6q128 193 377 193q192 0 301 -107.5t109 -283.5q0 -53 -21 -152h-614q-93 0 -121 17l-6 -5l4 -16v-31q0 -109 64 -175t196 -66q95 0 164.5 35.5t148.5 107.5l119 -143q-96 -93 -194 -141t-236 -48zM958 565q33 21 101 21h323q90 0 109 -19
l6 4q-2 4 -2 11q0 110 -59 166.5t-172 56.5q-231 0 -308 -236zM442 133q102 0 172 50t70 120q0 68 -65.5 116t-167.5 48q-103 0 -154 -50.5t-51 -123.5q0 -77 54 -118.5t142 -41.5z" />
    <glyph glyph-name="Oslashacute" unicode="&#x1fe;" horiz-adv-x="1638" 
d="M1077 1522h-135l-2 4l221 221h223v-6zM1470 1276q195 -186 195 -492q0 -173 -63.5 -324.5t-173.5 -259t-265 -169.5t-332 -62q-260 0 -446 131l-125 -137l-61 51l125 136q-201 192 -201 499q0 231 107.5 417.5t298.5 292t427 105.5q270 0 455 -137l125 135l59 -51z
M352 637q0 -196 127 -320l778 844q-129 90 -309 90q-264 0 -430 -171t-166 -443zM840 182q264 0 430 171.5t166 443.5q0 188 -119 313l-776 -844q127 -84 299 -84z" />
    <glyph glyph-name="oslashacute" unicode="&#x1ff;" horiz-adv-x="1150" 
d="M879 1448h245v-4l-360 -311h-137l-2 4zM1067 977l49 -49l-119 -111q93 -117 93 -287q0 -160 -73 -288.5t-202 -200.5t-289 -72q-200 0 -325 109l-113 -107l-51 47l117 109q-93 117 -93 289q0 160 73 288.5t202 200.5t289 72q200 0 325 -109zM270 428q0 -92 41 -154
l484 449q-72 57 -189 57q-148 0 -242 -99t-94 -253zM881 518q0 92 -41 154l-482 -449q69 -57 187 -57q148 0 242 99t94 253z" />
    <glyph glyph-name="Scommaaccent" unicode="&#x218;" horiz-adv-x="1030" 
d="M485 -31q-139 0 -276 52.5t-238 144.5l131 182q91 -80 191 -123t194 -43q104 0 163 50t59 137q0 97 -119 204l-225 201q-156 138 -156 326q0 165 113 264.5t303 99.5q194 0 407 -135l-121 -190q-160 112 -295 112q-82 0 -130 -42t-48 -109q0 -83 109 -176l209 -185
q97 -86 140.5 -172t43.5 -190q0 -189 -121 -298.5t-334 -109.5zM563 -104l-229 -336h-107l135 336h201z" />
    <glyph glyph-name="scommaaccent" unicode="&#x219;" horiz-adv-x="819" 
d="M88 281q149 -125 295 -125q58 0 92.5 25.5t34.5 68.5q0 28 -16.5 51t-59.5 55l-131 95q-151 109 -151 256q0 124 81.5 197t221.5 73q175 0 340 -109l-101 -161q-131 84 -225 84q-54 0 -83.5 -23.5t-29.5 -65.5q0 -30 18.5 -53t76.5 -65l114 -80q79 -57 115.5 -118.5
t36.5 -137.5q0 -133 -87 -206t-245 -73q-115 0 -223.5 41t-188.5 115zM457 -104l-230 -336h-106l135 336h201z" />
    <glyph glyph-name="uni021A" unicode="&#x21a;" horiz-adv-x="1064" 
d="M1231 1434l-39 -205h-356q-34 0 -50 8l-6 -4q3 -17 -2 -51l-229 -1182h-213l229 1182q6 35 15 51l-2 4q-19 -8 -54 -8h-356l39 205h1024zM528 -104l-229 -336h-106l135 336h200z" />
    <glyph glyph-name="uni021B" unicode="&#x21b;" horiz-adv-x="643" 
d="M606 1452l-80 -410q-15 -79 -28 -108l6 -4q24 16 86 16h94l-37 -192h-94q-64 0 -80 16l-8 -4q2 -33 -12 -111l-127 -655h-201l127 655q12 69 29 111l-5 4q-24 -16 -88 -16h-82l37 192h82q66 0 82 -16l6 4q0 41 13 108l53 273l215 137h12zM311 -104l-229 -336h-107
l136 336h200z" />
    <glyph glyph-name="uni0237" unicode="&#x237;" horiz-adv-x="466" 
d="M426 946l-201 -1034q-36 -184 -143 -268t-279 -84h-34l38 196h15q94 0 141.5 45.5t69.5 157.5l192 987h201z" />
    <glyph glyph-name="uni02BC" unicode="&#x2bc;" horiz-adv-x="385" 
d="M328 1495h194l-248 -477h-96z" />
    <glyph glyph-name="circumflex" unicode="&#x2c6;" horiz-adv-x="880" 
d="M731 1448l176 -311v-4h-155l-62 102q-36 59 -46.5 83.5t-10.5 51.5h-8q-11 -28 -32 -52.5t-79 -82.5l-102 -102h-181v4l299 311h201z" />
    <glyph glyph-name="caron" unicode="&#x2c7;" horiz-adv-x="882" 
d="M467 1124l-176 312v4h155l62 -103q36 -59 46.5 -83.5t10.5 -51.5h8q11 28 32 52.5t79 82.5l102 103h181v-4l-299 -312h-201z" />
    <glyph glyph-name="breve" unicode="&#x2d8;" horiz-adv-x="770" 
d="M535 1147q-116 0 -184 58.5t-68 166.5q0 35 8 74h133q-4 -36 -4 -49q0 -123 121 -123q142 0 180 172h135q-26 -146 -107.5 -222.5t-213.5 -76.5z" />
    <glyph glyph-name="dotaccent" unicode="&#x2d9;" horiz-adv-x="432" 
d="M516 1434l-53 -271h-225l53 271h225z" />
    <glyph glyph-name="ring" unicode="&#x2da;" horiz-adv-x="694" 
d="M516 1530q103 0 168.5 -62.5t65.5 -160.5q0 -103 -70 -179.5t-186 -76.5q-103 0 -167.5 62.5t-64.5 160.5q0 103 69 179.5t185 76.5zM514 1434q-75 0 -112 -48.5t-37 -109.5q0 -59 35 -94t96 -35q75 0 112 48.5t37 109.5q0 59 -35 94t-96 35z" />
    <glyph glyph-name="ogonek" unicode="&#x2db;" horiz-adv-x="532" 
d="M117 -385q-69 0 -111.5 33.5t-42.5 91.5q0 80 70 147.5t231 169.5l68 -37q-120 -83 -173 -135.5t-53 -93.5q0 -49 66 -49q40 0 84 12l12 -110q-78 -29 -151 -29z" />
    <glyph glyph-name="tilde" unicode="&#x2dc;" horiz-adv-x="915" 
d="M754 1180q-54 0 -110.5 26t-105.5 52t-85 26q-67 0 -127 -92l-80 22q87 228 246 228q42 0 87 -16.5t77 -36t69.5 -36t67.5 -16.5q35 0 64.5 22.5t60.5 70.5l77 -23q-18 -48 -38 -85t-49 -71t-68 -52.5t-86 -18.5z" />
    <glyph glyph-name="hungarumlaut" unicode="&#x2dd;" horiz-adv-x="868" 
d="M233 1133l-2 4l297 311h166v-4l-309 -311h-152zM496 1133l-2 4l294 311h166v-4l-309 -311h-149z" />
    <glyph glyph-name="gravecomb" unicode="&#x300;" horiz-adv-x="0" 
d="M-111 1448l138 -311l-4 -4h-138l-239 311l2 4h241z" />
    <glyph glyph-name="acutecomb" unicode="&#x301;" horiz-adv-x="0" 
d="M86 1448v-4l-360 -311h-138l-2 4l254 311h246z" />
    <glyph glyph-name="uni0302" unicode="&#x302;" horiz-adv-x="0" 
d="M-150 1448l177 -311v-4h-156l-61 102q-37 61 -47.5 84.5t-10.5 50.5h-8q-11 -28 -32 -52.5t-79 -82.5l-102 -102h-180v4l299 311h200z" />
    <glyph glyph-name="tildecomb" unicode="&#x303;" horiz-adv-x="0" 
d="M-162 1180q-54 0 -110.5 26t-105.5 52t-85 26q-67 0 -127 -92l-80 22q87 228 246 228q42 0 87 -16.5t77 -36t69.5 -36t67.5 -16.5q35 0 64.5 22.5t60.5 70.5l78 -23q-18 -48 -38.5 -85t-49 -71t-68 -52.5t-86.5 -18.5z" />
    <glyph glyph-name="uni0304" unicode="&#x304;" horiz-adv-x="0" 
d="M74 1374l-29 -143h-596l29 143h596z" />
    <glyph glyph-name="uni0306" unicode="&#x306;" horiz-adv-x="0" 
d="M-236 1147q-116 0 -183.5 58.5t-67.5 166.5q0 35 8 74h133q-4 -36 -4 -49q0 -123 121 -123q142 0 180 172h135q-26 -146 -107.5 -222.5t-214.5 -76.5z" />
    <glyph glyph-name="uni0307" unicode="&#x307;" horiz-adv-x="0" 
d="M84 1434l-53 -271h-226l54 271h225z" />
    <glyph glyph-name="uni0308" unicode="&#x308;" horiz-adv-x="0" 
d="M-279 1434l-49 -250h-184l49 250h184zM84 1434l-49 -250h-187l50 250h186z" />
    <glyph glyph-name="uni030A" unicode="&#x30a;" horiz-adv-x="0" 
d="M-178 1530q103 0 168 -62.5t65 -160.5q0 -103 -70 -179.5t-186 -76.5q-103 0 -167 62.5t-64 160.5q0 103 69 179.5t185 76.5zM-180 1434q-75 0 -112.5 -48.5t-37.5 -109.5q0 -59 35 -94t96 -35q75 0 112.5 48.5t37.5 109.5q0 59 -35 94t-96 35z" />
    <glyph glyph-name="uni030B" unicode="&#x30b;" horiz-adv-x="0" 
d="M-635 1133l-2 4l297 311h166v-4l-309 -311h-152zM-373 1133l-2 4l295 311h166v-4l-309 -311h-150z" />
    <glyph glyph-name="uni030C" unicode="&#x30c;" horiz-adv-x="0" 
d="M-403 1124l-177 312v4h156l62 -103q36 -59 46.5 -83.5t10.5 -51.5h8q11 28 32 52.5t79 82.5l102 103h180v-4l-299 -312h-200z" />
    <glyph glyph-name="uni0326" unicode="&#x326;" horiz-adv-x="0" 
d="M-215 -104l-229 -336h-107l135 336h201z" />
    <glyph glyph-name="uni0327" unicode="&#x327;" horiz-adv-x="0" 
d="M-322 59l-71 -129q73 -22 115 -52.5t42 -80.5q0 -29 -13.5 -56.5t-43 -52.5t-55.5 -43.5t-73 -41.5t-71.5 -34t-74.5 -32l-19 66q116 59 144 83q30 25 30 48q0 49 -129 80l138 245h81z" />
    <glyph glyph-name="uni0328" unicode="&#x328;" horiz-adv-x="0" 
d="M-416 -385q-68 0 -110.5 33.5t-42.5 91.5q0 80 70 147.5t231 169.5l67 -37q-119 -82 -172 -134.5t-53 -94.5q0 -49 66 -49q40 0 84 12l12 -110q-78 -29 -152 -29z" />
    <glyph glyph-name="uni0394" unicode="&#x394;" 
d="M707 1434l510 -1434h-1205l510 1434h185zM614 1161l-356 -1061h711z" />
    <glyph glyph-name="uni03A9" unicode="&#x3a9;" horiz-adv-x="1550" 
d="M776 1464q157 0 289 -51t222.5 -139.5t141 -211t50.5 -263.5q0 -101 -28 -191.5t-76 -161t-114 -127t-141.5 -94.5t-158.5 -59l-3 -6q91 16 187 16h299l-2 -176h-586l2 283q186 43 299 181.5t113 326.5q0 216 -134.5 348.5t-359.5 132.5q-228 0 -361.5 -131.5
t-133.5 -339.5q0 -195 113 -335t300 -183l-2 -283h-586l3 176h299q91 0 182 -16l2 6q-105 27 -196.5 81t-165 133t-116 190t-42.5 239q0 137 49.5 256.5t139 208t223 139.5t292.5 51z" />
    <glyph glyph-name="pi" unicode="&#x3c0;" 
d="M1272 977l-37 -184h-217l-154 -793h-194l153 793h-262l-346 -793h-192l344 793q-143 -6 -258 -41l36 184q125 41 293 41h834z" />
    <glyph glyph-name="uni0401" unicode="&#x401;" horiz-adv-x="1056" 
d="M561 1749h184l-45 -227h-184zM913 1749h187l-45 -227h-187zM1153 1434l-39 -201h-551q-33 0 -49 8l-6 -4q4 -18 -4 -53l-49 -256q-5 -31 -17 -51l4 -5q21 9 54 9h483l-39 -201h-483q-32 0 -51 8l-5 -4q2 -12 -4 -53l-73 -381q-9 -39 -17 -53l2 -4q21 8 53 8h560l-39 -201
h-822l279 1434h813z" />
    <glyph glyph-name="uni0402" unicode="&#x402;" horiz-adv-x="1488" 
d="M1085 872q351 0 351 -294q0 -50 -13 -123l-6 -33l-6 -37q-30 -179 -144 -282t-292 -103h-182l38 201h119q102 0 163.5 41.5t84.5 150.5l12 58q9 56 9 65q0 156 -193 156q-166 0 -424 -70l-117 -602h-213l209 1077h2l21 109q6 38 14 51l-2 4q-19 -8 -53 -8h-295l39 201
h1044l-39 -201h-438q-33 0 -49 8l-6 -4q3 -17 -2 -51l-21 -109h-2l-35 -182q-11 -63 -30 -94l4 -4q210 75 452 75z" />
    <glyph glyph-name="uni0403" unicode="&#x403;" horiz-adv-x="983" 
d="M1137 1747v-6l-308 -219h-135l-2 4l221 221h224zM61 0l279 1434h809l-39 -205h-547q-32 0 -51 8l-4 -4q2 -12 -4 -51l-230 -1182h-213z" />
    <glyph glyph-name="uni0404" unicode="&#x404;" horiz-adv-x="1398" 
d="M967 1464q284 0 487 -164l-133 -180q-80 58 -169 93.5t-212 35.5q-198 0 -346 -99t-215 -282q-9 -26 -27 -51l2 -4q21 6 64 6h545l-41 -205h-519q-38 0 -59 7l-4 -5q3 -20 6 -51q17 -184 145 -282.5t320 -98.5q104 0 186.5 29.5t167.5 85.5l115 -178q-228 -152 -485 -152
q-307 0 -490.5 184t-183.5 490q0 174 63 326t173.5 261t268.5 171.5t341 62.5z" />
    <glyph glyph-name="uni0405" unicode="&#x405;" horiz-adv-x="1030" 
d="M485 -31q-139 0 -276 52.5t-238 144.5l131 182q91 -80 191 -123t194 -43q104 0 163 50t59 137q0 97 -119 204l-225 201q-156 138 -156 326q0 165 113 264.5t303 99.5q194 0 407 -135l-121 -190q-160 112 -295 112q-82 0 -130 -42t-48 -109q0 -83 109 -176l209 -185
q97 -86 140.5 -172t43.5 -190q0 -189 -121 -298.5t-334 -109.5z" />
    <glyph glyph-name="uni0406" unicode="&#x406;" horiz-adv-x="524" 
d="M557 1434l-278 -1434h-218l279 1434h217z" />
    <glyph glyph-name="uni0407" unicode="&#x407;" horiz-adv-x="524" 
d="M233 1749h185l-45 -227h-185zM586 1749h186l-45 -227h-186zM557 1434l-278 -1434h-218l279 1434h217z" />
    <glyph glyph-name="uni0408" unicode="&#x408;" horiz-adv-x="616" 
d="M649 1434l-215 -1112q-35 -180 -122.5 -256t-260.5 -76q-25 0 -92 6l39 201q23 -2 76 -2q65 0 99.5 34t51.5 117l211 1088h213z" />
    <glyph glyph-name="uni0409" unicode="&#x409;" horiz-adv-x="2195" 
d="M1694 866q213 0 330.5 -104t117.5 -295q0 -114 -43 -204.5t-118 -147t-172.5 -86t-209.5 -29.5h-530l193 993l38 193q6 35 15 51l-2 4q-21 -8 -53 -8h-560q-33 0 -49 8l-6 -4q3 -17 -2 -51l-57 -297l-111 -567q-34 -178 -120.5 -255t-262.5 -77q-72 0 -133 10l39 201
q47 -6 117 -6q62 0 97.5 32t53.5 119l107 543l104 545h1084l-86 -441l-15 -80q-7 -36 -16 -51l4 -4q19 8 51 8h195zM1610 201q147 0 227 70.5t80 189.5q0 99 -59.5 152t-178.5 53h-219q-33 0 -49 8l-6 -4q4 -18 -2 -52l-72 -368q-5 -36 -16 -53l4 -4q19 8 51 8h240z" />
    <glyph glyph-name="uni040A" unicode="&#x40a;" horiz-adv-x="2123" 
d="M61 0l279 1434h213l-100 -519q-5 -31 -17 -51l4 -4q19 8 52 8h626q32 0 51 -8l5 4q-2 12 4 51l100 519h213l-100 -519q-5 -31 -17 -51l4 -4q19 8 52 8h192q213 0 331 -105t118 -296q0 -114 -43 -204.5t-118 -147t-172.5 -86t-209.5 -29.5h-529l119 616q6 37 15 52l-3 4
q-21 -8 -53 -8h-624q-34 0 -50 8l-6 -4q4 -18 -2 -52l-121 -616h-213zM1247 193q21 8 53 8h238q147 0 227 70.5t80 189.5q0 99 -59 153t-178 54h-217q-34 0 -50 8l-4 -4q2 -12 -4 -51l-71 -371q-5 -33 -17 -53z" />
    <glyph glyph-name="uni040B" unicode="&#x40b;" horiz-adv-x="1540" 
d="M1020 956q381 0 381 -329q0 -78 -21 -183l-86 -444h-213l97 494q8 39 8 79q0 93 -53.5 132.5t-151.5 39.5q-158 0 -363 -67l-133 -678h-213l232 1182q6 38 14 51l-2 4q-19 -8 -53 -8h-295l39 205h1024l-39 -205h-418q-33 0 -49 8l-6 -4q3 -17 -2 -51l-21 -105l-20 -106
q-11 -61 -31 -94l2 -5q207 84 373 84z" />
    <glyph glyph-name="uni040C" unicode="&#x40c;" horiz-adv-x="1257" 
d="M1202 1747v-6l-307 -219h-135l-2 4l221 221h223zM1026 -8q-47 0 -86.5 11.5t-77 38.5t-60.5 81.5t-26 132.5l-8 225q-6 172 -199 172h-112q-48 0 -64 4l-2 -2q3 -37 -6 -84l-111 -571h-213l279 1434h213l-96 -496q-7 -36 -27 -82l2 -2q24 6 66 6h118q172 0 236 148
l100 237q45 108 124 151.5t200 43.5q42 0 110 -6l-38 -203q-40 4 -62 4q-116 0 -149 -82l-70 -176q-47 -119 -122 -162.5t-224 -52.5v-4q73 -3 121 -19.5t75.5 -50.5t39.5 -78t14 -110l6 -181q3 -65 33.5 -88.5t91.5 -23.5q24 0 74 4l-41 -211q-52 -8 -109 -8z" />
    <glyph glyph-name="uni040E" unicode="&#x40e;" horiz-adv-x="1280" 
d="M1102 1767q-29 -148 -106.5 -217t-207.5 -69q-120 0 -182.5 56.5t-62.5 160.5q0 32 6 69h133q-8 -39 -8 -61q0 -107 125 -107q78 0 114.5 43t51.5 125h137zM236 -18q-107 0 -199 28l55 201q83 -27 150 -27q82 0 147.5 45t126.5 144l-319 1061h241l178 -660
q5 -20 15.5 -57.5t14 -52t9 -38.5t7 -42t0.5 -37l6 2q19 57 27.5 79.5t28.5 60.5t54 91l418 654h260l-719 -1112q-47 -75 -81 -122t-79 -93t-91.5 -70.5t-109 -39.5t-140.5 -15z" />
    <glyph glyph-name="uni040F" unicode="&#x40f;" horiz-adv-x="1458" 
d="M481 -287l47 240q6 35 15 51l-2 4q-21 -8 -54 -8h-426l279 1434h213l-229 -1188q-5 -31 -17 -51l2 -5q24 9 53 9h627q31 0 49 -9l6 5q-2 9 5 51l229 1188h213l-279 -1434h-426q-33 0 -49 8l-6 -4q3 -17 -2 -51l-47 -240h-201z" />
    <glyph glyph-name="uni0410" unicode="&#x410;" horiz-adv-x="1425" 
d="M-72 0l967 1464h20l398 -1464h-219l-99 377h-571l-236 -377h-260zM524 555q36 4 115 4h207q77 0 117 -4l2 2q-27 45 -43 117l-54 248q-22 110 -16 163h-12q-12 -52 -80 -163l-150 -248q-47 -76 -88 -117z" />
    <glyph glyph-name="uni0411" unicode="&#x411;" horiz-adv-x="1259" 
d="M563 1229q-33 0 -49 8l-6 -4q4 -18 -4 -53l-37 -187l-14 -80q-6 -33 -17 -51l4 -4q19 8 52 8h215q213 0 330.5 -104t117.5 -295q0 -114 -43 -204.5t-118 -147t-172.5 -86t-209.5 -29.5h-551l193 993l86 441h924l-39 -205h-662zM453 666q-34 0 -50 8l-6 -4q4 -18 -2 -52
l-71 -368q-5 -33 -17 -53l4 -4q19 8 51 8h261q147 0 227 70.5t80 189.5q0 99 -59.5 152t-178.5 53h-239z" />
    <glyph glyph-name="uni0412" unicode="&#x412;" horiz-adv-x="1277" 
d="M61 0l279 1434h510q162 0 262 -89t100 -233q0 -122 -63.5 -211t-179.5 -129q-71 -22 -123 -22l-2 -9q48 0 119 -14q97 -22 150.5 -100.5t53.5 -198.5q0 -198 -142 -313t-386 -115h-578zM434 829q21 9 53 9h242q115 0 184.5 58t69.5 155q0 182 -233 182h-187q-33 0 -49 8
l-6 -4q2 -5 -4 -53l-58 -299q-8 -38 -16 -51zM309 193q21 8 53 8h283q146 0 222.5 58.5t76.5 168.5q0 104 -69.5 158.5t-204.5 54.5h-221q-34 0 -50 8l-6 -4q3 -9 -4 -51l-65 -344q-6 -37 -17 -53z" />
    <glyph glyph-name="uni0413" unicode="&#x413;" horiz-adv-x="983" 
d="M61 0l279 1434h809l-39 -205h-547q-32 0 -51 8l-4 -4q2 -12 -4 -51l-230 -1182h-213z" />
    <glyph glyph-name="uni0414" unicode="&#x414;" horiz-adv-x="1411" 
d="M-137 -287l92 471h96q37 0 53 -8l5 4q7 28 24 53q162 229 249.5 426t147.5 500l56 275h794l-233 -1201q-5 -34 -17 -53l5 -4q21 8 55 8h104l-92 -471h-201l43 221q6 38 19 54l-4 4q-19 -8 -53 -8h-840q-35 0 -51 8l-4 -4q2 -10 -5 -54l-43 -221h-200zM342 174
q20 10 55 10h480q33 0 49 -8l4 4q-2 12 4 53l184 951q9 39 17 53l-2 4q-21 -8 -54 -8h-270q-33 0 -49 8l-6 -4q4 -18 -4 -53l-13 -66q-54 -266 -160.5 -516t-238.5 -424z" />
    <glyph glyph-name="uni0415" unicode="&#x415;" horiz-adv-x="1056" 
d="M1153 1434l-39 -201h-551q-33 0 -49 8l-6 -4q4 -18 -4 -53l-49 -256q-5 -31 -17 -51l4 -5q21 9 54 9h483l-39 -201h-483q-32 0 -51 8l-5 -4q2 -12 -4 -53l-73 -381q-9 -39 -17 -53l2 -4q21 8 53 8h560l-39 -201h-822l279 1434h813z" />
    <glyph glyph-name="uni0416" unicode="&#x416;" horiz-adv-x="1855" 
d="M1888 1440q50 0 123 -6l-39 -199q-40 4 -57 4q-109 0 -146 -86l-73 -176q-51 -120 -124.5 -163t-221.5 -52v-4q81 -4 123 -23t65 -71.5t27 -153.5l8 -184q3 -58 34 -88.5t87 -30.5q17 0 67 4l-41 -211q-52 -8 -104 -8q-40 0 -73.5 7t-66.5 27.5t-56 52.5t-37.5 85.5
t-16.5 124.5l-6 215q-2 89 -39.5 126.5t-130.5 37.5h-64q-47 0 -63 4l-2 -2q3 -37 -6 -84l-113 -586h-213l115 586q9 50 26 84l-2 2q-16 -4 -61 -4h-82q-76 0 -128.5 -38.5t-88.5 -125.5l-117 -287q-47 -118 -128.5 -171.5t-209.5 -53.5q-47 0 -102 8l41 211q50 -4 59 -4
q114 0 160 110l100 238q32 77 62.5 115.5t87.5 61t155 26.5v4q-135 9 -184.5 53t-56.5 168l-10 170q-3 51 -36.5 68.5t-86.5 17.5q-24 0 -64 -4l39 199q62 6 102 6q119 0 173 -45.5t63 -153.5l18 -233q13 -158 185 -158h84q35 0 59 -6l2 2q-3 35 6 82l99 506h213l-99 -506
q-9 -47 -26 -82l2 -2q24 6 65 6h80q168 0 236 158l104 237q45 108 119 151.5t186 43.5z" />
    <glyph glyph-name="uni0417" unicode="&#x417;" horiz-adv-x="1300" 
d="M567 -31q-283 0 -508 115l115 201q192 -97 406 -97q172 0 248.5 65.5t76.5 174.5q0 107 -68.5 162t-189.5 55h-213l41 213h211q133 0 219 61t86 171q0 86 -59 122.5t-178 36.5q-202 0 -410 -78l-70 203q257 90 494 90q220 0 335.5 -89.5t115.5 -256.5q0 -131 -69.5 -210
t-227.5 -126q-54 -17 -154 -24l-2 -6q86 0 139 -13q111 -27 168 -109t57 -204q0 -65 -16 -126.5t-56.5 -122.5t-102.5 -106.5t-162 -73.5t-226 -28z" />
    <glyph glyph-name="uni0418" unicode="&#x418;" horiz-adv-x="1511" 
d="M1530 1454h18l-282 -1454h-213l145 754q33 170 70 256l-6 2q-54 -83 -146 -160l-1040 -872h-19l283 1454h213l-145 -754q-33 -170 -70 -256l6 -2q55 85 145 160z" />
    <glyph glyph-name="uni0419" unicode="&#x419;" horiz-adv-x="1511" 
d="M1288 1767q-29 -148 -106 -217t-207 -69q-120 0 -183 56.5t-63 160.5q0 32 6 69h133q-8 -39 -8 -61q0 -107 125 -107q78 0 114.5 43t51.5 125h137zM1530 1454h18l-282 -1454h-213l145 754q33 170 70 256l-6 2q-54 -83 -146 -160l-1040 -872h-19l283 1454h213l-145 -754
q-33 -170 -70 -256l6 -2q55 85 145 160z" />
    <glyph glyph-name="uni041A" unicode="&#x41a;" horiz-adv-x="1257" 
d="M1026 -8q-47 0 -86.5 11.5t-77 38.5t-60.5 81.5t-26 132.5l-8 225q-6 172 -199 172h-112q-48 0 -64 4l-2 -2q3 -37 -6 -84l-111 -571h-213l279 1434h213l-96 -496q-7 -36 -27 -82l2 -2q24 6 66 6h118q172 0 236 148l100 237q45 108 124 151.5t200 43.5q42 0 110 -6
l-38 -203q-40 4 -62 4q-116 0 -149 -82l-70 -176q-47 -119 -122 -162.5t-224 -52.5v-4q73 -3 121 -19.5t75.5 -50.5t39.5 -78t14 -110l6 -181q3 -65 33.5 -88.5t91.5 -23.5q24 0 74 4l-41 -211q-52 -8 -109 -8z" />
    <glyph glyph-name="uni041B" unicode="&#x41b;" horiz-adv-x="1527" 
d="M1561 1434l-109 -564l-170 -870h-213l170 870l61 316q6 35 15 51l-2 4q-21 -8 -53 -8h-560q-33 0 -49 8l-6 -4q3 -17 -2 -51l-57 -297l-111 -567q-34 -178 -120.5 -255t-262.5 -77q-72 0 -133 10l39 201q47 -6 117 -6q62 0 97.5 32t53.5 119l107 543l104 545h1084z" />
    <glyph glyph-name="uni041C" unicode="&#x41c;" horiz-adv-x="1818" 
d="M815 -14l-184 753q-6 24 -10.5 45.5t-7 41.5t-4.5 33t-2.5 32t-0.5 26v27.5v24.5h-6q-1 -5 -7.5 -31.5t-11.5 -44l-13 -45.5t-19.5 -56t-24.5 -55l-354 -737h-242l711 1454h31l207 -901q13 -54 6 -166h8q25 95 67 166l547 901h33l168 -1454h-201l-90 737q-12 104 8 232
h-6q-5 -12 -17 -43t-21 -51.5t-28.5 -57.5t-45.5 -78l-467 -753h-23z" />
    <glyph glyph-name="uni041D" unicode="&#x41d;" horiz-adv-x="1458" 
d="M1491 1434l-279 -1434h-217l119 608q5 33 16 51l-4 5q-24 -9 -53 -9h-618q-31 0 -49 9l-5 -5q2 -12 -4 -51l-118 -608h-218l279 1434h217l-102 -527q-5 -31 -17 -51l4 -4q19 8 54 8h618q30 0 49 -8l4 4q-2 12 4 51l103 527h217z" />
    <glyph glyph-name="uni041E" unicode="&#x41e;" horiz-adv-x="1693" 
d="M831 -31q-319 0 -513.5 187t-194.5 493q0 231 107.5 417.5t298.5 292t427 105.5q319 0 514 -187t195 -493q0 -173 -63.5 -324.5t-173.5 -259t-265 -169.5t-332 -62zM840 182q264 0 430 171.5t166 443.5q0 202 -135.5 328t-352.5 126q-264 0 -430 -171t-166 -443
q0 -202 135.5 -328.5t352.5 -126.5z" />
    <glyph glyph-name="uni041F" unicode="&#x41f;" horiz-adv-x="1429" 
d="M61 0l279 1434h1122l-278 -1434h-213l229 1186q5 31 17 51l-3 4q-21 -8 -53 -8h-598q-33 0 -49 8l-6 -4q2 -12 -4 -51l-230 -1186h-213z" />
    <glyph glyph-name="uni0420" unicode="&#x420;" horiz-adv-x="1124" 
d="M756 1434q198 0 310 -100.5t112 -278.5q0 -199 -134.5 -316.5t-361.5 -117.5h-238q-33 0 -49 8l-6 -4q4 -11 -4 -52l-111 -573h-213l279 1434h416zM514 1241l-6 -4q2 -7 -4 -53l-60 -314q-5 -37 -16 -53l2 -4q21 8 53 8h201q126 0 196 60t70 166q0 88 -55.5 137
t-155.5 49h-176q-33 0 -49 8z" />
    <glyph glyph-name="uni0421" unicode="&#x421;" horiz-adv-x="1398" 
d="M795 -31q-306 0 -490 183.5t-184 486.5q0 237 108.5 425.5t302 294t437.5 105.5q283 0 485 -164l-133 -180q-175 129 -377 129q-255 0 -423.5 -171.5t-168.5 -430.5q0 -214 123.5 -338.5t335.5 -124.5q177 0 354 115l115 -178q-229 -152 -485 -152z" />
    <glyph glyph-name="uni0422" unicode="&#x422;" horiz-adv-x="1064" 
d="M1231 1434l-39 -205h-356q-34 0 -50 8l-6 -4q3 -17 -2 -51l-229 -1182h-213l229 1182q6 35 15 51l-2 4q-19 -8 -54 -8h-356l39 205h1024z" />
    <glyph glyph-name="uni0423" unicode="&#x423;" horiz-adv-x="1280" 
d="M236 -18q-107 0 -199 28l55 201q83 -27 150 -27q82 0 147.5 45t126.5 144l-319 1061h241l178 -660q5 -20 15.5 -57.5t14 -52t9 -38.5t7 -42t0.5 -37l6 2q19 57 27.5 79.5t28.5 60.5t54 91l418 654h260l-719 -1112q-47 -75 -81 -122t-79 -93t-91.5 -70.5t-109 -39.5
t-140.5 -15z" />
    <glyph glyph-name="uni0424" unicode="&#x424;" horiz-adv-x="1761" 
d="M684 -20l10 57q7 38 23 61l-2 2q-24 -6 -72 -6q-70 0 -141 21t-139.5 67.5t-121 112.5t-84.5 163.5t-32 213.5q0 313 203.5 490t541.5 177q52 0 76 -6l2 2q-4 31 2 62l11 57h208l-10 -57q-7 -41 -22 -62l2 -2q24 6 71 6q76 0 149 -21.5t140.5 -68t118.5 -113.5t81 -165
t30 -215q0 -156 -54 -281t-152 -208.5t-235.5 -128t-304.5 -44.5q-52 0 -76 6l-2 -2q4 -31 -2 -61l-10 -57h-209zM764 291l4 2q-4 32 2 63l129 721q8 39 23 64l-4 2q-20 -4 -62 -4q-131 -2 -230 -38t-158.5 -99t-88.5 -143.5t-29 -178.5q0 -85 22 -153t57.5 -110.5
t82.5 -70.5t94 -39.5t96 -11.5q50 0 62 -4zM936 291q16 4 63 4q132 2 230.5 37t158 96.5t88.5 140.5t29 176q0 104 -28.5 182t-78.5 123t-111 67t-134 22q-49 0 -63 4l-3 -2q4 -33 -2 -64l-129 -721q-8 -40 -22 -63z" />
    <glyph glyph-name="uni0425" unicode="&#x425;" horiz-adv-x="1284" 
d="M1427 1434l-407 -480q-150 -177 -189 -206l-2 -9q41 -68 103 -200l256 -539h-242l-192 430q-52 114 -56 178h-8q-18 -49 -125 -178l-356 -430h-281l480 567q128 151 176 195l2 8q-9 13 -19 31t-18 35t-30 63t-40 84l-217 451h246l158 -361q34 -77 43.5 -105t15.5 -69h8
q23 51 123 172l301 363h270z" />
    <glyph glyph-name="uni0426" unicode="&#x426;" horiz-adv-x="1445" 
d="M1036 -283l45 236q5 31 17 51l-2 4q-19 -8 -56 -8h-979l279 1434h213l-229 -1186q-4 -26 -19 -51l4 -4q19 8 53 8h537q34 0 53 -8l4 4q-3 17 2 51l230 1186h213l-230 -1186q-5 -29 -18 -51l4 -4q16 8 53 8h121l-94 -484h-201z" />
    <glyph glyph-name="uni0427" unicode="&#x427;" horiz-adv-x="1249" 
d="M791 0l98 520q11 61 31 94l-2 4q-208 -75 -412 -75q-182 0 -283.5 79t-101.5 246q0 82 26 205l72 361h213l-74 -367q-16 -85 -16 -137q0 -57 15.5 -94.5t46.5 -55t63.5 -24t79.5 -6.5q152 0 401 69l121 615h213l-278 -1434h-213z" />
    <glyph glyph-name="uni0428" unicode="&#x428;" horiz-adv-x="2013" 
d="M61 0l279 1434h213l-229 -1186q-4 -26 -19 -51l4 -4q19 8 53 8h435q34 0 53 -8l4 4q-3 17 2 51l229 1186h213l-229 -1186q-5 -29 -18 -51l4 -4q16 8 53 8h432q34 0 53 -8l4 4q-3 17 2 51l230 1186h213l-275 -1434h-1706z" />
    <glyph glyph-name="uni0429" unicode="&#x429;" horiz-adv-x="2088" 
d="M1851 201h123l-94 -484h-199l45 236q5 31 17 51l-2 4q-21 -8 -55 -8h-1625l279 1434h213l-229 -1186q-4 -26 -19 -51l4 -4q19 8 53 8h435q34 0 53 -8l4 4q-3 17 2 51l229 1186h213l-229 -1186q-5 -29 -18 -51l4 -4q16 8 53 8h432q34 0 53 -8l4 4q-3 17 2 51l230 1186h213
l-230 -1186q-5 -29 -18 -51l4 -4q19 8 53 8z" />
    <glyph glyph-name="uni042A" unicode="&#x42a;" horiz-adv-x="1466" 
d="M965 866q213 0 330.5 -104t117.5 -295q0 -114 -43 -204.5t-118 -147t-172.5 -86t-209.5 -29.5h-551l193 993l37 193q5 33 16 51l-2 4q-21 -8 -55 -8h-340l39 201h602l-84 -441l-14 -80q-6 -33 -17 -51l4 -4q19 8 52 8h215zM881 201q147 0 227 70.5t80 189.5
q0 99 -59.5 152t-178.5 53h-239q-33 0 -49 8l-7 -4q4 -18 -2 -52l-71 -368q-5 -33 -17 -53l4 -4q19 8 52 8h260z" />
    <glyph glyph-name="uni042B" unicode="&#x42b;" horiz-adv-x="1636" 
d="M709 866q213 0 330.5 -104t117.5 -295q0 -114 -43 -204.5t-118 -147t-172.5 -86t-209.5 -29.5h-551l193 995l86 439h213l-86 -439h2l-16 -82q-6 -33 -17 -51l4 -4q19 8 52 8h215zM1452 1434h217l-278 -1434h-217zM625 201q147 0 227 70.5t80 189.5q0 99 -59.5 152
t-178.5 53h-239q-33 0 -49 8l-7 -4q5 -24 -2 -52l-71 -368q-5 -33 -17 -53l4 -4q19 8 52 8h260z" />
    <glyph glyph-name="uni042C" unicode="&#x42c;" horiz-adv-x="1210" 
d="M709 866q213 0 330.5 -104t117.5 -295q0 -114 -43 -204.5t-118 -147t-172.5 -86t-209.5 -29.5h-551l193 995l86 439h213l-86 -439h2l-16 -82q-6 -33 -17 -51l4 -4q19 8 52 8h215zM625 201q147 0 227 70.5t80 189.5q0 99 -59.5 152t-178.5 53h-239q-33 0 -49 8l-7 -4
q5 -24 -2 -52l-71 -368q-5 -33 -17 -53l4 -4q19 8 52 8h260z" />
    <glyph glyph-name="uni042D" unicode="&#x42d;" horiz-adv-x="1400" 
d="M528 -31q-284 0 -487 164l133 180q80 -58 169 -93.5t212 -35.5q198 0 346 99t215 282q9 26 27 51l-2 5q-25 -7 -64 -7h-545l41 205h519q41 0 59 -6l4 4q-3 20 -6 51q-17 184 -145 282.5t-320 98.5q-105 0 -187.5 -29t-166.5 -85l-115 178q226 151 485 151
q307 0 490.5 -183.5t183.5 -489.5q0 -174 -63 -326t-173.5 -261t-268.5 -172t-341 -63z" />
    <glyph glyph-name="uni042E" unicode="&#x42e;" horiz-adv-x="2154" 
d="M1417 1460q319 0 514 -187t195 -493q0 -173 -63.5 -324.5t-173.5 -259t-265 -169.5t-332 -62q-312 0 -505.5 180t-202.5 476h-140q-33 0 -49 8l-6 -4q2 -12 -4 -52l-111 -573h-213l279 1434h213l-109 -562q-5 -33 -16 -51l4 -4q19 8 51 8h119q59 283 282 459t533 176z
M1300 178q264 0 430 171.5t166 443.5q0 202 -135 328t-352 126q-264 0 -430 -171t-166 -443q0 -203 135 -329t352 -126z" />
    <glyph glyph-name="uni042F" unicode="&#x42f;" horiz-adv-x="1234" 
d="M-72 0l502 518q49 52 95.5 84.5t105.5 61.5l-2 2q-52 -9 -70 -9q-25 0 -58.5 10t-74.5 36t-74.5 63.5t-56.5 101t-23 140.5q0 193 132 309.5t358 116.5h506l-279 -1434h-213l115 590q9 41 16 55l-2 4q-19 -8 -47 -8h-24l-627 -641h-279zM942 838l4 4q-2 12 4 51l56 291
q6 33 16 53l-2 4q-21 -8 -53 -8h-209q-129 0 -194.5 -56.5t-65.5 -152.5q0 -94 62.5 -136t180.5 -42h150q32 0 51 -8z" />
    <glyph glyph-name="uni0430" unicode="&#x430;" horiz-adv-x="1032" 
d="M369 -29q-149 0 -242.5 89t-93.5 229q0 158 101 251t274 93q117 0 202.5 -52t128.5 -149l6 2q-11 52 5 148q10 54 10 77q0 63 -49 97.5t-138 34.5q-127 0 -297 -39l-36 182q198 41 358 41q173 0 262.5 -72.5t89.5 -212.5q0 -42 -10 -104l-113 -586h-200q15 90 53 143
l-10 7q-63 -94 -134.5 -136.5t-166.5 -42.5zM442 133q100 0 170 49.5t70 120.5q0 69 -66.5 116.5t-164.5 47.5q-97 0 -152 -46.5t-55 -129.5q0 -72 53 -115t145 -43z" />
    <glyph glyph-name="uni0431" unicode="&#x431;" horiz-adv-x="1234" 
d="M602 -31q-71 0 -138.5 18t-131.5 60t-111.5 103.5t-76.5 156t-29 209.5q0 174 40 319.5t129.5 259.5t221.5 165q47 18 121.5 35.5t132.5 26.5t126 19t75 11q52 9 79 32.5t35 65.5h201q-30 -211 -236 -256q-27 -6 -120.5 -20t-181 -31.5t-146.5 -40.5q-275 -105 -293 -467
h4q55 170 171 250t263 80q123 0 221 -48.5t157 -146.5t59 -231q0 -113 -38.5 -215.5t-109.5 -181.5t-181 -126t-243 -47zM629 166q70 0 127 20t94.5 53.5t63 78.5t36.5 93t11 99q0 137 -74 203.5t-195 66.5q-157 0 -256.5 -98.5t-99.5 -245.5q0 -134 82.5 -202t210.5 -68z
" />
    <glyph glyph-name="uni0432" unicode="&#x432;" horiz-adv-x="1054" 
d="M829 475q62 -22 92.5 -73.5t30.5 -116.5q0 -127 -108 -206t-291 -79h-512l57 297l127 649h498q42 0 79.5 -6.5t72 -22.5t59 -40.5t39 -62.5t14.5 -87q0 -73 -33.5 -123.5t-111.5 -79.5q-58 -21 -129 -26v-4q64 -2 116 -19zM381 717l-10 -53l-11 -52q-8 -37 -20 -53l2 -2
q18 8 59 8h226q61 0 95 31t34 80q0 88 -123 88h-193q-41 0 -57 8l-2 -2q7 -20 0 -53zM578 182q76 0 114.5 34.5t38.5 88.5q0 107 -145 107h-215q-42 0 -56 8l-2 -2q6 -25 0 -53l-12 -68h-2l-12 -68q-4 -25 -21 -53l2 -2q16 8 58 8h252z" />
    <glyph glyph-name="uni0433" unicode="&#x433;" horiz-adv-x="757" 
d="M41 0l184 946h615l-37 -186h-365q-41 0 -55 8l-2 -2q6 -25 0 -53l-139 -713h-201z" />
    <glyph glyph-name="uni0434" unicode="&#x434;" horiz-adv-x="1114" 
d="M-106 -287l88 457h79q36 0 48 -8l2 2q0 20 22 51q89 123 138 228t77 247l49 256h656l-142 -729q-7 -33 -20 -53l2 -2q16 8 57 8h64l-88 -457h-183l48 238q8 37 20 53l-2 2q-18 -8 -59 -8h-568q-41 0 -55 8l-2 -2q6 -25 0 -53l-47 -238h-184zM303 160q25 10 64 10h297
q41 0 57 -8l2 2q-7 20 0 53l98 504q8 36 21 53l-2 2q-18 -8 -60 -8h-178q-41 0 -55 8l-2 -2q6 -25 0 -53l-8 -43q-28 -147 -92 -292.5t-142 -221.5v-4z" />
    <glyph glyph-name="uni0435" unicode="&#x435;" horiz-adv-x="1099" 
d="M535 -31q-220 0 -346 119t-126 328q0 246 155.5 403.5t397.5 157.5q198 0 312 -104.5t114 -286.5q0 -55 -20 -152h-639q-95 0 -121 17l-6 -5l4 -16v-31q0 -116 71 -178.5t201 -62.5q90 0 165.5 33t160.5 110l119 -143q-109 -101 -211 -145t-231 -44zM283 565
q30 21 100 21h348q90 0 109 -19l6 4q-2 4 -2 11q0 109 -62 166t-182 57q-239 0 -319 -236z" />
    <glyph glyph-name="uni0436" unicode="&#x436;" horiz-adv-x="1470" 
d="M1397 952h100l-35 -174h-45q-47 0 -73.5 -16t-53.5 -62l-47 -86q-30 -58 -82.5 -85.5t-134.5 -32.5l-2 -4q90 -3 135 -30.5t51 -94.5l13 -134q3 -39 19 -52t54 -13h54l-35 -174h-119q-60 0 -96.5 31.5t-42.5 91.5l-19 168q-8 68 -37.5 98.5t-95.5 30.5h-26q-48 0 -64 4
l-2 -2q3 -37 -6 -86l-64 -330h-196l67 330q9 45 27 86l-2 2q-16 -4 -64 -4h-26q-56 0 -93.5 -30.5t-70.5 -98.5l-82 -168q-27 -58 -85.5 -90.5t-129.5 -32.5h-119l35 174h53q45 0 69.5 13t45.5 52l64 134q30 66 80 94t137 31l2 4q-83 5 -124.5 32t-51.5 86l-17 86
q-9 46 -27.5 62t-62.5 16h-45l35 174h98q63 0 99.5 -22.5t48.5 -73.5l38 -168q8 -36 13.5 -51.5t18.5 -33.5t34.5 -24t56.5 -6h27q47 0 63 -4l3 2q-3 35 6 82l63 293h197l-60 -293q-9 -47 -26 -82l2 -2q16 4 63 4h27q28 0 47 5.5t36.5 24.5t27 32.5t32.5 52.5l103 168
q61 96 217 96z" />
    <glyph glyph-name="uni0437" unicode="&#x437;" horiz-adv-x="915" 
d="M371 -31q-221 0 -385 82l84 174q154 -71 321 -71q221 0 221 141q0 64 -44.5 93.5t-141.5 29.5h-188l32 162h189q86 0 131 32t45 86q0 93 -148 93q-132 0 -305 -64l-57 176q191 74 393 74q168 0 254 -59t86 -166q0 -31 -7 -60t-28 -61t-53.5 -56t-89.5 -42t-131 -23v-4
q262 -12 262 -223q0 -136 -108.5 -225t-331.5 -89z" />
    <glyph glyph-name="uni0438" unicode="&#x438;" horiz-adv-x="1103" 
d="M39 -12l186 958h201l-68 -344q-30 -149 -55 -235l4 -2q60 81 135 141l559 452h64l-186 -958h-201l67 344q28 142 56 236l-4 2q-52 -76 -135 -142l-560 -452h-63z" />
    <glyph glyph-name="uni0439" unicode="&#x439;" horiz-adv-x="1103" 
d="M686 1024q-116 0 -184 58.5t-68 166.5q0 35 8 74h133q-4 -36 -4 -49q0 -123 121 -123q142 0 180 172h136q-26 -146 -107.5 -222.5t-214.5 -76.5zM39 -12l186 958h201l-68 -344q-30 -149 -55 -235l4 -2q60 81 135 141l559 452h64l-186 -958h-201l67 344q28 142 56 236
l-4 2q-52 -76 -135 -142l-560 -452h-63z" />
    <glyph glyph-name="uni043A" unicode="&#x43a;" horiz-adv-x="1032" 
d="M772 -6q-37 0 -69 9.5t-58.5 38.5t-30.5 75l-14 168q-6 64 -36 91t-101 27h-88q-47 0 -62 5l-4 -2q3 -37 -6 -87l-61 -319h-201l184 946h201l-55 -282q-8 -44 -27 -82l2 -2q16 4 64 4h88q52 0 75 19t60 85l102 168q61 96 223 96h101l-35 -180h-43q-41 0 -67 -15t-50 -57
l-49 -86q-35 -63 -82.5 -89t-144.5 -29v-4q99 -7 140.5 -41.5t47.5 -106.5l10 -111q3 -36 21 -47.5t55 -11.5h51l-36 -180h-105z" />
    <glyph glyph-name="uni043B" unicode="&#x43b;" horiz-adv-x="1114" 
d="M1071 946l-182 -946h-201l137 713q7 30 21 53l-2 2q-16 -8 -58 -8h-290q-42 0 -58 8l-2 -2q7 -20 0 -53l-20 -113l-68 -348q-25 -127 -106 -192.5t-215 -65.5h-99l35 182h57q61 0 93.5 37.5t48.5 116.5l53 270l66 346h790z" />
    <glyph glyph-name="uni043C" unicode="&#x43c;" horiz-adv-x="1318" 
d="M549 -10l-96 395q-6 22 -14.5 54.5t-11 43t-5 26.5t-2.5 32h-6q-4 -14 -8 -25.5t-11.5 -28.5t-12.5 -26.5t-18.5 -36t-21.5 -41.5l-197 -383h-227l508 956h53l135 -495q17 -66 19 -109h6q15 35 59 109l308 495h53l158 -956h-199l-55 383q-16 104 -11 158h-6
q-6 -15 -14.5 -31t-16.5 -28.5t-27 -41.5t-36 -55l-248 -395h-55z" />
    <glyph glyph-name="uni043D" unicode="&#x43d;" horiz-adv-x="1132" 
d="M891 946h201l-185 -946h-200l71 365q8 36 21 53l-2 2q-18 -8 -60 -8h-366q-42 0 -56 8l-2 -2q6 -25 0 -53l-71 -365h-201l184 946h201l-59 -305q-7 -30 -21 -53l2 -2q16 8 58 8h366q41 0 57 -8l2 2q-7 20 0 53z" />
    <glyph glyph-name="uni043E" unicode="&#x43e;" horiz-adv-x="1150" 
d="M526 -31q-213 0 -339 121.5t-126 325.5q0 160 73 288.5t202 200.5t289 72q213 0 339 -121.5t126 -325.5q0 -160 -73 -288.5t-202 -200.5t-289 -72zM545 166q148 0 242 99t94 253q0 123 -73 192.5t-202 69.5q-148 0 -242 -99t-94 -253q0 -123 73 -192.5t202 -69.5z" />
    <glyph glyph-name="uni043F" unicode="&#x43f;" horiz-adv-x="1087" 
d="M1057 946l-185 -946h-200l139 713q8 37 20 53l-2 2q-18 -8 -59 -8h-342q-41 0 -55 8l-2 -2q6 -25 0 -53l-140 -713h-200l184 946h842z" />
    <glyph glyph-name="uni0440" unicode="&#x440;" horiz-adv-x="1202" 
d="M-39 -410l264 1356h201q-22 -106 -49 -174l6 -2q50 96 143 151.5t205 55.5q180 0 294 -127.5t114 -327.5q0 -236 -147 -394.5t-365 -158.5q-132 0 -224.5 62.5t-126.5 173.5l-8 -2q0 -63 -26 -203l-80 -410h-201zM586 158q148 0 246 103.5t98 260.5q0 124 -71 195
t-195 71q-148 0 -246.5 -103.5t-98.5 -260.5q0 -123 72 -194.5t195 -71.5z" />
    <glyph glyph-name="uni0441" unicode="&#x441;" horiz-adv-x="1001" 
d="M559 -31q-223 0 -357 129.5t-134 343.5q0 238 154 386.5t401 148.5q207 0 383 -123l-117 -162q-129 94 -279 94q-145 0 -237 -93.5t-92 -241.5q0 -130 78 -210.5t204 -80.5q112 0 236 65l82 -168q-163 -88 -322 -88z" />
    <glyph glyph-name="uni0442" unicode="&#x442;" horiz-adv-x="915" 
d="M997 946l-36 -186h-297q-42 0 -56 8l-2 -2q6 -25 0 -53l-14 -70l-127 -643h-201l127 643l15 70q8 37 20 53l-2 2q-18 -8 -59 -8h-299l36 186h895z" />
    <glyph glyph-name="uni0443" unicode="&#x443;" horiz-adv-x="995" 
d="M1077 946l-835 -1358h-230l307 496l-217 862h224l98 -454q33 -149 22 -254l9 2q23 83 63 151l332 555h227z" />
    <glyph glyph-name="uni0444" unicode="&#x444;" horiz-adv-x="1722" 
d="M598 -410l80 410q26 137 57 203l-8 2q-48 -116 -131.5 -176t-187.5 -60q-148 0 -240 118t-92 325q0 156 52.5 283.5t155 204.5t236.5 77q114 0 196 -59t115 -177l9 2q-5 66 20 203l94 488h187l-94 -488q-23 -126 -58 -203l8 -2q109 236 320 236q150 0 241 -118t91 -322
q0 -155 -52 -283t-155 -206.5t-238 -78.5q-112 0 -193 58t-118 178l-8 -2q5 -63 -21 -203l-80 -410h-186zM502 158q71 0 127.5 34.5t89.5 90.5t49.5 121t15.5 131q-2 115 -59.5 184t-161.5 69q-71 0 -125.5 -34t-85.5 -90t-46.5 -120t-14.5 -132q2 -118 55 -186t156 -68z
M1163 158q72 0 127 34.5t86 91t46 120.5t14 131q-2 118 -55 185.5t-156 67.5q-71 0 -127.5 -34.5t-89.5 -90.5t-50 -120.5t-16 -130.5q2 -115 59.5 -184.5t161.5 -69.5z" />
    <glyph glyph-name="uni0445" unicode="&#x445;" horiz-adv-x="983" 
d="M1028 946l-362 -401q-45 -50 -64 -58l-2 -6q7 -2 12.5 -6.5t10.5 -11.5t7.5 -12t7.5 -15.5t7 -13.5l225 -422h-211l-127 260q-32 69 -37 101q-1 8 -1 16h-7q-10 -32 -27.5 -57.5t-56.5 -67.5l-229 -252h-246l408 453q43 49 67 59l3 6q-4 2 -8.5 5.5t-7.5 7t-7 10.5
l-6 10.5t-6.5 12t-5.5 11.5l-195 371h211l100 -196q37 -70 37 -132h4q17 42 33 65t53 65l174 198h246z" />
    <glyph glyph-name="uni0446" unicode="&#x446;" horiz-adv-x="1138" 
d="M768 -287l47 240q8 36 21 53l-2 2q-18 -8 -60 -8h-733l184 946h201l-139 -713q-8 -36 -21 -53l2 -2q18 8 60 8h342q41 0 55 -8l2 2q-6 25 0 53l139 713h201l-139 -713q-8 -36 -21 -53l2 -2q18 8 60 8h73l-92 -473h-182z" />
    <glyph glyph-name="uni0447" unicode="&#x447;" horiz-adv-x="995" 
d="M754 946h200l-55 -280l-86 -445l-43 -221h-201l43 221h2l15 78q13 75 30 102l-2 2q-163 -55 -303 -55q-144 0 -218.5 56t-74.5 180q0 45 13 108l49 254h201l-45 -231q-7 -40 -7 -62q0 -61 31 -87.5t98 -26.5q27 0 58.5 3t57 7t56.5 10.5t48 10.5t39 10t24 6l14 80z" />
    <glyph glyph-name="uni0448" unicode="&#x448;" horiz-adv-x="1626" 
d="M1384 946h201l-184 -946h-1360l184 946h201l-139 -713q-8 -36 -21 -53l2 -2q18 8 60 8h280q42 0 56 -8l2 2q-6 25 0 53l139 713h201l-140 -713q-8 -37 -20 -53l2 -2q18 8 59 8h281q41 0 55 -8l2 2q-6 25 0 53z" />
    <glyph glyph-name="uni0449" unicode="&#x449;" horiz-adv-x="1656" 
d="M1286 -287l47 240q8 36 21 53l-2 2q-18 -8 -60 -8h-1251l184 946h201l-139 -713q-8 -36 -21 -53l2 -2q18 8 60 8h280q42 0 56 -8l2 2q-6 25 0 53l139 713h201l-140 -713q-8 -37 -20 -53l2 -2q18 8 59 8h281q41 0 55 -8l2 2q-6 25 0 53l139 713h201l-139 -713
q-8 -36 -21 -53l2 -2q18 8 60 8h74l-93 -473h-182z" />
    <glyph glyph-name="uni044A" unicode="&#x44a;" horiz-adv-x="1130" 
d="M758 612q62 0 116.5 -16.5t98.5 -49t69 -86.5t25 -124q0 -150 -109 -243t-284 -93h-432l61 313l74 381l4 19q8 37 20 53l-2 2q-18 -8 -59 -8h-274l36 186h525l-49 -252l-7 -35q-4 -27 -20 -53v-2q18 8 59 8h148zM688 184q77 0 121.5 35.5t44.5 99.5q0 109 -139 109h-140
q-41 0 -57 8l-2 -2q7 -20 0 -53l-12 -68l-17 -82q-7 -33 -20 -53l2 -2q16 8 57 8h162z" />
    <glyph glyph-name="uni044B" unicode="&#x44b;" horiz-adv-x="1314" 
d="M557 612q62 0 116.5 -16.5t98.5 -49t69 -86.5t25 -124q0 -150 -109 -243t-284 -93h-432l61 313l74 381l49 252h201l-49 -252l-6 -35q-4 -25 -21 -53v-2q18 8 60 8h147zM1073 946h201l-184 -946h-201zM487 184q77 0 121.5 35.5t44.5 99.5q0 109 -139 109h-139q-42 0 -58 8
l-2 -2q7 -20 0 -53l-12 -68l-16 -82q-7 -30 -21 -53l2 -2q16 8 58 8h161z" />
    <glyph glyph-name="uni044C" unicode="&#x44c;" horiz-adv-x="929" 
d="M557 612q62 0 116.5 -16.5t98.5 -49t69 -86.5t25 -124q0 -150 -109 -243t-284 -93h-432l61 313l74 381l49 252h201l-49 -252l-6 -35q-4 -25 -21 -53v-2q18 8 60 8h147zM487 184q77 0 121.5 35.5t44.5 99.5q0 109 -139 109h-139q-42 0 -58 8l-2 -2q7 -20 0 -53l-12 -68
l-16 -82q-7 -30 -21 -53l2 -2q16 8 58 8h161z" />
    <glyph glyph-name="uni044D" unicode="&#x44d;" horiz-adv-x="1003" 
d="M377 -31q-213 0 -381 123l117 162q130 -94 276 -94q106 0 183 45.5t116 124.5q1 2 7 14.5t14 26t18 24.5l-2 2q-20 -10 -57 -10h-342l-4 172h350q37 0 53 -10l4 2q-5 12 -11.5 34t-10.5 31q-28 76 -102.5 123t-168.5 47q-109 0 -233 -65l-82 168q155 88 321 88
q220 0 352 -129.5t132 -345.5q0 -112 -37.5 -209t-106.5 -169t-173.5 -113.5t-231.5 -41.5z" />
    <glyph glyph-name="uni044E" unicode="&#x44e;" horiz-adv-x="1531" 
d="M1006 977q213 0 338.5 -121.5t125.5 -325.5q0 -243 -160 -402t-403 -159q-204 0 -329 111.5t-136 302.5h-86q-41 0 -55 8l-2 -2q6 -25 0 -53l-66 -336h-192l184 946h191l-64 -332q-8 -37 -20 -53l2 -2q18 8 59 8h68q46 184 195 297t350 113zM926 166q148 0 242 99t94 253
q0 123 -73 192.5t-202 69.5q-148 0 -242 -99t-94 -253q0 -123 73 -192.5t202 -69.5z" />
    <glyph glyph-name="uni044F" unicode="&#x44f;" horiz-adv-x="1019" 
d="M979 946l-59 -305l-70 -356l-55 -285h-201l55 285l4 20q9 36 21 53l-2 2q-19 -8 -60 -8h-22l-379 -352h-272l2 8l282 256q1 1 13 12t14.5 13t13 11t14.5 12t14 10t17 11.5t17 10t20 10.5l2 6q-15 -2 -43 2q-73 10 -126.5 91.5t-53.5 181.5q0 143 100.5 227t270.5 84h483z
M707 578l12 63l14 74q9 36 21 53l-2 2q-19 -8 -60 -8h-192q-71 0 -110.5 -32t-39.5 -89q0 -111 158 -111h139q42 0 58 -8l2 2q-6 20 0 54z" />
    <glyph glyph-name="uni0451" unicode="&#x451;" horiz-adv-x="1099" 
d="M635 1311l-47 -246h-185l48 246h184zM979 1311l-47 -246h-184l47 246h184zM535 -31q-220 0 -346 119t-126 328q0 246 155.5 403.5t397.5 157.5q198 0 312 -104.5t114 -286.5q0 -55 -20 -152h-639q-95 0 -121 17l-6 -5l4 -16v-31q0 -116 71 -178.5t201 -62.5
q90 0 165.5 33t160.5 110l119 -143q-109 -101 -211 -145t-231 -44zM283 565q30 21 100 21h348q90 0 109 -19l6 4q-2 4 -2 11q0 109 -62 166t-182 57q-239 0 -319 -236z" />
    <glyph glyph-name="uni0452" unicode="&#x452;" horiz-adv-x="1126" 
d="M743 977q146 0 222.5 -77.5t76.5 -223.5q0 -62 -20 -162l-102 -514l-27 -139q-52 -277 -332 -277h-108l34 183h78q61 0 90.5 27.5t40.5 86.5l23 119l100 518q10 44 10 92q0 89 -49 137t-141 48q-118 0 -191.5 -84t-107.5 -256l-88 -455h-201l217 1114q8 36 21 53l-2 2
q-18 -8 -60 -8h-84l25 123h84q41 0 55 -8l2 2q-6 25 0 53l27 133h201l-27 -133q-8 -36 -21 -53l3 -2q18 8 59 8h258l-25 -123h-258q-41 0 -55 8l-2 -2q6 -25 0 -53l-33 -168l-4 -22q-14 -102 -59 -195l8 -2q63 129 151 189.5t211 60.5z" />
    <glyph glyph-name="uni0453" unicode="&#x453;" horiz-adv-x="757" 
d="M983 1346l-356 -316h-158l256 316h258zM41 0l184 946h615l-37 -186h-365q-41 0 -55 8l-2 -2q6 -25 0 -53l-139 -713h-201z" />
    <glyph glyph-name="uni0454" unicode="&#x454;" horiz-adv-x="993" 
d="M616 977q213 0 381 -123l-116 -162q-130 94 -277 94q-106 0 -183 -45.5t-116 -124.5q-1 -2 -7 -14.5t-14 -26t-18 -24.5l2 -2q20 10 58 10h342l4 -172h-350q-38 0 -54 10l-4 -2q5 -12 12 -34t11 -31q28 -76 102 -123t168 -47q110 0 234 65l81 -168q-155 -88 -321 -88
q-220 0 -351.5 129t-131.5 346q0 150 64 270t190 191.5t294 71.5z" />
    <glyph glyph-name="uni0455" unicode="&#x455;" horiz-adv-x="819" 
d="M88 281q149 -125 295 -125q58 0 92.5 25.5t34.5 68.5q0 28 -16.5 51t-59.5 55l-131 95q-151 109 -151 256q0 124 81.5 197t221.5 73q175 0 340 -109l-101 -161q-131 84 -225 84q-54 0 -83.5 -23.5t-29.5 -65.5q0 -30 18.5 -53t76.5 -65l114 -80q79 -57 115.5 -118.5
t36.5 -137.5q0 -133 -87 -206t-245 -73q-115 0 -223.5 41t-188.5 115z" />
    <glyph glyph-name="uni0456" unicode="&#x456;" horiz-adv-x="466" 
d="M535 1434l-54 -271h-225l53 271h226zM426 946l-184 -946h-201l184 946h201z" />
    <glyph glyph-name="uni0457" unicode="&#x457;" horiz-adv-x="466" 
d="M315 1311l-47 -246h-184l47 246h184zM659 1311l-47 -246h-184l47 246h184zM426 946l-184 -946h-201l184 946h201z" />
    <glyph glyph-name="uni0458" unicode="&#x458;" horiz-adv-x="466" 
d="M535 1434l-54 -271h-225l53 271h226zM426 946l-201 -1034q-36 -184 -143 -268t-279 -84h-34l38 196h15q94 0 141.5 45.5t69.5 157.5l192 987h201z" />
    <glyph glyph-name="uni0459" unicode="&#x459;" horiz-adv-x="1576" 
d="M1204 612q62 0 116.5 -16.5t98.5 -49t69 -86.5t25 -124q0 -150 -109 -243t-284 -93h-432l139 713q7 30 21 53l-2 2q-16 -8 -58 -8h-292q-42 0 -58 8l-2 -2q7 -20 0 -53l-22 -113h2l-68 -348q-23 -127 -105 -192.5t-216 -65.5h-99l35 182h57q61 0 93.5 37.5t48.5 116.5
l53 270l66 346h792l-55 -287q-4 -25 -21 -53v-2q18 8 60 8h147zM1135 184q77 0 121 35.5t44 99.5q0 109 -139 109h-139q-41 0 -57 8l-2 -2q7 -20 0 -53l-29 -150q-7 -30 -21 -53l2 -2q16 8 58 8h162z" />
    <glyph glyph-name="uni045A" unicode="&#x45a;" horiz-adv-x="1595" 
d="M1223 612q62 0 116.5 -16.5t98.5 -49t69 -86.5t25 -124q0 -150 -109 -243t-284 -93h-432l73 383q7 30 21 53v2q-18 -8 -60 -8h-366q-42 0 -56 8l-4 -2q7 -20 0 -53l-73 -383h-201l184 946h201l-55 -287q-7 -30 -21 -53v-2q18 8 60 8h366q41 0 55 -8l5 2q-7 20 0 53
l55 287h201l-56 -287q-7 -33 -20 -53v-2q18 8 59 8h148zM1153 184q77 0 121.5 35.5t44.5 99.5q0 109 -139 109h-140q-41 0 -57 8l-2 -2q7 -20 0 -53l-29 -150q-7 -33 -20 -53l2 -2q16 8 57 8h162z" />
    <glyph glyph-name="uni045B" unicode="&#x45b;" horiz-adv-x="1126" 
d="M743 977q146 0 222.5 -77.5t76.5 -223.5q0 -62 -20 -162l-102 -514h-201l100 518q10 44 10 92q0 89 -49 137t-141 48q-118 0 -191.5 -84t-107.5 -256l-88 -455h-201l217 1114q8 36 21 53l-2 2q-18 -8 -60 -8h-84l25 123h84q41 0 55 -8l2 2q-6 25 0 53l27 133h201
l-27 -133q-8 -36 -21 -53l3 -2q18 8 59 8h258l-25 -123h-258q-41 0 -55 8l-2 -2q6 -25 0 -53l-33 -168l-4 -22q-14 -102 -59 -195l8 -2q63 129 151 189.5t211 60.5z" />
    <glyph glyph-name="uni045C" unicode="&#x45c;" horiz-adv-x="1032" 
d="M1059 1346l-357 -316h-157l256 316h258zM772 -6q-37 0 -69 9.5t-58.5 38.5t-30.5 75l-14 168q-6 64 -36 91t-101 27h-88q-47 0 -62 5l-4 -2q3 -37 -6 -87l-61 -319h-201l184 946h201l-55 -282q-8 -44 -27 -82l2 -2q16 4 64 4h88q52 0 75 19t60 85l102 168q61 96 223 96
h101l-35 -180h-43q-41 0 -67 -15t-50 -57l-49 -86q-35 -63 -82.5 -89t-144.5 -29v-4q99 -7 140.5 -41.5t47.5 -106.5l10 -111q3 -36 21 -47.5t55 -11.5h51l-36 -180h-105z" />
    <glyph glyph-name="uni045E" unicode="&#x45e;" horiz-adv-x="995" 
d="M606 1024q-116 0 -184 58.5t-68 166.5q0 35 8 74h134q-4 -36 -4 -49q0 -123 120 -123q143 0 181 172h135q-26 -146 -107.5 -222.5t-214.5 -76.5zM1077 946l-835 -1358h-230l307 496l-217 862h224l98 -454q33 -149 22 -254l9 2q23 83 63 151l332 555h227z" />
    <glyph glyph-name="uni045F" unicode="&#x45f;" horiz-adv-x="1107" 
d="M315 -287l47 240q8 36 21 53l-2 2q-18 -8 -59 -8h-281l184 946h201l-139 -713q-8 -36 -21 -53l2 -2q18 8 60 8h342q41 0 55 -8l2 2q-6 25 0 53l139 713h201l-184 -946h-281q-41 0 -55 8l-2 -2q6 -25 0 -53l-47 -240h-183z" />
    <glyph glyph-name="uni0462" unicode="&#x462;" horiz-adv-x="1341" 
d="M195 0l192 997q6 39 14 52l-2 4q-24 -9 -53 -9h-213l35 185h213q32 0 51 -8l4 4q-2 12 4 51l31 158h213l-31 -158q-5 -33 -16 -51l4 -4q19 8 51 8h363l-35 -185h-363q-31 0 -49 9l-6 -4q4 -18 -2 -52l-14 -84q-6 -33 -17 -51l4 -4q19 8 52 8h215q213 0 330.5 -104
t117.5 -295q0 -114 -43 -204.5t-118 -147t-172.5 -86t-209.5 -29.5h-550zM444 193q19 8 52 8h260q147 0 227 70.5t80 189.5q0 99 -59.5 152t-178.5 53h-239q-33 0 -49 8l-7 -4q4 -18 -2 -52l-71 -368q-5 -33 -17 -53z" />
    <glyph glyph-name="uni0463" unicode="&#x463;" horiz-adv-x="980" 
d="M608 612q132 0 221 -70t89 -206q0 -150 -109.5 -243t-284.5 -93h-432l144 735q8 37 20 53l-2 3q-20 -9 -59 -9h-125l32 164h125q42 0 56 -8l2 2q-6 25 0 53l92 471h201l-93 -471q-8 -37 -20 -53l2 -2q18 8 59 8h279l-33 -164h-278q-40 0 -56 9l-2 -3q6 -25 0 -53l-14 -76
q-4 -25 -21 -53v-2q18 8 60 8h147zM539 184q77 0 121.5 35.5t44.5 99.5q0 109 -140 109h-139q-41 0 -57 8l-2 -2q7 -20 0 -53l-29 -150q-7 -30 -21 -53l2 -2q16 8 58 8h162z" />
    <glyph glyph-name="uni0472" unicode="&#x472;" horiz-adv-x="1691" 
d="M954 1464q210 0 371 -82.5t250.5 -237.5t89.5 -360q0 -168 -61 -317.5t-168.5 -259.5t-264 -174t-337.5 -64q-210 0 -371 82.5t-250.5 237.5t-89.5 360q0 168 61 317.5t168.5 259.5t264 174t337.5 64zM1448 799l4 4q-1 5 -8 59q-11 169 -151 279t-359 110
q-208 0 -349.5 -102.5t-207.5 -286.5q-11 -27 -33 -59l4 -4q24 8 64 8h974q38 0 62 -8zM1411 571q12 30 33 60l-4 4q-24 -8 -64 -8h-975q-37 0 -61 8l-4 -4q1 -4 8 -60q11 -169 151 -279t359 -110q208 0 349.5 102.5t207.5 286.5z" />
    <glyph glyph-name="uni0473" unicode="&#x473;" horiz-adv-x="1150" 
d="M625 977q208 0 336.5 -118.5t128.5 -328.5q0 -154 -69 -281t-199 -203.5t-296 -76.5q-208 0 -336.5 118.5t-128.5 328.5q0 154 69 281t199 203.5t296 76.5zM887 520v27q-9 119 -86 181.5t-195 62.5q-136 0 -220.5 -77t-111.5 -192l2 -6q37 19 136 19h340q105 0 129 -19z
M545 156q136 0 220.5 76.5t111.5 191.5l-3 6q-35 -18 -135 -18h-340q-106 0 -129 18l-6 -4v-27q9 -119 86 -181t195 -62z" />
    <glyph glyph-name="uni0474" unicode="&#x474;" horiz-adv-x="1357" 
d="M526 -18l-340 1452h230l157 -777q30 -137 27 -249h8q39 102 123 249l318 551q40 69 73 112t79.5 78t107.5 50.5t145 15.5q42 0 94 -6l-37 -194q-31 2 -75 2q-58 0 -99.5 -33.5t-97.5 -124.5l-686 -1126h-27z" />
    <glyph glyph-name="uni0475" unicode="&#x475;" horiz-adv-x="972" 
d="M1034 965h35l-39 -197h-14q-94 0 -139 -70l-459 -708h-64l-252 956h222l79 -397q18 -90 24 -130.5t7 -103.5h8q2 5 10.5 25.5t10.5 24.5t9 21t10 22t9.5 19t11 21.5t11.5 21t14 24.5t16 25t19 30l152 237q18 28 31.5 46.5t42.5 46t60 44.5t79.5 29.5t105.5 12.5z" />
    <glyph glyph-name="uni048E" unicode="&#x48e;" horiz-adv-x="1124" 
d="M1178 1055q0 -151 -79.5 -258t-221.5 -150l135 -190l-76 -56l-158 226q-46 -6 -96 -6h-238q-33 0 -49 8l-6 -4q4 -11 -4 -52l-111 -573h-213l279 1434h416q198 0 310 -100.5t112 -278.5zM752 825q95 15 146.5 73t51.5 149q0 88 -55.5 137t-155.5 49h-176q-33 0 -49 8
l-6 -4q2 -7 -4 -53l-60 -314q-5 -37 -16 -53l2 -4q21 8 53 8h158l-90 127l76 56z" />
    <glyph glyph-name="uni048F" unicode="&#x48f;" horiz-adv-x="1202" 
d="M1139 522q0 -155 -66 -280t-180 -197l106 -131l-65 -55l-121 145q-87 -35 -186 -35q-132 0 -224.5 62.5t-126.5 173.5l-8 -2q0 -63 -26 -203l-80 -410h-201l264 1356h201q-22 -106 -49 -174l6 -2q50 96 143 151.5t205 55.5q180 0 294 -127.5t114 -327.5zM586 158
q48 0 92 12l-119 145l66 56l135 -166q79 46 124.5 130t45.5 187q0 124 -71 195t-195 71q-148 0 -246.5 -103.5t-98.5 -260.5q0 -123 72 -194.5t195 -71.5z" />
    <glyph glyph-name="uni0490" unicode="&#x490;" horiz-adv-x="1003" 
d="M1014 1720h211l-95 -487h-567q-32 0 -51 8l-4 -4q2 -12 -4 -51l-230 -1186h-213l279 1434h567q31 0 49 -9l7 5q-2 12 4 51z" />
    <glyph glyph-name="uni0491" unicode="&#x491;" horiz-adv-x="798" 
d="M735 1231h201l-92 -471h-406q-41 0 -55 8l-2 -2q6 -25 0 -53l-139 -713h-201l184 946h406q41 0 55 -8l2 2q-6 25 0 53z" />
    <glyph glyph-name="uni0492" unicode="&#x492;" horiz-adv-x="1081" 
d="M662 1229q-33 0 -52 8l-4 -4q2 -12 -4 -51l-29 -150l-20 -104q-5 -33 -16 -51l4 -5q21 9 51 9h397l-39 -205h-397q-33 0 -49 8l-6 -4q3 -17 -2 -51l-123 -629h-213l123 629q6 38 14 51l-2 4q-21 -8 -53 -8h-181l39 205h181q30 0 51 -9l4 5q-2 12 4 51l20 104l78 402h809
l-39 -205h-546z" />
    <glyph glyph-name="uni0493" unicode="&#x493;" horiz-adv-x="829" 
d="M510 760q-41 0 -55 8l-2 -2q7 -20 0 -53l-23 -113q-8 -37 -20 -53l2 -2q18 8 59 8h227l-36 -188h-230q-41 0 -55 8l-2 -2q6 -25 0 -54l-62 -317h-200l61 317q8 37 21 54l-2 2q-18 -8 -60 -8h-102l37 188h104q41 0 55 -8l2 2q-6 25 0 53l68 346h614l-37 -186h-364z" />
    <glyph glyph-name="uni0494" unicode="&#x494;" horiz-adv-x="1275" 
d="M854 872q162 0 249 -68t87 -231q0 -62 -19 -159l-28 -152l-56 -285q-32 -185 -127.5 -286t-259.5 -101h-190l39 201h133q156 0 195 195l53 276l28 148q13 63 13 100q0 86 -44 124t-132 38q-157 0 -404 -70l-117 -602h-213l209 1077l70 357h850l-39 -201h-588q-33 0 -49 8
l-6 -4q3 -17 -2 -51l-21 -109h-2l-34 -182q-11 -61 -31 -94l4 -4q207 75 432 75z" />
    <glyph glyph-name="uni0495" unicode="&#x495;" horiz-adv-x="995" 
d="M291 -410l37 189h110q79 0 126 33.5t63 115.5l49 254q6 38 6 64q0 59 -33 85.5t-106 26.5q-81 0 -240 -47l-61 -311h-201l184 946h670l-37 -186h-420q-41 0 -55 8l-2 -2q6 -25 0 -53l-23 -115q-17 -78 -32 -102l4 -2q148 55 280 55q139 0 210 -56t71 -184q0 -59 -14 -125
l-50 -262q-30 -168 -119.5 -250t-250.5 -82h-166z" />
    <glyph glyph-name="uni0496" unicode="&#x496;" horiz-adv-x="1943" 
d="M1888 1440q50 0 123 -6l-39 -199q-40 4 -57 4q-109 0 -146 -86l-73 -176q-51 -120 -124.5 -163t-221.5 -52v-4q81 -4 123 -23t65 -71.5t27 -153.5l8 -184q3 -58 34 -88.5t87 -30.5q17 0 67 4l-12 -68h100l-84 -430h-200l55 279h-4q-40 0 -73.5 7t-66.5 27.5t-56 52.5
t-37.5 85.5t-16.5 124.5l-6 215q-2 89 -39.5 126.5t-130.5 37.5h-64q-47 0 -63 4l-2 -2q3 -37 -6 -84l-113 -586h-213l115 586q9 50 26 84l-2 2q-16 -4 -61 -4h-82q-76 0 -128.5 -38.5t-88.5 -125.5l-117 -287q-47 -118 -128.5 -171.5t-209.5 -53.5q-47 0 -102 8l41 211
q50 -4 59 -4q114 0 160 110l100 238q32 77 62.5 115.5t87.5 61t155 26.5v4q-135 9 -184.5 53t-56.5 168l-10 170q-3 51 -36.5 68.5t-86.5 17.5q-24 0 -64 -4l39 199q62 6 102 6q119 0 173 -45.5t63 -153.5l18 -233q13 -158 185 -158h84q35 0 59 -6l2 2q-3 35 6 82l99 506
h213l-99 -506q-9 -47 -26 -82l2 -2q24 6 65 6h80q168 0 236 158l104 237q45 108 119 151.5t186 43.5z" />
    <glyph glyph-name="uni0497" unicode="&#x497;" horiz-adv-x="1572" 
d="M1350 168l-9 -43h123l-80 -412h-180l56 281h-64q-60 0 -96.5 31.5t-42.5 91.5l-19 168q-8 68 -37.5 98.5t-95.5 30.5h-26q-48 0 -64 4l-2 -2q3 -37 -6 -86l-64 -330h-196l67 330q9 45 27 86l-2 2q-16 -4 -64 -4h-26q-56 0 -93.5 -30.5t-70.5 -98.5l-82 -168
q-27 -58 -85.5 -90.5t-129.5 -32.5h-119l35 174h53q45 0 69.5 13t45.5 52l64 134q30 66 80 94t137 31l2 4q-83 5 -124.5 32t-51.5 86l-17 86q-9 46 -27.5 62t-62.5 16h-45l35 174h98q63 0 99.5 -22.5t48.5 -73.5l38 -168q8 -36 13.5 -51.5t18.5 -33.5t34.5 -24t56.5 -6h27
q47 0 63 -4l3 2q-3 35 6 82l63 293h197l-60 -293q-9 -47 -26 -82l2 -2q16 4 63 4h27q28 0 47 5.5t36.5 24.5t27 32.5t32.5 52.5l103 168q61 96 217 96h100l-35 -174h-45q-47 0 -73.5 -16t-53.5 -62l-47 -86q-30 -58 -82.5 -85.5t-134.5 -32.5l-2 -4q90 -3 135 -30.5
t51 -94.5l13 -134q3 -39 19 -52t54 -13h54z" />
    <glyph glyph-name="uni0498" unicode="&#x498;" horiz-adv-x="1300" 
d="M922 782q-54 -17 -154 -24l-2 -6q86 0 139 -13q111 -27 168 -109t57 -204q0 -63 -15 -122.5t-52.5 -119.5t-95 -105t-150 -75t-209.5 -35l-22 -39q73 -22 115 -52.5t42 -80.5q0 -29 -13.5 -56.5t-43 -52.5t-55.5 -43.5t-73 -41.5t-71.5 -34t-74.5 -32l-19 66
q116 59 144 83q29 26 30 48q0 49 -129 80l88 155q-259 8 -467 115l115 201q192 -97 406 -97q172 0 248.5 65.5t76.5 174.5q0 107 -68.5 162t-189.5 55h-213l41 213h211q133 0 219 61t86 171q0 86 -59 122.5t-178 36.5q-202 0 -410 -78l-70 203q257 90 494 90
q220 0 335.5 -89.5t115.5 -256.5q0 -131 -69.5 -210t-227.5 -126z" />
    <glyph glyph-name="uni0499" unicode="&#x499;" horiz-adv-x="915" 
d="M549 506q262 -12 262 -223q0 -129 -96 -215.5t-295 -96.5l-23 -41q73 -22 115.5 -52.5t42.5 -80.5q0 -22 -7.5 -43t-25.5 -41t-34.5 -35.5t-47.5 -34t-50 -30t-57 -28.5t-54.5 -24.5t-55.5 -23.5l-18 66q116 59 144 83q30 25 30 48q0 49 -129 80l88 155q-202 9 -352 82
l84 174q154 -71 321 -71q221 0 221 141q0 64 -44.5 93.5t-141.5 29.5h-188l32 162h189q86 0 131 32t45 86q0 93 -148 93q-132 0 -305 -64l-57 176q191 74 393 74q168 0 254 -59t86 -166q0 -31 -7 -60t-28 -61t-53.5 -56t-89.5 -42t-131 -23v-4z" />
    <glyph glyph-name="uni049A" unicode="&#x49a;" horiz-adv-x="1361" 
d="M1276 1440q42 0 110 -6l-38 -203q-40 4 -62 4q-116 0 -149 -82l-70 -176q-47 -119 -122 -162.5t-224 -52.5v-4q73 -3 121 -19.5t75.5 -50.5t39.5 -78t14 -110l6 -181q3 -65 33.5 -88.5t91.5 -23.5q24 0 74 4l-13 -68h105l-84 -430h-201l55 279h-12q-47 0 -86.5 11.5
t-77 38.5t-60.5 81.5t-26 132.5l-8 225q-6 172 -199 172h-112q-48 0 -64 4l-2 -2q3 -37 -6 -84l-111 -571h-213l279 1434h213l-96 -496q-7 -36 -27 -82l2 -2q24 6 66 6h118q172 0 236 148l100 237q45 108 124 151.5t200 43.5z" />
    <glyph glyph-name="uni049B" unicode="&#x49b;" horiz-adv-x="1138" 
d="M913 174l-10 -49h127l-80 -412h-180l55 281h-53q-37 0 -69 9.5t-58.5 38.5t-30.5 75l-14 168q-6 64 -36 91t-101 27h-88q-47 0 -62 5l-4 -2q3 -37 -6 -87l-61 -319h-201l184 946h201l-55 -282q-8 -44 -27 -82l2 -2q16 4 64 4h88q52 0 75 19t60 85l102 168q61 96 223 96
h101l-35 -180h-43q-41 0 -67 -15t-50 -57l-49 -86q-35 -63 -82.5 -89t-144.5 -29v-4q99 -7 140.5 -41.5t47.5 -106.5l10 -111q3 -36 21 -47.5t55 -11.5h51z" />
    <glyph glyph-name="uni049C" unicode="&#x49c;" horiz-adv-x="1257" 
d="M1276 1440q42 0 110 -6l-38 -203q-40 4 -62 4q-116 0 -149 -82l-70 -176q-47 -119 -122 -162.5t-224 -52.5v-4q73 -3 121 -19.5t75.5 -50.5t39.5 -78t14 -110l6 -181q3 -65 33.5 -88.5t91.5 -23.5q24 0 74 4l-41 -211q-52 -8 -109 -8q-47 0 -86.5 11.5t-77 38.5
t-60.5 81.5t-26 132.5l-8 225q-3 84 -48 125.5t-132 46.5l-56 -282h-102l55 282h-28q-48 0 -64 4l-2 -2q3 -37 -6 -84l-111 -571h-213l279 1434h213l-96 -496q-7 -36 -27 -82l2 -2q24 6 66 6h28l54 279h102l-53 -279q162 6 223 148l100 237q45 108 124 151.5t200 43.5z" />
    <glyph glyph-name="uni049D" unicode="&#x49d;" horiz-adv-x="1032" 
d="M958 952h101l-35 -180h-43q-41 0 -67 -15t-50 -57l-49 -86q-35 -63 -82.5 -89t-144.5 -29v-4q99 -7 140.5 -41.5t47.5 -106.5l10 -111q3 -36 21 -47.5t55 -11.5h51l-36 -180h-105q-37 0 -69 9.5t-58.5 38.5t-30.5 75l-14 168q-6 63 -35.5 90.5t-99.5 27.5l-43 -219h-62
l43 219h-28q-47 0 -62 5l-4 -2q3 -37 -6 -87l-61 -319h-201l184 946h201l-55 -282q-8 -44 -27 -82l2 -2q16 4 64 4h28l41 213h62l-41 -213q50 0 73 19t60 85l102 168q61 96 223 96z" />
    <glyph glyph-name="uni049E" unicode="&#x49e;" horiz-adv-x="1388" 
d="M1407 1440q43 0 111 -6l-39 -203q-40 4 -62 4q-116 0 -149 -82l-70 -176q-47 -119 -122 -162.5t-224 -52.5v-4q73 -3 121 -19.5t75.5 -50.5t39.5 -78t14 -110l6 -181q3 -65 33.5 -88.5t91.5 -23.5q24 0 74 4l-41 -211q-52 -8 -109 -8q-47 0 -86.5 11.5t-77 38.5
t-60.5 81.5t-26 132.5l-8 225q-6 176 -197 176h-112q-36 0 -64 7l-2 -2q3 -40 -6 -84l-112 -578h-213l194 997q6 39 14 52l-2 4q-24 -9 -53 -9h-213l35 185h213q32 0 51 -8l4 4q-2 12 4 51l31 158h213l-31 -158q-5 -33 -16 -51l4 -4q19 8 51 8h234l-35 -185h-234
q-31 0 -49 9l-6 -4q4 -18 -2 -52l-18 -84q-8 -35 -29 -82l2 -2q28 7 66 7h118q170 0 244 172l100 237q45 108 124 151.5t200 43.5z" />
    <glyph glyph-name="uni049F" unicode="&#x49f;" horiz-adv-x="1042" 
d="M969 952h100l-35 -180h-43q-41 0 -67 -15t-50 -57l-49 -86q-35 -63 -82.5 -89t-144.5 -29v-4q99 -7 140.5 -41.5t47.5 -106.5l11 -111q3 -36 20.5 -47.5t54.5 -11.5h52l-37 -180h-105q-37 0 -68.5 9.5t-58 38.5t-30.5 75l-15 168q-6 64 -36 91t-101 27h-88q-46 0 -61 5
l-5 -2q3 -37 -6 -87l-61 -319h-201l217 1114q8 36 21 53l-2 2q-18 -8 -60 -8h-84l25 123h84q41 0 55 -8l2 2q-6 25 0 53l27 133h201l-27 -133q-8 -36 -21 -53l3 -2q18 8 59 8h258l-25 -123h-258q-41 0 -55 8l-2 -2q6 -25 0 -53l-33 -168l-55 -282q-8 -44 -27 -82l2 -2
q16 4 64 4h88q52 0 75 19t60 85l102 168q61 96 224 96z" />
    <glyph glyph-name="uni04A0" unicode="&#x4a0;" horiz-adv-x="1513" 
d="M1532 1440q42 0 110 -6l-38 -203q-40 4 -62 4q-116 0 -149 -82l-70 -176q-47 -119 -122 -162.5t-224 -52.5v-4q73 -3 121 -19.5t75.5 -50.5t39.5 -78t14 -110l6 -181q3 -65 33.5 -88.5t91.5 -23.5q24 0 74 4l-41 -211q-52 -8 -109 -8q-47 0 -86.5 11.5t-77 38.5
t-60.5 81.5t-26 132.5l-8 225q-6 176 -197 176h-112q-36 0 -64 7l-2 -2q3 -40 -6 -84l-113 -578h-213l191 975l43 211q5 33 16 51l-2 4q-21 -8 -55 -8h-342l39 201h602l-88 -459l-14 -62q-9 -35 -29 -82l2 -2q28 7 65 7h119q170 0 244 172l100 237q45 108 124 151.5
t200 43.5z" />
    <glyph glyph-name="uni04A1" unicode="&#x4a1;" horiz-adv-x="1193" 
d="M1120 952h101l-35 -180h-43q-41 0 -66 -15t-51 -57l-51 -84q-40 -65 -84.5 -91t-140.5 -29v-4q99 -7 140.5 -41.5t47.5 -106.5l10 -111q3 -36 21 -47.5t55 -11.5h51l-37 -180h-104q-37 0 -69 9.5t-58.5 38.5t-30.5 75l-14 168q-6 64 -36 91t-101 27h-88q-47 0 -62 5
l-4 -2q3 -37 -6 -87l-62 -319h-200l135 694l4 19q8 37 20 53l-2 2q-18 -8 -59 -8h-235l36 186h486l-49 -252l-7 -30q-9 -47 -26 -82l2 -2q16 4 63 4h88q52 0 75.5 19t60.5 85l102 168q61 96 223 96z" />
    <glyph glyph-name="uni04A2" unicode="&#x4a2;" horiz-adv-x="1435" 
d="M1491 1434l-250 -1291h100l-84 -430h-200l55 287h-117l119 608q5 33 16 51l-4 5q-24 -9 -53 -9h-618q-31 0 -49 9l-5 -5q2 -12 -4 -51l-118 -608h-218l279 1434h217l-102 -527q-5 -31 -17 -51l4 -4q19 8 54 8h618q30 0 49 -8l4 4q-2 12 4 51l103 527h217z" />
    <glyph glyph-name="uni04A3" unicode="&#x4a3;" horiz-adv-x="1167" 
d="M1092 946l-160 -821h127l-80 -412h-180l55 287h-147l71 365q8 36 21 53l-2 2q-18 -8 -60 -8h-366q-42 0 -56 8l-2 -2q6 -25 0 -53l-71 -365h-201l184 946h201l-59 -305q-7 -30 -21 -53l2 -2q16 8 58 8h366q41 0 57 -8l2 2q-7 20 0 53l60 305h201z" />
    <glyph glyph-name="uni04A4" unicode="&#x4a4;" horiz-adv-x="1845" 
d="M1253 1434h758l-39 -205h-495q-33 0 -52 8l-4 -4q2 -12 -4 -51l-16 -88h2l-211 -1094h-217l119 608q5 33 16 51l-4 5q-24 -9 -53 -9h-598q-31 0 -49 9l-5 -5q2 -12 -4 -51l-118 -608h-218l279 1434h217l-102 -527q-5 -31 -17 -51l4 -4q19 8 54 8h598q30 0 49 -8l4 4
q-2 12 4 51l37 187z" />
    <glyph glyph-name="uni04A5" unicode="&#x4a5;" horiz-adv-x="1382" 
d="M870 946h594l-37 -186h-344q-41 0 -55 8l-2 -2q6 -25 0 -53l-4 -19l-135 -694h-201l72 365q8 37 20 53l-2 2q-18 -8 -59 -8h-346q-42 0 -56 8l-2 -2q6 -25 0 -53l-71 -365h-201l184 946h201l-59 -305q-7 -30 -21 -53l2 -2q16 8 58 8h346q41 0 57 -8l2 2q-7 20 0 53l10 53
z" />
    <glyph glyph-name="uni04A6" unicode="&#x4a6;" horiz-adv-x="2187" 
d="M1784 872q350 0 350 -294q0 -56 -12 -123l-6 -33l-7 -37q-30 -179 -144 -282t-292 -103h-182l39 201h119q102 0 163 41.5t84 150.5l13 58q8 50 8 65q0 156 -193 156q-166 0 -424 -70l-116 -602h-213l211 1085l18 101q5 31 17 51l-3 4q-21 -8 -53 -8h-598q-33 0 -49 8
l-6 -4q3 -11 -4 -51l-230 -1186h-213l279 1434h1122l-67 -349l-37 -190q-11 -61 -31 -94l4 -4q210 75 453 75z" />
    <glyph glyph-name="uni04A7" unicode="&#x4a7;" horiz-adv-x="1615" 
d="M932 -410l37 189h110q79 0 126 33.5t63 115.5l57 295q6 38 6 64q0 59 -33 85.5t-106 26.5q-29 0 -61 -4t-61.5 -10.5t-50.5 -12t-43.5 -12.5t-25.5 -8l-67 -352h-201l139 713q8 36 21 53l-2 2q-18 -8 -60 -8h-342q-41 0 -55 8l-2 -2q6 -25 0 -53l-139 -713h-201l184 946
h842l-59 -307q-14 -74 -33 -102l4 -2q151 55 283 55q137 0 205.5 -57t68.5 -189q0 -64 -14 -135l-54 -287q-31 -170 -120.5 -251t-249.5 -81h-166z" />
    <glyph glyph-name="uni04A8" unicode="&#x4a8;" horiz-adv-x="1660" 
d="M719 -31q-131 0 -239 41t-188.5 121.5t-124.5 208.5t-44 293q0 137 32 260t99 227.5t162.5 181t229.5 119.5t294 43q165 0 324 -49l-99 -198q-103 30 -229 30q-142 0 -254 -48.5t-181.5 -133.5t-106 -195t-36.5 -237q0 -237 106.5 -360t297.5 -123q91 0 127 -7l2 4
q-72 28 -105 82q-86 138 -86 310q0 236 126.5 391t334.5 155q162 0 262.5 -100.5t100.5 -290.5q0 -297 -246 -491q-50 -39 -111 -64l2 -4q56 15 78 15q108 0 236 65l65 -168q-60 -25 -99.5 -39t-103.5 -26.5t-128 -12.5q-180 0 -226 64l-6 -2q-104 -62 -266 -62zM1038 203h4
q5 12 13.5 23t15.5 16t18.5 13t14.5 11q99 78 155 188t56 226q0 192 -162 192q-63 0 -110.5 -29t-73.5 -78t-38.5 -105.5t-12.5 -120.5q0 -166 75 -267q2 -3 13 -15.5t19 -24.5t13 -29z" />
    <glyph glyph-name="uni04A9" unicode="&#x4a9;" horiz-adv-x="1212" 
d="M483 -31q-86 0 -160 26.5t-133 79t-93 141t-34 202.5q0 117 36 216.5t107 177t185.5 121.5t261.5 44q139 0 252 -39l-78 -174q-95 27 -170 27q-96 0 -169.5 -30.5t-118 -83.5t-66.5 -119.5t-22 -143.5q0 -210 165 -262q41 -14 113 -21l2 4q-57 23 -82 60q-37 53 -37 147
q0 151 96.5 253.5t258.5 102.5q122 0 201 -63.5t79 -188.5q0 -151 -129 -280q-18 -18 -69 -53l2 -2q36 2 82 12q21 5 88 37l53 -135q-127 -56 -234 -56q-131 0 -157 51h-4q-110 -51 -226 -51zM727 147l4 3q4 25 47 51q50 31 82.5 87t32.5 122q0 61 -29.5 90.5t-77.5 29.5
q-69 0 -111 -54.5t-42 -141.5q0 -66 24.5 -107.5t69.5 -79.5z" />
    <glyph glyph-name="uni04AA" unicode="&#x4aa;" horiz-adv-x="1398" 
d="M944 1249q-255 0 -423.5 -171.5t-168.5 -430.5q0 -214 123.5 -338.5t335.5 -124.5q177 0 354 115l115 -178q-229 -152 -485 -152h-35l-23 -39q73 -22 115.5 -52.5t42.5 -80.5q0 -22 -7.5 -43t-25.5 -41t-34.5 -35.5t-47.5 -34t-50 -30t-57 -28.5t-54.5 -24.5t-55.5 -23.5
l-18 66q116 59 144 83q29 26 30 48q0 49 -129 80l90 163q-257 34 -408 211.5t-151 450.5q0 237 108.5 425.5t302 294t437.5 105.5q283 0 485 -164l-133 -180q-175 129 -377 129z" />
    <glyph glyph-name="uni04AB" unicode="&#x4ab;" horiz-adv-x="1001" 
d="M610 786q-145 0 -237 -93.5t-92 -241.5q0 -130 78 -210.5t204 -80.5q112 0 236 65l82 -168q-152 -82 -301 -88l-23 -39q73 -22 115.5 -52.5t42.5 -80.5q0 -22 -7.5 -43t-25.5 -41t-34.5 -35.5t-47.5 -34t-50 -30t-57 -28.5t-54.5 -24.5t-55.5 -23.5l-18 66q116 59 144 83
q29 26 30 48q0 49 -129 80l88 157q-197 19 -313.5 146t-116.5 325q0 238 154 386.5t401 148.5q207 0 383 -123l-117 -162q-129 94 -279 94z" />
    <glyph glyph-name="uni04AC" unicode="&#x4ac;" horiz-adv-x="1064" 
d="M207 1434h1024l-39 -205h-356q-34 0 -50 8l-6 -4q3 -17 -2 -51l-200 -1039h98l-84 -430h-201l55 287h-110l229 1182q6 35 15 51l-2 4q-19 -8 -54 -8h-356z" />
    <glyph glyph-name="uni04AD" unicode="&#x4ad;" horiz-adv-x="915" 
d="M997 946l-36 -186h-297q-42 0 -56 8l-2 -2q6 -25 0 -53l-14 -70l-103 -518h127l-79 -412h-181l56 287h-148l127 643l15 70q8 37 20 53l-2 2q-18 -8 -59 -8h-299l36 186h895z" />
    <glyph glyph-name="uni04AE" unicode="&#x4ae;" horiz-adv-x="1128" 
d="M1315 1434l-627 -861l-110 -573h-213l110 573l-289 861h230l131 -451q29 -99 38.5 -143.5t10.5 -104.5h10q25 60 51 104t93 144l303 451h262z" />
    <glyph glyph-name="uni04AF" unicode="&#x4af;" horiz-adv-x="985" 
d="M1067 946l-543 -817l-106 -539h-201l109 551l-224 805h222l90 -407q1 -7 6 -29t6.5 -27t5 -23t4.5 -23t3.5 -19.5t2.5 -21.5t1.5 -20t1.5 -22.5v-22.5t-1 -26h9q22 63 43.5 105t74.5 129l250 407h246z" />
    <glyph glyph-name="uni04B0" unicode="&#x4b0;" horiz-adv-x="1128" 
d="M694 569q21 9 51 9h228l-35 -185h-233q-34 0 -50 8l-6 -4q3 -17 -2 -51l-67 -346h-215l67 346q6 38 14 51l-2 4q-21 -8 -53 -8h-233l35 185h227q30 0 51 -9l4 4l-289 861h234l131 -441q28 -95 37 -140.5t10 -107.5h10q25 61 51.5 105t94.5 143l303 441h258l-625 -861z
" />
    <glyph glyph-name="uni04B1" unicode="&#x4b1;" horiz-adv-x="985" 
d="M535 141q20 9 59 9h194l-36 -191h-213q-42 0 -56 8l-2 -2q6 -25 0 -53l-63 -322h-201l64 322q8 37 20 53l-2 2q-18 -8 -59 -8h-205l37 191h194q40 0 56 -9l2 2l-222 803h222l90 -407q1 -7 6 -29t6.5 -27t5 -23t4.5 -23t3.5 -19.5t2.5 -21.5t1.5 -20t1.5 -22.5v-22.5
t-1 -26h9q22 63 43.5 105t74.5 129l250 407h246l-535 -803z" />
    <glyph glyph-name="uni04B2" unicode="&#x4b2;" horiz-adv-x="1343" 
d="M932 539l188 -396h129l-84 -430h-200l55 287h-74l-192 430q-52 114 -56 178h-8q-18 -49 -125 -178l-356 -430h-281l480 567q128 151 176 195l2 8q-9 13 -19 31t-18 35t-30 63t-40 84l-217 451h246l158 -361q34 -77 43.5 -105t15.5 -69h8q23 51 123 172l301 363h270
l-407 -480q-150 -177 -189 -206l-2 -9q41 -68 103 -200z" />
    <glyph glyph-name="uni04B3" unicode="&#x4b3;" horiz-adv-x="1079" 
d="M645 422l158 -297h168l-80 -412h-180l55 287h-107l-127 260q-32 69 -37 101q-1 8 -1 16h-7q-10 -32 -27.5 -57.5t-56.5 -67.5l-229 -252h-246l408 453q43 49 67 59l3 6q-4 2 -8.5 5.5t-7.5 7t-7 10.5l-6 10.5t-6.5 12t-5.5 11.5l-195 371h211l100 -196q37 -70 37 -132h4
q17 42 33 65t53 65l174 198h246l-362 -401q-45 -50 -64 -58l-2 -6q7 -2 12.5 -6.5t10.5 -11.5t7.5 -12t7.5 -15.5t7 -13.5z" />
    <glyph glyph-name="uni04B4" unicode="&#x4b4;" horiz-adv-x="1638" 
d="M1348 193q19 8 55 8h121l-94 -484h-203l45 236q5 29 18 51l-4 4q-16 -8 -55 -8h-918l185 940l47 242q6 38 14 51l-2 4q-19 -8 -53 -8h-336l39 205h962l-39 -205h-315q-33 0 -49 8l-6 -4q3 -17 -2 -51l-49 -242l-134 -692q-5 -29 -18 -51l4 -4q21 8 55 8h476q35 0 51 -8
l4 4q-3 17 2 51l229 1186h213l-229 -1186q-4 -26 -19 -51z" />
    <glyph glyph-name="uni04B5" unicode="&#x4b5;" horiz-adv-x="1181" 
d="M993 178q18 8 60 8h32l-92 -473h-184l47 240q7 30 21 53v2q-18 -8 -60 -8h-633l125 643l15 70q8 37 20 53l-2 2q-18 -8 -59 -8h-217l36 186h711l-37 -186h-194q-42 0 -56 8l-2 -2q6 -25 0 -53l-14 -70l-80 -410q-8 -37 -20 -53l2 -2q18 8 59 8h283q41 0 55 -8l2 2
q-6 25 0 53l139 713h201l-139 -713q-8 -36 -21 -53z" />
    <glyph glyph-name="uni04B6" unicode="&#x4b6;" horiz-adv-x="1226" 
d="M1282 1434l-250 -1291h101l-84 -430h-201l55 287h-112l98 520q11 61 31 94l-2 4q-208 -75 -412 -75q-182 0 -283.5 79t-101.5 246q0 82 26 205l72 361h213l-74 -367q-16 -85 -16 -137q0 -57 15.5 -94.5t46.5 -55t63.5 -24t79.5 -6.5q152 0 401 69l121 615h213z" />
    <glyph glyph-name="uni04B7" unicode="&#x4b7;" horiz-adv-x="1001" 
d="M899 666l-86 -445l-18 -96h98l-80 -412h-180l55 287h-119l43 221h2l15 78q13 75 30 102l-2 2q-163 -55 -303 -55q-144 0 -218.5 56t-74.5 180q0 45 13 108l49 254h201l-45 -231q-7 -40 -7 -62q0 -61 31 -87.5t98 -26.5q27 0 58.5 3t57 7t56.5 10.5t48 10.5t39 10t24 6
l14 80l56 280h200z" />
    <glyph glyph-name="uni04B8" unicode="&#x4b8;" horiz-adv-x="1249" 
d="M1069 1434h213l-278 -1434h-213l98 520q11 61 31 94l-2 4q-131 -48 -287 -67l-51 -260h-103l49 252h-20q-182 0 -283.5 79t-101.5 246q0 82 26 205l72 361h213l-74 -367q-16 -85 -16 -137q0 -57 15.5 -94.5t46.5 -55t63.5 -24t79.5 -6.5h20l60 309h102l-59 -301
q101 13 278 61z" />
    <glyph glyph-name="uni04B9" unicode="&#x4b9;" horiz-adv-x="995" 
d="M754 946h200l-55 -280l-86 -445l-43 -221h-201l43 221h2l15 78q13 75 30 102l-2 2q-101 -35 -194 -47l-31 -161h-61l30 155q-16 -2 -47 -2q-144 0 -218.5 56t-74.5 180q0 45 13 108l49 254h201l-45 -231q-7 -40 -7 -62q0 -61 31 -87.5t98 -26.5q25 0 37 2l39 204h62
l-39 -198q76 11 184 39l14 80z" />
    <glyph glyph-name="uni04BA" unicode="&#x4ba;" horiz-adv-x="1249" 
d="M553 1434l-98 -521q-11 -61 -31 -94l2 -4q210 76 412 76q181 0 283 -79.5t102 -246.5q0 -77 -27 -205l-72 -360h-213l74 367q16 85 16 137q0 57 -15.5 94.5t-46 55t-63 24t-79.5 6.5q-149 0 -402 -70l-121 -614h-213l279 1434h213z" />
    <glyph glyph-name="uni04BB" unicode="&#x4bb;" horiz-adv-x="1116" 
d="M526 1464l-100 -512q-25 -121 -59 -204l8 -3q65 120 151 176t207 56q146 0 222.5 -77.5t76.5 -223.5q0 -62 -20 -162l-103 -514h-200l100 518q10 44 10 92q0 89 -49 137t-141 48q-118 0 -191.5 -84t-107.5 -256l-88 -455h-201l285 1464h200z" />
    <glyph glyph-name="uni04BC" unicode="&#x4bc;" horiz-adv-x="1908" 
d="M1083 -31q-127 0 -236.5 31.5t-187.5 85.5t-134.5 126t-84.5 153.5t-30 166.5q0 52 12 82l-4 2q-12 -12 -62 -12q-118 0 -185 66.5t-67 187.5q0 44 13 107h194q-4 -36 -4 -56q0 -52 22 -76t68 -24q39 0 49 -8l7 2q0 28 14 82q47 165 155 294.5t274.5 207t363.5 77.5
q187 0 332 -67t228 -197t83 -305q0 -112 -43 -291h-1137q-51 0 -90 17l-2 -7q10 -37 10 -73q0 -148 129 -253.5t326 -105.5q81 0 156 17.5t138 50t103 58.5t88 63l117 -176q-129 -104 -277.5 -165t-337.5 -61zM676 799q39 10 110 10h783q75 0 108 -10l6 4q-8 15 -10 88
q-3 169 -117 264.5t-303 95.5q-410 0 -540 -366q-17 -47 -25 -57q-5 -8 -14 -23z" />
    <glyph glyph-name="uni04BD" unicode="&#x4bd;" horiz-adv-x="1335" 
d="M770 -31q-218 0 -344.5 117t-126.5 317q0 24 6 39l-4 2q-30 -10 -63 -10q-92 0 -143.5 47.5t-51.5 132.5q0 60 39 125h154q-35 -56 -35 -100q0 -22 19.5 -37.5t45.5 -15.5q34 0 51 -11l5 3q2 22 14 53q68 167 200.5 256.5t313.5 89.5q200 0 314 -104t114 -287
q0 -50 -21 -152h-639q-94 0 -120 17l-6 -5l4 -16v-31q0 -116 71 -178.5t201 -62.5q90 0 165.5 33t160.5 110l118 -143q-109 -101 -211 -145t-231 -44zM518 565q30 21 100 21h349q89 0 108 -19l6 4q-2 4 -2 11q0 109 -61.5 166t-181.5 57q-240 0 -320 -236z" />
    <glyph glyph-name="uni04BE" unicode="&#x4be;" horiz-adv-x="1908" 
d="M723 604q-51 0 -90 17l-2 -7q10 -37 10 -73q0 -148 129 -253.5t326 -105.5q81 0 156 17.5t138 50t103 58.5t88 63l117 -176q-167 -136 -348 -189q-109 -77 -157 -126t-48 -89q0 -49 65 -49q40 0 84 12l13 -110q-78 -29 -152 -29q-69 0 -111.5 33.5t-42.5 91.5
q0 61 43 115t132 118q-62 -4 -93 -4q-127 0 -236.5 31.5t-187.5 85.5t-134.5 126t-84.5 153.5t-30 166.5q0 52 12 82l-4 2q-12 -12 -62 -12q-118 0 -185 66.5t-67 187.5q0 44 13 107h194q-4 -36 -4 -56q0 -52 22 -76t68 -24q39 0 49 -8l7 2q0 28 14 82q47 165 155 294.5
t274.5 207t363.5 77.5q187 0 332 -67t228 -197t83 -305q0 -112 -43 -291h-1137zM713 885q-17 -47 -25 -57q-5 -8 -14 -23l2 -6q39 10 110 10h783q75 0 108 -10l6 4q-8 15 -10 88q-3 169 -117 264.5t-303 95.5q-410 0 -540 -366z" />
    <glyph glyph-name="uni04BF" unicode="&#x4bf;" horiz-adv-x="1335" 
d="M618 434q-94 0 -120 17l-6 -5l4 -16v-31q0 -116 71 -178.5t201 -62.5q90 0 165.5 33t160.5 110l118 -143q-107 -101 -211 -146q-115 -80 -166 -131t-51 -92q0 -49 66 -49q40 0 84 12l12 -110q-78 -29 -151 -29q-69 0 -111.5 33.5t-42.5 91.5q0 61 42 114.5t130 118.5
q-14 -2 -43 -2q-218 0 -344.5 117t-126.5 317q0 24 6 39l-4 2q-30 -10 -63 -10q-92 0 -143.5 47.5t-51.5 132.5q0 60 39 125h154q-35 -56 -35 -100q0 -22 19.5 -37.5t45.5 -15.5q34 0 51 -11l5 3q2 22 14 53q68 167 200.5 256.5t313.5 89.5q200 0 314 -104t114 -287
q0 -50 -21 -152h-639zM836 805q-240 0 -320 -236l2 -4q30 21 100 21h349q89 0 108 -19l6 4q-2 4 -2 11q0 109 -61.5 166t-181.5 57z" />
    <glyph glyph-name="uni04C0" unicode="&#x4c0;" horiz-adv-x="524" 
d="M557 1434l-278 -1434h-218l279 1434h217z" />
    <glyph glyph-name="uni04C1" unicode="&#x4c1;" horiz-adv-x="1855" 
d="M1126 1481q-120 0 -182.5 56.5t-62.5 160.5q0 32 6 69h133q-8 -39 -8 -61q0 -107 125 -107q78 0 114.5 43t51.5 125h137q-29 -148 -106.5 -217t-207.5 -69zM1888 1440q50 0 123 -6l-39 -199q-40 4 -57 4q-109 0 -146 -86l-73 -176q-51 -120 -124.5 -163t-221.5 -52v-4
q81 -4 123 -23t65 -71.5t27 -153.5l8 -184q3 -58 34 -88.5t87 -30.5q17 0 67 4l-41 -211q-52 -8 -104 -8q-40 0 -73.5 7t-66.5 27.5t-56 52.5t-37.5 85.5t-16.5 124.5l-6 215q-2 89 -39.5 126.5t-130.5 37.5h-64q-47 0 -63 4l-2 -2q3 -37 -6 -84l-113 -586h-213l115 586
q9 50 26 84l-2 2q-16 -4 -61 -4h-82q-76 0 -128.5 -38.5t-88.5 -125.5l-117 -287q-47 -118 -128.5 -171.5t-209.5 -53.5q-47 0 -102 8l41 211q50 -4 59 -4q114 0 160 110l100 238q32 77 62.5 115.5t87.5 61t155 26.5v4q-135 9 -184.5 53t-56.5 168l-10 170q-3 51 -36.5 68.5
t-86.5 17.5q-24 0 -64 -4l39 199q62 6 102 6q119 0 173 -45.5t63 -153.5l18 -233q13 -158 185 -158h84q35 0 59 -6l2 2q-3 35 6 82l99 506h213l-99 -506q-9 -47 -26 -82l2 -2q24 6 65 6h80q168 0 236 158l104 237q45 108 119 151.5t186 43.5z" />
    <glyph glyph-name="uni04C2" unicode="&#x4c2;" horiz-adv-x="1470" 
d="M846 1024q-116 0 -184 58.5t-68 166.5q0 35 8 74h133q-4 -36 -4 -49q0 -123 121 -123q142 0 180 172h135q-26 -146 -107.5 -222.5t-213.5 -76.5zM1397 952h100l-35 -174h-45q-47 0 -73.5 -16t-53.5 -62l-47 -86q-30 -58 -82.5 -85.5t-134.5 -32.5l-2 -4q90 -3 135 -30.5
t51 -94.5l13 -134q3 -39 19 -52t54 -13h54l-35 -174h-119q-60 0 -96.5 31.5t-42.5 91.5l-19 168q-8 68 -37.5 98.5t-95.5 30.5h-26q-48 0 -64 4l-2 -2q3 -37 -6 -86l-64 -330h-196l67 330q9 45 27 86l-2 2q-16 -4 -64 -4h-26q-56 0 -93.5 -30.5t-70.5 -98.5l-82 -168
q-27 -58 -85.5 -90.5t-129.5 -32.5h-119l35 174h53q45 0 69.5 13t45.5 52l64 134q30 66 80 94t137 31l2 4q-83 5 -124.5 32t-51.5 86l-17 86q-9 46 -27.5 62t-62.5 16h-45l35 174h98q63 0 99.5 -22.5t48.5 -73.5l38 -168q8 -36 13.5 -51.5t18.5 -33.5t34.5 -24t56.5 -6h27
q47 0 63 -4l3 2q-3 35 6 82l63 293h197l-60 -293q-9 -47 -26 -82l2 -2q16 4 63 4h27q28 0 47 5.5t36.5 24.5t27 32.5t32.5 52.5l103 168q61 96 217 96z" />
    <glyph glyph-name="uni04C3" unicode="&#x4c3;" horiz-adv-x="1234" 
d="M1288 1440q46 0 101 -8l-37 -199q-30 6 -58 6q-63 0 -99 -19t-56 -65l-74 -178q-40 -97 -114 -145.5t-203 -69.5v-4q207 -5 314 -80.5t107 -245.5q0 -47 -14 -129l-63 -326q-32 -184 -128 -285.5t-259 -101.5h-191l39 201h133q156 0 195 195l61 317q10 55 10 90
q0 142 -119 203t-376 61q-48 0 -62 7l-2 -5q3 -33 -6 -81l-113 -578h-213l279 1434h213l-102 -523q-10 -49 -25 -80l2 -2q28 7 64 7h126q84 0 143.5 45.5t106.5 160.5l84 201q44 104 124 150.5t212 46.5z" />
    <glyph glyph-name="uni04C4" unicode="&#x4c4;" horiz-adv-x="1007" 
d="M299 -410l37 189h110q79 0 126 33.5t63 115.5l41 209q12 66 12 96q0 171 -223 177l-88 2q-48 0 -64 4l-2 -2q3 -37 -6 -86l-63 -328h-201l184 946h201l-57 -293q-7 -36 -27 -82l2 -2q16 4 64 4h67q63 0 93.5 23.5t72.5 91.5l104 168q60 96 193 96h100l-34 -180h-46
q-40 0 -64 -15t-48 -57l-49 -86q-63 -113 -230 -116l-2 -9q326 3 326 -237q0 -31 -17 -127l-47 -248q-28 -146 -120.5 -216.5t-262.5 -70.5h-145z" />
    <glyph glyph-name="uni04C5" unicode="&#x4c5;" horiz-adv-x="1546" 
d="M1452 870l-139 -716h162l-232 -441h-172l135 287h-137l170 870l61 316q6 35 15 51l-2 4q-21 -8 -53 -8h-560q-33 0 -49 8l-6 -4q3 -17 -2 -51l-57 -297l-111 -567q-34 -178 -120.5 -255t-262.5 -77q-72 0 -133 10l39 201q47 -6 117 -6q62 0 97.5 32t53.5 119l107 543
l104 545h1084z" />
    <glyph glyph-name="uni04C6" unicode="&#x4c6;" horiz-adv-x="1142" 
d="M1071 946l-153 -792h153l-231 -441h-172l135 287h-115l137 713q7 30 21 53l-2 2q-16 -8 -58 -8h-290q-42 0 -58 8l-2 -2q7 -20 0 -53l-20 -113l-68 -348q-25 -127 -106 -192.5t-215 -65.5h-99l35 182h57q61 0 93.5 37.5t48.5 116.5l53 270l66 346h790z" />
    <glyph glyph-name="uni04C7" unicode="&#x4c7;" horiz-adv-x="1458" 
d="M684 -410l43 217h94q72 0 113 47t59 136l121 618q5 33 16 51l-4 5q-24 -9 -53 -9h-618q-31 0 -49 9l-5 -5q2 -12 -4 -51l-118 -608h-218l279 1434h217l-102 -527q-5 -31 -17 -51l4 -4q19 8 54 8h618q30 0 49 -8l4 4q-2 12 4 51l103 527h217l-281 -1444
q-22 -116 -61 -195.5t-95.5 -123.5t-121.5 -62.5t-152 -18.5h-96z" />
    <glyph glyph-name="uni04C8" unicode="&#x4c8;" horiz-adv-x="1132" 
d="M891 946h201l-185 -946l-26 -139q-52 -277 -332 -277h-109l35 183h78q61 0 90.5 27.5t40.5 86.5l23 119l71 365q8 36 21 53l-2 2q-18 -8 -60 -8h-366q-42 0 -56 8l-2 -2q6 -25 0 -53l-71 -365h-201l184 946h201l-59 -305q-7 -30 -21 -53l2 -2q16 8 58 8h366q41 0 57 -8
l2 2q-7 20 0 53z" />
    <glyph glyph-name="uni04C9" unicode="&#x4c9;" horiz-adv-x="1466" 
d="M1491 1434l-248 -1280h152l-232 -441h-172l135 287h-131l119 608q5 33 16 51l-4 5q-24 -9 -53 -9h-618q-31 0 -49 9l-5 -5q2 -12 -4 -51l-118 -608h-218l279 1434h217l-102 -527q-5 -31 -17 -51l4 -4q19 8 54 8h618q30 0 49 -8l4 4q-2 12 4 51l103 527h217z" />
    <glyph glyph-name="uni04CA" unicode="&#x4ca;" horiz-adv-x="1161" 
d="M1092 946l-154 -792h152l-232 -441h-172l135 287h-114l71 365q8 36 21 53l-2 2q-18 -8 -60 -8h-366q-42 0 -56 8l-2 -2q6 -25 0 -53l-71 -365h-201l184 946h201l-59 -305q-7 -30 -21 -53l2 -2q16 8 58 8h366q41 0 57 -8l2 2q-7 20 0 53l60 305h201z" />
    <glyph glyph-name="uni04CB" unicode="&#x4cb;" horiz-adv-x="1249" 
d="M1282 1434l-278 -1434h-150l-55 -287h-201l84 430h135l72 377q11 61 31 94l-2 4q-208 -75 -412 -75q-182 0 -283.5 79t-101.5 246q0 82 26 205l72 361h213l-74 -367q-16 -85 -16 -137q0 -57 15.5 -94.5t46.5 -55t63.5 -24t79.5 -6.5q152 0 401 69l121 615h213z" />
    <glyph glyph-name="uni04CC" unicode="&#x4cc;" horiz-adv-x="995" 
d="M754 946h200l-55 -280l-86 -445l-43 -221h-135l-55 -287h-181l80 412h115l18 96h2l15 78q13 75 30 102l-2 2q-163 -55 -303 -55q-144 0 -218.5 56t-74.5 180q0 45 13 108l49 254h201l-45 -231q-7 -40 -7 -62q0 -61 31 -87.5t98 -26.5q27 0 58.5 3t57 7t56.5 10.5t48 10.5
t39 10t24 6l14 80z" />
    <glyph glyph-name="uni04CD" unicode="&#x4cd;" horiz-adv-x="1904" 
d="M1688 154h145l-231 -441h-172l135 287h-60l-90 737q-12 104 8 232h-6q-5 -12 -17 -43t-21 -51.5t-28.5 -57.5t-45.5 -78l-467 -753h-23l-184 753q-6 24 -10.5 45.5t-7 41.5t-4.5 33t-2.5 32t-0.5 26v27.5v24.5h-6q-1 -5 -7.5 -31.5t-11.5 -44l-13 -45.5t-19.5 -56
t-24.5 -55l-354 -737h-242l711 1454h31l207 -901q13 -54 6 -166h8q25 95 67 166l547 901h33z" />
    <glyph glyph-name="uni04CE" unicode="&#x4ce;" horiz-adv-x="1429" 
d="M1192 154h166l-232 -441h-172l136 287h-72l-55 383q-16 104 -11 158h-6q-6 -15 -14.5 -31t-16.5 -28.5t-27 -41.5t-36 -55l-248 -395h-55l-96 395q-6 22 -14.5 54.5t-11 43t-5 26.5t-2.5 32h-6q-4 -14 -8 -25.5t-11.5 -28.5t-12.5 -26.5t-18.5 -36t-21.5 -41.5l-197 -383
h-227l508 956h53l135 -495q17 -66 19 -109h6q15 35 59 109l308 495h53z" />
    <glyph glyph-name="uni04CF" unicode="&#x4cf;" horiz-adv-x="466" 
d="M426 946l-184 -946h-201l184 946h201z" />
    <glyph glyph-name="uni04D0" unicode="&#x4d0;" horiz-adv-x="1425" 
d="M1225 1767q-29 -148 -106.5 -217t-207.5 -69q-120 0 -182.5 56.5t-62.5 160.5q0 32 6 69h133q-8 -39 -8 -61q0 -107 125 -107q77 0 113.5 43t51.5 125h138zM-72 0l967 1464h20l398 -1464h-219l-99 377h-571l-236 -377h-260zM524 555q36 4 115 4h207q77 0 117 -4l2 2
q-27 45 -43 117l-54 248q-22 110 -16 163h-12q-12 -52 -80 -163l-150 -248q-47 -76 -88 -117z" />
    <glyph glyph-name="uni04D1" unicode="&#x4d1;" horiz-adv-x="1032" 
d="M627 1024q-116 0 -184 58.5t-68 166.5q0 35 8 74h133q-4 -36 -4 -49q0 -123 121 -123q142 0 180 172h135q-26 -146 -107.5 -222.5t-213.5 -76.5zM369 -29q-149 0 -242.5 89t-93.5 229q0 158 101 251t274 93q117 0 202.5 -52t128.5 -149l6 2q-11 52 5 148q10 54 10 77
q0 63 -49 97.5t-138 34.5q-127 0 -297 -39l-36 182q198 41 358 41q173 0 262.5 -72.5t89.5 -212.5q0 -42 -10 -104l-113 -586h-200q15 90 53 143l-10 7q-63 -94 -134.5 -136.5t-166.5 -42.5zM442 133q100 0 170 49.5t70 120.5q0 69 -66.5 116.5t-164.5 47.5
q-97 0 -152 -46.5t-55 -129.5q0 -72 53 -115t145 -43z" />
    <glyph glyph-name="uni04D2" unicode="&#x4d2;" horiz-adv-x="1425" 
d="M684 1749h184l-45 -227h-184zM1036 1749h187l-45 -227h-187zM-72 0l967 1464h20l398 -1464h-219l-99 377h-571l-236 -377h-260zM524 555q36 4 115 4h207q77 0 117 -4l2 2q-27 45 -43 117l-54 248q-22 110 -16 163h-12q-12 -52 -80 -163l-150 -248q-47 -76 -88 -117z" />
    <glyph glyph-name="uni04D3" unicode="&#x4d3;" horiz-adv-x="1032" 
d="M600 1311l-47 -246h-184l47 246h184zM944 1311l-47 -246h-184l47 246h184zM369 -29q-149 0 -242.5 89t-93.5 229q0 158 101 251t274 93q117 0 202.5 -52t128.5 -149l6 2q-11 52 5 148q10 54 10 77q0 63 -49 97.5t-138 34.5q-127 0 -297 -39l-36 182q198 41 358 41
q173 0 262.5 -72.5t89.5 -212.5q0 -42 -10 -104l-113 -586h-200q15 90 53 143l-10 7q-63 -94 -134.5 -136.5t-166.5 -42.5zM442 133q100 0 170 49.5t70 120.5q0 69 -66.5 116.5t-164.5 47.5q-97 0 -152 -46.5t-55 -129.5q0 -72 53 -115t145 -43z" />
    <glyph glyph-name="uni04D4" unicode="&#x4d4;" horiz-adv-x="1810" 
d="M1438 1231q-33 0 -49 8l-7 -4q4 -18 -4 -53l-49 -254q-5 -33 -16 -51l4 -5q21 9 53 9h442l-40 -203h-443q-30 0 -49 8l-4 -4q2 -11 -4 -53l-74 -377q-5 -35 -16 -53l2 -4q21 8 53 8h500l-39 -203h-752l64 328q6 36 16 53l-2 4q-21 -8 -53 -8h-473l-312 -377h-258
l1215 1434h825l-39 -203h-491zM1006 559q36 0 49 -8l6 4q-2 12 4 51l96 494q8 46 43 160h-2q-56 -102 -104 -160l-381 -455q-31 -38 -51 -57.5t-50 -36.5l2 -4q37 12 103 12h285z" />
    <glyph glyph-name="uni04D5" unicode="&#x4d5;" horiz-adv-x="1751" 
d="M1198 -31q-294 0 -383 219h-4q-134 -217 -408 -217q-176 0 -272 89t-96 235q0 147 96.5 242.5t271.5 95.5q248 0 338 -201l7 2q-12 66 4 148q10 55 10 77q0 54 -42 93t-145 39q-111 0 -296 -39l-37 182q76 17 180 29t178 12q137 0 208 -46t93 -145h6q128 193 377 193
q192 0 301 -107.5t109 -283.5q0 -53 -21 -152h-614q-93 0 -121 17l-6 -5l4 -16v-31q0 -109 64 -175t196 -66q95 0 164.5 35.5t148.5 107.5l119 -143q-96 -93 -194 -141t-236 -48zM958 565q33 21 101 21h323q90 0 109 -19l6 4q-2 4 -2 11q0 110 -59 166.5t-172 56.5
q-231 0 -308 -236zM442 133q102 0 172 50t70 120q0 68 -65.5 116t-167.5 48q-103 0 -154 -50.5t-51 -123.5q0 -77 54 -118.5t142 -41.5z" />
    <glyph glyph-name="uni04D6" unicode="&#x4d6;" horiz-adv-x="1056" 
d="M1102 1767q-29 -148 -106.5 -217t-207.5 -69q-120 0 -182.5 56.5t-62.5 160.5q0 32 6 69h133q-8 -39 -8 -61q0 -107 125 -107q78 0 114.5 43t51.5 125h137zM1153 1434l-39 -201h-551q-33 0 -49 8l-6 -4q4 -18 -4 -53l-49 -256q-5 -31 -17 -51l4 -5q21 9 54 9h483
l-39 -201h-483q-32 0 -51 8l-5 -4q2 -12 -4 -53l-73 -381q-9 -39 -17 -53l2 -4q21 8 53 8h560l-39 -201h-822l279 1434h813z" />
    <glyph glyph-name="uni04D7" unicode="&#x4d7;" horiz-adv-x="1099" 
d="M662 1024q-116 0 -184 58.5t-68 166.5q0 35 8 74h133q-4 -36 -4 -49q0 -123 121 -123q142 0 180 172h135q-26 -146 -107.5 -222.5t-213.5 -76.5zM535 -31q-220 0 -346 119t-126 328q0 246 155.5 403.5t397.5 157.5q198 0 312 -104.5t114 -286.5q0 -55 -20 -152h-639
q-95 0 -121 17l-6 -5l4 -16v-31q0 -116 71 -178.5t201 -62.5q90 0 165.5 33t160.5 110l119 -143q-109 -101 -211 -145t-231 -44zM283 565q30 21 100 21h348q90 0 109 -19l6 4q-2 4 -2 11q0 109 -62 166t-182 57q-239 0 -319 -236z" />
    <glyph glyph-name="uni04D8" unicode="&#x4d8;" horiz-adv-x="1589" 
d="M905 1464q197 0 344 -71t231.5 -218.5t84.5 -357.5q0 -176 -56 -330.5t-158 -269.5t-257 -181.5t-342 -66.5q-144 0 -261.5 36.5t-204.5 108t-134.5 186.5t-47.5 265q0 65 9.5 120t33.5 144h1127q53 0 90 -16l2 6q-10 37 -10 74q0 148 -132 253t-331 105
q-78 0 -150.5 -17.5t-133 -49.5t-99.5 -58.5t-84 -62.5l-117 176q128 105 269 165t327 60zM1327 635q-39 -10 -110 -10h-801q-76 0 -109 10l-6 -4q10 -20 10 -88q1 -83 29.5 -148t73 -104t104.5 -64.5t117.5 -35t118.5 -9.5q80 0 150 15.5t120 39t93 58t70 66t49.5 70.5
t33.5 64.5t20 53.5q12 34 14.5 40.5t9.5 16t15 23.5z" />
    <glyph glyph-name="uni04D9" unicode="&#x4d9;" horiz-adv-x="1099" 
d="M565 977q220 0 345.5 -119t125.5 -328q0 -246 -155.5 -403.5t-397.5 -157.5q-198 0 -312 104.5t-114 286.5q0 50 21 152h639q97 0 121 -16l6 4l-4 16v31q0 115 -71 178t-202 63q-90 0 -165 -33t-160 -110l-119 143q109 101 211 145t231 44zM817 381q-30 -21 -100 -21
h-348q-90 0 -109 19l-6 -4q2 -4 2 -10q0 -109 62 -166.5t182 -57.5q239 0 319 236z" />
    <glyph glyph-name="uni04DA" unicode="&#x4da;" horiz-adv-x="1589" 
d="M750 1749h184l-45 -227h-184zM1102 1749h186l-45 -227h-186zM905 1464q197 0 344 -71t231.5 -218.5t84.5 -357.5q0 -176 -56 -330.5t-158 -269.5t-257 -181.5t-342 -66.5q-144 0 -261.5 36.5t-204.5 108t-134.5 186.5t-47.5 265q0 65 9.5 120t33.5 144h1127q53 0 90 -16
l2 6q-10 37 -10 74q0 148 -132 253t-331 105q-78 0 -150.5 -17.5t-133 -49.5t-99.5 -58.5t-84 -62.5l-117 176q128 105 269 165t327 60zM1327 635q-39 -10 -110 -10h-801q-76 0 -109 10l-6 -4q10 -20 10 -88q1 -83 29.5 -148t73 -104t104.5 -64.5t117.5 -35t118.5 -9.5
q80 0 150 15.5t120 39t93 58t70 66t49.5 70.5t33.5 64.5t20 53.5q12 34 14.5 40.5t9.5 16t15 23.5z" />
    <glyph glyph-name="uni04DB" unicode="&#x4db;" horiz-adv-x="1099" 
d="M614 1311l-47 -246h-184l47 246h184zM958 1311l-47 -246h-184l47 246h184zM565 977q220 0 345.5 -119t125.5 -328q0 -246 -155.5 -403.5t-397.5 -157.5q-198 0 -312 104.5t-114 286.5q0 50 21 152h639q97 0 121 -16l6 4l-4 16v31q0 115 -71 178t-202 63q-90 0 -165 -33
t-160 -110l-119 143q109 101 211 145t231 44zM817 381q-30 -21 -100 -21h-348q-90 0 -109 19l-6 -4q2 -4 2 -10q0 -109 62 -166.5t182 -57.5q239 0 319 236z" />
    <glyph glyph-name="uni04DC" unicode="&#x4dc;" horiz-adv-x="1855" 
d="M1083 1749l-45 -227h-184l45 227h184zM1438 1749l-45 -227h-187l45 227h187zM1888 1440q50 0 123 -6l-39 -199q-40 4 -57 4q-109 0 -146 -86l-73 -176q-51 -120 -124.5 -163t-221.5 -52v-4q81 -4 123 -23t65 -71.5t27 -153.5l8 -184q3 -58 34 -88.5t87 -30.5q17 0 67 4
l-41 -211q-52 -8 -104 -8q-40 0 -73.5 7t-66.5 27.5t-56 52.5t-37.5 85.5t-16.5 124.5l-6 215q-2 89 -39.5 126.5t-130.5 37.5h-64q-47 0 -63 4l-2 -2q3 -37 -6 -84l-113 -586h-213l115 586q9 50 26 84l-2 2q-16 -4 -61 -4h-82q-76 0 -128.5 -38.5t-88.5 -125.5l-117 -287
q-47 -118 -128.5 -171.5t-209.5 -53.5q-47 0 -102 8l41 211q50 -4 59 -4q114 0 160 110l100 238q32 77 62.5 115.5t87.5 61t155 26.5v4q-135 9 -184.5 53t-56.5 168l-10 170q-3 51 -36.5 68.5t-86.5 17.5q-24 0 -64 -4l39 199q62 6 102 6q119 0 173 -45.5t63 -153.5l18 -233
q13 -158 185 -158h84q35 0 59 -6l2 2q-3 35 6 82l99 506h213l-99 -506q-9 -47 -26 -82l2 -2q24 6 65 6h80q168 0 236 158l104 237q45 108 119 151.5t186 43.5z" />
    <glyph glyph-name="uni04DD" unicode="&#x4dd;" horiz-adv-x="1470" 
d="M819 1311l-47 -246h-184l47 246h184zM1163 1311l-47 -246h-184l47 246h184zM1397 952h100l-35 -174h-45q-47 0 -73.5 -16t-53.5 -62l-47 -86q-30 -58 -82.5 -85.5t-134.5 -32.5l-2 -4q90 -3 135 -30.5t51 -94.5l13 -134q3 -39 19 -52t54 -13h54l-35 -174h-119
q-60 0 -96.5 31.5t-42.5 91.5l-19 168q-8 68 -37.5 98.5t-95.5 30.5h-26q-48 0 -64 4l-2 -2q3 -37 -6 -86l-64 -330h-196l67 330q9 45 27 86l-2 2q-16 -4 -64 -4h-26q-56 0 -93.5 -30.5t-70.5 -98.5l-82 -168q-27 -58 -85.5 -90.5t-129.5 -32.5h-119l35 174h53q45 0 69.5 13
t45.5 52l64 134q30 66 80 94t137 31l2 4q-83 5 -124.5 32t-51.5 86l-17 86q-9 46 -27.5 62t-62.5 16h-45l35 174h98q63 0 99.5 -22.5t48.5 -73.5l38 -168q8 -36 13.5 -51.5t18.5 -33.5t34.5 -24t56.5 -6h27q47 0 63 -4l3 2q-3 35 6 82l63 293h197l-60 -293q-9 -47 -26 -82
l2 -2q16 4 63 4h27q28 0 47 5.5t36.5 24.5t27 32.5t32.5 52.5l103 168q61 96 217 96z" />
    </font>
</defs>
</svg>
