<?xml version="1.0" standalone="no"?>
<!DOCTYPE svg PUBLIC "-//W3C//DTD SVG 1.1//EN" "http://www.w3.org/Graphics/SVG/1.1/DTD/svg11.dtd" >
<svg xmlns="http://www.w3.org/2000/svg" xmlns:xlink="http://www.w3.org/1999/xlink" version="1.1">
<metadata>
Created by FontForge 20170731 at Sat Jul 23 01:52:16 2022
 By Aleksey,,,
Copyright (c) 2015 by Reto Moser. All rights reserved.
</metadata>
<defs>
<font id="GTEestiProText-Regular" horiz-adv-x="1228" >
  <font-face 
    font-family="GT Eesti Pro Text"
    font-weight="400"
    font-stretch="normal"
    units-per-em="2048"
    panose-1="0 0 5 0 0 0 0 0 0 0"
    ascent="1536"
    descent="-512"
    x-height="946"
    cap-height="1434"
    bbox="-844 -516 2302 1843"
    underline-thickness="102"
    underline-position="-307"
    unicode-range="U+000D-FB02"
  />
<missing-glyph horiz-adv-x="1576" 
d="M788 -31q-213 0 -384 96.5t-267 267.5t-96 384q0 160 56.5 299t155 237.5t237 154.5t298.5 56q214 0 385 -95.5t267 -266.5t96 -385q0 -213 -96 -384t-267 -267.5t-385 -96.5zM788 20q149 0 279 53.5t223 146.5t146 224.5t53 282.5l-105 133l-143 -61l-139 184l-162 -90
l-152 242l-151 -242l-162 90l-139 -184l-143 61l-105 -133q0 -201 90.5 -363t250.5 -253t359 -91zM578 651q-31 0 -51.5 20.5t-20.5 51.5t20.5 51.5t51.5 20.5t51 -20.5t20 -51.5t-20 -51.5t-51 -20.5zM997 651q-31 0 -51 20.5t-20 51.5t20 51.5t51 20.5t51.5 -20.5
t20.5 -51.5t-20.5 -51.5t-51.5 -20.5zM702 522l74 207q1 7 8.5 10t14.5 0q6 -2 9.5 -8.5t0.5 -13.5l-57 -160h69q8 0 13.5 -5.5t5.5 -12.5q0 -6 -6 -11.5t-13 -5.5h-119zM385 350q-61 0 -101 40t-40 102t40 101.5t101 39.5t101 -39.5t40 -101.5t-40 -102t-101 -40zM1190 350
q-61 0 -101 40t-40 102t39.5 101.5t101.5 39.5t101.5 -39.5t39.5 -101.5t-40 -102t-101 -40zM788 395q-95 0 -126 -61q-6 -12 -19 -12q-16 0 -16 18q0 35 49.5 63.5t111.5 28.5t112 -28.5t50 -63.5q0 -18 -16 -18q-13 0 -19 12q-31 61 -127 61z" />
    <glyph glyph-name="fi" unicode="fi" horiz-adv-x="1126" 
d="M608 1452v-188h-14q-87 0 -131.5 -45t-44.5 -148v-70q-5 -57 -8 -67l6 -4q19 16 84 16h106v-192h-106q-65 0 -84 16l-6 -4q8 -35 8 -111v-655h-201v655q0 76 8 111l-4 4q-21 -16 -86 -16h-84v192h84q65 0 86 -16l4 4q-2 7 -8 63v54q0 89 22 160t57.5 115t84 73.5t97.5 41
t102 11.5h28zM1006 1434v-271h-226v271h226zM993 946v-946h-200v946h200z" />
    <glyph glyph-name="fl" unicode="fl" horiz-adv-x="1126" 
d="M993 1464v-1464h-200v1464h200zM608 1452v-188h-14q-87 0 -131.5 -45t-44.5 -148v-70q-5 -57 -8 -67l6 -4q19 16 84 16h106v-192h-106q-65 0 -84 16l-6 -4q8 -35 8 -111v-655h-201v655q0 76 8 111l-4 4q-21 -16 -86 -16h-84v192h84q65 0 86 -16l4 4q-2 7 -8 63v54
q0 89 22 160t57.5 115t84 73.5t97.5 41t102 11.5h28z" />
    <glyph glyph-name="f_f" unicode="ff" horiz-adv-x="1318" 
d="M608 1452v-188h-14q-87 0 -131.5 -45t-44.5 -148v-70q-5 -57 -8 -67l6 -4q19 16 84 16h106v-192h-106q-65 0 -84 16l-6 -4q8 -35 8 -111v-655h-201v655q0 76 8 111l-4 4q-21 -16 -86 -16h-84v192h84q65 0 86 -16l4 4q-2 7 -8 63v54q0 89 22 160t57.5 115t84 73.5t97.5 41
t102 11.5h28zM1268 1452v-188h-15q-87 0 -131.5 -45t-44.5 -148v-70q-5 -57 -8 -67l6 -4q19 16 84 16h107v-192h-107q-65 0 -84 16l-6 -4q8 -35 8 -111v-655h-200v655q0 76 8 111l-4 4q-21 -16 -86 -16h-84v192h84q65 0 86 -16l4 4q-2 7 -8 63v54q0 89 22 160t57.5 115
t83.5 73.5t97 41t102 11.5h29z" />
    <glyph glyph-name="f_f_i" unicode="ffi" horiz-adv-x="1785" 
d="M608 1452v-188h-14q-87 0 -131.5 -45t-44.5 -148v-70q-5 -57 -8 -67l6 -4q19 16 84 16h106v-192h-106q-65 0 -84 16l-6 -4q8 -35 8 -111v-655h-201v655q0 76 8 111l-4 4q-21 -16 -86 -16h-84v192h84q65 0 86 -16l4 4q-2 7 -8 63v54q0 89 22 160t57.5 115t84 73.5t97.5 41
t102 11.5h28zM1268 1452v-188h-15q-87 0 -131.5 -45t-44.5 -148v-70q-5 -57 -8 -67l6 -4q19 16 84 16h107v-192h-107q-65 0 -84 16l-6 -4q8 -35 8 -111v-655h-200v655q0 76 8 111l-4 4q-21 -16 -86 -16h-84v192h84q65 0 86 -16l4 4q-2 7 -8 63v54q0 89 22 160t57.5 115
t83.5 73.5t97 41t102 11.5h29zM1665 1434v-271h-225v271h225zM1653 946v-946h-201v946h201z" />
    <glyph glyph-name="f_f_l" unicode="ffl" horiz-adv-x="1785" 
d="M1653 1464v-1464h-201v1464h201zM608 1452v-188h-14q-87 0 -131.5 -45t-44.5 -148v-70q-5 -57 -8 -67l6 -4q19 16 84 16h106v-192h-106q-65 0 -84 16l-6 -4q8 -35 8 -111v-655h-201v655q0 76 8 111l-4 4q-21 -16 -86 -16h-84v192h84q65 0 86 -16l4 4q-2 7 -8 63v54
q0 89 22 160t57.5 115t84 73.5t97.5 41t102 11.5h28zM1268 1452v-188h-15q-87 0 -131.5 -45t-44.5 -148v-70q-5 -57 -8 -67l6 -4q19 16 84 16h107v-192h-107q-65 0 -84 16l-6 -4q8 -35 8 -111v-655h-200v655q0 76 8 111l-4 4q-21 -16 -86 -16h-84v192h84q65 0 86 -16l4 4
q-2 7 -8 63v54q0 89 22 160t57.5 115t83.5 73.5t97 41t102 11.5h29z" />
    <glyph glyph-name=".notdef" horiz-adv-x="1576" 
d="M788 -31q-213 0 -384 96.5t-267 267.5t-96 384q0 160 56.5 299t155 237.5t237 154.5t298.5 56q214 0 385 -95.5t267 -266.5t96 -385q0 -213 -96 -384t-267 -267.5t-385 -96.5zM788 20q149 0 279 53.5t223 146.5t146 224.5t53 282.5l-105 133l-143 -61l-139 184l-162 -90
l-152 242l-151 -242l-162 90l-139 -184l-143 61l-105 -133q0 -201 90.5 -363t250.5 -253t359 -91zM578 651q-31 0 -51.5 20.5t-20.5 51.5t20.5 51.5t51.5 20.5t51 -20.5t20 -51.5t-20 -51.5t-51 -20.5zM997 651q-31 0 -51 20.5t-20 51.5t20 51.5t51 20.5t51.5 -20.5
t20.5 -51.5t-20.5 -51.5t-51.5 -20.5zM702 522l74 207q1 7 8.5 10t14.5 0q6 -2 9.5 -8.5t0.5 -13.5l-57 -160h69q8 0 13.5 -5.5t5.5 -12.5q0 -6 -6 -11.5t-13 -5.5h-119zM385 350q-61 0 -101 40t-40 102t40 101.5t101 39.5t101 -39.5t40 -101.5t-40 -102t-101 -40zM1190 350
q-61 0 -101 40t-40 102t39.5 101.5t101.5 39.5t101.5 -39.5t39.5 -101.5t-40 -102t-101 -40zM788 395q-95 0 -126 -61q-6 -12 -19 -12q-16 0 -16 18q0 35 49.5 63.5t111.5 28.5t112 -28.5t50 -63.5q0 -18 -16 -18q-13 0 -19 12q-31 61 -127 61z" />
    <glyph glyph-name=".null" horiz-adv-x="0" 
 />
    <glyph glyph-name="nonmarkingreturn" horiz-adv-x="682" 
 />
    <glyph glyph-name="NULL" horiz-adv-x="0" 
 />
    <glyph glyph-name="NULL" horiz-adv-x="0" 
 />
    <glyph glyph-name="CR" unicode="&#xd;" horiz-adv-x="0" 
 />
    <glyph glyph-name="space" unicode=" " horiz-adv-x="614" 
 />
    <glyph glyph-name="exclam" unicode="!" horiz-adv-x="618" 
d="M240 434l-56 1000h250l-55 -1000h-139zM193 0v254h233v-254h-233z" />
    <glyph glyph-name="quotedbl" unicode="&#x22;" horiz-adv-x="622" 
d="M279 1464l-48 -518h-81l-48 518h177zM520 1464l-47 -518h-82l-47 518h176z" />
    <glyph glyph-name="numbersign" unicode="#" horiz-adv-x="1292" 
d="M1190 934h-250l-70 -379h246v-96h-262l-84 -459h-106l84 459h-295l-84 -459h-107l84 459h-244v96h260l70 379h-256v96h273l73 404h107l-74 -404h295l74 404h106l-74 -404h234v-96zM764 555l70 379h-295l-70 -379h295z" />
    <glyph glyph-name="dollar" unicode="$" horiz-adv-x="1036" 
d="M528 -168v74q0 55 9 76l-2 2q-29 -16 -70 -13q-122 10 -215 40t-191 89l93 181q174 -97 317 -111q49 -5 66 -20l2 2q-9 18 -9 84v376l-176 129q-207 149 -207 338q0 132 84.5 220.5t229.5 107.5q56 7 73 -8l5 2q-9 37 -9 67v82h62v-82q0 -28 -6 -65l4 -4q16 16 61 10
q102 -8 281 -82l-84 -182q-100 42 -195 61q-49 11 -63 23l-4 -4q6 -27 6 -76v-318l137 -98q141 -101 197.5 -187t56.5 -200q0 -154 -89 -251.5t-247 -117.5q-33 -4 -63 11l-2 -2q10 -30 10 -76v-78h-62zM532 860l3 2q-7 61 -7 88v201q0 48 9 78l-5 2q-4 -5 -12.5 -8.5
t-15 -5.5t-17.5 -4t-14 -3q-58 -13 -88.5 -45t-30.5 -78q0 -51 27.5 -88t112.5 -98q30 -22 38 -41zM582 154q18 16 57 26q133 39 133 148q0 105 -121 194q-44 33 -67 62h-2q8 -24 8 -82v-264q0 -53 -10 -82z" />
    <glyph glyph-name="percent" unicode="%" horiz-adv-x="1564" 
d="M434 756q-145 0 -238.5 91.5t-93.5 237.5q0 145 93 236.5t239 91.5t240 -91.5t94 -236.5t-94 -237t-240 -92zM309 0l809 1382h107l-809 -1382h-107zM436 856q101 0 164.5 64t63.5 165t-63.5 164.5t-164.5 63.5t-165 -63.5t-64 -164.5t64 -165t165 -64zM1128 -10
q-146 0 -238.5 91t-92.5 236q0 146 93 238t238 92q146 0 240 -92.5t94 -237.5t-94 -236t-240 -91zM1130 90q101 0 164.5 63t63.5 164t-63.5 165.5t-164.5 64.5t-165 -64.5t-64 -165.5t64 -164t165 -63z" />
    <glyph glyph-name="ampersand" unicode="&#x26;" horiz-adv-x="1363" 
d="M872 1382l105 -176l-4 -6h-420q-47 0 -64 14l-6 -4l545 -776h4q-6 26 19 68q58 95 112 219l180 -74q-31 -79 -75 -167t-78 -138q-32 -43 -57 -43l-3 -6l207 -289l-2 -4h-252l-90 133h-8q-19 -58 -136.5 -111t-262.5 -53q-220 0 -357 129t-137 332q0 326 297 453
q44 16 64 8l4 4l-346 481l4 6h757zM555 752h-6q-3 -23 -43 -39q-201 -84 -201 -275q0 -120 77 -196t208 -76q47 0 92.5 12.5t74 26.5t74.5 41q36 21 58 16l4 8z" />
    <glyph glyph-name="quotesingle" unicode="'" horiz-adv-x="401" 
d="M299 1464l-47 -518h-102l-48 518h197z" />
    <glyph glyph-name="parenleft" unicode="(" horiz-adv-x="647" 
d="M461 1559l145 -107q-69 -89 -121.5 -177t-101 -199t-74.5 -242t-26 -273q0 -139 27 -272t74.5 -244.5t101 -201.5t118.5 -169l-145 -114q-44 50 -87.5 112t-96 160t-91.5 203.5t-65.5 244.5t-26.5 281q0 535 369 998z" />
    <glyph glyph-name="parenright" unicode=")" horiz-adv-x="647" 
d="M227 1559q369 -463 369 -998q0 -142 -26.5 -281t-65.5 -244.5t-91.5 -203.5t-96 -160t-87.5 -112l-145 114q65 80 119 169.5t101.5 201t74.5 244.5t27 272q0 142 -26 273t-74.5 242.5t-101.5 199t-122 176.5z" />
    <glyph glyph-name="asterisk" unicode="*" horiz-adv-x="843" 
d="M279 778l-129 94l186 211l-275 62l50 151l258 -112l-27 280h160l-27 -280l258 112l49 -151l-274 -62l186 -211l-129 -94l-143 244z" />
    <glyph glyph-name="plus" unicode="+" 
d="M666 1108v-451h448v-94h-448v-450h-103v450h-448v94h448v451h103z" />
    <glyph glyph-name="comma" unicode="," horiz-adv-x="495" 
d="M82 -342l70 553h231l-190 -553h-111z" />
    <glyph glyph-name="hyphen" unicode="-" horiz-adv-x="813" 
d="M721 645v-192h-629v192h629z" />
    <glyph glyph-name="period" unicode="." horiz-adv-x="458" 
d="M113 0v254h233v-254h-233z" />
    <glyph glyph-name="slash" unicode="/" horiz-adv-x="1163" 
d="M195 -197l-134 72l906 1679l135 -73z" />
    <glyph glyph-name="zero" unicode="0" horiz-adv-x="1187" 
d="M594 1413q239 0 370.5 -188.5t131.5 -532.5t-132 -533.5t-370 -189.5t-370 189.5t-132 533.5t131.5 532.5t370.5 188.5zM594 1229q-138 0 -215.5 -142t-77.5 -395t77.5 -395.5t215.5 -142.5t215.5 142.5t77.5 395.5t-77.5 395t-215.5 142z" />
    <glyph glyph-name="one" unicode="1" horiz-adv-x="706" 
d="M512 1382v-1382h-201v870q0 105 17 179l-6 4q-21 -36 -76 -64l-174 -94v201l254 178l34 108h152z" />
    <glyph glyph-name="two" unicode="2" horiz-adv-x="1005" 
d="M520 1413q183 0 289 -97t106 -263q0 -97 -40.5 -195t-129.5 -213l-239 -315q-73 -98 -139 -148l4 -6q59 21 168 21h413l2 -4l-110 -193h-830l-4 8l568 740q69 90 99 156t30 130q0 90 -52.5 141.5t-144.5 51.5q-135 0 -320 -133l-100 159q216 160 430 160z" />
    <glyph glyph-name="three" unicode="3" horiz-adv-x="987" 
d="M459 1413q177 0 277 -84t100 -235q0 -109 -54.5 -186.5t-152.5 -108.5q-45 -13 -103 -19v-8q65 0 101 -10q288 -71 288 -363q0 -200 -134 -315t-367 -115q-215 0 -394 101l68 186q172 -100 330 -100q138 0 212.5 66.5t74.5 189.5q0 133 -97.5 193.5t-312.5 60.5v180
q161 0 247.5 55t86.5 156q0 81 -53 127.5t-146 46.5q-129 0 -303 -103l-80 168q90 55 199.5 86t212.5 31z" />
    <glyph glyph-name="four" unicode="4" horiz-adv-x="1136" 
d="M879 1382v-880q0 -34 -5 -47l5 -4q12 6 39 6h198l-61 -191h-137q-27 0 -39 6l-5 -4q5 -10 5 -47v-221h-195v221q0 39 2 47l-2 4q-12 -6 -39 -6h-614v170l669 946h179zM686 1112q-28 -86 -100 -188l-267 -377q-24 -33 -32.5 -45t-23.5 -29t-30 -29l5 -4q44 17 122 17h285
q25 0 37 -6l4 4q-4 10 -4 47v461q0 89 12 147z" />
    <glyph glyph-name="five" unicode="5" horiz-adv-x="978" 
d="M969 1382l-78 -202h-344q-41 0 -53 2l-2 -2q0 -23 -17 -93l-31 -104q-12 -40 -41 -82l3 -4q40 4 61 4q218 0 345.5 -120t127.5 -326q0 -223 -147 -354.5t-396 -131.5q-216 0 -387 99l70 184q177 -98 332 -98q149 0 234 77.5t85 214.5q0 135 -87 204t-257 69
q-119 0 -211 -25l-6 6l201 682h598z" />
    <glyph glyph-name="six" unicode="6" horiz-adv-x="1069" 
d="M817 1391l-352 -410q-109 -127 -156 -252l8 -2q98 174 289 174q186 0 304 -129t118 -330q0 -209 -136.5 -341t-354.5 -132q-217 0 -351.5 139t-134.5 363q0 151 65 299t208 326l237 295h256zM539 711q-129 0 -204 -77t-75 -212q0 -124 75.5 -198t203.5 -74
q130 0 205 78.5t75 213.5q0 126 -74 197.5t-206 71.5z" />
    <glyph glyph-name="seven" unicode="7" horiz-adv-x="890" 
d="M889 1382l2 -4l-574 -1378h-223l428 983q15 35 30 71.5t23 55l16 37t13.5 28.5t11.5 17l-4 4q-43 -14 -184 -14h-418l84 200h795z" />
    <glyph glyph-name="eight" unicode="8" horiz-adv-x="1085" 
d="M543 -31q-221 0 -346 107.5t-125 296.5q0 146 75.5 242.5t208.5 121.5v8q-110 23 -177.5 110t-67.5 206q0 160 118.5 256t313.5 96t313.5 -96t118.5 -256q0 -118 -68 -205.5t-178 -110.5v-8q134 -25 209.5 -121.5t75.5 -242.5q0 -189 -125 -296.5t-346 -107.5zM543 836
q102 0 162.5 54t60.5 146q0 90 -60.5 143.5t-162.5 53.5t-163 -53.5t-61 -143.5q0 -92 61 -146t163 -54zM543 150q122 0 191 64.5t69 178.5q0 115 -70 181.5t-190 66.5t-190 -66.5t-70 -181.5q0 -114 69 -178.5t191 -64.5z" />
    <glyph glyph-name="nine" unicode="9" horiz-adv-x="1040" 
d="M516 1413q218 0 350.5 -141t132.5 -373q0 -152 -54 -281t-179 -274l-281 -344h-239l383 465q99 122 135 190l-8 4q-112 -172 -301 -172q-180 0 -302 131.5t-122 325.5q0 207 135 338t350 131zM512 1229q-125 0 -198.5 -76t-73.5 -205q0 -126 72.5 -198t199.5 -72
q131 0 205 71.5t74 198.5q0 132 -74 206.5t-205 74.5z" />
    <glyph glyph-name="colon" unicode=":" horiz-adv-x="458" 
d="M113 692v254h233v-254h-233zM113 0v254h233v-254h-233z" />
    <glyph glyph-name="semicolon" unicode=";" horiz-adv-x="495" 
d="M143 692v254h234v-254h-234zM82 -342l70 553h231l-190 -553h-111z" />
    <glyph glyph-name="less" unicode="&#x3c;" 
d="M1075 1071v-110l-803 -349l803 -346v-110l-921 405v105z" />
    <glyph glyph-name="equal" unicode="=" 
d="M1133 856v-98h-1037v98h1037zM1133 469v-98h-1037v98h1037z" />
    <glyph glyph-name="greater" unicode="&#x3e;" 
d="M154 1071l921 -405v-105l-921 -405v110l802 346l-802 349v110z" />
    <glyph glyph-name="question" unicode="?" horiz-adv-x="755" 
d="M375 1464q151 0 235 -73.5t84 -192.5q0 -71 -29.5 -138t-76.5 -114l-103 -102q-71 -71 -71 -127q0 -42 32.5 -77.5t100.5 -76.5l-109 -164q-235 131 -235 318q0 71 31 126t88 109l100 99q65 65 65 123q0 45 -33.5 71.5t-91.5 26.5q-110 0 -258 -94l-84 170
q184 116 355 116zM258 0v254h234v-254h-234z" />
    <glyph glyph-name="at" unicode="@" horiz-adv-x="1927" 
d="M1004 -307q-194 0 -361.5 63.5t-286.5 174.5t-186.5 268.5t-67.5 339.5q0 401 241 637.5t648 236.5q244 0 434 -99t295 -279t105 -412q0 -244 -95.5 -379t-267.5 -135q-97 0 -158.5 43t-80.5 124h-6q-37 -81 -117.5 -126.5t-186.5 -45.5q-146 0 -237.5 86t-91.5 224
q0 137 92 220t244 83q194 0 282 -156l4 4q-9 31 -14 109q-12 160 -211 160q-95 0 -268 -43l-41 161q181 45 321 45q373 0 373 -329v-277q0 -63 30 -96t87 -33q86 0 132 90t46 258q0 292 -184.5 472t-485.5 180q-337 0 -531 -193t-194 -526q0 -152 55 -282t152 -221.5
t234.5 -143.5t298.5 -52q191 0 403 82l57 -141q-250 -92 -462 -92zM975 250q93 0 149 44t56 116t-55.5 115.5t-149.5 43.5t-149.5 -43.5t-55.5 -115.5t56 -116t149 -44z" />
    <glyph glyph-name="A" unicode="A" horiz-adv-x="1425" 
d="M20 0l682 1464h21l682 -1464h-240l-168 377h-569l-168 -377h-240zM487 555q36 4 115 4h221q79 0 115 -4l2 2q-34 43 -66 117l-106 252q-45 108 -51 164h-8q-6 -53 -52 -164l-106 -252q-32 -74 -66 -117z" />
    <glyph glyph-name="B" unicode="B" horiz-adv-x="1265" 
d="M154 0v1434h530q184 0 293.5 -98.5t109.5 -262.5q0 -102 -46.5 -175t-133.5 -107q-51 -21 -102 -23v-8q62 0 104 -12q124 -29 194.5 -122.5t70.5 -228.5q0 -180 -120.5 -288.5t-318.5 -108.5h-581zM365 829q21 9 51 9h213q114 0 176.5 53.5t62.5 150.5q0 92 -58 141.5
t-165 49.5h-229q-32 0 -51 8l-5 -4q7 -18 7 -53v-299q0 -33 -7 -51zM365 193q19 8 51 8h280q254 0 254 213q0 112 -71 169.5t-209 57.5h-254q-32 0 -51 8l-5 -4q7 -17 7 -51v-344q0 -35 -7 -53z" />
    <glyph glyph-name="C" unicode="C" horiz-adv-x="1396" 
d="M840 -31q-226 0 -401 94t-271 264t-96 390q0 165 56 304t156 236.5t243.5 152t312.5 54.5q288 0 506 -157l-132 -187q-175 127 -383 127q-233 0 -379.5 -147.5t-146.5 -382.5t146.5 -383t379.5 -148q208 0 383 127l132 -186q-219 -158 -506 -158z" />
    <glyph glyph-name="D" unicode="D" horiz-adv-x="1411" 
d="M602 1434q335 0 536 -196t201 -521t-201 -521t-536 -196h-448v1434h448zM365 1241l-5 -4q7 -18 7 -51v-938q0 -33 -7 -51l5 -4q19 8 51 8h188q236 0 369 136.5t133 379.5t-133.5 379.5t-368.5 136.5h-188q-32 0 -51 8z" />
    <glyph glyph-name="E" unicode="E" horiz-adv-x="1056" 
d="M967 1434v-201h-551q-32 0 -51 8l-5 -4q7 -18 7 -53v-256q0 -34 -7 -51l5 -5q21 9 51 9h483v-201h-483q-32 0 -51 8l-5 -4q7 -18 7 -53v-381q0 -35 -7 -53l5 -4q19 8 51 8h559v-201h-821v1434h813z" />
    <glyph glyph-name="F" unicode="F" horiz-adv-x="1015" 
d="M975 1434v-201h-559q-32 0 -51 8l-5 -4q7 -18 7 -53v-281q0 -33 -7 -51l5 -4q19 8 51 8h512v-201h-512q-30 0 -51 9l-5 -5q7 -17 7 -51v-608h-213v1434h821z" />
    <glyph glyph-name="G" unicode="G" horiz-adv-x="1601" 
d="M831 1464q321 0 549 -192l-143 -178q-75 68 -181 110.5t-233 42.5q-154 0 -273 -70t-182 -190.5t-63 -271.5q0 -232 147 -380.5t384 -148.5q117 0 212 39t152 101.5t88 134t33 143.5l-4 4q-29 -18 -137 -18h-342v201h712v-78q0 -114 -27.5 -221.5t-86.5 -202.5
t-142.5 -166t-203 -112.5t-261.5 -41.5q-161 0 -300.5 53t-240.5 148.5t-158.5 235.5t-57.5 307q0 163 55.5 302.5t154 238t240.5 154.5t309 56z" />
    <glyph glyph-name="H" unicode="H" horiz-adv-x="1458" 
d="M1305 1434v-1434h-213v608q0 36 6 51l-4 5q-21 -9 -52 -9h-626q-30 0 -51 9l-5 -5q7 -17 7 -51v-608h-213v1434h213v-527q0 -33 -7 -51l5 -4q19 8 51 8h626q33 0 52 -8l4 4q-6 15 -6 51v527h213z" />
    <glyph glyph-name="I" unicode="I" horiz-adv-x="520" 
d="M367 1434v-1434h-213v1434h213z" />
    <glyph glyph-name="J" unicode="J" horiz-adv-x="616" 
d="M463 1434v-1080q0 -188 -77 -276t-239 -88q-41 0 -96 6v201q31 -2 76 -2q63 0 93 32.5t30 118.5v1088h213z" />
    <glyph glyph-name="K" unicode="K" horiz-adv-x="1261" 
d="M1186 1434l-490 -566q-42 -46 -63 -65.5t-45 -34.5v-8q28 -18 43 -32.5t53 -59.5l567 -668h-286l-609 731l-6 -2q17 -104 17 -240v-489h-213v1434h213v-404q0 -137 -17 -237l6 -5l543 646h287z" />
    <glyph glyph-name="L" unicode="L" horiz-adv-x="1001" 
d="M367 1434v-1182q0 -34 -7 -51l5 -4q19 8 51 8h565v-205h-827v1434h213z" />
    <glyph glyph-name="M" unicode="M" horiz-adv-x="1802" 
d="M891 -14l-332 753q-57 130 -67 230h-9q0 -133 -30 -232l-211 -737h-222l426 1454h31l385 -901q26 -63 35 -166h8q9 103 35 166l385 901h31l426 -1454h-221l-211 737q-31 103 -31 232h-8q-10 -97 -68 -230l-332 -753h-20z" />
    <glyph glyph-name="N" unicode="N" horiz-adv-x="1511" 
d="M172 1454l872 -872q82 -82 113 -160l8 2q-20 78 -20 258v752h213v-1454h-19l-872 872q-82 82 -113 160l-8 -2q21 -82 21 -256v-754h-213v1454h18z" />
    <glyph glyph-name="O" unicode="O" horiz-adv-x="1638" 
d="M819 1464q214 0 385 -95.5t267 -266.5t96 -385t-96 -385t-267 -267t-385 -96t-385 96t-266.5 267t-95.5 385q0 160 56 299t154.5 237.5t237.5 154.5t299 56zM819 1247q-226 0 -370 -149t-144 -381t144.5 -381.5t369.5 -149.5t369.5 149.5t144.5 381.5t-144 381t-370 149z
" />
    <glyph glyph-name="P" unicode="P" horiz-adv-x="1118" 
d="M614 1434q210 0 331.5 -108.5t121.5 -299.5q0 -189 -117.5 -297t-316.5 -108h-217q-32 0 -51 8l-5 -4q7 -17 7 -52v-573h-213v1434h460zM365 1241l-5 -4q7 -18 7 -53v-314q0 -36 -7 -53l5 -4q19 8 51 8h200q107 0 164.5 55t57.5 150q0 96 -57.5 151.5t-164.5 55.5h-200
q-32 0 -51 8z" />
    <glyph glyph-name="Q" unicode="Q" horiz-adv-x="1630" 
d="M823 -10q-208 0 -379.5 94t-271.5 263.5t-100 379.5q0 159 55.5 296t153 234t236.5 152t300 55q164 0 303 -54.5t235 -150.5t150 -230.5t54 -291.5q0 -296 -248 -489q-103 -73 -238 -111l2 -8q80 19 118 27t93 15t105 7h159v-188h-727zM823 215q216 0 359 146t143 372
q0 231 -136 372.5t-372 141.5q-233 0 -372.5 -144t-139.5 -376q0 -223 147 -367.5t371 -144.5z" />
    <glyph glyph-name="R" unicode="R" horiz-adv-x="1226" 
d="M623 1434q202 0 321 -107t119 -293q0 -84 -33 -156.5t-85 -120t-114.5 -74t-123.5 -26.5q-30 0 -72 11v-9q40 -13 74 -40t73 -76l435 -543h-277l-506 641h-20q-33 0 -49 8l-5 -4q7 -21 7 -55v-590h-213v1434h469zM365 1241l-5 -4q7 -18 7 -53v-291q0 -33 -7 -51l5 -4
q19 8 51 8h209q100 0 154.5 49.5t54.5 140.5q0 89 -53.5 143t-155.5 54h-209q-32 0 -51 8z" />
    <glyph glyph-name="S" unicode="S" horiz-adv-x="1013" 
d="M532 1464q191 0 379 -96l-96 -203q-147 84 -289 84q-164 0 -164 -123q0 -48 26 -87t85 -85l256 -196q115 -88 169 -178t54 -209q0 -192 -124.5 -297t-333.5 -105q-129 0 -250 37t-213 96l96 201q203 -117 369 -117q111 0 169 48t58 124q0 58 -35.5 109t-114.5 113
l-243 192q-98 77 -148.5 159t-50.5 187q0 159 106.5 252.5t294.5 93.5z" />
    <glyph glyph-name="T" unicode="T" horiz-adv-x="1064" 
d="M1044 1434v-205h-356q-32 0 -51 8l-4 -4q6 -15 6 -51v-1182h-213v1182q0 36 6 51l-4 4q-19 -8 -51 -8h-357v205h1024z" />
    <glyph glyph-name="U" unicode="U" horiz-adv-x="1396" 
d="M1264 1434v-895q0 -261 -154 -414.5t-412 -153.5t-411.5 153.5t-153.5 414.5v895h221v-891q0 -167 93.5 -261t250.5 -94t250.5 94t93.5 261v891h222z" />
    <glyph glyph-name="V" unicode="V" horiz-adv-x="1310" 
d="M1311 1434l-643 -1452h-25l-643 1452h250l328 -795q22 -54 37 -105.5t21 -82t15 -86.5h8q25 154 74 274l328 795h250z" />
    <glyph glyph-name="W" unicode="W" horiz-adv-x="1949" 
d="M989 1454l287 -766q42 -113 55 -159.5t19 -108.5h8q6 61 19.5 111.5t49.5 154.5l259 748h243l-563 -1454h-25l-325 839q-31 81 -37 176h-8q-6 -95 -37 -176l-326 -839h-24l-564 1454h244l258 -748q37 -107 50.5 -156.5t19.5 -109.5h8q6 62 19 108.5t55 159.5l287 766h28z
" />
    <glyph glyph-name="X" unicode="X" horiz-adv-x="1286" 
d="M1204 1434l-346 -549q-51 -79 -86 -119v-4q30 -39 102 -150l392 -612h-250l-279 444q-81 132 -90 179h-8q-9 -47 -90 -179l-279 -444h-250l392 612q72 111 102 150v4q-35 40 -86 119l-346 549h250l217 -351q81 -129 90 -178h8q9 49 90 178l217 351h250z" />
    <glyph glyph-name="Y" unicode="Y" horiz-adv-x="1146" 
d="M1137 1434l-457 -861v-573h-213v573l-457 861h252l211 -441q56 -117 72 -156t26 -92h4q9 49 25 89t58 127q10 21 16 32l211 441h252z" />
    <glyph glyph-name="Z" unicode="Z" horiz-adv-x="1196" 
d="M1161 1434l4 -11l-792 -1245l4 -6q22 21 49.5 29t79.5 8h655l-108 -209h-1026l-7 10l795 1243l-4 7q-47 -35 -158 -35h-547l105 209h950z" />
    <glyph glyph-name="bracketleft" unicode="[" horiz-adv-x="722" 
d="M702 1534v-162h-237q-57 0 -80 10l-2 -2q12 -27 12 -75v-1528q0 -49 -12 -76l2 -2q22 10 80 10h237v-164h-497v1989h497z" />
    <glyph glyph-name="backslash" unicode="\" horiz-adv-x="1157" 
d="M197 1554l899 -1673l-131 -71l-904 1671z" />
    <glyph glyph-name="bracketright" unicode="]" horiz-adv-x="722" 
d="M20 1534h498v-1989h-498v164h238q57 0 80 -10l2 2q-12 27 -12 76v1528q0 48 12 75l-2 2q-23 -10 -80 -10h-238v162z" />
    <glyph glyph-name="asciicircum" unicode="^" 
d="M711 1464l295 -659h-164l-228 518l-227 -518h-164l295 659h193z" />
    <glyph glyph-name="underscore" unicode="_" horiz-adv-x="1091" 
d="M1071 -31v-159h-1051v159h1051z" />
    <glyph glyph-name="grave" unicode="`" horiz-adv-x="624" 
d="M326 1448l196 -311l-2 -4h-137l-281 311l2 4h222z" />
    <glyph glyph-name="a" unicode="a" horiz-adv-x="1026" 
d="M506 977q206 0 301.5 -93t95.5 -292v-592h-203q0 88 29 150l-8 4q-108 -185 -318 -185q-153 0 -247.5 91.5t-94.5 240.5q0 154 94.5 244t250.5 90q104 0 184.5 -41t128.5 -117l6 4q-11 37 -16 131q-12 179 -220 179q-110 0 -272 -52l-55 181q174 57 344 57zM479 469
q-92 0 -148.5 -47.5t-56.5 -122.5q0 -76 56 -121t147 -45q94 0 154.5 46.5t60.5 121.5q0 74 -60 121t-153 47z" />
    <glyph glyph-name="b" unicode="b" horiz-adv-x="1191" 
d="M672 -31q-120 0 -209 55.5t-139 159.5l-9 -2q13 -57 13 -182h-195v1464h201v-495q0 -134 -19 -205l9 -2q50 104 139 159.5t209 55.5q201 0 329.5 -141.5t128.5 -362.5t-128.5 -362.5t-329.5 -141.5zM633 158q134 0 209.5 83.5t75.5 231.5t-75.5 231.5t-209.5 83.5
q-135 0 -221 -88t-86 -227t86 -227t221 -88z" />
    <glyph glyph-name="c" unicode="c" horiz-adv-x="956" 
d="M582 -31q-231 0 -376 140t-145 364t145 364t376 140q180 0 323 -96l-94 -170q-109 71 -236 71q-133 0 -217 -86t-84 -223t84 -223t217 -86q126 0 236 72l94 -170q-144 -97 -323 -97z" />
    <glyph glyph-name="d" unicode="d" horiz-adv-x="1191" 
d="M520 -31q-201 0 -330 141.5t-129 362.5t129 362.5t330 141.5q120 0 209 -55.5t139 -159.5l9 2q-19 71 -19 205v495h201v-1464h-195q0 125 13 182l-9 2q-50 -104 -139 -159.5t-209 -55.5zM559 158q135 0 221 88t86 227t-86 227t-221 88q-134 0 -209.5 -83.5t-75.5 -231.5
t75.5 -231.5t209.5 -83.5z" />
    <glyph glyph-name="e" unicode="e" horiz-adv-x="1056" 
d="M543 977q211 0 331.5 -134.5t120.5 -369.5v-39h-608q-92 0 -125 17l-4 -5l8 -24q15 -126 91 -194t202 -68q84 0 150.5 32t136.5 107l123 -133q-164 -197 -414 -197q-222 0 -358 137t-136 361q0 230 132 370t350 140zM537 795q-110 0 -182 -60t-87 -166l4 -4q40 21 117 21
h240q124 0 151 -19l4 4q-9 106 -74 165t-173 59z" />
    <glyph glyph-name="f" unicode="f" horiz-adv-x="659" 
d="M608 1452v-188h-14q-87 0 -131.5 -45t-44.5 -148v-70q-5 -57 -8 -67l6 -4q19 16 84 16h106v-192h-106q-65 0 -84 16l-6 -4q8 -35 8 -111v-655h-201v655q0 76 8 111l-4 4q-21 -16 -86 -16h-84v192h84q65 0 86 -16l4 4q-2 7 -8 63v54q0 89 22 160t57.5 115t84 73.5t97.5 41
t102 11.5h28z" />
    <glyph glyph-name="g" unicode="g" horiz-adv-x="1179" 
d="M518 977q120 0 209 -55.5t139 -159.5l8 2q-18 50 -18 182h201v-903q0 -483 -516 -483q-244 0 -418 112l98 181q157 -101 322 -101q140 0 229.5 71t89.5 181v41q0 88 12 137l-8 2q-51 -103 -140.5 -158t-207.5 -55q-201 0 -329 140.5t-128 361.5t128 362.5t329 141.5z
M557 788q-132 0 -207.5 -83.5t-75.5 -231.5t75.5 -231.5t207.5 -83.5q137 0 223 88t86 227t-86 227t-223 88z" />
    <glyph glyph-name="h" unicode="h" horiz-adv-x="1126" 
d="M334 1464v-512q0 -99 -21 -204l9 -3q105 232 348 232q158 0 246 -93.5t88 -260.5v-623h-201v565q0 107 -52.5 164t-152.5 57q-126 0 -195 -86.5t-69 -244.5v-455h-201v1464h201z" />
    <glyph glyph-name="i" unicode="i" horiz-adv-x="466" 
d="M346 1434v-271h-225v271h225zM334 946v-946h-201v946h201z" />
    <glyph glyph-name="j" unicode="j" horiz-adv-x="466" 
d="M346 1434v-271h-225v271h225zM334 946v-987q0 -202 -97.5 -300.5t-275.5 -98.5h-14v196h14q172 0 172 203v987h201z" />
    <glyph glyph-name="k" unicode="k" horiz-adv-x="1003" 
d="M334 1464v-747q0 -120 -17 -187l7 -2l364 418h262l-334 -352q-55 -60 -92 -78v-8q31 -16 86 -68l394 -440h-267l-413 481l-7 -4q17 -64 17 -182v-295h-201v1464h201z" />
    <glyph glyph-name="l" unicode="l" horiz-adv-x="466" 
d="M334 1464v-1464h-201v1464h201z" />
    <glyph glyph-name="m" unicode="m" horiz-adv-x="1658" 
d="M133 0v946h201q0 -103 -23 -203l8 -4q41 123 116 180.5t194 57.5q229 0 282 -227h9q29 107 110.5 167t198.5 60q148 0 227.5 -93.5t79.5 -265.5v-618h-201v553q0 120 -46 176.5t-144 56.5q-213 0 -213 -311v-475h-195v553q0 120 -46 176.5t-144 56.5q-213 0 -213 -311
v-475h-201z" />
    <glyph glyph-name="n" unicode="n" horiz-adv-x="1126" 
d="M666 977q161 0 249.5 -92.5t88.5 -261.5v-623h-201v565q0 107 -52.5 164t-152.5 57q-126 0 -195 -86.5t-69 -244.5v-455h-201v946h201q0 -125 -21 -217l9 -2q99 250 344 250z" />
    <glyph glyph-name="o" unicode="o" horiz-adv-x="1159" 
d="M580 977q224 0 371 -143.5t147 -360.5t-147 -360.5t-371 -143.5t-371.5 143.5t-147.5 360.5t147.5 360.5t371.5 143.5zM580 780q-137 0 -221.5 -84.5t-84.5 -222.5t84.5 -222.5t221.5 -84.5t221 84.5t84 222.5t-84 222.5t-221 84.5z" />
    <glyph glyph-name="p" unicode="p" horiz-adv-x="1191" 
d="M672 977q201 0 329.5 -141.5t128.5 -362.5t-128.5 -362.5t-329.5 -141.5q-118 0 -207.5 55.5t-140.5 159.5l-9 -2q19 -71 19 -198v-394h-201v1356h195q0 -125 -13 -182l9 -2q53 105 141.5 160t206.5 55zM633 788q-135 0 -221 -88t-86 -227t86 -227t221 -88
q134 0 209.5 83.5t75.5 231.5t-75.5 231.5t-209.5 83.5z" />
    <glyph glyph-name="q" unicode="q" horiz-adv-x="1191" 
d="M520 977q118 0 206.5 -55t141.5 -160l9 2q-13 57 -13 182h195v-1356h-201v394q0 127 19 198l-9 2q-51 -104 -140.5 -159.5t-207.5 -55.5q-201 0 -330 141.5t-129 362.5t129 362.5t330 141.5zM559 788q-134 0 -209.5 -83.5t-75.5 -231.5t75.5 -231.5t209.5 -83.5
q135 0 221 88t86 227t-86 227t-221 88z" />
    <glyph glyph-name="r" unicode="r" horiz-adv-x="716" 
d="M651 975q21 0 35 -2v-232q-37 4 -65 4q-141 0 -214 -84t-73 -245v-416h-201v946h201q0 -111 -25 -250l10 -2q74 281 332 281z" />
    <glyph glyph-name="s" unicode="s" horiz-adv-x="845" 
d="M428 -31q-212 0 -387 101l90 178q156 -90 301 -90q148 0 148 90q0 32 -22.5 56t-76.5 50l-172 84q-200 96 -200 275q0 125 87.5 194.5t245.5 69.5t330 -74l-82 -174q-148 62 -252 62q-60 0 -88 -18t-28 -56q0 -34 24 -59.5t82 -53.5l176 -84q100 -47 145.5 -110
t45.5 -154q0 -135 -97 -211t-270 -76z" />
    <glyph glyph-name="t" unicode="t" horiz-adv-x="643" 
d="M416 1452v-410q0 -71 -8 -108l6 -4q21 16 84 16h94v-192h-94q-63 0 -84 16l-6 -4q8 -35 8 -111v-655h-201v655q0 76 8 111l-6 4q-19 -16 -84 -16h-82v192h82q65 0 84 -16l6 4q-8 37 -8 108v273l188 137h13z" />
    <glyph glyph-name="u" unicode="u" horiz-adv-x="1073" 
d="M950 946v-946h-198q0 107 22 197l-8 2q-50 -118 -129 -174t-197 -56q-154 0 -240.5 102t-86.5 283v592h204v-555q0 -112 53 -171.5t152 -59.5q109 0 168.5 85.5t59.5 243.5v457h200z" />
    <glyph glyph-name="v" unicode="v" horiz-adv-x="1003" 
d="M983 946l-451 -956h-61l-451 956h234l170 -414q45 -109 56 -143.5t20 -89.5h4q9 55 20 89.5t56 143.5l170 414h233z" />
    <glyph glyph-name="w" unicode="w" horiz-adv-x="1445" 
d="M410 -10l-390 956h226l153 -428q37 -104 41 -168h9q4 29 12 55.5t15.5 45.5t29.5 71l190 439h54l190 -439q22 -52 29.5 -71t15.5 -45.5t12 -55.5h9q4 64 41 168l153 428h225l-389 -956h-53l-213 477q-38 83 -43 139h-8q-5 -56 -43 -139l-213 -477h-53z" />
    <glyph glyph-name="x" unicode="x" horiz-adv-x="1028" 
d="M20 0l310 430q41 53 57 59v7q-20 10 -53 57l-273 393h238l129 -190q44 -65 61 -99t21 -69h8q4 35 21 69t61 99l129 190h238l-273 -393q-33 -47 -53 -57v-7q16 -6 57 -59l310 -430h-238l-172 240q-41 56 -57.5 87.5t-22.5 67.5h-8q-6 -36 -22.5 -67.5t-57.5 -87.5
l-172 -240h-238z" />
    <glyph glyph-name="y" unicode="y" horiz-adv-x="1015" 
d="M995 946l-571 -1358h-209l201 473l-396 885h230l215 -522q41 -99 43 -184h8q3 74 35 151l225 555h219z" />
    <glyph glyph-name="z" unicode="z" horiz-adv-x="929" 
d="M16 0l-6 10l580 776l-4 7q-43 -24 -79.5 -30.5t-111.5 -6.5h-327l118 190h729l5 -8l-570 -778l4 -6q35 23 78.5 29.5t142.5 6.5h343l-117 -190h-785z" />
    <glyph glyph-name="braceleft" unicode="{" horiz-adv-x="800" 
d="M227 559q152 -14 223.5 -92.5t71.5 -233.5v-313q0 -110 49.5 -155.5t169.5 -45.5h39v-174h-73q-185 0 -279 91.5t-94 271.5v348q0 101 -61 148t-201 53v213q140 6 201 52.5t61 147.5v301q0 363 373 363h73v-172h-39q-120 0 -169.5 -46t-49.5 -157v-266
q0 -155 -71.5 -233.5t-223.5 -92.5v-8z" />
    <glyph glyph-name="bar" unicode="|" horiz-adv-x="622" 
d="M225 -440v1929h172v-1929h-172z" />
    <glyph glyph-name="braceright" unicode="}" horiz-adv-x="800" 
d="M573 559v8q-152 13 -223 92t-71 234v266q0 110 -50 156.5t-170 46.5h-39v172h74q373 0 373 -363v-301q0 -101 61 -147.5t201 -52.5v-213q-140 -6 -201 -53t-61 -148v-348q0 -180 -94 -271.5t-279 -91.5h-74v174h39q120 0 170 45.5t50 155.5v313q0 155 71 234t223 92z" />
    <glyph glyph-name="asciitilde" unicode="~" 
d="M401 752q65 0 126.5 -20t102.5 -44.5t96.5 -44.5t109.5 -20q66 0 115 26t110 78l98 -137q-162 -146 -330 -146q-54 0 -103.5 13.5t-88 32t-75.5 37.5t-80 32.5t-87 13.5q-68 0 -117 -26t-110 -78l-98 135q167 148 331 148z" />
    <glyph glyph-name="exclamdown" unicode="&#xa1;" horiz-adv-x="618" 
d="M193 979h233v-254h-233v254zM240 545h139l55 -1000h-250z" />
    <glyph glyph-name="cent" unicode="&#xa2;" horiz-adv-x="993" 
d="M571 -135v43q0 40 1.5 50.5t7.5 18.5l-5 3q-18 -11 -59 -5q-189 22 -306.5 161.5t-117.5 340.5q0 198 118 333t316 163q39 6 54 -6l2 2q-11 17 -11 69v45h62v-45q0 -50 -8 -71l2 -2q23 13 57 8q150 -19 248 -92l-94 -170q-33 21 -80.5 38.5t-83.5 22.5q-33 5 -47 19
l-2 -3q8 -19 8 -67v-492q0 -47 -12 -69l2 -2q15 10 51 16q87 15 164 62l94 -170q-42 -32 -112.5 -59.5t-127.5 -31.5q-48 -3 -65 7l-2 -2q6 -7 7 -17.5t1 -54.5v-43h-62zM578 154l2 2q-9 40 -9 73v492q0 59 11 67l-2 3q-19 -8 -56 -19q-107 -31 -165 -108t-58 -189
q0 -116 59.5 -196t163.5 -105q42 -10 54 -20z" />
    <glyph glyph-name="sterling" unicode="&#xa3;" horiz-adv-x="1103" 
d="M709 -29q-74 0 -179.5 36t-150.5 36q-63 0 -172 -53l-103 166q240 132 240 325q0 53 -17 102t-69 144h-176v61h94q46 0 66 -12l2 2q-25 22 -41 62q-31 88 -31 184q0 177 121.5 283t322.5 106q198 0 367 -108l-109 -181q-126 93 -262 93q-103 0 -166 -56t-63 -147
q0 -84 74 -226h379v-61h-283q-48 0 -78 12l-2 -2q36 -54 57 -117.5t21 -117.5q0 -78 -42.5 -143.5t-143.5 -145.5l4 -6q43 14 88 14q53 0 120 -26.5t119 -26.5q131 0 246 121l100 -170q-154 -148 -333 -148z" />
    <glyph glyph-name="currency" unicode="&#xa4;" 
d="M975 983q117 -130 117 -319q0 -190 -117 -320l117 -119l-41 -39l-117 117q-131 -115 -320 -115q-187 0 -321 115l-117 -117l-39 41l117 117q-117 130 -117 320q0 189 117 319l-117 117l41 41l117 -117q131 115 319 115q189 0 320 -115l117 117l41 -41zM614 367
q129 0 209 83t80 214t-80 214t-209 83t-209.5 -83t-80.5 -214t80.5 -214t209.5 -83z" />
    <glyph glyph-name="yen" unicode="&#xa5;" horiz-adv-x="1155" 
d="M479 0v479h-364v62h293q26 0 63 -9l2 3q-23 23 -33 40l-39 80h-286v62h207q32 0 63 -8l2 2q-23 23 -33 43l-303 628h234l243 -571q39 -89 45 -143h9q6 54 45 143l243 571h234l-303 -628q-10 -20 -33 -43l2 -2q31 8 64 8h206v-62h-286l-39 -80q-11 -17 -33 -40l2 -3
q37 9 64 9h292v-62h-364v-479h-197z" />
    <glyph glyph-name="brokenbar" unicode="&#xa6;" horiz-adv-x="622" 
d="M225 680v809h172v-809h-172zM397 373v-813h-172v813h172z" />
    <glyph glyph-name="section" unicode="&#xa7;" horiz-adv-x="1122" 
d="M831 219q99 -92 99 -227q0 -143 -100.5 -229.5t-288.5 -86.5q-218 0 -430 138l110 170q166 -117 334 -117q86 0 130 32.5t44 88.5q0 43 -27 78.5t-71 59t-100.5 49.5t-115 48.5t-115 57.5t-100.5 75t-71 102t-27 138q0 110 52.5 192t136.5 134q-98 91 -98 227
q0 143 100.5 229t288.5 86q220 0 430 -137l-111 -170q-166 117 -334 117q-86 0 -130 -32.5t-44 -88.5q0 -43 27 -78.5t71 -59t100.5 -49.5t115 -48.5t115 -57.5t100.5 -75t71 -102t27 -138q0 -110 -52.5 -192t-136.5 -134zM303 616q0 -40 17 -74t41 -57.5t66.5 -48.5
t76.5 -40.5t90 -40t88 -40.5q137 88 137 209q0 40 -17 74t-41 57.5t-66.5 48.5t-76.5 40.5t-90 40t-88 40.5q-137 -88 -137 -209z" />
    <glyph glyph-name="dieresis" unicode="&#xa8;" horiz-adv-x="749" 
d="M287 1434v-250h-185v250h185zM647 1434v-250h-184v250h184z" />
    <glyph glyph-name="copyright" unicode="&#xa9;" horiz-adv-x="1695" 
d="M848 -31q-209 0 -380 98t-268.5 269.5t-97.5 380.5q0 157 57.5 295.5t156 237.5t237.5 156.5t295 57.5t294.5 -57.5t237.5 -156.5t156 -237.5t57 -295.5t-57 -295.5t-156 -238t-237.5 -157t-294.5 -57.5zM848 82q132 0 248.5 48.5t199 133t130 202t47.5 251.5
t-47.5 251.5t-130 202t-199 133t-248.5 48.5t-248.5 -48.5t-199 -133t-130 -202t-47.5 -251.5t47.5 -251.5t130 -202t199 -133t248.5 -48.5zM856 262q-204 0 -338.5 132.5t-134.5 332.5t134.5 332.5t338.5 132.5q177 0 309 -100l-75 -140q-37 22 -62 35.5t-76 28t-102 14.5
q-132 0 -213.5 -84t-81.5 -219t81.5 -219t213.5 -84q51 0 102 14.5t76 28t62 35.5l75 -140q-132 -100 -309 -100z" />
    <glyph glyph-name="ordfeminine" unicode="&#xaa;" horiz-adv-x="817" 
d="M324 692q-109 0 -175.5 61t-66.5 162q0 100 70 160t184 60q158 0 227 -136l4 5q-10 41 -10 98q0 50 -36.5 81t-108.5 31q-70 0 -201 -28l-33 141q162 33 256 33q153 0 227 -62.5t74 -201.5v-383h-182q0 78 18 131l-6 4q-70 -156 -241 -156zM399 829q54 0 87.5 26t33.5 71
t-33.5 70.5t-87.5 25.5t-87 -25.5t-33 -70.5t33.5 -71t86.5 -26z" />
    <glyph glyph-name="guillemotleft" unicode="&#xab;" horiz-adv-x="917" 
d="M551 858v-8l-174 -234q-62 -85 -85.5 -112.5t-41.5 -40.5v-4q18 -12 41 -40t86 -114l174 -233v-9h-215l-295 398l295 397h215zM897 858v-8l-174 -234q-62 -85 -85.5 -112.5t-41.5 -40.5v-4q18 -12 41 -40t86 -114l174 -233v-9h-215l-295 398l295 397h215z" />
    <glyph glyph-name="logicalnot" unicode="&#xac;" 
d="M145 885h938v-99v-444h-102v444h-836v99z" />
    <glyph glyph-name="uni00AD" unicode="&#xad;" horiz-adv-x="813" 
d="M721 645v-192h-629v192h629z" />
    <glyph glyph-name="registered" unicode="&#xae;" horiz-adv-x="1107" 
d="M555 1464q201 0 336 -136.5t135 -340.5q0 -203 -135 -339t-336 -136q-202 0 -337.5 136t-135.5 339q0 204 135.5 340.5t337.5 136.5zM555 1370q-159 0 -266 -110t-107 -273q0 -162 107 -271.5t266 -109.5q158 0 264.5 109.5t106.5 271.5q0 163 -106.5 273t-264.5 110z
M586 1270q74 0 118 -42t44 -112q0 -66 -40.5 -107.5t-105.5 -41.5v-4q25 -7 49 -41l123 -158v-10h-112l-156 209h-29v-209h-94v516h203zM573 1182h-96v-131h96q76 0 76 63q0 32 -19.5 50t-56.5 18z" />
    <glyph glyph-name="macron" unicode="&#xaf;" horiz-adv-x="798" 
d="M696 1374v-143h-594v143h594z" />
    <glyph glyph-name="degree" unicode="&#xb0;" horiz-adv-x="722" 
d="M362 1413q121 0 200 -77.5t79 -202.5q0 -123 -79 -201t-200 -78q-122 0 -201 77.5t-79 201.5q0 125 78.5 202.5t201.5 77.5zM362 1319q-78 0 -131 -51.5t-53 -134.5q0 -82 53 -134.5t131 -52.5q79 0 132 52.5t53 134.5q0 83 -52.5 134.5t-132.5 51.5z" />
    <glyph glyph-name="plusminus" unicode="&#xb1;" 
d="M666 1069v-281h438v-98h-438v-280h-103v280h-438v98h438v281h103zM1104 319v-98h-979v98h979z" />
    <glyph glyph-name="uni00B2" unicode="&#xb2;" horiz-adv-x="833" 
d="M27 713l-7 12l414 473q94 109 94 180q0 47 -34 76t-91 29q-101 0 -229 -92l-88 145q175 111 340 111q136 0 212.5 -65.5t76.5 -182.5q0 -74 -34 -142t-110 -151l-153 -168q-49 -53 -80 -76v-4q41 16 100 16h322l2 -2l-96 -159h-639z" />
    <glyph glyph-name="uni00B3" unicode="&#xb3;" horiz-adv-x="823" 
d="M393 694q-73 0 -160 16.5t-151 45.5l63 166q131 -64 242 -64q199 0 199 129q0 67 -67 97t-240 30v160q245 0 245 112q0 45 -35.5 71t-101.5 26q-99 0 -233 -64l-68 154q167 74 330 74q142 0 219.5 -57.5t77.5 -164.5q0 -60 -31 -111.5t-96 -80.5q-38 -17 -101 -19v-8
q55 0 101 -12q176 -48 176 -219q0 -136 -96.5 -208.5t-272.5 -72.5z" />
    <glyph glyph-name="acute" unicode="&#xb4;" horiz-adv-x="624" 
d="M520 1448l2 -4l-280 -311h-138l-2 4l193 311h225z" />
    <glyph glyph-name="uni00B5" unicode="&#xb5;" horiz-adv-x="1073" 
d="M750 946h200v-946h-198q0 107 22 197l-8 2q-50 -118 -129 -174t-197 -56q-77 0 -143 29v-408h-184v981v375h204v-555q0 -112 53 -171.5t152 -59.5q109 0 168.5 85.5t59.5 243.5v457z" />
    <glyph glyph-name="paragraph" unicode="&#xb6;" horiz-adv-x="1271" 
d="M1169 1434v-150h-125v-1501h-157v1501h-230v-1501h-157v852q-170 0 -284 113.5t-114 293.5q0 174 119 283t299 109h649z" />
    <glyph glyph-name="periodcentered" unicode="&#xb7;" horiz-adv-x="438" 
d="M102 692v254h234v-254h-234z" />
    <glyph glyph-name="cedilla" unicode="&#xb8;" horiz-adv-x="518" 
d="M279 59l-48 -129q85 -24 135 -58.5t50 -90.5q0 -32 -19 -64t-44.5 -54.5t-69 -48.5t-73 -40.5t-77.5 -36.5l-31 66q98 57 121 76q29 26 29 49q0 51 -146 86l91 245h82z" />
    <glyph glyph-name="uni00B9" unicode="&#xb9;" horiz-adv-x="587" 
d="M258 713v534q0 60 12 92l-4 4q-17 -20 -49 -34l-135 -64v166l184 121l29 94h139v-913h-176z" />
    <glyph glyph-name="ordmasculine" unicode="&#xba;" horiz-adv-x="876" 
d="M438 1360q154 0 255.5 -91t101.5 -243t-101.5 -243t-255.5 -91t-255 91t-101 243t101 243t255 91zM438 1198q-74 0 -125 -46t-51 -126t51 -126t125 -46t125 46t51 126t-51 126t-125 46z" />
    <glyph glyph-name="guillemotright" unicode="&#xbb;" horiz-adv-x="915" 
d="M20 858h216l294 -397l-294 -398h-216v9l175 233q63 86 86 114t41 40v4q-18 13 -41.5 40.5t-85.5 112.5l-175 234v8zM365 858h215l294 -397l-294 -398h-215v9l174 233q63 86 86 114t41 40v4q-18 13 -41.5 40.5t-85.5 112.5l-174 234v8z" />
    <glyph glyph-name="onequarter" unicode="&#xbc;" horiz-adv-x="1339" 
d="M236 592v504q0 48 16 69l-6 4q-4 -4 -8.5 -7.5t-8 -5.5t-12 -6t-14.5 -7l-131 -68v107l168 104l20 96h78v-790h-102zM133 0l809 1382h107l-809 -1382h-107zM1030 0v104q0 24 6 39l-2 2q-12 -4 -39 -4h-401v80l424 570h117v-515q0 -26 -7 -43h2q20 5 31 5h107l-41 -97h-64
q-25 0 -33 4l-2 -2q7 -14 7 -34v-109h-105zM725 231q14 7 57 7h197q29 0 57 -7l4 2q-8 16 -8 52v274q0 80 6 105l-4 2q-4 -10 -8.5 -18t-8.5 -13.5t-13 -17t-17 -23.5l-235 -328q-14 -19 -29 -30z" />
    <glyph glyph-name="onehalf" unicode="&#xbd;" horiz-adv-x="1462" 
d="M236 592v504q0 48 16 69l-6 4q-4 -4 -8.5 -7.5t-8 -5.5t-12 -6t-14.5 -7l-131 -68v107l168 104l20 96h78v-790h-102zM174 0l809 1382h107l-809 -1382h-107zM809 0l-6 12l319 389q1 2 14 17t19 22.5t18.5 24.5t19.5 30.5t15 31.5t11.5 36t3.5 37q0 50 -34.5 78.5
t-90.5 28.5q-58 0 -106.5 -17.5t-112.5 -52.5l-45 90q73 42 135.5 62t134.5 20q105 0 167 -53t62 -146q0 -69 -32.5 -129.5t-108.5 -150.5l-150 -183q-30 -38 -73 -63l2 -6q37 16 86 16h311l2 -4l-57 -90h-504z" />
    <glyph glyph-name="threequarters" unicode="&#xbe;" horiz-adv-x="1632" 
d="M356 573q-143 0 -247 52l45 98q100 -47 200 -47q82 0 129 34.5t47 102.5q0 70 -62 105.5t-214 35.5v101q120 0 182 36t62 101q0 50 -37.5 77t-108.5 27q-85 0 -202 -57l-48 92q140 70 265 70q118 0 180.5 -50t62.5 -143q0 -82 -52.5 -135t-156.5 -59v-8q121 -3 180.5 -50
t59.5 -147q0 -116 -75 -176t-210 -60zM365 0l809 1382h106l-809 -1382h-106zM1292 0v104q0 24 6 39l-2 2q-12 -4 -39 -4h-401v80l424 570h117v-515q0 -28 -6 -43h2q20 5 30 5h107l-41 -97h-64q-24 0 -32 4l-2 -2q6 -12 6 -34v-109h-105zM987 231q14 7 57 7h197q29 0 57 -7
l5 2q-9 18 -9 52v274q0 80 6 105l-4 2q-4 -10 -8.5 -18t-8.5 -13.5t-13 -17t-17 -23.5l-235 -328q-14 -19 -29 -30z" />
    <glyph glyph-name="questiondown" unicode="&#xbf;" horiz-adv-x="694" 
d="M457 1024v-254h-234v254h234zM340 -440q-151 0 -235.5 73.5t-84.5 192.5q0 70 30 137.5t77 114.5l102 102q38 38 55 67t17 60q0 42 -32.5 77.5t-100.5 76.5l108 164q236 -132 236 -318q0 -71 -31 -126t-88 -109l-100 -99q-66 -66 -66 -123q0 -45 33.5 -71.5t91.5 -26.5
q110 0 258 94l84 -170q-184 -116 -354 -116z" />
    <glyph glyph-name="Agrave" unicode="&#xc0;" horiz-adv-x="1425" 
d="M604 1747l178 -221l-2 -4h-135l-266 219l2 6h223zM20 0l682 1464h21l682 -1464h-240l-168 377h-569l-168 -377h-240zM487 555q36 4 115 4h221q79 0 115 -4l2 2q-34 43 -66 117l-106 252q-45 108 -51 164h-8q-6 -53 -52 -164l-106 -252q-32 -74 -66 -117z" />
    <glyph glyph-name="Aacute" unicode="&#xc1;" horiz-adv-x="1425" 
d="M1044 1747l3 -6l-267 -219h-135l-2 4l178 221h223zM20 0l682 1464h21l682 -1464h-240l-168 377h-569l-168 -377h-240zM487 555q36 4 115 4h221q79 0 115 -4l2 2q-34 43 -66 117l-106 252q-45 108 -51 164h-8q-6 -53 -52 -164l-106 -252q-32 -74 -66 -117z" />
    <glyph glyph-name="Acircumflex" unicode="&#xc2;" horiz-adv-x="1425" 
d="M375 1522v8l231 237h213l232 -237v-8h-181l-55 55q-54 54 -73 79t-25 54h-8q-6 -29 -25 -53.5t-74 -79.5l-55 -55h-180zM20 0l682 1464h21l682 -1464h-240l-168 377h-569l-168 -377h-240zM487 555q36 4 115 4h221q79 0 115 -4l2 2q-34 43 -66 117l-106 252
q-45 108 -51 164h-8q-6 -53 -52 -164l-106 -252q-32 -74 -66 -117z" />
    <glyph glyph-name="Atilde" unicode="&#xc3;" horiz-adv-x="1425" 
d="M442 1520l-82 22q54 205 218 205q54 0 174 -33t168 -33q38 0 59 15.5t43 52.5l80 -23q-54 -204 -215 -204q-56 0 -176 32.5t-166 32.5q-39 0 -60 -15t-43 -52zM20 0l682 1464h21l682 -1464h-240l-168 377h-569l-168 -377h-240zM487 555q36 4 115 4h221q79 0 115 -4l2 2
q-34 43 -66 117l-106 252q-45 108 -51 164h-8q-6 -53 -52 -164l-106 -252q-32 -74 -66 -117z" />
    <glyph glyph-name="Adieresis" unicode="&#xc4;" horiz-adv-x="1425" 
d="M444 1747h185v-225h-185v225zM797 1747h184v-225h-184v225zM20 0l682 1464h21l682 -1464h-240l-168 377h-569l-168 -377h-240zM487 555q36 4 115 4h221q79 0 115 -4l2 2q-34 43 -66 117l-106 252q-45 108 -51 164h-8q-6 -53 -52 -164l-106 -252q-32 -74 -66 -117z" />
    <glyph glyph-name="Aring" unicode="&#xc5;" horiz-adv-x="1425" 
d="M764 1376l641 -1376h-240l-168 377h-569l-168 -377h-240l642 1376q-85 15 -137 79t-52 153q0 103 68 169t172 66t171.5 -66t67.5 -169q0 -89 -51.5 -153t-136.5 -79zM578 1608q0 -60 37.5 -97.5t97.5 -37.5t97.5 37.5t37.5 97.5t-37.5 97.5t-97.5 37.5t-97.5 -37.5
t-37.5 -97.5zM938 555l2 2q-34 43 -66 117l-106 252q-45 108 -51 164h-8q-6 -53 -52 -164l-106 -252q-32 -74 -66 -117l2 -2q36 4 115 4h221q79 0 115 -4z" />
    <glyph glyph-name="AE" unicode="&#xc6;" horiz-adv-x="1882" 
d="M1290 203h500v-203h-752v328q0 38 6 53l-4 4q-19 -8 -51 -8h-473l-237 -377h-259l936 1434h826v-203h-492q-32 0 -51 8l-4 -4q6 -15 6 -53v-254q0 -36 -6 -51l4 -5q21 9 51 9h443v-203h-443q-32 0 -51 8l-4 -4q6 -15 6 -53v-377q0 -38 -6 -53l4 -4q19 8 51 8zM1044 555
q-6 15 -6 51v502q0 64 13 160h-2q-31 -92 -74 -160l-291 -463q-25 -39 -40.5 -58t-41.5 -36l2 -4q35 12 101 12h284q35 0 51 -8z" />
    <glyph glyph-name="Ccedilla" unicode="&#xc7;" horiz-adv-x="1396" 
d="M1346 127q-204 -146 -465 -158l-15 -39q85 -24 135 -58.5t50 -90.5q0 -32 -19 -64t-44.5 -54.5t-69 -48.5t-73 -40.5t-77.5 -36.5l-31 66q98 57 121 76q29 26 29 49q0 51 -146 86l58 155q-326 14 -526.5 220t-200.5 528q0 165 56 304t156 236.5t243.5 152t312.5 54.5
q288 0 506 -157l-132 -187q-175 127 -383 127q-233 0 -379.5 -147.5t-146.5 -382.5t146.5 -383t379.5 -148q208 0 383 127z" />
    <glyph glyph-name="Egrave" unicode="&#xc8;" horiz-adv-x="1056" 
d="M475 1747l178 -221l-2 -4h-135l-266 219l2 6h223zM967 1434v-201h-551q-32 0 -51 8l-5 -4q7 -18 7 -53v-256q0 -34 -7 -51l5 -5q21 9 51 9h483v-201h-483q-32 0 -51 8l-5 -4q7 -18 7 -53v-381q0 -35 -7 -53l5 -4q19 8 51 8h559v-201h-821v1434h813z" />
    <glyph glyph-name="Eacute" unicode="&#xc9;" horiz-adv-x="1056" 
d="M915 1747l3 -6l-267 -219h-135l-2 4l178 221h223zM967 1434v-201h-551q-32 0 -51 8l-5 -4q7 -18 7 -53v-256q0 -34 -7 -51l5 -5q21 9 51 9h483v-201h-483q-32 0 -51 8l-5 -4q7 -18 7 -53v-381q0 -35 -7 -53l5 -4q19 8 51 8h559v-201h-821v1434h813z" />
    <glyph glyph-name="Ecircumflex" unicode="&#xca;" horiz-adv-x="1056" 
d="M246 1522v8l231 237h213l232 -237v-8h-181l-55 55q-54 54 -73 79t-25 54h-8q-6 -29 -25 -53.5t-74 -79.5l-55 -55h-180zM967 1434v-201h-551q-32 0 -51 8l-5 -4q7 -18 7 -53v-256q0 -34 -7 -51l5 -5q21 9 51 9h483v-201h-483q-32 0 -51 8l-5 -4q7 -18 7 -53v-381
q0 -35 -7 -53l5 -4q19 8 51 8h559v-201h-821v1434h813z" />
    <glyph glyph-name="Edieresis" unicode="&#xcb;" horiz-adv-x="1056" 
d="M315 1747h185v-225h-185v225zM668 1747h184v-225h-184v225zM967 1434v-201h-551q-32 0 -51 8l-5 -4q7 -18 7 -53v-256q0 -34 -7 -51l5 -5q21 9 51 9h483v-201h-483q-32 0 -51 8l-5 -4q7 -18 7 -53v-381q0 -35 -7 -53l5 -4q19 8 51 8h559v-201h-821v1434h813z" />
    <glyph glyph-name="Igrave" unicode="&#xcc;" horiz-adv-x="520" 
d="M152 1747l178 -221l-2 -4h-135l-267 219l2 6h224zM367 1434v-1434h-213v1434h213z" />
    <glyph glyph-name="Iacute" unicode="&#xcd;" horiz-adv-x="520" 
d="M592 1747l2 -6l-266 -219h-135l-3 4l179 221h223zM367 1434v-1434h-213v1434h213z" />
    <glyph glyph-name="Icircumflex" unicode="&#xce;" horiz-adv-x="520" 
d="M-78 1522v8l232 237h213l231 -237v-8h-180l-56 55q-54 54 -73 79t-25 54h-8q-6 -29 -25 -54t-73 -79l-56 -55h-180zM367 1434v-1434h-213v1434h213z" />
    <glyph glyph-name="Idieresis" unicode="&#xcf;" horiz-adv-x="520" 
d="M-8 1747h184v-225h-184v225zM344 1747h184v-225h-184v225zM367 1434v-1434h-213v1434h213z" />
    <glyph glyph-name="Eth" unicode="&#xd0;" horiz-adv-x="1452" 
d="M653 1434q155 0 286.5 -50t227 -141t149.5 -226.5t54 -299.5t-54 -299.5t-149.5 -226.5t-227 -141t-286.5 -50h-448v594q0 36 6 51l-4 4q-19 -8 -51 -8h-156v176h156q32 0 51 -8l4 4q-6 15 -6 51v570h448zM655 201q216 0 349 134t133 382q0 247 -133 381.5t-349 134.5
h-188q-32 0 -51 8l-4 -4q6 -15 6 -51v-322q0 -36 -6 -51l4 -4q19 8 51 8h311v-176h-311q-32 0 -51 8l-4 -4q6 -15 6 -51v-346q0 -36 -6 -51l4 -4q19 8 51 8h188z" />
    <glyph glyph-name="Ntilde" unicode="&#xd1;" horiz-adv-x="1511" 
d="M494 1520l-82 22q54 205 217 205q54 0 174 -33t168 -33q38 0 59 15.5t43 52.5l80 -23q-54 -204 -215 -204q-56 0 -176 32.5t-166 32.5q-39 0 -59.5 -14.5t-42.5 -52.5zM172 1454l872 -872q82 -82 113 -160l8 2q-20 78 -20 258v752h213v-1454h-19l-872 872
q-82 82 -113 160l-8 -2q21 -82 21 -256v-754h-213v1454h18z" />
    <glyph glyph-name="Ograve" unicode="&#xd2;" horiz-adv-x="1638" 
d="M711 1747l178 -221l-2 -4h-135l-267 219l2 6h224zM819 1464q214 0 385 -95.5t267 -266.5t96 -385t-96 -385t-267 -267t-385 -96t-385 96t-266.5 267t-95.5 385q0 160 56 299t154.5 237.5t237.5 154.5t299 56zM819 1247q-226 0 -370 -149t-144 -381t144.5 -381.5
t369.5 -149.5t369.5 149.5t144.5 381.5t-144 381t-370 149z" />
    <glyph glyph-name="Oacute" unicode="&#xd3;" horiz-adv-x="1638" 
d="M1151 1747l2 -6l-266 -219h-135l-2 4l178 221h223zM819 1464q214 0 385 -95.5t267 -266.5t96 -385t-96 -385t-267 -267t-385 -96t-385 96t-266.5 267t-95.5 385q0 160 56 299t154.5 237.5t237.5 154.5t299 56zM819 1247q-226 0 -370 -149t-144 -381t144.5 -381.5
t369.5 -149.5t369.5 149.5t144.5 381.5t-144 381t-370 149z" />
    <glyph glyph-name="Ocircumflex" unicode="&#xd4;" horiz-adv-x="1638" 
d="M481 1522v8l232 237h213l231 -237v-8h-180l-55 55q-55 55 -74 79.5t-25 53.5h-8q-6 -29 -25 -54t-73 -79l-55 -55h-181zM819 1464q214 0 385 -95.5t267 -266.5t96 -385t-96 -385t-267 -267t-385 -96t-385 96t-266.5 267t-95.5 385q0 160 56 299t154.5 237.5t237.5 154.5
t299 56zM819 1247q-226 0 -370 -149t-144 -381t144.5 -381.5t369.5 -149.5t369.5 149.5t144.5 381.5t-144 381t-370 149z" />
    <glyph glyph-name="Otilde" unicode="&#xd5;" horiz-adv-x="1638" 
d="M549 1520l-82 22q54 205 217 205q54 0 174 -33t168 -33q38 0 59 15.5t43 52.5l80 -23q-54 -204 -215 -204q-56 0 -176 32.5t-166 32.5q-39 0 -59.5 -14.5t-42.5 -52.5zM819 1464q214 0 385 -95.5t267 -266.5t96 -385t-96 -385t-267 -267t-385 -96t-385 96t-266.5 267
t-95.5 385q0 160 56 299t154.5 237.5t237.5 154.5t299 56zM819 1247q-226 0 -370 -149t-144 -381t144.5 -381.5t369.5 -149.5t369.5 149.5t144.5 381.5t-144 381t-370 149z" />
    <glyph glyph-name="Odieresis" unicode="&#xd6;" horiz-adv-x="1638" 
d="M551 1747h184v-225h-184v225zM903 1747h184v-225h-184v225zM819 1464q214 0 385 -95.5t267 -266.5t96 -385t-96 -385t-267 -267t-385 -96t-385 96t-266.5 267t-95.5 385q0 160 56 299t154.5 237.5t237.5 154.5t299 56zM819 1247q-226 0 -370 -149t-144 -381t144.5 -381.5
t369.5 -149.5t369.5 149.5t144.5 381.5t-144 381t-370 149z" />
    <glyph glyph-name="multiply" unicode="&#xd7;" 
d="M985 1053l72 -72l-371 -371l371 -370l-72 -72l-371 371l-370 -371l-72 72l371 370l-371 371l72 72l370 -371z" />
    <glyph glyph-name="Oslash" unicode="&#xd8;" horiz-adv-x="1638" 
d="M1286 1313q133 -101 207 -255.5t74 -340.5q0 -214 -96 -385t-267 -267t-385 -96q-228 0 -407 109l-76 -107l-60 41l76 107q-132 101 -206 256t-74 342q0 160 56 299t154.5 237.5t237.5 154.5t299 56q231 0 408 -108l76 106l59 -43zM305 717q0 -128 46.5 -234.5
t131.5 -179.5l615 868q-124 76 -279 76q-226 0 -370 -149t-144 -381zM819 186q225 0 369.5 149.5t144.5 381.5q0 128 -46 234t-130 177l-616 -866q124 -76 278 -76z" />
    <glyph glyph-name="Ugrave" unicode="&#xd9;" horiz-adv-x="1396" 
d="M590 1747l178 -221l-2 -4h-135l-266 219l2 6h223zM1264 1434v-895q0 -261 -154 -414.5t-412 -153.5t-411.5 153.5t-153.5 414.5v895h221v-891q0 -167 93.5 -261t250.5 -94t250.5 94t93.5 261v891h222z" />
    <glyph glyph-name="Uacute" unicode="&#xda;" horiz-adv-x="1396" 
d="M1030 1747l2 -6l-266 -219h-135l-2 4l178 221h223zM1264 1434v-895q0 -261 -154 -414.5t-412 -153.5t-411.5 153.5t-153.5 414.5v895h221v-891q0 -167 93.5 -261t250.5 -94t250.5 94t93.5 261v891h222z" />
    <glyph glyph-name="Ucircumflex" unicode="&#xdb;" horiz-adv-x="1396" 
d="M360 1522v8l232 237h213l231 -237v-8h-180l-55 55q-55 55 -74 79.5t-25 53.5h-8q-6 -29 -25 -54t-73 -79l-55 -55h-181zM1264 1434v-895q0 -261 -154 -414.5t-412 -153.5t-411.5 153.5t-153.5 414.5v895h221v-891q0 -167 93.5 -261t250.5 -94t250.5 94t93.5 261v891h222z
" />
    <glyph glyph-name="Udieresis" unicode="&#xdc;" horiz-adv-x="1396" 
d="M430 1747h184v-225h-184v225zM782 1747h185v-225h-185v225zM1264 1434v-895q0 -261 -154 -414.5t-412 -153.5t-411.5 153.5t-153.5 414.5v895h221v-891q0 -167 93.5 -261t250.5 -94t250.5 94t93.5 261v891h222z" />
    <glyph glyph-name="Yacute" unicode="&#xdd;" horiz-adv-x="1146" 
d="M905 1747l2 -6l-266 -219h-135l-2 4l178 221h223zM1137 1434l-457 -861v-573h-213v573l-457 861h252l211 -441q56 -117 72 -156t26 -92h4q9 49 25 89t58 127q10 21 16 32l211 441h252z" />
    <glyph glyph-name="Thorn" unicode="&#xde;" horiz-adv-x="1116" 
d="M367 1434v-244q0 -36 -5 -49l5 -4q12 6 39 6h200q213 0 336 -108t123 -298t-123 -297.5t-336 -107.5h-200q-27 0 -39 6l-5 -4q5 -12 5 -49v-285h-213v1434h213zM367 948l-5 -4q5 -12 5 -47v-319q0 -36 -5 -48l5 -4q12 6 39 6h194q113 0 174.5 54.5t61.5 150.5
t-61.5 150.5t-174.5 54.5h-194q-27 0 -39 6z" />
    <glyph glyph-name="germandbls" unicode="&#xdf;" horiz-adv-x="1144" 
d="M672 803q193 -5 302 -98.5t109 -278.5q0 -213 -140.5 -324.5t-393.5 -111.5h-96v194h77q173 0 258.5 56.5t85.5 187.5q0 149 -104.5 209.5t-310.5 60.5v185q291 0 291 204q0 91 -54 137t-143 46q-100 0 -159.5 -56t-59.5 -170v-1310h-201v1296q0 194 108.5 314t313.5 120
q193 0 297 -95.5t104 -252.5q0 -119 -70.5 -203t-213.5 -102v-8z" />
    <glyph glyph-name="agrave" unicode="&#xe0;" horiz-adv-x="1026" 
d="M393 1448l197 -311l-2 -4h-137l-281 311l2 4h221zM506 977q206 0 301.5 -93t95.5 -292v-592h-203q0 88 29 150l-8 4q-108 -185 -318 -185q-153 0 -247.5 91.5t-94.5 240.5q0 154 94.5 244t250.5 90q104 0 184.5 -41t128.5 -117l6 4q-11 37 -16 131q-12 179 -220 179
q-110 0 -272 -52l-55 181q174 57 344 57zM479 469q-92 0 -148.5 -47.5t-56.5 -122.5q0 -76 56 -121t147 -45q94 0 154.5 46.5t60.5 121.5q0 74 -60 121t-153 47z" />
    <glyph glyph-name="aacute" unicode="&#xe1;" horiz-adv-x="1026" 
d="M866 1448l2 -4l-280 -311h-137l-2 4l192 311h225zM506 977q206 0 301.5 -93t95.5 -292v-592h-203q0 88 29 150l-8 4q-108 -185 -318 -185q-153 0 -247.5 91.5t-94.5 240.5q0 154 94.5 244t250.5 90q104 0 184.5 -41t128.5 -117l6 4q-11 37 -16 131q-12 179 -220 179
q-110 0 -272 -52l-55 181q174 57 344 57zM479 469q-92 0 -148.5 -47.5t-56.5 -122.5q0 -76 56 -121t147 -45q94 0 154.5 46.5t60.5 121.5q0 74 -60 121t-153 47z" />
    <glyph glyph-name="acircumflex" unicode="&#xe2;" horiz-adv-x="1026" 
d="M621 1448l227 -311v-4h-168l-76 106q-48 70 -61.5 93t-20.5 52h-4q-7 -29 -20.5 -52t-61.5 -93l-76 -106h-167v4l227 311h201zM506 977q206 0 301.5 -93t95.5 -292v-592h-203q0 88 29 150l-8 4q-108 -185 -318 -185q-153 0 -247.5 91.5t-94.5 240.5q0 154 94.5 244
t250.5 90q104 0 184.5 -41t128.5 -117l6 4q-11 37 -16 131q-12 179 -220 179q-110 0 -272 -52l-55 181q174 57 344 57zM479 469q-92 0 -148.5 -47.5t-56.5 -122.5q0 -76 56 -121t147 -45q94 0 154.5 46.5t60.5 121.5q0 74 -60 121t-153 47z" />
    <glyph glyph-name="atilde" unicode="&#xe3;" horiz-adv-x="1026" 
d="M379 1430q52 0 113.5 -24t116 -48.5t87.5 -24.5q68 0 109 103l86 -29q-46 -219 -209 -219q-52 0 -113.5 24t-116 48t-87.5 24q-35 0 -61 -24t-48 -78l-86 28q46 220 209 220zM506 977q206 0 301.5 -93t95.5 -292v-592h-203q0 88 29 150l-8 4q-108 -185 -318 -185
q-153 0 -247.5 91.5t-94.5 240.5q0 154 94.5 244t250.5 90q104 0 184.5 -41t128.5 -117l6 4q-11 37 -16 131q-12 179 -220 179q-110 0 -272 -52l-55 181q174 57 344 57zM479 469q-92 0 -148.5 -47.5t-56.5 -122.5q0 -76 56 -121t147 -45q94 0 154.5 46.5t60.5 121.5
q0 74 -60 121t-153 47z" />
    <glyph glyph-name="adieresis" unicode="&#xe4;" horiz-adv-x="1026" 
d="M432 1434v-250h-184v250h184zM793 1434v-250h-185v250h185zM506 977q206 0 301.5 -93t95.5 -292v-592h-203q0 88 29 150l-8 4q-108 -185 -318 -185q-153 0 -247.5 91.5t-94.5 240.5q0 154 94.5 244t250.5 90q104 0 184.5 -41t128.5 -117l6 4q-11 37 -16 131
q-12 179 -220 179q-110 0 -272 -52l-55 181q174 57 344 57zM479 469q-92 0 -148.5 -47.5t-56.5 -122.5q0 -76 56 -121t147 -45q94 0 154.5 46.5t60.5 121.5q0 74 -60 121t-153 47z" />
    <glyph glyph-name="aring" unicode="&#xe5;" horiz-adv-x="1026" 
d="M520 1530q106 0 175 -68t69 -172t-69 -171.5t-175 -67.5t-175 67.5t-69 171.5t69 172t175 68zM520 1434q-64 0 -103.5 -41t-39.5 -103t39.5 -102.5t103.5 -40.5t104 40.5t40 102.5t-40 103t-104 41zM506 977q206 0 301.5 -93t95.5 -292v-592h-203q0 88 29 150l-8 4
q-108 -185 -318 -185q-153 0 -247.5 91.5t-94.5 240.5q0 154 94.5 244t250.5 90q104 0 184.5 -41t128.5 -117l6 4q-11 37 -16 131q-12 179 -220 179q-110 0 -272 -52l-55 181q174 57 344 57zM479 469q-92 0 -148.5 -47.5t-56.5 -122.5q0 -76 56 -121t147 -45
q94 0 154.5 46.5t60.5 121.5q0 74 -60 121t-153 47z" />
    <glyph glyph-name="ae" unicode="&#xe6;" horiz-adv-x="1693" 
d="M424 -31q-162 0 -262.5 94t-100.5 246q0 146 96 236t251 90q100 0 181 -41.5t128 -116.5l6 4q-11 38 -16 133q-12 177 -218 177q-109 0 -274 -52l-55 181q186 57 348 57q135 0 210 -42.5t109 -139.5h4q116 182 355 182q207 0 326.5 -135.5t119.5 -368.5v-39h-608
q-88 0 -123 12l-2 -4l2 -14q17 -130 93 -199t202 -69q84 0 150.5 32t136.5 107l123 -133q-159 -197 -408 -197q-142 0 -249 66t-150 180h-6q-41 -116 -139 -181t-230 -65zM909 565q40 21 115 21h242q107 0 153 -19l4 4q-11 106 -76 165t-173 59q-110 0 -182 -60t-87 -166z
M477 133q94 0 153.5 47t59.5 121t-59.5 121t-153.5 47q-92 0 -148.5 -46.5t-56.5 -121.5t56.5 -121.5t148.5 -46.5z" />
    <glyph glyph-name="ccedilla" unicode="&#xe7;" horiz-adv-x="956" 
d="M905 66q-138 -89 -284 -95l-15 -41q85 -24 135 -58.5t50 -90.5q0 -32 -19 -64t-44.5 -54.5t-69 -48.5t-73 -40.5t-77.5 -36.5l-31 66q98 57 121 76q29 26 29 49q0 51 -146 86l58 157q-214 14 -346 151.5t-132 350.5q0 224 145 364t376 140q180 0 323 -96l-94 -170
q-109 71 -236 71q-133 0 -217 -86t-84 -223t84 -223t217 -86q126 0 236 72z" />
    <glyph glyph-name="egrave" unicode="&#xe8;" horiz-adv-x="1056" 
d="M418 1448l196 -311l-2 -4h-137l-280 311l2 4h221zM543 977q211 0 331.5 -134.5t120.5 -369.5v-39h-608q-92 0 -125 17l-4 -5l8 -24q15 -126 91 -194t202 -68q84 0 150.5 32t136.5 107l123 -133q-164 -197 -414 -197q-222 0 -358 137t-136 361q0 230 132 370t350 140z
M537 795q-110 0 -182 -60t-87 -166l4 -4q40 21 117 21h240q124 0 151 -19l4 4q-9 106 -74 165t-173 59z" />
    <glyph glyph-name="eacute" unicode="&#xe9;" horiz-adv-x="1056" 
d="M891 1448l2 -4l-281 -311h-137l-2 4l193 311h225zM543 977q211 0 331.5 -134.5t120.5 -369.5v-39h-608q-92 0 -125 17l-4 -5l8 -24q15 -126 91 -194t202 -68q84 0 150.5 32t136.5 107l123 -133q-164 -197 -414 -197q-222 0 -358 137t-136 361q0 230 132 370t350 140z
M537 795q-110 0 -182 -60t-87 -166l4 -4q40 21 117 21h240q124 0 151 -19l4 4q-9 106 -74 165t-173 59z" />
    <glyph glyph-name="ecircumflex" unicode="&#xea;" horiz-adv-x="1056" 
d="M645 1448l227 -311v-4h-167l-76 106q-48 70 -61.5 93t-20.5 52h-4q-7 -29 -20.5 -52t-61.5 -93l-76 -106h-168v4l227 311h201zM543 977q211 0 331.5 -134.5t120.5 -369.5v-39h-608q-92 0 -125 17l-4 -5l8 -24q15 -126 91 -194t202 -68q84 0 150.5 32t136.5 107l123 -133
q-164 -197 -414 -197q-222 0 -358 137t-136 361q0 230 132 370t350 140zM537 795q-110 0 -182 -60t-87 -166l4 -4q40 21 117 21h240q124 0 151 -19l4 4q-9 106 -74 165t-173 59z" />
    <glyph glyph-name="edieresis" unicode="&#xeb;" horiz-adv-x="1056" 
d="M457 1434v-250h-185v250h185zM817 1434v-250h-184v250h184zM543 977q211 0 331.5 -134.5t120.5 -369.5v-39h-608q-92 0 -125 17l-4 -5l8 -24q15 -126 91 -194t202 -68q84 0 150.5 32t136.5 107l123 -133q-164 -197 -414 -197q-222 0 -358 137t-136 361q0 230 132 370
t350 140zM537 795q-110 0 -182 -60t-87 -166l4 -4q40 21 117 21h240q124 0 151 -19l4 4q-9 106 -74 165t-173 59z" />
    <glyph glyph-name="igrave" unicode="&#xec;" horiz-adv-x="466" 
d="M8 1448h205l90 -311l-2 -4h-127l-168 311zM334 946v-946h-201v946h201z" />
    <glyph glyph-name="iacute" unicode="&#xed;" horiz-adv-x="466" 
d="M469 1448l2 -4l-168 -311h-127l-2 4l90 311h205zM334 946v-946h-201v946h201z" />
    <glyph glyph-name="icircumflex" unicode="&#xee;" horiz-adv-x="466" 
d="M324 1448l155 -311v-4h-147l-49 106q-39 83 -47 135h-5q-8 -52 -47 -135l-49 -106h-147v4l155 311h181zM334 946v-946h-201v946h201z" />
    <glyph glyph-name="idieresis" unicode="&#xef;" horiz-adv-x="466" 
d="M186 1434v-250h-184v250h184zM465 1434v-250h-184v250h184zM334 946v-946h-201v946h201z" />
    <glyph glyph-name="eth" unicode="&#xf0;" horiz-adv-x="1179" 
d="M795 1309q150 -99 221 -265t71 -409q0 -318 -135.5 -492t-382.5 -174q-226 0 -367 141t-141 367q0 217 135.5 357.5t344.5 140.5q148 0 248.5 -76t134.5 -213h8q-11 104 -41 199q-70 205 -242 305l-198 -160l-70 78l162 131q-118 43 -279 55l27 170q241 -24 403 -100
l176 143l70 -80zM573 160q137 0 220.5 86t83.5 227q0 142 -84 227.5t-224 85.5q-137 0 -219 -84t-82 -225q0 -143 83.5 -230t221.5 -87z" />
    <glyph glyph-name="ntilde" unicode="&#xf1;" horiz-adv-x="1126" 
d="M438 1430q52 0 114 -24t116.5 -48.5t87.5 -24.5q67 0 108 103l86 -29q-46 -219 -209 -219q-51 0 -113 24t-116.5 48t-87.5 24q-35 0 -61 -24t-48 -78l-86 28q46 220 209 220zM666 977q161 0 249.5 -92.5t88.5 -261.5v-623h-201v565q0 107 -52.5 164t-152.5 57
q-126 0 -195 -86.5t-69 -244.5v-455h-201v946h201q0 -125 -21 -217l9 -2q99 250 344 250z" />
    <glyph glyph-name="ograve" unicode="&#xf2;" horiz-adv-x="1159" 
d="M453 1448l196 -311l-2 -4h-137l-281 311l2 4h222zM580 977q224 0 371 -143.5t147 -360.5t-147 -360.5t-371 -143.5t-371.5 143.5t-147.5 360.5t147.5 360.5t371.5 143.5zM580 780q-137 0 -221.5 -84.5t-84.5 -222.5t84.5 -222.5t221.5 -84.5t221 84.5t84 222.5t-84 222.5
t-221 84.5z" />
    <glyph glyph-name="oacute" unicode="&#xf3;" horiz-adv-x="1159" 
d="M926 1448l2 -4l-281 -311h-137l-2 4l192 311h226zM580 977q224 0 371 -143.5t147 -360.5t-147 -360.5t-371 -143.5t-371.5 143.5t-147.5 360.5t147.5 360.5t371.5 143.5zM580 780q-137 0 -221.5 -84.5t-84.5 -222.5t84.5 -222.5t221.5 -84.5t221 84.5t84 222.5t-84 222.5
t-221 84.5z" />
    <glyph glyph-name="ocircumflex" unicode="&#xf4;" horiz-adv-x="1159" 
d="M680 1448l227 -311v-4h-168l-75 106q-48 70 -61.5 93t-20.5 52h-4q-7 -29 -20.5 -52t-61.5 -93l-76 -106h-168v4l227 311h201zM580 977q224 0 371 -143.5t147 -360.5t-147 -360.5t-371 -143.5t-371.5 143.5t-147.5 360.5t147.5 360.5t371.5 143.5zM580 780
q-137 0 -221.5 -84.5t-84.5 -222.5t84.5 -222.5t221.5 -84.5t221 84.5t84 222.5t-84 222.5t-221 84.5z" />
    <glyph glyph-name="otilde" unicode="&#xf5;" horiz-adv-x="1159" 
d="M438 1430q52 0 114 -24t116.5 -48.5t87.5 -24.5q67 0 108 103l86 -29q-46 -219 -209 -219q-51 0 -113 24t-116.5 48t-87.5 24q-35 0 -61 -24t-48 -78l-86 28q46 220 209 220zM580 977q224 0 371 -143.5t147 -360.5t-147 -360.5t-371 -143.5t-371.5 143.5t-147.5 360.5
t147.5 360.5t371.5 143.5zM580 780q-137 0 -221.5 -84.5t-84.5 -222.5t84.5 -222.5t221.5 -84.5t221 84.5t84 222.5t-84 222.5t-221 84.5z" />
    <glyph glyph-name="odieresis" unicode="&#xf6;" horiz-adv-x="1159" 
d="M492 1434v-250h-185v250h185zM852 1434v-250h-184v250h184zM580 977q224 0 371 -143.5t147 -360.5t-147 -360.5t-371 -143.5t-371.5 143.5t-147.5 360.5t147.5 360.5t371.5 143.5zM580 780q-137 0 -221.5 -84.5t-84.5 -222.5t84.5 -222.5t221.5 -84.5t221 84.5t84 222.5
t-84 222.5t-221 84.5z" />
    <glyph glyph-name="divide" unicode="&#xf7;" 
d="M696 1018v-172h-164v172h164zM1145 662v-99h-1061v99h1061zM696 379v-174h-164v174h164z" />
    <glyph glyph-name="oslash" unicode="&#xf8;" horiz-adv-x="1159" 
d="M950 834q148 -145 148 -361q0 -217 -147 -360.5t-371 -143.5q-175 0 -312 94l-80 -92l-59 47l82 93q-150 144 -150 362q0 217 147.5 360.5t371.5 143.5q174 0 311 -94l82 94l59 -49zM274 473q0 -124 72 -209l410 467q-70 49 -176 49q-137 0 -221.5 -84.5t-84.5 -222.5z
M580 166q137 0 221 84.5t84 222.5q0 128 -70 207l-412 -465q70 -49 177 -49z" />
    <glyph glyph-name="ugrave" unicode="&#xf9;" horiz-adv-x="1073" 
d="M408 1448l196 -311l-2 -4h-137l-281 311l2 4h222zM950 946v-946h-198q0 107 22 197l-8 2q-50 -118 -129 -174t-197 -56q-154 0 -240.5 102t-86.5 283v592h204v-555q0 -112 53 -171.5t152 -59.5q109 0 168.5 85.5t59.5 243.5v457h200z" />
    <glyph glyph-name="uacute" unicode="&#xfa;" horiz-adv-x="1073" 
d="M881 1448l2 -4l-281 -311h-137l-2 4l192 311h226zM950 946v-946h-198q0 107 22 197l-8 2q-50 -118 -129 -174t-197 -56q-154 0 -240.5 102t-86.5 283v592h204v-555q0 -112 53 -171.5t152 -59.5q109 0 168.5 85.5t59.5 243.5v457h200z" />
    <glyph glyph-name="ucircumflex" unicode="&#xfb;" horiz-adv-x="1073" 
d="M635 1448l227 -311v-4h-168l-76 106q-47 68 -60.5 91.5t-20.5 53.5h-5q-7 -30 -20.5 -53.5t-60.5 -91.5l-76 -106h-168v4l227 311h201zM950 946v-946h-198q0 107 22 197l-8 2q-50 -118 -129 -174t-197 -56q-154 0 -240.5 102t-86.5 283v592h204v-555q0 -112 53 -171.5
t152 -59.5q109 0 168.5 85.5t59.5 243.5v457h200z" />
    <glyph glyph-name="udieresis" unicode="&#xfc;" horiz-adv-x="1073" 
d="M446 1434v-250h-184v250h184zM807 1434v-250h-184v250h184zM950 946v-946h-198q0 107 22 197l-8 2q-50 -118 -129 -174t-197 -56q-154 0 -240.5 102t-86.5 283v592h204v-555q0 -112 53 -171.5t152 -59.5q109 0 168.5 85.5t59.5 243.5v457h200z" />
    <glyph glyph-name="yacute" unicode="&#xfd;" horiz-adv-x="1015" 
d="M860 1448l2 -4l-280 -311h-138l-2 4l193 311h225zM995 946l-571 -1358h-209l201 473l-396 885h230l215 -522q41 -99 43 -184h8q3 74 35 151l225 555h219z" />
    <glyph glyph-name="thorn" unicode="&#xfe;" horiz-adv-x="1189" 
d="M133 -410v1844h201v-488q0 -96 -19 -168l9 -4q52 88 140.5 145.5t213.5 57.5q191 0 320.5 -138.5t129.5 -367.5q0 -227 -130.5 -364.5t-325.5 -137.5q-107 0 -196 48.5t-148 144.5l-6 -4q12 -92 12 -242v-326h-201zM635 158q130 0 207.5 82.5t77.5 230.5
q0 150 -77.5 233.5t-207.5 83.5q-137 0 -222 -90t-85 -227q0 -134 84.5 -223.5t222.5 -89.5z" />
    <glyph glyph-name="ydieresis" unicode="&#xff;" horiz-adv-x="1015" 
d="M426 1434v-250h-184v250h184zM786 1434v-250h-184v250h184zM995 946l-571 -1358h-209l201 473l-396 885h230l215 -522q41 -99 43 -184h8q3 74 35 151l225 555h219z" />
    <glyph glyph-name="Amacron" unicode="&#x100;" horiz-adv-x="1425" 
d="M412 1688h600v-134h-600v134zM20 0l682 1464h21l682 -1464h-240l-168 377h-569l-168 -377h-240zM487 555q36 4 115 4h221q79 0 115 -4l2 2q-34 43 -66 117l-106 252q-45 108 -51 164h-8q-6 -53 -52 -164l-106 -252q-32 -74 -66 -117z" />
    <glyph glyph-name="amacron" unicode="&#x101;" horiz-adv-x="1026" 
d="M817 1374v-143h-594v143h594zM506 977q206 0 301.5 -93t95.5 -292v-592h-203q0 88 29 150l-8 4q-108 -185 -318 -185q-153 0 -247.5 91.5t-94.5 240.5q0 154 94.5 244t250.5 90q104 0 184.5 -41t128.5 -117l6 4q-11 37 -16 131q-12 179 -220 179q-110 0 -272 -52l-55 181
q174 57 344 57zM479 469q-92 0 -148.5 -47.5t-56.5 -122.5q0 -76 56 -121t147 -45q94 0 154.5 46.5t60.5 121.5q0 74 -60 121t-153 47z" />
    <glyph glyph-name="Abreve" unicode="&#x102;" horiz-adv-x="1425" 
d="M995 1747q-6 -106 -82 -165.5t-200 -59.5t-200.5 59.5t-82.5 165.5h143q15 -90 140 -90q124 0 139 90h143zM20 0l682 1464h21l682 -1464h-240l-168 377h-569l-168 -377h-240zM487 555q36 4 115 4h221q79 0 115 -4l2 2q-34 43 -66 117l-106 252q-45 108 -51 164h-8
q-6 -53 -52 -164l-106 -252q-32 -74 -66 -117z" />
    <glyph glyph-name="abreve" unicode="&#x103;" horiz-adv-x="1026" 
d="M803 1446q0 -141 -78.5 -220t-204.5 -79t-204 79t-78 220h139q6 -164 143 -164q138 0 144 164h139zM506 977q206 0 301.5 -93t95.5 -292v-592h-203q0 88 29 150l-8 4q-108 -185 -318 -185q-153 0 -247.5 91.5t-94.5 240.5q0 154 94.5 244t250.5 90q104 0 184.5 -41
t128.5 -117l6 4q-11 37 -16 131q-12 179 -220 179q-110 0 -272 -52l-55 181q174 57 344 57zM479 469q-92 0 -148.5 -47.5t-56.5 -122.5q0 -76 56 -121t147 -45q94 0 154.5 46.5t60.5 121.5q0 74 -60 121t-153 47z" />
    <glyph glyph-name="Aogonek" unicode="&#x104;" horiz-adv-x="1425" 
d="M1163 -260q39 0 82 12l33 -110q-71 -29 -145 -29q-79 0 -130 40t-51 109q0 66 49.5 127t151.5 138l-156 350h-569l-168 -377h-240l682 1464h21l682 -1464h-160q-158 -131 -158 -201q0 -28 19.5 -43.5t56.5 -15.5zM938 555l2 2q-34 43 -66 117l-106 252q-45 108 -51 164
h-8q-6 -53 -52 -164l-106 -252q-32 -74 -66 -117l2 -2q36 4 115 4h221q79 0 115 -4z" />
    <glyph glyph-name="aogonek" unicode="&#x105;" horiz-adv-x="1026" 
d="M772 0q-158 -131 -158 -201q0 -28 19.5 -43.5t56.5 -15.5q38 0 82 12l33 -110q-71 -29 -146 -29q-79 0 -129.5 40t-50.5 109q0 70 54 133t169 146q3 52 27 109l-8 4q-108 -185 -318 -185q-153 0 -247.5 91.5t-94.5 240.5q0 154 94.5 244t250.5 90q104 0 184.5 -41
t128.5 -117l6 4q-11 37 -16 131q-12 179 -220 179q-110 0 -272 -52l-55 181q174 57 344 57q206 0 301.5 -93t95.5 -292v-592h-131zM477 133q94 0 154.5 46.5t60.5 121.5q0 74 -60 121t-153 47q-92 0 -148.5 -47.5t-56.5 -122.5q0 -76 56 -121t147 -45z" />
    <glyph glyph-name="Cacute" unicode="&#x106;" horiz-adv-x="1396" 
d="M1141 1747l2 -6l-266 -219h-136l-2 4l179 221h223zM840 -31q-226 0 -401 94t-271 264t-96 390q0 165 56 304t156 236.5t243.5 152t312.5 54.5q288 0 506 -157l-132 -187q-175 127 -383 127q-233 0 -379.5 -147.5t-146.5 -382.5t146.5 -383t379.5 -148q208 0 383 127
l132 -186q-219 -158 -506 -158z" />
    <glyph glyph-name="cacute" unicode="&#x107;" horiz-adv-x="956" 
d="M891 1448l2 -4l-281 -311h-137l-2 4l193 311h225zM582 -31q-231 0 -376 140t-145 364t145 364t376 140q180 0 323 -96l-94 -170q-109 71 -236 71q-133 0 -217 -86t-84 -223t84 -223t217 -86q126 0 236 72l94 -170q-144 -97 -323 -97z" />
    <glyph glyph-name="Ccircumflex" unicode="&#x108;" horiz-adv-x="1396" 
d="M471 1522v8l231 237h213l232 -237v-8h-180l-56 55q-54 54 -73 79t-25 54h-8q-6 -29 -25 -54t-73 -79l-56 -55h-180zM840 -31q-226 0 -401 94t-271 264t-96 390q0 165 56 304t156 236.5t243.5 152t312.5 54.5q288 0 506 -157l-132 -187q-175 127 -383 127
q-233 0 -379.5 -147.5t-146.5 -382.5t146.5 -383t379.5 -148q208 0 383 127l132 -186q-219 -158 -506 -158z" />
    <glyph glyph-name="ccircumflex" unicode="&#x109;" horiz-adv-x="956" 
d="M645 1448l227 -311v-4h-167l-76 106q-48 70 -61.5 93t-20.5 52h-4q-7 -29 -20.5 -52t-61.5 -93l-76 -106h-168v4l227 311h201zM582 -31q-231 0 -376 140t-145 364t145 364t376 140q180 0 323 -96l-94 -170q-109 71 -236 71q-133 0 -217 -86t-84 -223t84 -223t217 -86
q126 0 236 72l94 -170q-144 -97 -323 -97z" />
    <glyph glyph-name="Cdotaccent" unicode="&#x10a;" horiz-adv-x="1396" 
d="M909 1747v-225h-202v225h202zM840 -31q-226 0 -401 94t-271 264t-96 390q0 165 56 304t156 236.5t243.5 152t312.5 54.5q288 0 506 -157l-132 -187q-175 127 -383 127q-233 0 -379.5 -147.5t-146.5 -382.5t146.5 -383t379.5 -148q208 0 383 127l132 -186
q-219 -158 -506 -158z" />
    <glyph glyph-name="cdotaccent" unicode="&#x10b;" horiz-adv-x="956" 
d="M657 1434v-271h-225v271h225zM582 -31q-231 0 -376 140t-145 364t145 364t376 140q180 0 323 -96l-94 -170q-109 71 -236 71q-133 0 -217 -86t-84 -223t84 -223t217 -86q126 0 236 72l94 -170q-144 -97 -323 -97z" />
    <glyph glyph-name="Ccaron" unicode="&#x10c;" horiz-adv-x="1396" 
d="M1147 1767v-8l-232 -237h-213l-231 237v8h180l56 -55q70 -73 83 -95q11 -19 15 -38h8q4 20 17.5 41t26 34.5t54.5 57.5l56 55h180zM840 -31q-226 0 -401 94t-271 264t-96 390q0 165 56 304t156 236.5t243.5 152t312.5 54.5q288 0 506 -157l-132 -187q-175 127 -383 127
q-233 0 -379.5 -147.5t-146.5 -382.5t146.5 -383t379.5 -148q208 0 383 127l132 -186q-219 -158 -506 -158z" />
    <glyph glyph-name="ccaron" unicode="&#x10d;" horiz-adv-x="956" 
d="M444 1133l-237 311v4h180l76 -107q7 -10 18 -25.5t15.5 -22t12 -18t10.5 -16.5t7.5 -13t6.5 -13.5t4 -12.5l4 -14h8l4 14t4 12.5t6.5 13.5t7.5 13t10.5 16.5t12 18t15.5 22t18 25.5l75 107h181v-4l-238 -311h-201zM582 -31q-231 0 -376 140t-145 364t145 364t376 140
q180 0 323 -96l-94 -170q-109 71 -236 71q-133 0 -217 -86t-84 -223t84 -223t217 -86q126 0 236 72l94 -170q-144 -97 -323 -97z" />
    <glyph glyph-name="Dcaron" unicode="&#x10e;" horiz-adv-x="1411" 
d="M920 1767v-8l-232 -237h-213l-231 237v8h180l55 -55q70 -73 83 -94q12 -19 16 -39h8q4 20 17.5 41t26 34.5t54.5 57.5l55 55h181zM602 1434q335 0 536 -196t201 -521t-201 -521t-536 -196h-448v1434h448zM365 1241l-5 -4q7 -18 7 -51v-938q0 -33 -7 -51l5 -4q19 8 51 8
h188q236 0 369 136.5t133 379.5t-133.5 379.5t-368.5 136.5h-188q-32 0 -51 8z" />
    <glyph glyph-name="dcaron" unicode="&#x10f;" horiz-adv-x="1415" 
d="M1221 1495h204l-155 -416h-107zM520 -31q-201 0 -330 141.5t-129 362.5t129 362.5t330 141.5q120 0 209 -55.5t139 -159.5l9 2q-19 71 -19 205v495h201v-1464h-195q0 125 13 182l-9 2q-50 -104 -139 -159.5t-209 -55.5zM559 158q135 0 221 88t86 227t-86 227t-221 88
q-134 0 -209.5 -83.5t-75.5 -231.5t75.5 -231.5t209.5 -83.5z" />
    <glyph glyph-name="Dcroat" unicode="&#x110;" horiz-adv-x="1452" 
d="M653 1434q155 0 286.5 -50t227 -141t149.5 -226.5t54 -299.5t-54 -299.5t-149.5 -226.5t-227 -141t-286.5 -50h-448v594q0 36 6 51l-4 4q-19 -8 -51 -8h-156v176h156q32 0 51 -8l4 4q-6 15 -6 51v570h448zM655 201q216 0 349 134t133 382q0 247 -133 381.5t-349 134.5
h-188q-32 0 -51 8l-4 -4q6 -15 6 -51v-322q0 -36 -6 -51l4 -4q19 8 51 8h311v-176h-311q-32 0 -51 8l-4 -4q6 -15 6 -51v-346q0 -36 -6 -51l4 -4q19 8 51 8h188z" />
    <glyph glyph-name="dcroat" unicode="&#x111;" horiz-adv-x="1198" 
d="M1104 1284h84v-123h-84q-41 0 -57 8l-3 -2q11 -22 11 -53v-1114h-195q0 123 12 182l-8 2q-50 -106 -140.5 -160.5t-207.5 -54.5q-94 0 -176.5 35t-144.5 99t-98 159.5t-36 210.5t36 210.5t98 159.5t144.5 99t176.5 35q118 0 207.5 -55t140.5 -160l8 2q-18 76 -18 205v145
q0 33 10 53l-2 2q-16 -8 -57 -8h-258v123h258q41 0 57 -8l2 2q-10 20 -10 53v133h201v-133q0 -31 -11 -53l3 -2q16 8 57 8zM555 158q138 0 222.5 89.5t84.5 225.5t-84.5 225.5t-222.5 89.5q-131 0 -208 -82.5t-77 -232.5t77 -232.5t208 -82.5z" />
    <glyph glyph-name="Emacron" unicode="&#x112;" horiz-adv-x="1056" 
d="M283 1688h600v-134h-600v134zM967 1434v-201h-551q-32 0 -51 8l-5 -4q7 -18 7 -53v-256q0 -34 -7 -51l5 -5q21 9 51 9h483v-201h-483q-32 0 -51 8l-5 -4q7 -18 7 -53v-381q0 -35 -7 -53l5 -4q19 8 51 8h559v-201h-821v1434h813z" />
    <glyph glyph-name="emacron" unicode="&#x113;" horiz-adv-x="1056" 
d="M842 1374v-143h-594v143h594zM543 977q211 0 331.5 -134.5t120.5 -369.5v-39h-608q-92 0 -125 17l-4 -5l8 -24q15 -126 91 -194t202 -68q84 0 150.5 32t136.5 107l123 -133q-164 -197 -414 -197q-222 0 -358 137t-136 361q0 230 132 370t350 140zM537 795
q-110 0 -182 -60t-87 -166l4 -4q40 21 117 21h240q124 0 151 -19l4 4q-9 106 -74 165t-173 59z" />
    <glyph glyph-name="Ebreve" unicode="&#x114;" horiz-adv-x="1056" 
d="M866 1747q-6 -106 -82 -165.5t-200 -59.5t-200.5 59.5t-82.5 165.5h143q15 -90 140 -90q124 0 139 90h143zM967 1434v-201h-551q-32 0 -51 8l-5 -4q7 -18 7 -53v-256q0 -34 -7 -51l5 -5q21 9 51 9h483v-201h-483q-32 0 -51 8l-5 -4q7 -18 7 -53v-381q0 -35 -7 -53l5 -4
q19 8 51 8h559v-201h-821v1434h813z" />
    <glyph glyph-name="ebreve" unicode="&#x115;" horiz-adv-x="1056" 
d="M827 1446q0 -141 -78 -220t-204 -79t-204.5 79t-78.5 220h139q6 -164 144 -164q137 0 143 164h139zM543 977q211 0 331.5 -134.5t120.5 -369.5v-39h-608q-92 0 -125 17l-4 -5l8 -24q15 -126 91 -194t202 -68q84 0 150.5 32t136.5 107l123 -133q-164 -197 -414 -197
q-222 0 -358 137t-136 361q0 230 132 370t350 140zM537 795q-110 0 -182 -60t-87 -166l4 -4q40 21 117 21h240q124 0 151 -19l4 4q-9 106 -74 165t-173 59z" />
    <glyph glyph-name="Edotaccent" unicode="&#x116;" horiz-adv-x="1056" 
d="M684 1747v-225h-203v225h203zM967 1434v-201h-551q-32 0 -51 8l-5 -4q7 -18 7 -53v-256q0 -34 -7 -51l5 -5q21 9 51 9h483v-201h-483q-32 0 -51 8l-5 -4q7 -18 7 -53v-381q0 -35 -7 -53l5 -4q19 8 51 8h559v-201h-821v1434h813z" />
    <glyph glyph-name="edotaccent" unicode="&#x117;" horiz-adv-x="1056" 
d="M657 1434v-271h-225v271h225zM543 977q211 0 331.5 -134.5t120.5 -369.5v-39h-608q-92 0 -125 17l-4 -5l8 -24q15 -126 91 -194t202 -68q84 0 150.5 32t136.5 107l123 -133q-164 -197 -414 -197q-222 0 -358 137t-136 361q0 230 132 370t350 140zM537 795
q-110 0 -182 -60t-87 -166l4 -4q40 21 117 21h240q124 0 151 -19l4 4q-9 106 -74 165t-173 59z" />
    <glyph glyph-name="Eogonek" unicode="&#x118;" horiz-adv-x="1056" 
d="M944 -248l33 -110q-71 -29 -146 -29q-79 0 -129.5 40t-50.5 109q0 61 41 116.5t125 121.5h-663v1434h813v-201h-551q-32 0 -51 8l-5 -4q7 -18 7 -53v-256q0 -34 -7 -51l5 -5q21 9 51 9h483v-201h-483q-32 0 -51 8l-5 -4q7 -18 7 -53v-381q0 -35 -7 -53l5 -4q19 8 51 8
h559v-201h-31q-158 -131 -158 -201q0 -28 19.5 -43.5t56.5 -15.5q38 0 82 12z" />
    <glyph glyph-name="eogonek" unicode="&#x119;" horiz-adv-x="1056" 
d="M387 434q-92 0 -125 17l-4 -5l8 -24q15 -126 91 -194t202 -68q84 0 150.5 32t136.5 107l123 -133q-81 -100 -187 -150q-92 -74 -135 -125.5t-43 -91.5q0 -28 19.5 -43.5t56.5 -15.5q38 0 82 12l33 -110q-71 -29 -146 -29q-79 0 -129.5 40t-50.5 109q0 55 32.5 104.5
t98.5 104.5q-14 -2 -45 -2q-222 0 -358 137t-136 361q0 230 132 370t350 140q211 0 331.5 -134.5t120.5 -369.5v-39h-608zM537 795q-110 0 -182 -60t-87 -166l4 -4q40 21 117 21h240q124 0 151 -19l4 4q-9 106 -74 165t-173 59z" />
    <glyph glyph-name="Ecaron" unicode="&#x11a;" horiz-adv-x="1056" 
d="M922 1767v-8l-232 -237h-213l-231 237v8h180l55 -55q70 -73 83 -94q12 -19 16 -39h8q4 20 17.5 41t26 34.5t54.5 57.5l55 55h181zM967 1434v-201h-551q-32 0 -51 8l-5 -4q7 -18 7 -53v-256q0 -34 -7 -51l5 -5q21 9 51 9h483v-201h-483q-32 0 -51 8l-5 -4q7 -18 7 -53
v-381q0 -35 -7 -53l5 -4q19 8 51 8h559v-201h-821v1434h813z" />
    <glyph glyph-name="ecaron" unicode="&#x11b;" horiz-adv-x="1056" 
d="M444 1133l-237 311v4h180l76 -107q7 -10 18 -25.5t15.5 -22t12 -18t10.5 -16.5t7.5 -13t6.5 -13.5t4 -12.5l4 -14h8l4 14t4 12.5t6.5 13.5t7.5 13t10.5 16.5t12 18t15.5 22t18 25.5l75 107h181v-4l-238 -311h-201zM543 977q211 0 331.5 -134.5t120.5 -369.5v-39h-608
q-92 0 -125 17l-4 -5l8 -24q15 -126 91 -194t202 -68q84 0 150.5 32t136.5 107l123 -133q-164 -197 -414 -197q-222 0 -358 137t-136 361q0 230 132 370t350 140zM537 795q-110 0 -182 -60t-87 -166l4 -4q40 21 117 21h240q124 0 151 -19l4 4q-9 106 -74 165t-173 59z" />
    <glyph glyph-name="Gcircumflex" unicode="&#x11c;" horiz-adv-x="1601" 
d="M483 1522v8l232 237h213l231 -237v-8h-180l-55 55q-55 55 -74 79.5t-25 53.5h-8q-6 -29 -25 -54t-73 -79l-55 -55h-181zM831 1464q321 0 549 -192l-143 -178q-75 68 -181 110.5t-233 42.5q-154 0 -273 -70t-182 -190.5t-63 -271.5q0 -232 147 -380.5t384 -148.5
q117 0 212 39t152 101.5t88 134t33 143.5l-4 4q-29 -18 -137 -18h-342v201h712v-78q0 -114 -27.5 -221.5t-86.5 -202.5t-142.5 -166t-203 -112.5t-261.5 -41.5q-161 0 -300.5 53t-240.5 148.5t-158.5 235.5t-57.5 307q0 163 55.5 302.5t154 238t240.5 154.5t309 56z" />
    <glyph glyph-name="gcircumflex" unicode="&#x11d;" horiz-adv-x="1179" 
d="M655 1448l228 -311v-4h-168l-76 106q-48 70 -61.5 93t-20.5 52h-4q-7 -29 -20.5 -52t-61.5 -93l-76 -106h-168v4l228 311h200zM518 977q120 0 209 -55.5t139 -159.5l8 2q-18 50 -18 182h201v-903q0 -483 -516 -483q-244 0 -418 112l98 181q157 -101 322 -101
q140 0 229.5 71t89.5 181v41q0 88 12 137l-8 2q-51 -103 -140.5 -158t-207.5 -55q-201 0 -329 140.5t-128 361.5t128 362.5t329 141.5zM557 788q-132 0 -207.5 -83.5t-75.5 -231.5t75.5 -231.5t207.5 -83.5q137 0 223 88t86 227t-86 227t-223 88z" />
    <glyph glyph-name="Gbreve" unicode="&#x11e;" horiz-adv-x="1601" 
d="M1104 1747q-6 -106 -82.5 -165.5t-200.5 -59.5t-200 59.5t-82 165.5h143q15 -90 139 -90q125 0 140 90h143zM831 1464q321 0 549 -192l-143 -178q-75 68 -181 110.5t-233 42.5q-154 0 -273 -70t-182 -190.5t-63 -271.5q0 -232 147 -380.5t384 -148.5q117 0 212 39
t152 101.5t88 134t33 143.5l-4 4q-29 -18 -137 -18h-342v201h712v-78q0 -114 -27.5 -221.5t-86.5 -202.5t-142.5 -166t-203 -112.5t-261.5 -41.5q-161 0 -300.5 53t-240.5 148.5t-158.5 235.5t-57.5 307q0 163 55.5 302.5t154 238t240.5 154.5t309 56z" />
    <glyph glyph-name="gbreve" unicode="&#x11f;" horiz-adv-x="1179" 
d="M838 1446q0 -141 -78.5 -220t-204.5 -79t-204.5 79t-78.5 220h140q6 -164 143 -164t143 164h140zM518 977q120 0 209 -55.5t139 -159.5l8 2q-18 50 -18 182h201v-903q0 -483 -516 -483q-244 0 -418 112l98 181q157 -101 322 -101q140 0 229.5 71t89.5 181v41q0 88 12 137
l-8 2q-51 -103 -140.5 -158t-207.5 -55q-201 0 -329 140.5t-128 361.5t128 362.5t329 141.5zM557 788q-132 0 -207.5 -83.5t-75.5 -231.5t75.5 -231.5t207.5 -83.5q137 0 223 88t86 227t-86 227t-223 88z" />
    <glyph glyph-name="Gdotaccent" unicode="&#x120;" horiz-adv-x="1601" 
d="M922 1747v-225h-203v225h203zM831 1464q321 0 549 -192l-143 -178q-75 68 -181 110.5t-233 42.5q-154 0 -273 -70t-182 -190.5t-63 -271.5q0 -232 147 -380.5t384 -148.5q117 0 212 39t152 101.5t88 134t33 143.5l-4 4q-29 -18 -137 -18h-342v201h712v-78
q0 -114 -27.5 -221.5t-86.5 -202.5t-142.5 -166t-203 -112.5t-261.5 -41.5q-161 0 -300.5 53t-240.5 148.5t-158.5 235.5t-57.5 307q0 163 55.5 302.5t154 238t240.5 154.5t309 56z" />
    <glyph glyph-name="gdotaccent" unicode="&#x121;" horiz-adv-x="1179" 
d="M668 1434v-271h-226v271h226zM518 977q120 0 209 -55.5t139 -159.5l8 2q-18 50 -18 182h201v-903q0 -483 -516 -483q-244 0 -418 112l98 181q157 -101 322 -101q140 0 229.5 71t89.5 181v41q0 88 12 137l-8 2q-51 -103 -140.5 -158t-207.5 -55q-201 0 -329 140.5
t-128 361.5t128 362.5t329 141.5zM557 788q-132 0 -207.5 -83.5t-75.5 -231.5t75.5 -231.5t207.5 -83.5q137 0 223 88t86 227t-86 227t-223 88z" />
    <glyph glyph-name="Gcommaaccent" unicode="&#x122;" horiz-adv-x="1601" 
d="M831 1464q321 0 549 -192l-143 -178q-75 68 -181 110.5t-233 42.5q-154 0 -273 -70t-182 -190.5t-63 -271.5q0 -232 147 -380.5t384 -148.5q117 0 212 39t152 101.5t88 134t33 143.5l-4 4q-29 -18 -137 -18h-342v201h712v-78q0 -114 -27.5 -221.5t-86.5 -202.5
t-142.5 -166t-203 -112.5t-261.5 -41.5q-161 0 -300.5 53t-240.5 148.5t-158.5 235.5t-57.5 307q0 163 55.5 302.5t154 238t240.5 154.5t309 56zM942 -104l-164 -336h-106l69 336h201z" />
    <glyph glyph-name="gcommaaccent" unicode="&#x123;" horiz-adv-x="1179" 
d="M662 1133h-211l174 329h106zM518 977q120 0 209 -55.5t139 -159.5l8 2q-18 50 -18 182h201v-903q0 -483 -516 -483q-244 0 -418 112l98 181q157 -101 322 -101q140 0 229.5 71t89.5 181v41q0 88 12 137l-8 2q-51 -103 -140.5 -158t-207.5 -55q-201 0 -329 140.5
t-128 361.5t128 362.5t329 141.5zM557 788q-132 0 -207.5 -83.5t-75.5 -231.5t75.5 -231.5t207.5 -83.5q137 0 223 88t86 227t-86 227t-223 88z" />
    <glyph glyph-name="Hcircumflex" unicode="&#x124;" horiz-adv-x="1458" 
d="M391 1522v8l232 237h213l231 -237v-8h-180l-56 55q-54 54 -73 79t-25 54h-8q-6 -29 -25 -54t-73 -79l-56 -55h-180zM1305 1434v-1434h-213v608q0 36 6 51l-4 5q-21 -9 -52 -9h-626q-30 0 -51 9l-5 -5q7 -17 7 -51v-608h-213v1434h213v-527q0 -33 -7 -51l5 -4q19 8 51 8
h626q33 0 52 -8l4 4q-6 15 -6 51v527h213z" />
    <glyph glyph-name="hcircumflex" unicode="&#x125;" horiz-adv-x="1126" 
d="M-102 1522v8l231 237h213l231 -237v-8h-180l-55 55q-54 54 -73 79t-25 54h-9q-6 -29 -25 -54t-73 -79l-55 -55h-180zM334 1464v-512q0 -99 -21 -204l9 -3q105 232 348 232q158 0 246 -93.5t88 -260.5v-623h-201v565q0 107 -52.5 164t-152.5 57q-126 0 -195 -86.5
t-69 -244.5v-455h-201v1464h201z" />
    <glyph glyph-name="Hbar" unicode="&#x126;" horiz-adv-x="1437" 
d="M143 0v1001q0 38 4 50l-4 2q-16 -4 -39 -4h-104v176h104q27 0 39 -6l4 4q-4 10 -4 47v164h209v-164q0 -37 -4 -47l4 -4q12 6 39 6h656q26 0 38 -6l5 4q-5 13 -5 47v164h209v-164q0 -37 -4 -47l4 -4q12 6 37 6h107v-176h-107q-21 0 -37 4l-4 -2q4 -12 4 -50v-1001h-209
v612q0 38 5 50l-5 4q-14 -7 -41 -7h-651q-27 0 -41 7l-4 -4q4 -10 4 -50v-612h-209zM352 852q12 6 41 6h651q29 0 41 -6l5 4q-5 10 -5 47v98q0 35 5 50l-5 2q-16 -4 -38 -4h-656q-23 0 -39 4l-4 -2q4 -12 4 -50v-98q0 -39 -4 -47z" />
    <glyph glyph-name="hbar" unicode="&#x127;" horiz-adv-x="1136" 
d="M680 977q151 0 242.5 -88.5t91.5 -265.5v-623h-201v565q0 113 -54.5 167t-150.5 54q-118 0 -191 -80.5t-73 -250.5v-455h-201v1114q0 31 11 53l-2 2q-16 -8 -58 -8h-84v123h84q42 0 58 -8l2 2q-11 22 -11 53v133h201v-133q0 -33 -10 -53l2 -2q16 8 57 8h258v-123h-258
q-41 0 -57 8l-2 -2q10 -20 10 -53v-162q0 -112 -20 -204l8 -3q105 232 348 232z" />
    <glyph glyph-name="Itilde" unicode="&#x128;" horiz-adv-x="520" 
d="M-10 1520l-82 22q54 205 217 205q54 0 174 -33t168 -33q38 0 59 15.5t43 52.5l80 -23q-54 -204 -215 -204q-56 0 -176 32.5t-166 32.5q-39 0 -59.5 -14.5t-42.5 -52.5zM367 1434v-1434h-213v1434h213z" />
    <glyph glyph-name="itilde" unicode="&#x129;" horiz-adv-x="466" 
d="M123 1430q35 0 74 -15t67 -33.5t58.5 -33.5t50.5 -15q51 0 82 103l86 -29q-16 -99 -60 -159t-116 -60q-45 0 -94.5 24t-90.5 48t-65 24q-51 0 -82 -102l-86 28q16 100 60 160t116 60zM334 946v-946h-201v946h201z" />
    <glyph glyph-name="Imacron" unicode="&#x12a;" horiz-adv-x="520" 
d="M-41 1688h600v-134h-600v134zM367 1434v-1434h-213v1434h213z" />
    <glyph glyph-name="imacron" unicode="&#x12b;" horiz-adv-x="466" 
d="M449 1374v-143h-431v143h431zM334 946v-946h-201v946h201z" />
    <glyph glyph-name="Ibreve" unicode="&#x12c;" horiz-adv-x="520" 
d="M543 1747q-6 -106 -82.5 -165.5t-200.5 -59.5t-200.5 59.5t-82.5 165.5h144q15 -90 139 -90t139 90h144zM367 1434v-1434h-213v1434h213z" />
    <glyph glyph-name="ibreve" unicode="&#x12d;" horiz-adv-x="466" 
d="M475 1446q0 -139 -62 -219t-180 -80t-179.5 79.5t-61.5 219.5h139q2 -89 23.5 -129.5t78.5 -40.5t79 41t24 129h139zM334 946v-946h-201v946h201z" />
    <glyph glyph-name="Iogonek" unicode="&#x12e;" horiz-adv-x="520" 
d="M264 0q-158 -131 -158 -201q0 -28 19.5 -43.5t56.5 -15.5q39 0 82 12l33 -110q-71 -29 -145 -29q-79 0 -130 40t-51 109q0 64 45 122.5t138 127.5v1422h213v-1434h-103z" />
    <glyph glyph-name="iogonek" unicode="&#x12f;" horiz-adv-x="466" 
d="M121 1434h225v-271h-225v271zM133 37v909h201v-946h-125q-158 -131 -158 -201q0 -28 19.5 -43.5t56.5 -15.5q39 0 82 12l33 -110q-71 -29 -146 -29q-79 0 -129.5 40t-50.5 109t53 131.5t164 143.5z" />
    <glyph glyph-name="Idotaccent" unicode="&#x130;" horiz-adv-x="520" 
d="M360 1747v-225h-202v225h202zM367 1434v-1434h-213v1434h213z" />
    <glyph glyph-name="dotlessi" unicode="&#x131;" horiz-adv-x="466" 
d="M334 946v-946h-201v946h201z" />
    <glyph glyph-name="IJ" unicode="&#x132;" horiz-adv-x="1136" 
d="M367 1434v-1434h-213v1434h213zM983 1434v-1080q0 -188 -76.5 -276t-238.5 -88q-41 0 -97 6v201q31 -2 76 -2q63 0 93 32.5t30 118.5v1088h213z" />
    <glyph glyph-name="ij" unicode="&#x133;" horiz-adv-x="933" 
d="M346 1434v-271h-225v271h225zM813 1434v-271h-225v271h225zM334 946v-946h-201v946h201zM801 946v-987q0 -202 -97.5 -300.5t-275.5 -98.5h-14v196h14q172 0 172 203v987h201z" />
    <glyph glyph-name="Jcircumflex" unicode="&#x134;" horiz-adv-x="616" 
d="M18 1522v8l232 237h213l231 -237v-8h-180l-55 55q-55 55 -74 79.5t-25 53.5h-8q-6 -29 -25 -54t-73 -79l-55 -55h-181zM463 1434v-1080q0 -188 -77 -276t-239 -88q-41 0 -96 6v201q31 -2 76 -2q63 0 93 32.5t30 118.5v1088h213z" />
    <glyph glyph-name="jcircumflex" unicode="&#x135;" horiz-adv-x="466" 
d="M324 1448l155 -311v-4h-147l-49 106q-39 83 -47 135h-5q-8 -52 -47 -135l-49 -106h-147v4l155 311h181zM334 946v-987q0 -202 -97.5 -300.5t-275.5 -98.5h-14v196h14q172 0 172 203v987h201z" />
    <glyph glyph-name="Kcommaaccent" unicode="&#x136;" horiz-adv-x="1261" 
d="M1186 1434l-490 -566q-42 -46 -63 -65.5t-45 -34.5v-8q28 -18 43 -32.5t53 -59.5l567 -668h-286l-609 731l-6 -2q17 -104 17 -240v-489h-213v1434h213v-404q0 -137 -17 -237l6 -5l543 646h287zM778 -104l-164 -336h-106l70 336h200z" />
    <glyph glyph-name="kcommaaccent" unicode="&#x137;" horiz-adv-x="1003" 
d="M334 1464v-747q0 -120 -17 -187l7 -2l364 418h262l-334 -352q-55 -60 -92 -78v-8q31 -16 86 -68l394 -440h-267l-413 481l-7 -4q17 -64 17 -182v-295h-201v1464h201zM647 -104l-164 -336h-106l69 336h201z" />
    <glyph glyph-name="kgreenlandic" unicode="&#x138;" horiz-adv-x="997" 
d="M133 0v946h201v-229q0 -118 -17 -187l7 -2l338 418h256l-304 -350q-48 -55 -82 -80v-6q33 -21 76 -68l389 -442h-270l-403 481l-7 -4q17 -64 17 -182v-295h-201z" />
    <glyph glyph-name="Lacute" unicode="&#x139;" horiz-adv-x="1001" 
d="M592 1747l2 -6l-266 -219h-135l-3 4l179 221h223zM367 1434v-1182q0 -34 -7 -51l5 -4q19 8 51 8h565v-205h-827v1434h213z" />
    <glyph glyph-name="lacute" unicode="&#x13a;" horiz-adv-x="466" 
d="M565 1747l2 -6l-266 -219h-135l-2 4l178 221h223zM334 1464v-1464h-201v1464h201z" />
    <glyph glyph-name="Lcommaaccent" unicode="&#x13b;" horiz-adv-x="1001" 
d="M367 1434v-1182q0 -34 -7 -51l5 -4q19 8 51 8h565v-205h-827v1434h213zM690 -104l-164 -336h-106l69 336h201z" />
    <glyph glyph-name="lcommaaccent" unicode="&#x13c;" horiz-adv-x="466" 
d="M334 1464v-1464h-201v1464h201zM334 -104l-164 -336h-107l70 336h201z" />
    <glyph glyph-name="Lcaron" unicode="&#x13d;" horiz-adv-x="1001" 
d="M614 1495h205l-155 -498h-107zM367 1434v-1182q0 -34 -7 -51l5 -4q19 8 51 8h565v-205h-827v1434h213z" />
    <glyph glyph-name="lcaron" unicode="&#x13e;" horiz-adv-x="696" 
d="M502 1495h205l-156 -416h-107zM334 1464v-1464h-201v1464h201z" />
    <glyph glyph-name="Ldot" unicode="&#x13f;" horiz-adv-x="1001" 
d="M367 1434v-1182q0 -34 -7 -51l5 -4q19 8 51 8h565v-205h-827v1434h213zM618 707v254h234v-254h-234z" />
    <glyph glyph-name="ldot" unicode="&#x140;" horiz-adv-x="679" 
d="M334 1464v-1464h-201v1464h201zM436 692v254h234v-254h-234z" />
    <glyph glyph-name="Lslash" unicode="&#x141;" horiz-adv-x="1001" 
d="M154 0v500q0 54 2 73.5t10 38.5l-4 2q-24 -27 -96 -65l-86 -45v153l174 91v686h213v-492q0 -56 -21 -100l4 -2q4 5 8 9t10 8t9 6.5t12.5 7.5t13.5 7.5t18 9.5t21 11l267 139v-153l-342 -178v-455q0 -34 -7 -51l5 -4q19 8 51 8h565v-205h-827z" />
    <glyph glyph-name="lslash" unicode="&#x142;" horiz-adv-x="569" 
d="M174 0v567q0 61 21 105l-2 2q-26 -29 -66 -49l-107 -58v154l154 82v661h201v-448q0 -93 -23 -135l2 -2q19 22 32 31.5t44 25.5l119 63v-153l-174 -92v-754h-201z" />
    <glyph glyph-name="Nacute" unicode="&#x143;" horiz-adv-x="1511" 
d="M1096 1747l2 -6l-267 -219h-135l-2 4l178 221h224zM172 1454l872 -872q82 -82 113 -160l8 2q-20 78 -20 258v752h213v-1454h-19l-872 872q-82 82 -113 160l-8 -2q21 -82 21 -256v-754h-213v1454h18z" />
    <glyph glyph-name="nacute" unicode="&#x144;" horiz-adv-x="1126" 
d="M926 1448l2 -4l-281 -311h-137l-2 4l192 311h226zM666 977q161 0 249.5 -92.5t88.5 -261.5v-623h-201v565q0 107 -52.5 164t-152.5 57q-126 0 -195 -86.5t-69 -244.5v-455h-201v946h201q0 -125 -21 -217l9 -2q99 250 344 250z" />
    <glyph glyph-name="Ncommaaccent" unicode="&#x145;" horiz-adv-x="1511" 
d="M172 1454l872 -872q82 -82 113 -160l8 2q-20 78 -20 258v752h213v-1454h-19l-872 872q-82 82 -113 160l-8 -2q21 -82 21 -256v-754h-213v1454h18zM901 -104l-164 -336h-106l69 336h201z" />
    <glyph glyph-name="ncommaaccent" unicode="&#x146;" horiz-adv-x="1126" 
d="M666 977q161 0 249.5 -92.5t88.5 -261.5v-623h-201v565q0 107 -52.5 164t-152.5 57q-126 0 -195 -86.5t-69 -244.5v-455h-201v946h201q0 -125 -21 -217l9 -2q99 250 344 250zM670 -104l-164 -336h-107l70 336h201z" />
    <glyph glyph-name="Ncaron" unicode="&#x147;" horiz-adv-x="1511" 
d="M1102 1767v-8l-232 -237h-213l-231 237v8h180l56 -55q70 -73 83 -95q11 -19 15 -38h8q4 20 17.5 41t26 34.5t54.5 57.5l56 55h180zM172 1454l872 -872q82 -82 113 -160l8 2q-20 78 -20 258v752h213v-1454h-19l-872 872q-82 82 -113 160l-8 -2q21 -82 21 -256v-754h-213
v1454h18z" />
    <glyph glyph-name="ncaron" unicode="&#x148;" horiz-adv-x="1126" 
d="M479 1133l-237 311v4h180l76 -107q5 -7 14.5 -21t13 -19t11 -15.5t9.5 -14t7 -11.5t7 -11.5t5 -10t4.5 -11t3 -10t2.5 -11.5h9l4 14t4 12.5t6.5 13.5t7.5 13t10.5 16.5t12 18t15.5 22t18 25.5l75 107h181v-4l-238 -311h-201zM666 977q161 0 249.5 -92.5t88.5 -261.5v-623
h-201v565q0 107 -52.5 164t-152.5 57q-126 0 -195 -86.5t-69 -244.5v-455h-201v946h201q0 -125 -21 -217l9 -2q99 250 344 250z" />
    <glyph glyph-name="napostrophe" unicode="&#x149;" horiz-adv-x="1126" 
d="M10 1495h205l-156 -498h-106zM666 977q161 0 249.5 -92.5t88.5 -261.5v-623h-201v565q0 107 -52.5 164t-152.5 57q-126 0 -195 -86.5t-69 -244.5v-455h-201v946h201q0 -125 -21 -217l9 -2q99 250 344 250z" />
    <glyph glyph-name="Eng" unicode="&#x14a;" horiz-adv-x="1511" 
d="M1145 1434h213v-1454v-13q0 -199 -90 -288t-262 -89h-109v205h107q76 0 108.5 40.5t32.5 131.5v207l-678 678q-82 82 -113 160l-8 -2q21 -82 21 -256v-754h-213v1454h18l872 -872q82 -82 113 -160l8 2q-20 78 -20 258v752z" />
    <glyph glyph-name="eng" unicode="&#x14b;" horiz-adv-x="1126" 
d="M666 977q161 0 249.5 -92.5t88.5 -261.5v-684q0 -172 -87 -260.5t-245 -88.5h-109v197h107q133 0 133 152v626q0 107 -52.5 164t-152.5 57q-126 0 -195 -86.5t-69 -244.5v-455h-201v946h201q0 -125 -21 -217l9 -2q99 250 344 250z" />
    <glyph glyph-name="Omacron" unicode="&#x14c;" horiz-adv-x="1638" 
d="M518 1688h600v-134h-600v134zM819 1464q214 0 385 -95.5t267 -266.5t96 -385t-96 -385t-267 -267t-385 -96t-385 96t-266.5 267t-95.5 385q0 160 56 299t154.5 237.5t237.5 154.5t299 56zM819 1247q-226 0 -370 -149t-144 -381t144.5 -381.5t369.5 -149.5t369.5 149.5
t144.5 381.5t-144 381t-370 149z" />
    <glyph glyph-name="omacron" unicode="&#x14d;" horiz-adv-x="1159" 
d="M877 1374v-143h-594v143h594zM580 977q224 0 371 -143.5t147 -360.5t-147 -360.5t-371 -143.5t-371.5 143.5t-147.5 360.5t147.5 360.5t371.5 143.5zM580 780q-137 0 -221.5 -84.5t-84.5 -222.5t84.5 -222.5t221.5 -84.5t221 84.5t84 222.5t-84 222.5t-221 84.5z" />
    <glyph glyph-name="Obreve" unicode="&#x14e;" horiz-adv-x="1638" 
d="M1102 1747q-6 -106 -82.5 -165.5t-200.5 -59.5t-200 59.5t-82 165.5h143q15 -90 139 -90t139 90h144zM819 1464q214 0 385 -95.5t267 -266.5t96 -385t-96 -385t-267 -267t-385 -96t-385 96t-266.5 267t-95.5 385q0 160 56 299t154.5 237.5t237.5 154.5t299 56zM819 1247
q-226 0 -370 -149t-144 -381t144.5 -381.5t369.5 -149.5t369.5 149.5t144.5 381.5t-144 381t-370 149z" />
    <glyph glyph-name="obreve" unicode="&#x14f;" horiz-adv-x="1159" 
d="M862 1446q0 -141 -78 -220t-204 -79t-204.5 79t-78.5 220h139q6 -164 144 -164q137 0 143 164h139zM580 977q224 0 371 -143.5t147 -360.5t-147 -360.5t-371 -143.5t-371.5 143.5t-147.5 360.5t147.5 360.5t371.5 143.5zM580 780q-137 0 -221.5 -84.5t-84.5 -222.5
t84.5 -222.5t221.5 -84.5t221 84.5t84 222.5t-84 222.5t-221 84.5z" />
    <glyph glyph-name="Ohungarumlaut" unicode="&#x150;" horiz-adv-x="1638" 
d="M975 1747l2 -6l-209 -219h-139v4l194 221h152zM879 1526l194 221h152l2 -6l-209 -219h-137zM819 1464q214 0 385 -95.5t267 -266.5t96 -385t-96 -385t-267 -267t-385 -96t-385 96t-266.5 267t-95.5 385q0 160 56 299t154.5 237.5t237.5 154.5t299 56zM819 1247
q-226 0 -370 -149t-144 -381t144.5 -381.5t369.5 -149.5t369.5 149.5t144.5 381.5t-144 381t-370 149z" />
    <glyph glyph-name="ohungarumlaut" unicode="&#x151;" horiz-adv-x="1159" 
d="M344 1133l-2 4l236 311h165l2 -4l-249 -311h-152zM647 1133l-2 4l234 311h165l3 -4l-250 -311h-150zM580 977q224 0 371 -143.5t147 -360.5t-147 -360.5t-371 -143.5t-371.5 143.5t-147.5 360.5t147.5 360.5t371.5 143.5zM580 780q-137 0 -221.5 -84.5t-84.5 -222.5
t84.5 -222.5t221.5 -84.5t221 84.5t84 222.5t-84 222.5t-221 84.5z" />
    <glyph glyph-name="OE" unicode="&#x152;" horiz-adv-x="2250" 
d="M799 -31q-205 0 -371 94.5t-261 266t-95 387.5q0 162 55.5 302t152.5 237t231 152.5t288 55.5q179 0 311.5 -56t230.5 -173l5 2q-9 39 -9 100v97h813v-201h-551q-32 0 -51 8l-4 -4q6 -15 6 -53v-256q0 -36 -6 -51l4 -5q21 9 51 9h484v-201h-484q-32 0 -51 8l-4 -4
q6 -15 6 -53v-381q0 -38 -6 -53l4 -4q19 8 51 8h560v-201h-822v102q0 64 9 101l-3 2q-101 -119 -234 -177.5t-310 -58.5zM819 186q228 0 373 150t145 381t-145 380.5t-373 149.5q-226 0 -370 -149.5t-144 -380.5t144 -381t370 -150z" />
    <glyph glyph-name="oe" unicode="&#x153;" horiz-adv-x="1867" 
d="M573 -31q-224 0 -368 141t-144 363t144 363t370 141q271 0 392 -223h8q114 223 373 223q218 0 338 -137.5t120 -366.5v-39h-604q-91 0 -125 15l-4 -5l8 -22q15 -130 94 -197t207 -67q89 0 152 35.5t125 105.5l123 -133q-78 -96 -175.5 -146.5t-232.5 -50.5
q-282 0 -403 236h-8q-62 -116 -155 -176t-235 -60zM1083 563q40 19 117 19h242q123 0 151 -17l4 4q-16 118 -85.5 175t-172.5 57q-44 0 -82.5 -10.5t-76.5 -35.5t-64.5 -73t-36.5 -115zM569 166q126 0 210.5 84.5t84.5 222.5t-84.5 222.5t-210.5 84.5t-210.5 -84.5
t-84.5 -222.5t84.5 -222.5t210.5 -84.5z" />
    <glyph glyph-name="Racute" unicode="&#x154;" horiz-adv-x="1226" 
d="M885 1747l2 -6l-266 -219h-136l-2 4l179 221h223zM623 1434q202 0 321 -107t119 -293q0 -84 -33 -156.5t-85 -120t-114.5 -74t-123.5 -26.5q-30 0 -72 11v-9q40 -13 74 -40t73 -76l435 -543h-277l-506 641h-20q-33 0 -49 8l-5 -4q7 -21 7 -55v-590h-213v1434h469z
M365 1241l-5 -4q7 -18 7 -53v-291q0 -33 -7 -51l5 -4q19 8 51 8h209q100 0 154.5 49.5t54.5 140.5q0 89 -53.5 143t-155.5 54h-209q-32 0 -51 8z" />
    <glyph glyph-name="racute" unicode="&#x155;" horiz-adv-x="716" 
d="M741 1448l2 -4l-280 -311h-137l-2 4l192 311h225zM651 975q21 0 35 -2v-232q-37 4 -65 4q-141 0 -214 -84t-73 -245v-416h-201v946h201q0 -111 -25 -250l10 -2q74 281 332 281z" />
    <glyph glyph-name="Rcommaaccent" unicode="&#x156;" horiz-adv-x="1226" 
d="M623 1434q202 0 321 -107t119 -293q0 -84 -33 -156.5t-85 -120t-114.5 -74t-123.5 -26.5q-30 0 -72 11v-9q40 -13 74 -40t73 -76l435 -543h-277l-506 641h-20q-33 0 -49 8l-5 -4q7 -21 7 -55v-590h-213v1434h469zM365 1241l-5 -4q7 -18 7 -53v-291q0 -33 -7 -51l5 -4
q19 8 51 8h209q100 0 154.5 49.5t54.5 140.5q0 89 -53.5 143t-155.5 54h-209q-32 0 -51 8zM764 -104l-164 -336h-106l69 336h201z" />
    <glyph glyph-name="rcommaaccent" unicode="&#x157;" horiz-adv-x="716" 
d="M651 975q21 0 35 -2v-232q-37 4 -65 4q-141 0 -214 -84t-73 -245v-416h-201v946h201q0 -111 -25 -250l10 -2q74 281 332 281zM334 -104l-164 -336h-107l70 336h201z" />
    <glyph glyph-name="Rcaron" unicode="&#x158;" horiz-adv-x="1226" 
d="M891 1767v-8l-232 -237h-213l-231 237v8h180l56 -55q70 -73 83 -95q11 -19 15 -38h8q4 20 17.5 41t26 34.5t54.5 57.5l56 55h180zM623 1434q202 0 321 -107t119 -293q0 -84 -33 -156.5t-85 -120t-114.5 -74t-123.5 -26.5q-30 0 -72 11v-9q40 -13 74 -40t73 -76l435 -543
h-277l-506 641h-20q-33 0 -49 8l-5 -4q7 -21 7 -55v-590h-213v1434h469zM365 1241l-5 -4q7 -18 7 -53v-291q0 -33 -7 -51l5 -4q19 8 51 8h209q100 0 154.5 49.5t54.5 140.5q0 89 -53.5 143t-155.5 54h-209q-32 0 -51 8z" />
    <glyph glyph-name="rcaron" unicode="&#x159;" horiz-adv-x="716" 
d="M295 1133l-238 311v4h181l75 -107q7 -10 18 -25.5t15.5 -22t12 -18t10.5 -16.5t7.5 -13t6.5 -13.5t4 -12.5l4 -14h8l4 14t4 12.5t6.5 13.5t7.5 13t10.5 16.5t12 18t15.5 22t18 25.5l76 107h180v-4l-237 -311h-201zM651 975q21 0 35 -2v-232q-37 4 -65 4q-141 0 -214 -84
t-73 -245v-416h-201v946h201q0 -111 -25 -250l10 -2q74 281 332 281z" />
    <glyph glyph-name="Sacute" unicode="&#x15a;" horiz-adv-x="1013" 
d="M879 1747l2 -6l-267 -219h-135l-2 4l178 221h224zM532 1464q191 0 379 -96l-96 -203q-147 84 -289 84q-164 0 -164 -123q0 -48 26 -87t85 -85l256 -196q115 -88 169 -178t54 -209q0 -192 -124.5 -297t-333.5 -105q-129 0 -250 37t-213 96l96 201q203 -117 369 -117
q111 0 169 48t58 124q0 58 -35.5 109t-114.5 113l-243 192q-98 77 -148.5 159t-50.5 187q0 159 106.5 252.5t294.5 93.5z" />
    <glyph glyph-name="sacute" unicode="&#x15b;" horiz-adv-x="845" 
d="M795 1448l2 -4l-281 -311h-137l-2 4l192 311h226zM428 -31q-212 0 -387 101l90 178q156 -90 301 -90q148 0 148 90q0 32 -22.5 56t-76.5 50l-172 84q-200 96 -200 275q0 125 87.5 194.5t245.5 69.5t330 -74l-82 -174q-148 62 -252 62q-60 0 -88 -18t-28 -56
q0 -34 24 -59.5t82 -53.5l176 -84q100 -47 145.5 -110t45.5 -154q0 -135 -97 -211t-270 -76z" />
    <glyph glyph-name="Scircumflex" unicode="&#x15c;" horiz-adv-x="1013" 
d="M209 1522v8l231 237h213l232 -237v-8h-180l-56 55q-54 54 -73 79t-25 54h-8q-6 -29 -25 -53.5t-74 -79.5l-55 -55h-180zM532 1464q191 0 379 -96l-96 -203q-147 84 -289 84q-164 0 -164 -123q0 -48 26 -87t85 -85l256 -196q115 -88 169 -178t54 -209q0 -192 -124.5 -297
t-333.5 -105q-129 0 -250 37t-213 96l96 201q203 -117 369 -117q111 0 169 48t58 124q0 58 -35.5 109t-114.5 113l-243 192q-98 77 -148.5 159t-50.5 187q0 159 106.5 252.5t294.5 93.5z" />
    <glyph glyph-name="scircumflex" unicode="&#x15d;" horiz-adv-x="845" 
d="M549 1448l227 -311v-4h-168l-76 106q-47 68 -60.5 91.5t-20.5 53.5h-5q-7 -30 -20.5 -53.5t-60.5 -91.5l-76 -106h-168v4l227 311h201zM428 -31q-212 0 -387 101l90 178q156 -90 301 -90q148 0 148 90q0 32 -22.5 56t-76.5 50l-172 84q-200 96 -200 275q0 125 87.5 194.5
t245.5 69.5t330 -74l-82 -174q-148 62 -252 62q-60 0 -88 -18t-28 -56q0 -34 24 -59.5t82 -53.5l176 -84q100 -47 145.5 -110t45.5 -154q0 -135 -97 -211t-270 -76z" />
    <glyph glyph-name="Scedilla" unicode="&#x15e;" horiz-adv-x="1013" 
d="M952 371q0 -179 -108.5 -282.5t-294.5 -117.5l-14 -41q85 -24 134.5 -58.5t49.5 -90.5q0 -32 -19 -64t-44.5 -54.5t-69 -48.5t-73 -40.5t-77.5 -36.5l-30 66q98 57 121 78q28 24 28 47q0 51 -145 86l57 155q-122 4 -236 41t-200 92l96 201q203 -117 369 -117
q111 0 169 48t58 124q0 58 -35.5 109t-114.5 113l-243 192q-98 77 -148.5 159t-50.5 187q0 159 106.5 252.5t294.5 93.5q191 0 379 -96l-96 -203q-147 84 -289 84q-164 0 -164 -123q0 -48 26 -87t85 -85l256 -196q115 -88 169 -178t54 -209z" />
    <glyph glyph-name="scedilla" unicode="&#x15f;" horiz-adv-x="845" 
d="M795 256q0 -124 -82 -198.5t-232 -86.5l-14 -41q85 -24 134.5 -58.5t49.5 -90.5q0 -32 -19 -63.5t-44 -54.5t-68.5 -49t-73.5 -40.5t-77 -36.5l-31 66q98 57 121 78q28 24 28 47q0 51 -145 86l57 155q-203 9 -358 101l90 178q156 -90 301 -90q148 0 148 90q0 32 -22.5 56
t-76.5 50l-172 84q-200 96 -200 275q0 125 87.5 194.5t245.5 69.5t330 -74l-82 -174q-148 62 -252 62q-60 0 -88 -18t-28 -56q0 -34 24 -59.5t82 -53.5l176 -84q100 -47 145.5 -110t45.5 -154z" />
    <glyph glyph-name="Scaron" unicode="&#x160;" horiz-adv-x="1013" 
d="M885 1767v-8l-232 -237h-213l-231 237v8h180l55 -55q70 -73 83 -94q12 -19 16 -39h8q4 20 17.5 41t26 34.5t54.5 57.5l56 55h180zM532 1464q191 0 379 -96l-96 -203q-147 84 -289 84q-164 0 -164 -123q0 -48 26 -87t85 -85l256 -196q115 -88 169 -178t54 -209
q0 -192 -124.5 -297t-333.5 -105q-129 0 -250 37t-213 96l96 201q203 -117 369 -117q111 0 169 48t58 124q0 58 -35.5 109t-114.5 113l-243 192q-98 77 -148.5 159t-50.5 187q0 159 106.5 252.5t294.5 93.5z" />
    <glyph glyph-name="scaron" unicode="&#x161;" horiz-adv-x="845" 
d="M348 1133l-237 311v4h180l76 -107q5 -7 14.5 -21t13 -19t11 -15.5t9.5 -14t7 -11.5t7 -11.5t5 -10t4.5 -11t3 -10t2.5 -11.5h9q1 6 2.5 11.5t3 10t4.5 11t5 10t7 11.5t7 11.5t9.5 14t11 15.5t13 19t14.5 21l76 107h180v-4l-237 -311h-201zM428 -31q-212 0 -387 101
l90 178q156 -90 301 -90q148 0 148 90q0 32 -22.5 56t-76.5 50l-172 84q-200 96 -200 275q0 125 87.5 194.5t245.5 69.5t330 -74l-82 -174q-148 62 -252 62q-60 0 -88 -18t-28 -56q0 -34 24 -59.5t82 -53.5l176 -84q100 -47 145.5 -110t45.5 -154q0 -135 -97 -211t-270 -76z
" />
    <glyph glyph-name="uni0162" unicode="&#x162;" horiz-adv-x="1064" 
d="M688 1229q-32 0 -51 8l-4 -4q6 -15 6 -51v-1182h-66l-24 -70q85 -24 134.5 -58.5t49.5 -90.5q0 -32 -19 -63.5t-44 -54.5t-68.5 -49t-73.5 -40.5t-77 -36.5l-31 66q98 57 121 78q28 24 28 47q0 51 -145 86l68 186h-66v1182q0 36 6 51l-4 4q-19 -8 -51 -8h-357v205h1024
v-205h-356z" />
    <glyph glyph-name="uni0163" unicode="&#x163;" horiz-adv-x="643" 
d="M498 754q-63 0 -84 16l-6 -4q8 -35 8 -111v-655h-60l-24 -70q85 -24 134.5 -58.5t49.5 -90.5q0 -32 -19 -64t-44.5 -54.5t-69 -48.5t-73 -40.5t-77.5 -36.5l-30 66q98 57 121 78q28 24 28 47q0 51 -145 86l67 186h-59v655q0 76 8 111l-6 4q-19 -16 -84 -16h-82v192h82
q65 0 84 -16l6 4q-8 37 -8 108v273l188 137h13v-410q0 -71 -8 -108l6 -4q21 16 84 16h94v-192h-94z" />
    <glyph glyph-name="Tcaron" unicode="&#x164;" horiz-adv-x="1064" 
d="M872 1767v-8l-231 -237h-213l-231 237v8h180l55 -55q70 -73 83 -95q11 -19 15 -38h9q4 20 17.5 41t26 34.5t54.5 57.5l55 55h180zM1044 1434v-205h-356q-32 0 -51 8l-4 -4q6 -15 6 -51v-1182h-213v1182q0 36 6 51l-4 4q-19 -8 -51 -8h-357v205h1024z" />
    <glyph glyph-name="tcaron" unicode="&#x165;" horiz-adv-x="839" 
d="M625 1495h204l-155 -416h-107zM416 1452v-410q0 -71 -8 -108l6 -4q21 16 84 16h94v-192h-94q-63 0 -84 16l-6 -4q8 -35 8 -111v-655h-201v655q0 76 8 111l-6 4q-19 -16 -84 -16h-82v192h82q65 0 84 -16l6 4q-8 37 -8 108v273l188 137h13z" />
    <glyph glyph-name="Tbar" unicode="&#x166;" horiz-adv-x="1064" 
d="M686 1233q-32 0 -51 8l-4 -4q6 -15 6 -51v-195q0 -37 -4 -47l4 -4q12 6 39 6h246v-176h-246q-23 0 -39 4l-4 -2q4 -10 4 -49v-723h-209v723q0 39 4 49l-4 2q-16 -4 -39 -4h-244v176h244q27 0 39 -6l4 4q-4 10 -4 47v195q0 36 6 51l-4 4q-19 -8 -51 -8h-359v201h1024v-201
h-358z" />
    <glyph glyph-name="tbar" unicode="&#x167;" horiz-adv-x="643" 
d="M215 0v440q0 40 4 52l-4 4q-12 -9 -41 -9h-115v123h115q29 0 41 -6l4 4q-4 10 -4 58v30q0 34 8 70l-6 4q-19 -16 -84 -16h-82v192h82q65 0 84 -16l6 4q-8 37 -8 108v273l188 137h13v-410q0 -71 -8 -108l6 -4q21 16 84 16h94v-192h-94q-63 0 -84 16l-6 -4q8 -39 8 -70v-30
q0 -48 -4 -58l4 -4q15 6 43 6h123v-123h-123q-31 0 -43 9l-4 -4q4 -12 4 -52v-440h-201z" />
    <glyph glyph-name="Utilde" unicode="&#x168;" horiz-adv-x="1396" 
d="M428 1520l-82 22q54 205 217 205q54 0 174 -33t168 -33q38 0 60 15.5t43 52.5l79 -23q-54 -204 -215 -204q-56 0 -176 32.5t-166 32.5q-39 0 -59.5 -14.5t-42.5 -52.5zM1264 1434v-895q0 -261 -154 -414.5t-412 -153.5t-411.5 153.5t-153.5 414.5v895h221v-891
q0 -167 93.5 -261t250.5 -94t250.5 94t93.5 261v891h222z" />
    <glyph glyph-name="utilde" unicode="&#x169;" horiz-adv-x="1073" 
d="M393 1430q52 0 114 -24t116.5 -48.5t87.5 -24.5q67 0 108 103l86 -29q-46 -219 -209 -219q-52 0 -113.5 24t-116 48t-87.5 24q-35 0 -61 -24t-48 -78l-86 28q46 220 209 220zM950 946v-946h-198q0 107 22 197l-8 2q-50 -118 -129 -174t-197 -56q-154 0 -240.5 102
t-86.5 283v592h204v-555q0 -112 53 -171.5t152 -59.5q109 0 168.5 85.5t59.5 243.5v457h200z" />
    <glyph glyph-name="Umacron" unicode="&#x16a;" horiz-adv-x="1396" 
d="M397 1688h600v-134h-600v134zM1264 1434v-895q0 -261 -154 -414.5t-412 -153.5t-411.5 153.5t-153.5 414.5v895h221v-891q0 -167 93.5 -261t250.5 -94t250.5 94t93.5 261v891h222z" />
    <glyph glyph-name="umacron" unicode="&#x16b;" horiz-adv-x="1073" 
d="M831 1374v-143h-593v143h593zM950 946v-946h-198q0 107 22 197l-8 2q-50 -118 -129 -174t-197 -56q-154 0 -240.5 102t-86.5 283v592h204v-555q0 -112 53 -171.5t152 -59.5q109 0 168.5 85.5t59.5 243.5v457h200z" />
    <glyph glyph-name="Ubreve" unicode="&#x16c;" horiz-adv-x="1396" 
d="M981 1747q-6 -106 -82.5 -165.5t-200.5 -59.5t-200 59.5t-82 165.5h143q15 -90 139 -90q125 0 140 90h143zM1264 1434v-895q0 -261 -154 -414.5t-412 -153.5t-411.5 153.5t-153.5 414.5v895h221v-891q0 -167 93.5 -261t250.5 -94t250.5 94t93.5 261v891h222z" />
    <glyph glyph-name="ubreve" unicode="&#x16d;" horiz-adv-x="1073" 
d="M817 1446q0 -141 -78 -220t-204 -79t-204.5 79t-78.5 220h139q6 -164 144 -164q137 0 143 164h139zM950 946v-946h-198q0 107 22 197l-8 2q-50 -118 -129 -174t-197 -56q-154 0 -240.5 102t-86.5 283v592h204v-555q0 -112 53 -171.5t152 -59.5q109 0 168.5 85.5
t59.5 243.5v457h200z" />
    <glyph glyph-name="Uring" unicode="&#x16e;" horiz-adv-x="1396" 
d="M698 1372q-104 0 -171.5 66.5t-67.5 169.5t67.5 169t171.5 66t172 -66t68 -169t-68 -169.5t-172 -66.5zM698 1473q60 0 98 37.5t38 97.5t-38 97.5t-98 37.5t-97.5 -37.5t-37.5 -97.5t37.5 -97.5t97.5 -37.5zM1264 1434v-895q0 -261 -154 -414.5t-412 -153.5t-411.5 153.5
t-153.5 414.5v895h221v-891q0 -167 93.5 -261t250.5 -94t250.5 94t93.5 261v891h222z" />
    <glyph glyph-name="uring" unicode="&#x16f;" horiz-adv-x="1073" 
d="M535 1530q106 0 174.5 -68t68.5 -172t-68.5 -171.5t-174.5 -67.5t-175 67.5t-69 171.5t69 172t175 68zM535 1434q-64 0 -104 -41t-40 -103t40 -102.5t104 -40.5t103.5 40.5t39.5 102.5t-39.5 103t-103.5 41zM950 946v-946h-198q0 107 22 197l-8 2q-50 -118 -129 -174
t-197 -56q-154 0 -240.5 102t-86.5 283v592h204v-555q0 -112 53 -171.5t152 -59.5q109 0 168.5 85.5t59.5 243.5v457h200z" />
    <glyph glyph-name="Uhungarumlaut" unicode="&#x170;" horiz-adv-x="1396" 
d="M854 1747l2 -6l-209 -219h-139v4l194 221h152zM758 1526l194 221h152l2 -6l-209 -219h-137zM1264 1434v-895q0 -261 -154 -414.5t-412 -153.5t-411.5 153.5t-153.5 414.5v895h221v-891q0 -167 93.5 -261t250.5 -94t250.5 94t93.5 261v891h222z" />
    <glyph glyph-name="uhungarumlaut" unicode="&#x171;" horiz-adv-x="1073" 
d="M299 1133l-2 4l235 311h166l2 -4l-249 -311h-152zM602 1133l-2 4l234 311h165l2 -4l-249 -311h-150zM950 946v-946h-198q0 107 22 197l-8 2q-50 -118 -129 -174t-197 -56q-154 0 -240.5 102t-86.5 283v592h204v-555q0 -112 53 -171.5t152 -59.5q109 0 168.5 85.5
t59.5 243.5v457h200z" />
    <glyph glyph-name="Uogonek" unicode="&#x172;" horiz-adv-x="1396" 
d="M1042 1434h222v-895q0 -190 -83.5 -325.5t-234.5 -197.5q-92 -74 -135 -125.5t-43 -91.5q0 -28 19.5 -43.5t56.5 -15.5q38 0 82 12l32 -110q-71 -29 -145 -29q-79 0 -129.5 40t-50.5 109q0 55 33.5 105.5t101.5 107.5q-46 -4 -70 -4q-258 0 -411.5 153.5t-153.5 414.5
v895h221v-891q0 -167 93.5 -261t250.5 -94t250.5 94t93.5 261v891z" />
    <glyph glyph-name="uogonek" unicode="&#x173;" horiz-adv-x="1073" 
d="M838 0q-158 -131 -158 -201q0 -28 19.5 -43.5t56.5 -15.5q38 0 82 12l32 -110q-71 -29 -145 -29q-79 0 -129.5 40t-50.5 109q0 68 51 130t156 139q3 88 22 166l-8 2q-50 -118 -129 -174t-197 -56q-154 0 -240.5 102t-86.5 283v592h204v-555q0 -112 53 -171.5t152 -59.5
q109 0 168.5 85.5t59.5 243.5v457h200v-946h-112z" />
    <glyph glyph-name="Wcircumflex" unicode="&#x174;" horiz-adv-x="1949" 
d="M637 1522v8l231 237h213l232 -237v-8h-180l-56 55q-54 54 -73 79t-25 54h-8q-6 -29 -25 -53.5t-74 -79.5l-55 -55h-180zM989 1454l287 -766q42 -113 55 -159.5t19 -108.5h8q6 61 19.5 111.5t49.5 154.5l259 748h243l-563 -1454h-25l-325 839q-31 81 -37 176h-8
q-6 -95 -37 -176l-326 -839h-24l-564 1454h244l258 -748q37 -107 50.5 -156.5t19.5 -109.5h8q6 62 19 108.5t55 159.5l287 766h28z" />
    <glyph glyph-name="wcircumflex" unicode="&#x175;" horiz-adv-x="1445" 
d="M823 1448l228 -311v-4h-168l-76 106q-48 70 -61.5 93t-20.5 52h-4q-7 -29 -20.5 -52t-61.5 -93l-76 -106h-168v4l228 311h200zM410 -10l-390 956h226l153 -428q37 -104 41 -168h9q4 29 12 55.5t15.5 45.5t29.5 71l190 439h54l190 -439q22 -52 29.5 -71t15.5 -45.5
t12 -55.5h9q4 64 41 168l153 428h225l-389 -956h-53l-213 477q-38 83 -43 139h-8q-5 -56 -43 -139l-213 -477h-53z" />
    <glyph glyph-name="Ycircumflex" unicode="&#x176;" horiz-adv-x="1146" 
d="M236 1522v8l231 237h213l231 -237v-8h-180l-55 55q-54 54 -73 79t-25 54h-9q-6 -29 -25 -54t-73 -79l-55 -55h-180zM1137 1434l-457 -861v-573h-213v573l-457 861h252l211 -441q56 -117 72 -156t26 -92h4q9 49 25 89t58 127q10 21 16 32l211 441h252z" />
    <glyph glyph-name="ycircumflex" unicode="&#x177;" horiz-adv-x="1015" 
d="M614 1448l228 -311v-4h-168l-76 106q-48 70 -61.5 93t-20.5 52h-4q-7 -29 -20.5 -52t-61.5 -93l-76 -106h-168v4l228 311h200zM995 946l-571 -1358h-209l201 473l-396 885h230l215 -522q41 -99 43 -184h8q3 74 35 151l225 555h219z" />
    <glyph glyph-name="Ydieresis" unicode="&#x178;" horiz-adv-x="1146" 
d="M305 1747h184v-225h-184v225zM657 1747h185v-225h-185v225zM1137 1434l-457 -861v-573h-213v573l-457 861h252l211 -441q56 -117 72 -156t26 -92h4q9 49 25 89t58 127q10 21 16 32l211 441h252z" />
    <glyph glyph-name="Zacute" unicode="&#x179;" horiz-adv-x="1196" 
d="M985 1747l2 -6l-266 -219h-135l-2 4l178 221h223zM1161 1434l4 -11l-792 -1245l4 -6q22 21 49.5 29t79.5 8h655l-108 -209h-1026l-7 10l795 1243l-4 7q-47 -35 -158 -35h-547l105 209h950z" />
    <glyph glyph-name="zacute" unicode="&#x17a;" horiz-adv-x="929" 
d="M877 1448l2 -4l-281 -311h-137l-2 4l192 311h226zM16 0l-6 10l580 776l-4 7q-43 -24 -79.5 -30.5t-111.5 -6.5h-327l118 190h729l5 -8l-570 -778l4 -6q35 23 78.5 29.5t142.5 6.5h343l-117 -190h-785z" />
    <glyph glyph-name="Zdotaccent" unicode="&#x17b;" horiz-adv-x="1196" 
d="M754 1747v-225h-203v225h203zM1161 1434l4 -11l-792 -1245l4 -6q22 21 49.5 29t79.5 8h655l-108 -209h-1026l-7 10l795 1243l-4 7q-47 -35 -158 -35h-547l105 209h950z" />
    <glyph glyph-name="zdotaccent" unicode="&#x17c;" horiz-adv-x="929" 
d="M643 1434v-271h-225v271h225zM16 0l-6 10l580 776l-4 7q-43 -24 -79.5 -30.5t-111.5 -6.5h-327l118 190h729l5 -8l-570 -778l4 -6q35 23 78.5 29.5t142.5 6.5h343l-117 -190h-785z" />
    <glyph glyph-name="Zcaron" unicode="&#x17d;" horiz-adv-x="1196" 
d="M991 1767v-8l-231 -237h-213l-232 237v8h181l55 -55q70 -73 83 -95q11 -19 15 -38h8q5 26 21 47t62 69q10 11 16 17l55 55h180zM1161 1434l4 -11l-792 -1245l4 -6q22 21 49.5 29t79.5 8h655l-108 -209h-1026l-7 10l795 1243l-4 7q-47 -35 -158 -35h-547l105 209h950z" />
    <glyph glyph-name="zcaron" unicode="&#x17e;" horiz-adv-x="929" 
d="M430 1133l-237 311v4h180l76 -107q5 -7 14.5 -21t13 -19t11 -15.5t9.5 -14t7 -11.5t7 -11.5t5 -10t4.5 -11t3 -10t2.5 -11.5h9q1 6 2.5 11.5t3 10t4.5 11t5 10t7 11.5t7 11.5t9.5 14t11 15.5t13 19t14.5 21l76 107h180v-4l-237 -311h-201zM16 0l-6 10l580 776l-4 7
q-43 -24 -79.5 -30.5t-111.5 -6.5h-327l118 190h729l5 -8l-570 -778l4 -6q35 23 78.5 29.5t142.5 6.5h343l-117 -190h-785z" />
    <glyph glyph-name="florin" unicode="&#x192;" horiz-adv-x="774" 
d="M643 1399q16 0 90 -4v-185q-62 4 -82 4q-180 0 -180 -186v-24q0 -46 -4 -62l2 -2q24 6 63 6h195v-61h-195q-27 0 -63 6l-2 -2q4 -66 4 -103v-823q0 -375 -324 -375q-33 0 -106 6v181q33 -4 98 -4q69 0 102 42.5t33 133.5v839q0 20 5 103l-3 2q-30 -6 -63 -6h-156v61h156
q48 0 63 -6l3 2q-5 40 -5 55v11q0 391 369 391z" />
    <glyph glyph-name="AEacute" unicode="&#x1fc;" horiz-adv-x="1882" 
d="M1456 1522h-135l-2 4l178 221h223l2 -6zM1290 203h500v-203h-752v328q0 38 6 53l-4 4q-19 -8 -51 -8h-473l-237 -377h-259l936 1434h826v-203h-492q-32 0 -51 8l-4 -4q6 -15 6 -53v-254q0 -36 -6 -51l4 -5q21 9 51 9h443v-203h-443q-32 0 -51 8l-4 -4q6 -15 6 -53v-377
q0 -38 -6 -53l4 -4q19 8 51 8zM1044 555q-6 15 -6 51v502q0 64 13 160h-2q-31 -92 -74 -160l-291 -463q-25 -39 -40.5 -58t-41.5 -36l2 -4q35 12 101 12h284q35 0 51 -8z" />
    <glyph glyph-name="aeacute" unicode="&#x1fd;" horiz-adv-x="1693" 
d="M1194 1448l2 -4l-281 -311h-137l-2 4l193 311h225zM424 -31q-162 0 -262.5 94t-100.5 246q0 146 96 236t251 90q100 0 181 -41.5t128 -116.5l6 4q-11 38 -16 133q-12 177 -218 177q-109 0 -274 -52l-55 181q186 57 348 57q135 0 210 -42.5t109 -139.5h4q116 182 355 182
q207 0 326.5 -135.5t119.5 -368.5v-39h-608q-88 0 -123 12l-2 -4l2 -14q17 -130 93 -199t202 -69q84 0 150.5 32t136.5 107l123 -133q-159 -197 -408 -197q-142 0 -249 66t-150 180h-6q-41 -116 -139 -181t-230 -65zM909 565q40 21 115 21h242q107 0 153 -19l4 4
q-11 106 -76 165t-173 59q-110 0 -182 -60t-87 -166zM477 133q94 0 153.5 47t59.5 121t-59.5 121t-153.5 47q-92 0 -148.5 -46.5t-56.5 -121.5t56.5 -121.5t148.5 -46.5z" />
    <glyph glyph-name="Oslashacute" unicode="&#x1fe;" horiz-adv-x="1638" 
d="M887 1522h-135l-2 4l178 221h223l2 -6zM1286 1313q133 -101 207 -255.5t74 -340.5q0 -214 -96 -385t-267 -267t-385 -96q-228 0 -407 109l-76 -107l-60 41l76 107q-132 101 -206 256t-74 342q0 160 56 299t154.5 237.5t237.5 154.5t299 56q231 0 408 -108l76 106l59 -43z
M305 717q0 -128 46.5 -234.5t131.5 -179.5l615 868q-124 76 -279 76q-226 0 -370 -149t-144 -381zM819 186q225 0 369.5 149.5t144.5 381.5q0 128 -46 234t-130 177l-616 -866q124 -76 278 -76z" />
    <glyph glyph-name="oslashacute" unicode="&#x1ff;" horiz-adv-x="1159" 
d="M653 1133h-137l-2 4l193 311h225l2 -4zM950 834q148 -145 148 -361q0 -217 -147 -360.5t-371 -143.5q-175 0 -312 94l-80 -92l-59 47l82 93q-150 144 -150 362q0 217 147.5 360.5t371.5 143.5q174 0 311 -94l82 94l59 -49zM274 473q0 -124 72 -209l410 467
q-70 49 -176 49q-137 0 -221.5 -84.5t-84.5 -222.5zM580 166q137 0 221 84.5t84 222.5q0 128 -70 207l-412 -465q70 -49 177 -49z" />
    <glyph glyph-name="Scommaaccent" unicode="&#x218;" horiz-adv-x="1013" 
d="M532 1464q191 0 379 -96l-96 -203q-147 84 -289 84q-164 0 -164 -123q0 -48 26 -87t85 -85l256 -196q115 -88 169 -178t54 -209q0 -192 -124.5 -297t-333.5 -105q-129 0 -250 37t-213 96l96 201q203 -117 369 -117q111 0 169 48t58 124q0 58 -35.5 109t-114.5 113
l-243 192q-98 77 -148.5 159t-50.5 187q0 159 106.5 252.5t294.5 93.5zM618 -104l-163 -336h-107l70 336h200z" />
    <glyph glyph-name="scommaaccent" unicode="&#x219;" horiz-adv-x="845" 
d="M428 -31q-212 0 -387 101l90 178q156 -90 301 -90q148 0 148 90q0 32 -22.5 56t-76.5 50l-172 84q-200 96 -200 275q0 125 87.5 194.5t245.5 69.5t330 -74l-82 -174q-148 62 -252 62q-60 0 -88 -18t-28 -56q0 -34 24 -59.5t82 -53.5l176 -84q100 -47 145.5 -110
t45.5 -154q0 -135 -97 -211t-270 -76zM551 -104l-164 -336h-106l69 336h201z" />
    <glyph glyph-name="uni021A" unicode="&#x21a;" horiz-adv-x="1064" 
d="M1044 1434v-205h-356q-32 0 -51 8l-4 -4q6 -15 6 -51v-1182h-213v1182q0 36 6 51l-4 4q-19 -8 -51 -8h-357v205h1024zM633 -104l-164 -336h-107l70 336h201z" />
    <glyph glyph-name="uni021B" unicode="&#x21b;" horiz-adv-x="643" 
d="M416 1452v-410q0 -71 -8 -108l6 -4q21 16 84 16h94v-192h-94q-63 0 -84 16l-6 -4q8 -35 8 -111v-655h-201v655q0 76 8 111l-6 4q-19 -16 -84 -16h-82v192h82q65 0 84 -16l6 4q-8 37 -8 108v273l188 137h13zM416 -104l-164 -336h-107l70 336h201z" />
    <glyph glyph-name="uni0237" unicode="&#x237;" horiz-adv-x="466" 
d="M334 946v-987q0 -202 -97.5 -300.5t-275.5 -98.5h-14v196h14q172 0 172 203v987h201z" />
    <glyph glyph-name="uni02BC" unicode="&#x2bc;" horiz-adv-x="385" 
d="M129 1495h205l-156 -498h-106z" />
    <glyph glyph-name="circumflex" unicode="&#x2c6;" horiz-adv-x="860" 
d="M530 1448l228 -311v-4h-168l-76 106q-48 70 -61.5 93t-20.5 52h-4q-7 -29 -20.5 -52t-61.5 -93l-76 -106h-168v4l228 311h200z" />
    <glyph glyph-name="caron" unicode="&#x2c7;" horiz-adv-x="880" 
d="M340 1133l-238 311v4h181l75 -107q7 -10 18 -25.5t15.5 -22t12 -18t10.5 -16.5t7.5 -13t6.5 -13.5t4 -12.5l4 -14h8l4 14t4 12.5t6.5 13.5t7.5 13t10.5 16.5t12 18t15.5 22t18 25.5l76 107h180v-4l-237 -311h-201z" />
    <glyph glyph-name="breve" unicode="&#x2d8;" horiz-adv-x="770" 
d="M668 1446q0 -141 -78.5 -220t-204.5 -79t-204.5 79t-78.5 220h140q6 -164 143 -164t143 164h140z" />
    <glyph glyph-name="dotaccent" unicode="&#x2d9;" horiz-adv-x="430" 
d="M328 1434v-271h-226v271h226z" />
    <glyph glyph-name="ring" unicode="&#x2da;" horiz-adv-x="692" 
d="M346 1530q106 0 175 -68t69 -172t-69 -171.5t-175 -67.5t-175 67.5t-69 171.5t69 172t175 68zM346 1434q-64 0 -103.5 -41t-39.5 -103t39.5 -102.5t103.5 -40.5t103.5 40.5t39.5 102.5t-39.5 103t-103.5 41z" />
    <glyph glyph-name="ogonek" unicode="&#x2db;" horiz-adv-x="530" 
d="M344 57l74 -37q-94 -76 -137 -127.5t-43 -91.5q0 -59 75 -59q39 0 82 12l33 -110q-71 -29 -145 -29q-79 0 -130 40t-51 109q0 73 58.5 139t183.5 154z" />
    <glyph glyph-name="tilde" unicode="&#x2dc;" horiz-adv-x="925" 
d="M311 1430q52 0 114 -24t116.5 -48.5t87.5 -24.5q67 0 108 103l86 -29q-46 -219 -209 -219q-51 0 -113 24t-116.5 48t-87.5 24q-35 0 -61 -24t-48 -78l-86 28q46 220 209 220z" />
    <glyph glyph-name="hungarumlaut" unicode="&#x2dd;" horiz-adv-x="909" 
d="M104 1133l-2 4l236 311h166l2 -4l-250 -311h-152zM408 1133l-2 4l233 311h166l2 -4l-250 -311h-149z" />
    <glyph glyph-name="gravecomb" unicode="&#x300;" horiz-adv-x="0" 
d="M-299 1448l197 -311l-2 -4h-138l-280 311l2 4h221z" />
    <glyph glyph-name="acutecomb" unicode="&#x301;" horiz-adv-x="0" 
d="M-104 1448l2 -4l-281 -311h-137l-2 4l192 311h226z" />
    <glyph glyph-name="uni0302" unicode="&#x302;" horiz-adv-x="0" 
d="M-330 1448l228 -311v-4h-168l-76 106q-48 70 -61.5 93t-20.5 52h-4q-7 -29 -20.5 -52t-61.5 -93l-76 -106h-168v4l228 311h200z" />
    <glyph glyph-name="tildecomb" unicode="&#x303;" horiz-adv-x="0" 
d="M-614 1430q52 0 113.5 -24t116 -48.5t87.5 -24.5q68 0 109 103l86 -29q-46 -219 -209 -219q-51 0 -113.5 24t-117 48t-87.5 24q-35 0 -60.5 -24t-47.5 -78l-86 28q46 220 209 220z" />
    <glyph glyph-name="uni0304" unicode="&#x304;" horiz-adv-x="0" 
d="M-102 1374v-143h-594v143h594z" />
    <glyph glyph-name="uni0306" unicode="&#x306;" horiz-adv-x="0" 
d="M-102 1446q0 -141 -78.5 -220t-204.5 -79t-204.5 79t-78.5 220h140q6 -164 143 -164t143 164h140z" />
    <glyph glyph-name="uni0307" unicode="&#x307;" horiz-adv-x="0" 
d="M-102 1434v-271h-226v271h226z" />
    <glyph glyph-name="uni0308" unicode="&#x308;" horiz-adv-x="0" 
d="M-463 1434v-250h-184v250h184zM-102 1434v-250h-185v250h185z" />
    <glyph glyph-name="uni030A" unicode="&#x30a;" horiz-adv-x="0" 
d="M-346 1530q106 0 175 -68t69 -172t-69 -171.5t-175 -67.5t-175 67.5t-69 171.5t69 172t175 68zM-346 1434q-64 0 -103.5 -41t-39.5 -103t39.5 -102.5t103.5 -40.5t103.5 40.5t39.5 102.5t-39.5 103t-103.5 41z" />
    <glyph glyph-name="uni030B" unicode="&#x30b;" horiz-adv-x="0" 
d="M-805 1133l-2 4l236 311h165l3 -4l-250 -311h-152zM-502 1133l-2 4l234 311h166l2 -4l-250 -311h-150z" />
    <glyph glyph-name="uni030C" unicode="&#x30c;" horiz-adv-x="0" 
d="M-541 1133l-237 311v4h180l76 -107q7 -10 18 -25.5t15.5 -22t12 -18t10.5 -16.5t7.5 -13t6.5 -13.5t4 -12.5l4 -14h8l4 14t4 12.5t6.5 13.5t7.5 13t10.5 16.5t12 18t15.5 22t18 25.5l75 107h181v-4l-238 -311h-201z" />
    <glyph glyph-name="uni0326" unicode="&#x326;" horiz-adv-x="0" 
d="M-102 -104l-164 -336h-107l70 336h201z" />
    <glyph glyph-name="uni0327" unicode="&#x327;" horiz-adv-x="0" 
d="M-240 59l-47 -129q85 -24 135 -58.5t50 -90.5q0 -32 -19 -64t-44.5 -54.5t-69 -48.5t-73 -40.5t-77.5 -36.5l-31 66q98 57 121 76q28 26 29 49q0 51 -146 86l90 245h82z" />
    <glyph glyph-name="uni0328" unicode="&#x328;" horiz-adv-x="0" 
d="M-186 57l73 -37q-94 -76 -137 -127.5t-43 -91.5q0 -28 19.5 -43.5t56.5 -15.5q39 0 82 12l33 -110q-71 -29 -146 -29q-79 0 -129.5 40t-50.5 109q0 73 58.5 139t183.5 154z" />
    <glyph glyph-name="uni0394" unicode="&#x394;" horiz-adv-x="1286" 
d="M735 1434l510 -1434h-1204l510 1434h184zM643 1161l-356 -1061h710z" />
    <glyph glyph-name="uni03A9" unicode="&#x3a9;" horiz-adv-x="1536" 
d="M768 1464q310 0 503 -184.5t193 -480.5q0 -230 -138.5 -400.5t-373.5 -232.5v-6q84 16 185 16h299v-176h-586v303q187 41 297 172t110 313q0 223 -132.5 353.5t-356.5 130.5t-356.5 -130.5t-132.5 -353.5q0 -182 110 -313t297 -172v-303h-586v176h299q101 0 185 -16v6
q-235 62 -373.5 232.5t-138.5 400.5q0 296 193 480.5t503 184.5z" />
    <glyph glyph-name="pi" unicode="&#x3c0;" horiz-adv-x="1241" 
d="M1180 977v-184h-217v-793h-195v793h-262l-193 -793h-192l190 793q-146 -6 -250 -41v184q116 41 285 41h834z" />
    <glyph glyph-name="uni0401" unicode="&#x401;" horiz-adv-x="1056" 
d="M315 1747h185v-225h-185v225zM668 1747h184v-225h-184v225zM967 1434v-201h-551q-32 0 -51 8l-5 -4q7 -18 7 -53v-256q0 -34 -7 -51l5 -5q21 9 51 9h483v-201h-483q-32 0 -51 8l-5 -4q7 -18 7 -53v-381q0 -35 -7 -53l5 -4q19 8 51 8h559v-201h-821v1434h813z" />
    <glyph glyph-name="uni0402" unicode="&#x402;" horiz-adv-x="1458" 
d="M1008 872q419 0 419 -417v-70q0 -184 -99 -284.5t-281 -100.5h-162v201h119q110 0 160 46t50 146v58q0 109 -57.5 165t-169.5 56q-170 0 -409 -70v-602h-213v1186q0 36 6 51l-4 4q-16 -8 -52 -8h-295v201h1086v-201h-479q-33 0 -52 8l-4 -4q7 -18 7 -51v-291
q0 -71 -13 -94l4 -4q204 75 439 75z" />
    <glyph glyph-name="uni0403" unicode="&#x403;" horiz-adv-x="983" 
d="M887 1747l2 -6l-266 -219h-136l-2 4l179 221h223zM963 1434v-201h-547q-32 0 -51 8l-5 -4q7 -18 7 -51v-1186h-213v1434h809z" />
    <glyph glyph-name="uni0404" unicode="&#x404;" horiz-adv-x="1380" 
d="M817 -31q-340 0 -542.5 203.5t-202.5 544.5t202.5 544t542.5 203q290 0 512 -147l-106 -191q-185 123 -418 123q-186 0 -314 -100.5t-169 -280.5q-8 -36 -17 -51l4 -4q18 6 62 6h596v-205h-596q-41 0 -62 7l-4 -5q10 -16 17 -51q41 -180 169 -280.5t314 -100.5
q233 0 418 123l106 -190q-224 -148 -512 -148z" />
    <glyph glyph-name="uni0405" unicode="&#x405;" horiz-adv-x="1013" 
d="M532 1464q191 0 379 -96l-96 -203q-147 84 -289 84q-164 0 -164 -123q0 -48 26 -87t85 -85l256 -196q115 -88 169 -178t54 -209q0 -192 -124.5 -297t-333.5 -105q-129 0 -250 37t-213 96l96 201q203 -117 369 -117q111 0 169 48t58 124q0 58 -35.5 109t-114.5 113
l-243 192q-98 77 -148.5 159t-50.5 187q0 159 106.5 252.5t294.5 93.5z" />
    <glyph glyph-name="uni0406" unicode="&#x406;" horiz-adv-x="520" 
d="M367 1434v-1434h-213v1434h213z" />
    <glyph glyph-name="uni0407" unicode="&#x407;" horiz-adv-x="520" 
d="M-8 1747h184v-225h-184v225zM344 1747h184v-225h-184v225zM367 1434v-1434h-213v1434h213z" />
    <glyph glyph-name="uni0408" unicode="&#x408;" horiz-adv-x="616" 
d="M463 1434v-1080q0 -188 -77 -276t-239 -88q-41 0 -96 6v201q31 -2 76 -2q63 0 93 32.5t30 118.5v1088h213z" />
    <glyph glyph-name="uni0409" unicode="&#x409;" horiz-adv-x="2140" 
d="M1632 868q214 0 340.5 -118t126.5 -316t-126.5 -316t-340.5 -118h-520v995v191q0 36 6 51l-4 4q-19 -8 -51 -8h-516q-32 0 -51 8l-4 -4q6 -15 6 -51v-832q0 -187 -76.5 -275.5t-239.5 -88.5q-58 0 -131 8v197q56 -5 111 -5q66 0 94.5 35t28.5 117v1092h1040v-519
q0 -36 -6 -51l4 -4q19 8 51 8h258zM1608 201q126 0 194 60.5t68 172.5q0 109 -69.5 171.5t-192.5 62.5h-234q-32 0 -51 8l-4 -4q6 -15 6 -51v-371q0 -38 -6 -53l4 -4q19 8 51 8h234z" />
    <glyph glyph-name="uni040A" unicode="&#x40a;" horiz-adv-x="2078" 
d="M154 0v1434h213v-519q0 -33 -7 -51l5 -4q19 8 51 8h585q33 0 52 -8l4 4q-6 15 -6 51v519h213v-519q0 -33 -7 -51l5 -4q19 8 51 8h258q214 0 340.5 -118t126.5 -316t-126.5 -316t-340.5 -118h-520v621q0 36 6 51l-4 4q-19 -8 -52 -8h-585q-32 0 -51 8l-5 -4q7 -18 7 -51
v-621h-213zM1262 193q19 8 51 8h233q126 0 194 60.5t68 172.5q0 109 -69.5 171.5t-192.5 62.5h-233q-32 0 -51 8l-5 -4q7 -18 7 -51v-371q0 -35 -7 -53z" />
    <glyph glyph-name="uni040B" unicode="&#x40b;" horiz-adv-x="1437" 
d="M987 872q420 0 420 -458v-414h-213v410q0 129 -57.5 195.5t-169.5 66.5q-171 0 -410 -70v-602h-213v1186q0 36 6 51l-4 4q-16 -8 -51 -8h-275v201h1024v-201h-438q-32 0 -51 8l-4 -4q6 -15 6 -51v-291q0 -72 -12 -94l4 -4q204 75 438 75z" />
    <glyph glyph-name="uni040C" unicode="&#x40c;" horiz-adv-x="1271" 
d="M956 1747l2 -6l-266 -219h-135l-2 4l178 221h223zM1083 -12q-220 0 -266 233l-47 232q-22 112 -71.5 158t-149.5 46h-127q-50 0 -64 7l-2 -5q11 -32 11 -81v-578h-213v1434h213v-523q0 -48 -11 -80l2 -2q21 7 64 7h127q94 0 144 47t75 159l45 201q46 203 287 203
q64 0 108 -8v-199q-38 6 -63 6q-63 0 -95.5 -21.5t-43.5 -68.5l-39 -178q-28 -126 -93.5 -173t-218.5 -52v-9q153 -5 223 -54.5t93 -172.5l41 -203q13 -69 42.5 -97t88.5 -28q7 0 88 7v-199q-65 -8 -148 -8z" />
    <glyph glyph-name="uni040E" unicode="&#x40e;" horiz-adv-x="1271" 
d="M920 1767q-3 -134 -76.5 -210t-202.5 -76t-202.5 76t-76.5 210h138q-2 -82 34.5 -125t106.5 -43t106.5 43t34.5 125h138zM344 -18q-84 0 -174 10l2 207q86 -15 164 -15q66 0 116 41.5t91 132.5l-533 1076h254l303 -660q4 -8 11 -23q59 -127 70 -174q4 -17 7 -36h9
q7 73 19 116t46 123l291 654h242l-504 -1112q-73 -177 -173 -258.5t-241 -81.5z" />
    <glyph glyph-name="uni040F" unicode="&#x40f;" horiz-adv-x="1458" 
d="M629 -287v240q0 36 6 51l-4 4q-19 -8 -51 -8h-426v1434h213v-1186q0 -33 -7 -51l5 -4q19 8 51 8h626q33 0 52 -8l4 4q-6 15 -6 51v1186h213v-1434h-426q-33 0 -52 8l-4 -4q6 -15 6 -51v-240h-200z" />
    <glyph glyph-name="uni0410" unicode="&#x410;" horiz-adv-x="1425" 
d="M20 0l682 1464h21l682 -1464h-240l-168 377h-569l-168 -377h-240zM487 555q36 4 115 4h221q79 0 115 -4l2 2q-34 43 -66 117l-106 252q-45 108 -51 164h-8q-6 -53 -52 -164l-106 -252q-32 -74 -66 -117z" />
    <glyph glyph-name="uni0411" unicode="&#x411;" horiz-adv-x="1249" 
d="M694 868q98 0 181.5 -27.5t146.5 -80.5t99 -136.5t36 -189.5t-36 -189.5t-99 -136.5t-146.5 -80.5t-181.5 -27.5h-540v991v443h927v-201h-665q-32 0 -51 8l-5 -4q7 -18 7 -53v-269q0 -33 -7 -51l5 -4q19 8 51 8h278zM670 201q128 0 195 60t67 173q0 108 -68 171t-194 63
h-254q-32 0 -51 8l-5 -4q7 -18 7 -51v-371q0 -35 -7 -53l5 -4q19 8 51 8h254z" />
    <glyph glyph-name="uni0412" unicode="&#x412;" horiz-adv-x="1265" 
d="M154 0v1434h530q184 0 293.5 -98.5t109.5 -262.5q0 -102 -46.5 -175t-133.5 -107q-51 -21 -102 -23v-8q62 0 104 -12q124 -29 194.5 -122.5t70.5 -228.5q0 -180 -120.5 -288.5t-318.5 -108.5h-581zM365 829q21 9 51 9h213q114 0 176.5 53.5t62.5 150.5q0 92 -58 141.5
t-165 49.5h-229q-32 0 -51 8l-5 -4q7 -18 7 -53v-299q0 -33 -7 -51zM365 193q19 8 51 8h280q254 0 254 213q0 112 -71 169.5t-209 57.5h-254q-32 0 -51 8l-5 -4q7 -17 7 -51v-344q0 -35 -7 -53z" />
    <glyph glyph-name="uni0413" unicode="&#x413;" horiz-adv-x="983" 
d="M963 1434v-201h-547q-32 0 -51 8l-5 -4q7 -18 7 -51v-1186h-213v1434h809z" />
    <glyph glyph-name="uni0414" unicode="&#x414;" horiz-adv-x="1398" 
d="M10 -287v471h105q36 0 55 -8l4 4q3 33 14 53q93 185 136 388t43 469v344h815v-1201q0 -38 -6 -53l4 -4q19 8 53 8h104v-471h-200v221q0 41 8 54l-4 4q-19 -8 -54 -8h-827q-35 0 -51 8l-4 -4q6 -15 6 -54v-221h-201zM387 174q17 10 53 10h480q32 0 51 -8l4 4q-6 15 -6 53
v951q0 38 6 53l-4 4q-19 -8 -51 -8h-291q-32 0 -51 8l-5 -4q7 -18 7 -53v-115q0 -274 -53 -515t-144 -376z" />
    <glyph glyph-name="uni0415" unicode="&#x415;" horiz-adv-x="1056" 
d="M967 1434v-201h-551q-32 0 -51 8l-5 -4q7 -18 7 -53v-256q0 -34 -7 -51l5 -5q21 9 51 9h483v-201h-483q-32 0 -51 8l-5 -4q7 -18 7 -53v-381q0 -35 -7 -53l5 -4q19 8 51 8h559v-201h-821v1434h813z" />
    <glyph glyph-name="uni0416" unicode="&#x416;" horiz-adv-x="1871" 
d="M156 -8q-62 0 -103 8v211q50 -4 64 -4q111 0 137 110l55 242q26 116 77.5 154.5t184.5 42.5v8q-149 7 -209.5 51t-89.5 164l-41 174q-18 86 -131 86q-19 0 -59 -4v199q79 6 102 6q126 0 189.5 -44.5t91.5 -150.5l59 -237q15 -76 70 -117t143 -41h80q46 0 64 -6l2 2
q-11 37 -11 82v506h209v-506q0 -48 -10 -82l2 -2q18 6 64 6h80q175 0 213 158l59 237q25 106 89 150.5t192 44.5q23 0 102 -6v-199q-40 4 -59 4q-114 0 -132 -86l-41 -174q-29 -120 -89.5 -164t-209.5 -51v-8q134 -5 185.5 -43.5t77.5 -153.5l55 -242q26 -110 137 -110
q14 0 64 4v-211q-41 -8 -103 -8q-129 0 -198 52.5t-95 172.5l-61 287q-19 85 -64 124.5t-122 39.5h-80q-40 0 -64 4l-2 -2q10 -34 10 -84v-586h-209v586q0 47 11 84l-2 2q-24 -4 -64 -4h-80q-77 0 -122 -39.5t-64 -124.5l-61 -287q-26 -120 -95 -172.5t-198 -52.5z" />
    <glyph glyph-name="uni0417" unicode="&#x417;" horiz-adv-x="1148" 
d="M528 -31q-283 0 -477 113l96 194q189 -100 394 -100q288 0 288 227q0 125 -87.5 184.5t-270.5 59.5h-197v209h195q309 0 309 215q0 186 -241 186q-171 0 -375 -92l-76 199q247 100 475 100q225 0 336 -88t111 -268q0 -250 -230 -320q-65 -19 -139 -22v-8q78 0 141 -13
q277 -62 277 -360q0 -205 -134 -310.5t-395 -105.5z" />
    <glyph glyph-name="uni0418" unicode="&#x418;" horiz-adv-x="1511" 
d="M1339 1454h19v-1454h-213v768q0 178 20 256l-8 2q-31 -78 -113 -160l-872 -886h-18v1454h213v-766q0 -176 -21 -258l8 -2q31 77 113 159z" />
    <glyph glyph-name="uni0419" unicode="&#x419;" horiz-adv-x="1511" 
d="M1085 1767q-3 -134 -76.5 -210t-201.5 -76q-129 0 -202.5 76t-76.5 210h138q-2 -82 34.5 -125t106.5 -43t106.5 43t34.5 125h137zM1339 1454h19v-1454h-213v768q0 178 20 256l-8 2q-31 -78 -113 -160l-872 -886h-18v1454h213v-766q0 -176 -21 -258l8 -2q31 77 113 159z
" />
    <glyph glyph-name="uni041A" unicode="&#x41a;" horiz-adv-x="1271" 
d="M1083 -12q-220 0 -266 233l-47 232q-22 112 -71.5 158t-149.5 46h-127q-50 0 -64 7l-2 -5q11 -32 11 -81v-578h-213v1434h213v-523q0 -48 -11 -80l2 -2q21 7 64 7h127q94 0 144 47t75 159l45 201q46 203 287 203q64 0 108 -8v-199q-38 6 -63 6q-63 0 -95.5 -21.5
t-43.5 -68.5l-39 -178q-28 -126 -93.5 -173t-218.5 -52v-9q153 -5 223 -54.5t93 -172.5l41 -203q13 -69 42.5 -97t88.5 -28q7 0 88 7v-199q-65 -8 -148 -8z" />
    <glyph glyph-name="uni041B" unicode="&#x41b;" horiz-adv-x="1519" 
d="M1366 1434v-1434h-213v1186q0 36 6 51l-4 4q-19 -8 -51 -8h-557q-32 0 -51 8l-4 -4q6 -15 6 -51v-832q0 -187 -76.5 -275.5t-239.5 -88.5q-58 0 -131 8v197q56 -5 111 -5q66 0 94.5 35t28.5 117v1092h1081z" />
    <glyph glyph-name="uni041C" unicode="&#x41c;" horiz-adv-x="1802" 
d="M891 -14l-332 753q-57 130 -67 230h-9q0 -133 -30 -232l-211 -737h-222l426 1454h31l385 -901q26 -63 35 -166h8q9 103 35 166l385 901h31l426 -1454h-221l-211 737q-31 103 -31 232h-8q-10 -97 -68 -230l-332 -753h-20z" />
    <glyph glyph-name="uni041D" unicode="&#x41d;" horiz-adv-x="1458" 
d="M1305 1434v-1434h-213v608q0 36 6 51l-4 5q-21 -9 -52 -9h-626q-30 0 -51 9l-5 -5q7 -17 7 -51v-608h-213v1434h213v-527q0 -33 -7 -51l5 -4q19 8 51 8h626q33 0 52 -8l4 4q-6 15 -6 51v527h213z" />
    <glyph glyph-name="uni041E" unicode="&#x41e;" horiz-adv-x="1638" 
d="M819 1464q214 0 385 -95.5t267 -266.5t96 -385t-96 -385t-267 -267t-385 -96t-385 96t-266.5 267t-95.5 385q0 160 56 299t154.5 237.5t237.5 154.5t299 56zM819 1247q-226 0 -370 -149t-144 -381t144.5 -381.5t369.5 -149.5t369.5 149.5t144.5 381.5t-144 381t-370 149z
" />
    <glyph glyph-name="uni041F" unicode="&#x41f;" horiz-adv-x="1429" 
d="M1276 1434v-1434h-213v1186q0 36 6 51l-4 4q-19 -8 -51 -8h-598q-32 0 -51 8l-5 -4q7 -18 7 -51v-1186h-213v1434h1122z" />
    <glyph glyph-name="uni0420" unicode="&#x420;" horiz-adv-x="1118" 
d="M614 1434q210 0 331.5 -108.5t121.5 -299.5q0 -189 -117.5 -297t-316.5 -108h-217q-32 0 -51 8l-5 -4q7 -17 7 -52v-573h-213v1434h460zM365 1241l-5 -4q7 -18 7 -53v-314q0 -36 -7 -53l5 -4q19 8 51 8h200q107 0 164.5 55t57.5 150q0 96 -57.5 151.5t-164.5 55.5h-200
q-32 0 -51 8z" />
    <glyph glyph-name="uni0421" unicode="&#x421;" horiz-adv-x="1396" 
d="M840 -31q-226 0 -401 94t-271 264t-96 390q0 165 56 304t156 236.5t243.5 152t312.5 54.5q288 0 506 -157l-132 -187q-175 127 -383 127q-233 0 -379.5 -147.5t-146.5 -382.5t146.5 -383t379.5 -148q208 0 383 127l132 -186q-219 -158 -506 -158z" />
    <glyph glyph-name="uni0422" unicode="&#x422;" horiz-adv-x="1064" 
d="M1044 1434v-205h-356q-32 0 -51 8l-4 -4q6 -15 6 -51v-1182h-213v1182q0 36 6 51l-4 4q-19 -8 -51 -8h-357v205h1024z" />
    <glyph glyph-name="uni0423" unicode="&#x423;" horiz-adv-x="1271" 
d="M344 -18q-84 0 -174 10l2 207q86 -15 164 -15q66 0 116 41.5t91 132.5l-533 1076h254l303 -660q4 -8 11 -23q59 -127 70 -174q4 -17 7 -36h9q7 73 19 116t46 123l291 654h242l-504 -1112q-73 -177 -173 -258.5t-241 -81.5z" />
    <glyph glyph-name="uni0424" unicode="&#x424;" horiz-adv-x="1720" 
d="M756 -82v88q0 37 10 62l-2 2q-21 -7 -72 -7q-173 0 -315.5 85.5t-223.5 235.5t-81 333t81 332.5t223.5 235t315.5 85.5q54 0 72 -6l2 2q-10 22 -10 61v89h209v-89q0 -36 -11 -61l2 -2q21 6 72 6q174 0 316 -85.5t223.5 -235t81.5 -332.5t-81.5 -333t-224 -235.5
t-315.5 -85.5q-48 0 -72 7l-2 -2q11 -27 11 -62v-88h-209zM772 258l4 2q-10 22 -10 64v786q0 42 10 64l-4 2q-9 -2 -61 -5q-186 -4 -296 -127.5t-110 -326.5t110 -327t296 -128q57 -3 61 -4zM948 258q3 1 64 4q186 4 295.5 128t109.5 327t-109.5 326.5t-295.5 127.5
q-56 3 -64 5l-2 -2q10 -22 10 -64v-786q0 -42 -10 -64z" />
    <glyph glyph-name="uni0425" unicode="&#x425;" horiz-adv-x="1286" 
d="M1204 1434l-346 -549q-51 -79 -86 -119v-4q30 -39 102 -150l392 -612h-250l-279 444q-81 132 -90 179h-8q-9 -47 -90 -179l-279 -444h-250l392 612q72 111 102 150v4q-35 40 -86 119l-346 549h250l217 -351q81 -129 90 -178h8q9 49 90 178l217 351h250z" />
    <glyph glyph-name="uni0426" unicode="&#x426;" horiz-adv-x="1495" 
d="M1233 -283v236q0 31 8 51l-4 4q-16 -8 -53 -8h-1030v1434h213v-1186q0 -28 -9 -51l4 -4q19 8 54 8h588q34 0 53 -8l4 4q-8 20 -8 51v1186h213v-1186q0 -28 -9 -51l5 -4q16 8 53 8h119v-484h-201z" />
    <glyph glyph-name="uni0427" unicode="&#x427;" horiz-adv-x="1247" 
d="M881 0v526q0 73 12 95l-4 4q-206 -76 -438 -76q-420 0 -420 459v426h213v-422q0 -129 57.5 -195.5t169.5 -66.5q175 0 410 69v615h213v-1434h-213z" />
    <glyph glyph-name="uni0428" unicode="&#x428;" horiz-adv-x="2011" 
d="M154 0v1434h213v-1186q0 -28 -9 -51l4 -4q19 8 54 8h434q34 0 53 -8l4 4q-8 20 -8 51v1186h213v-1186q0 -31 -8 -51l4 -4q16 8 53 8h434q35 0 54 -8l4 4q-8 20 -8 51v1186h213v-1434h-1704z" />
    <glyph glyph-name="uni0429" unicode="&#x429;" horiz-adv-x="2091" 
d="M1907 201h123v-484h-201v236q0 31 8 51l-4 4q-19 -8 -53 -8h-1626v1434h213v-1186q0 -28 -9 -51l4 -4q19 8 54 8h434q34 0 53 -8l4 4q-8 20 -8 51v1186h213v-1186q0 -31 -8 -51l4 -4q16 8 53 8h434q35 0 54 -8l4 4q-8 20 -8 51v1186h213v-1186q0 -28 -9 -51l4 -4
q19 8 54 8z" />
    <glyph glyph-name="uni042A" unicode="&#x42a;" horiz-adv-x="1439" 
d="M932 868q214 0 340.5 -118t126.5 -316t-126.5 -316t-340.5 -118h-541v1186q0 38 8 51l-4 4q-19 -8 -53 -8h-322v201h584v-519q0 -36 -6 -51l4 -4q19 8 51 8h279zM907 201q126 0 194 60.5t68 172.5q0 109 -69.5 171.5t-192.5 62.5h-254q-32 0 -51 8l-4 -4q6 -15 6 -51
v-371q0 -38 -6 -53l4 -4q19 8 51 8h254z" />
    <glyph glyph-name="uni042B" unicode="&#x42b;" horiz-adv-x="1632" 
d="M694 868q214 0 340.5 -118t126.5 -316t-126.5 -316t-340.5 -118h-540v995v439h213v-519q0 -33 -7 -51l5 -4q19 8 51 8h278zM1266 1434h213v-1434h-213v1434zM670 201q126 0 194 60.5t68 172.5q0 109 -69.5 171.5t-192.5 62.5h-254q-32 0 -51 8l-5 -4q7 -18 7 -51v-371
q0 -35 -7 -53l5 -4q19 8 51 8h254z" />
    <glyph glyph-name="uni042C" unicode="&#x42c;" horiz-adv-x="1202" 
d="M694 868q214 0 340.5 -118t126.5 -316t-126.5 -316t-340.5 -118h-540v995v439h213v-519q0 -33 -7 -51l5 -4q19 8 51 8h278zM670 201q126 0 194 60.5t68 172.5q0 109 -69.5 171.5t-192.5 62.5h-254q-32 0 -51 8l-5 -4q7 -18 7 -51v-371q0 -35 -7 -53l5 -4q19 8 51 8h254z
" />
    <glyph glyph-name="uni042D" unicode="&#x42d;" horiz-adv-x="1380" 
d="M563 -31q-288 0 -512 148l107 190q184 -123 417 -123q186 0 314.5 100.5t169.5 280.5q8 37 16 51l-4 5q-21 -7 -61 -7h-596v205h596q43 0 61 -6l4 4q-7 12 -16 51q-41 180 -169.5 280.5t-314.5 100.5q-233 0 -417 -123l-107 191q222 147 512 147q340 0 543 -203t203 -544
t-203 -544.5t-543 -203.5z" />
    <glyph glyph-name="uni042E" unicode="&#x42e;" horiz-adv-x="2086" 
d="M1268 1460q160 0 299 -56t237.5 -154.5t154.5 -237.5t56 -299q0 -214 -95.5 -385t-266.5 -267t-385 -96q-301 0 -507 183.5t-237 474.5h-108q-32 0 -51 8l-5 -4q7 -18 7 -52v-575h-213v1434h213v-564q0 -34 -7 -51l5 -4q19 8 51 8h110q37 283 241.5 460t500.5 177z
M1268 182q225 0 369.5 149.5t144.5 381.5t-144 381t-370 149t-370 -149t-144 -381t144.5 -381.5t369.5 -149.5z" />
    <glyph glyph-name="uni042F" unicode="&#x42f;" horiz-adv-x="1257" 
d="M604 1434h500v-1434h-213v590q0 37 6 55l-4 4q-16 -8 -49 -8h-51l-506 -641h-277l434 543q38 49 72 75.5t76 40.5v9q-50 -11 -72 -11q-142 0 -249 113t-107 264q0 185 118 292.5t322 107.5zM893 1241q-19 -8 -51 -8h-240q-98 0 -153.5 -52.5t-55.5 -144.5
q0 -91 54.5 -140.5t154.5 -49.5h240q32 0 51 -8l4 4q-6 15 -6 51v291q0 38 6 53z" />
    <glyph glyph-name="uni0430" unicode="&#x430;" horiz-adv-x="1026" 
d="M506 977q206 0 301.5 -93t95.5 -292v-592h-203q0 88 29 150l-8 4q-108 -185 -318 -185q-153 0 -247.5 91.5t-94.5 240.5q0 154 94.5 244t250.5 90q104 0 184.5 -41t128.5 -117l6 4q-11 37 -16 131q-12 179 -220 179q-110 0 -272 -52l-55 181q174 57 344 57zM479 469
q-92 0 -148.5 -47.5t-56.5 -122.5q0 -76 56 -121t147 -45q94 0 154.5 46.5t60.5 121.5q0 74 -60 121t-153 47z" />
    <glyph glyph-name="uni0431" unicode="&#x431;" horiz-adv-x="1171" 
d="M594 -31q-254 0 -393.5 163.5t-139.5 461.5q0 467 250 627q37 24 93.5 45.5t100.5 33.5t115 30t99 26q103 27 106 88h199q0 -107 -42 -163t-146 -87q-39 -12 -128.5 -32t-163.5 -41t-120 -46q-91 -51 -136.5 -155t-49.5 -273h8q37 152 140 234t257 84q212 1 339.5 -130
t127.5 -350q0 -230 -143 -373t-373 -143zM596 168q132 0 216.5 86.5t84.5 222.5t-85 220.5t-222 84.5q-132 0 -217.5 -86.5t-85.5 -220.5q0 -136 86 -221.5t223 -85.5z" />
    <glyph glyph-name="uni0432" unicode="&#x432;" horiz-adv-x="999" 
d="M797 475q141 -41 141 -213q0 -117 -84 -189.5t-219 -72.5h-502v659v287h498q132 0 204 -60.5t72 -172.5q0 -139 -108 -191q-48 -23 -121 -26v-9q66 0 119 -12zM324 770q10 -20 10 -57v-105q0 -26 -10 -53l2 -2q16 8 57 8h184q54 0 85.5 29t31.5 78q0 96 -119 96h-182
q-41 0 -57 8zM596 182q119 0 119 113t-121 113h-211q-41 0 -57 8l-2 -2q10 -27 10 -54v-131q0 -26 -10 -53l2 -2q16 8 57 8h213z" />
    <glyph glyph-name="uni0433" unicode="&#x433;" horiz-adv-x="757" 
d="M133 0v946h615v-186h-365q-41 0 -57 8l-2 -2q10 -20 10 -53v-713h-201z" />
    <glyph glyph-name="uni0434" unicode="&#x434;" horiz-adv-x="1093" 
d="M20 -287v471h80q34 0 47 -8l3 2q-3 20 12 51q72 138 101.5 256.5t29.5 266.5v194h647v-715q0 -26 -10 -53l2 -2q16 8 57 8h64v-471h-183v238q0 24 11 53l-2 2q-16 -8 -58 -8h-567q-41 0 -57 8l-2 -2q10 -27 10 -53v-238h-185zM344 174q20 10 62 10h296q42 0 58 -8l2 2
q-10 27 -10 53v488q0 26 10 53l-2 2q-16 -8 -58 -8h-170q-41 0 -57 8l-2 -2q10 -27 10 -53v-41q0 -131 -40.5 -277t-100.5 -223z" />
    <glyph glyph-name="uni0435" unicode="&#x435;" horiz-adv-x="1056" 
d="M543 977q211 0 331.5 -134.5t120.5 -369.5v-39h-608q-92 0 -125 17l-4 -5l8 -24q15 -126 91 -194t202 -68q84 0 150.5 32t136.5 107l123 -133q-164 -197 -414 -197q-222 0 -358 137t-136 361q0 230 132 370t350 140zM537 795q-110 0 -182 -60t-87 -166l4 -4q40 21 117 21
h240q124 0 151 -19l4 4q-9 106 -74 165t-173 59z" />
    <glyph glyph-name="uni0436" unicode="&#x436;" horiz-adv-x="1421" 
d="M41 -6v174h53q44 0 64 13.5t32 51.5l37 134q19 64 65.5 92t135.5 30v9q-165 6 -201 116l-30 86q-19 46 -40.5 62t-66.5 16h-45v174h100q67 0 114 -25t67 -71l69 -168q26 -71 52.5 -93t84.5 -22h27q40 0 64 -4l2 2q-11 37 -11 82v293h193v-293q0 -48 -10 -82l2 -2
q24 4 63 4h27q58 0 84.5 22t52.5 93l70 168q42 96 180 96h100v-174h-45q-45 0 -66 -16t-40 -62l-31 -86q-36 -110 -201 -116v-9q89 -2 135.5 -30t65.5 -92l37 -134q12 -38 32 -51.5t64 -13.5h53v-174h-118q-80 0 -125 29.5t-64 93.5l-49 168q-20 72 -50 100.5t-85 28.5h-27
q-39 0 -63 4l-2 -2q10 -34 10 -86v-330h-193v330q0 49 11 86l-2 2q-24 -4 -64 -4h-27q-55 0 -85 -28.5t-50 -100.5l-49 -168q-19 -64 -63.5 -93.5t-124.5 -29.5h-119z" />
    <glyph glyph-name="uni0437" unicode="&#x437;" horiz-adv-x="905" 
d="M430 -31q-221 0 -389 97l82 174q151 -86 313 -86q109 0 158 29.5t49 95.5q0 71 -43 103t-139 32h-133v180h121q139 0 139 98q0 51 -39 75t-125 24q-133 0 -295 -76l-74 174q208 88 387 88q170 0 263.5 -63.5t93.5 -180.5q0 -97 -62.5 -154.5t-177.5 -66.5v-8
q141 -7 213 -69t72 -175q0 -139 -108 -215t-306 -76z" />
    <glyph glyph-name="uni0438" unicode="&#x438;" horiz-adv-x="1103" 
d="M133 -12v958h201v-364q0 -134 -10 -236l8 -2q24 58 104 141l471 473h64v-958h-201v365q0 133 10 235l-8 2q-24 -58 -104 -141l-471 -473h-64z" />
    <glyph glyph-name="uni0439" unicode="&#x439;" horiz-adv-x="1103" 
d="M858 1343q0 -141 -78.5 -220t-204.5 -79t-204 79t-78 220h139q6 -163 143 -163q138 0 144 163h139zM133 -12v958h201v-364q0 -134 -10 -236l8 -2q24 58 104 141l471 473h64v-958h-201v365q0 133 10 235l-8 2q-24 -58 -104 -141l-471 -473h-64z" />
    <glyph glyph-name="uni043A" unicode="&#x43a;" horiz-adv-x="1011" 
d="M852 -6q-82 0 -129 30t-66 93l-47 168q-19 73 -47.5 101t-85.5 28h-88q-39 0 -63 4l-2 -2q10 -34 10 -86v-330h-201v946h201v-293q0 -48 -10 -82l2 -2q24 4 63 4h88q58 0 83.5 21.5t51.5 93.5l70 168q20 51 63.5 73.5t120.5 22.5h101v-180h-43q-44 0 -66 -14.5t-41 -57.5
l-33 -86q-20 -59 -68.5 -87t-131.5 -29v-9q90 -1 135.5 -29t64.5 -93l39 -134q12 -38 29.5 -48.5t67.5 -10.5h51v-180h-119z" />
    <glyph glyph-name="uni043B" unicode="&#x43b;" horiz-adv-x="1081" 
d="M958 946v-946h-200v713q0 26 10 53l-2 2q-16 -8 -57 -8h-250q-42 0 -58 8l-2 -2q11 -29 11 -53v-394q0 -161 -78.5 -243t-231.5 -82h-80v182h78q60 0 85.5 35.5t25.5 118.5v616h749z" />
    <glyph glyph-name="uni043C" unicode="&#x43c;" horiz-adv-x="1363" 
d="M653 -10l-178 401q-4 10 -13 30.5t-12 27t-9 21.5t-8 20.5t-6 16t-5.5 16.5l-3.5 14l-4 16h-8q-2 -28 -7.5 -53.5t-11 -42t-22.5 -68.5l-129 -389h-216l345 956h53l221 -495q31 -70 39 -113h8q8 43 39 113l221 495h53l344 -956h-215l-129 389q-17 52 -22.5 68.5t-11 42
t-7.5 53.5h-8l-4 -16l-3.5 -14t-5.5 -16.5t-6 -16t-8 -20.5t-9 -21.5t-12 -27t-13 -30.5l-178 -401h-58z" />
    <glyph glyph-name="uni043D" unicode="&#x43d;" horiz-adv-x="1148" 
d="M815 946h201v-946h-201v365q0 33 10 53l-2 2q-16 -8 -57 -8h-383q-41 0 -57 8l-2 -2q10 -20 10 -53v-365h-201v946h201v-301q0 -33 -10 -53l2 -2q16 8 57 8h383q41 0 57 -8l2 2q-10 20 -10 53v301z" />
    <glyph glyph-name="uni043E" unicode="&#x43e;" horiz-adv-x="1159" 
d="M580 977q224 0 371 -143.5t147 -360.5t-147 -360.5t-371 -143.5t-371.5 143.5t-147.5 360.5t147.5 360.5t371.5 143.5zM580 780q-137 0 -221.5 -84.5t-84.5 -222.5t84.5 -222.5t221.5 -84.5t221 84.5t84 222.5t-84 222.5t-221 84.5z" />
    <glyph glyph-name="uni043F" unicode="&#x43f;" horiz-adv-x="1087" 
d="M965 946v-946h-201v713q0 33 10 53l-2 2q-16 -8 -57 -8h-342q-42 0 -58 8l-2 -2q11 -22 11 -53v-713h-201v946h842z" />
    <glyph glyph-name="uni0440" unicode="&#x440;" horiz-adv-x="1191" 
d="M672 977q201 0 329.5 -141.5t128.5 -362.5t-128.5 -362.5t-329.5 -141.5q-118 0 -207.5 55.5t-140.5 159.5l-9 -2q19 -71 19 -198v-394h-201v1356h195q0 -125 -13 -182l9 -2q53 105 141.5 160t206.5 55zM633 788q-135 0 -221 -88t-86 -227t86 -227t221 -88
q134 0 209.5 83.5t75.5 231.5t-75.5 231.5t-209.5 83.5z" />
    <glyph glyph-name="uni0441" unicode="&#x441;" horiz-adv-x="956" 
d="M582 -31q-231 0 -376 140t-145 364t145 364t376 140q180 0 323 -96l-94 -170q-109 71 -236 71q-133 0 -217 -86t-84 -223t84 -223t217 -86q126 0 236 72l94 -170q-144 -97 -323 -97z" />
    <glyph glyph-name="uni0442" unicode="&#x442;" horiz-adv-x="913" 
d="M10 946h893v-186h-297q-41 0 -57 8l-2 -2q10 -20 10 -53v-713h-201v713q0 31 11 53l-2 2q-16 -8 -58 -8h-297v186z" />
    <glyph glyph-name="uni0443" unicode="&#x443;" horiz-adv-x="1015" 
d="M995 946l-571 -1358h-209l201 473l-396 885h230l215 -522q41 -99 43 -184h8q3 74 35 151l225 555h219z" />
    <glyph glyph-name="uni0444" unicode="&#x444;" horiz-adv-x="1720" 
d="M766 -410v410q0 138 18 203l-8 2q-91 -236 -309 -236q-181 0 -288 136.5t-107 367.5t107 367.5t288 136.5q218 0 309 -236l8 2q-18 65 -18 203v488h188v-488q0 -138 -18 -203l8 -2q91 236 309 236q181 0 288.5 -137t107.5 -367t-107.5 -367t-288.5 -137q-218 0 -309 236
l-8 -2q18 -65 18 -203v-410h-188zM530 158q116 0 180.5 82t65.5 233q-1 151 -65.5 233t-180.5 82t-180 -82t-65 -233q1 -151 65 -233t180 -82zM1192 158q115 0 179.5 83t66.5 232q-2 149 -66.5 232t-179.5 83t-179.5 -83t-66.5 -232q2 -149 66.5 -232t179.5 -83z" />
    <glyph glyph-name="uni0445" unicode="&#x445;" horiz-adv-x="1028" 
d="M20 0l310 430q41 53 57 59v7q-20 10 -53 57l-273 393h238l129 -190q44 -65 61 -99t21 -69h8q4 35 21 69t61 99l129 190h238l-273 -393q-33 -47 -53 -57v-7q16 -6 57 -59l310 -430h-238l-172 240q-41 56 -57.5 87.5t-22.5 67.5h-8q-6 -36 -22.5 -67.5t-57.5 -87.5
l-172 -240h-238z" />
    <glyph glyph-name="uni0446" unicode="&#x446;" horiz-adv-x="1107" 
d="M885 -287v240q0 33 10 53l-2 2q-16 -8 -57 -8h-703v946h201v-713q0 -33 -10 -53l2 -2q16 8 57 8h311q42 0 58 -8l2 2q-11 22 -11 53v713h201v-713q0 -33 -10 -53l2 -2q16 8 57 8h74v-473h-182z" />
    <glyph glyph-name="uni0447" unicode="&#x447;" horiz-adv-x="974" 
d="M651 946h201v-725v-221h-201v299q0 76 13 102l-5 2q-152 -55 -290 -55q-178 0 -263.5 84.5t-85.5 259.5v254h201v-231q0 -95 41 -135.5t137 -40.5q25 0 53.5 3t51.5 7t49.5 10.5t42 10.5t34.5 10t21 6v360z" />
    <glyph glyph-name="uni0448" unicode="&#x448;" horiz-adv-x="1626" 
d="M1292 946h201v-946h-1360v946h201v-713q0 -33 -10 -53l2 -2q16 8 57 8h281q41 0 57 -8l2 2q-10 20 -10 53v713h200v-713q0 -33 -10 -53l2 -2q16 8 58 8h280q41 0 57 -8l3 2q-11 22 -11 53v713z" />
    <glyph glyph-name="uni0449" unicode="&#x449;" horiz-adv-x="1656" 
d="M1434 -287v240q0 33 10 53l-2 2q-16 -8 -58 -8h-1251v946h201v-713q0 -33 -10 -53l2 -2q16 8 57 8h281q41 0 57 -8l2 2q-10 20 -10 53v713h200v-713q0 -33 -10 -53l2 -2q16 8 58 8h280q41 0 57 -8l3 2q-11 22 -11 53v713h201v-713q0 -33 -10 -53l2 -2q16 8 57 8h74v-473
h-182z" />
    <glyph glyph-name="uni044A" unicode="&#x44a;" horiz-adv-x="1140" 
d="M754 612q160 0 253 -82t93 -223q0 -137 -96.5 -222t-251.5 -85h-439v694v19q0 24 11 53l-2 2q-16 -8 -58 -8h-254v186h504v-287q0 -26 -10 -53l2 -2q16 8 57 8h191zM737 186q70 0 110 31.5t40 87.5q0 58 -39 89.5t-111 31.5h-174q-41 0 -57 8l-2 -2q10 -27 10 -53v-146
q0 -26 -10 -53l2 -2q16 8 57 8h174z" />
    <glyph glyph-name="uni044B" unicode="&#x44b;" horiz-adv-x="1312" 
d="M567 612q152 0 241 -82t89 -223q0 -137 -92 -222t-240 -85h-432v694v252h201v-287q0 -26 -10 -53l2 -2q16 8 57 8h184zM979 946h201v-946h-201v946zM549 186q65 0 100 31t35 88q0 58 -35 89.5t-100 31.5h-166q-41 0 -57 8l-2 -2q10 -27 10 -53v-146q0 -26 -10 -53l2 -2
q16 8 57 8h166z" />
    <glyph glyph-name="uni044C" unicode="&#x44c;" horiz-adv-x="937" 
d="M567 612q152 0 241 -82t89 -223q0 -137 -92 -222t-240 -85h-432v694v252h201v-287q0 -26 -10 -53l2 -2q16 8 57 8h184zM549 186q65 0 100 31t35 88q0 58 -35 89.5t-100 31.5h-166q-41 0 -57 8l-2 -2q10 -27 10 -53v-146q0 -26 -10 -53l2 -2q16 8 57 8h166z" />
    <glyph glyph-name="uni044D" unicode="&#x44d;" horiz-adv-x="962" 
d="M410 -31q-206 0 -359 90l86 177q129 -72 264 -72q89 0 159 46t93 120q14 46 27 65l-2 2q-18 -10 -55 -10h-336v172h336q37 0 55 -10l2 2q-17 26 -27 65q-25 74 -94.5 120t-157.5 46q-137 0 -264 -71l-86 176q153 90 359 90q217 0 349 -138.5t132 -365.5t-132 -365.5
t-349 -138.5z" />
    <glyph glyph-name="uni044E" unicode="&#x44e;" horiz-adv-x="1542" 
d="M963 977q224 0 371 -143.5t147 -360.5t-147 -360.5t-371 -143.5q-198 0 -339.5 115.5t-170.5 298.5h-78q-42 0 -58 8l-2 -2q11 -22 11 -53v-336h-193v946h193v-332q0 -31 -11 -53l2 -2q16 8 58 8h78q33 182 172.5 296t337.5 114zM963 166q137 0 221 84.5t84 222.5
t-84 222.5t-221 84.5t-221.5 -84.5t-84.5 -222.5t84.5 -222.5t221.5 -84.5z" />
    <glyph glyph-name="uni044F" unicode="&#x44f;" horiz-adv-x="1019" 
d="M887 946v-661v-285h-201v305q0 26 10 53l-2 2q-16 -8 -57 -8h-47l-316 -352h-243v8l237 254q24 25 33.5 35t30.5 26.5t43 28.5v6q-28 -3 -43 2q-108 19 -171 96t-63 191q0 141 90 220t250 79h449zM696 520q-10 27 -10 53v146q0 26 10 53l-2 2q-16 -8 -57 -8h-178
q-72 0 -110 -30.5t-38 -88.5q0 -57 39.5 -89t108.5 -32h178q41 0 57 -8z" />
    <glyph glyph-name="uni0451" unicode="&#x451;" horiz-adv-x="1056" 
d="M477 1331v-250h-174v250h174zM786 1331v-250h-174v250h174zM543 977q211 0 331.5 -134.5t120.5 -369.5v-39h-608q-92 0 -125 17l-4 -5l8 -24q15 -126 91 -194t202 -68q84 0 150.5 32t136.5 107l123 -133q-164 -197 -414 -197q-222 0 -358 137t-136 361q0 230 132 370
t350 140zM537 795q-110 0 -182 -60t-87 -166l4 -4q40 21 117 21h240q124 0 151 -19l4 4q-9 106 -74 165t-173 59z" />
    <glyph glyph-name="uni0452" unicode="&#x452;" horiz-adv-x="1136" 
d="M680 977q151 0 242.5 -88.5t91.5 -265.5v-684q0 -172 -87 -260.5t-245 -88.5h-109v197h107q133 0 133 152v626q0 113 -54.5 167t-150.5 54q-118 0 -191 -80.5t-73 -250.5v-455h-201v1114q0 31 11 53l-2 2q-16 -8 -58 -8h-84v123h84q42 0 58 -8l2 2q-11 22 -11 53v133h201
v-133q0 -33 -10 -53l2 -2q16 8 57 8h258v-123h-258q-41 0 -57 8l-2 -2q10 -20 10 -53v-162q0 -112 -20 -204l8 -3q105 232 348 232z" />
    <glyph glyph-name="uni0453" unicode="&#x453;" horiz-adv-x="757" 
d="M825 1346l2 -5l-301 -311h-137l-2 4l193 312h245zM133 0v946h615v-186h-365q-41 0 -57 8l-2 -2q10 -20 10 -53v-713h-201z" />
    <glyph glyph-name="uni0454" unicode="&#x454;" horiz-adv-x="962" 
d="M553 -31q-217 0 -349 138.5t-132 365.5t132 365.5t349 138.5q205 0 358 -90l-86 -176q-127 71 -264 71q-88 0 -157.5 -46t-94.5 -120q-11 -41 -26 -65l2 -2q18 10 55 10h336v-172h-336q-37 0 -55 10l-2 -2q11 -16 26 -65q23 -74 93 -120t159 -46q135 0 264 72l86 -177
q-153 -90 -358 -90z" />
    <glyph glyph-name="uni0455" unicode="&#x455;" horiz-adv-x="845" 
d="M428 -31q-212 0 -387 101l90 178q156 -90 301 -90q148 0 148 90q0 32 -22.5 56t-76.5 50l-172 84q-200 96 -200 275q0 125 87.5 194.5t245.5 69.5t330 -74l-82 -174q-148 62 -252 62q-60 0 -88 -18t-28 -56q0 -34 24 -59.5t82 -53.5l176 -84q100 -47 145.5 -110
t45.5 -154q0 -135 -97 -211t-270 -76z" />
    <glyph glyph-name="uni0456" unicode="&#x456;" horiz-adv-x="466" 
d="M346 1434v-271h-225v271h225zM334 946v-946h-201v946h201z" />
    <glyph glyph-name="uni0457" unicode="&#x457;" horiz-adv-x="466" 
d="M135 1331v-250h-174v250h174zM444 1331v-250h-174v250h174zM334 946v-946h-201v946h201z" />
    <glyph glyph-name="uni0458" unicode="&#x458;" horiz-adv-x="466" 
d="M346 1434v-271h-225v271h225zM334 946v-987q0 -202 -97.5 -300.5t-275.5 -98.5h-14v196h14q172 0 172 203v987h201z" />
    <glyph glyph-name="uni0459" unicode="&#x459;" horiz-adv-x="1540" 
d="M1169 612q152 0 241 -82t89 -223q0 -137 -92 -222t-240 -85h-411v713q0 26 10 53l-2 2q-16 -8 -57 -8h-250q-42 0 -58 8l-2 -2q11 -29 11 -53v-113h2v-281q0 -161 -78.5 -243t-231.5 -82h-80v182h78q60 0 85.5 35.5t25.5 118.5v270h-2v346h749v-287q0 -26 -10 -53l2 -2
q16 8 58 8h163zM1151 186q65 0 100 31t35 88q0 58 -35 89.5t-100 31.5h-145q-42 0 -58 8l-2 -2q10 -27 10 -53v-146q0 -26 -10 -53l2 -2q16 8 58 8h145z" />
    <glyph glyph-name="uni045A" unicode="&#x45a;" horiz-adv-x="1542" 
d="M133 0v946h201v-287q0 -26 -10 -53l2 -2q16 8 57 8h326q41 0 57 -8l2 2q-10 27 -10 53v287h200v-287q0 -26 -10 -53l2 -2q16 8 58 8h163q152 0 241 -82t89 -223q0 -137 -92 -222t-240 -85h-411v379q0 26 10 53l-2 2q-16 -8 -57 -8h-326q-41 0 -57 8l-2 -2q10 -27 10 -53
v-379h-201zM950 182q16 8 58 8h145q65 0 100 30t35 85q0 58 -35 89.5t-100 31.5h-145q-42 0 -58 8l-2 -2q10 -27 10 -53v-141q0 -27 -10 -54z" />
    <glyph glyph-name="uni045B" unicode="&#x45b;" horiz-adv-x="1136" 
d="M680 977q151 0 242.5 -88.5t91.5 -265.5v-623h-201v565q0 113 -54.5 167t-150.5 54q-118 0 -191 -80.5t-73 -250.5v-455h-201v1114q0 31 11 53l-2 2q-16 -8 -58 -8h-84v123h84q42 0 58 -8l2 2q-11 22 -11 53v133h201v-133q0 -33 -10 -53l2 -2q16 8 57 8h258v-123h-258
q-41 0 -57 8l-2 -2q10 -20 10 -53v-162q0 -112 -20 -204l8 -3q105 232 348 232z" />
    <glyph glyph-name="uni045C" unicode="&#x45c;" horiz-adv-x="1011" 
d="M897 1346l2 -5l-301 -311h-137l-2 4l192 312h246zM852 -6q-82 0 -129 30t-66 93l-47 168q-19 73 -47.5 101t-85.5 28h-88q-39 0 -63 4l-2 -2q10 -34 10 -86v-330h-201v946h201v-293q0 -48 -10 -82l2 -2q24 4 63 4h88q58 0 83.5 21.5t51.5 93.5l70 168q20 51 63.5 73.5
t120.5 22.5h101v-180h-43q-44 0 -66 -14.5t-41 -57.5l-33 -86q-20 -59 -68.5 -87t-131.5 -29v-9q90 -1 135.5 -29t64.5 -93l39 -134q12 -38 29.5 -48.5t67.5 -10.5h51v-180h-119z" />
    <glyph glyph-name="uni045E" unicode="&#x45e;" horiz-adv-x="1015" 
d="M797 1343q0 -141 -78.5 -220t-204.5 -79t-204.5 79t-78.5 220h140q6 -163 143 -163t143 163h140zM995 946l-571 -1358h-209l201 473l-396 885h230l215 -522q41 -99 43 -184h8q3 74 35 151l225 555h219z" />
    <glyph glyph-name="uni045F" unicode="&#x45f;" horiz-adv-x="1107" 
d="M463 -287v240q0 33 10 53l-2 2q-16 -8 -57 -8h-281v946h201v-713q0 -33 -10 -53l2 -2q16 8 57 8h342q41 0 57 -8l2 2q-10 20 -10 53v713h201v-946h-281q-41 0 -57 8l-2 -2q10 -20 10 -53v-240h-182z" />
    <glyph glyph-name="uni0462" unicode="&#x462;" horiz-adv-x="1310" 
d="M803 868q214 0 340.5 -118t126.5 -316t-126.5 -316t-340.5 -118h-541v981q0 36 6 51l-4 4q-19 -8 -51 -8h-213v197h213q32 0 51 -8l4 4q-6 15 -6 51v162h213v-162q0 -36 -6 -51l4 -4q19 8 51 8h363v-197h-363q-32 0 -51 8l-4 -4q6 -15 6 -51v-66q0 -36 -6 -51l4 -4
q19 8 51 8h279zM778 201q126 0 194 60.5t68 172.5q0 109 -69.5 171.5t-192.5 62.5h-254q-32 0 -51 8l-4 -4q6 -15 6 -51v-371q0 -38 -6 -53l4 -4q19 8 51 8h254z" />
    <glyph glyph-name="uni0463" unicode="&#x463;" horiz-adv-x="989" 
d="M618 612q152 0 241 -82t89 -223q0 -137 -92 -222t-240 -85h-432v694v41q0 24 11 53l-2 3q-18 -9 -58 -9h-125v164h125q42 0 58 -8l2 2q-11 29 -11 53v471h201v-471q0 -26 -10 -53l2 -2q16 8 57 8h299v-164h-299q-39 0 -57 9l-2 -3q10 -27 10 -53v-76q0 -26 -10 -53l2 -2
q16 8 57 8h184zM600 186q65 0 100 31t35 88q0 58 -35 89.5t-100 31.5h-166q-41 0 -57 8l-2 -2q10 -27 10 -53v-146q0 -26 -10 -53l2 -2q16 8 57 8h166z" />
    <glyph glyph-name="uni0472" unicode="&#x472;" horiz-adv-x="1638" 
d="M819 1464q214 0 385 -95.5t267 -266.5t96 -385q0 -213 -96 -384t-267 -267.5t-385 -96.5q-213 0 -384 96.5t-267 267.5t-96 384q0 160 56.5 299t155 237.5t237 154.5t298.5 56zM1337 799l4 4q-10 19 -20 59q-44 181 -177 283t-325 102t-325 -102t-177 -283
q-10 -40 -20 -59l4 -4q24 8 64 8h909q39 0 63 -8zM1321 571q10 42 20 60l-4 4q-24 -8 -63 -8h-909q-40 0 -64 8l-4 -4q10 -18 20 -60q44 -181 177 -283t325 -102t325 102t177 283z" />
    <glyph glyph-name="uni0473" unicode="&#x473;" horiz-adv-x="1150" 
d="M575 977q223 0 369 -143t146 -361t-146 -361t-369 -143t-368.5 143t-145.5 361t145.5 361t368.5 143zM874 516l5 4q-15 121 -97 190.5t-207 69.5t-206.5 -69.5t-96.5 -190.5l4 -4q31 19 134 19h331q102 0 133 -19zM575 166q125 0 207 69.5t97 190.5l-5 4
q-30 -18 -133 -18h-331q-104 0 -134 18l-4 -4q15 -121 96.5 -190.5t206.5 -69.5z" />
    <glyph glyph-name="uni0474" unicode="&#x474;" horiz-adv-x="1337" 
d="M1241 1464q49 0 117 -6v-194q-31 2 -76 2q-60 0 -93 -31.5t-73 -126.5l-467 -1126h-26l-623 1452h254l301 -783q50 -122 74 -274h8q33 163 76 274l217 555q57 142 127 200t184 58z" />
    <glyph glyph-name="uni0475" unicode="&#x475;" horiz-adv-x="993" 
d="M969 965h14v-197h-14q-91 0 -125 -70l-322 -708h-63l-439 956h234l158 -407q55 -139 75 -234h9q20 87 32.5 128t40.5 106l107 247q46 105 106.5 142t186.5 37z" />
    <glyph glyph-name="uni048E" unicode="&#x48e;" horiz-adv-x="1118" 
d="M1067 1026q0 -239 -184 -346l129 -182l-76 -56l-141 201q-77 -22 -162 -22h-217q-32 0 -51 8l-5 -4q7 -17 7 -52v-573h-213v1434h460q210 0 331.5 -108.5t121.5 -299.5zM616 821q20 0 52 4l-117 164l76 55l131 -186q80 53 80 168q0 96 -57.5 151.5t-164.5 55.5h-200
q-32 0 -51 8l-5 -4q7 -18 7 -53v-314q0 -36 -7 -53l5 -4q19 8 51 8h200z" />
    <glyph glyph-name="uni048F" unicode="&#x48f;" horiz-adv-x="1191" 
d="M1130 473q0 -138 -52.5 -248.5t-147.5 -177.5l110 -133l-65 -55l-121 147q-81 -37 -182 -37q-118 0 -207.5 55.5t-140.5 159.5l-9 -2q19 -71 19 -198v-394h-201v1356h195q0 -125 -13 -182l9 -2q53 105 141.5 160t206.5 55q201 0 329.5 -141.5t128.5 -362.5zM633 158
q43 0 88 10l-121 147l66 56l135 -166q117 82 117 268q0 148 -75.5 231.5t-209.5 83.5q-135 0 -221 -88t-86 -227t86 -227t221 -88z" />
    <glyph glyph-name="uni0490" unicode="&#x490;" horiz-adv-x="1001" 
d="M780 1720h201v-487h-565q-32 0 -51 8l-5 -4q7 -18 7 -51v-1186h-213v1434h577q30 0 51 -9l4 5q-6 15 -6 51v239z" />
    <glyph glyph-name="uni0491" unicode="&#x491;" horiz-adv-x="819" 
d="M588 1231h200v-471h-405q-41 0 -57 8l-2 -2q10 -20 10 -53v-713h-201v946h406q41 0 57 -8l2 2q-10 20 -10 53v238z" />
    <glyph glyph-name="uni0492" unicode="&#x492;" horiz-adv-x="1079" 
d="M512 1233q-32 0 -51 8l-4 -4q6 -15 6 -51v-328q0 -36 -6 -51l4 -4q19 8 51 8h397v-201h-397q-32 0 -51 8l-4 -4q6 -15 6 -51v-563h-213v563q0 36 6 51l-4 4q-19 -8 -51 -8h-181v201h181q32 0 51 -8l4 4q-6 15 -6 51v576h809v-201h-547z" />
    <glyph glyph-name="uni0493" unicode="&#x493;" horiz-adv-x="808" 
d="M434 760q-41 0 -57 8l-2 -2q10 -20 10 -53v-135q0 -34 -10 -54l2 -2q16 8 57 8h273v-186h-273q-41 0 -57 8l-2 -2q10 -20 10 -53v-297h-201v297q0 31 11 53l-2 2q-16 -8 -58 -8h-84v186h84q42 0 58 -8l2 2q-11 22 -11 54v368h615v-186h-365z" />
    <glyph glyph-name="uni0494" unicode="&#x494;" horiz-adv-x="1265" 
d="M776 872q206 0 307 -103t101 -314v-478q0 -182 -93.5 -284.5t-259.5 -102.5h-149v201h133q76 0 116 50t40 145v465q0 112 -53 166.5t-162 54.5q-161 0 -389 -70v-602h-213v1434h850v-201h-588q-32 0 -51 8l-5 -4q7 -18 7 -51v-291q0 -71 -13 -94l4 -4q197 75 418 75z" />
    <glyph glyph-name="uni0495" unicode="&#x495;" horiz-adv-x="995" 
d="M463 -410v189h110q83 0 121.5 36t38.5 113v254q0 94 -39 135t-129 41q-23 0 -49 -3t-47.5 -7t-45.5 -10.5t-38.5 -10.5t-31 -9.5l-19.5 -6.5v-311h-201v946h670v-186h-420q-41 0 -57 8l-2 -2q10 -27 10 -53v-115q0 -78 -12 -102l4 -2q141 55 270 55q172 0 255 -84.5
t83 -259.5v-283q0 -170 -84.5 -251t-261.5 -81h-125z" />
    <glyph glyph-name="uni0496" unicode="&#x496;" horiz-adv-x="1990" 
d="M1819 143h141v-430h-201v281q-14 -2 -43 -2q-129 0 -198 52.5t-95 172.5l-61 287q-19 85 -64 124.5t-122 39.5h-80q-40 0 -64 4l-2 -2q10 -34 10 -84v-586h-209v586q0 47 11 84l-2 2q-24 -4 -64 -4h-80q-77 0 -122 -39.5t-64 -124.5l-61 -287q-26 -120 -95 -172.5
t-198 -52.5q-62 0 -103 8v211q50 -4 64 -4q111 0 137 110l55 242q26 116 77.5 154.5t184.5 42.5v8q-149 7 -209.5 51t-89.5 164l-41 174q-18 86 -131 86q-19 0 -59 -4v199q79 6 102 6q126 0 189.5 -44.5t91.5 -150.5l59 -237q15 -76 70 -117t143 -41h80q46 0 64 -6l2 2
q-11 37 -11 82v506h209v-506q0 -48 -10 -82l2 -2q18 6 64 6h80q175 0 213 158l59 237q25 106 89 150.5t192 44.5q23 0 102 -6v-199q-40 4 -59 4q-114 0 -132 -86l-41 -174q-29 -120 -89.5 -164t-209.5 -51v-8q134 -5 185.5 -43.5t77.5 -153.5l55 -242q26 -110 137 -110
q14 0 64 4v-68z" />
    <glyph glyph-name="uni0497" unicode="&#x497;" horiz-adv-x="1527" 
d="M1380 125h127v-412h-180v281h-65q-80 0 -125 29.5t-64 93.5l-49 168q-20 72 -50 100.5t-85 28.5h-27q-39 0 -63 4l-2 -2q10 -34 10 -86v-330h-193v330q0 49 11 86l-2 2q-24 -4 -64 -4h-27q-55 0 -85 -28.5t-50 -100.5l-49 -168q-19 -64 -63.5 -93.5t-124.5 -29.5h-119
v174h53q44 0 64 13.5t32 51.5l37 134q19 64 65.5 92t135.5 30v9q-165 6 -201 116l-30 86q-19 46 -40.5 62t-66.5 16h-45v174h100q67 0 114 -25t67 -71l69 -168q26 -71 52.5 -93t84.5 -22h27q40 0 64 -4l2 2q-11 37 -11 82v293h193v-293q0 -48 -10 -82l2 -2q24 4 63 4h27
q58 0 84.5 22t52.5 93l70 168q42 96 180 96h100v-174h-45q-45 0 -66 -16t-40 -62l-31 -86q-36 -110 -201 -116v-9q89 -2 135.5 -30t65.5 -92l37 -134q12 -38 32 -51.5t64 -13.5h53v-43z" />
    <glyph glyph-name="uni0498" unicode="&#x498;" horiz-adv-x="1148" 
d="M1057 385q0 -186 -109 -289.5t-323 -122.5l-17 -43q85 -24 135 -58.5t50 -90.5q0 -32 -19 -64t-44.5 -54.5t-69 -48.5t-73 -40.5t-77.5 -36.5l-31 66q98 57 121 76q29 26 29 49q0 51 -146 86l58 155h-13q-283 0 -477 113l96 194q189 -100 394 -100q288 0 288 227
q0 125 -87.5 184.5t-270.5 59.5h-197v209h195q309 0 309 215q0 186 -241 186q-171 0 -375 -92l-76 199q247 100 475 100q225 0 336 -88t111 -268q0 -250 -230 -320q-65 -19 -139 -22v-8q78 0 141 -13q277 -62 277 -360z" />
    <glyph glyph-name="uni0499" unicode="&#x499;" horiz-adv-x="905" 
d="M844 260q0 -125 -86 -199.5t-246 -87.5l-16 -43q85 -24 134.5 -58.5t49.5 -90.5q0 -32 -19 -64t-44.5 -54.5t-69 -48.5t-73 -40.5t-77.5 -36.5l-30 66q98 57 121 78q28 24 28 47q0 51 -145 86l57 155q-219 0 -387 97l82 174q151 -86 313 -86q109 0 158 29.5t49 95.5
q0 71 -43 103t-139 32h-133v180h121q139 0 139 98q0 51 -39 75t-125 24q-133 0 -295 -76l-74 174q208 88 387 88q170 0 263.5 -63.5t93.5 -180.5q0 -97 -62.5 -154.5t-177.5 -66.5v-8q141 -7 213 -69t72 -175z" />
    <glyph glyph-name="uni049A" unicode="&#x49a;" horiz-adv-x="1392" 
d="M1231 143h131v-430h-201v277q-23 -2 -78 -2q-220 0 -266 233l-47 232q-22 112 -71.5 158t-149.5 46h-127q-50 0 -64 7l-2 -5q11 -32 11 -81v-578h-213v1434h213v-523q0 -48 -11 -80l2 -2q21 7 64 7h127q94 0 144 47t75 159l45 201q46 203 287 203q64 0 108 -8v-199
q-38 6 -63 6q-63 0 -95.5 -21.5t-43.5 -68.5l-39 -178q-28 -126 -93.5 -173t-218.5 -52v-9q153 -5 223 -54.5t93 -172.5l41 -203q13 -69 42.5 -97t88.5 -28q7 0 88 7v-52z" />
    <glyph glyph-name="uni049B" unicode="&#x49b;" horiz-adv-x="1112" 
d="M971 125h121v-412h-181v281h-59q-82 0 -129 30t-66 93l-47 168q-19 73 -47.5 101t-85.5 28h-88q-39 0 -63 4l-2 -2q10 -34 10 -86v-330h-201v946h201v-293q0 -48 -10 -82l2 -2q24 4 63 4h88q58 0 83.5 21.5t51.5 93.5l70 168q20 51 63.5 73.5t120.5 22.5h101v-180h-43
q-44 0 -66 -14.5t-41 -57.5l-33 -86q-20 -59 -68.5 -87t-131.5 -29v-9q90 -1 135.5 -29t64.5 -93l39 -134q12 -38 29.5 -48.5t67.5 -10.5h51v-49z" />
    <glyph glyph-name="uni049C" unicode="&#x49c;" horiz-adv-x="1271" 
d="M1143 188q7 0 88 7v-199q-65 -8 -148 -8q-220 0 -266 233l-47 232q-20 105 -64.5 151.5t-130.5 52.5v-286h-102v286h-51q-50 0 -64 7l-2 -5q11 -32 11 -81v-578h-213v1434h213v-523q0 -48 -11 -80l2 -2q21 7 64 7h51v303h102v-303q80 6 125 54t68 152l45 201
q46 203 287 203q64 0 108 -8v-199q-38 6 -63 6q-63 0 -95.5 -21.5t-43.5 -68.5l-39 -178q-28 -126 -93.5 -173t-218.5 -52v-9q153 -5 223 -54.5t93 -172.5l41 -203q13 -69 42.5 -97t88.5 -28z" />
    <glyph glyph-name="uni049D" unicode="&#x49d;" horiz-adv-x="1011" 
d="M920 174h51v-180h-119q-82 0 -129 30t-66 93l-47 168q-19 73 -47.5 101t-85.5 28h-2v-230h-61v230h-25q-39 0 -63 4l-2 -2q10 -34 10 -86v-330h-201v946h201v-293q0 -48 -10 -82l2 -2q24 4 63 4h25v224h61v-224h2q58 0 83.5 21.5t51.5 93.5l70 168q20 51 63.5 73.5
t120.5 22.5h101v-180h-43q-44 0 -66 -14.5t-41 -57.5l-33 -86q-20 -59 -68.5 -87t-131.5 -29v-9q90 -1 135.5 -29t64.5 -93l39 -134q12 -38 29.5 -48.5t67.5 -10.5z" />
    <glyph glyph-name="uni049E" unicode="&#x49e;" horiz-adv-x="1400" 
d="M1272 188q8 0 88 7v-199q-52 -8 -166 -8q-100 0 -168 61.5t-90 171.5l-47 232q-22 104 -70.5 148t-140.5 44h-127q-52 0 -64 6l-2 -4q11 -32 11 -82v-565h-213v1006q0 36 6 51l-4 4q-19 -8 -52 -8h-213v176h213q33 0 52 -8l4 4q-6 15 -6 51v158h213v-158q0 -34 -7 -51
l5 -4q19 8 51 8h254v-176h-254q-32 0 -51 8l-5 -4q7 -18 7 -51v-84q0 -48 -11 -80l2 -2q18 6 64 6h127q87 0 136.5 46.5t72.5 149.5l45 201q46 203 297 203q64 0 108 -8v-199q-37 6 -63 6q-63 0 -95.5 -21.5t-43.5 -68.5l-39 -178q-28 -125 -94 -173t-218 -54v-5
q153 -6 223 -56.5t93 -172.5l41 -203q13 -69 42.5 -97t88.5 -28z" />
    <glyph glyph-name="uni049F" unicode="&#x49f;" horiz-adv-x="1062" 
d="M971 174h51v-180h-119q-81 0 -128 30t-66 93l-47 168q-19 72 -48 100.5t-86 28.5h-88q-39 0 -63 4l-2 -2q10 -34 10 -86v-330h-201v1114q0 31 11 53l-2 2q-16 -8 -58 -8h-125v123h125q42 0 58 -8l2 2q-11 22 -11 53v133h201v-133q0 -33 -10 -53l2 -2q16 8 57 8h299v-123
h-299q-41 0 -57 8l-2 -2q10 -20 10 -53v-461q0 -48 -10 -82l2 -2q24 4 63 4h88q59 0 84.5 21.5t51.5 93.5l69 168q20 51 64 73.5t121 22.5h100v-180h-43q-44 0 -66 -14.5t-41 -57.5l-32 -86q-39 -113 -201 -116v-9q91 -1 136.5 -29t64.5 -93l38 -134q12 -38 29.5 -48.5
t67.5 -10.5z" />
    <glyph glyph-name="uni04A0" unicode="&#x4a0;" horiz-adv-x="1509" 
d="M1380 188q8 0 88 7v-199q-90 -8 -153 -8q-216 0 -262 233l-47 232q-22 101 -74 146.5t-146 45.5h-127q-51 0 -63 6l-2 -4q10 -29 10 -82v-565h-213v1186q0 38 8 51l-4 4q-19 -8 -53 -8h-322v201h584v-512q0 -51 -10 -80l2 -2q18 6 63 6h127q89 0 142 47.5t76 148.5
l45 201q46 203 288 203q65 0 109 -8v-199q-37 6 -64 6q-63 0 -95.5 -21.5t-43.5 -68.5l-39 -178q-28 -125 -93.5 -173t-217.5 -54v-5q153 -6 222.5 -56.5t92.5 -172.5l41 -203q13 -69 42.5 -97t88.5 -28z" />
    <glyph glyph-name="uni04A1" unicode="&#x4a1;" horiz-adv-x="1173" 
d="M1079 174h54v-180h-119q-78 0 -122 29.5t-63 93.5l-49 168q-20 66 -52 92t-89 26h-88q-34 0 -64 5l-2 -2q11 -37 11 -87v-319h-201v713q0 26 10 53l-2 2q-16 -8 -57 -8h-236v186h486v-282q0 -45 -11 -82l2 -2q24 4 64 4h88q60 0 88.5 20.5t54.5 83.5l72 168q38 96 174 96
h100v-180h-45q-40 0 -59.5 -14.5t-36.5 -57.5l-31 -86q-22 -60 -72 -87t-139 -29v-9q94 -2 141.5 -29t69.5 -93l37 -134q10 -38 25.5 -48.5t60.5 -10.5z" />
    <glyph glyph-name="uni04A2" unicode="&#x4a2;" horiz-adv-x="1466" 
d="M1305 143h131v-430h-201v287h-143v608q0 36 6 51l-4 5q-21 -9 -52 -9h-626q-30 0 -51 9l-5 -5q7 -17 7 -51v-608h-213v1434h213v-527q0 -33 -7 -51l5 -4q19 8 51 8h626q33 0 52 -8l4 4q-6 15 -6 51v527h213v-1291z" />
    <glyph glyph-name="uni04A3" unicode="&#x4a3;" horiz-adv-x="1157" 
d="M1016 125h121v-412h-181v287h-141v365q0 33 10 53l-2 2q-16 -8 -57 -8h-383q-41 0 -57 8l-2 -2q10 -20 10 -53v-365h-201v946h201v-301q0 -33 -10 -53l2 -2q16 8 57 8h383q41 0 57 -8l2 2q-10 20 -10 53v301h201v-821z" />
    <glyph glyph-name="uni04A4" unicode="&#x4a4;" horiz-adv-x="1845" 
d="M1067 1434h758v-205h-496q-32 0 -51 8l-4 -4q6 -15 6 -51v-1182h-213v608q0 36 6 51l-4 5q-21 -9 -51 -9h-602q-30 0 -51 9l-5 -5q7 -17 7 -51v-608h-213v1434h213v-527q0 -33 -7 -51l5 -4q19 8 51 8h602q32 0 51 -8l4 4q-6 15 -6 51v527z" />
    <glyph glyph-name="uni04A5" unicode="&#x4a5;" horiz-adv-x="1361" 
d="M778 946h574v-186h-324q-41 0 -57 8l-2 -2q10 -20 10 -53v-713h-201v365q0 33 10 53l-2 2q-16 -8 -57 -8h-346q-41 0 -57 8l-2 -2q10 -20 10 -53v-365h-201v946h201v-301q0 -33 -10 -53l2 -2q16 8 57 8h346q41 0 57 -8l2 2q-10 20 -10 53v301z" />
    <glyph glyph-name="uni04A6" unicode="&#x4a6;" horiz-adv-x="2156" 
d="M1706 872q420 0 420 -417v-70q0 -184 -99.5 -284.5t-281.5 -100.5h-162v201h119q110 0 160.5 46t50.5 146v58q0 109 -57.5 165t-169.5 56q-171 0 -410 -70v-602h-213v1186q0 36 6 51l-4 4q-19 -8 -51 -8h-598q-32 0 -51 8l-5 -4q7 -18 7 -51v-1186h-213v1434h1122v-539
q0 -72 -12 -94l4 -4q204 75 438 75z" />
    <glyph glyph-name="uni04A7" unicode="&#x4a7;" horiz-adv-x="1615" 
d="M1237 590q172 0 255 -84.5t83 -259.5v-324q0 -170 -84.5 -251t-261.5 -81h-125v189h110q83 0 121.5 36t38.5 113v295q0 94 -39 135t-129 41q-29 0 -60 -4t-59 -10.5t-48 -12t-41 -12.5t-23 -8v-352h-201v674v39q0 26 10 53l-2 2q-16 -8 -57 -8h-342q-41 0 -57 8l-2 -2
q10 -27 10 -53v-713h-201v946h842v-307q0 -78 -12 -102l4 -2q135 55 270 55z" />
    <glyph glyph-name="uni04A8" unicode="&#x4a8;" horiz-adv-x="1619" 
d="M795 -31q-324 0 -513.5 199.5t-189.5 542.5q0 349 202.5 551t551.5 202q132 0 227 -28l-59 -209q-73 20 -168 20q-238 0 -379 -148.5t-141 -398.5q0 -249 131.5 -399.5t349.5 -150.5q14 0 43 1t47 1v4q-37 11 -80 57q-66 73 -101.5 179.5t-35.5 228.5q0 214 109.5 339
t295.5 125q179 0 283.5 -119t104.5 -323q0 -251 -158 -432q-31 -36 -82 -53v-6q13 0 35.5 -2.5t38.5 -2.5q93 0 221 68l82 -172q-89 -41 -157 -57.5t-148 -16.5q-85 0 -139 18t-66 50h-4q-111 -68 -301 -68zM1059 193h4q9 12 19.5 23t30.5 28.5t24 21.5q135 126 135 350
q0 126 -48 191t-139 65q-92 0 -140 -66.5t-48 -195.5q0 -195 121 -334q30 -34 37 -48.5t4 -34.5z" />
    <glyph glyph-name="uni04A9" unicode="&#x4a9;" horiz-adv-x="1171" 
d="M559 -31q-232 0 -365 136t-133 372q0 239 140.5 369.5t398.5 130.5q89 0 176 -19l-43 -182q-67 15 -129 15q-158 0 -244 -81.5t-86 -232.5q0 -119 50 -203t141 -118q36 -14 90 -19l2 4q-7 3 -13.5 6.5t-11.5 8t-8.5 7.5t-7.5 8.5t-5.5 7.5t-5.5 8.5t-5 7.5
q-47 86 -47 194q0 141 85 225t230 84q144 0 222.5 -78t78.5 -221q0 -124 -76 -233q-14 -23 -55 -47l2 -4q31 8 51 12q46 8 109 37l61 -146q-106 -49 -211 -49q-130 0 -166 51h-4q-105 -51 -221 -51zM725 162l4 -2q162 83 162 221q0 68 -34 108.5t-91 40.5t-90 -42t-33 -115
q0 -93 49 -154q30 -33 33 -57z" />
    <glyph glyph-name="uni04AA" unicode="&#x4aa;" horiz-adv-x="1396" 
d="M1346 127q-204 -146 -465 -158l-15 -39q85 -24 135 -58.5t50 -90.5q0 -32 -19 -64t-44.5 -54.5t-69 -48.5t-73 -40.5t-77.5 -36.5l-31 66q98 57 121 76q29 26 29 49q0 51 -146 86l58 155q-326 14 -526.5 220t-200.5 528q0 165 56 304t156 236.5t243.5 152t312.5 54.5
q288 0 506 -157l-132 -187q-175 127 -383 127q-233 0 -379.5 -147.5t-146.5 -382.5t146.5 -383t379.5 -148q208 0 383 127z" />
    <glyph glyph-name="uni04AB" unicode="&#x4ab;" horiz-adv-x="956" 
d="M905 66q-138 -89 -284 -95l-15 -41q85 -24 135 -58.5t50 -90.5q0 -32 -19 -64t-44.5 -54.5t-69 -48.5t-73 -40.5t-77.5 -36.5l-31 66q98 57 121 76q29 26 29 49q0 51 -146 86l58 157q-214 14 -346 151.5t-132 350.5q0 224 145 364t376 140q180 0 323 -96l-94 -170
q-109 71 -236 71q-133 0 -217 -86t-84 -223t84 -223t217 -86q126 0 236 72z" />
    <glyph glyph-name="uni04AC" unicode="&#x4ac;" horiz-adv-x="1064" 
d="M688 1229q-32 0 -51 8l-4 -4q6 -15 6 -51v-1039h141v-430h-200v287h-154v1182q0 36 6 51l-4 4q-19 -8 -51 -8h-357v205h1024v-205h-356z" />
    <glyph glyph-name="uni04AD" unicode="&#x4ad;" horiz-adv-x="913" 
d="M606 760q-41 0 -57 8l-2 -2q10 -20 10 -53v-588h131v-412h-180v287h-152v713q0 31 11 53l-2 2q-16 -8 -58 -8h-297v186h893v-186h-297z" />
    <glyph glyph-name="uni04AE" unicode="&#x4ae;" horiz-adv-x="1146" 
d="M1137 1434l-457 -861v-573h-213v573l-457 861h252l211 -441q56 -117 72 -156t26 -92h4q9 49 25 89t58 127q10 21 16 32l211 441h252z" />
    <glyph glyph-name="uni04AF" unicode="&#x4af;" horiz-adv-x="1003" 
d="M983 946l-381 -809v-547h-201v547l-381 809h234l170 -414q45 -109 56 -143.5t20 -89.5h4q9 55 20 89.5t56 143.5l170 414h233z" />
    <glyph glyph-name="uni04B0" unicode="&#x4b0;" horiz-adv-x="1146" 
d="M684 569q21 9 51 9h228v-177h-234q-30 0 -51 9l-4 -4q6 -15 6 -52v-354h-213v354q0 37 6 52l-4 4q-21 -9 -51 -9h-234v177h228q30 0 51 -9l4 4l-457 861h246l217 -441q48 -98 65.5 -142.5t30.5 -105.5h9q13 61 30.5 105.5t65.5 142.5l217 441h246l-457 -861z" />
    <glyph glyph-name="uni04B1" unicode="&#x4b1;" horiz-adv-x="1044" 
d="M627 141q18 9 55 9h199v-191h-209q-42 0 -58 8l-2 -2q11 -22 11 -53v-322h-201v322q0 33 10 53l-2 2q-16 -8 -57 -8h-209v191h198q38 0 56 -9l2 2l-379 803h233l170 -414q45 -109 56 -143.5t20 -89.5h4q9 55 20 89.5t56 143.5l170 414h234l-379 -803z" />
    <glyph glyph-name="uni04B2" unicode="&#x4b2;" horiz-adv-x="1349" 
d="M1174 143h145v-430h-201v287h-102l-279 444q-81 132 -90 179h-8q-9 -47 -90 -179l-279 -444h-250l392 612q72 111 102 150v4q-35 40 -86 119l-346 549h250l217 -351q81 -129 90 -178h8q9 49 90 178l217 351h250l-346 -549q-51 -79 -86 -119v-4q30 -39 102 -150z" />
    <glyph glyph-name="uni04B3" unicode="&#x4b3;" horiz-adv-x="1062" 
d="M918 125h124v-412h-180v287h-92l-172 240q-41 56 -57.5 87.5t-22.5 67.5h-8q-6 -36 -22.5 -67.5t-57.5 -87.5l-172 -240h-238l310 430q41 53 57 59v7q-20 10 -53 57l-273 393h238l129 -190q44 -65 61 -99t21 -69h8q4 35 21 69t61 99l129 190h238l-273 -393
q-33 -47 -53 -57v-7q16 -6 57 -59z" />
    <glyph glyph-name="uni04B4" unicode="&#x4b4;" horiz-adv-x="1759" 
d="M1577 201h121v-484h-203v236q0 31 8 51l-4 4q-16 -8 -53 -8h-979v1186q0 36 6 51l-4 4q-16 -8 -51 -8h-398v201h1024v-201h-315q-32 0 -51 8l-4 -4q6 -15 6 -51v-938q0 -31 -8 -51l4 -4q19 8 53 8h537q34 0 53 -8l4 4q-8 20 -8 51v1186h213v-1186q0 -31 -8 -51l4 -4
q16 8 53 8z" />
    <glyph glyph-name="uni04B5" unicode="&#x4b5;" horiz-adv-x="1189" 
d="M1096 186h53v-473h-182v240q0 33 10 53l-2 2q-16 -8 -57 -8h-662v713q0 33 10 53l-2 2q-16 -8 -57 -8h-197v186h690v-186h-194q-41 0 -57 8l-3 -2q11 -22 11 -53v-480q0 -31 -11 -53l3 -2q16 8 57 8h291q41 0 57 -8l2 2q-10 20 -10 53v713h201v-713q0 -31 -11 -53l2 -2
q16 8 58 8z" />
    <glyph glyph-name="uni04B6" unicode="&#x4b6;" horiz-adv-x="1265" 
d="M1094 143h141v-430h-201v287h-153v526q0 73 12 95l-4 4q-206 -76 -438 -76q-420 0 -420 459v426h213v-422q0 -129 57.5 -195.5t169.5 -66.5q175 0 410 69v615h213v-1291z" />
    <glyph glyph-name="uni04B7" unicode="&#x4b7;" horiz-adv-x="1003" 
d="M852 125h131v-412h-180v287h-152v299q0 76 13 102l-5 2q-152 -55 -290 -55q-178 0 -263.5 84.5t-85.5 259.5v254h201v-231q0 -95 41 -135.5t137 -40.5q25 0 53.5 3t51.5 7t49.5 10.5t42 10.5t34.5 10t21 6v360h201v-725v-96z" />
    <glyph glyph-name="uni04B8" unicode="&#x4b8;" horiz-adv-x="1247" 
d="M881 1434h213v-1434h-213v526q0 73 12 95l-4 4q-133 -48 -277 -66v-233h-102v225q-20 -2 -59 -2q-420 0 -420 459v426h213v-422q0 -129 57.5 -195.5t169.5 -66.5h39v344h102v-336q99 13 269 61v615z" />
    <glyph glyph-name="uni04B9" unicode="&#x4b9;" horiz-adv-x="974" 
d="M651 946h201v-725v-221h-201v299q0 76 13 102l-5 2q-97 -36 -182 -47v-161h-61v155q-16 -2 -47 -2q-178 0 -263.5 84.5t-85.5 259.5v254h201v-231q0 -95 41 -135.5t137 -40.5h17v206h61v-200q28 3 58 9.5t50 12t41 12t25 7.5v360z" />
    <glyph glyph-name="uni04BA" unicode="&#x4ba;" horiz-adv-x="1247" 
d="M367 1434v-527q0 -71 -13 -94l4 -4q206 76 439 76q420 0 420 -459v-426h-213v422q0 129 -58 195.5t-170 66.5q-170 0 -409 -70v-614h-213v1434h213z" />
    <glyph glyph-name="uni04BB" unicode="&#x4bb;" horiz-adv-x="1126" 
d="M334 1464v-512q0 -99 -21 -204l9 -3q105 232 348 232q158 0 246 -93.5t88 -260.5v-623h-201v565q0 107 -52.5 164t-152.5 57q-126 0 -195 -86.5t-69 -244.5v-455h-201v1464h201z" />
    <glyph glyph-name="uni04BC" unicode="&#x4bc;" horiz-adv-x="1837" 
d="M1085 -31q-283 0 -464.5 145t-249.5 418q-10 43 -4 82l-5 2q-10 -12 -61 -12q-138 0 -209.5 77.5t-71.5 223.5q0 65 21 154h213q-23 -81 -23 -127q0 -61 21.5 -92t60.5 -31q40 0 52 -8l4 2q-8 39 0 82q42 260 237 419.5t492 159.5q326 0 496.5 -197.5t170.5 -549.5v-113
h-1085q-51 0 -92 17l-2 -7q13 -26 24 -73q41 -165 163.5 -260t313.5 -95q79 0 149 16.5t125.5 46.5t94 57.5t78.5 64.5l131 -176q-243 -226 -580 -226zM594 799q37 10 108 10h725q76 0 111 -10l4 4q-13 21 -24 82q-24 171 -136 266.5t-299 95.5q-194 0 -311 -99.5
t-158 -262.5q-20 -72 -24 -80z" />
    <glyph glyph-name="uni04BD" unicode="&#x4bd;" horiz-adv-x="1284" 
d="M782 -31q-205 0 -334.5 113t-152.5 313q-4 30 2 47l-4 2q-23 -10 -60 -10q-110 0 -166.5 60.5t-56.5 179.5q0 47 19 106h159q-18 -50 -18 -102q0 -51 18 -71.5t62 -20.5q39 0 53 -11l4 3q-3 22 4 53q44 161 167 253.5t292 92.5q212 0 332.5 -134.5t120.5 -369.5v-39h-607
q-91 0 -124 17l-5 -5l7 -24q15 -127 90.5 -194.5t201.5 -67.5q84 0 150.5 32t136.5 107l123 -133q-164 -197 -414 -197zM500 565q40 21 116 21h242q125 0 152 -19l4 4q-11 106 -76.5 165t-173.5 59q-110 0 -181.5 -60t-86.5 -166z" />
    <glyph glyph-name="uni04BE" unicode="&#x4be;" horiz-adv-x="1837" 
d="M680 604q-51 0 -92 17l-2 -7q13 -26 24 -73q41 -165 163.5 -260t313.5 -95q79 0 149 16.5t125.5 46.5t94 57.5t78.5 64.5l131 -176q-129 -119 -274 -175h2q-94 -76 -137.5 -127.5t-43.5 -91.5q0 -28 19.5 -43.5t56.5 -15.5q38 0 82 12l33 -110q-71 -29 -146 -29
q-79 0 -129.5 40t-50.5 109q0 56 33.5 106t103.5 107q-55 -8 -129 -8q-283 0 -464.5 145t-249.5 418q-10 43 -4 82l-5 2q-10 -12 -61 -12q-138 0 -209.5 77.5t-71.5 223.5q0 65 21 154h213q-23 -81 -23 -127q0 -61 21.5 -92t60.5 -31q40 0 52 -8l4 2q-8 39 0 82
q42 260 237 419.5t492 159.5q326 0 496.5 -197.5t170.5 -549.5v-113h-1085zM614 885q-20 -72 -24 -80l4 -6q37 10 108 10h725q76 0 111 -10l4 4q-13 21 -24 82q-24 171 -136 266.5t-299 95.5q-194 0 -311 -99.5t-158 -262.5z" />
    <glyph glyph-name="uni04BF" unicode="&#x4bf;" horiz-adv-x="1284" 
d="M616 434q-91 0 -124 17l-5 -5l7 -24q15 -127 90.5 -194.5t201.5 -67.5q84 0 150.5 32t136.5 107l123 -133q-81 -101 -186 -150q-93 -75 -136 -126t-43 -91q0 -28 19.5 -43.5t56.5 -15.5q39 0 82 12l33 -110q-71 -29 -145 -29q-79 0 -130 40t-51 109q0 55 32.5 104.5
t98.5 104.5q-14 -2 -45 -2q-205 0 -334.5 113t-152.5 313q-4 30 2 47l-4 2q-23 -10 -60 -10q-110 0 -166.5 60.5t-56.5 179.5q0 47 19 106h159q-18 -50 -18 -102q0 -51 18 -71.5t62 -20.5q39 0 53 -11l4 3q-3 22 4 53q44 161 167 253.5t292 92.5q212 0 332.5 -134.5
t120.5 -369.5v-39h-607zM764 795q-110 0 -181.5 -60t-86.5 -166l4 -4q40 21 116 21h242q125 0 152 -19l4 4q-11 106 -76.5 165t-173.5 59z" />
    <glyph glyph-name="uni04C0" unicode="&#x4c0;" horiz-adv-x="520" 
d="M367 1434v-1434h-213v1434h213z" />
    <glyph glyph-name="uni04C1" unicode="&#x4c1;" horiz-adv-x="1871" 
d="M1214 1767q-3 -134 -76.5 -210t-201.5 -76q-129 0 -202.5 76t-76.5 210h138q-2 -82 34.5 -125t106.5 -43t106.5 43t34.5 125h137zM156 -8q-62 0 -103 8v211q50 -4 64 -4q111 0 137 110l55 242q26 116 77.5 154.5t184.5 42.5v8q-149 7 -209.5 51t-89.5 164l-41 174
q-18 86 -131 86q-19 0 -59 -4v199q79 6 102 6q126 0 189.5 -44.5t91.5 -150.5l59 -237q15 -76 70 -117t143 -41h80q46 0 64 -6l2 2q-11 37 -11 82v506h209v-506q0 -48 -10 -82l2 -2q18 6 64 6h80q175 0 213 158l59 237q25 106 89 150.5t192 44.5q23 0 102 -6v-199
q-40 4 -59 4q-114 0 -132 -86l-41 -174q-29 -120 -89.5 -164t-209.5 -51v-8q134 -5 185.5 -43.5t77.5 -153.5l55 -242q26 -110 137 -110q14 0 64 4v-211q-41 -8 -103 -8q-129 0 -198 52.5t-95 172.5l-61 287q-19 85 -64 124.5t-122 39.5h-80q-40 0 -64 4l-2 -2
q10 -34 10 -84v-586h-209v586q0 47 11 84l-2 2q-24 -4 -64 -4h-80q-77 0 -122 -39.5t-64 -124.5l-61 -287q-26 -120 -95 -172.5t-198 -52.5z" />
    <glyph glyph-name="uni04C2" unicode="&#x4c2;" horiz-adv-x="1421" 
d="M993 1343q0 -141 -78 -220t-204 -79t-204.5 79t-78.5 220h139q6 -163 144 -163q137 0 143 163h139zM41 -6v174h53q44 0 64 13.5t32 51.5l37 134q19 64 65.5 92t135.5 30v9q-165 6 -201 116l-30 86q-19 46 -40.5 62t-66.5 16h-45v174h100q67 0 114 -25t67 -71l69 -168
q26 -71 52.5 -93t84.5 -22h27q40 0 64 -4l2 2q-11 37 -11 82v293h193v-293q0 -48 -10 -82l2 -2q24 4 63 4h27q58 0 84.5 22t52.5 93l70 168q42 96 180 96h100v-174h-45q-45 0 -66 -16t-40 -62l-31 -86q-36 -110 -201 -116v-9q89 -2 135.5 -30t65.5 -92l37 -134
q12 -38 32 -51.5t64 -13.5h53v-174h-118q-80 0 -125 29.5t-64 93.5l-49 168q-20 72 -50 100.5t-85 28.5h-27q-39 0 -63 4l-2 -2q10 -34 10 -86v-330h-193v330q0 49 11 86l-2 2q-24 -4 -64 -4h-27q-55 0 -85 -28.5t-50 -100.5l-49 -168q-19 -64 -63.5 -93.5t-124.5 -29.5
h-119z" />
    <glyph glyph-name="uni04C3" unicode="&#x4c3;" horiz-adv-x="1290" 
d="M967 977q-20 -95 -83 -144t-192 -71v-4q255 -4 375.5 -115t120.5 -340v-326q0 -182 -93 -284.5t-259 -102.5h-150v201h133q76 0 116 50t40 145v317q0 190 -128 272t-425 82q-50 0 -64 7l-2 -5q11 -32 11 -81v-578h-213v1434h213v-523q0 -48 -11 -80l2 -2q21 7 64 7h127
q88 0 137 48.5t72 157.5l45 201q47 203 297 203q64 0 108 -8v-199q-38 6 -63 6q-63 0 -95.5 -21.5t-43.5 -68.5z" />
    <glyph glyph-name="uni04C4" unicode="&#x4c4;" horiz-adv-x="987" 
d="M770 614q-22 -59 -71.5 -87t-135.5 -29v-9q379 3 379 -329v-238q0 -170 -84.5 -251t-261.5 -81h-125v189h111q83 0 121 36t38 113v244q0 114 -66.5 174.5t-195.5 63.5l-90 2q-39 0 -63 4l-2 -2q10 -34 10 -86v-328h-201v946h201v-293q0 -48 -10 -82l2 -2q24 4 63 4h68
q61 0 88 22t55 93l72 168q41 96 174 96h100v-180h-45q-42 0 -64 -16t-36 -56z" />
    <glyph glyph-name="uni04C5" unicode="&#x4c5;" horiz-adv-x="1531" 
d="M1366 154h156l-150 -441h-170l90 287h-139v1186q0 36 6 51l-4 4q-19 -8 -51 -8h-557q-32 0 -51 8l-4 -4q6 -15 6 -51v-832q0 -187 -76.5 -275.5t-239.5 -88.5q-58 0 -131 8v197q56 -5 111 -5q66 0 94.5 35t28.5 117v1092h1081v-1280z" />
    <glyph glyph-name="uni04C6" unicode="&#x4c6;" horiz-adv-x="1118" 
d="M958 154h150l-150 -441h-170l91 287h-121v713q0 26 10 53l-2 2q-16 -8 -57 -8h-250q-42 0 -58 8l-2 -2q11 -29 11 -53v-394q0 -161 -78.5 -243t-231.5 -82h-80v182h78q60 0 85.5 35.5t25.5 118.5v616h749v-792z" />
    <glyph glyph-name="uni04C7" unicode="&#x4c7;" horiz-adv-x="1458" 
d="M1092 1434h213v-1467q0 -199 -90.5 -288t-262.5 -89h-108v205h106q76 0 109 40.5t33 131.5v365v276q0 36 6 51l-4 5q-21 -9 -52 -9h-626q-30 0 -51 9l-5 -5q7 -17 7 -51v-608h-213v1434h213v-527q0 -33 -7 -51l5 -4q19 8 51 8h626q33 0 52 -8l4 4q-6 15 -6 51v527z" />
    <glyph glyph-name="uni04C8" unicode="&#x4c8;" horiz-adv-x="1148" 
d="M815 946h201v-1007q0 -172 -87 -260.5t-245 -88.5h-109v197h107q133 0 133 152v426q0 33 10 53l-2 2q-16 -8 -57 -8h-383q-41 0 -57 8l-2 -2q10 -20 10 -53v-365h-201v946h201v-301q0 -33 -10 -53l2 -2q16 8 57 8h383q41 0 57 -8l2 2q-10 20 -10 53v301z" />
    <glyph glyph-name="uni04C9" unicode="&#x4c9;" horiz-adv-x="1470" 
d="M1305 154h155l-149 -441h-170l90 287h-139v608q0 36 6 51l-4 5q-21 -9 -52 -9h-626q-30 0 -51 9l-5 -5q7 -17 7 -51v-608h-213v1434h213v-527q0 -33 -7 -51l5 -4q19 8 51 8h626q33 0 52 -8l4 4q-6 15 -6 51v527h213v-1280z" />
    <glyph glyph-name="uni04CA" unicode="&#x4ca;" horiz-adv-x="1181" 
d="M1016 154h155l-149 -441h-170l90 287h-127v365q0 33 10 53l-2 2q-16 -8 -57 -8h-383q-41 0 -57 8l-2 -2q10 -20 10 -53v-365h-201v946h201v-301q0 -33 -10 -53l2 -2q16 8 57 8h383q41 0 57 -8l2 2q-10 20 -10 53v301h201v-792z" />
    <glyph glyph-name="uni04CB" unicode="&#x4cb;" horiz-adv-x="1247" 
d="M1094 1434v-1434h-164v-287h-201v430h152v383q0 73 12 95l-4 4q-206 -76 -438 -76q-420 0 -420 459v426h213v-422q0 -129 57.5 -195.5t169.5 -66.5q175 0 410 69v615h213z" />
    <glyph glyph-name="uni04CC" unicode="&#x4cc;" horiz-adv-x="974" 
d="M651 946h201v-725v-221h-156v-287h-180v412h135v174q0 76 13 102l-5 2q-152 -55 -290 -55q-178 0 -263.5 84.5t-85.5 259.5v254h201v-231q0 -95 41 -135.5t137 -40.5q25 0 53.5 3t51.5 7t49.5 10.5t42 10.5t34.5 10t21 6v360z" />
    <glyph glyph-name="uni04CD" unicode="&#x4cd;" horiz-adv-x="1914" 
d="M1737 154h168l-150 -441h-170l90 287h-114l-211 737q-31 103 -31 232h-8q-10 -97 -68 -230l-332 -753h-20l-332 753q-57 130 -67 230h-9q0 -133 -30 -232l-211 -737h-222l426 1454h31l385 -901q26 -63 35 -166h8q9 103 35 166l385 901h31z" />
    <glyph glyph-name="uni04CE" unicode="&#x4ce;" horiz-adv-x="1433" 
d="M1288 154h135l-149 -441h-170l90 287h-66l-129 389q-17 52 -22.5 68.5t-11 42t-7.5 53.5h-8l-4 -16l-3.5 -14t-5.5 -16.5t-6 -16t-8 -20.5t-9 -21.5t-12 -27t-13 -30.5l-178 -401h-58l-178 401q-4 10 -13 30.5t-12 27t-9 21.5t-8 20.5t-6 16t-5.5 16.5l-3.5 14l-4 16h-8
q-2 -28 -7.5 -53.5t-11 -42t-22.5 -68.5l-129 -389h-216l345 956h53l221 -495q31 -70 39 -113h8q8 43 39 113l221 495h53z" />
    <glyph glyph-name="uni04CF" unicode="&#x4cf;" horiz-adv-x="466" 
d="M334 946v-946h-201v946h201z" />
    <glyph glyph-name="uni04D0" unicode="&#x4d0;" horiz-adv-x="1425" 
d="M991 1767q-3 -134 -76.5 -210t-201.5 -76q-129 0 -202.5 76t-76.5 210h137q-1 -82 35 -125t107 -43q70 0 106.5 43t34.5 125h137zM20 0l682 1464h21l682 -1464h-240l-168 377h-569l-168 -377h-240zM487 555q36 4 115 4h221q79 0 115 -4l2 2q-34 43 -66 117l-106 252
q-45 108 -51 164h-8q-6 -53 -52 -164l-106 -252q-32 -74 -66 -117z" />
    <glyph glyph-name="uni04D1" unicode="&#x4d1;" horiz-adv-x="1026" 
d="M803 1343q0 -141 -78.5 -220t-204.5 -79t-204 79t-78 220h139q6 -163 143 -163q138 0 144 163h139zM506 977q206 0 301.5 -93t95.5 -292v-592h-203q0 88 29 150l-8 4q-108 -185 -318 -185q-153 0 -247.5 91.5t-94.5 240.5q0 154 94.5 244t250.5 90q104 0 184.5 -41
t128.5 -117l6 4q-11 37 -16 131q-12 179 -220 179q-110 0 -272 -52l-55 181q174 57 344 57zM479 469q-92 0 -148.5 -47.5t-56.5 -122.5q0 -76 56 -121t147 -45q94 0 154.5 46.5t60.5 121.5q0 74 -60 121t-153 47z" />
    <glyph glyph-name="uni04D2" unicode="&#x4d2;" horiz-adv-x="1425" 
d="M444 1747h185v-225h-185v225zM797 1747h184v-225h-184v225zM20 0l682 1464h21l682 -1464h-240l-168 377h-569l-168 -377h-240zM487 555q36 4 115 4h221q79 0 115 -4l2 2q-34 43 -66 117l-106 252q-45 108 -51 164h-8q-6 -53 -52 -164l-106 -252q-32 -74 -66 -117z" />
    <glyph glyph-name="uni04D3" unicode="&#x4d3;" horiz-adv-x="1026" 
d="M453 1331v-250h-174v250h174zM762 1331v-250h-174v250h174zM506 977q206 0 301.5 -93t95.5 -292v-592h-203q0 88 29 150l-8 4q-108 -185 -318 -185q-153 0 -247.5 91.5t-94.5 240.5q0 154 94.5 244t250.5 90q104 0 184.5 -41t128.5 -117l6 4q-11 37 -16 131
q-12 179 -220 179q-110 0 -272 -52l-55 181q174 57 344 57zM479 469q-92 0 -148.5 -47.5t-56.5 -122.5q0 -76 56 -121t147 -45q94 0 154.5 46.5t60.5 121.5q0 74 -60 121t-153 47z" />
    <glyph glyph-name="uni04D4" unicode="&#x4d4;" horiz-adv-x="1882" 
d="M1290 203h500v-203h-752v328q0 38 6 53l-4 4q-19 -8 -51 -8h-473l-237 -377h-259l936 1434h826v-203h-492q-32 0 -51 8l-4 -4q6 -15 6 -53v-254q0 -36 -6 -51l4 -5q21 9 51 9h443v-203h-443q-32 0 -51 8l-4 -4q6 -15 6 -53v-377q0 -38 -6 -53l4 -4q19 8 51 8zM1044 555
q-6 15 -6 51v502q0 64 13 160h-2q-31 -92 -74 -160l-291 -463q-25 -39 -40.5 -58t-41.5 -36l2 -4q35 12 101 12h284q35 0 51 -8z" />
    <glyph glyph-name="uni04D5" unicode="&#x4d5;" horiz-adv-x="1693" 
d="M424 -31q-162 0 -262.5 94t-100.5 246q0 146 96 236t251 90q100 0 181 -41.5t128 -116.5l6 4q-11 38 -16 133q-12 177 -218 177q-109 0 -274 -52l-55 181q186 57 348 57q135 0 210 -42.5t109 -139.5h4q116 182 355 182q207 0 326.5 -135.5t119.5 -368.5v-39h-608
q-88 0 -123 12l-2 -4l2 -14q17 -130 93 -199t202 -69q84 0 150.5 32t136.5 107l123 -133q-159 -197 -408 -197q-142 0 -249 66t-150 180h-6q-41 -116 -139 -181t-230 -65zM909 565q40 21 115 21h242q107 0 153 -19l4 4q-11 106 -76 165t-173 59q-110 0 -182 -60t-87 -166z
M477 133q94 0 153.5 47t59.5 121t-59.5 121t-153.5 47q-92 0 -148.5 -46.5t-56.5 -121.5t56.5 -121.5t148.5 -46.5z" />
    <glyph glyph-name="uni04D6" unicode="&#x4d6;" horiz-adv-x="1056" 
d="M862 1767q-3 -134 -76.5 -210t-201.5 -76q-129 0 -202.5 76t-76.5 210h137q-1 -82 35 -125t107 -43q70 0 106.5 43t34.5 125h137zM967 1434v-201h-551q-32 0 -51 8l-5 -4q7 -18 7 -53v-256q0 -34 -7 -51l5 -5q21 9 51 9h483v-201h-483q-32 0 -51 8l-5 -4q7 -18 7 -53
v-381q0 -35 -7 -53l5 -4q19 8 51 8h559v-201h-821v1434h813z" />
    <glyph glyph-name="uni04D7" unicode="&#x4d7;" horiz-adv-x="1056" 
d="M827 1343q0 -141 -78 -220t-204 -79t-204.5 79t-78.5 220h139q6 -163 144 -163q137 0 143 163h139zM543 977q211 0 331.5 -134.5t120.5 -369.5v-39h-608q-92 0 -125 17l-4 -5l8 -24q15 -126 91 -194t202 -68q84 0 150.5 32t136.5 107l123 -133q-164 -197 -414 -197
q-222 0 -358 137t-136 361q0 230 132 370t350 140zM537 795q-110 0 -182 -60t-87 -166l4 -4q40 21 117 21h240q124 0 151 -19l4 4q-9 106 -74 165t-173 59z" />
    <glyph glyph-name="uni04D8" unicode="&#x4d8;" horiz-adv-x="1556" 
d="M760 1464q337 0 531 -200t194 -547q0 -346 -194.5 -547t-530.5 -201q-328 0 -508 196t-180 552v112h1093q53 0 92 -16l3 6q-14 29 -25 74q-43 170 -169 262t-318 92q-249 0 -449 -164l-127 181q119 98 270 149t318 51zM1257 635q-31 -10 -108 -10h-750q-74 0 -110 10
l-4 -4q18 -27 24 -82q23 -172 145.5 -267.5t319.5 -95.5q182 0 299.5 92.5t163.5 270.5q10 41 25 80z" />
    <glyph glyph-name="uni04D9" unicode="&#x4d9;" horiz-adv-x="1056" 
d="M514 -31q-211 0 -332 134.5t-121 369.5v39h609q94 0 125 -16l4 4l-8 24q-15 126 -91 194t-202 68q-84 0 -150.5 -32t-136.5 -107l-123 133q164 197 414 197q221 0 357 -137t136 -361q0 -231 -131.5 -370.5t-349.5 -139.5zM520 152q110 0 181.5 59.5t86.5 165.5l-4 4
q-40 -21 -116 -21h-240q-125 0 -152 19l-4 -4q9 -106 74 -164.5t174 -58.5z" />
    <glyph glyph-name="uni04DA" unicode="&#x4da;" horiz-adv-x="1556" 
d="M510 1747h184v-225h-184v225zM862 1747h185v-225h-185v225zM760 1464q337 0 531 -200t194 -547q0 -346 -194.5 -547t-530.5 -201q-328 0 -508 196t-180 552v112h1093q53 0 92 -16l3 6q-14 29 -25 74q-43 170 -169 262t-318 92q-249 0 -449 -164l-127 181q119 98 270 149
t318 51zM1257 635q-31 -10 -108 -10h-750q-74 0 -110 10l-4 -4q18 -27 24 -82q23 -172 145.5 -267.5t319.5 -95.5q182 0 299.5 92.5t163.5 270.5q10 41 25 80z" />
    <glyph glyph-name="uni04DB" unicode="&#x4db;" horiz-adv-x="1056" 
d="M471 1331v-250h-174v250h174zM780 1331v-250h-174v250h174zM514 -31q-211 0 -332 134.5t-121 369.5v39h609q94 0 125 -16l4 4l-8 24q-15 126 -91 194t-202 68q-84 0 -150.5 -32t-136.5 -107l-123 133q164 197 414 197q221 0 357 -137t136 -361q0 -231 -131.5 -370.5
t-349.5 -139.5zM520 152q110 0 181.5 59.5t86.5 165.5l-4 4q-40 -21 -116 -21h-240q-125 0 -152 19l-4 -4q9 -106 74 -164.5t174 -58.5z" />
    <glyph glyph-name="uni04DC" unicode="&#x4dc;" horiz-adv-x="1871" 
d="M668 1747h184v-225h-184v225zM1020 1747h184v-225h-184v225zM156 -8q-62 0 -103 8v211q50 -4 64 -4q111 0 137 110l55 242q26 116 77.5 154.5t184.5 42.5v8q-149 7 -209.5 51t-89.5 164l-41 174q-18 86 -131 86q-19 0 -59 -4v199q79 6 102 6q126 0 189.5 -44.5
t91.5 -150.5l59 -237q15 -76 70 -117t143 -41h80q46 0 64 -6l2 2q-11 37 -11 82v506h209v-506q0 -48 -10 -82l2 -2q18 6 64 6h80q175 0 213 158l59 237q25 106 89 150.5t192 44.5q23 0 102 -6v-199q-40 4 -59 4q-114 0 -132 -86l-41 -174q-29 -120 -89.5 -164t-209.5 -51v-8
q134 -5 185.5 -43.5t77.5 -153.5l55 -242q26 -110 137 -110q14 0 64 4v-211q-41 -8 -103 -8q-129 0 -198 52.5t-95 172.5l-61 287q-19 85 -64 124.5t-122 39.5h-80q-40 0 -64 4l-2 -2q10 -34 10 -84v-586h-209v586q0 47 11 84l-2 2q-24 -4 -64 -4h-80q-77 0 -122 -39.5
t-64 -124.5l-61 -287q-26 -120 -95 -172.5t-198 -52.5z" />
    <glyph glyph-name="uni04DD" unicode="&#x4dd;" horiz-adv-x="1421" 
d="M643 1331v-250h-174v250h174zM952 1331v-250h-174v250h174zM41 -6v174h53q44 0 64 13.5t32 51.5l37 134q19 64 65.5 92t135.5 30v9q-165 6 -201 116l-30 86q-19 46 -40.5 62t-66.5 16h-45v174h100q67 0 114 -25t67 -71l69 -168q26 -71 52.5 -93t84.5 -22h27q40 0 64 -4
l2 2q-11 37 -11 82v293h193v-293q0 -48 -10 -82l2 -2q24 4 63 4h27q58 0 84.5 22t52.5 93l70 168q42 96 180 96h100v-174h-45q-45 0 -66 -16t-40 -62l-31 -86q-36 -110 -201 -116v-9q89 -2 135.5 -30t65.5 -92l37 -134q12 -38 32 -51.5t64 -13.5h53v-174h-118
q-80 0 -125 29.5t-64 93.5l-49 168q-20 72 -50 100.5t-85 28.5h-27q-39 0 -63 4l-2 -2q10 -34 10 -86v-330h-193v330q0 49 11 86l-2 2q-24 -4 -64 -4h-27q-55 0 -85 -28.5t-50 -100.5l-49 -168q-19 -64 -63.5 -93.5t-124.5 -29.5h-119z" />
    <glyph glyph-name="uni04DE" unicode="&#x4de;" horiz-adv-x="1148" 
d="M303 1747h184v-225h-184v225zM655 1747h185v-225h-185v225zM528 -31q-283 0 -477 113l96 194q189 -100 394 -100q288 0 288 227q0 125 -87.5 184.5t-270.5 59.5h-197v209h195q309 0 309 215q0 186 -241 186q-171 0 -375 -92l-76 199q247 100 475 100q225 0 336 -88
t111 -268q0 -250 -230 -320q-65 -19 -139 -22v-8q78 0 141 -13q277 -62 277 -360q0 -205 -134 -310.5t-395 -105.5z" />
    <glyph glyph-name="uni04DF" unicode="&#x4df;" horiz-adv-x="905" 
d="M385 1331v-250h-174v250h174zM694 1331v-250h-174v250h174zM430 -31q-221 0 -389 97l82 174q151 -86 313 -86q109 0 158 29.5t49 95.5q0 71 -43 103t-139 32h-133v180h121q139 0 139 98q0 51 -39 75t-125 24q-133 0 -295 -76l-74 174q208 88 387 88q170 0 263.5 -63.5
t93.5 -180.5q0 -97 -62.5 -154.5t-177.5 -66.5v-8q141 -7 213 -69t72 -175q0 -139 -108 -215t-306 -76z" />
    <glyph glyph-name="uni04E0" unicode="&#x4e0;" horiz-adv-x="1136" 
d="M510 -31q-274 0 -490 115l95 203q232 -103 397 -103q146 0 222.5 61.5t76.5 178.5q0 127 -94 186.5t-295 59.5h-141v170l428 407l-4 4q-62 -22 -166 -22h-428v205h880v-201l-465 -414l4 -6q45 18 105 18q191 0 300 -110t109 -303q0 -449 -534 -449z" />
    <glyph glyph-name="uni04E1" unicode="&#x4e1;" horiz-adv-x="901" 
d="M399 -440q-237 0 -440 110l84 185q202 -105 367 -105q125 0 191.5 61.5t66.5 178.5q0 241 -297 241h-195v162l408 379l-4 4q-62 -22 -166 -22h-361v192h770v-201l-424 -372l4 -6q55 18 101 18q164 0 270.5 -112t106.5 -285q0 -198 -129.5 -313t-352.5 -115z" />
    <glyph glyph-name="uni04E2" unicode="&#x4e2;" horiz-adv-x="1511" 
d="M506 1688h600v-134h-600v134zM1339 1454h19v-1454h-213v768q0 178 20 256l-8 2q-31 -78 -113 -160l-872 -886h-18v1454h213v-766q0 -176 -21 -258l8 -2q31 77 113 159z" />
    <glyph glyph-name="uni04E3" unicode="&#x4e3;" horiz-adv-x="1103" 
d="M872 1374v-143h-593v143h593zM133 -12v958h201v-364q0 -134 -10 -236l8 -2q24 58 104 141l471 473h64v-958h-201v365q0 133 10 235l-8 2q-24 -58 -104 -141l-471 -473h-64z" />
    <glyph glyph-name="uni04E4" unicode="&#x4e4;" horiz-adv-x="1511" 
d="M539 1747h184v-225h-184v225zM891 1747h184v-225h-184v225zM1339 1454h19v-1454h-213v768q0 178 20 256l-8 2q-31 -78 -113 -160l-872 -886h-18v1454h213v-766q0 -176 -21 -258l8 -2q31 77 113 159z" />
    <glyph glyph-name="uni04E5" unicode="&#x4e5;" horiz-adv-x="1103" 
d="M508 1331v-250h-174v250h174zM817 1331v-250h-174v250h174zM133 -12v958h201v-364q0 -134 -10 -236l8 -2q24 58 104 141l471 473h64v-958h-201v365q0 133 10 235l-8 2q-24 -58 -104 -141l-471 -473h-64z" />
    <glyph glyph-name="uni04E6" unicode="&#x4e6;" horiz-adv-x="1638" 
d="M551 1747h184v-225h-184v225zM903 1747h184v-225h-184v225zM819 1464q214 0 385 -95.5t267 -266.5t96 -385t-96 -385t-267 -267t-385 -96t-385 96t-266.5 267t-95.5 385q0 160 56 299t154.5 237.5t237.5 154.5t299 56zM819 1247q-226 0 -370 -149t-144 -381t144.5 -381.5
t369.5 -149.5t369.5 149.5t144.5 381.5t-144 381t-370 149z" />
    <glyph glyph-name="uni04E7" unicode="&#x4e7;" horiz-adv-x="1159" 
d="M512 1331v-250h-174v250h174zM821 1331v-250h-174v250h174zM580 977q224 0 371 -143.5t147 -360.5t-147 -360.5t-371 -143.5t-371.5 143.5t-147.5 360.5t147.5 360.5t371.5 143.5zM580 780q-137 0 -221.5 -84.5t-84.5 -222.5t84.5 -222.5t221.5 -84.5t221 84.5t84 222.5
t-84 222.5t-221 84.5z" />
    <glyph glyph-name="uni04E8" unicode="&#x4e8;" horiz-adv-x="1638" 
d="M819 1464q214 0 385 -95.5t267 -266.5t96 -385q0 -213 -96 -384t-267 -267.5t-385 -96.5q-213 0 -384 96.5t-267 267.5t-96 384q0 160 56.5 299t155 237.5t237 154.5t298.5 56zM1337 799l4 4q-10 19 -20 59q-44 181 -177 283t-325 102t-325 -102t-177 -283
q-10 -40 -20 -59l4 -4q24 8 64 8h909q39 0 63 -8zM1321 571q10 42 20 60l-4 4q-24 -8 -63 -8h-909q-40 0 -64 8l-4 -4q10 -18 20 -60q44 -181 177 -283t325 -102t325 102t177 283z" />
    <glyph glyph-name="uni04E9" unicode="&#x4e9;" horiz-adv-x="1150" 
d="M575 977q223 0 369 -143t146 -361t-146 -361t-369 -143t-368.5 143t-145.5 361t145.5 361t368.5 143zM874 516l5 4q-15 121 -97 190.5t-207 69.5t-206.5 -69.5t-96.5 -190.5l4 -4q31 19 134 19h331q102 0 133 -19zM575 166q125 0 207 69.5t97 190.5l-5 4
q-30 -18 -133 -18h-331q-104 0 -134 18l-4 -4q15 -121 96.5 -190.5t206.5 -69.5z" />
    <glyph glyph-name="uni04EA" unicode="&#x4ea;" horiz-adv-x="1638" 
d="M735 1747v-225h-184v225h184zM1087 1747v-225h-184v225h184zM819 1464q214 0 385 -95.5t267 -266.5t96 -385q0 -213 -96 -384t-267 -267.5t-385 -96.5q-213 0 -384 96.5t-267 267.5t-96 384q0 160 56.5 299t155 237.5t237 154.5t298.5 56zM1337 799l4 4q-10 19 -20 59
q-44 181 -177 283t-325 102t-325 -102t-177 -283q-10 -40 -20 -59l4 -4q24 8 64 8h909q39 0 63 -8zM1321 571q10 42 20 60l-4 4q-24 -8 -63 -8h-909q-40 0 -64 8l-4 -4q10 -18 20 -60q44 -181 177 -283t325 -102t325 102t177 283z" />
    <glyph glyph-name="uni04EB" unicode="&#x4eb;" horiz-adv-x="1150" 
d="M508 1331v-250h-174v250h174zM817 1331v-250h-174v250h174zM575 977q223 0 369 -143t146 -361t-146 -361t-369 -143t-368.5 143t-145.5 361t145.5 361t368.5 143zM874 516l5 4q-15 121 -97 190.5t-207 69.5t-206.5 -69.5t-96.5 -190.5l4 -4q31 19 134 19h331
q102 0 133 -19zM575 166q125 0 207 69.5t97 190.5l-5 4q-30 -18 -133 -18h-331q-104 0 -134 18l-4 -4q15 -121 96.5 -190.5t206.5 -69.5z" />
    <glyph glyph-name="uni04EC" unicode="&#x4ec;" horiz-adv-x="1380" 
d="M311 1747h185v-225h-185v225zM664 1747h184v-225h-184v225zM563 -31q-288 0 -512 148l107 190q184 -123 417 -123q186 0 314.5 100.5t169.5 280.5q8 37 16 51l-4 5q-21 -7 -61 -7h-596v205h596q43 0 61 -6l4 4q-7 12 -16 51q-41 180 -169.5 280.5t-314.5 100.5
q-233 0 -417 -123l-107 191q222 147 512 147q340 0 543 -203t203 -544t-203 -544.5t-543 -203.5z" />
    <glyph glyph-name="uni04ED" unicode="&#x4ed;" horiz-adv-x="962" 
d="M410 1331v-250h-174v250h174zM719 1331v-250h-174v250h174zM410 -31q-206 0 -359 90l86 177q129 -72 264 -72q89 0 159 46t93 120q14 46 27 65l-2 2q-18 -10 -55 -10h-336v172h336q37 0 55 -10l2 2q-17 26 -27 65q-25 74 -94.5 120t-157.5 46q-137 0 -264 -71l-86 176
q153 90 359 90q217 0 349 -138.5t132 -365.5t-132 -365.5t-349 -138.5z" />
    <glyph glyph-name="uni04EE" unicode="&#x4ee;" horiz-adv-x="1271" 
d="M340 1688h600v-134h-600v134zM344 -18q-84 0 -174 10l2 207q86 -15 164 -15q66 0 116 41.5t91 132.5l-533 1076h254l303 -660q4 -8 11 -23q59 -127 70 -174q4 -17 7 -36h9q7 73 19 116t46 123l291 654h242l-504 -1112q-73 -177 -173 -258.5t-241 -81.5z" />
    <glyph glyph-name="uni04EF" unicode="&#x4ef;" horiz-adv-x="1015" 
d="M811 1251v-143h-594v143h594zM995 946l-571 -1358h-209l201 473l-396 885h230l215 -522q41 -99 43 -184h8q3 74 35 151l225 555h219z" />
    <glyph glyph-name="uni04F0" unicode="&#x4f0;" horiz-adv-x="1271" 
d="M373 1747h184v-225h-184v225zM725 1747h184v-225h-184v225zM344 -18q-84 0 -174 10l2 207q86 -15 164 -15q66 0 116 41.5t91 132.5l-533 1076h254l303 -660q4 -8 11 -23q59 -127 70 -174q4 -17 7 -36h9q7 73 19 116t46 123l291 654h242l-504 -1112q-73 -177 -173 -258.5
t-241 -81.5z" />
    <glyph glyph-name="uni04F1" unicode="&#x4f1;" horiz-adv-x="1015" 
d="M446 1331v-250h-174v250h174zM756 1331v-250h-174v250h174zM995 946l-571 -1358h-209l201 473l-396 885h230l215 -522q41 -99 43 -184h8q3 74 35 151l225 555h219z" />
    <glyph glyph-name="uni04F2" unicode="&#x4f2;" horiz-adv-x="1271" 
d="M797 1747l2 -6l-209 -219h-139v4l194 221h152zM700 1526l195 221h152l2 -6l-209 -219h-138zM344 -18q-84 0 -174 10l2 207q86 -15 164 -15q66 0 116 41.5t91 132.5l-533 1076h254l303 -660q4 -8 11 -23q59 -127 70 -174q4 -17 7 -36h9q7 73 19 116t46 123l291 654h242
l-504 -1112q-73 -177 -173 -258.5t-241 -81.5z" />
    <glyph glyph-name="uni04F3" unicode="&#x4f3;" horiz-adv-x="1015" 
d="M309 1030l-2 4l236 312h166l2 -5l-250 -311h-152zM571 1030l-2 4l234 312h166l2 -5l-250 -311h-150zM995 946l-571 -1358h-209l201 473l-396 885h230l215 -522q41 -99 43 -184h8q3 74 35 151l225 555h219z" />
    <glyph glyph-name="uni04F4" unicode="&#x4f4;" horiz-adv-x="1247" 
d="M336 1747h184v-225h-184v225zM688 1747h184v-225h-184v225zM881 0v526q0 73 12 95l-4 4q-206 -76 -438 -76q-420 0 -420 459v426h213v-422q0 -129 57.5 -195.5t169.5 -66.5q175 0 410 69v615h213v-1434h-213z" />
    <glyph glyph-name="uni04F5" unicode="&#x4f5;" horiz-adv-x="974" 
d="M369 1331v-250h-174v250h174zM678 1331v-250h-174v250h174zM651 946h201v-725v-221h-201v299q0 76 13 102l-5 2q-152 -55 -290 -55q-178 0 -263.5 84.5t-85.5 259.5v254h201v-231q0 -95 41 -135.5t137 -40.5q25 0 53.5 3t51.5 7t49.5 10.5t42 10.5t34.5 10t21 6v360z" />
    <glyph glyph-name="uni04F8" unicode="&#x4f8;" horiz-adv-x="1632" 
d="M756 1747v-225h-185v225h185zM1108 1747v-225h-184v225h184zM694 868q214 0 340.5 -118t126.5 -316t-126.5 -316t-340.5 -118h-540v995v439h213v-519q0 -33 -7 -51l5 -4q19 8 51 8h278zM1266 1434h213v-1434h-213v1434zM670 201q126 0 194 60.5t68 172.5
q0 109 -69.5 171.5t-192.5 62.5h-254q-32 0 -51 8l-5 -4q7 -18 7 -51v-371q0 -35 -7 -53l5 -4q19 8 51 8h254z" />
    <glyph glyph-name="uni04F9" unicode="&#x4f9;" horiz-adv-x="1312" 
d="M584 1331v-250h-174v250h174zM893 1331v-250h-174v250h174zM567 612q152 0 241 -82t89 -223q0 -137 -92 -222t-240 -85h-432v694v252h201v-287q0 -26 -10 -53l2 -2q16 8 57 8h184zM979 946h201v-946h-201v946zM549 186q65 0 100 31t35 88q0 58 -35 89.5t-100 31.5h-166
q-41 0 -57 8l-2 -2q10 -27 10 -53v-146q0 -26 -10 -53l2 -2q16 8 57 8h166z" />
    <glyph glyph-name="uni04FC" unicode="&#x4fc;" horiz-adv-x="1241" 
d="M1051 334q97 -152 133.5 -244.5t36.5 -191.5q0 -152 -94.5 -230t-278.5 -78h-74v205h72q164 0 164 127q0 57 -27 113t-139 233l-109 172q-75 117 -88 178h-8q-21 -62 -90 -178l-277 -440h-252l355 553q110 176 137 203v8q-21 27 -35.5 47.5t-23.5 35t-32 51.5t-46 73
l-293 463h252l215 -347q75 -126 90 -178h8q10 38 88 178l217 347h250l-293 -465q-105 -169 -137 -205v-8q38 -48 137 -203z" />
    <glyph glyph-name="uni04FD" unicode="&#x4fd;" horiz-adv-x="1013" 
d="M614 -410v187h86q67 0 93 24.5t26 73.5q0 39 -20 79.5t-78 117.5l-125 168q-57 78 -80 155h-6q-12 -34 -26.5 -63.5t-22.5 -42.5t-21 -30l-12 -17l-170 -242h-238l312 430q35 50 57 59v7q-18 7 -53 57l-273 393h236l129 -190q58 -89 84 -168h4q16 65 82 168l129 190h238
l-273 -393q-33 -47 -53 -57v-7q25 -9 57 -59l224 -319q94 -137 94 -258q0 -263 -312 -263h-88z" />
    <glyph glyph-name="uni0510" unicode="&#x510;" horiz-adv-x="1148" 
d="M621 -31q-261 0 -395 105.5t-134 310.5q0 298 277 360q63 13 141 13v8q-74 3 -139 22q-230 70 -230 320q0 180 111 268t336 88q228 0 475 -100l-76 -199q-204 92 -375 92q-241 0 -241 -186q0 -215 309 -215h194v-209h-196q-183 0 -271 -60t-88 -184q0 -112 73 -169.5
t216 -57.5q204 0 393 100l97 -194q-194 -113 -477 -113z" />
    <glyph glyph-name="uni0511" unicode="&#x511;" horiz-adv-x="905" 
d="M475 -31q-198 0 -306 76t-108 215q0 113 72 175t213 69v8q-115 9 -177.5 66.5t-62.5 154.5q0 117 93.5 180.5t263.5 63.5q179 0 387 -88l-74 -174q-162 76 -295 76q-86 0 -125 -24t-39 -75q0 -98 140 -98h121v-180h-134q-96 0 -139 -32t-43 -103q0 -66 49 -95.5
t158 -29.5q162 0 313 86l82 -174q-168 -97 -389 -97z" />
    <glyph glyph-name="uni0512" unicode="&#x512;" horiz-adv-x="1519" 
d="M1366 1434v-1434v-33q0 -199 -90 -288t-262 -89h-109v205h107q76 0 108.5 40.5t32.5 131.5v365v854q0 36 6 51l-4 4q-19 -8 -51 -8h-557q-32 0 -51 8l-4 -4q6 -15 6 -51v-832q0 -187 -76.5 -275.5t-239.5 -88.5q-58 0 -131 8v197q56 -5 111 -5q66 0 94.5 35t28.5 117
v1092h1081z" />
    <glyph glyph-name="uni0513" unicode="&#x513;" horiz-adv-x="1081" 
d="M958 946v-1007q0 -172 -86.5 -260.5t-244.5 -88.5h-109v197h107q133 0 133 152v774q0 26 10 53l-2 2q-16 -8 -57 -8h-250q-42 0 -58 8l-2 -2q11 -29 11 -53v-394q0 -161 -78.5 -243t-231.5 -82h-80v182h78q60 0 85.5 35.5t25.5 118.5v616h749z" />
    <glyph glyph-name="uni051C" unicode="&#x51c;" horiz-adv-x="1949" 
d="M989 1454l287 -766q42 -113 55 -159.5t19 -108.5h8q6 61 19.5 111.5t49.5 154.5l259 748h243l-563 -1454h-25l-325 839q-31 81 -37 176h-8q-6 -95 -37 -176l-326 -839h-24l-564 1454h244l258 -748q37 -107 50.5 -156.5t19.5 -109.5h8q6 62 19 108.5t55 159.5l287 766h28z
" />
    <glyph glyph-name="uni051D" unicode="&#x51d;" horiz-adv-x="1445" 
d="M410 -10l-390 956h226l153 -428q37 -104 41 -168h9q4 29 12 55.5t15.5 45.5t29.5 71l190 439h54l190 -439q22 -52 29.5 -71t15.5 -45.5t12 -55.5h9q4 64 41 168l153 428h225l-389 -956h-53l-213 477q-38 83 -43 139h-8q-5 -56 -43 -139l-213 -477h-53z" />
    <glyph glyph-name="uni0524" unicode="&#x524;" horiz-adv-x="1437" 
d="M1276 143h131v-430h-201v287h-143v1186q0 36 6 51l-4 4q-19 -8 -51 -8h-598q-32 0 -51 8l-5 -4q7 -18 7 -51v-1186h-213v1434h1122v-1291z" />
    <glyph glyph-name="uni0525" unicode="&#x525;" horiz-adv-x="1083" 
d="M975 125h88v-412h-180v287h-109v713q0 33 10 53l-2 2q-16 -8 -57 -8h-342q-41 0 -57 8l-2 -2q10 -20 10 -53v-713h-201v946h842v-821z" />
    <glyph glyph-name="uni0526" unicode="&#x526;" horiz-adv-x="1398" 
d="M1217 143h151v-430h-201v287h-163v422q0 129 -58 195.5t-170 66.5q-170 0 -409 -70v-614h-213v1434h213v-527q0 -71 -13 -94l4 -4q206 76 439 76q420 0 420 -459v-283z" />
    <glyph glyph-name="uni0527" unicode="&#x527;" horiz-adv-x="1155" 
d="M1004 125h131v-412h-181v287h-151v565q0 107 -52.5 164t-152.5 57q-126 0 -195 -86.5t-69 -244.5v-455h-201v1464h201v-512q0 -99 -21 -204l9 -3q105 232 348 232q158 0 246 -93.5t88 -260.5v-498z" />
    <glyph glyph-name="uni0E3F" unicode="&#xe3f;" horiz-adv-x="1124" 
d="M510 -178v129q0 38 6 53l-4 4q-19 -8 -51 -8h-307v1382h307q32 0 51 -8l4 4q-6 15 -6 54v129h61v-131q0 -36 -8 -52l4 -4q11 8 29 8q169 0 273 -99.5t104 -262.5q0 -136 -77 -223t-202 -92v-9q157 -5 247.5 -94t90.5 -240q0 -163 -120 -262.5t-316 -99.5q-18 0 -29 8
l-4 -4q8 -16 8 -51v-131h-61zM348 774q19 8 51 8h62q32 0 51 -8l4 4q-6 15 -6 53v318q0 38 6 53l-4 4q-19 -8 -51 -8h-62q-32 0 -51 8l-4 -4q6 -15 6 -53v-318q0 -38 -6 -53zM567 774q88 6 138.5 65t50.5 156q0 95 -48 149t-139 60l-6 -4q8 -19 8 -53v-318q0 -38 -8 -51z
M348 176q19 8 51 8h62q32 0 51 -8l4 4q-6 15 -6 53v318q0 38 6 53l-4 4q-22 -10 -51 -10h-62q-29 0 -51 10l-4 -4q6 -15 6 -53v-318q0 -38 -6 -53zM567 178q246 0 246 215q0 100 -65 157.5t-179 57.5l-6 -4q8 -19 8 -53v-318q0 -38 -8 -51z" />
    <glyph glyph-name="Wgrave" unicode="&#x1e80;" horiz-adv-x="1949" 
d="M866 1747l178 -221l-2 -4h-135l-266 219l2 6h223zM989 1454l287 -766q42 -113 55 -159.5t19 -108.5h8q6 61 19.5 111.5t49.5 154.5l259 748h243l-563 -1454h-25l-325 839q-31 81 -37 176h-8q-6 -95 -37 -176l-326 -839h-24l-564 1454h244l258 -748q37 -107 50.5 -156.5
t19.5 -109.5h8q6 62 19 108.5t55 159.5l287 766h28z" />
    <glyph glyph-name="wgrave" unicode="&#x1e81;" horiz-adv-x="1445" 
d="M596 1448l197 -311l-2 -4h-138l-280 311l2 4h221zM410 -10l-390 956h226l153 -428q37 -104 41 -168h9q4 29 12 55.5t15.5 45.5t29.5 71l190 439h54l190 -439q22 -52 29.5 -71t15.5 -45.5t12 -55.5h9q4 64 41 168l153 428h225l-389 -956h-53l-213 477q-38 83 -43 139h-8
q-5 -56 -43 -139l-213 -477h-53z" />
    <glyph glyph-name="Wacute" unicode="&#x1e82;" horiz-adv-x="1949" 
d="M1307 1747l2 -6l-267 -219h-135l-2 4l178 221h224zM989 1454l287 -766q42 -113 55 -159.5t19 -108.5h8q6 61 19.5 111.5t49.5 154.5l259 748h243l-563 -1454h-25l-325 839q-31 81 -37 176h-8q-6 -95 -37 -176l-326 -839h-24l-564 1454h244l258 -748q37 -107 50.5 -156.5
t19.5 -109.5h8q6 62 19 108.5t55 159.5l287 766h28z" />
    <glyph glyph-name="wacute" unicode="&#x1e83;" horiz-adv-x="1445" 
d="M1069 1448l2 -4l-280 -311h-138l-2 4l193 311h225zM410 -10l-390 956h226l153 -428q37 -104 41 -168h9q4 29 12 55.5t15.5 45.5t29.5 71l190 439h54l190 -439q22 -52 29.5 -71t15.5 -45.5t12 -55.5h9q4 64 41 168l153 428h225l-389 -956h-53l-213 477q-38 83 -43 139h-8
q-5 -56 -43 -139l-213 -477h-53z" />
    <glyph glyph-name="Wdieresis" unicode="&#x1e84;" horiz-adv-x="1949" 
d="M707 1747h184v-225h-184v225zM1059 1747h184v-225h-184v225zM989 1454l287 -766q42 -113 55 -159.5t19 -108.5h8q6 61 19.5 111.5t49.5 154.5l259 748h243l-563 -1454h-25l-325 839q-31 81 -37 176h-8q-6 -95 -37 -176l-326 -839h-24l-564 1454h244l258 -748
q37 -107 50.5 -156.5t19.5 -109.5h8q6 62 19 108.5t55 159.5l287 766h28z" />
    <glyph glyph-name="wdieresis" unicode="&#x1e85;" horiz-adv-x="1445" 
d="M635 1434v-250h-184v250h184zM995 1434v-250h-184v250h184zM410 -10l-390 956h226l153 -428q37 -104 41 -168h9q4 29 12 55.5t15.5 45.5t29.5 71l190 439h54l190 -439q22 -52 29.5 -71t15.5 -45.5t12 -55.5h9q4 64 41 168l153 428h225l-389 -956h-53l-213 477
q-38 83 -43 139h-8q-5 -56 -43 -139l-213 -477h-53z" />
    <glyph glyph-name="Ygrave" unicode="&#x1ef2;" horiz-adv-x="1146" 
d="M465 1747l178 -221l-2 -4h-135l-266 219l2 6h223zM1137 1434l-457 -861v-573h-213v573l-457 861h252l211 -441q56 -117 72 -156t26 -92h4q9 49 25 89t58 127q10 21 16 32l211 441h252z" />
    <glyph glyph-name="ygrave" unicode="&#x1ef3;" horiz-adv-x="1015" 
d="M387 1448l197 -311l-2 -4h-138l-280 311l2 4h221zM995 946l-571 -1358h-209l201 473l-396 885h230l215 -522q41 -99 43 -184h8q3 74 35 151l225 555h219z" />
    <glyph glyph-name="endash" unicode="&#x2013;" horiz-adv-x="1540" 
d="M1438 639v-184h-1336v184h1336z" />
    </font>
</defs>
</svg>
