<?xml version="1.0" standalone="no"?>
<!DOCTYPE svg PUBLIC "-//W3C//DTD SVG 1.1//EN" "http://www.w3.org/Graphics/SVG/1.1/DTD/svg11.dtd" >
<svg xmlns="http://www.w3.org/2000/svg" xmlns:xlink="http://www.w3.org/1999/xlink" version="1.1">
<metadata>
Created by FontForge 20170731 at Sat Jul 23 01:52:13 2022
 By Aleksey,,,
Copyright (c) 2015 by Reto Moser. All rights reserved.
</metadata>
<defs>
<font id="GTEestiProText-MediumItalic" horiz-adv-x="1228" >
  <font-face 
    font-family="GT Eesti Pro Text Medium"
    font-weight="500"
    font-style="italic"
    font-stretch="normal"
    units-per-em="2048"
    panose-1="0 0 6 0 0 0 0 0 0 0"
    ascent="1536"
    descent="-512"
    x-height="946"
    cap-height="1434"
    bbox="-729 -516 2380 1831"
    underline-thickness="102"
    underline-position="-307"
    slope="-11"
    unicode-range="U+000D-FB02"
  />
<missing-glyph horiz-adv-x="1609" 
d="M852 -31q-213 0 -384 96.5t-267.5 267.5t-96.5 384q0 214 96.5 385t267.5 266.5t384 95.5q160 0 299 -56t237.5 -154.5t154.5 -237.5t56 -299q0 -213 -95.5 -384t-266.5 -267.5t-385 -96.5zM852 20q199 0 359 91t250.5 253t90.5 363l-104 133l-143 -61l-140 184l-161 -90
l-152 242l-152 -242l-161 90l-140 -184l-143 61l-104 -133q0 -201 90.5 -363t250.5 -253t359 -91zM641 651q-31 0 -51.5 20.5t-20.5 51.5t20.5 51.5t51.5 20.5t51.5 -20.5t20.5 -51.5t-20.5 -51.5t-51.5 -20.5zM1061 651q-31 0 -51.5 20.5t-20.5 51.5t20.5 51.5t51.5 20.5
t51.5 -20.5t20.5 -51.5t-20.5 -51.5t-51.5 -20.5zM766 522l74 207q3 17 22 10q6 -2 9.5 -8.5t0.5 -13.5l-57 -160h70q7 0 12.5 -5.5t5.5 -12.5q0 -6 -5.5 -11.5t-12.5 -5.5h-119zM449 350q-61 0 -101.5 40t-40.5 102q0 61 40 101t102 40q61 0 101 -39.5t40 -101.5t-40 -102
t-101 -40zM1253 350q-61 0 -101 40t-40 102t40 101.5t101 39.5q62 0 102 -40t40 -101q0 -62 -40.5 -102t-101.5 -40zM852 395q-96 0 -127 -61q-6 -12 -18 -12q-17 0 -17 18q0 35 50 63.5t112 28.5t112 -28.5t50 -63.5q0 -18 -17 -18q-12 0 -18 12q-31 61 -127 61z" />
    <glyph glyph-name="fi" unicode="fi" horiz-adv-x="1181" 
d="M850 1452l-43 -229h-19q-98 0 -149 -41t-70 -135l-10 -43q-7 -45 -22 -70l4 -4q24 16 90 16h121l-43 -223h-121q-68 0 -84 14l-6 -4q3 -27 -13 -115l-120 -618h-250l121 618q10 74 30 115l-2 4q-23 -14 -92 -14h-84l43 223h84q68 0 86 -16l4 4q-5 23 2 67l15 68
q38 198 146.5 290.5t303.5 92.5h78zM1264 1434l-60 -306h-274l59 306h275zM1157 946l-184 -946h-252l184 946h252z" />
    <glyph glyph-name="fl" unicode="fl" horiz-adv-x="1191" 
d="M1264 1464l-287 -1464h-250l285 1464h252zM850 1452l-43 -229h-19q-98 0 -149 -41t-70 -135l-10 -43q-7 -45 -22 -70l4 -4q24 16 90 16h121l-43 -223h-121q-68 0 -84 14l-6 -4q3 -27 -13 -115l-120 -618h-250l121 618q10 74 30 115l-2 4q-23 -14 -92 -14h-84l43 223h84
q68 0 86 -16l4 4q-5 23 2 67l15 68q38 198 146.5 290.5t303.5 92.5h78z" />
    <glyph glyph-name="f_f" unicode="ff" horiz-adv-x="1398" 
d="M850 1452l-43 -229h-19q-98 0 -149 -41t-70 -135l-10 -43q-7 -45 -22 -70l4 -4q24 16 90 16h121l-43 -223h-121q-68 0 -84 14l-6 -4q3 -27 -13 -115l-120 -618h-250l121 618q10 74 30 115l-2 4q-23 -14 -92 -14h-84l43 223h84q68 0 86 -16l4 4q-5 23 2 67l15 68
q38 198 146.5 290.5t303.5 92.5h78zM1548 1452l-43 -229h-18q-98 0 -149 -41t-70 -135l-11 -43q-7 -45 -22 -70l4 -4q24 16 90 16h121l-43 -223h-121q-68 0 -84 14l-6 -4q4 -30 -12 -115l-121 -618h-250l121 618q10 71 31 115l-2 4q-23 -14 -93 -14h-84l43 223h84
q68 0 86 -16l5 4q-5 23 2 67l14 68q38 198 146.5 290.5t303.5 92.5h78z" />
    <glyph glyph-name="f_f_i" unicode="ffi" horiz-adv-x="1882" 
d="M850 1452l-43 -229h-19q-98 0 -149 -41t-70 -135l-10 -43q-7 -45 -22 -70l4 -4q24 16 90 16h121l-43 -223h-121q-68 0 -84 14l-6 -4q3 -27 -13 -115l-120 -618h-250l121 618q10 74 30 115l-2 4q-23 -14 -92 -14h-84l43 223h84q68 0 86 -16l4 4q-5 23 2 67l15 68
q38 198 146.5 290.5t303.5 92.5h78zM1548 1452l-43 -229h-18q-98 0 -149 -41t-70 -135l-11 -43q-7 -45 -22 -70l4 -4q24 16 90 16h121l-43 -223h-121q-68 0 -84 14l-6 -4q4 -30 -12 -115l-121 -618h-250l121 618q10 71 31 115l-2 4q-23 -14 -93 -14h-84l43 223h84
q68 0 86 -16l5 4q-5 23 2 67l14 68q38 198 146.5 290.5t303.5 92.5h78zM1964 1434l-59 -306h-275l60 306h274zM1858 946l-185 -946h-252l185 946h252z" />
    <glyph glyph-name="f_f_l" unicode="ffl" horiz-adv-x="1890" 
d="M1964 1464l-287 -1464h-250l285 1464h252zM850 1452l-43 -229h-19q-98 0 -149 -41t-70 -135l-10 -43q-7 -45 -22 -70l4 -4q24 16 90 16h121l-43 -223h-121q-68 0 -84 14l-6 -4q3 -27 -13 -115l-120 -618h-250l121 618q10 74 30 115l-2 4q-23 -14 -92 -14h-84l43 223h84
q68 0 86 -16l4 4q-5 23 2 67l15 68q38 198 146.5 290.5t303.5 92.5h78zM1548 1452l-43 -229h-18q-98 0 -149 -41t-70 -135l-11 -43q-7 -45 -22 -70l4 -4q24 16 90 16h121l-43 -223h-121q-68 0 -84 14l-6 -4q4 -30 -12 -115l-121 -618h-250l121 618q10 71 31 115l-2 4
q-23 -14 -93 -14h-84l43 223h84q68 0 86 -16l5 4q-5 23 2 67l14 68q38 198 146.5 290.5t303.5 92.5h78z" />
    <glyph glyph-name=".notdef" horiz-adv-x="1609" 
d="M852 -31q-213 0 -384 96.5t-267.5 267.5t-96.5 384q0 214 96.5 385t267.5 266.5t384 95.5q160 0 299 -56t237.5 -154.5t154.5 -237.5t56 -299q0 -213 -95.5 -384t-266.5 -267.5t-385 -96.5zM852 20q199 0 359 91t250.5 253t90.5 363l-104 133l-143 -61l-140 184l-161 -90
l-152 242l-152 -242l-161 90l-140 -184l-143 61l-104 -133q0 -201 90.5 -363t250.5 -253t359 -91zM641 651q-31 0 -51.5 20.5t-20.5 51.5t20.5 51.5t51.5 20.5t51.5 -20.5t20.5 -51.5t-20.5 -51.5t-51.5 -20.5zM1061 651q-31 0 -51.5 20.5t-20.5 51.5t20.5 51.5t51.5 20.5
t51.5 -20.5t20.5 -51.5t-20.5 -51.5t-51.5 -20.5zM766 522l74 207q3 17 22 10q6 -2 9.5 -8.5t0.5 -13.5l-57 -160h70q7 0 12.5 -5.5t5.5 -12.5q0 -6 -5.5 -11.5t-12.5 -5.5h-119zM449 350q-61 0 -101.5 40t-40.5 102q0 61 40 101t102 40q61 0 101 -39.5t40 -101.5t-40 -102
t-101 -40zM1253 350q-61 0 -101 40t-40 102t40 101.5t101 39.5q62 0 102 -40t40 -101q0 -62 -40.5 -102t-101.5 -40zM852 395q-96 0 -127 -61q-6 -12 -18 -12q-17 0 -17 18q0 35 50 63.5t112 28.5t112 -28.5t50 -63.5q0 -18 -17 -18q-12 0 -18 12q-31 61 -127 61z" />
    <glyph glyph-name=".null" horiz-adv-x="0" 
 />
    <glyph glyph-name="nonmarkingreturn" horiz-adv-x="682" 
 />
    <glyph glyph-name="NULL" horiz-adv-x="0" 
 />
    <glyph glyph-name="NULL" horiz-adv-x="0" 
 />
    <glyph glyph-name="CR" unicode="&#xd;" horiz-adv-x="0" 
 />
    <glyph glyph-name="space" unicode=" " horiz-adv-x="579" 
 />
    <glyph glyph-name="exclam" unicode="!" horiz-adv-x="673" 
d="M682 1434l-260 -983h-178l121 983h317zM102 0l60 305h284l-59 -305h-285z" />
    <glyph glyph-name="quotedbl" unicode="&#x22;" horiz-adv-x="671" 
d="M496 1464l-148 -518h-106l53 518h201zM762 1464l-148 -518h-106l53 518h201z" />
    <glyph glyph-name="numbersign" unicode="#" horiz-adv-x="1234" 
d="M1253 920h-245l-136 -359h234l-23 -117h-254l-167 -444h-127l167 444h-282l-168 -444h-127l168 444h-232l23 117h254l135 359h-242l23 116h262l150 398h127l-150 -398h283l149 398h127l-149 -398h223zM745 561l136 359h-283l-135 -359h282z" />
    <glyph glyph-name="dollar" unicode="$" horiz-adv-x="1101" 
d="M418 -168l16 82q4 32 17 61l-5 5q-23 -5 -51 2q-203 35 -385 184l146 203q140 -117 288 -154q41 -8 50 -14l4 2q-2 22 4 57l63 332l-143 125q-172 149 -172 336q0 159 112.5 259.5t307.5 100.5q36 0 59 -10l2 2q-2 15 2 49l19 96h61l-18 -100q-5 -25 -17 -49l2 -2
q17 5 45 -2q144 -37 283 -121l-135 -209q-118 70 -195 90q-33 14 -41 21l-4 -2q6 -23 -4 -64l-53 -270l143 -125q97 -83 138.5 -168t41.5 -184q0 -187 -125 -292.5t-333 -105.5q-22 0 -35 8l-6 -2q2 -27 -4 -59l-17 -82h-61zM625 872l2 2q-2 16 6 68l37 178q7 40 14 60l-2 2
q-12 -4 -18 -4q-74 0 -114 -36.5t-40 -92.5q0 -66 86 -136q19 -19 29 -41zM551 199q12 7 43 12q70 7 107.5 47t37.5 102q0 80 -94 160q-17 14 -27 39l-2 -2q0 -32 -8 -63l-45 -236q-15 -53 -16 -55z" />
    <glyph glyph-name="percent" unicode="%" horiz-adv-x="1667" 
d="M543 780q-135 0 -226.5 77t-91.5 216q0 94 43 177.5t129 138.5t197 55q134 0 224.5 -78t90.5 -215q0 -70 -25.5 -136.5t-71 -119t-116 -84t-153.5 -31.5zM279 0l1021 1382h138l-1022 -1382h-137zM549 909q57 0 102.5 22.5t71.5 58.5t39.5 76t13.5 79q0 80 -53.5 125
t-136.5 45q-75 0 -129 -39t-76.5 -91t-22.5 -106q0 -82 54 -126t137 -44zM1167 -10q-134 0 -224.5 78t-90.5 215q0 95 43 178.5t128.5 137.5t195.5 54q135 0 226 -77t91 -216q0 -94 -43 -177.5t-129 -138t-197 -54.5zM1176 119q57 0 102.5 22.5t71.5 58t39.5 75.5t13.5 79
q0 82 -54 126t-137 44q-57 0 -102.5 -22.5t-71.5 -58t-39.5 -75.5t-13.5 -79q0 -80 54 -125t137 -45z" />
    <glyph glyph-name="ampersand" unicode="&#x26;" horiz-adv-x="1419" 
d="M1079 1382l97 -217l-5 -6h-380q-76 0 -107 15l-2 -3l350 -682h4q3 20 37 60q66 78 95 116.5t59 88.5l205 -133q-117 -182 -226 -297q-26 -30 -63 -43v-2l147 -273l-2 -6h-287l-61 121h-2q-14 -53 -134 -102.5t-235 -49.5q-218 0 -352.5 123.5t-134.5 321.5
q0 167 98 290.5t277 182.5q58 17 71 14l2 4l-249 471l4 6h794zM629 719h-2q-7 -16 -52 -31q-119 -43 -172 -101.5t-53 -146.5q0 -101 64 -163t166 -62q83 0 202 66q39 19 56 16l4 4z" />
    <glyph glyph-name="quotesingle" unicode="'" horiz-adv-x="425" 
d="M516 1464l-147 -518h-127l53 518h221z" />
    <glyph glyph-name="parenleft" unicode="(" horiz-adv-x="698" 
d="M686 1612l174 -137q-84 -94 -146 -172t-134.5 -193.5t-118 -227t-76.5 -258.5t-31 -302q0 -194 43 -375t107 -316l-201 -94q-174 398 -174 787q0 181 38.5 353t86.5 290t135.5 254t138 200t142.5 172q11 13 16 19z" />
    <glyph glyph-name="parenright" unicode=")" horiz-adv-x="698" 
d="M53 -463l-174 139q69 77 121.5 142t115 154t106.5 179t83 196t58.5 228t19.5 252q0 196 -42 378t-105 313l198 94q176 -391 176 -785q0 -130 -20.5 -256.5t-46.5 -222.5t-79 -205t-87.5 -172.5t-105.5 -160t-99.5 -131t-99.5 -119.5q-13 -16 -19 -23z" />
    <glyph glyph-name="asterisk" unicode="*" horiz-adv-x="849" 
d="M414 758l-148 108l180 203l-266 59l58 175l247 -109l-24 270h184l-27 -270l248 109l58 -175l-267 -59l181 -203l-148 -108l-137 233z" />
    <glyph glyph-name="plus" unicode="+" 
d="M700 1108v-444h441v-109h-441v-444h-116v444h-443v109h443v444h116z" />
    <glyph glyph-name="comma" unicode="," horiz-adv-x="552" 
d="M-57 -342l182 592h281l-322 -592h-141z" />
    <glyph glyph-name="hyphen" unicode="-" horiz-adv-x="813" 
d="M766 662l-43 -232h-647l43 232h647z" />
    <glyph glyph-name="period" unicode="." horiz-adv-x="475" 
d="M2 0l59 305h285l-59 -305h-285z" />
    <glyph glyph-name="slash" unicode="/" horiz-adv-x="1224" 
d="M94 -229l-149 102l1263 1714l152 -104z" />
    <glyph glyph-name="zero" unicode="0" horiz-adv-x="1249" 
d="M588 -31q-226 0 -347.5 143t-121.5 410q0 259 77 461t221 316t331 114q226 0 346 -143t120 -410q0 -258 -76.5 -460t-219.5 -316.5t-330 -114.5zM604 209q105 0 186.5 85.5t124.5 234t43 335.5q0 147 -60 228.5t-167 81.5q-105 0 -186.5 -85.5t-124.5 -234.5t-43 -336
q0 -146 60 -227.5t167 -81.5z" />
    <glyph glyph-name="one" unicode="1" horiz-adv-x="757" 
d="M743 1382l-268 -1382h-250l160 817q17 93 47 160l-4 4q-30 -34 -82 -57l-201 -93l50 248l292 183l62 120h194z" />
    <glyph glyph-name="two" unicode="2" horiz-adv-x="1077" 
d="M694 1413q191 0 296.5 -83t105.5 -251q0 -111 -54 -204.5t-206 -251.5l-265 -277q-77 -80 -147 -129l2 -6q82 20 227 20h324l2 -4l-176 -227h-883l-4 14l719 734q101 103 145.5 169.5t44.5 126.5t-41 93.5t-114 33.5q-149 0 -342 -102l-99 219q253 125 465 125z" />
    <glyph glyph-name="three" unicode="3" horiz-adv-x="1056" 
d="M631 1413q186 0 290.5 -79t104.5 -234q0 -116 -65 -199.5t-191 -122.5q-65 -18 -104 -22l-2 -8q47 0 94 -13q102 -28 160.5 -108.5t58.5 -202.5q0 -204 -149 -329.5t-416 -125.5q-242 0 -435 105l111 223q160 -86 326 -86q147 0 225 57t78 160t-86 153t-271 50l46 223
q165 0 258.5 51.5t93.5 141.5q0 61 -45.5 96t-122.5 35q-136 0 -301 -82l-92 213q220 104 434 104z" />
    <glyph glyph-name="four" unicode="4" horiz-adv-x="1171" 
d="M1106 1382l-166 -845q-6 -41 -18 -56l4 -4q13 8 47 8h180l-119 -233h-106q-35 0 -43 8l-6 -4q3 -17 -5 -55l-36 -201h-240l39 201q6 38 16 55l-2 4q-16 -8 -49 -8h-618l39 197l847 933h236zM809 1057q-40 -77 -137 -183l-252 -272q-58 -63 -84 -89t-49 -40l4 -4
q46 16 178 16h178q34 0 45 -8l2 4q0 16 6 56l66 335q17 100 49 183z" />
    <glyph glyph-name="five" unicode="5" horiz-adv-x="976" 
d="M1143 1382l-137 -243h-330q-42 0 -55 8l-5 -2q-9 -39 -26 -78l-51 -102q-24 -46 -54 -70l2 -4q33 10 78 10q169 0 273 -106.5t104 -298.5q0 -240 -154 -383.5t-421 -143.5q-243 0 -437 115l121 221q167 -100 326 -100q145 0 222 77t77 197q0 223 -283 223
q-126 0 -233 -26l-6 6l335 700h654z" />
    <glyph glyph-name="six" unicode="6" horiz-adv-x="1128" 
d="M537 -31q-220 0 -352 120t-132 333q0 112 39 213t113.5 199.5t212.5 244.5l315 328h332l-469 -442q-75 -72 -109 -111t-75 -100l8 -2q65 84 134.5 126t156.5 42q156 0 262 -117t106 -307q0 -149 -63.5 -268t-188 -189t-290.5 -70zM541 209q126 0 200 77t74 189
q0 99 -60.5 157t-168.5 58q-125 0 -201 -77.5t-76 -188.5q0 -98 62 -156.5t170 -58.5z" />
    <glyph glyph-name="seven" unicode="7" horiz-adv-x="944" 
d="M1118 1382l2 -6l-864 -1376h-281l615 946q16 25 42 66t36 56.5t25 38t24.5 34t19.5 20.5l-4 4q-53 -20 -188 -20h-408l144 237h837z" />
    <glyph glyph-name="eight" unicode="8" horiz-adv-x="1169" 
d="M528 -31q-217 0 -343 102.5t-126 274.5q0 160 103 264t276 129l2 6q-209 63 -209 271q0 174 138.5 285.5t361.5 111.5q202 0 318 -92.5t116 -249.5q0 -139 -87 -227t-234 -107l-2 -6q235 -56 235 -301q0 -199 -148 -330t-401 -131zM672 846q101 0 162 55t61 139
q0 72 -47 112t-131 40q-100 0 -164 -55.5t-64 -139.5q0 -73 48.5 -112t134.5 -39zM549 201q125 0 196.5 69.5t71.5 175.5q0 90 -55.5 138.5t-151.5 48.5q-123 0 -199.5 -71.5t-76.5 -178.5q0 -88 57.5 -135t157.5 -47z" />
    <glyph glyph-name="nine" unicode="9" horiz-adv-x="1087" 
d="M154 0l464 453q119 119 164 188l-8 4q-58 -81 -134.5 -126.5t-162.5 -45.5q-146 0 -252 116.5t-106 299.5q0 106 37 200.5t104.5 166.5t169.5 114.5t225 42.5q209 0 341 -117t132 -331q0 -157 -73.5 -296.5t-257.5 -332.5l-330 -336h-313zM600 700q125 0 202 76.5
t77 188.5q0 98 -61.5 153.5t-168.5 55.5q-124 0 -197 -75t-73 -192q0 -97 59 -152t162 -55z" />
    <glyph glyph-name="colon" unicode=":" horiz-adv-x="481" 
d="M131 641l59 305h285l-59 -305h-285zM6 0l60 305h284l-59 -305h-285z" />
    <glyph glyph-name="semicolon" unicode=";" horiz-adv-x="552" 
d="M188 641l60 305h284l-59 -305h-285zM-57 -342l182 592h281l-322 -592h-141z" />
    <glyph glyph-name="less" unicode="&#x3c;" 
d="M1069 1090l2 -132l-803 -346l803 -344l-2 -131l-936 416v121z" />
    <glyph glyph-name="equal" unicode="=" 
d="M1159 872v-110h-1036v110h1036zM1161 465l-2 -111h-1036l2 111h1036z" />
    <glyph glyph-name="greater" unicode="&#x3e;" 
d="M213 1090l938 -416v-121l-938 -416v131l801 344l-801 346v132z" />
    <glyph glyph-name="question" unicode="?" horiz-adv-x="808" 
d="M586 1464q148 0 227.5 -60.5t79.5 -174.5q0 -76 -37 -139t-125 -138l-117 -102q-50 -40 -70 -69.5t-20 -59.5q0 -60 94 -119l-137 -182q-215 119 -215 289q0 67 35 126.5t115 127.5l102 86q57 49 78.5 78t21.5 55q0 28 -23.5 43.5t-64.5 15.5q-85 0 -260 -74l-71 207
q226 90 387 90zM141 0l58 305h284l-57 -305h-285z" />
    <glyph glyph-name="at" unicode="@" horiz-adv-x="1964" 
d="M940 -307q-246 0 -432.5 98t-288.5 278t-102 416q0 271 121.5 482.5t341 328.5t499.5 117q244 0 430.5 -87t289 -246t102.5 -367q0 -169 -61 -309.5t-167 -221t-233 -80.5q-106 0 -169 49.5t-69 137.5h-6q-43 -88 -123.5 -136.5t-181.5 -48.5q-141 0 -230.5 82.5
t-89.5 214.5q0 138 95 224t247 86q107 0 185.5 -43t115.5 -121l7 2q0 10 2 39q1 9 4.5 51t3.5 55q0 113 -170 113q-103 0 -270 -37l-37 186q177 41 340 41q180 0 264 -65t84 -205q0 -47 -15 -133l-38 -205q-5 -25 -5 -37q0 -73 76 -73q101 0 174.5 125t73.5 298
q0 249 -168 393t-457 144q-229 0 -405.5 -93.5t-273.5 -263t-97 -388.5q0 -289 175 -458t474 -169q199 0 390 74l36 -168q-219 -80 -442 -80zM969 281q76 0 130 42.5t54 102.5q0 55 -46 89t-118 34q-76 0 -122 -39t-46 -104q0 -57 40.5 -91t107.5 -34z" />
    <glyph glyph-name="A" unicode="A" horiz-adv-x="1452" 
d="M-80 0l977 1462h43l408 -1462h-271l-90 340h-541l-217 -340h-309zM555 541q30 6 107 6h190q72 0 102 -6l4 2q-28 40 -43 106l-47 221q-20 101 -14 156h-10q-12 -51 -76 -156l-131 -221q-45 -72 -84 -106z" />
    <glyph glyph-name="B" unicode="B" horiz-adv-x="1290" 
d="M53 0l279 1434h530q169 0 273 -83.5t104 -238.5q0 -121 -68 -210.5t-190 -129.5q-68 -22 -123 -22l-2 -9q61 0 121 -14q105 -26 160 -103.5t55 -195.5q0 -197 -144.5 -312.5t-396.5 -115.5h-598zM475 844q16 8 55 8h201q109 0 171.5 52.5t62.5 139.5q0 158 -207 158h-160
q-34 0 -51 10l-6 -4q4 -9 -2 -55l-50 -250q-6 -40 -18 -55zM354 221q35 10 58 10h239q137 0 204 54t67 151q0 189 -242 189h-195q-35 0 -51 8l-4 -4q4 -14 -4 -56l-55 -290q-7 -44 -21 -58z" />
    <glyph glyph-name="C" unicode="C" horiz-adv-x="1419" 
d="M809 -31q-313 0 -503.5 187t-190.5 495q0 176 63.5 327t175.5 258t270.5 167.5t342.5 60.5q299 0 512 -157l-158 -220q-171 119 -371 119q-244 0 -399.5 -153.5t-155.5 -393.5q0 -198 116 -315t312 -117q177 0 357 111l123 -223q-243 -146 -494 -146z" />
    <glyph glyph-name="D" unicode="D" horiz-adv-x="1433" 
d="M53 0l279 1434h428q301 0 479 -173t178 -466q0 -236 -111 -416.5t-314.5 -279.5t-471.5 -99h-467zM356 229q29 11 56 11h153q254 0 415 155.5t161 399.5q0 187 -105 293t-291 106h-149q-36 0 -51 10l-6 -4q6 -23 -2 -57l-164 -852q-9 -43 -21 -58z" />
    <glyph glyph-name="E" unicode="E" horiz-adv-x="1083" 
d="M1180 1434l-47 -240h-537q-31 0 -51 10l-6 -4q7 -17 -2 -57l-39 -203q-5 -34 -19 -57l2 -4q19 8 58 8h473l-45 -238h-475q-34 0 -54 10l-4 -4q5 -12 -2 -57l-59 -307q-10 -44 -21 -58l4 -4q22 11 56 11h544l-47 -240h-856l279 1434h848z" />
    <glyph glyph-name="F" unicode="F" horiz-adv-x="1038" 
d="M1192 1434l-47 -240h-549q-31 0 -51 10l-6 -4q7 -17 -2 -57l-45 -234q-9 -40 -19 -57l2 -4q23 10 57 10h494l-45 -240h-496q-35 0 -53 9l-4 -4q5 -11 -2 -56l-111 -567h-262l279 1434h860z" />
    <glyph glyph-name="G" unicode="G" horiz-adv-x="1611" 
d="M825 -29q-324 0 -517 185.5t-193 496.5q0 233 108.5 418t302 288t437.5 103q172 0 322.5 -52.5t262.5 -152.5l-180 -202q-83 72 -193.5 111.5t-228.5 39.5q-241 0 -397 -156.5t-156 -394.5q0 -201 118.5 -315.5t324.5 -114.5q190 0 315 100t158 271l-4 4
q-45 -25 -140 -25h-303l45 228h711l-19 -111q-57 -345 -257 -533t-517 -188z" />
    <glyph glyph-name="H" unicode="H" horiz-adv-x="1482" 
d="M1524 1434l-279 -1434h-264l113 584q10 43 18 57l-2 4q-23 -10 -55 -10h-563q-34 0 -54 10l-4 -4q4 -21 -4 -57l-113 -584h-264l279 1434h264l-98 -502q-5 -35 -19 -58l4 -4q21 9 56 9h563q36 0 51 -9l4 4q-4 21 4 58l99 502h264z" />
    <glyph glyph-name="I" unicode="I" horiz-adv-x="548" 
d="M592 1434l-279 -1434h-260l279 1434h260z" />
    <glyph glyph-name="J" unicode="J" horiz-adv-x="655" 
d="M698 1434l-209 -1078q-38 -197 -134.5 -281.5t-282.5 -84.5q-50 0 -121 8l47 242q27 -2 92 -2q59 0 92.5 34t48.5 111l205 1051h262z" />
    <glyph glyph-name="K" unicode="K" horiz-adv-x="1341" 
d="M1466 1434l-587 -555q-88 -83 -168 -138l-2 -6q14 -11 30 -29t24.5 -29.5t30 -41t27.5 -37.5l416 -598h-330l-467 719l-6 -2q3 -86 -22 -215l-97 -502h-262l279 1434h262l-82 -422q-27 -142 -61 -213l6 -4l643 639h366z" />
    <glyph glyph-name="L" unicode="L" horiz-adv-x="1019" 
d="M594 1434l-221 -1141q-9 -40 -21 -55l4 -5q18 9 56 9h546l-47 -242h-858l279 1434h262z" />
    <glyph glyph-name="M" unicode="M" horiz-adv-x="1884" 
d="M844 -14l-182 704q-26 103 -23 201h-6q-33 -125 -72 -205l-342 -686h-299l758 1454h43l203 -840q14 -60 8 -155h8q26 87 66 155l524 840h45l205 -1454h-256l-90 686q-13 99 2 205h-6q-31 -93 -101 -201l-450 -704h-35z" />
    <glyph glyph-name="N" unicode="N" horiz-adv-x="1495" 
d="M377 1454l653 -819q59 -76 78 -146l8 3q-9 74 27 253l133 689h262l-283 -1454h-43l-653 819q-55 70 -78 145l-6 -2q7 -79 -26 -254l-136 -688h-260l283 1454h41z" />
    <glyph glyph-name="O" unicode="O" horiz-adv-x="1675" 
d="M823 -31q-319 0 -513.5 187t-194.5 493q0 173 63 324.5t173 259t264.5 169.5t330.5 62q321 0 516 -187t195 -493q0 -173 -63.5 -324.5t-173.5 -259t-265 -169.5t-332 -62zM838 225q237 0 387.5 157.5t150.5 403.5q0 190 -121 306t-321 116q-238 0 -389.5 -157.5
t-151.5 -403.5q0 -191 122 -306.5t323 -115.5z" />
    <glyph glyph-name="P" unicode="P" horiz-adv-x="1169" 
d="M780 1434q215 0 334 -103t119 -289q0 -212 -143.5 -334t-391.5 -122h-219q-38 0 -53 10l-4 -4q4 -17 -4 -57l-103 -535h-262l279 1434h448zM547 1208l-6 -4q4 -17 -4 -57l-52 -275q-8 -39 -20 -57l4 -4q23 10 55 10h185q115 0 180 55.5t65 153.5q0 82 -51 126t-145 44
h-160q-35 0 -51 8z" />
    <glyph glyph-name="Q" unicode="Q" horiz-adv-x="1667" 
d="M805 -10q-310 0 -499 184t-189 485q0 228 106 412t293.5 288.5t419.5 104.5q206 0 364.5 -80.5t246 -227.5t87.5 -337q0 -238 -138 -398.5t-431 -266.5l-2 -9q226 58 383 58h117l-41 -213h-717zM827 246q232 0 380.5 155t148.5 398q0 185 -118.5 297t-313.5 112
q-232 0 -380.5 -155t-148.5 -396q0 -186 118.5 -298.5t313.5 -112.5z" />
    <glyph glyph-name="R" unicode="R" horiz-adv-x="1259" 
d="M774 1434q216 0 335.5 -100.5t119.5 -276.5q0 -184 -123 -300t-318 -116q-16 0 -59 6l-4 -4q46 -24 76.5 -54.5t64.5 -90.5l295 -498h-311l-348 618q-12 0 -33 3q-24 3 -39 10l-6 -4q7 -39 -4 -80l-105 -547h-262l279 1434h442zM547 1208l-6 -4q4 -17 -4 -57l-48 -252
q-11 -41 -20 -55l4 -4q19 8 55 8h197q104 0 163.5 51.5t59.5 140.5q0 78 -48.5 121t-137.5 43h-164q-35 0 -51 8z" />
    <glyph glyph-name="S" unicode="S" horiz-adv-x="1060" 
d="M506 -31q-297 0 -537 205l156 217q97 -80 197 -124t186 -44q89 0 138.5 40.5t49.5 111.5q0 43 -25.5 84.5t-84.5 95.5l-207 188q-170 158 -170 344q0 172 116.5 274.5t311.5 102.5q214 0 448 -141l-145 -225q-170 112 -305 112q-69 0 -108.5 -32t-39.5 -88
q0 -37 24.5 -74.5t82.5 -89.5l203 -185q95 -86 137.5 -171t42.5 -189q0 -193 -124.5 -302.5t-346.5 -109.5z" />
    <glyph glyph-name="T" unicode="T" horiz-adv-x="1087" 
d="M1257 1434l-47 -246h-346q-38 0 -51 8l-6 -4q4 -18 -2 -55l-221 -1137h-262l221 1137q6 38 16 55l-2 4q-19 -8 -55 -8h-346l47 246h1054z" />
    <glyph glyph-name="U" unicode="U" horiz-adv-x="1435" 
d="M657 -29q-249 0 -383.5 121.5t-134.5 347.5q0 75 19 172l159 822h273l-162 -834q-10 -49 -10 -104q0 -125 69.5 -192.5t196.5 -67.5q146 0 243 90t128 256l166 852h274l-170 -869q-57 -294 -225.5 -444t-442.5 -150z" />
    <glyph glyph-name="V" unicode="V" horiz-adv-x="1366" 
d="M1552 1434l-942 -1450h-45l-379 1450h291l160 -746q26 -112 20 -237h9q46 125 114 237l451 746h321z" />
    <glyph glyph-name="W" unicode="W" horiz-adv-x="1994" 
d="M496 -18l-293 1452h276l117 -693q15 -95 12 -227h8q26 68 46.5 112t62.5 113l430 715h35l153 -715q24 -116 21 -225h8q41 120 101 227l385 693h307l-856 -1452h-43l-168 761q-18 88 -11 168h-8q-27 -90 -73 -168l-467 -761h-43z" />
    <glyph glyph-name="X" unicode="X" horiz-adv-x="1386" 
d="M1518 1434l-459 -521q-129 -145 -158 -165l-2 -9q21 -26 88 -157l297 -582h-311l-201 422q-42 95 -45 160h-8q-15 -45 -105 -160l-348 -422h-346l531 610q96 116 147 158v8q-7 10 -15.5 24.5t-15.5 28.5t-25 49.5t-34 65.5l-256 490h311l162 -347q28 -61 37 -90t12 -67h8
q16 43 107 155l287 349h342z" />
    <glyph glyph-name="Y" unicode="Y" horiz-adv-x="1247" 
d="M1427 1434l-661 -891l-104 -543h-263l105 543l-311 891h286l133 -457q26 -92 34 -131t9 -92h9q22 53 44.5 92t84.5 131l307 457h327z" />
    <glyph glyph-name="Z" unicode="Z" horiz-adv-x="1280" 
d="M1419 1434l2 -11l-1011 -1208v-4q39 21 85 29t134 8h590l-181 -248h-1114l-2 10l1014 1209l-2 6q-71 -39 -217 -39h-477l174 248h1005z" />
    <glyph glyph-name="bracketleft" unicode="[" horiz-adv-x="743" 
d="M930 1548l-37 -188h-223q-56 0 -78 10l-2 -2q7 -32 -2 -76l-289 -1482q-11 -51 -27 -76l2 -2q22 10 82 10h224l-37 -191h-516l387 1997h516z" />
    <glyph glyph-name="backslash" unicode="\" horiz-adv-x="1261" 
d="M891 -207l-627 1720l189 72l628 -1722z" />
    <glyph glyph-name="bracketright" unicode="]" horiz-adv-x="741" 
d="M-158 -449l37 189h223q56 0 78 -10l2 2q-7 31 2 75l289 1483q11 51 27 76l-2 2q-23 -10 -82 -10h-223l36 190h516l-387 -1997h-516z" />
    <glyph glyph-name="asciicircum" unicode="^" horiz-adv-x="1259" 
d="M788 1464l295 -659h-188l-227 518l-228 -518h-188l295 659h241z" />
    <glyph glyph-name="underscore" unicode="_" horiz-adv-x="1091" 
d="M-115 -223l37 192h1051l-37 -192h-1051z" />
    <glyph glyph-name="grave" unicode="`" horiz-adv-x="702" 
d="M657 1448l152 -309l-4 -6h-172l-262 309l4 6h282z" />
    <glyph glyph-name="a" unicode="a" horiz-adv-x="1062" 
d="M354 -29q-150 0 -242 87.5t-92 230.5q0 157 100.5 249.5t270.5 92.5q121 0 208.5 -53.5t127.5 -151.5l6 2q-9 58 2 119q10 72 10 90q0 64 -44 94.5t-138 30.5q-123 0 -295 -35l-35 209q204 39 383 39q192 0 282 -72t87 -223q0 -34 -14 -127l-105 -553h-252q16 89 60 156
l-8 6q-65 -101 -138 -146t-174 -45zM459 164q82 0 137 43t55 106q0 61 -54 101.5t-134 40.5q-78 0 -125 -41.5t-47 -110.5q0 -63 46 -101t122 -38z" />
    <glyph glyph-name="b" unicode="b" horiz-adv-x="1220" 
d="M655 -31q-134 0 -224.5 63.5t-121.5 178.5l-10 -2q0 -65 -27 -209h-243l284 1464h250l-92 -479q-30 -148 -68 -231l9 -2q56 108 148.5 166.5t207.5 58.5q178 0 285.5 -122.5t107.5 -322.5q0 -161 -65 -289.5t-180.5 -201t-260.5 -72.5zM604 201q127 0 211 87.5t84 221.5
q0 107 -65 171t-175 64q-127 0 -210.5 -87.5t-83.5 -221.5q0 -107 65 -171t174 -64z" />
    <glyph glyph-name="c" unicode="c" horiz-adv-x="991" 
d="M559 -31q-224 0 -360 130t-136 345q0 241 155.5 387t410.5 146q207 0 383 -117l-135 -205q-125 88 -261 88q-128 0 -209 -79.5t-81 -206.5q0 -114 69 -184t180 -70q101 0 213 59l91 -211q-152 -82 -320 -82z" />
    <glyph glyph-name="d" unicode="d" horiz-adv-x="1220" 
d="M453 -31q-178 0 -287 122.5t-109 322.5q0 161 65.5 289.5t181 201t259.5 72.5q134 0 225 -63.5t123 -178.5l9 2q-7 58 20 209l100 518h252l-284 -1464h-244q20 115 53 199l-6 2q-56 -111 -149 -171.5t-209 -60.5zM561 201q126 0 210.5 88t84.5 221q0 107 -65 171t-175 64
q-131 0 -212.5 -86t-81.5 -223q0 -107 65 -171t174 -64z" />
    <glyph glyph-name="e" unicode="e" horiz-adv-x="1101" 
d="M547 -31q-227 0 -357.5 120t-130.5 329q0 246 156 402.5t401 156.5q203 0 320 -103.5t117 -283.5q0 -58 -25 -174h-612q-88 0 -113 20l-6 -6l4 -16v-23q2 -95 68.5 -149t183.5 -54q78 0 150 26.5t153 86.5l109 -184q-104 -78 -203 -113t-215 -35zM324 565q25 19 94 19
h291q75 0 94 -19l6 4q-4 6 -4 21q0 190 -207 190q-212 0 -276 -211z" />
    <glyph glyph-name="f" unicode="f" horiz-adv-x="698" 
d="M850 1452l-43 -229h-19q-98 0 -149 -41t-70 -135l-10 -43q-7 -45 -22 -70l4 -4q24 16 90 16h121l-43 -223h-121q-68 0 -84 14l-6 -4q3 -27 -13 -115l-120 -618h-250l121 618q10 74 30 115l-2 4q-23 -14 -92 -14h-84l43 223h84q68 0 86 -16l4 4q-5 23 2 67l15 68
q38 198 146.5 290.5t303.5 92.5h78z" />
    <glyph glyph-name="g" unicode="g" horiz-adv-x="1212" 
d="M453 -440q-280 0 -476 133l140 205q168 -107 338 -107q258 0 311 238q22 96 51 161l-6 3q-56 -108 -149 -166t-211 -58q-177 0 -285.5 122.5t-108.5 322.5q0 161 65.5 289.5t181 201t259.5 72.5q135 0 225.5 -63t122.5 -179l9 2q-7 58 20 209h248l-176 -926
q-43 -226 -185 -343t-374 -117zM561 201q126 0 210.5 88t84.5 221q0 107 -65 171t-175 64q-127 0 -210.5 -87.5t-83.5 -221.5q0 -107 65 -171t174 -64z" />
    <glyph glyph-name="h" unicode="h" horiz-adv-x="1142" 
d="M563 1464l-92 -475q-28 -136 -68 -239l7 -2q70 121 155 175t205 54q145 0 221 -78t76 -227q0 -64 -18 -154l-105 -518h-252l99 494q10 44 10 92q0 82 -44.5 125t-127.5 43q-104 0 -167.5 -73t-94.5 -230l-88 -451h-250l284 1464h250z" />
    <glyph glyph-name="i" unicode="i" horiz-adv-x="483" 
d="M565 1434l-59 -306h-275l60 306h274zM459 946l-185 -946h-251l184 946h252z" />
    <glyph glyph-name="j" unicode="j" horiz-adv-x="483" 
d="M565 1434l-59 -306h-275l60 306h274zM459 946l-195 -1007q-39 -200 -151.5 -289.5t-311.5 -89.5h-32l45 237h18q81 0 124 41t62 135l189 973h252z" />
    <glyph glyph-name="k" unicode="k" horiz-adv-x="1058" 
d="M563 1464l-139 -727q-26 -131 -68 -207l6 -2l435 418h336l-420 -381q-71 -64 -111 -80l-2 -6q32 -13 72 -67l293 -412h-303l-310 475l-6 -4q11 -68 -14 -197l-53 -274h-250l284 1464h250z" />
    <glyph glyph-name="l" unicode="l" horiz-adv-x="491" 
d="M565 1464l-286 -1464h-250l284 1464h252z" />
    <glyph glyph-name="m" unicode="m" horiz-adv-x="1710" 
d="M29 0l184 946h248q-23 -110 -62 -198l9 -5q68 126 145 180t192 54q238 0 265 -229h10q60 118 140.5 173.5t193.5 55.5q135 0 206.5 -76t71.5 -221q0 -77 -14 -143l-107 -537h-251l100 514q8 44 8 82q0 154 -151 154q-95 0 -151 -67t-85 -214l-90 -469h-242l101 516
q8 33 8 80q0 74 -39.5 114t-112.5 40q-95 0 -152 -68t-83 -213l-92 -469h-250z" />
    <glyph glyph-name="n" unicode="n" horiz-adv-x="1142" 
d="M29 0l184 946h250l-4 -28q-14 -89 -60 -179l9 -2q69 126 155.5 183t206.5 57q145 0 221 -78t76 -227q0 -64 -18 -154l-105 -518h-252l99 494q10 44 10 92q0 82 -44.5 125t-127.5 43q-104 0 -167.5 -73t-94.5 -230l-88 -451h-250z" />
    <glyph glyph-name="o" unicode="o" horiz-adv-x="1161" 
d="M537 -31q-221 0 -350.5 122t-129.5 329q0 243 160 400t408 157q221 0 350 -122t129 -329q0 -243 -160 -400t-407 -157zM555 207q127 0 210 86t83 217q0 106 -64.5 167.5t-177.5 61.5q-128 0 -210.5 -85.5t-82.5 -217.5q0 -106 64.5 -167.5t177.5 -61.5z" />
    <glyph glyph-name="p" unicode="p" horiz-adv-x="1220" 
d="M-51 -410l264 1356h248q-22 -116 -55 -192l6 -2q57 108 150 166.5t208 58.5q177 0 285 -122.5t108 -322.5q0 -161 -65.5 -289.5t-181 -201t-259.5 -72.5q-134 0 -225 63.5t-123 178.5l-8 -2q-3 -81 -25 -209l-79 -410h-248zM606 201q126 0 209.5 88t83.5 221
q0 107 -65 171t-175 64q-126 0 -209 -88t-83 -221q0 -108 64.5 -171.5t174.5 -63.5z" />
    <glyph glyph-name="q" unicode="q" horiz-adv-x="1204" 
d="M676 -410l88 410q20 117 53 199l-6 2q-56 -111 -149 -171.5t-209 -60.5q-178 0 -287 122.5t-109 322.5q0 161 65.5 289.5t181 201t259.5 72.5q134 0 225 -63.5t123 -178.5l9 2q-6 73 24 209h248l-264 -1356h-252zM561 201q126 0 210.5 88t84.5 221q0 107 -65 171t-175 64
q-127 0 -210.5 -87.5t-83.5 -221.5q0 -107 65 -171t174 -64z" />
    <glyph glyph-name="r" unicode="r" horiz-adv-x="739" 
d="M29 0l184 946h244q-33 -143 -82 -260l10 -4q63 154 152.5 223.5t224.5 69.5q35 0 51 -2l-51 -268q-41 4 -86 4q-126 0 -208.5 -79t-111.5 -229l-77 -401h-250z" />
    <glyph glyph-name="s" unicode="s" horiz-adv-x="841" 
d="M88 309q168 -125 307 -125q47 0 73 18.5t26 51.5q0 23 -14.5 41.5t-53.5 44.5l-131 84q-166 108 -166 266q0 133 89 210t243 77q185 0 373 -107l-105 -188q-139 82 -254 82q-92 0 -92 -66q0 -25 15.5 -42.5t66.5 -51.5l119 -74q90 -56 129 -117t39 -147q0 -143 -94 -220
t-267 -77q-239 0 -430 156z" />
    <glyph glyph-name="t" unicode="t" horiz-adv-x="669" 
d="M641 1452l-82 -422q-16 -68 -29 -96l5 -4q26 16 90 16h98l-41 -223h-100q-65 0 -84 14l-6 -4q5 -28 -11 -115l-121 -618h-247l120 618q15 80 33 115l-4 4q-23 -14 -90 -14h-84l43 223h82q68 0 86 -16l6 4q-5 40 8 96l49 260l259 162h20z" />
    <glyph glyph-name="u" unicode="u" horiz-adv-x="1116" 
d="M1094 946l-185 -946h-245q19 103 67 207l-8 2q-74 -126 -158 -183t-198 -57q-138 0 -213.5 79t-75.5 220q0 70 16 154l103 524h256l-97 -487q-12 -56 -12 -97q0 -77 41 -118t117 -41q97 0 161.5 71.5t90.5 210.5l88 461h252z" />
    <glyph glyph-name="v" unicode="v" horiz-adv-x="1038" 
d="M381 -14l-283 960h269l86 -387q2 -11 8 -38.5t7.5 -36t5 -29t4 -33t0.5 -31t-1 -39.5h8q8 24 15.5 43.5t19.5 42.5t18 33.5t25.5 43t26.5 44.5l235 387h299l-657 -960h-86z" />
    <glyph glyph-name="w" unicode="w" horiz-adv-x="1521" 
d="M340 -14l-231 960h262l65 -360q21 -103 21 -160h8q27 53 98 162l246 375h63l101 -375q26 -97 35 -162h8q29 70 82 160l207 360h292l-606 -960h-67l-113 407q-19 64 -25.5 96.5t-3.5 69.5h-10q-4 -13 -9.5 -26.5t-10 -22.5t-15 -26.5t-15 -24.5t-20.5 -32t-22 -34
l-272 -407h-68z" />
    <glyph glyph-name="x" unicode="x" horiz-adv-x="1062" 
d="M1108 946l-371 -401q-4 -5 -12.5 -14.5t-12.5 -13.5t-11 -10.5t-13.5 -10.5t-13.5 -7l-2 -6q11 -5 20 -15.5t13 -17t14 -26.5l235 -424h-270l-125 238q-20 36 -27.5 60.5t-7.5 59.5h-6q-20 -62 -78 -125l-211 -233h-305l414 451q44 48 70 59l2 6q-18 9 -45 53l-211 377
h272l98 -178q21 -40 29 -66.5t8 -64.5h4q22 61 82 129l158 180h303z" />
    <glyph glyph-name="y" unicode="y" horiz-adv-x="1044" 
d="M1130 946l-851 -1358h-275l315 510l-221 848h267l92 -411q28 -126 16 -248l8 2q19 79 70 164l295 493h284z" />
    <glyph glyph-name="z" unicode="z" horiz-adv-x="983" 
d="M-86 0l-2 10l696 748l-4 6q-45 -24 -82 -31.5t-110 -7.5h-295l174 221h774l2 -8l-698 -748l4 -6q39 23 82.5 30t132.5 7h340l-178 -221h-836z" />
    <glyph glyph-name="braceleft" unicode="{" horiz-adv-x="821" 
d="M545 -449q-146 0 -236 74t-90 225q0 50 12 115l54 275q6 27 6 53q0 77 -53.5 111.5t-174.5 39.5l46 238q140 6 211 51.5t92 153.5l57 301q34 183 150.5 271.5t293.5 88.5h97l-41 -211h-47q-109 0 -166 -44t-76 -144l-55 -281q-56 -281 -373 -303v-8q134 -9 198 -63
t64 -156q0 -37 -10 -92l-58 -295q-6 -30 -6 -57q0 -132 166 -132h56l-39 -211h-78z" />
    <glyph glyph-name="bar" unicode="|" horiz-adv-x="663" 
d="M45 -457l379 1946h211l-379 -1946h-211z" />
    <glyph glyph-name="braceright" unicode="}" horiz-adv-x="821" 
d="M307 1548q146 0 236 -74t90 -225q0 -49 -12 -114l-54 -275q-6 -30 -6 -55q0 -76 54 -110.5t176 -39.5l-48 -237q-140 -6 -210.5 -52.5t-90.5 -152.5l-59 -301q-34 -184 -150.5 -272.5t-293.5 -88.5h-97l41 211h47q109 0 166 44.5t76 144.5l55 280q56 282 373 304v8
q-134 9 -198 63t-64 156q0 34 10 92l58 295q6 30 6 57q0 129 -166 129h-56l39 213h78z" />
    <glyph glyph-name="asciitilde" unicode="~" 
d="M428 784q65 0 128 -20t104.5 -43.5t96 -43.5t105.5 -20q35 0 64.5 7t62 27t47 30.5t54.5 42.5l114 -168q-178 -152 -350 -152q-65 0 -128 19.5t-104 43t-95 43t-105 19.5q-37 0 -68 -7t-61 -24.5t-49 -32t-54 -42.5l-114 166q177 155 352 155z" />
    <glyph glyph-name="exclamdown" unicode="&#xa1;" horiz-adv-x="673" 
d="M582 997l-60 -305h-284l59 305h285zM2 -436l260 983h178l-123 -983h-315z" />
    <glyph glyph-name="cent" unicode="&#xa2;" horiz-adv-x="991" 
d="M430 -135l8 45q4 31 23 74l-2 4q-29 -7 -72 6q-150 44 -237 160.5t-87 291.5q0 213 129.5 360.5t372.5 168.5q50 4 80 -6l4 2q0 31 8 63l9 49h61l-10 -51q-9 -43 -17 -63l2 -4q26 6 56 2q131 -28 254 -107l-135 -209q-86 59 -160 78q-38 9 -60 21l-2 -5q2 -20 -6 -59
l-80 -418q-11 -50 -20 -67l4 -2q25 5 61 8q87 9 174 57l91 -213q-152 -82 -320 -82q-31 0 -51 11l-4 -3q4 -29 -4 -65l-8 -47h-62zM498 207l4 2q0 33 6 63l82 418q6 32 14 55l-2 3q-23 -8 -65 -15q-102 -22 -156.5 -100t-54.5 -176q0 -73 30 -129t82 -88l27 -13.5t33 -19.5z
" />
    <glyph glyph-name="sterling" unicode="&#xa3;" horiz-adv-x="1169" 
d="M639 -29q-63 0 -121.5 19t-107.5 38t-88 19q-60 0 -193 -59l-78 200q303 153 303 349q0 32 -8.5 67.5t-16 56t-26.5 66.5h-164l13 61h86q30 0 53 -10l2 2q-16 18 -25 45q-24 77 -24 150q0 89 29.5 166.5t86.5 139t150.5 97t212.5 35.5q225 0 430 -147l-149 -207
q-152 108 -279 108q-102 0 -160.5 -56.5t-58.5 -141.5q0 -66 47 -181h344l-12 -61h-264q-32 0 -54 12l-2 -2q15 -18 23 -45q20 -62 20 -114q0 -40 -10 -75.5t-32.5 -66t-44.5 -54t-60.5 -49.5t-65 -42t-71.5 -41l2 -8q60 22 120 22q56 0 121.5 -26.5t110.5 -26.5
q63 0 118 29t117 86l103 -203q-197 -152 -377 -152z" />
    <glyph glyph-name="currency" unicode="&#xa4;" 
d="M1128 662q0 -188 -116 -320l114 -117l-43 -39l-112 117q-131 -115 -324 -115q-190 0 -321 115l-117 -117l-37 41l115 115q-121 134 -121 322q0 187 121 321l-115 115l41 41l117 -117q134 115 317 115q188 0 322 -115l116 117l41 -41l-116 -117q118 -127 118 -321z
M647 408q114 0 184 72.5t70 181.5q0 111 -70 183.5t-182 72.5t-183 -72t-71 -182t71 -183t181 -73z" />
    <glyph glyph-name="yen" unicode="&#xa5;" horiz-adv-x="1245" 
d="M414 0l86 455h-365l12 61h299q32 0 52 -6l2 4q-10 14 -19 41l-24 76h-287l12 61h207q35 0 55 -6l2 2q-12 22 -22 57l-199 637h275l123 -514q25 -110 20 -178h8q10 38 28 73t62 105l322 514h309l-450 -647q-20 -28 -39 -43v-4q29 4 59 4h207l-12 -61h-287l-55 -78
q-16 -20 -35 -39v-4q27 6 55 6h299l-12 -61h-367l-88 -455h-233z" />
    <glyph glyph-name="brokenbar" unicode="&#xa6;" horiz-adv-x="663" 
d="M266 680l158 809h211l-158 -809h-211zM418 373l-162 -830h-211l162 830h211z" />
    <glyph glyph-name="section" unicode="&#xa7;" horiz-adv-x="1075" 
d="M524 1128q0 -40 28 -72.5t73 -57.5t99.5 -51t109 -59t99.5 -74t73 -104t28 -141q0 -241 -264 -360q64 -80 64 -195q0 -68 -22.5 -126.5t-69.5 -107.5t-130.5 -77.5t-195.5 -28.5q-228 0 -410 121l131 195q129 -92 283 -92q84 0 127 31t43 81q0 40 -28 73.5t-73 59.5
t-99 52.5t-108 60.5t-99 76t-73 105.5t-28 142.5q0 239 264 352q-65 82 -65 192q0 69 23.5 128.5t71.5 108t131 76t193 27.5q232 0 412 -118l-139 -197q-129 92 -279 92q-84 0 -127 -31.5t-43 -81.5zM608 336q180 83 180 211q0 32 -12.5 60.5t-29 48t-49 42.5t-56 35.5
t-67 35.5t-66.5 36q-182 -84 -182 -213q0 -32 12.5 -60.5t29.5 -48t50 -42t56 -35t67.5 -35.5t66.5 -35z" />
    <glyph glyph-name="dieresis" unicode="&#xa8;" horiz-adv-x="794" 
d="M553 1434l-53 -273h-209l53 273h209zM934 1434l-55 -273h-209l53 273h211z" />
    <glyph glyph-name="copyright" unicode="&#xa9;" horiz-adv-x="1740" 
d="M918 1464q208 0 379.5 -96t271.5 -268t100 -385q0 -211 -99.5 -382.5t-271 -267.5t-380.5 -96q-156 0 -294.5 56.5t-239 155t-159.5 238.5t-59 300q0 158 59 297t159.5 237t239 154.5t294.5 56.5zM918 1333q-127 0 -240 -46t-195 -126.5t-130 -195t-48 -246.5
q0 -134 48 -250t130.5 -196.5t195.5 -126.5t239 -46q170 0 309.5 78.5t221 219.5t81.5 317q0 177 -82 319.5t-221.5 220.5t-308.5 78zM930 1192q169 0 309 -100l-82 -152q-40 23 -63 35t-72 26.5t-98 14.5q-127 0 -207 -80.5t-80 -206.5q0 -131 80 -213t207 -82
q49 0 97.5 14t73.5 27.5t62 36.5l82 -152q-143 -98 -309 -98q-207 0 -344 133.5t-137 333.5q0 129 61.5 234.5t172 167t247.5 61.5z" />
    <glyph glyph-name="ordfeminine" unicode="&#xaa;" horiz-adv-x="827" 
d="M393 692q-103 0 -163 57.5t-60 149.5q0 98 69.5 161.5t186.5 63.5q79 0 140.5 -30.5t90.5 -87.5l7 4q-4 9 2 37q4 36 4 59q0 46 -28.5 69t-96.5 23q-63 0 -195 -24l-26 155q172 31 276 31q129 0 197.5 -48t68.5 -165q0 -54 -14 -117l-64 -317h-204q10 58 45 114l-6 4
q-47 -69 -98 -104t-132 -35zM498 840q47 0 77.5 25.5t30.5 64.5q0 35 -25.5 55.5t-68.5 20.5q-49 0 -79 -26t-30 -65q0 -35 25.5 -55t69.5 -20z" />
    <glyph glyph-name="guillemotleft" unicode="&#xab;" horiz-adv-x="980" 
d="M664 856l-2 -8l-240 -256q-75 -83 -104.5 -111t-51.5 -39v-8q13 -9 27.5 -32.5t68.5 -118.5l119 -211l-2 -9h-231l-217 396l372 397h261zM1044 856l-2 -8l-239 -256q-75 -83 -104.5 -111t-51.5 -39v-8q13 -9 27.5 -32.5t68.5 -118.5l119 -211l-2 -9h-231l-217 396
l372 397h260z" />
    <glyph glyph-name="logicalnot" unicode="&#xac;" 
d="M174 885h936v-111v-432h-106v432h-830v111z" />
    <glyph glyph-name="uni00AD" unicode="&#xad;" horiz-adv-x="813" 
d="M766 662l-43 -232h-647l43 232h647z" />
    <glyph glyph-name="registered" unicode="&#xae;" horiz-adv-x="1193" 
d="M696 1464q206 0 345 -138.5t139 -346.5q0 -205 -139 -344t-345 -139q-208 0 -346.5 138t-138.5 347q0 206 139 344.5t346 138.5zM696 1358q-159 0 -265.5 -108.5t-106.5 -268.5q0 -163 106 -271t266 -108t265.5 107.5t105.5 269.5t-107 270.5t-264 108.5zM731 1262
q68 0 114 -43t46 -107q0 -62 -43 -108t-103 -46v-6q32 -14 56 -41l137 -155v-11h-123l-176 209h-14l2 -209h-103v517h207zM725 1169h-98v-125h100q28 0 44.5 18t16.5 44q0 27 -18 45t-45 18z" />
    <glyph glyph-name="macron" unicode="&#xaf;" horiz-adv-x="819" 
d="M952 1380l-32 -170h-615l35 170h612z" />
    <glyph glyph-name="degree" unicode="&#xb0;" horiz-adv-x="854" 
d="M508 1413q124 0 206.5 -81.5t82.5 -209.5q0 -123 -82 -203.5t-207 -80.5q-127 0 -210 80.5t-83 207.5q0 125 83 206t210 81zM508 1300q-74 0 -125 -49t-51 -125q0 -78 51 -127t123 -49q74 0 124 49t50 125q0 78 -49.5 127t-122.5 49z" />
    <glyph glyph-name="plusminus" unicode="&#xb1;" 
d="M676 1069l2 -272h430v-115h-430v-272h-117v272h-430v115h430l-2 272h117zM1110 313l-2 -108h-979l2 108h979z" />
    <glyph glyph-name="uni00B2" unicode="&#xb2;" horiz-adv-x="849" 
d="M70 713l-4 12l473 461q51 49 76 76t46 59.5t21 56.5q0 28 -22.5 45t-63.5 17q-100 0 -244 -80l-88 176q201 111 377 111q126 0 200 -55t74 -165q0 -80 -43.5 -145t-154.5 -176l-137 -137q-55 -48 -91 -72l3 -4q53 16 170 16h210l2 -8l-153 -188h-651z" />
    <glyph glyph-name="uni00B3" unicode="&#xb3;" horiz-adv-x="835" 
d="M481 694q-82 0 -170.5 15.5t-148.5 46.5l90 198q107 -51 223 -51q80 0 126 27t46 76q0 51 -55 74.5t-184 23.5l34 174q103 0 162.5 24.5t59.5 75.5q0 68 -101 68q-92 0 -211 -49l-73 180q176 70 333 70q134 0 210.5 -55.5t76.5 -157.5q0 -138 -162 -199q-58 -20 -82 -23
l-2 -6q38 0 78 -12q62 -19 98.5 -71.5t36.5 -127.5q0 -126 -97.5 -213.5t-287.5 -87.5z" />
    <glyph glyph-name="acute" unicode="&#xb4;" horiz-adv-x="700" 
d="M774 1448v-6l-381 -309h-172l-2 6l270 309h285z" />
    <glyph glyph-name="uni00B5" unicode="&#xb5;" horiz-adv-x="1120" 
d="M848 946h250l-185 -946h-245q20 106 69 207l-10 2q-74 -126 -158 -183t-198 -57q-64 0 -119 19l-78 -398h-242l195 1002h4l70 354h256l-97 -487q-10 -62 -10 -97q0 -78 40.5 -118.5t115.5 -40.5q199 0 252 282z" />
    <glyph glyph-name="paragraph" unicode="&#xb6;" horiz-adv-x="1318" 
d="M1403 1434l-39 -189h-127l-285 -1462h-188l285 1462h-201l-283 -1462h-188l164 852q-141 0 -233.5 100t-92.5 264q0 194 135 314.5t369 120.5h684z" />
    <glyph glyph-name="periodcentered" unicode="&#xb7;" horiz-adv-x="489" 
d="M135 641l60 305h284l-59 -305h-285z" />
    <glyph glyph-name="cedilla" unicode="&#xb8;" horiz-adv-x="567" 
d="M248 66l-76 -136q76 -19 118 -49.5t42 -81.5q0 -96 -153 -176q-52 -27 -224 -94l-21 80q100 48 141.5 75.5t41.5 55.5q0 45 -111 70l144 256h98z" />
    <glyph glyph-name="uni00B9" unicode="&#xb9;" horiz-adv-x="602" 
d="M289 713l96 489q8 52 31 90l-6 4q-19 -22 -54 -34l-141 -60l43 211l203 123l49 90h172l-178 -913h-215z" />
    <glyph glyph-name="ordmasculine" unicode="&#xba;" horiz-adv-x="890" 
d="M528 692q-153 0 -243 83t-90 220q0 155 107.5 260t283.5 105q153 0 243.5 -83t90.5 -220q0 -155 -108 -260t-284 -105zM541 872q82 0 130 51t48 121q0 64 -39.5 100t-104.5 36q-84 0 -132 -51t-48 -121q0 -65 40 -100.5t106 -35.5z" />
    <glyph glyph-name="guillemotright" unicode="&#xbb;" horiz-adv-x="978" 
d="M-68 63l2 9l238 258q76 83 105.5 110.5t50.5 38.5v8q-13 9 -28.5 34t-68.5 118l-118 209l2 8h233l217 -395l-372 -398h-261zM311 63l2 9l240 258q76 83 105.5 110.5t50.5 38.5v8q-13 9 -28.5 34t-68.5 118l-118 209l2 8h231l217 -395l-373 -398h-260z" />
    <glyph glyph-name="onequarter" unicode="&#xbc;" horiz-adv-x="1466" 
d="M117 0l1022 1382h137l-1022 -1382h-137zM276 592l97 485q9 55 26 82l-4 2q-10 -13 -49 -28l-131 -58l23 121l184 100l37 86h96l-154 -790h-125zM1055 0l20 111q1 4 10 32v4q-12 -6 -34 -6h-383l18 99l518 551h125l-98 -500q-4 -26 -12 -37l2 -2q12 6 28 6h113l-64 -117
h-69q-20 0 -29 6l-4 -4q4 -6 0 -30l-20 -113h-121zM827 250q20 8 70 8h168q25 0 43 -6l2 2q-3 16 4 41l45 240q16 83 27 112l-2 2q-18 -33 -64 -84l-248 -270q-33 -33 -47 -43z" />
    <glyph glyph-name="onehalf" unicode="&#xbd;" horiz-adv-x="1468" 
d="M117 0l1022 1382h137l-1022 -1382h-137zM276 592l97 485q9 55 26 82l-4 2q-10 -13 -49 -28l-131 -58l23 121l184 100l37 86h96l-154 -790h-125zM707 0l-5 10l410 404q43 43 64.5 67t42 60t20.5 67q0 40 -27.5 62t-74.5 22q-94 0 -213 -63l-47 104q149 76 276 76
q100 0 158.5 -47t58.5 -137q0 -50 -22.5 -97.5t-50.5 -79.5t-87 -92l-14 -14l-166 -168q-30 -29 -88 -70l2 -2q30 11 135 11h234l-88 -113h-518z" />
    <glyph glyph-name="threequarters" unicode="&#xbe;" horiz-adv-x="1650" 
d="M403 573q-139 0 -256 60l58 110q108 -51 201 -51q92 0 139 34t47 95q0 65 -54 98t-176 33l23 115q110 0 175 34.5t65 96.5q0 84 -123 84q-82 0 -197 -47l-43 106q134 60 260 60q110 0 173 -47t63 -135q0 -87 -63.5 -138.5t-170.5 -62.5l-2 -4q88 -3 142.5 -50.5
t54.5 -140.5q0 -108 -78 -179t-238 -71zM301 0l1022 1382h137l-1022 -1382h-137zM1239 0l21 111q1 4 10 32v4q-12 -6 -35 -6h-383l18 99l519 551h124l-98 -500q-4 -26 -12 -37l2 -2q12 6 29 6h112l-63 -117h-70q-20 0 -29 6l-4 -4q4 -6 0 -30l-20 -113h-121zM1012 250
q20 8 69 8h168q25 0 43 -6l2 2q-3 16 4 41l45 240q16 83 27 112l-2 2q-20 -36 -63 -84l-248 -270q-33 -33 -47 -43z" />
    <glyph glyph-name="questiondown" unicode="&#xbf;" horiz-adv-x="722" 
d="M655 997l-57 -305h-285l58 305h284zM211 -467q-148 0 -227.5 61.5t-79.5 176.5q0 75 37 138t125 138l116 100q51 42 70.5 70.5t19.5 58.5q0 60 -94 119l137 183q215 -119 215 -289q0 -68 -35 -127.5t-114 -126.5l-102 -86q-58 -51 -79.5 -78.5t-21.5 -54.5
q0 -28 23.5 -43t64.5 -15q85 0 260 74l72 -207q-231 -92 -387 -92z" />
    <glyph glyph-name="Agrave" unicode="&#xc0;" horiz-adv-x="1452" 
d="M860 1747l158 -219l-4 -6h-172l-258 219l4 6h272zM-80 0l977 1462h43l408 -1462h-271l-90 340h-541l-217 -340h-309zM555 541q30 6 107 6h190q72 0 102 -6l4 2q-28 40 -43 106l-47 221q-20 101 -14 156h-10q-12 -51 -76 -156l-131 -221q-45 -72 -84 -106z" />
    <glyph glyph-name="Aacute" unicode="&#xc1;" horiz-adv-x="1452" 
d="M1358 1747v-6l-344 -219h-172v6l243 219h273zM-80 0l977 1462h43l408 -1462h-271l-90 340h-541l-217 -340h-309zM555 541q30 6 107 6h190q72 0 102 -6l4 2q-28 40 -43 106l-47 221q-20 101 -14 156h-10q-12 -51 -76 -156l-131 -221q-45 -72 -84 -106z" />
    <glyph glyph-name="Acircumflex" unicode="&#xc2;" horiz-adv-x="1452" 
d="M567 1522l2 8l281 237h252l190 -237l-2 -8h-217l-43 53q-34 39 -46.5 62.5t-12.5 52.5h-6q-11 -30 -32.5 -54.5t-70.5 -60.5l-65 -53h-230zM-80 0l977 1462h43l408 -1462h-271l-90 340h-541l-217 -340h-309zM555 541q30 6 107 6h190q72 0 102 -6l4 2q-28 40 -43 106
l-47 221q-20 101 -14 156h-10q-12 -51 -76 -156l-131 -221q-45 -72 -84 -106z" />
    <glyph glyph-name="Atilde" unicode="&#xc3;" horiz-adv-x="1452" 
d="M1114 1507q-65 0 -170.5 45t-150.5 45q-68 0 -127 -79l-84 26q44 105 106 168.5t154 63.5q53 0 113 -22.5t114.5 -45t93.5 -22.5q37 0 66.5 18.5t62.5 60.5l84 -26q-21 -50 -44 -88t-54.5 -72.5t-73 -53t-90.5 -18.5zM-80 0l977 1462h43l408 -1462h-271l-90 340h-541
l-217 -340h-309zM555 541q30 6 107 6h190q72 0 102 -6l4 2q-28 40 -43 106l-47 221q-20 101 -14 156h-10q-12 -51 -76 -156l-131 -221q-45 -72 -84 -106z" />
    <glyph glyph-name="Adieresis" unicode="&#xc4;" horiz-adv-x="1452" 
d="M678 1761h209l-47 -239h-209zM1059 1761h209l-47 -239h-209zM-80 0l977 1462h43l408 -1462h-271l-90 340h-541l-217 -340h-309zM555 541q30 6 107 6h190q72 0 102 -6l4 2q-28 40 -43 106l-47 221q-20 101 -14 156h-10q-12 -51 -76 -156l-131 -221q-45 -72 -84 -106z" />
    <glyph glyph-name="Aring" unicode="&#xc5;" horiz-adv-x="1452" 
d="M969 1358l379 -1358h-271l-90 340h-541l-217 -340h-309l911 1362q-68 20 -105.5 73.5t-37.5 127.5q0 112 77 190t200 78q100 0 158.5 -57.5t58.5 -151.5q0 -97 -58 -170.5t-155 -93.5zM952 1722q-71 0 -109 -46.5t-38 -104.5q0 -48 25.5 -77t76.5 -32h21q67 4 103 50
t36 102q0 49 -30 78.5t-85 29.5zM954 541l4 2q-28 40 -43 106l-47 221q-20 101 -14 156h-10q-12 -51 -76 -156l-131 -221q-45 -72 -84 -106l2 -2q30 6 107 6h190q72 0 102 -6z" />
    <glyph glyph-name="AE" unicode="&#xc6;" horiz-adv-x="1853" 
d="M1493 1194q-38 0 -51 8l-6 -4q7 -17 -2 -57l-39 -201q-9 -43 -21 -57l4 -4q19 8 56 8h428l-47 -238h-429q-35 0 -51 8l-4 -4q2 -11 -4 -57l-59 -303q-5 -34 -19 -57l2 -5q21 9 58 9h487l-47 -240h-782l55 287q10 44 20 57l-2 4q-19 -8 -57 -8h-465l-282 -340h-316
l1223 1434h874l-45 -240h-479zM1083 600l91 453q11 68 43 159h-5q-48 -88 -104 -157l-356 -428q-48 -60 -99 -88l2 -4q43 12 115 12h254q38 0 51 -8l6 4q-5 12 2 57z" />
    <glyph glyph-name="Ccedilla" unicode="&#xc7;" horiz-adv-x="1419" 
d="M950 1206q-244 0 -399.5 -153.5t-155.5 -393.5q0 -198 116 -315t312 -117q177 0 357 111l123 -223q-243 -146 -494 -146h-4l-23 -39q76 -19 118 -49.5t42 -81.5q0 -96 -153 -176q-52 -27 -224 -94l-20 80q99 47 140.5 75t41.5 56q0 45 -111 70l93 165
q-271 29 -432.5 211.5t-161.5 464.5q0 176 63.5 327t175.5 258t270.5 167.5t342.5 60.5q299 0 512 -157l-158 -220q-171 119 -371 119z" />
    <glyph glyph-name="Egrave" unicode="&#xc8;" horiz-adv-x="1083" 
d="M737 1747l158 -219l-4 -6h-172l-258 219l4 6h272zM1180 1434l-47 -240h-537q-31 0 -51 10l-6 -4q7 -17 -2 -57l-39 -203q-5 -34 -19 -57l2 -4q19 8 58 8h473l-45 -238h-475q-34 0 -54 10l-4 -4q5 -12 -2 -57l-59 -307q-10 -44 -21 -58l4 -4q22 11 56 11h544l-47 -240
h-856l279 1434h848z" />
    <glyph glyph-name="Eacute" unicode="&#xc9;" horiz-adv-x="1083" 
d="M1235 1747v-6l-344 -219h-172v6l244 219h272zM1180 1434l-47 -240h-537q-31 0 -51 10l-6 -4q7 -17 -2 -57l-39 -203q-5 -34 -19 -57l2 -4q19 8 58 8h473l-45 -238h-475q-34 0 -54 10l-4 -4q5 -12 -2 -57l-59 -307q-10 -44 -21 -58l4 -4q22 11 56 11h544l-47 -240h-856
l279 1434h848z" />
    <glyph glyph-name="Ecircumflex" unicode="&#xca;" horiz-adv-x="1083" 
d="M444 1522l2 8l281 237h252l190 -237l-2 -8h-217l-43 53q-34 39 -46.5 62.5t-12.5 52.5h-6q-11 -30 -32.5 -54.5t-70.5 -60.5l-65 -53h-230zM1180 1434l-47 -240h-537q-31 0 -51 10l-6 -4q7 -17 -2 -57l-39 -203q-5 -34 -19 -57l2 -4q19 8 58 8h473l-45 -238h-475
q-34 0 -54 10l-4 -4q5 -12 -2 -57l-59 -307q-10 -44 -21 -58l4 -4q22 11 56 11h544l-47 -240h-856l279 1434h848z" />
    <glyph glyph-name="Edieresis" unicode="&#xcb;" horiz-adv-x="1083" 
d="M553 1761h209l-47 -239h-209zM934 1761h209l-47 -239h-209zM1180 1434l-47 -240h-537q-31 0 -51 10l-6 -4q7 -17 -2 -57l-39 -203q-5 -34 -19 -57l2 -4q19 8 58 8h473l-45 -238h-475q-34 0 -54 10l-4 -4q5 -12 -2 -57l-59 -307q-10 -44 -21 -58l4 -4q22 11 56 11h544
l-47 -240h-856l279 1434h848z" />
    <glyph glyph-name="Igrave" unicode="&#xcc;" horiz-adv-x="548" 
d="M410 1747l157 -219l-4 -6h-172l-258 219l4 6h273zM592 1434l-279 -1434h-260l279 1434h260z" />
    <glyph glyph-name="Iacute" unicode="&#xcd;" horiz-adv-x="548" 
d="M907 1747v-6l-344 -219h-172v6l244 219h272zM592 1434l-279 -1434h-260l279 1434h260z" />
    <glyph glyph-name="Icircumflex" unicode="&#xce;" horiz-adv-x="548" 
d="M117 1522l2 8l280 237h252l191 -237l-2 -8h-217l-43 53q-35 39 -47.5 63t-12.5 52h-6q-11 -30 -32.5 -54.5t-69.5 -60.5l-66 -53h-229zM592 1434l-279 -1434h-260l279 1434h260z" />
    <glyph glyph-name="Idieresis" unicode="&#xcf;" horiz-adv-x="548" 
d="M225 1761h209l-47 -239h-209zM606 1761h209l-47 -239h-209zM592 1434l-279 -1434h-260l279 1434h260z" />
    <glyph glyph-name="Eth" unicode="&#xd0;" horiz-adv-x="1527" 
d="M854 1434q144 0 265 -43t208 -123.5t135.5 -201.5t48.5 -271q0 -236 -110 -416t-314 -279.5t-473 -99.5h-469l111 567q6 44 18 58l-4 4q-26 -11 -55 -11h-186l43 222h186q36 0 51 -9l6 5q-4 21 4 55l25 133l80 410h430zM657 240q163 0 293.5 67.5t206.5 195t76 292.5
q0 191 -106.5 295t-288.5 104h-148q-34 0 -51 10l-6 -4q4 -21 -4 -57l-23 -119l-24 -133q-10 -41 -21 -55l4 -5q18 9 56 9h280l-43 -222h-280q-34 0 -52 11l-6 -4q5 -12 -2 -58l-53 -276q-5 -35 -19 -58l3 -4q26 11 57 11h151z" />
    <glyph glyph-name="Ntilde" unicode="&#xd1;" horiz-adv-x="1495" 
d="M1114 1507q-65 0 -170.5 45t-150.5 45q-68 0 -127 -79l-84 26q44 105 106 168.5t154 63.5q53 0 113 -22.5t114.5 -45t93.5 -22.5q37 0 66.5 18.5t62.5 60.5l84 -26q-21 -50 -44 -88t-54.5 -72.5t-73 -53t-90.5 -18.5zM377 1454l653 -819q59 -76 78 -146l8 3q-9 74 27 253
l133 689h262l-283 -1454h-43l-653 819q-55 70 -78 145l-6 -2q7 -79 -26 -254l-136 -688h-260l283 1454h41z" />
    <glyph glyph-name="Ograve" unicode="&#xd2;" horiz-adv-x="1675" 
d="M913 1747l158 -219l-4 -6h-172l-258 219l4 6h272zM823 -31q-319 0 -513.5 187t-194.5 493q0 173 63 324.5t173 259t264.5 169.5t330.5 62q321 0 516 -187t195 -493q0 -173 -63.5 -324.5t-173.5 -259t-265 -169.5t-332 -62zM838 225q237 0 387.5 157.5t150.5 403.5
q0 190 -121 306t-321 116q-238 0 -389.5 -157.5t-151.5 -403.5q0 -191 122 -306.5t323 -115.5z" />
    <glyph glyph-name="Oacute" unicode="&#xd3;" horiz-adv-x="1675" 
d="M1411 1747v-6l-344 -219h-172v6l244 219h272zM823 -31q-319 0 -513.5 187t-194.5 493q0 173 63 324.5t173 259t264.5 169.5t330.5 62q321 0 516 -187t195 -493q0 -173 -63.5 -324.5t-173.5 -259t-265 -169.5t-332 -62zM838 225q237 0 387.5 157.5t150.5 403.5
q0 190 -121 306t-321 116q-238 0 -389.5 -157.5t-151.5 -403.5q0 -191 122 -306.5t323 -115.5z" />
    <glyph glyph-name="Ocircumflex" unicode="&#xd4;" horiz-adv-x="1675" 
d="M621 1522l2 8l280 237h252l191 -237l-3 -8h-217l-43 53q-34 39 -46.5 62.5t-12.5 52.5h-6q-11 -30 -32.5 -54.5t-70.5 -60.5l-65 -53h-229zM823 -31q-319 0 -513.5 187t-194.5 493q0 173 63 324.5t173 259t264.5 169.5t330.5 62q321 0 516 -187t195 -493
q0 -173 -63.5 -324.5t-173.5 -259t-265 -169.5t-332 -62zM838 225q237 0 387.5 157.5t150.5 403.5q0 190 -121 306t-321 116q-238 0 -389.5 -157.5t-151.5 -403.5q0 -191 122 -306.5t323 -115.5z" />
    <glyph glyph-name="Otilde" unicode="&#xd5;" horiz-adv-x="1675" 
d="M1165 1507q-65 0 -170.5 45t-150.5 45q-68 0 -127 -79l-84 26q44 105 106 168.5t154 63.5q53 0 113 -22.5t114.5 -45t93.5 -22.5q37 0 66.5 18.5t62.5 60.5l84 -26q-21 -50 -44 -88t-54.5 -72.5t-73 -53t-90.5 -18.5zM823 -31q-319 0 -513.5 187t-194.5 493
q0 173 63 324.5t173 259t264.5 169.5t330.5 62q321 0 516 -187t195 -493q0 -173 -63.5 -324.5t-173.5 -259t-265 -169.5t-332 -62zM838 225q237 0 387.5 157.5t150.5 403.5q0 190 -121 306t-321 116q-238 0 -389.5 -157.5t-151.5 -403.5q0 -191 122 -306.5t323 -115.5z" />
    <glyph glyph-name="Odieresis" unicode="&#xd6;" horiz-adv-x="1675" 
d="M729 1761h209l-47 -239h-209zM1110 1761h209l-47 -239h-209zM823 -31q-319 0 -513.5 187t-194.5 493q0 173 63 324.5t173 259t264.5 169.5t330.5 62q321 0 516 -187t195 -493q0 -173 -63.5 -324.5t-173.5 -259t-265 -169.5t-332 -62zM838 225q237 0 387.5 157.5
t150.5 403.5q0 190 -121 306t-321 116q-238 0 -389.5 -157.5t-151.5 -403.5q0 -191 122 -306.5t323 -115.5z" />
    <glyph glyph-name="multiply" unicode="&#xd7;" 
d="M1006 1059l81 -84l-364 -365l364 -364l-81 -82l-365 364l-367 -366l-81 84l364 366l-362 363l79 84l367 -367z" />
    <glyph glyph-name="Oslash" unicode="&#xd8;" horiz-adv-x="1675" 
d="M1464 1274q193 -187 193 -490q0 -173 -63.5 -324.5t-173.5 -259t-265 -169.5t-332 -62q-269 0 -450 133l-129 -135l-66 60l125 135q-188 185 -188 487q0 173 63 324.5t173 259t264.5 169.5t330.5 62q270 0 451 -133l125 133l65 -59zM393 647q0 -167 101 -282l714 765
q-115 78 -274 78q-238 0 -389.5 -157.5t-151.5 -403.5zM838 225q237 0 387.5 157.5t150.5 403.5q0 171 -100 285l-717 -766q116 -80 279 -80z" />
    <glyph glyph-name="Ugrave" unicode="&#xd9;" horiz-adv-x="1435" 
d="M844 1747l157 -219l-4 -6h-172l-258 219l4 6h273zM657 -29q-249 0 -383.5 121.5t-134.5 347.5q0 75 19 172l159 822h273l-162 -834q-10 -49 -10 -104q0 -125 69.5 -192.5t196.5 -67.5q146 0 243 90t128 256l166 852h274l-170 -869q-57 -294 -225.5 -444t-442.5 -150z" />
    <glyph glyph-name="Uacute" unicode="&#xda;" horiz-adv-x="1435" 
d="M1341 1747v-6l-344 -219h-172v6l244 219h272zM657 -29q-249 0 -383.5 121.5t-134.5 347.5q0 75 19 172l159 822h273l-162 -834q-10 -49 -10 -104q0 -125 69.5 -192.5t196.5 -67.5q146 0 243 90t128 256l166 852h274l-170 -869q-57 -294 -225.5 -444t-442.5 -150z" />
    <glyph glyph-name="Ucircumflex" unicode="&#xdb;" horiz-adv-x="1435" 
d="M551 1522l2 8l281 237h251l191 -237l-2 -8h-217l-43 53q-35 39 -47.5 63t-12.5 52h-6q-11 -30 -32.5 -54.5t-69.5 -60.5l-66 -53h-229zM657 -29q-249 0 -383.5 121.5t-134.5 347.5q0 75 19 172l159 822h273l-162 -834q-10 -49 -10 -104q0 -125 69.5 -192.5t196.5 -67.5
q146 0 243 90t128 256l166 852h274l-170 -869q-57 -294 -225.5 -444t-442.5 -150z" />
    <glyph glyph-name="Udieresis" unicode="&#xdc;" horiz-adv-x="1435" 
d="M662 1761h208l-47 -239h-209zM1042 1761h209l-47 -239h-209zM657 -29q-249 0 -383.5 121.5t-134.5 347.5q0 75 19 172l159 822h273l-162 -834q-10 -49 -10 -104q0 -125 69.5 -192.5t196.5 -67.5q146 0 243 90t128 256l166 852h274l-170 -869q-57 -294 -225.5 -444
t-442.5 -150z" />
    <glyph glyph-name="Yacute" unicode="&#xdd;" horiz-adv-x="1247" 
d="M1235 1747v-6l-344 -219h-172v6l244 219h272zM1427 1434l-661 -891l-104 -543h-263l105 543l-311 891h286l133 -457q26 -92 34 -131t9 -92h9q22 53 44.5 92t84.5 131l307 457h327z" />
    <glyph glyph-name="Thorn" unicode="&#xde;" horiz-adv-x="1185" 
d="M53 0l279 1434h260l-43 -228q-6 -35 -19 -57l2 -4q19 8 58 8h139q208 0 329.5 -100.5t121.5 -290.5q0 -203 -140 -329t-395 -126h-221q-35 0 -51 8l-6 -4q5 -10 -2 -57l-50 -254h-262zM414 530q26 11 57 11h186q67 0 116 18t76 49t39.5 66.5t12.5 75.5q0 86 -52.5 128
t-143.5 42h-160q-37 0 -53 8l-7 -4q4 -11 -2 -58l-53 -272q-8 -42 -18 -59z" />
    <glyph glyph-name="germandbls" unicode="&#xdf;" horiz-adv-x="1202" 
d="M788 807q171 -15 258 -102t87 -244q0 -218 -155 -344.5t-425 -126.5h-170l45 229h102q177 0 262 60t85 186q0 120 -79.5 174.5t-252.5 54.5l39 207q141 0 218 52t77 149q0 68 -43.5 104.5t-122.5 36.5q-188 0 -232 -215l-250 -1294h-251l256 1339q35 182 169 286.5
t332 104.5q185 0 293.5 -88t108.5 -237q0 -137 -90 -221.5t-258 -104.5z" />
    <glyph glyph-name="agrave" unicode="&#xe0;" horiz-adv-x="1062" 
d="M614 1448l154 -309l-4 -6h-174l-260 309l2 6h282zM354 -29q-150 0 -242 87.5t-92 230.5q0 157 100.5 249.5t270.5 92.5q121 0 208.5 -53.5t127.5 -151.5l6 2q-9 58 2 119q10 72 10 90q0 64 -44 94.5t-138 30.5q-123 0 -295 -35l-35 209q204 39 383 39q192 0 282 -72
t87 -223q0 -34 -14 -127l-105 -553h-252q16 89 60 156l-8 6q-65 -101 -138 -146t-174 -45zM459 164q82 0 137 43t55 106q0 61 -54 101.5t-134 40.5q-78 0 -125 -41.5t-47 -110.5q0 -63 46 -101t122 -38z" />
    <glyph glyph-name="aacute" unicode="&#xe1;" horiz-adv-x="1062" 
d="M1094 1448v-6l-381 -309h-172l-2 6l270 309h285zM354 -29q-150 0 -242 87.5t-92 230.5q0 157 100.5 249.5t270.5 92.5q121 0 208.5 -53.5t127.5 -151.5l6 2q-9 58 2 119q10 72 10 90q0 64 -44 94.5t-138 30.5q-123 0 -295 -35l-35 209q204 39 383 39q192 0 282 -72
t87 -223q0 -34 -14 -127l-105 -553h-252q16 89 60 156l-8 6q-65 -101 -138 -146t-174 -45zM459 164q82 0 137 43t55 106q0 61 -54 101.5t-134 40.5q-78 0 -125 -41.5t-47 -110.5q0 -63 46 -101t122 -38z" />
    <glyph glyph-name="acircumflex" unicode="&#xe2;" horiz-adv-x="1062" 
d="M825 1448l176 -309v-6h-192l-57 96q-32 54 -41.5 78.5t-8.5 56.5h-6q-11 -31 -30 -55t-72 -80l-96 -96h-217v6l299 309h245zM354 -29q-150 0 -242 87.5t-92 230.5q0 157 100.5 249.5t270.5 92.5q121 0 208.5 -53.5t127.5 -151.5l6 2q-9 58 2 119q10 72 10 90
q0 64 -44 94.5t-138 30.5q-123 0 -295 -35l-35 209q204 39 383 39q192 0 282 -72t87 -223q0 -34 -14 -127l-105 -553h-252q16 89 60 156l-8 6q-65 -101 -138 -146t-174 -45zM459 164q82 0 137 43t55 106q0 61 -54 101.5t-134 40.5q-78 0 -125 -41.5t-47 -110.5
q0 -63 46 -101t122 -38z" />
    <glyph glyph-name="atilde" unicode="&#xe3;" horiz-adv-x="1062" 
d="M836 1151q-57 0 -118 27.5t-114 54.5t-90 27q-67 0 -127 -95l-94 31q47 114 110.5 181t155.5 67q57 0 118 -27t114 -53.5t90 -26.5q63 0 127 93l92 -31q-48 -115 -110 -181.5t-154 -66.5zM354 -29q-150 0 -242 87.5t-92 230.5q0 157 100.5 249.5t270.5 92.5
q121 0 208.5 -53.5t127.5 -151.5l6 2q-9 58 2 119q10 72 10 90q0 64 -44 94.5t-138 30.5q-123 0 -295 -35l-35 209q204 39 383 39q192 0 282 -72t87 -223q0 -34 -14 -127l-105 -553h-252q16 89 60 156l-8 6q-65 -101 -138 -146t-174 -45zM459 164q82 0 137 43t55 106
q0 61 -54 101.5t-134 40.5q-78 0 -125 -41.5t-47 -110.5q0 -63 46 -101t122 -38z" />
    <glyph glyph-name="adieresis" unicode="&#xe4;" horiz-adv-x="1062" 
d="M625 1434l-54 -273h-209l54 273h209zM1006 1434l-56 -273h-209l54 273h211zM354 -29q-150 0 -242 87.5t-92 230.5q0 157 100.5 249.5t270.5 92.5q121 0 208.5 -53.5t127.5 -151.5l6 2q-9 58 2 119q10 72 10 90q0 64 -44 94.5t-138 30.5q-123 0 -295 -35l-35 209
q204 39 383 39q192 0 282 -72t87 -223q0 -34 -14 -127l-105 -553h-252q16 89 60 156l-8 6q-65 -101 -138 -146t-174 -45zM459 164q82 0 137 43t55 106q0 61 -54 101.5t-134 40.5q-78 0 -125 -41.5t-47 -110.5q0 -63 46 -101t122 -38z" />
    <glyph glyph-name="aring" unicode="&#xe5;" horiz-adv-x="1062" 
d="M692 1530q101 0 165.5 -61t64.5 -156q0 -106 -73.5 -184t-193.5 -78q-101 0 -163 60.5t-62 156.5q0 107 72 184.5t190 77.5zM686 1421q-69 0 -105 -45t-36 -102q0 -51 31 -83t88 -32q69 0 105 45.5t36 102.5q0 51 -31 82.5t-88 31.5zM354 -29q-150 0 -242 87.5t-92 230.5
q0 157 100.5 249.5t270.5 92.5q121 0 208.5 -53.5t127.5 -151.5l6 2q-9 58 2 119q10 72 10 90q0 64 -44 94.5t-138 30.5q-123 0 -295 -35l-35 209q204 39 383 39q192 0 282 -72t87 -223q0 -34 -14 -127l-105 -553h-252q16 89 60 156l-8 6q-65 -101 -138 -146t-174 -45z
M459 164q82 0 137 43t55 106q0 61 -54 101.5t-134 40.5q-78 0 -125 -41.5t-47 -110.5q0 -63 46 -101t122 -38z" />
    <glyph glyph-name="ae" unicode="&#xe6;" horiz-adv-x="1757" 
d="M1210 -31q-297 0 -395 224h-2q-69 -109 -176.5 -165.5t-245.5 -56.5q-177 0 -274 86t-97 236q0 148 97.5 243t271.5 95q253 0 340 -205l6 2q-9 48 2 119q1 12 6 44t5 46q0 125 -183 125q-126 0 -295 -35l-37 209q192 39 369 39q132 0 207.5 -43.5t95.5 -143.5h6
q55 88 153.5 138.5t225.5 50.5q191 0 303.5 -104.5t112.5 -282.5q0 -74 -25 -174h-596q-84 0 -114 20l-6 -6l4 -16v-23q2 -89 62.5 -146t182.5 -57q85 0 153.5 29.5t143.5 83.5l109 -184q-94 -71 -190.5 -109.5t-219.5 -38.5zM993 565q27 19 94 19h277q75 0 90 -17l6 4v19
q0 94 -51 142t-149 48q-205 0 -271 -211zM459 164q85 0 138.5 44t53.5 105q0 62 -53 102t-135 40q-86 0 -129 -44t-43 -106q0 -68 47.5 -104.5t120.5 -36.5z" />
    <glyph glyph-name="ccedilla" unicode="&#xe7;" horiz-adv-x="991" 
d="M879 51q-152 -79 -304 -82l-22 -39q76 -19 118 -49.5t42 -81.5q0 -96 -153 -176q-52 -27 -224 -94l-21 80q100 48 141.5 75.5t41.5 55.5q0 45 -111 70l92 163q-191 23 -303.5 150t-112.5 321q0 241 155.5 387t410.5 146q207 0 383 -117l-135 -205q-125 88 -261 88
q-128 0 -209 -79.5t-81 -206.5q0 -114 69 -184t180 -70q101 0 213 59z" />
    <glyph glyph-name="egrave" unicode="&#xe8;" horiz-adv-x="1101" 
d="M645 1448l154 -309l-4 -6h-174l-261 309l2 6h283zM547 -31q-227 0 -357.5 120t-130.5 329q0 246 156 402.5t401 156.5q203 0 320 -103.5t117 -283.5q0 -58 -25 -174h-612q-88 0 -113 20l-6 -6l4 -16v-23q2 -95 68.5 -149t183.5 -54q78 0 150 26.5t153 86.5l109 -184
q-104 -78 -203 -113t-215 -35zM324 565q25 19 94 19h291q75 0 94 -19l6 4q-4 6 -4 21q0 190 -207 190q-212 0 -276 -211z" />
    <glyph glyph-name="eacute" unicode="&#xe9;" horiz-adv-x="1101" 
d="M1124 1448v-6l-381 -309h-172l-2 6l271 309h284zM547 -31q-227 0 -357.5 120t-130.5 329q0 246 156 402.5t401 156.5q203 0 320 -103.5t117 -283.5q0 -58 -25 -174h-612q-88 0 -113 20l-6 -6l4 -16v-23q2 -95 68.5 -149t183.5 -54q78 0 150 26.5t153 86.5l109 -184
q-104 -78 -203 -113t-215 -35zM324 565q25 19 94 19h291q75 0 94 -19l6 4q-4 6 -4 21q0 190 -207 190q-212 0 -276 -211z" />
    <glyph glyph-name="ecircumflex" unicode="&#xea;" horiz-adv-x="1101" 
d="M858 1448l176 -309v-6h-192l-58 96q-31 53 -40.5 78t-8.5 57h-6q-11 -31 -30 -55t-72 -80l-97 -96h-217v6l299 309h246zM547 -31q-227 0 -357.5 120t-130.5 329q0 246 156 402.5t401 156.5q203 0 320 -103.5t117 -283.5q0 -58 -25 -174h-612q-88 0 -113 20l-6 -6l4 -16
v-23q2 -95 68.5 -149t183.5 -54q78 0 150 26.5t153 86.5l109 -184q-104 -78 -203 -113t-215 -35zM324 565q25 19 94 19h291q75 0 94 -19l6 4q-4 6 -4 21q0 190 -207 190q-212 0 -276 -211z" />
    <glyph glyph-name="edieresis" unicode="&#xeb;" horiz-adv-x="1101" 
d="M657 1434l-53 -273h-209l54 273h208zM1038 1434l-55 -273h-209l53 273h211zM547 -31q-227 0 -357.5 120t-130.5 329q0 246 156 402.5t401 156.5q203 0 320 -103.5t117 -283.5q0 -58 -25 -174h-612q-88 0 -113 20l-6 -6l4 -16v-23q2 -95 68.5 -149t183.5 -54
q78 0 150 26.5t153 86.5l109 -184q-104 -78 -203 -113t-215 -35zM324 565q25 19 94 19h291q75 0 94 -19l6 4q-4 6 -4 21q0 190 -207 190q-212 0 -276 -211z" />
    <glyph glyph-name="igrave" unicode="&#xec;" horiz-adv-x="483" 
d="M365 1448l84 -309l-5 -6h-184l-119 309l2 6h222zM459 946l-185 -946h-251l184 946h252z" />
    <glyph glyph-name="iacute" unicode="&#xed;" horiz-adv-x="483" 
d="M698 1448v-6l-231 -309h-197l-2 6l185 309h245zM459 946l-185 -946h-251l184 946h252z" />
    <glyph glyph-name="icircumflex" unicode="&#xee;" horiz-adv-x="483" 
d="M541 1448l82 -309l-2 -6h-170l-19 96q-16 85 -16 135h-4q-20 -57 -68 -135l-59 -96h-197v6l207 309h246zM459 946l-185 -946h-251l184 946h252z" />
    <glyph glyph-name="idieresis" unicode="&#xef;" horiz-adv-x="483" 
d="M377 1434l-53 -273h-209l53 273h209zM676 1434l-55 -273h-209l53 273h211zM459 946l-185 -946h-251l184 946h252z" />
    <glyph glyph-name="eth" unicode="&#xf0;" horiz-adv-x="1257" 
d="M975 1300q211 -168 211 -544q0 -191 -49.5 -342.5t-135.5 -247.5t-199.5 -146.5t-244.5 -50.5q-223 0 -358.5 133t-135.5 342q0 105 36 199.5t101.5 166.5t165 114.5t218.5 42.5q167 0 264.5 -83.5t120.5 -224.5h8q5 121 -14 228q-37 188 -177 276l-204 -149l-66 88
l156 112q-100 34 -244 46l41 202q250 -25 405 -100l185 135l63 -88zM573 203q74 0 131 26.5t90 70.5t49.5 94.5t16.5 105.5q0 119 -70 181t-184 62q-74 0 -131 -26t-90 -70t-49.5 -95t-16.5 -106q0 -119 70 -181t184 -62z" />
    <glyph glyph-name="ntilde" unicode="&#xf1;" horiz-adv-x="1142" 
d="M897 1151q-57 0 -118 27.5t-114 54.5t-90 27q-66 0 -126 -95l-95 31q47 114 111 181t156 67q57 0 117.5 -27t113.5 -53.5t90 -26.5q63 0 127 93l92 -31q-48 -115 -110 -181.5t-154 -66.5zM29 0l184 946h250l-4 -28q-14 -89 -60 -179l9 -2q69 126 155.5 183t206.5 57
q145 0 221 -78t76 -227q0 -64 -18 -154l-105 -518h-252l99 494q10 44 10 92q0 82 -44.5 125t-127.5 43q-104 0 -167.5 -73t-94.5 -230l-88 -451h-250z" />
    <glyph glyph-name="ograve" unicode="&#xf2;" horiz-adv-x="1161" 
d="M645 1448l154 -309l-4 -6h-174l-261 309l2 6h283zM537 -31q-221 0 -350.5 122t-129.5 329q0 243 160 400t408 157q221 0 350 -122t129 -329q0 -243 -160 -400t-407 -157zM555 207q127 0 210 86t83 217q0 106 -64.5 167.5t-177.5 61.5q-128 0 -210.5 -85.5t-82.5 -217.5
q0 -106 64.5 -167.5t177.5 -61.5z" />
    <glyph glyph-name="oacute" unicode="&#xf3;" horiz-adv-x="1161" 
d="M1124 1448v-6l-381 -309h-172l-2 6l271 309h284zM537 -31q-221 0 -350.5 122t-129.5 329q0 243 160 400t408 157q221 0 350 -122t129 -329q0 -243 -160 -400t-407 -157zM555 207q127 0 210 86t83 217q0 106 -64.5 167.5t-177.5 61.5q-128 0 -210.5 -85.5t-82.5 -217.5
q0 -106 64.5 -167.5t177.5 -61.5z" />
    <glyph glyph-name="ocircumflex" unicode="&#xf4;" horiz-adv-x="1161" 
d="M856 1448l176 -309v-6h-192l-58 96q-31 53 -40.5 78t-8.5 57h-6q-11 -31 -30 -55t-72 -80l-97 -96h-217v6l299 309h246zM537 -31q-221 0 -350.5 122t-129.5 329q0 243 160 400t408 157q221 0 350 -122t129 -329q0 -243 -160 -400t-407 -157zM555 207q127 0 210 86t83 217
q0 106 -64.5 167.5t-177.5 61.5q-128 0 -210.5 -85.5t-82.5 -217.5q0 -106 64.5 -167.5t177.5 -61.5z" />
    <glyph glyph-name="otilde" unicode="&#xf5;" horiz-adv-x="1161" 
d="M866 1151q-57 0 -117.5 27.5t-113.5 54.5t-90 27q-67 0 -127 -95l-94 31q47 114 110.5 181t155.5 67q57 0 117.5 -27t113.5 -53.5t90 -26.5q63 0 127 93l92 -31q-48 -115 -110 -181.5t-154 -66.5zM537 -31q-221 0 -350.5 122t-129.5 329q0 243 160 400t408 157
q221 0 350 -122t129 -329q0 -243 -160 -400t-407 -157zM555 207q127 0 210 86t83 217q0 106 -64.5 167.5t-177.5 61.5q-128 0 -210.5 -85.5t-82.5 -217.5q0 -106 64.5 -167.5t177.5 -61.5z" />
    <glyph glyph-name="odieresis" unicode="&#xf6;" horiz-adv-x="1161" 
d="M655 1434l-53 -273h-209l53 273h209zM1036 1434l-55 -273h-209l53 273h211zM537 -31q-221 0 -350.5 122t-129.5 329q0 243 160 400t408 157q221 0 350 -122t129 -329q0 -243 -160 -400t-407 -157zM555 207q127 0 210 86t83 217q0 106 -64.5 167.5t-177.5 61.5
q-128 0 -210.5 -85.5t-82.5 -217.5q0 -106 64.5 -167.5t177.5 -61.5z" />
    <glyph glyph-name="divide" unicode="&#xf7;" 
d="M727 1032v-186h-172v186h172zM1171 666v-109h-1060v109h1060zM727 375v-187h-172v187h172z" />
    <glyph glyph-name="oslash" unicode="&#xf8;" horiz-adv-x="1161" 
d="M1116 928l-110 -105q98 -118 98 -297q0 -243 -160 -400t-407 -157q-206 0 -334 109l-115 -107l-51 47l117 109q-97 118 -97 293q0 243 160 400t408 157q205 0 329 -105l113 105zM313 436q0 -70 33 -131l418 389q-61 45 -158 45q-128 0 -210.5 -85.5t-82.5 -217.5z
M848 510q0 80 -35 133l-420 -389q62 -47 162 -47q127 0 210 86t83 217z" />
    <glyph glyph-name="ugrave" unicode="&#xf9;" horiz-adv-x="1116" 
d="M641 1448l154 -309l-4 -6h-175l-260 309l2 6h283zM1094 946l-185 -946h-245q19 103 67 207l-8 2q-74 -126 -158 -183t-198 -57q-138 0 -213.5 79t-75.5 220q0 70 16 154l103 524h256l-97 -487q-12 -56 -12 -97q0 -77 41 -118t117 -41q97 0 161.5 71.5t90.5 210.5l88 461
h252z" />
    <glyph glyph-name="uacute" unicode="&#xfa;" horiz-adv-x="1116" 
d="M1120 1448v-6l-381 -309h-172l-2 6l271 309h284zM1094 946l-185 -946h-245q19 103 67 207l-8 2q-74 -126 -158 -183t-198 -57q-138 0 -213.5 79t-75.5 220q0 70 16 154l103 524h256l-97 -487q-12 -56 -12 -97q0 -77 41 -118t117 -41q97 0 161.5 71.5t90.5 210.5l88 461
h252z" />
    <glyph glyph-name="ucircumflex" unicode="&#xfb;" horiz-adv-x="1116" 
d="M854 1448l176 -309v-6h-192l-58 96q-31 53 -40.5 78t-8.5 57h-6q-11 -31 -30 -55t-72 -80l-97 -96h-217v6l299 309h246zM1094 946l-185 -946h-245q19 103 67 207l-8 2q-74 -126 -158 -183t-198 -57q-138 0 -213.5 79t-75.5 220q0 70 16 154l103 524h256l-97 -487
q-12 -56 -12 -97q0 -77 41 -118t117 -41q97 0 161.5 71.5t90.5 210.5l88 461h252z" />
    <glyph glyph-name="udieresis" unicode="&#xfc;" horiz-adv-x="1116" 
d="M653 1434l-53 -273h-209l53 273h209zM1034 1434l-55 -273h-209l53 273h211zM1094 946l-185 -946h-245q19 103 67 207l-8 2q-74 -126 -158 -183t-198 -57q-138 0 -213.5 79t-75.5 220q0 70 16 154l103 524h256l-97 -487q-12 -56 -12 -97q0 -77 41 -118t117 -41
q97 0 161.5 71.5t90.5 210.5l88 461h252z" />
    <glyph glyph-name="yacute" unicode="&#xfd;" horiz-adv-x="1044" 
d="M1081 1448v-6l-381 -309h-172l-2 6l271 309h284zM1130 946l-851 -1358h-275l315 510l-221 848h267l92 -411q28 -126 16 -248l8 2q19 79 70 164l295 493h284z" />
    <glyph glyph-name="thorn" unicode="&#xfe;" horiz-adv-x="1220" 
d="M-51 -410l358 1844h250l-88 -465q-29 -138 -63 -215l6 -2q57 110 151 167.5t207 57.5q78 0 148 -28t125 -81t87.5 -140t32.5 -196q0 -158 -63 -286t-179.5 -202.5t-263.5 -74.5q-133 0 -224.5 63t-123.5 179l-8 -2q-3 -93 -25 -209l-79 -410h-248zM606 201
q134 0 213.5 92t79.5 217q0 109 -65.5 172t-174.5 63q-134 0 -213 -92t-79 -217q0 -109 65.5 -172t173.5 -63z" />
    <glyph glyph-name="ydieresis" unicode="&#xff;" horiz-adv-x="1044" 
d="M612 1434l-53 -273h-209l53 273h209zM993 1434l-55 -273h-209l53 273h211zM1130 946l-851 -1358h-275l315 510l-221 848h267l92 -411q28 -126 16 -248l8 2q19 79 70 164l295 493h284z" />
    <glyph glyph-name="Amacron" unicode="&#x100;" horiz-adv-x="1452" 
d="M649 1706h631l-33 -162h-629zM-80 0l977 1462h43l408 -1462h-271l-90 340h-541l-217 -340h-309zM555 541q30 6 107 6h190q72 0 102 -6l4 2q-28 40 -43 106l-47 221q-20 101 -14 156h-10q-12 -51 -76 -156l-131 -221q-45 -72 -84 -106z" />
    <glyph glyph-name="amacron" unicode="&#x101;" horiz-adv-x="1062" 
d="M1008 1380l-35 -170h-613l33 170h615zM354 -29q-150 0 -242 87.5t-92 230.5q0 157 100.5 249.5t270.5 92.5q121 0 208.5 -53.5t127.5 -151.5l6 2q-9 58 2 119q10 72 10 90q0 64 -44 94.5t-138 30.5q-123 0 -295 -35l-35 209q204 39 383 39q192 0 282 -72t87 -223
q0 -34 -14 -127l-105 -553h-252q16 89 60 156l-8 6q-65 -101 -138 -146t-174 -45zM459 164q82 0 137 43t55 106q0 61 -54 101.5t-134 40.5q-78 0 -125 -41.5t-47 -110.5q0 -63 46 -101t122 -38z" />
    <glyph glyph-name="Abreve" unicode="&#x102;" horiz-adv-x="1452" 
d="M942 1513q-131 0 -201.5 60.5t-70.5 167.5v18h176v-10q0 -39 29.5 -60.5t85.5 -21.5q109 0 149 92h176q-34 -117 -122 -181.5t-222 -64.5zM-80 0l977 1462h43l408 -1462h-271l-90 340h-541l-217 -340h-309zM555 541q30 6 107 6h190q72 0 102 -6l4 2q-28 40 -43 106
l-47 221q-20 101 -14 156h-10q-12 -51 -76 -156l-131 -221q-45 -72 -84 -106z" />
    <glyph glyph-name="abreve" unicode="&#x103;" horiz-adv-x="1062" 
d="M674 1139q-129 0 -205 64t-76 177q0 38 8 74h160q-2 -14 -2 -41q0 -117 119 -117q138 0 174 158h166q-26 -152 -117 -233.5t-227 -81.5zM354 -29q-150 0 -242 87.5t-92 230.5q0 157 100.5 249.5t270.5 92.5q121 0 208.5 -53.5t127.5 -151.5l6 2q-9 58 2 119q10 72 10 90
q0 64 -44 94.5t-138 30.5q-123 0 -295 -35l-35 209q204 39 383 39q192 0 282 -72t87 -223q0 -34 -14 -127l-105 -553h-252q16 89 60 156l-8 6q-65 -101 -138 -146t-174 -45zM459 164q82 0 137 43t55 106q0 61 -54 101.5t-134 40.5q-78 0 -125 -41.5t-47 -110.5
q0 -63 46 -101t122 -38z" />
    <glyph glyph-name="Aogonek" unicode="&#x104;" horiz-adv-x="1452" 
d="M1061 -258q34 0 82 10l2 -147q-106 -25 -152 -25q-80 0 -127 36t-47 103q0 75 61.5 142t192.5 153l-86 326h-541l-217 -340h-309l977 1462h43l408 -1462h-140q-106 -76 -155 -127.5t-49 -87.5q0 -43 57 -43zM954 541l4 2q-28 40 -43 106l-47 221q-20 101 -14 156h-10
q-12 -51 -76 -156l-131 -221q-45 -72 -84 -106l2 -2q30 6 107 6h190q72 0 102 -6z" />
    <glyph glyph-name="aogonek" unicode="&#x105;" horiz-adv-x="1062" 
d="M616 975q192 0 282 -72t87 -223q0 -34 -14 -127l-105 -553h-131q-100 -74 -146 -122.5t-46 -84.5q0 -43 57 -43q34 0 82 10l2 -147q-106 -25 -152 -25q-80 0 -127 36t-47 104q0 77 63 144.5t200 156.5q18 76 53 127l-8 6q-65 -101 -138 -146t-174 -45q-150 0 -242 87.5
t-92 230.5q0 157 100.5 249.5t270.5 92.5q121 0 208.5 -53.5t127.5 -151.5l6 2q-9 58 2 119q10 72 10 90q0 64 -44 94.5t-138 30.5q-123 0 -295 -35l-35 209q204 39 383 39zM459 164q82 0 137 43t55 106q0 61 -54 101.5t-134 40.5q-78 0 -125 -41.5t-47 -110.5
q0 -63 46 -101t122 -38z" />
    <glyph glyph-name="Cacute" unicode="&#x106;" horiz-adv-x="1419" 
d="M1421 1747v-6l-344 -219h-172v6l244 219h272zM809 -31q-313 0 -503.5 187t-190.5 495q0 176 63.5 327t175.5 258t270.5 167.5t342.5 60.5q299 0 512 -157l-158 -220q-171 119 -371 119q-244 0 -399.5 -153.5t-155.5 -393.5q0 -198 116 -315t312 -117q177 0 357 111
l123 -223q-243 -146 -494 -146z" />
    <glyph glyph-name="cacute" unicode="&#x107;" horiz-adv-x="991" 
d="M1108 1448v-6l-381 -309h-172l-2 6l270 309h285zM559 -31q-224 0 -360 130t-136 345q0 241 155.5 387t410.5 146q207 0 383 -117l-135 -205q-125 88 -261 88q-128 0 -209 -79.5t-81 -206.5q0 -114 69 -184t180 -70q101 0 213 59l91 -211q-152 -82 -320 -82z" />
    <glyph glyph-name="Ccircumflex" unicode="&#x108;" horiz-adv-x="1419" 
d="M631 1522l2 8l280 237h252l191 -237l-2 -8h-217l-43 53q-35 39 -47.5 63t-12.5 52h-6q-11 -30 -32.5 -54.5t-69.5 -60.5l-66 -53h-229zM809 -31q-313 0 -503.5 187t-190.5 495q0 176 63.5 327t175.5 258t270.5 167.5t342.5 60.5q299 0 512 -157l-158 -220
q-171 119 -371 119q-244 0 -399.5 -153.5t-155.5 -393.5q0 -198 116 -315t312 -117q177 0 357 111l123 -223q-243 -146 -494 -146z" />
    <glyph glyph-name="ccircumflex" unicode="&#x109;" horiz-adv-x="991" 
d="M842 1448l176 -309v-6h-193l-57 96q-31 53 -40.5 78t-8.5 57h-6q-11 -31 -29.5 -54.5t-73.5 -80.5l-96 -96h-217v6l299 309h246zM559 -31q-224 0 -360 130t-136 345q0 241 155.5 387t410.5 146q207 0 383 -117l-135 -205q-125 88 -261 88q-128 0 -209 -79.5t-81 -206.5
q0 -114 69 -184t180 -70q101 0 213 59l91 -211q-152 -82 -320 -82z" />
    <glyph glyph-name="Cdotaccent" unicode="&#x10a;" horiz-adv-x="1419" 
d="M1163 1772l-47 -252h-246l48 252h245zM809 -31q-313 0 -503.5 187t-190.5 495q0 176 63.5 327t175.5 258t270.5 167.5t342.5 60.5q299 0 512 -157l-158 -220q-171 119 -371 119q-244 0 -399.5 -153.5t-155.5 -393.5q0 -198 116 -315t312 -117q177 0 357 111l123 -223
q-243 -146 -494 -146z" />
    <glyph glyph-name="cdotaccent" unicode="&#x10b;" horiz-adv-x="991" 
d="M870 1434l-59 -306h-274l59 306h274zM559 -31q-224 0 -360 130t-136 345q0 241 155.5 387t410.5 146q207 0 383 -117l-135 -205q-125 88 -261 88q-128 0 -209 -79.5t-81 -206.5q0 -114 69 -184t180 -70q101 0 213 59l91 -211q-152 -82 -320 -82z" />
    <glyph glyph-name="Ccaron" unicode="&#x10c;" horiz-adv-x="1419" 
d="M1403 1767l-2 -8l-283 -237h-252l-188 237l2 8h215l47 -53q33 -36 45 -60.5t10 -54.5h9q11 30 31.5 54t68.5 61l68 53h229zM809 -31q-313 0 -503.5 187t-190.5 495q0 176 63.5 327t175.5 258t270.5 167.5t342.5 60.5q299 0 512 -157l-158 -220q-171 119 -371 119
q-244 0 -399.5 -153.5t-155.5 -393.5q0 -198 116 -315t312 -117q177 0 357 111l123 -223q-243 -146 -494 -146z" />
    <glyph glyph-name="ccaron" unicode="&#x10d;" horiz-adv-x="991" 
d="M551 1128l-176 308v8h198l58 -96q31 -52 40.5 -78.5t8.5 -59.5h8q12 33 32.5 60.5t70.5 77.5l94 96h211v-8l-299 -308h-246zM559 -31q-224 0 -360 130t-136 345q0 241 155.5 387t410.5 146q207 0 383 -117l-135 -205q-125 88 -261 88q-128 0 -209 -79.5t-81 -206.5
q0 -114 69 -184t180 -70q101 0 213 59l91 -211q-152 -82 -320 -82z" />
    <glyph glyph-name="Dcaron" unicode="&#x10e;" horiz-adv-x="1433" 
d="M1202 1767l-2 -8l-282 -237h-252l-189 237l2 8h215l47 -53q34 -37 46 -61.5t10 -53.5h8q11 30 31.5 54t68.5 61l68 53h229zM53 0l279 1434h428q301 0 479 -173t178 -466q0 -236 -111 -416.5t-314.5 -279.5t-471.5 -99h-467zM356 229q29 11 56 11h153q254 0 415 155.5
t161 399.5q0 187 -105 293t-291 106h-149q-36 0 -51 10l-6 -4q6 -23 -2 -57l-164 -852q-9 -43 -21 -58z" />
    <glyph glyph-name="dcaron" unicode="&#x10f;" horiz-adv-x="1482" 
d="M1458 1495h242l-275 -428h-125zM453 -31q-178 0 -287 122.5t-109 322.5q0 161 65.5 289.5t181 201t259.5 72.5q134 0 225 -63.5t123 -178.5l9 2q-7 58 20 209l100 518h252l-284 -1464h-244q20 115 53 199l-6 2q-56 -111 -149 -171.5t-209 -60.5zM561 201q126 0 210.5 88
t84.5 221q0 107 -65 171t-175 64q-131 0 -212.5 -86t-81.5 -223q0 -107 65 -171t174 -64z" />
    <glyph glyph-name="Dcroat" unicode="&#x110;" horiz-adv-x="1386" 
d="M854 1434q144 0 265 -43t208 -123.5t135.5 -201.5t48.5 -271q0 -236 -110 -416t-314 -279.5t-473 -99.5h-469l111 567q6 44 18 58l-4 4q-26 -11 -55 -11h-186l43 222h186q36 0 51 -9l6 5q-4 21 4 55l25 133l80 410h430zM657 240q163 0 293.5 67.5t206.5 195t76 292.5
q0 191 -106.5 295t-288.5 104h-148q-34 0 -51 10l-6 -4q4 -21 -4 -57l-23 -119l-24 -133q-10 -41 -21 -55l4 -5q18 9 56 9h280l-43 -222h-280q-34 0 -52 11l-6 -4q5 -12 -2 -58l-53 -276q-5 -35 -19 -58l3 -4q26 11 57 11h151z" />
    <glyph glyph-name="dcroat" unicode="&#x111;" horiz-adv-x="1222" 
d="M1311 1296h73l-28 -149h-76q-43 0 -55 8l-2 -2q6 -25 0 -53l-13 -66l-202 -1034h-244q20 117 53 199l-6 2q-56 -111 -149 -171.5t-209 -60.5q-178 0 -287 122.5t-109 322.5q0 161 65.5 289.5t181 201t259.5 72.5q134 0 225 -63.5t123 -178.5l9 2q-7 60 20 209l18 88
l13 66q12 40 20 53l-2 2q-16 -8 -59 -8h-256l28 149h259q36 0 55 -8l2 2q-6 20 0 53l24 121h252l-24 -121q-8 -36 -21 -53l2 -2q19 8 60 8zM569 201q127 0 211 87.5t84 221.5q0 108 -64.5 171.5t-174.5 63.5q-130 0 -212.5 -86t-82.5 -223q0 -107 65 -171t174 -64z" />
    <glyph glyph-name="Emacron" unicode="&#x112;" horiz-adv-x="1083" 
d="M526 1706h631l-33 -162h-628zM1180 1434l-47 -240h-537q-31 0 -51 10l-6 -4q7 -17 -2 -57l-39 -203q-5 -34 -19 -57l2 -4q19 8 58 8h473l-45 -238h-475q-34 0 -54 10l-4 -4q5 -12 -2 -57l-59 -307q-10 -44 -21 -58l4 -4q22 11 56 11h544l-47 -240h-856l279 1434h848z" />
    <glyph glyph-name="emacron" unicode="&#x113;" horiz-adv-x="1101" 
d="M1038 1380l-34 -170h-613l33 170h614zM547 -31q-227 0 -357.5 120t-130.5 329q0 246 156 402.5t401 156.5q203 0 320 -103.5t117 -283.5q0 -58 -25 -174h-612q-88 0 -113 20l-6 -6l4 -16v-23q2 -95 68.5 -149t183.5 -54q78 0 150 26.5t153 86.5l109 -184
q-104 -78 -203 -113t-215 -35zM324 565q25 19 94 19h291q75 0 94 -19l6 4q-4 6 -4 21q0 190 -207 190q-212 0 -276 -211z" />
    <glyph glyph-name="Ebreve" unicode="&#x114;" horiz-adv-x="1083" 
d="M817 1511q-131 0 -201.5 60.5t-70.5 167.5v18h176v-10q0 -39 29.5 -60.5t85.5 -21.5q109 0 149 92h176q-34 -117 -122 -181.5t-222 -64.5zM1180 1434l-47 -240h-537q-31 0 -51 10l-6 -4q7 -17 -2 -57l-39 -203q-5 -34 -19 -57l2 -4q19 8 58 8h473l-45 -238h-475
q-34 0 -54 10l-4 -4q5 -12 -2 -57l-59 -307q-10 -44 -21 -58l4 -4q22 11 56 11h544l-47 -240h-856l279 1434h848z" />
    <glyph glyph-name="ebreve" unicode="&#x115;" horiz-adv-x="1101" 
d="M707 1139q-129 0 -205 64t-76 177q0 38 8 74h160q-2 -14 -2 -41q0 -117 119 -117q138 0 174 158h166q-26 -152 -117 -233.5t-227 -81.5zM547 -31q-227 0 -357.5 120t-130.5 329q0 246 156 402.5t401 156.5q203 0 320 -103.5t117 -283.5q0 -58 -25 -174h-612
q-88 0 -113 20l-6 -6l4 -16v-23q2 -95 68.5 -149t183.5 -54q78 0 150 26.5t153 86.5l109 -184q-104 -78 -203 -113t-215 -35zM324 565q25 19 94 19h291q75 0 94 -19l6 4q-4 6 -4 21q0 190 -207 190q-212 0 -276 -211z" />
    <glyph glyph-name="Edotaccent" unicode="&#x116;" horiz-adv-x="1083" 
d="M977 1772l-47 -252h-246l47 252h246zM1180 1434l-47 -240h-537q-31 0 -51 10l-6 -4q7 -17 -2 -57l-39 -203q-5 -34 -19 -57l2 -4q19 8 58 8h473l-45 -238h-475q-34 0 -54 10l-4 -4q5 -12 -2 -57l-59 -307q-10 -44 -21 -58l4 -4q22 11 56 11h544l-47 -240h-856l279 1434
h848z" />
    <glyph glyph-name="edotaccent" unicode="&#x117;" horiz-adv-x="1101" 
d="M887 1434l-60 -306h-274l59 306h275zM547 -31q-227 0 -357.5 120t-130.5 329q0 246 156 402.5t401 156.5q203 0 320 -103.5t117 -283.5q0 -58 -25 -174h-612q-88 0 -113 20l-6 -6l4 -16v-23q2 -95 68.5 -149t183.5 -54q78 0 150 26.5t153 86.5l109 -184
q-104 -78 -203 -113t-215 -35zM324 565q25 19 94 19h291q75 0 94 -19l6 4q-4 6 -4 21q0 190 -207 190q-212 0 -276 -211z" />
    <glyph glyph-name="Eogonek" unicode="&#x118;" horiz-adv-x="1083" 
d="M596 1194q-31 0 -51 10l-6 -4q7 -17 -2 -57l-39 -203q-5 -34 -19 -57l2 -4q19 8 58 8h473l-45 -238h-475q-34 0 -54 10l-4 -4q5 -12 -2 -57l-59 -307q-10 -44 -21 -58l4 -4q22 11 56 11h544l-47 -240h-88q-100 -74 -146 -122.5t-46 -84.5q0 -43 57 -43q34 0 82 10l2 -147
q-106 -25 -152 -25q-80 0 -127 36t-47 104q0 71 53 132t167 140h-611l279 1434h848l-47 -240h-537z" />
    <glyph glyph-name="eogonek" unicode="&#x119;" horiz-adv-x="1101" 
d="M416 416q-88 0 -113 20l-6 -6l4 -16v-23q2 -95 68.5 -149t183.5 -54q78 0 150 26.5t153 86.5l109 -184q-94 -70 -193 -109q-106 -76 -155.5 -127.5t-49.5 -87.5q0 -43 58 -43q34 0 82 10l2 -147q-106 -25 -152 -25q-80 0 -127 36t-47 104q0 63 43 119.5t133 121.5h-12
q-227 0 -357.5 120t-130.5 329q0 246 156 402.5t401 156.5q203 0 320 -103.5t117 -283.5q0 -58 -25 -174h-612zM598 780q-212 0 -276 -211l2 -4q25 19 94 19h291q75 0 94 -19l6 4q-4 6 -4 21q0 190 -207 190z" />
    <glyph glyph-name="Ecaron" unicode="&#x11a;" horiz-adv-x="1083" 
d="M1217 1767l-3 -8l-282 -237h-252l-188 237l2 8h215l47 -53q33 -36 45 -60.5t10 -54.5h8q11 30 31.5 53.5t69.5 61.5l67 53h230zM1180 1434l-47 -240h-537q-31 0 -51 10l-6 -4q7 -17 -2 -57l-39 -203q-5 -34 -19 -57l2 -4q19 8 58 8h473l-45 -238h-475q-34 0 -54 10l-4 -4
q5 -12 -2 -57l-59 -307q-10 -44 -21 -58l4 -4q22 11 56 11h544l-47 -240h-856l279 1434h848z" />
    <glyph glyph-name="ecaron" unicode="&#x11b;" horiz-adv-x="1101" 
d="M567 1128l-176 308v8h199l57 -96q31 -52 40.5 -78.5t8.5 -59.5h9q12 34 32 61t70 77l94 96h211v-8l-299 -308h-246zM547 -31q-227 0 -357.5 120t-130.5 329q0 246 156 402.5t401 156.5q203 0 320 -103.5t117 -283.5q0 -58 -25 -174h-612q-88 0 -113 20l-6 -6l4 -16v-23
q2 -95 68.5 -149t183.5 -54q78 0 150 26.5t153 86.5l109 -184q-104 -78 -203 -113t-215 -35zM324 565q25 19 94 19h291q75 0 94 -19l6 4q-4 6 -4 21q0 190 -207 190q-212 0 -276 -211z" />
    <glyph glyph-name="Gcircumflex" unicode="&#x11c;" horiz-adv-x="1611" 
d="M631 1522l2 8l280 237h252l191 -237l-2 -8h-217l-43 53q-35 39 -47.5 63t-12.5 52h-6q-11 -30 -32.5 -54.5t-69.5 -60.5l-66 -53h-229zM825 -29q-324 0 -517 185.5t-193 496.5q0 233 108.5 418t302 288t437.5 103q172 0 322.5 -52.5t262.5 -152.5l-180 -202
q-83 72 -193.5 111.5t-228.5 39.5q-241 0 -397 -156.5t-156 -394.5q0 -201 118.5 -315.5t324.5 -114.5q190 0 315 100t158 271l-4 4q-45 -25 -140 -25h-303l45 228h711l-19 -111q-57 -345 -257 -533t-517 -188z" />
    <glyph glyph-name="gcircumflex" unicode="&#x11d;" horiz-adv-x="1212" 
d="M885 1448l176 -309v-6h-193l-57 96q-31 53 -40.5 78t-8.5 57h-6q-11 -31 -29.5 -54.5t-73.5 -80.5l-96 -96h-217v6l299 309h246zM453 -440q-280 0 -476 133l140 205q168 -107 338 -107q258 0 311 238q22 96 51 161l-6 3q-56 -108 -149 -166t-211 -58q-177 0 -285.5 122.5
t-108.5 322.5q0 161 65.5 289.5t181 201t259.5 72.5q135 0 225.5 -63t122.5 -179l9 2q-7 58 20 209h248l-176 -926q-43 -226 -185 -343t-374 -117zM561 201q126 0 210.5 88t84.5 221q0 107 -65 171t-175 64q-127 0 -210.5 -87.5t-83.5 -221.5q0 -107 65 -171t174 -64z" />
    <glyph glyph-name="Gbreve" unicode="&#x11e;" horiz-adv-x="1611" 
d="M1004 1511q-131 0 -202 60.5t-71 167.5v18h176v-10q0 -39 29.5 -60.5t85.5 -21.5q109 0 149 92h177q-34 -117 -122 -181.5t-222 -64.5zM825 -29q-324 0 -517 185.5t-193 496.5q0 233 108.5 418t302 288t437.5 103q172 0 322.5 -52.5t262.5 -152.5l-180 -202
q-83 72 -193.5 111.5t-228.5 39.5q-241 0 -397 -156.5t-156 -394.5q0 -201 118.5 -315.5t324.5 -114.5q190 0 315 100t158 271l-4 4q-45 -25 -140 -25h-303l45 228h711l-19 -111q-57 -345 -257 -533t-517 -188z" />
    <glyph glyph-name="gbreve" unicode="&#x11f;" horiz-adv-x="1212" 
d="M733 1139q-129 0 -204.5 64t-75.5 177q0 38 8 74h160q-3 -21 -3 -41q0 -117 119 -117q138 0 174 158h166q-26 -152 -117 -233.5t-227 -81.5zM453 -440q-280 0 -476 133l140 205q168 -107 338 -107q258 0 311 238q22 96 51 161l-6 3q-56 -108 -149 -166t-211 -58
q-177 0 -285.5 122.5t-108.5 322.5q0 161 65.5 289.5t181 201t259.5 72.5q135 0 225.5 -63t122.5 -179l9 2q-7 58 20 209h248l-176 -926q-43 -226 -185 -343t-374 -117zM561 201q126 0 210.5 88t84.5 221q0 107 -65 171t-175 64q-127 0 -210.5 -87.5t-83.5 -221.5
q0 -107 65 -171t174 -64z" />
    <glyph glyph-name="Gdotaccent" unicode="&#x120;" horiz-adv-x="1611" 
d="M1163 1772l-47 -252h-246l48 252h245zM825 -29q-324 0 -517 185.5t-193 496.5q0 233 108.5 418t302 288t437.5 103q172 0 322.5 -52.5t262.5 -152.5l-180 -202q-83 72 -193.5 111.5t-228.5 39.5q-241 0 -397 -156.5t-156 -394.5q0 -201 118.5 -315.5t324.5 -114.5
q190 0 315 100t158 271l-4 4q-45 -25 -140 -25h-303l45 228h711l-19 -111q-57 -345 -257 -533t-517 -188z" />
    <glyph glyph-name="gdotaccent" unicode="&#x121;" horiz-adv-x="1212" 
d="M913 1434l-59 -306h-274l59 306h274zM453 -440q-280 0 -476 133l140 205q168 -107 338 -107q258 0 311 238q22 96 51 161l-6 3q-56 -108 -149 -166t-211 -58q-177 0 -285.5 122.5t-108.5 322.5q0 161 65.5 289.5t181 201t259.5 72.5q135 0 225.5 -63t122.5 -179l9 2
q-7 58 20 209h248l-176 -926q-43 -226 -185 -343t-374 -117zM561 201q126 0 210.5 88t84.5 221q0 107 -65 171t-175 64q-127 0 -210.5 -87.5t-83.5 -221.5q0 -107 65 -171t174 -64z" />
    <glyph glyph-name="Gcommaaccent" unicode="&#x122;" horiz-adv-x="1611" 
d="M825 -29q-324 0 -517 185.5t-193 496.5q0 233 108.5 418t302 288t437.5 103q172 0 322.5 -52.5t262.5 -152.5l-180 -202q-83 72 -193.5 111.5t-228.5 39.5q-241 0 -397 -156.5t-156 -394.5q0 -201 118.5 -315.5t324.5 -114.5q190 0 315 100t158 271l-4 4
q-45 -25 -140 -25h-303l45 228h711l-19 -111q-57 -345 -257 -533t-517 -188zM901 -104l-248 -336h-127l129 336h246z" />
    <glyph glyph-name="gcommaaccent" unicode="&#x123;" horiz-adv-x="1206" 
d="M846 1133h-268l276 350h131zM453 -440q-280 0 -476 133l140 205q168 -107 338 -107q258 0 311 238q22 96 51 161l-6 3q-56 -108 -149 -166t-211 -58q-177 0 -285.5 122.5t-108.5 322.5q0 161 65.5 289.5t181 201t259.5 72.5q135 0 225.5 -63t122.5 -179l9 2q-7 58 20 209
h248l-176 -926q-43 -226 -185 -343t-374 -117zM561 201q126 0 210.5 88t84.5 221q0 107 -65 171t-175 64q-127 0 -210.5 -87.5t-83.5 -221.5q0 -107 65 -171t174 -64z" />
    <glyph glyph-name="Hcircumflex" unicode="&#x124;" horiz-adv-x="1482" 
d="M584 1522l2 8l280 237h252l191 -237l-2 -8h-217l-43 53q-35 39 -47.5 63t-12.5 52h-6q-11 -30 -32.5 -54.5t-69.5 -60.5l-66 -53h-229zM1524 1434l-279 -1434h-264l113 584q10 43 18 57l-2 4q-23 -10 -55 -10h-563q-34 0 -54 10l-4 -4q4 -21 -4 -57l-113 -584h-264
l279 1434h264l-98 -502q-5 -35 -19 -58l4 -4q21 9 56 9h563q36 0 51 -9l4 4q-4 21 4 58l99 502h264z" />
    <glyph glyph-name="hcircumflex" unicode="&#x125;" horiz-adv-x="1142" 
d="M88 1522l2 8l281 237h252l190 -237l-2 -8h-217l-43 53q-34 39 -46.5 62.5t-12.5 52.5h-7q-11 -30 -32.5 -54.5t-69.5 -60.5l-66 -53h-229zM563 1464l-92 -475q-28 -136 -68 -239l7 -2q70 121 155 175t205 54q145 0 221 -78t76 -227q0 -64 -18 -154l-105 -518h-252l99 494
q10 44 10 92q0 82 -44.5 125t-127.5 43q-104 0 -167.5 -73t-94.5 -230l-88 -451h-250l284 1464h250z" />
    <glyph glyph-name="Hbar" unicode="&#x126;" horiz-adv-x="1474" 
d="M51 0l195 1001q7 37 14 50l-4 2q-16 -4 -39 -4h-104l41 211h102q28 0 39 -7l6 4q-2 11 4 50l25 127h260l-25 -127q-6 -36 -14 -50l2 -4q18 7 43 7h588q26 0 37 -7l6 4q-1 6 6 50l24 127h261l-25 -127q-6 -36 -14 -50l2 -4q17 7 41 7h104l-39 -211h-106q-21 0 -37 4l-4 -2
q2 -11 -6 -50l-195 -1001h-260l113 582q6 38 16 55l-2 4q-20 -8 -49 -8h-578q-31 0 -47 8l-4 -4q2 -12 -4 -55l-113 -582h-260zM477 870q22 9 49 9h578q29 0 47 -9l4 4q-5 9 2 50l17 77q7 37 14 50l-4 2q-16 -4 -41 -4h-588q-23 0 -39 4l-4 -2q0 -20 -6 -50l-14 -77
q-6 -37 -19 -50z" />
    <glyph glyph-name="hbar" unicode="&#x127;" horiz-adv-x="1144" 
d="M772 977q145 0 221 -78t76 -227q0 -64 -18 -154l-105 -518h-252l99 494q10 44 10 92q0 82 -43.5 125t-126.5 43q-106 0 -169.5 -73t-94.5 -230l-86 -451h-252l184 946l29 154q8 37 20 53l-2 2q-18 -8 -59 -8h-74l29 149h75q42 0 56 -8l2 2q-6 25 0 53l24 121h252
l-24 -121q-7 -30 -21 -53l2 -2q16 8 58 8h258l-29 -149h-258q-41 0 -55 8l-2 -2q6 -25 0 -53l-31 -154l-4 -28q-14 -86 -58 -179l7 -2q69 126 155.5 183t206.5 57z" />
    <glyph glyph-name="Itilde" unicode="&#x128;" horiz-adv-x="548" 
d="M662 1507q-65 0 -171 45t-151 45q-68 0 -127 -79l-84 26q44 105 106 168.5t154 63.5q53 0 113 -22.5t115 -45t94 -22.5q37 0 66.5 18.5t62.5 60.5l84 -26q-21 -50 -44 -88t-54.5 -72.5t-73 -53t-90.5 -18.5zM592 1434l-279 -1434h-260l279 1434h260z" />
    <glyph glyph-name="itilde" unicode="&#x129;" horiz-adv-x="483" 
d="M311 1444q43 0 89 -24.5t85 -49t64 -24.5q27 0 48 23t44 69l88 -31q-89 -248 -229 -248q-43 0 -88.5 25.5t-84 50.5t-63.5 25q-27 0 -49 -24.5t-45 -70.5l-88 31q92 248 229 248zM459 946l-185 -946h-251l184 946h252z" />
    <glyph glyph-name="Imacron" unicode="&#x12a;" horiz-adv-x="548" 
d="M199 1706h630l-32 -162h-629zM592 1434l-279 -1434h-260l279 1434h260z" />
    <glyph glyph-name="imacron" unicode="&#x12b;" horiz-adv-x="483" 
d="M633 1380l-35 -170h-448l32 170h451zM459 946l-185 -946h-251l184 946h252z" />
    <glyph glyph-name="Ibreve" unicode="&#x12c;" horiz-adv-x="548" 
d="M489 1511q-131 0 -201.5 60.5t-70.5 167.5v18h176v-10q0 -39 29.5 -60.5t85.5 -21.5q109 0 149 92h177q-34 -117 -122.5 -181.5t-222.5 -64.5zM592 1434l-279 -1434h-260l279 1434h260z" />
    <glyph glyph-name="ibreve" unicode="&#x12d;" horiz-adv-x="483" 
d="M377 1139q-113 0 -172.5 63t-59.5 174q0 27 7 78h159q-4 -36 -4 -53q0 -105 78 -105q48 0 75.5 39.5t39.5 118.5h164q-20 -155 -93.5 -235t-193.5 -80zM459 946l-185 -946h-251l184 946h252z" />
    <glyph glyph-name="Iogonek" unicode="&#x12e;" horiz-adv-x="548" 
d="M233 0q-100 -74 -146 -122.5t-46 -84.5q0 -43 57 -43q34 0 82 10l2 -147q-106 -25 -151 -25q-80 0 -127 36t-47 104q0 71 53 132.5t166 139.5h-23l279 1434h260l-279 -1434h-80z" />
    <glyph glyph-name="iogonek" unicode="&#x12f;" horiz-adv-x="483" 
d="M291 1434h274l-59 -306h-275zM27 20l180 926h252l-185 -946h-120q-101 -74 -147 -122.5t-46 -84.5q0 -43 57 -43q34 0 82 10l2 -147q-106 -25 -151 -25q-80 0 -127 36t-47 104q0 75 60.5 141.5t189.5 150.5z" />
    <glyph glyph-name="Idotaccent" unicode="&#x130;" horiz-adv-x="548" 
d="M649 1772l-47 -252h-246l47 252h246zM592 1434l-279 -1434h-260l279 1434h260z" />
    <glyph glyph-name="dotlessi" unicode="&#x131;" horiz-adv-x="483" 
d="M459 946l-185 -946h-251l184 946h252z" />
    <glyph glyph-name="IJ" unicode="&#x132;" horiz-adv-x="1206" 
d="M592 1434l-279 -1434h-260l279 1434h260zM1247 1434l-209 -1078q-38 -197 -134.5 -281.5t-282.5 -84.5q-50 0 -121 8l47 242q27 -2 92 -2q59 0 92.5 34t48.5 111l205 1051h262z" />
    <glyph glyph-name="ij" unicode="&#x133;" horiz-adv-x="966" 
d="M565 1434l-59 -306h-275l60 306h274zM1049 1434l-60 -306h-274l59 306h275zM459 946l-185 -946h-251l184 946h252zM942 946l-194 -1007q-39 -200 -151.5 -289.5t-311.5 -89.5h-33l45 237h18q82 0 125 41t62 135l188 973h252z" />
    <glyph glyph-name="Jcircumflex" unicode="&#x134;" horiz-adv-x="655" 
d="M219 1522l2 8l281 237h252l190 -237l-2 -8h-217l-43 53q-34 39 -46.5 62.5t-12.5 52.5h-7q-11 -30 -32.5 -54.5t-69.5 -60.5l-65 -53h-230zM698 1434l-209 -1078q-38 -197 -134.5 -281.5t-282.5 -84.5q-50 0 -121 8l47 242q27 -2 92 -2q59 0 92.5 34t48.5 111l205 1051
h262z" />
    <glyph glyph-name="jcircumflex" unicode="&#x135;" horiz-adv-x="483" 
d="M541 1448l82 -309l-2 -6h-170l-19 96q-16 85 -16 135h-4q-20 -57 -68 -135l-59 -96h-197v6l207 309h246zM459 946l-195 -1007q-39 -200 -151.5 -289.5t-311.5 -89.5h-32l45 237h18q81 0 124 41t62 135l189 973h252z" />
    <glyph glyph-name="Kcommaaccent" unicode="&#x136;" horiz-adv-x="1341" 
d="M1466 1434l-587 -555q-88 -83 -168 -138l-2 -6q14 -11 30 -29t24.5 -29.5t30 -41t27.5 -37.5l416 -598h-330l-467 719l-6 -2q3 -86 -22 -215l-97 -502h-262l279 1434h262l-82 -422q-27 -142 -61 -213l6 -4l643 639h366zM674 -104l-248 -336h-127l129 336h246z" />
    <glyph glyph-name="kcommaaccent" unicode="&#x137;" horiz-adv-x="1058" 
d="M563 1464l-139 -727q-26 -131 -68 -207l6 -2l435 418h336l-420 -381q-71 -64 -111 -80l-2 -6q32 -13 72 -67l293 -412h-303l-310 475l-6 -4q11 -68 -14 -197l-53 -274h-250l284 1464h250zM580 -104l-248 -336h-127l129 336h246z" />
    <glyph glyph-name="kgreenlandic" unicode="&#x138;" horiz-adv-x="1069" 
d="M29 0l184 946h250l-39 -209q-24 -126 -66 -202l7 -3l440 414h328l-404 -362q-69 -65 -108 -80l-3 -6q29 -13 68 -70l291 -428h-324l-301 469l-8 -4q12 -69 -12 -191l-53 -274h-250z" />
    <glyph glyph-name="Lacute" unicode="&#x139;" horiz-adv-x="1019" 
d="M920 1747v-6l-345 -219h-172v6l244 219h273zM594 1434l-221 -1141q-9 -40 -21 -55l4 -5q18 9 56 9h546l-47 -242h-858l279 1434h262z" />
    <glyph glyph-name="lacute" unicode="&#x13a;" horiz-adv-x="491" 
d="M879 1747v-6l-344 -219h-173v6l244 219h273zM565 1464l-286 -1464h-250l284 1464h252z" />
    <glyph glyph-name="Lcommaaccent" unicode="&#x13b;" horiz-adv-x="1019" 
d="M594 1434l-221 -1141q-9 -40 -21 -55l4 -5q18 9 56 9h546l-47 -242h-858l279 1434h262zM592 -104l-248 -336h-127l129 336h246z" />
    <glyph glyph-name="lcommaaccent" unicode="&#x13c;" horiz-adv-x="491" 
d="M565 1464l-286 -1464h-250l284 1464h252zM264 -104l-248 -336h-127l129 336h246z" />
    <glyph glyph-name="Lcaron" unicode="&#x13d;" horiz-adv-x="1019" 
d="M895 1495h244l-293 -516h-125zM594 1434l-221 -1141q-9 -40 -21 -55l4 -5q18 9 56 9h546l-47 -242h-858l279 1434h262z" />
    <glyph glyph-name="lcaron" unicode="&#x13e;" horiz-adv-x="747" 
d="M723 1495h242l-275 -428h-125zM565 1464l-286 -1464h-250l284 1464h252z" />
    <glyph glyph-name="Ldot" unicode="&#x13f;" horiz-adv-x="1019" 
d="M594 1434l-221 -1141q-9 -40 -21 -55l4 -5q18 9 56 9h546l-47 -242h-858l279 1434h262zM657 641l60 305h284l-59 -305h-285z" />
    <glyph glyph-name="ldot" unicode="&#x140;" horiz-adv-x="792" 
d="M565 1464l-286 -1464h-250l284 1464h252zM520 641l60 305h284l-59 -305h-285z" />
    <glyph glyph-name="Lslash" unicode="&#x141;" horiz-adv-x="1019" 
d="M53 0l99 520q11 44 34 78l-4 4q-27 -29 -71 -45l-101 -39l33 180l158 62l131 674h262l-96 -498q-10 -52 -43 -92l4 -4q38 33 86 53l329 127l-34 -180l-391 -152l-76 -395q-10 -39 -21 -55l4 -5q18 9 56 9h546l-47 -242h-858z" />
    <glyph glyph-name="lslash" unicode="&#x142;" horiz-adv-x="604" 
d="M84 0l104 535q8 44 15.5 65.5t29.5 54.5l-4 2q-19 -22 -38 -34.5t-60 -32.5l-94 -47l33 180l172 82l129 659h250l-89 -450q-8 -40 -16 -59t-33 -46l4 -2q43 36 105 66l96 45l-33 -180l-172 -82l-147 -756h-252z" />
    <glyph glyph-name="Nacute" unicode="&#x143;" horiz-adv-x="1495" 
d="M1360 1747v-6l-344 -219h-172v6l243 219h273zM377 1454l653 -819q59 -76 78 -146l8 3q-9 74 27 253l133 689h262l-283 -1454h-43l-653 819q-55 70 -78 145l-6 -2q7 -79 -26 -254l-136 -688h-260l283 1454h41z" />
    <glyph glyph-name="nacute" unicode="&#x144;" horiz-adv-x="1142" 
d="M1153 1448v-6l-381 -309h-172l-2 6l270 309h285zM29 0l184 946h250l-4 -28q-14 -89 -60 -179l9 -2q69 126 155.5 183t206.5 57q145 0 221 -78t76 -227q0 -64 -18 -154l-105 -518h-252l99 494q10 44 10 92q0 82 -44.5 125t-127.5 43q-104 0 -167.5 -73t-94.5 -230
l-88 -451h-250z" />
    <glyph glyph-name="Ncommaaccent" unicode="&#x145;" horiz-adv-x="1495" 
d="M377 1454l653 -819q59 -76 78 -146l8 3q-9 74 27 253l133 689h262l-283 -1454h-43l-653 819q-55 70 -78 145l-6 -2q7 -79 -26 -254l-136 -688h-260l283 1454h41zM844 -104l-248 -336h-127l129 336h246z" />
    <glyph glyph-name="ncommaaccent" unicode="&#x146;" horiz-adv-x="1142" 
d="M29 0l184 946h250l-4 -28q-14 -89 -60 -179l9 -2q69 126 155.5 183t206.5 57q145 0 221 -78t76 -227q0 -64 -18 -154l-105 -518h-252l99 494q10 44 10 92q0 82 -44.5 125t-127.5 43q-104 0 -167.5 -73t-94.5 -230l-88 -451h-250zM596 -104l-248 -336h-127l129 336h246z
" />
    <glyph glyph-name="Ncaron" unicode="&#x147;" horiz-adv-x="1495" 
d="M1341 1767l-2 -8l-282 -237h-252l-189 237l2 8h216l47 -53q33 -36 45 -60.5t10 -54.5h8q11 30 31.5 54t68.5 61l68 53h229zM377 1454l653 -819q59 -76 78 -146l8 3q-9 74 27 253l133 689h262l-283 -1454h-43l-653 819q-55 70 -78 145l-6 -2q7 -79 -26 -254l-136 -688
h-260l283 1454h41z" />
    <glyph glyph-name="ncaron" unicode="&#x148;" horiz-adv-x="1142" 
d="M596 1128l-176 308v8h198l58 -96q31 -52 40.5 -78.5t8.5 -59.5h8q12 33 32.5 60.5t70.5 77.5l94 96h211v-8l-299 -308h-246zM29 0l184 946h250l-4 -28q-14 -89 -60 -179l9 -2q69 126 155.5 183t206.5 57q145 0 221 -78t76 -227q0 -64 -18 -154l-105 -518h-252l99 494
q10 44 10 92q0 82 -44.5 125t-127.5 43q-104 0 -167.5 -73t-94.5 -230l-88 -451h-250z" />
    <glyph glyph-name="napostrophe" unicode="&#x149;" horiz-adv-x="1142" 
d="M180 1495h244l-293 -516h-125zM29 0l184 946h250l-4 -28q-14 -89 -60 -179l9 -2q69 126 155.5 183t206.5 57q145 0 221 -78t76 -227q0 -64 -18 -154l-105 -518h-252l99 494q10 44 10 92q0 82 -44.5 125t-127.5 43q-104 0 -167.5 -73t-94.5 -230l-88 -451h-250z" />
    <glyph glyph-name="Eng" unicode="&#x14a;" horiz-adv-x="1495" 
d="M1538 1434l-283 -1454h-10q-38 -207 -147 -298.5t-283 -91.5h-129l49 250h88q138 0 170 164l39 201l-473 594q-55 70 -78 145l-6 -2q7 -79 -26 -254l-136 -688h-260l283 1454h41l653 -819q59 -76 78 -146l8 3q-9 74 27 253l133 689h262z" />
    <glyph glyph-name="eng" unicode="&#x14b;" horiz-adv-x="1142" 
d="M770 977q145 0 221 -78t76 -227q0 -64 -18 -154l-105 -518l-22 -115q-59 -299 -369 -299h-123l43 228h80q56 0 84.5 23.5t40.5 84.5l14 78l99 494q10 44 10 92q0 82 -44.5 125t-127.5 43q-104 0 -167.5 -73t-94.5 -230l-88 -451h-250l184 946h250l-4 -28
q-14 -89 -60 -179l9 -2q69 126 155.5 183t206.5 57z" />
    <glyph glyph-name="Omacron" unicode="&#x14c;" horiz-adv-x="1675" 
d="M702 1706h631l-33 -162h-628zM823 -31q-319 0 -513.5 187t-194.5 493q0 173 63 324.5t173 259t264.5 169.5t330.5 62q321 0 516 -187t195 -493q0 -173 -63.5 -324.5t-173.5 -259t-265 -169.5t-332 -62zM838 225q237 0 387.5 157.5t150.5 403.5q0 190 -121 306t-321 116
q-238 0 -389.5 -157.5t-151.5 -403.5q0 -191 122 -306.5t323 -115.5z" />
    <glyph glyph-name="omacron" unicode="&#x14d;" horiz-adv-x="1161" 
d="M1038 1380l-34 -170h-613l33 170h614zM537 -31q-221 0 -350.5 122t-129.5 329q0 243 160 400t408 157q221 0 350 -122t129 -329q0 -243 -160 -400t-407 -157zM555 207q127 0 210 86t83 217q0 106 -64.5 167.5t-177.5 61.5q-128 0 -210.5 -85.5t-82.5 -217.5
q0 -106 64.5 -167.5t177.5 -61.5z" />
    <glyph glyph-name="Obreve" unicode="&#x14e;" horiz-adv-x="1675" 
d="M993 1511q-131 0 -201.5 60.5t-70.5 167.5v18h176v-10q0 -39 29.5 -60.5t85.5 -21.5q109 0 149 92h176q-34 -117 -122 -181.5t-222 -64.5zM823 -31q-319 0 -513.5 187t-194.5 493q0 173 63 324.5t173 259t264.5 169.5t330.5 62q321 0 516 -187t195 -493
q0 -173 -63.5 -324.5t-173.5 -259t-265 -169.5t-332 -62zM838 225q237 0 387.5 157.5t150.5 403.5q0 190 -121 306t-321 116q-238 0 -389.5 -157.5t-151.5 -403.5q0 -191 122 -306.5t323 -115.5z" />
    <glyph glyph-name="obreve" unicode="&#x14f;" horiz-adv-x="1161" 
d="M707 1139q-129 0 -205 64t-76 177q0 38 8 74h160q-2 -14 -2 -41q0 -117 119 -117q138 0 174 158h166q-26 -152 -117 -233.5t-227 -81.5zM537 -31q-221 0 -350.5 122t-129.5 329q0 243 160 400t408 157q221 0 350 -122t129 -329q0 -243 -160 -400t-407 -157zM555 207
q127 0 210 86t83 217q0 106 -64.5 167.5t-177.5 61.5q-128 0 -210.5 -85.5t-82.5 -217.5q0 -106 64.5 -167.5t177.5 -61.5z" />
    <glyph glyph-name="Ohungarumlaut" unicode="&#x150;" horiz-adv-x="1675" 
d="M1194 1747l2 -6l-274 -219h-170v4l256 221h186zM1024 1526l258 221h184l2 -6l-274 -219h-168zM823 -31q-319 0 -513.5 187t-194.5 493q0 173 63 324.5t173 259t264.5 169.5t330.5 62q321 0 516 -187t195 -493q0 -173 -63.5 -324.5t-173.5 -259t-265 -169.5t-332 -62z
M838 225q237 0 387.5 157.5t150.5 403.5q0 190 -121 306t-321 116q-238 0 -389.5 -157.5t-151.5 -403.5q0 -191 122 -306.5t323 -115.5z" />
    <glyph glyph-name="ohungarumlaut" unicode="&#x151;" horiz-adv-x="1161" 
d="M463 1133l-2 4l307 311h199v-4l-324 -311h-180zM756 1133l-2 4l307 311h199v-4l-324 -311h-180zM537 -31q-221 0 -350.5 122t-129.5 329q0 243 160 400t408 157q221 0 350 -122t129 -329q0 -243 -160 -400t-407 -157zM555 207q127 0 210 86t83 217q0 106 -64.5 167.5
t-177.5 61.5q-128 0 -210.5 -85.5t-82.5 -217.5q0 -106 64.5 -167.5t177.5 -61.5z" />
    <glyph glyph-name="OE" unicode="&#x152;" horiz-adv-x="2250" 
d="M807 -31q-202 0 -359 82.5t-245 237.5t-88 360q0 133 38 256t111 224t173.5 176.5t233 117t281.5 41.5q95 0 175 -18t131.5 -42.5t94.5 -61.5t64.5 -64t42.5 -61l4 2q0 27 13 94l22 121h846l-45 -240h-537q-34 0 -51 10l-6 -4q5 -11 -2 -59l-39 -201q-5 -36 -18 -57l4 -4
q16 8 55 8h457l-47 -238h-455q-37 0 -53 8l-4 -4q2 -10 -5 -57l-57 -303q-12 -50 -20 -60l4 -4q26 11 55 11h543l-47 -240h-858l14 72q6 38 29 92l-5 2q-63 -91 -176.5 -144t-273.5 -53zM827 229q165 0 293.5 74.5t197 199.5t68.5 277q0 205 -125.5 315.5t-330.5 110.5
q-127 0 -231.5 -48t-170 -127.5t-100.5 -178t-35 -203.5q0 -200 119.5 -310t314.5 -110z" />
    <glyph glyph-name="oe" unicode="&#x153;" horiz-adv-x="1896" 
d="M535 -31q-213 0 -345.5 119t-132.5 332q0 156 71 283t199.5 200.5t288.5 73.5q136 0 237.5 -52t145.5 -147h5q132 199 411 199q198 0 315 -103t117 -284q0 -63 -24 -174h-611q-85 0 -114 20l-6 -6l4 -16v-23q2 -93 66.5 -148t185.5 -55q155 0 303 113l110 -184
q-100 -76 -198.5 -112t-216.5 -36q-281 0 -390 205h-4q-147 -205 -417 -205zM1118 565q24 19 94 19h291q77 0 92 -17l7 4q-3 9 -3 19q0 190 -206 190q-211 0 -277 -211zM555 207q132 0 212.5 88t80.5 217q0 109 -66.5 168t-175.5 59q-132 0 -212.5 -88t-80.5 -217
q0 -109 66.5 -168t175.5 -59z" />
    <glyph glyph-name="Racute" unicode="&#x154;" horiz-adv-x="1259" 
d="M1176 1747v-6l-345 -219h-172v6l244 219h273zM774 1434q216 0 335.5 -100.5t119.5 -276.5q0 -184 -123 -300t-318 -116q-16 0 -59 6l-4 -4q46 -24 76.5 -54.5t64.5 -90.5l295 -498h-311l-348 618q-12 0 -33 3q-24 3 -39 10l-6 -4q7 -39 -4 -80l-105 -547h-262l279 1434
h442zM547 1208l-6 -4q4 -17 -4 -57l-48 -252q-11 -41 -20 -55l4 -4q19 8 55 8h197q104 0 163.5 51.5t59.5 140.5q0 78 -48.5 121t-137.5 43h-164q-35 0 -51 8z" />
    <glyph glyph-name="racute" unicode="&#x155;" horiz-adv-x="739" 
d="M942 1448v-6l-381 -309h-172l-2 6l270 309h285zM29 0l184 946h244q-33 -143 -82 -260l10 -4q63 154 152.5 223.5t224.5 69.5q35 0 51 -2l-51 -268q-41 4 -86 4q-126 0 -208.5 -79t-111.5 -229l-77 -401h-250z" />
    <glyph glyph-name="Rcommaaccent" unicode="&#x156;" horiz-adv-x="1259" 
d="M774 1434q216 0 335.5 -100.5t119.5 -276.5q0 -184 -123 -300t-318 -116q-16 0 -59 6l-4 -4q46 -24 76.5 -54.5t64.5 -90.5l295 -498h-311l-348 618q-12 0 -33 3q-24 3 -39 10l-6 -4q7 -39 -4 -80l-105 -547h-262l279 1434h442zM547 1208l-6 -4q4 -17 -4 -57l-48 -252
q-11 -41 -20 -55l4 -4q19 8 55 8h197q104 0 163.5 51.5t59.5 140.5q0 78 -48.5 121t-137.5 43h-164q-35 0 -51 8zM696 -104l-247 -336h-127l129 336h245z" />
    <glyph glyph-name="rcommaaccent" unicode="&#x157;" horiz-adv-x="739" 
d="M29 0l184 946h244q-33 -143 -82 -260l10 -4q63 154 152.5 223.5t224.5 69.5q35 0 51 -2l-51 -268q-41 4 -86 4q-126 0 -208.5 -79t-111.5 -229l-77 -401h-250zM274 -104l-247 -336h-127l129 336h245z" />
    <glyph glyph-name="Rcaron" unicode="&#x158;" horiz-adv-x="1259" 
d="M1157 1767l-2 -8l-283 -237h-251l-189 237l2 8h215l47 -53q34 -37 46 -61.5t10 -53.5h8q11 30 31.5 54t68.5 61l68 53h229zM774 1434q216 0 335.5 -100.5t119.5 -276.5q0 -184 -123 -300t-318 -116q-16 0 -59 6l-4 -4q46 -24 76.5 -54.5t64.5 -90.5l295 -498h-311
l-348 618q-12 0 -33 3q-24 3 -39 10l-6 -4q7 -39 -4 -80l-105 -547h-262l279 1434h442zM547 1208l-6 -4q4 -17 -4 -57l-48 -252q-11 -41 -20 -55l4 -4q19 8 55 8h197q104 0 163.5 51.5t59.5 140.5q0 78 -48.5 121t-137.5 43h-164q-35 0 -51 8z" />
    <glyph glyph-name="rcaron" unicode="&#x159;" horiz-adv-x="739" 
d="M383 1128l-176 308v8h199l57 -96q31 -52 40.5 -78.5t8.5 -59.5h8q12 33 32.5 60.5t70.5 77.5l94 96h211v-8l-299 -308h-246zM29 0l184 946h244q-33 -143 -82 -260l10 -4q63 154 152.5 223.5t224.5 69.5q35 0 51 -2l-51 -268q-41 4 -86 4q-126 0 -208.5 -79t-111.5 -229
l-77 -401h-250z" />
    <glyph glyph-name="Sacute" unicode="&#x15a;" horiz-adv-x="1060" 
d="M1130 1747v-6l-344 -219h-172v6l244 219h272zM506 -31q-297 0 -537 205l156 217q97 -80 197 -124t186 -44q89 0 138.5 40.5t49.5 111.5q0 43 -25.5 84.5t-84.5 95.5l-207 188q-170 158 -170 344q0 172 116.5 274.5t311.5 102.5q214 0 448 -141l-145 -225
q-170 112 -305 112q-69 0 -108.5 -32t-39.5 -88q0 -37 24.5 -74.5t82.5 -89.5l203 -185q95 -86 137.5 -171t42.5 -189q0 -193 -124.5 -302.5t-346.5 -109.5z" />
    <glyph glyph-name="sacute" unicode="&#x15b;" horiz-adv-x="841" 
d="M995 1448v-6l-381 -309h-172l-2 6l271 309h284zM88 309q168 -125 307 -125q47 0 73 18.5t26 51.5q0 23 -14.5 41.5t-53.5 44.5l-131 84q-166 108 -166 266q0 133 89 210t243 77q185 0 373 -107l-105 -188q-139 82 -254 82q-92 0 -92 -66q0 -25 15.5 -42.5t66.5 -51.5
l119 -74q90 -56 129 -117t39 -147q0 -143 -94 -220t-267 -77q-239 0 -430 156z" />
    <glyph glyph-name="Scircumflex" unicode="&#x15c;" horiz-adv-x="1060" 
d="M340 1522l2 8l281 237h251l191 -237l-2 -8h-217l-43 53q-35 39 -47.5 63t-12.5 52h-6q-11 -30 -32.5 -54.5t-69.5 -60.5l-66 -53h-229zM506 -31q-297 0 -537 205l156 217q97 -80 197 -124t186 -44q89 0 138.5 40.5t49.5 111.5q0 43 -25.5 84.5t-84.5 95.5l-207 188
q-170 158 -170 344q0 172 116.5 274.5t311.5 102.5q214 0 448 -141l-145 -225q-170 112 -305 112q-69 0 -108.5 -32t-39.5 -88q0 -37 24.5 -74.5t82.5 -89.5l203 -185q95 -86 137.5 -171t42.5 -189q0 -193 -124.5 -302.5t-346.5 -109.5z" />
    <glyph glyph-name="scircumflex" unicode="&#x15d;" horiz-adv-x="841" 
d="M729 1448l176 -309v-6h-192l-58 96q-31 53 -40.5 78t-8.5 57h-6q-11 -31 -30 -55t-72 -80l-97 -96h-217v6l299 309h246zM88 309q168 -125 307 -125q47 0 73 18.5t26 51.5q0 23 -14.5 41.5t-53.5 44.5l-131 84q-166 108 -166 266q0 133 89 210t243 77q185 0 373 -107
l-105 -188q-139 82 -254 82q-92 0 -92 -66q0 -25 15.5 -42.5t66.5 -51.5l119 -74q90 -56 129 -117t39 -147q0 -143 -94 -220t-267 -77q-239 0 -430 156z" />
    <glyph glyph-name="Scedilla" unicode="&#x15e;" horiz-adv-x="1060" 
d="M797 741q95 -86 137.5 -171t42.5 -189q0 -186 -118.5 -295t-328.5 -115l-22 -41q76 -19 118 -49.5t42 -81.5q0 -96 -153 -176q-52 -27 -224 -94l-21 80q100 48 141.5 75.5t41.5 55.5q0 45 -111 70l92 163q-261 25 -465 201l156 217q97 -80 197 -124t186 -44
q89 0 138.5 40.5t49.5 111.5q0 43 -25.5 84.5t-84.5 95.5l-207 188q-170 158 -170 344q0 172 116.5 274.5t311.5 102.5q214 0 448 -141l-145 -225q-170 112 -305 112q-69 0 -108.5 -32t-39.5 -88q0 -37 24.5 -74.5t82.5 -89.5z" />
    <glyph glyph-name="scedilla" unicode="&#x15f;" horiz-adv-x="841" 
d="M584 530q90 -56 129 -117t39 -147q0 -142 -93.5 -219.5t-265.5 -77.5l-22 -39q76 -19 117.5 -49.5t41.5 -81.5q0 -36 -21 -68.5t-50.5 -56.5t-79.5 -49.5t-90.5 -42.5t-100.5 -40q-23 -9 -34 -13l-21 80q99 47 140.5 75t41.5 56q0 46 -110 70l92 165q-186 24 -336 150
l127 184q168 -125 307 -125q47 0 73 18.5t26 51.5q0 23 -14.5 41.5t-53.5 44.5l-131 84q-166 108 -166 266q0 133 89 210t243 77q185 0 373 -107l-105 -188q-139 82 -254 82q-92 0 -92 -66q0 -25 15.5 -42.5t66.5 -51.5z" />
    <glyph glyph-name="Scaron" unicode="&#x160;" horiz-adv-x="1060" 
d="M1112 1767l-2 -8l-283 -237h-252l-188 237l2 8h215l47 -53q34 -37 46 -61.5t10 -53.5h8q11 30 31.5 54t68.5 61l68 53h229zM506 -31q-297 0 -537 205l156 217q97 -80 197 -124t186 -44q89 0 138.5 40.5t49.5 111.5q0 43 -25.5 84.5t-84.5 95.5l-207 188
q-170 158 -170 344q0 172 116.5 274.5t311.5 102.5q214 0 448 -141l-145 -225q-170 112 -305 112q-69 0 -108.5 -32t-39.5 -88q0 -37 24.5 -74.5t82.5 -89.5l203 -185q95 -86 137.5 -171t42.5 -189q0 -193 -124.5 -302.5t-346.5 -109.5z" />
    <glyph glyph-name="scaron" unicode="&#x161;" horiz-adv-x="841" 
d="M438 1128l-176 308v8h199l57 -96q31 -52 40.5 -78.5t8.5 -59.5h8q12 33 32.5 60.5t70.5 77.5l94 96h211v-8l-299 -308h-246zM88 309q168 -125 307 -125q47 0 73 18.5t26 51.5q0 23 -14.5 41.5t-53.5 44.5l-131 84q-166 108 -166 266q0 133 89 210t243 77q185 0 373 -107
l-105 -188q-139 82 -254 82q-92 0 -92 -66q0 -25 15.5 -42.5t66.5 -51.5l119 -74q90 -56 129 -117t39 -147q0 -143 -94 -220t-267 -77q-239 0 -430 156z" />
    <glyph glyph-name="uni0162" unicode="&#x162;" horiz-adv-x="1087" 
d="M203 1434h1054l-47 -246h-346q-38 0 -51 8l-6 -4q4 -18 -2 -55l-221 -1137h-78l-39 -70q76 -19 118 -49.5t42 -81.5q0 -96 -153 -176q-53 -27 -224 -94l-21 80q100 48 141.5 75.5t41.5 55.5q0 45 -111 70l107 190h-86l221 1137q6 38 16 55l-2 4q-19 -8 -55 -8h-346z" />
    <glyph glyph-name="uni0163" unicode="&#x163;" horiz-adv-x="669" 
d="M625 946h98l-41 -223h-100q-65 0 -84 14l-6 -4q5 -28 -11 -115l-121 -618h-69l-39 -70q76 -19 118 -49.5t42 -81.5q0 -96 -153 -176q-52 -27 -224 -94l-21 80q100 48 141.5 75.5t41.5 55.5q0 45 -111 70l107 190h-80l120 618q15 80 33 115l-4 4q-23 -14 -90 -14h-84
l43 223h82q68 0 86 -16l6 4q-5 40 8 96l49 260l259 162h20l-82 -422q-16 -68 -29 -96l5 -4q26 16 90 16z" />
    <glyph glyph-name="Tcaron" unicode="&#x164;" horiz-adv-x="1087" 
d="M1157 1767l-2 -8l-283 -237h-251l-189 237l2 8h215l47 -53q34 -37 46 -61.5t10 -53.5h8q11 30 31.5 54t68.5 61l68 53h229zM1257 1434l-47 -246h-346q-38 0 -51 8l-6 -4q4 -18 -2 -55l-221 -1137h-262l221 1137q6 38 16 55l-2 4q-19 -8 -55 -8h-346l47 246h1054z" />
    <glyph glyph-name="tcaron" unicode="&#x165;" horiz-adv-x="894" 
d="M850 1495h244l-277 -428h-125zM641 1452l-82 -422q-16 -68 -29 -96l5 -4q26 16 90 16h98l-41 -223h-100q-65 0 -84 14l-6 -4q5 -28 -11 -115l-121 -618h-247l120 618q15 80 33 115l-4 4q-23 -14 -90 -14h-84l43 223h82q68 0 86 -16l6 4q-5 40 8 96l49 260l259 162h20z
" />
    <glyph glyph-name="Tbar" unicode="&#x166;" horiz-adv-x="1087" 
d="M862 1188q-38 0 -51 8l-6 -4q7 -18 -2 -55l-27 -144h-2q-6 -40 -12 -49l2 -4q15 6 41 6h223l-41 -211h-223q-27 0 -39 6l-4 -4q4 -19 -6 -49l-133 -688h-260l135 688q6 34 12 49l-2 4q-15 -6 -41 -6h-223l41 211h223q28 0 37 -6l6 4q-5 26 6 49l27 144q10 42 18 55l-2 4
q-19 -8 -57 -8h-346l47 246h1054l-47 -246h-348z" />
    <glyph glyph-name="tbar" unicode="&#x167;" horiz-adv-x="675" 
d="M358 1264l285 194h4l-82 -426q-14 -61 -33 -98l5 -4q31 16 94 16h98l-45 -223h-98q-63 0 -86 16l-6 -4q7 -36 0 -63l-5 -23q-6 -44 -18 -61l4 -4q19 8 64 8h108l-29 -150h-108q-50 0 -61 9l-5 -5q3 -19 -6 -67l-73 -379h-252l73 379q9 50 21 67l-4 5q-16 -9 -62 -9h-100
l29 150h100q40 0 59 -8l4 4q-3 10 7 63l4 19q8 35 24 65l-2 4q-31 -16 -96 -16h-82l45 223h82q62 0 88 -16l4 4q-6 36 8 98z" />
    <glyph glyph-name="Utilde" unicode="&#x168;" horiz-adv-x="1435" 
d="M1098 1507q-65 0 -171 45t-151 45q-68 0 -127 -79l-84 26q44 105 106 168.5t154 63.5q53 0 113 -22.5t115 -45t94 -22.5q37 0 66.5 18.5t62.5 60.5l84 -26q-21 -50 -44 -88t-54.5 -72.5t-73 -53t-90.5 -18.5zM657 -29q-249 0 -383.5 121.5t-134.5 347.5q0 75 19 172
l159 822h273l-162 -834q-10 -49 -10 -104q0 -125 69.5 -192.5t196.5 -67.5q146 0 243 90t128 256l166 852h274l-170 -869q-57 -294 -225.5 -444t-442.5 -150z" />
    <glyph glyph-name="utilde" unicode="&#x169;" horiz-adv-x="1116" 
d="M864 1151q-57 0 -117.5 27.5t-113.5 54.5t-90 27q-67 0 -127 -95l-94 31q47 114 110.5 181t155.5 67q57 0 117.5 -27t113.5 -53.5t90 -26.5q63 0 127 93l92 -31q-48 -115 -110 -181.5t-154 -66.5zM1094 946l-185 -946h-245q19 103 67 207l-8 2q-74 -126 -158 -183
t-198 -57q-138 0 -213.5 79t-75.5 220q0 70 16 154l103 524h256l-97 -487q-12 -56 -12 -97q0 -77 41 -118t117 -41q97 0 161.5 71.5t90.5 210.5l88 461h252z" />
    <glyph glyph-name="Umacron" unicode="&#x16a;" horiz-adv-x="1435" 
d="M635 1706h631l-33 -162h-629zM657 -29q-249 0 -383.5 121.5t-134.5 347.5q0 75 19 172l159 822h273l-162 -834q-10 -49 -10 -104q0 -125 69.5 -192.5t196.5 -67.5q146 0 243 90t128 256l166 852h274l-170 -869q-57 -294 -225.5 -444t-442.5 -150z" />
    <glyph glyph-name="umacron" unicode="&#x16b;" horiz-adv-x="1116" 
d="M1034 1380l-35 -170h-612l33 170h614zM1094 946l-185 -946h-245q19 103 67 207l-8 2q-74 -126 -158 -183t-198 -57q-138 0 -213.5 79t-75.5 220q0 70 16 154l103 524h256l-97 -487q-12 -56 -12 -97q0 -77 41 -118t117 -41q97 0 161.5 71.5t90.5 210.5l88 461h252z" />
    <glyph glyph-name="Ubreve" unicode="&#x16c;" horiz-adv-x="1435" 
d="M926 1511q-131 0 -202 60.5t-71 167.5v18h176v-10q0 -39 29.5 -60.5t85.5 -21.5q110 0 150 92h176q-34 -117 -122 -181.5t-222 -64.5zM657 -29q-249 0 -383.5 121.5t-134.5 347.5q0 75 19 172l159 822h273l-162 -834q-10 -49 -10 -104q0 -125 69.5 -192.5t196.5 -67.5
q146 0 243 90t128 256l166 852h274l-170 -869q-57 -294 -225.5 -444t-442.5 -150z" />
    <glyph glyph-name="ubreve" unicode="&#x16d;" horiz-adv-x="1116" 
d="M702 1139q-129 0 -204.5 64t-75.5 177q0 38 8 74h160q-2 -14 -2 -41q0 -117 119 -117q138 0 174 158h166q-26 -152 -117.5 -233.5t-227.5 -81.5zM1094 946l-185 -946h-245q19 103 67 207l-8 2q-74 -126 -158 -183t-198 -57q-138 0 -213.5 79t-75.5 220q0 70 16 154
l103 524h256l-97 -487q-12 -56 -12 -97q0 -77 41 -118t117 -41q97 0 161.5 71.5t90.5 210.5l88 461h252z" />
    <glyph glyph-name="Uring" unicode="&#x16e;" horiz-adv-x="1435" 
d="M891 1352q-101 0 -160 58.5t-59 152.5q0 112 76.5 190t199.5 78q100 0 158.5 -57.5t58.5 -151.5q0 -112 -76.5 -191t-197.5 -79zM901 1462q71 0 110.5 47t39.5 105q0 49 -30 78.5t-85 29.5q-71 0 -109.5 -46.5t-38.5 -104.5q0 -49 29 -79t84 -30zM657 -29
q-249 0 -383.5 121.5t-134.5 347.5q0 75 19 172l159 822h273l-162 -834q-10 -49 -10 -104q0 -125 69.5 -192.5t196.5 -67.5q146 0 243 90t128 256l166 852h274l-170 -869q-57 -294 -225.5 -444t-442.5 -150z" />
    <glyph glyph-name="uring" unicode="&#x16f;" horiz-adv-x="1116" 
d="M721 1530q101 0 165 -61t64 -156q0 -106 -73 -184t-193 -78q-101 0 -163 60.5t-62 156.5q0 107 72 184.5t190 77.5zM715 1421q-69 0 -105.5 -45t-36.5 -102q0 -51 31 -83t88 -32q69 0 105.5 45.5t36.5 102.5q0 51 -31 82.5t-88 31.5zM1094 946l-185 -946h-245
q19 103 67 207l-8 2q-74 -126 -158 -183t-198 -57q-138 0 -213.5 79t-75.5 220q0 70 16 154l103 524h256l-97 -487q-12 -56 -12 -97q0 -77 41 -118t117 -41q97 0 161.5 71.5t90.5 210.5l88 461h252z" />
    <glyph glyph-name="Uhungarumlaut" unicode="&#x170;" horiz-adv-x="1435" 
d="M1126 1747l2 -6l-274 -219h-170v4l256 221h186zM956 1526l258 221h185l2 -6l-275 -219h-168zM657 -29q-249 0 -383.5 121.5t-134.5 347.5q0 75 19 172l159 822h273l-162 -834q-10 -49 -10 -104q0 -125 69.5 -192.5t196.5 -67.5q146 0 243 90t128 256l166 852h274
l-170 -869q-57 -294 -225.5 -444t-442.5 -150z" />
    <glyph glyph-name="uhungarumlaut" unicode="&#x171;" horiz-adv-x="1116" 
d="M461 1133l-2 4l307 311h199v-4l-324 -311h-180zM754 1133l-2 4l307 311h198v-4l-323 -311h-180zM1094 946l-185 -946h-245q19 103 67 207l-8 2q-74 -126 -158 -183t-198 -57q-138 0 -213.5 79t-75.5 220q0 70 16 154l103 524h256l-97 -487q-12 -56 -12 -97q0 -77 41 -118
t117 -41q97 0 161.5 71.5t90.5 210.5l88 461h252z" />
    <glyph glyph-name="Uogonek" unicode="&#x172;" horiz-adv-x="1435" 
d="M1221 1434h274l-170 -869q-57 -291 -223 -441t-434 -153q-79 -62 -115.5 -103.5t-36.5 -72.5q0 -43 57 -43q34 0 82 10l2 -147q-106 -25 -151 -25q-80 0 -127 36t-47 104q0 66 46.5 125t143.5 127q-186 31 -284.5 148t-98.5 310q0 75 19 172l159 822h273l-162 -834
q-10 -49 -10 -104q0 -125 69.5 -192.5t196.5 -67.5q146 0 243 90t128 256z" />
    <glyph glyph-name="uogonek" unicode="&#x173;" horiz-adv-x="1116" 
d="M797 0q-101 -74 -147 -122.5t-46 -84.5q0 -43 58 -43q33 0 81 10l2 -147q-106 -25 -151 -25q-80 0 -127 36t-47 104q0 75 59 140t187 150q24 104 65 189l-8 2q-74 -126 -158 -183t-198 -57q-138 0 -213.5 79t-75.5 220q0 70 16 154l103 524h256l-97 -487q-12 -56 -12 -97
q0 -77 41 -118t117 -41q97 0 161.5 71.5t90.5 210.5l88 461h252l-185 -946h-112z" />
    <glyph glyph-name="Wcircumflex" unicode="&#x174;" horiz-adv-x="1994" 
d="M823 1522l2 8l281 237h252l190 -237l-2 -8h-217l-43 53q-34 39 -46.5 62.5t-12.5 52.5h-6q-11 -30 -32.5 -54.5t-70.5 -60.5l-65 -53h-230zM496 -18l-293 1452h276l117 -693q15 -95 12 -227h8q26 68 46.5 112t62.5 113l430 715h35l153 -715q24 -116 21 -225h8
q41 120 101 227l385 693h307l-856 -1452h-43l-168 761q-18 88 -11 168h-8q-27 -90 -73 -168l-467 -761h-43z" />
    <glyph glyph-name="wcircumflex" unicode="&#x175;" horiz-adv-x="1521" 
d="M1032 1448l176 -309v-6h-192l-58 96q-31 53 -40.5 78t-8.5 57h-6q-11 -31 -30 -55t-72 -80l-96 -96h-218v6l299 309h246zM340 -14l-231 960h262l65 -360q21 -103 21 -160h8q27 53 98 162l246 375h63l101 -375q26 -97 35 -162h8q29 70 82 160l207 360h292l-606 -960h-67
l-113 407q-19 64 -25.5 96.5t-3.5 69.5h-10q-4 -13 -9.5 -26.5t-10 -22.5t-15 -26.5t-15 -24.5t-20.5 -32t-22 -34l-272 -407h-68z" />
    <glyph glyph-name="Ycircumflex" unicode="&#x176;" horiz-adv-x="1247" 
d="M444 1522l2 8l281 237h252l190 -237l-2 -8h-217l-43 53q-34 39 -46.5 62.5t-12.5 52.5h-6q-11 -30 -32.5 -54.5t-70.5 -60.5l-65 -53h-230zM1427 1434l-661 -891l-104 -543h-263l105 543l-311 891h286l133 -457q26 -92 34 -131t9 -92h9q22 53 44.5 92t84.5 131l307 457
h327z" />
    <glyph glyph-name="ycircumflex" unicode="&#x177;" horiz-adv-x="1044" 
d="M813 1448l176 -309v-6h-192l-58 96q-31 53 -40.5 78t-8.5 57h-6q-11 -31 -30 -55t-72 -80l-97 -96h-217v6l299 309h246zM1130 946l-851 -1358h-275l315 510l-221 848h267l92 -411q28 -126 16 -248l8 2q19 79 70 164l295 493h284z" />
    <glyph glyph-name="Ydieresis" unicode="&#x178;" horiz-adv-x="1247" 
d="M555 1761h209l-47 -239h-209zM936 1761h209l-47 -239h-209zM1427 1434l-661 -891l-104 -543h-263l105 543l-311 891h286l133 -457q26 -92 34 -131t9 -92h9q22 53 44.5 92t84.5 131l307 457h327z" />
    <glyph glyph-name="Zacute" unicode="&#x179;" horiz-adv-x="1280" 
d="M1331 1747v-6l-344 -219h-172v6l244 219h272zM1419 1434l2 -11l-1011 -1208v-4q39 21 85 29t134 8h590l-181 -248h-1114l-2 10l1014 1209l-2 6q-71 -39 -217 -39h-477l174 248h1005z" />
    <glyph glyph-name="zacute" unicode="&#x17a;" horiz-adv-x="983" 
d="M1139 1448v-6l-381 -309h-172l-2 6l270 309h285zM-86 0l-2 10l696 748l-4 6q-45 -24 -82 -31.5t-110 -7.5h-295l174 221h774l2 -8l-698 -748l4 -6q39 23 82.5 30t132.5 7h340l-178 -221h-836z" />
    <glyph glyph-name="Zdotaccent" unicode="&#x17b;" horiz-adv-x="1280" 
d="M1075 1772l-47 -252h-246l47 252h246zM1419 1434l2 -11l-1011 -1208v-4q39 21 85 29t134 8h590l-181 -248h-1114l-2 10l1014 1209l-2 6q-71 -39 -217 -39h-477l174 248h1005z" />
    <glyph glyph-name="zdotaccent" unicode="&#x17c;" horiz-adv-x="983" 
d="M901 1434l-59 -306h-275l60 306h274zM-86 0l-2 10l696 748l-4 6q-45 -24 -82 -31.5t-110 -7.5h-295l174 221h774l2 -8l-698 -748l4 -6q39 23 82.5 30t132.5 7h340l-178 -221h-836z" />
    <glyph glyph-name="Zcaron" unicode="&#x17d;" horiz-adv-x="1280" 
d="M1313 1767l-2 -8l-283 -237h-252l-188 237l2 8h215l47 -53q33 -36 45 -60.5t10 -54.5h8q11 30 31.5 53.5t69.5 61.5l67 53h230zM1419 1434l2 -11l-1011 -1208v-4q39 21 85 29t134 8h590l-181 -248h-1114l-2 10l1014 1209l-2 6q-71 -39 -217 -39h-477l174 248h1005z" />
    <glyph glyph-name="zcaron" unicode="&#x17e;" horiz-adv-x="983" 
d="M582 1128l-176 308v8h198l58 -96q31 -52 40.5 -78.5t8.5 -59.5h8q12 34 32 61t70 77l94 96h211v-8l-299 -308h-245zM-86 0l-2 10l696 748l-4 6q-45 -24 -82 -31.5t-110 -7.5h-295l174 221h774l2 -8l-698 -748l4 -6q39 23 82.5 30t132.5 7h340l-178 -221h-836z" />
    <glyph glyph-name="florin" unicode="&#x192;" horiz-adv-x="825" 
d="M838 1401q50 0 114 -6l-45 -224q-73 5 -78 5q-78 0 -129.5 -37t-72.5 -125l-2 -17q-2 -5 -6.5 -23.5t-8.5 -31.5l2 -2q18 6 64 6h184l-12 -61h-184q-26 0 -62 6l-2 -2q-2 -20 -8 -55t-8 -48l-166 -849q-32 -168 -135 -258.5t-256 -90.5q-54 0 -142 9l43 221q39 -4 97 -4
q127 0 157 163l158 809q13 65 25 103l-3 2q-30 -6 -65 -6h-156l13 61h155q49 0 64 -6l2 2q-2 14 4 49l8 37q24 105 68 179t104.5 115.5t128.5 60t150 18.5z" />
    <glyph glyph-name="AEacute" unicode="&#x1fc;" horiz-adv-x="1853" 
d="M1968 1741l-344 -219h-172v6l244 219h272v-6zM1493 1194q-38 0 -51 8l-6 -4q7 -17 -2 -57l-39 -201q-9 -43 -21 -57l4 -4q19 8 56 8h428l-47 -238h-429q-35 0 -51 8l-4 -4q2 -11 -4 -57l-59 -303q-5 -34 -19 -57l2 -5q21 9 58 9h487l-47 -240h-782l55 287q10 44 20 57
l-2 4q-19 -8 -57 -8h-465l-282 -340h-316l1223 1434h874l-45 -240h-479zM1083 600l91 453q11 68 43 159h-5q-48 -88 -104 -157l-356 -428q-48 -60 -99 -88l2 -4q43 12 115 12h254q38 0 51 -8l6 4q-5 12 2 57z" />
    <glyph glyph-name="aeacute" unicode="&#x1fd;" horiz-adv-x="1757" 
d="M1432 1448v-6l-381 -309h-172l-2 6l270 309h285zM1210 -31q-297 0 -395 224h-2q-69 -109 -176.5 -165.5t-245.5 -56.5q-177 0 -274 86t-97 236q0 148 97.5 243t271.5 95q253 0 340 -205l6 2q-9 48 2 119q1 12 6 44t5 46q0 125 -183 125q-126 0 -295 -35l-37 209
q192 39 369 39q132 0 207.5 -43.5t95.5 -143.5h6q55 88 153.5 138.5t225.5 50.5q191 0 303.5 -104.5t112.5 -282.5q0 -74 -25 -174h-596q-84 0 -114 20l-6 -6l4 -16v-23q2 -89 62.5 -146t182.5 -57q85 0 153.5 29.5t143.5 83.5l109 -184q-94 -71 -190.5 -109.5t-219.5 -38.5
zM993 565q27 19 94 19h277q75 0 90 -17l6 4v19q0 94 -51 142t-149 48q-205 0 -271 -211zM459 164q85 0 138.5 44t53.5 105q0 62 -53 102t-135 40q-86 0 -129 -44t-43 -106q0 -68 47.5 -104.5t120.5 -36.5z" />
    <glyph glyph-name="Oslashacute" unicode="&#x1fe;" horiz-adv-x="1644" 
d="M1442 1741l-344 -219h-172v6l243 219h273v-6zM1464 1274q193 -187 193 -490q0 -173 -63.5 -324.5t-173.5 -259t-265 -169.5t-332 -62q-269 0 -450 133l-129 -135l-66 60l125 135q-188 185 -188 487q0 173 63 324.5t173 259t264.5 169.5t330.5 62q270 0 451 -133l125 133
l65 -59zM393 647q0 -167 101 -282l714 765q-115 78 -274 78q-238 0 -389.5 -157.5t-151.5 -403.5zM838 225q237 0 387.5 157.5t150.5 403.5q0 171 -100 285l-717 -766q116 -80 279 -80z" />
    <glyph glyph-name="oslashacute" unicode="&#x1ff;" horiz-adv-x="1161" 
d="M848 1448h285v-6l-381 -309h-172l-2 6zM1067 977l49 -49l-110 -105q98 -118 98 -297q0 -243 -160 -400t-407 -157q-206 0 -334 109l-115 -107l-51 47l117 109q-97 118 -97 293q0 243 160 400t408 157q205 0 329 -105zM313 436q0 -70 33 -131l418 389q-61 45 -158 45
q-128 0 -210.5 -85.5t-82.5 -217.5zM848 510q0 80 -35 133l-420 -389q62 -47 162 -47q127 0 210 86t83 217z" />
    <glyph glyph-name="Scommaaccent" unicode="&#x218;" horiz-adv-x="1060" 
d="M506 -31q-297 0 -537 205l156 217q97 -80 197 -124t186 -44q89 0 138.5 40.5t49.5 111.5q0 43 -25.5 84.5t-84.5 95.5l-207 188q-170 158 -170 344q0 172 116.5 274.5t311.5 102.5q214 0 448 -141l-145 -225q-170 112 -305 112q-69 0 -108.5 -32t-39.5 -88
q0 -37 24.5 -74.5t82.5 -89.5l203 -185q95 -86 137.5 -171t42.5 -189q0 -193 -124.5 -302.5t-346.5 -109.5zM604 -104l-248 -336h-127l129 336h246z" />
    <glyph glyph-name="scommaaccent" unicode="&#x219;" horiz-adv-x="841" 
d="M88 309q168 -125 307 -125q47 0 73 18.5t26 51.5q0 23 -14.5 41.5t-53.5 44.5l-131 84q-166 108 -166 266q0 133 89 210t243 77q185 0 373 -107l-105 -188q-139 82 -254 82q-92 0 -92 -66q0 -25 15.5 -42.5t66.5 -51.5l119 -74q90 -56 129 -117t39 -147q0 -143 -94 -220
t-267 -77q-239 0 -430 156zM465 -104l-248 -336h-127l129 336h246z" />
    <glyph glyph-name="uni021A" unicode="&#x21a;" horiz-adv-x="1087" 
d="M1257 1434l-47 -246h-346q-38 0 -51 8l-6 -4q4 -18 -2 -55l-221 -1137h-262l221 1137q6 38 16 55l-2 4q-19 -8 -55 -8h-346l47 246h1054zM563 -104l-248 -336h-127l129 336h246z" />
    <glyph glyph-name="uni021B" unicode="&#x21b;" horiz-adv-x="669" 
d="M641 1452l-82 -422q-16 -68 -29 -96l5 -4q26 16 90 16h98l-41 -223h-100q-65 0 -84 14l-6 -4q5 -28 -11 -115l-121 -618h-247l120 618q15 80 33 115l-4 4q-23 -14 -90 -14h-84l43 223h82q68 0 86 -16l6 4q-5 40 8 96l49 260l259 162h20zM346 -104l-248 -336h-127l129 336
h246z" />
    <glyph glyph-name="uni0237" unicode="&#x237;" horiz-adv-x="483" 
d="M459 946l-195 -1007q-39 -200 -151.5 -289.5t-311.5 -89.5h-32l45 237h18q81 0 124 41t62 135l189 973h252z" />
    <glyph glyph-name="uni02BC" unicode="&#x2bc;" horiz-adv-x="434" 
d="M336 1495h244l-293 -516h-125z" />
    <glyph glyph-name="circumflex" unicode="&#x2c6;" horiz-adv-x="925" 
d="M776 1448l176 -309v-6h-192l-58 96q-31 53 -40.5 78t-8.5 57h-6q-11 -31 -30 -55t-72 -80l-96 -96h-218v6l299 309h246z" />
    <glyph glyph-name="caron" unicode="&#x2c7;" horiz-adv-x="925" 
d="M467 1128l-176 308v8h198l58 -96q31 -52 40.5 -78.5t8.5 -59.5h8q12 33 32.5 60.5t70.5 77.5l94 96h211v-8l-299 -308h-246z" />
    <glyph glyph-name="breve" unicode="&#x2d8;" horiz-adv-x="821" 
d="M565 1139q-129 0 -204.5 64t-75.5 177q0 38 8 74h160q-2 -14 -2 -41q0 -117 118 -117q138 0 174 158h166q-26 -152 -117 -233.5t-227 -81.5z" />
    <glyph glyph-name="dotaccent" unicode="&#x2d9;" horiz-adv-x="481" 
d="M616 1434l-59 -306h-276l59 306h276z" />
    <glyph glyph-name="ring" unicode="&#x2da;" horiz-adv-x="694" 
d="M524 1530q101 0 164.5 -60.5t63.5 -156.5q0 -107 -72.5 -184.5t-192.5 -77.5q-101 0 -164 60.5t-63 156.5q0 107 72.5 184.5t191.5 77.5zM518 1421q-69 0 -105 -45t-36 -102q0 -51 31 -83t86 -32q69 0 105 45.5t36 102.5q0 51 -30.5 82.5t-86.5 31.5z" />
    <glyph glyph-name="ogonek" unicode="&#x2db;" horiz-adv-x="559" 
d="M135 -410q-80 0 -127 36t-47 104q0 82 69.5 151.5t227.5 171.5l107 -33q-115 -81 -167.5 -134t-52.5 -91q0 -43 58 -43q34 0 82 10l2 -147q-106 -25 -152 -25z" />
    <glyph glyph-name="tilde" unicode="&#x2dc;" horiz-adv-x="958" 
d="M774 1151q-57 0 -117.5 27.5t-113.5 54.5t-90 27q-64 0 -127 -95l-93 31q47 114 110.5 181t154.5 67q57 0 117.5 -27t113.5 -53.5t90 -26.5q36 0 65.5 23.5t61.5 69.5l92 -31q-48 -115 -110 -181.5t-154 -66.5z" />
    <glyph glyph-name="hungarumlaut" unicode="&#x2dd;" horiz-adv-x="944" 
d="M289 1133l-2 4l307 311h199v-4l-324 -311h-180zM582 1133l-2 4l307 311h198v-4l-323 -311h-180z" />
    <glyph glyph-name="gravecomb" unicode="&#x300;" horiz-adv-x="0" 
d="M-127 1448l154 -309l-4 -6h-175l-260 309l2 6h283z" />
    <glyph glyph-name="acutecomb" unicode="&#x301;" horiz-adv-x="0" 
d="M86 1448v-6l-381 -309h-172l-2 6l270 309h285z" />
    <glyph glyph-name="uni0302" unicode="&#x302;" horiz-adv-x="0" 
d="M-150 1448l177 -309v-6h-193l-57 96q-31 53 -40.5 78t-8.5 57h-7q-11 -31 -30 -55t-72 -80l-96 -96h-217v6l299 309h245z" />
    <glyph glyph-name="tildecomb" unicode="&#x303;" horiz-adv-x="0" 
d="M-186 1151q-57 0 -118 27.5t-114 54.5t-90 27q-67 0 -127 -95l-94 31q47 114 110.5 181t155.5 67q57 0 118 -27t114 -53.5t90 -26.5q63 0 127 93l92 -31q-48 -115 -110 -181.5t-154 -66.5z" />
    <glyph glyph-name="uni0304" unicode="&#x304;" horiz-adv-x="0" 
d="M74 1380l-35 -170h-612l32 170h615z" />
    <glyph glyph-name="uni0306" unicode="&#x306;" horiz-adv-x="0" 
d="M-256 1139q-129 0 -205 64t-76 177q0 34 9 74h159q-2 -14 -2 -41q0 -117 119 -117q138 0 174 158h166q-26 -152 -117 -233.5t-227 -81.5z" />
    <glyph glyph-name="uni0307" unicode="&#x307;" horiz-adv-x="0" 
d="M84 1434l-59 -306h-275l60 306h274z" />
    <glyph glyph-name="uni0308" unicode="&#x308;" horiz-adv-x="0" 
d="M-297 1434l-53 -273h-209l53 273h209zM84 1434l-55 -273h-209l53 273h211z" />
    <glyph glyph-name="uni030A" unicode="&#x30a;" horiz-adv-x="0" 
d="M-172 1530q101 0 165 -61t64 -156q0 -106 -73 -184t-193 -78q-101 0 -163 60.5t-62 156.5q0 107 72 184.5t190 77.5zM-178 1421q-69 0 -105 -45t-36 -102q0 -51 30.5 -83t87.5 -32q69 0 105.5 45.5t36.5 102.5q0 51 -31 82.5t-88 31.5z" />
    <glyph glyph-name="uni030B" unicode="&#x30b;" horiz-adv-x="0" 
d="M-711 1133l-2 4l307 311h199v-4l-323 -311h-181zM-418 1133l-2 4l307 311h199v-4l-324 -311h-180z" />
    <glyph glyph-name="uni030C" unicode="&#x30c;" horiz-adv-x="0" 
d="M-453 1128l-176 308v8h199l57 -96q31 -52 40.5 -78.5t8.5 -59.5h9q12 34 32 61t70 77l94 96h211v-8l-299 -308h-246z" />
    <glyph glyph-name="uni0326" unicode="&#x326;" horiz-adv-x="0" 
d="M-215 -104l-248 -336h-127l129 336h246z" />
    <glyph glyph-name="uni0327" unicode="&#x327;" horiz-adv-x="0" 
d="M-319 66l-76 -136q76 -19 117.5 -49.5t41.5 -81.5q0 -36 -21 -68.5t-50.5 -56.5t-79.5 -49.5t-90.5 -42.5t-100.5 -40q-23 -9 -34 -13l-21 80q99 47 140.5 75t41.5 56q0 46 -110 70l143 256h99z" />
    <glyph glyph-name="uni0328" unicode="&#x328;" horiz-adv-x="0" 
d="M-426 -410q-80 0 -127 36t-47 104q0 82 69.5 151.5t227.5 171.5l106 -33q-114 -81 -166.5 -134t-52.5 -91q0 -43 58 -43q34 0 82 10l2 -147q-106 -25 -152 -25z" />
    <glyph glyph-name="uni0394" unicode="&#x394;" horiz-adv-x="1253" 
d="M680 1434l510 -1434h-1204l510 1434h184zM588 1071l-303 -921h604z" />
    <glyph glyph-name="uni03A9" unicode="&#x3a9;" horiz-adv-x="1589" 
d="M799 1464q210 0 370.5 -85.5t246 -233.5t85.5 -334q0 -122 -41.5 -227t-112.5 -178t-158 -123t-185 -74v-6q94 16 178 16h288v-219h-589v358q162 32 263 153.5t101 287.5q0 189 -121 306.5t-325 117.5q-206 0 -326.5 -116.5t-120.5 -301.5q0 -170 101 -292t264 -155v-358
h-592l2 219h289q82 0 176 -16l2 6q-99 24 -185.5 74t-158 124t-113 180t-41.5 230q0 136 49.5 255t139.5 205.5t222.5 136.5t291.5 50z" />
    <glyph glyph-name="pi" unicode="&#x3c0;" 
d="M1288 977l-45 -223h-203l-145 -754h-233l145 754h-232l-323 -754h-236l322 752q-136 -6 -254 -39l45 223q132 41 309 41h850z" />
    <glyph glyph-name="uni0401" unicode="&#x401;" horiz-adv-x="1083" 
d="M553 1761h209l-47 -239h-209zM934 1761h209l-47 -239h-209zM1180 1434l-47 -240h-537q-31 0 -51 10l-6 -4q7 -17 -2 -57l-39 -203q-5 -34 -19 -57l2 -4q19 8 58 8h473l-45 -238h-475q-34 0 -54 10l-4 -4q5 -12 -2 -57l-59 -307q-10 -44 -21 -58l4 -4q22 11 56 11h544
l-47 -240h-856l279 1434h848z" />
    <glyph glyph-name="uni0402" unicode="&#x402;" horiz-adv-x="1540" 
d="M1128 883q175 0 270 -73.5t95 -225.5q0 -58 -10 -107l-8 -47l-9 -37q-72 -393 -448 -393h-187l50 246h106q96 0 148 35.5t71 128.5l4 20l7 21q6 35 6 55q0 129 -189 129q-149 0 -385 -62l-110 -573h-263l207 1065l15 74q10 45 18 55l-4 4q-16 -8 -55 -8h-301l47 244h1083
l-47 -244h-420q-35 0 -51 8l-4 -4q4 -19 -4 -55l-15 -74l-28 -143q-15 -75 -35 -109l4 -4q215 74 442 74z" />
    <glyph glyph-name="uni0403" unicode="&#x403;" horiz-adv-x="1001" 
d="M1196 1747v-6l-344 -219h-172v6l244 219h272zM53 0l279 1434h839l-47 -244h-528q-37 0 -53 8l-4 -4q4 -21 -4 -55l-220 -1139h-262z" />
    <glyph glyph-name="uni0404" unicode="&#x404;" horiz-adv-x="1417" 
d="M965 1464q299 0 514 -157l-158 -220q-81 54 -169 86.5t-206 32.5q-186 0 -321 -84.5t-195 -238.5q-6 -20 -29 -47l2 -5q30 9 74 9h508l-49 -246h-473q-46 0 -70 8l-6 -4q9 -18 12 -49q24 -154 140.5 -238t281.5 -84q179 0 359 111l123 -223q-239 -146 -496 -146
q-315 0 -503.5 187.5t-188.5 496.5q0 171 61.5 320t171 257.5t269.5 171t348 62.5z" />
    <glyph glyph-name="uni0405" unicode="&#x405;" horiz-adv-x="1060" 
d="M506 -31q-297 0 -537 205l156 217q97 -80 197 -124t186 -44q89 0 138.5 40.5t49.5 111.5q0 43 -25.5 84.5t-84.5 95.5l-207 188q-170 158 -170 344q0 172 116.5 274.5t311.5 102.5q214 0 448 -141l-145 -225q-170 112 -305 112q-69 0 -108.5 -32t-39.5 -88
q0 -37 24.5 -74.5t82.5 -89.5l203 -185q95 -86 137.5 -171t42.5 -189q0 -193 -124.5 -302.5t-346.5 -109.5z" />
    <glyph glyph-name="uni0406" unicode="&#x406;" horiz-adv-x="548" 
d="M592 1434l-279 -1434h-260l279 1434h260z" />
    <glyph glyph-name="uni0407" unicode="&#x407;" horiz-adv-x="548" 
d="M225 1761h209l-47 -239h-209zM606 1761h209l-47 -239h-209zM592 1434l-279 -1434h-260l279 1434h260z" />
    <glyph glyph-name="uni0408" unicode="&#x408;" horiz-adv-x="655" 
d="M698 1434l-209 -1078q-38 -197 -134.5 -281.5t-282.5 -84.5q-50 0 -121 8l47 242q27 -2 92 -2q59 0 92.5 34t48.5 111l205 1051h262z" />
    <glyph glyph-name="uni0409" unicode="&#x409;" horiz-adv-x="2226" 
d="M1718 891q102 0 184.5 -23.5t146.5 -72t99 -128.5t35 -186q0 -118 -43.5 -210.5t-120.5 -151t-177.5 -89t-217.5 -30.5h-573l196 1008l27 133q6 38 16 55l-2 4q-19 -8 -55 -8h-500q-38 0 -51 8l-6 -4q4 -18 -2 -55l-53 -275l-99 -510q-37 -194 -133.5 -280t-284.5 -86
q-87 0 -153 10l47 244q45 -6 123 -6q59 0 92.5 32.5t50.5 112.5l205 1051h1122l-82 -426l-12 -66q-9 -41 -18 -57l2 -4q23 10 55 10h182zM1622 238q140 0 213.5 62t73.5 165q0 93 -57.5 140.5t-165.5 47.5h-195q-35 0 -53 9l-4 -5q4 -19 -2 -57l-62 -309q-10 -48 -18 -58
l4 -4q18 9 53 9h213z" />
    <glyph glyph-name="uni040A" unicode="&#x40a;" horiz-adv-x="2154" 
d="M53 0l279 1434h262l-96 -492q-5 -31 -19 -55l4 -4q19 8 54 8h569q38 0 51 -8l6 4q-4 11 2 55l97 492h262l-97 -492q-6 -40 -18 -55l4 -4q16 8 53 8h183q102 0 184.5 -23.5t146.5 -72t99 -128.5t35 -186q0 -156 -76.5 -266.5t-201 -162.5t-282.5 -52h-571l115 596
q10 45 18 55l-4 4q-16 -8 -55 -8h-568q-35 0 -51 8l-4 -4q4 -18 -2 -55l-117 -596h-262zM1284 229q24 9 57 9h211q139 0 213 62t74 165q0 93 -58.5 140.5t-166.5 47.5h-193q-33 0 -51 11l-4 -5q4 -21 -4 -57l-59 -311q-9 -43 -21 -58z" />
    <glyph glyph-name="uni040B" unicode="&#x40b;" horiz-adv-x="1581" 
d="M1059 948q65 0 120 -10.5t105.5 -36t85.5 -65t55.5 -101.5t20.5 -141q0 -64 -16 -158l-87 -436h-262l88 453q9 41 9 73q0 170 -201 170q-118 0 -307 -65l-123 -631h-262l209 1065l14 72q5 33 16 55l-2 4q-19 -8 -55 -8h-311l47 246h1054l-47 -246h-381q-38 0 -51 8l-6 -4
q4 -18 -2 -55l-31 -154q-14 -74 -37 -109l5 -4q194 78 352 78z" />
    <glyph glyph-name="uni040C" unicode="&#x40c;" horiz-adv-x="1300" 
d="M1278 1747v-6l-344 -219h-172v6l244 219h272zM1053 -10q-101 0 -169 59.5t-75 200.5l-10 219q-4 87 -52.5 123.5t-146.5 36.5h-108q-50 0 -62 6l-2 -2q4 -32 -6 -76l-107 -557h-262l279 1434h262l-96 -490q-8 -47 -25 -74l2 -4q20 8 64 8h112q80 0 133 35t88 113l99 225
q44 106 124.5 150.5t207.5 44.5q53 0 133 -6l-47 -242q-62 4 -72 4q-101 0 -137 -80l-76 -172q-46 -107 -120 -144.5t-236 -45.5v-4q159 -4 219.5 -58.5t66.5 -179.5l6 -147q3 -69 29 -93t82 -24q30 0 80 4l-49 -256q-73 -8 -129 -8z" />
    <glyph glyph-name="uni040E" unicode="&#x40e;" horiz-adv-x="1353" 
d="M1182 1767q-31 -146 -113.5 -216t-226.5 -70q-134 0 -204.5 59t-70.5 164q0 33 6 63h164q-4 -20 -4 -45q0 -48 29.5 -75t89.5 -27q131 0 158 147h172zM260 -18q-119 0 -219 32l63 240q86 -27 156 -27q77 0 139.5 35.5t118.5 114.5l-325 1057h299l167 -611q6 -22 16 -59
t14 -52.5t9 -39t6.5 -41t0.5 -35.5l6 2q24 71 43 111.5t69 119.5l379 605h332l-717 -1098q-60 -92 -110 -151t-115.5 -108.5t-146.5 -72t-185 -22.5z" />
    <glyph glyph-name="uni040F" unicode="&#x40f;" horiz-adv-x="1476" 
d="M467 -287l47 236q6 38 16 55l-2 4q-21 -8 -55 -8h-420l279 1434h262l-221 -1141q-5 -34 -19 -57l2 -5q26 11 56 11h561q31 0 53 -11l6 5q-5 12 2 57l221 1141h263l-279 -1434h-420q-38 0 -51 8l-6 -4q4 -18 -2 -55l-47 -236h-246z" />
    <glyph glyph-name="uni0410" unicode="&#x410;" horiz-adv-x="1452" 
d="M-80 0l977 1462h43l408 -1462h-271l-90 340h-541l-217 -340h-309zM555 541q30 6 107 6h190q72 0 102 -6l4 2q-28 40 -43 106l-47 221q-20 101 -14 156h-10q-12 -51 -76 -156l-131 -221q-45 -72 -84 -106z" />
    <glyph glyph-name="uni0411" unicode="&#x411;" horiz-adv-x="1294" 
d="M596 1192q-35 0 -51 8l-6 -4q6 -16 -2 -57l-27 -133l-12 -64q-5 -33 -19 -57l4 -4q20 10 54 10h202q102 0 185 -23.5t146.5 -72t98.5 -128.5t35 -186q0 -118 -43.5 -210.5t-120 -151t-177 -89t-218.5 -30.5h-592l195 1006l84 428h952l-47 -242h-641zM492 653q-37 0 -52 9
l-6 -5q4 -19 -2 -57l-59 -309q-9 -43 -21 -58l4 -4q18 9 56 9h233q138 0 211.5 62t73.5 165q0 93 -57.5 140.5t-165.5 47.5h-215z" />
    <glyph glyph-name="uni0412" unicode="&#x412;" horiz-adv-x="1290" 
d="M53 0l279 1434h530q169 0 273 -83.5t104 -238.5q0 -121 -68 -210.5t-190 -129.5q-68 -22 -123 -22l-2 -9q61 0 121 -14q105 -26 160 -103.5t55 -195.5q0 -197 -144.5 -312.5t-396.5 -115.5h-598zM475 844q16 8 55 8h201q109 0 171.5 52.5t62.5 139.5q0 158 -207 158h-160
q-34 0 -51 10l-6 -4q4 -9 -2 -55l-50 -250q-6 -40 -18 -55zM354 221q35 10 58 10h239q137 0 204 54t67 151q0 189 -242 189h-195q-35 0 -51 8l-4 -4q4 -14 -4 -56l-55 -290q-7 -44 -21 -58z" />
    <glyph glyph-name="uni0413" unicode="&#x413;" horiz-adv-x="1001" 
d="M53 0l279 1434h839l-47 -244h-528q-37 0 -53 8l-4 -4q4 -21 -4 -55l-220 -1139h-262z" />
    <glyph glyph-name="uni0414" unicode="&#x414;" horiz-adv-x="1445" 
d="M-137 -287l98 498h96q36 0 56 -10l4 4q4 26 24 59q101 146 163.5 258.5t116 265t91.5 347.5l59 299h848l-227 -1170q-6 -39 -18 -59l4 -4q23 10 57 10h113l-99 -498h-245l40 211q6 39 21 58l-4 4q-18 -9 -55 -9h-795q-35 0 -53 9l-4 -4q4 -21 -4 -58l-41 -211h-246z
M391 201q23 10 58 10h425q35 0 52 -10l4 4q-3 14 4 59l172 879q10 47 18 57l-4 4q-19 -8 -55 -8h-231q-39 0 -52 8l-6 -4q6 -16 -2 -57l-12 -62q-53 -253 -152 -481.5t-223 -394.5z" />
    <glyph glyph-name="uni0415" unicode="&#x415;" horiz-adv-x="1083" 
d="M1180 1434l-47 -240h-537q-31 0 -51 10l-6 -4q7 -17 -2 -57l-39 -203q-5 -34 -19 -57l2 -4q19 8 58 8h473l-45 -238h-475q-34 0 -54 10l-4 -4q5 -12 -2 -57l-59 -307q-10 -44 -21 -58l4 -4q22 11 56 11h544l-47 -240h-856l279 1434h848z" />
    <glyph glyph-name="uni0416" unicode="&#x416;" horiz-adv-x="1949" 
d="M1976 1442q52 0 123 -6l-47 -238q-58 4 -67 4q-101 0 -138 -82l-73 -174q-46 -108 -120.5 -145t-238.5 -45v-4q77 -2 123 -11.5t79.5 -34t47.5 -66.5t16 -110l7 -161q3 -66 29.5 -93.5t80.5 -27.5q24 0 74 4l-49 -254q-71 -8 -129 -8q-114 0 -178.5 61.5t-67.5 206.5
l-8 223q-1 89 -40 122.5t-138 33.5h-72q-44 0 -60 8l-4 -4q7 -27 -4 -74l-108 -567h-260l108 567q9 45 27 74l-4 4q-16 -8 -60 -8h-82q-81 0 -128 -34t-83 -122l-110 -264q-49 -117 -137.5 -172t-223.5 -55q-52 0 -120 8l51 254q46 -4 67 -4q60 0 97.5 26.5t66.5 90.5
l80 190q43 110 112.5 151.5t227.5 45.5v4q-157 8 -212.5 45t-61.5 149l-13 170q-3 47 -31 64.5t-75 17.5q-8 0 -74 -4l47 238q71 6 119 6q115 0 171.5 -43.5t66.5 -153.5l20 -223q8 -81 49.5 -117.5t136.5 -36.5h82q42 0 58 -8l4 4q-3 28 4 74l98 496h260l-96 -496
q-10 -50 -27 -74l2 -4q20 8 64 8h82q83 0 134 37t87 117l104 225q47 108 128 151.5t206 43.5z" />
    <glyph glyph-name="uni0417" unicode="&#x417;" horiz-adv-x="1243" 
d="M532 -31q-298 0 -530 117l135 238q204 -101 406 -101q158 0 231.5 56.5t73.5 148.5q0 95 -64.5 142.5t-179.5 47.5h-205l50 254h204q126 0 196.5 54.5t70.5 146.5q0 73 -51 107t-160 34q-200 0 -398 -73l-78 237q266 86 510 86q222 0 342.5 -85.5t120.5 -254.5
q0 -134 -71.5 -215t-227.5 -129q-67 -21 -155 -24l-2 -8q82 0 139 -13q114 -28 174.5 -109t60.5 -206q0 -67 -17.5 -128.5t-60.5 -121.5t-108.5 -103.5t-169.5 -70.5t-236 -27z" />
    <glyph glyph-name="uni0418" unicode="&#x418;" horiz-adv-x="1495" 
d="M1499 1454h43l-282 -1454h-263l133 680q34 180 70 254l-6 2q-50 -75 -133 -145l-971 -811h-41l283 1454h260l-131 -680q-37 -183 -72 -254l6 -2q57 82 133 145z" />
    <glyph glyph-name="uni0419" unicode="&#x419;" horiz-adv-x="1495" 
d="M1315 1767q-31 -146 -113.5 -216t-226.5 -70q-134 0 -204.5 59t-70.5 164q0 28 7 63h163q-4 -20 -4 -45q0 -48 29.5 -75t89.5 -27q131 0 158 147h172zM1499 1454h43l-282 -1454h-263l133 680q34 180 70 254l-6 2q-50 -75 -133 -145l-971 -811h-41l283 1454h260l-131 -680
q-37 -183 -72 -254l6 -2q57 82 133 145z" />
    <glyph glyph-name="uni041A" unicode="&#x41a;" horiz-adv-x="1300" 
d="M1053 -10q-101 0 -169 59.5t-75 200.5l-10 219q-4 87 -52.5 123.5t-146.5 36.5h-108q-50 0 -62 6l-2 -2q4 -32 -6 -76l-107 -557h-262l279 1434h262l-96 -490q-8 -47 -25 -74l2 -4q20 8 64 8h112q80 0 133 35t88 113l99 225q44 106 124.5 150.5t207.5 44.5q53 0 133 -6
l-47 -242q-62 4 -72 4q-101 0 -137 -80l-76 -172q-46 -107 -120 -144.5t-236 -45.5v-4q159 -4 219.5 -58.5t66.5 -179.5l6 -147q3 -69 29 -93t82 -24q30 0 80 4l-49 -256q-73 -8 -129 -8z" />
    <glyph glyph-name="uni041B" unicode="&#x41b;" horiz-adv-x="1550" 
d="M1591 1434l-110 -576l-168 -858h-262l223 1141q10 45 18 55l-2 4q-19 -8 -55 -8h-500q-37 0 -53 8l-6 -4q7 -16 -2 -55l-53 -275l-99 -510q-37 -194 -133.5 -280t-284.5 -86q-87 0 -153 10l47 244q45 -6 123 -6q59 0 92.5 32.5t50.5 112.5l205 1051h1122z" />
    <glyph glyph-name="uni041C" unicode="&#x41c;" horiz-adv-x="1884" 
d="M844 -14l-182 704q-26 103 -23 201h-6q-33 -125 -72 -205l-342 -686h-299l758 1454h43l203 -840q14 -60 8 -155h8q26 87 66 155l524 840h45l205 -1454h-256l-90 686q-13 99 2 205h-6q-31 -93 -101 -201l-450 -704h-35z" />
    <glyph glyph-name="uni041D" unicode="&#x41d;" horiz-adv-x="1482" 
d="M1524 1434l-279 -1434h-264l113 584q10 43 18 57l-2 4q-23 -10 -55 -10h-563q-34 0 -54 10l-4 -4q4 -21 -4 -57l-113 -584h-264l279 1434h264l-98 -502q-5 -35 -19 -58l4 -4q21 9 56 9h563q36 0 51 -9l4 4q-4 21 4 58l99 502h264z" />
    <glyph glyph-name="uni041E" unicode="&#x41e;" horiz-adv-x="1675" 
d="M823 -31q-319 0 -513.5 187t-194.5 493q0 173 63 324.5t173 259t264.5 169.5t330.5 62q321 0 516 -187t195 -493q0 -173 -63.5 -324.5t-173.5 -259t-265 -169.5t-332 -62zM838 225q237 0 387.5 157.5t150.5 403.5q0 190 -121 306t-321 116q-238 0 -389.5 -157.5
t-151.5 -403.5q0 -191 122 -306.5t323 -115.5z" />
    <glyph glyph-name="uni041F" unicode="&#x41f;" horiz-adv-x="1462" 
d="M53 0l279 1434h1171l-278 -1434h-262l221 1141q5 33 18 55l-2 4q-19 -8 -55 -8h-549q-38 0 -51 8l-6 -4q4 -19 -4 -55l-220 -1141h-262z" />
    <glyph glyph-name="uni0420" unicode="&#x420;" horiz-adv-x="1169" 
d="M780 1434q215 0 334 -103t119 -289q0 -212 -143.5 -334t-391.5 -122h-219q-38 0 -53 10l-4 -4q4 -17 -4 -57l-103 -535h-262l279 1434h448zM547 1208l-6 -4q4 -17 -4 -57l-52 -275q-8 -39 -20 -57l4 -4q23 10 55 10h185q115 0 180 55.5t65 153.5q0 82 -51 126t-145 44
h-160q-35 0 -51 8z" />
    <glyph glyph-name="uni0421" unicode="&#x421;" horiz-adv-x="1419" 
d="M809 -31q-313 0 -503.5 187t-190.5 495q0 176 63.5 327t175.5 258t270.5 167.5t342.5 60.5q299 0 512 -157l-158 -220q-171 119 -371 119q-244 0 -399.5 -153.5t-155.5 -393.5q0 -198 116 -315t312 -117q177 0 357 111l123 -223q-243 -146 -494 -146z" />
    <glyph glyph-name="uni0422" unicode="&#x422;" horiz-adv-x="1087" 
d="M1257 1434l-47 -246h-346q-38 0 -51 8l-6 -4q4 -18 -2 -55l-221 -1137h-262l221 1137q6 38 16 55l-2 4q-19 -8 -55 -8h-346l47 246h1054z" />
    <glyph glyph-name="uni0423" unicode="&#x423;" horiz-adv-x="1353" 
d="M260 -18q-119 0 -219 32l63 240q86 -27 156 -27q77 0 139.5 35.5t118.5 114.5l-325 1057h299l167 -611q6 -22 16 -59t14 -52.5t9 -39t6.5 -41t0.5 -35.5l6 2q24 71 43 111.5t69 119.5l379 605h332l-717 -1098q-60 -92 -110 -151t-115.5 -108.5t-146.5 -72t-185 -22.5z
" />
    <glyph glyph-name="uni0424" unicode="&#x424;" horiz-adv-x="1771" 
d="M666 -20l10 59q10 45 22 63l-2 2q-16 -8 -65 -8q-71 0 -141.5 21.5t-138 67.5t-119.5 112t-83.5 163t-31.5 212q0 302 196 483.5t539 181.5q48 0 76 -8l2 2q-4 31 2 64l10 59h256l-10 -59q-10 -44 -23 -64l2 -2q20 8 68 8q74 0 145.5 -21.5t138 -68t117 -113t81 -163.5
t30.5 -213q0 -300 -196 -481t-539 -181q-50 0 -74 8l-4 -2q6 -21 -2 -63l-10 -59h-256zM756 330l4 4q-6 19 2 63l115 639q9 49 22 64l-4 4q-16 -8 -61 -8q-114 -1 -201.5 -36t-139.5 -94t-78 -133t-26 -159q0 -93 29.5 -162t77.5 -105t98 -52.5t102 -16.5q48 -3 60 -8z
M969 330q16 8 61 8q115 1 203 35t140 92.5t78 131t26 157.5q0 75 -18.5 134.5t-48 97.5t-70.5 63.5t-83 36t-88 10.5q-46 3 -61 8l-2 -4q5 -29 -2 -64l-115 -639q-8 -42 -22 -63z" />
    <glyph glyph-name="uni0425" unicode="&#x425;" horiz-adv-x="1378" 
d="M1518 1434l-459 -521q-129 -145 -158 -165l-2 -9q21 -26 88 -157l297 -582h-311l-201 422q-42 95 -45 160h-8q-15 -45 -105 -160l-348 -422h-346l531 610q96 116 147 158v8q-7 10 -15.5 24.5t-15.5 28.5t-25 49.5t-34 65.5l-256 490h311l162 -347q28 -61 37 -90t12 -67h8
q16 43 107 155l287 349h342z" />
    <glyph glyph-name="uni0426" unicode="&#x426;" horiz-adv-x="1488" 
d="M1047 -285l45 234q9 40 18 55l-2 4q-19 -8 -57 -8h-998l279 1434h262l-221 -1141q-5 -35 -21 -55l4 -5q18 9 56 9h499q39 0 54 -9l6 5q-7 16 2 55l221 1141h262l-221 -1141q-7 -32 -21 -55l5 -5q18 9 55 9h121l-103 -527h-245z" />
    <glyph glyph-name="uni0427" unicode="&#x427;" horiz-adv-x="1282" 
d="M784 0l90 475q15 75 35 109l-2 4q-204 -74 -399 -74q-190 0 -293.5 86.5t-103.5 259.5q0 66 20 172l78 402h264l-78 -385q-10 -68 -10 -107q0 -98 52.5 -136t150.5 -38q138 0 356 63l117 603h262l-279 -1434h-260z" />
    <glyph glyph-name="uni0428" unicode="&#x428;" horiz-adv-x="2131" 
d="M53 0l279 1434h262l-221 -1141q-5 -35 -21 -55l4 -5q18 9 56 9h428q35 0 53 -9l4 5q-4 18 2 55l221 1141h262l-221 -1141q-5 -33 -18 -55l2 -5q18 9 55 9h426q37 0 55 -9l5 5q-4 18 2 55l221 1141h262l-277 -1434h-1841z" />
    <glyph glyph-name="uni0429" unicode="&#x429;" horiz-adv-x="2205" 
d="M1989 242h122l-102 -527h-244l45 234q5 31 19 55l-2 4q-21 -8 -58 -8h-1716l279 1434h262l-221 -1141q-5 -35 -21 -55l4 -5q18 9 56 9h428q35 0 53 -9l4 5q-4 18 2 55l221 1141h262l-221 -1141q-5 -33 -18 -55l2 -5q18 9 55 9h426q37 0 55 -9l5 5q-4 18 2 55l221 1141
h262l-221 -1141q-5 -35 -21 -55l4 -5q21 9 56 9z" />
    <glyph glyph-name="uni042A" unicode="&#x42a;" horiz-adv-x="1499" 
d="M991 891q102 0 185 -23.5t146.5 -72t98.5 -128.5t35 -186q0 -118 -43.5 -210.5t-120 -151t-177 -89t-218.5 -30.5h-592l195 1006l24 135q9 40 21 55l-4 4q-19 -8 -58 -8h-327l47 242h641l-82 -428l-12 -64q-5 -33 -19 -57l4 -4q20 10 53 10h203zM897 238q138 0 211.5 62
t73.5 165q0 93 -58 140.5t-166 47.5h-215q-36 0 -51 9l-6 -5q4 -19 -2 -57l-59 -309q-9 -43 -21 -58l4 -4q18 9 56 9h233z" />
    <glyph glyph-name="uni042B" unicode="&#x42b;" horiz-adv-x="1746" 
d="M741 891q102 0 184.5 -23.5t146.5 -72t99 -128.5t35 -186q0 -118 -43.5 -210.5t-120.5 -151t-177.5 -89t-217.5 -30.5h-594l197 1008l82 426h262l-82 -426l-12 -66q-8 -39 -19 -57l2 -4q23 10 56 10h202zM1528 1434h260l-279 -1434h-260zM645 238q139 0 213 62t74 165
q0 93 -58.5 140.5t-166.5 47.5h-215q-34 0 -52 9l-4 -5q5 -25 -2 -57l-61 -309q-8 -42 -19 -58l2 -4q21 9 56 9h233z" />
    <glyph glyph-name="uni042C" unicode="&#x42c;" horiz-adv-x="1247" 
d="M741 891q102 0 184.5 -23.5t146.5 -72t99 -128.5t35 -186q0 -118 -43.5 -210.5t-120.5 -151t-177.5 -89t-217.5 -30.5h-594l197 1008l82 426h262l-82 -426l-12 -66q-8 -39 -19 -57l2 -4q23 10 56 10h202zM645 238q139 0 213 62t74 165q0 93 -58.5 140.5t-166.5 47.5h-215
q-34 0 -52 9l-4 -5q5 -25 -2 -57l-61 -309q-8 -42 -19 -58l2 -4q21 9 56 9h233z" />
    <glyph glyph-name="uni042D" unicode="&#x42d;" horiz-adv-x="1419" 
d="M549 -31q-297 0 -514 158l158 219q82 -55 169 -87t205 -32q186 0 321 85t195 239q6 20 29 47l-2 4q-27 -8 -74 -8h-508l50 246h473q42 0 69 -9l6 5q-9 18 -12 49q-24 154 -140 237.5t-282 83.5q-180 0 -358 -110l-123 223q237 145 496 145q315 0 503.5 -187.5
t188.5 -496.5q0 -171 -61.5 -320t-171 -257.5t-269.5 -171t-348 -62.5z" />
    <glyph glyph-name="uni042E" unicode="&#x42e;" horiz-adv-x="2183" 
d="M1454 1462q319 0 514 -187t195 -493q0 -173 -63.5 -324.5t-173.5 -259t-264.5 -169.5t-330.5 -62q-307 0 -499 171.5t-209 457.5h-142q-34 0 -51 10l-6 -4q4 -21 -4 -57l-105 -545h-262l279 1434h262l-107 -541q-6 -42 -18 -57l4 -5q22 11 55 11h113q63 277 285.5 448.5
t527.5 171.5zM1343 223q238 0 389.5 157.5t151.5 403.5q0 190 -121.5 305t-322.5 115q-236 0 -387.5 -156.5t-151.5 -402.5q0 -190 121 -306t321 -116z" />
    <glyph glyph-name="uni042F" unicode="&#x42f;" horiz-adv-x="1290" 
d="M-80 0l498 510q90 93 194 133l-2 4q-27 -6 -57 -6q-36 0 -80.5 20t-89 59.5t-74.5 111.5t-30 163q0 197 133.5 318t384.5 121h534l-278 -1434h-262l106 547q9 50 27 80l-2 4q-25 -8 -43 -10q-12 -3 -29 -3l-592 -618h-338zM956 836l5 4q-4 19 4 55l47 252q9 46 20 57
l-2 4q-19 -8 -57 -8h-191q-116 0 -172.5 -51.5t-56.5 -136.5q0 -168 217 -168h133q40 0 53 -8z" />
    <glyph glyph-name="uni0430" unicode="&#x430;" horiz-adv-x="1062" 
d="M354 -29q-150 0 -242 87.5t-92 230.5q0 157 100.5 249.5t270.5 92.5q121 0 208.5 -53.5t127.5 -151.5l6 2q-9 58 2 119q10 72 10 90q0 64 -44 94.5t-138 30.5q-123 0 -295 -35l-35 209q204 39 383 39q192 0 282 -72t87 -223q0 -34 -14 -127l-105 -553h-252q16 89 60 156
l-8 6q-65 -101 -138 -146t-174 -45zM459 164q82 0 137 43t55 106q0 61 -54 101.5t-134 40.5q-78 0 -125 -41.5t-47 -110.5q0 -63 46 -101t122 -38z" />
    <glyph glyph-name="uni0431" unicode="&#x431;" horiz-adv-x="1243" 
d="M612 -31q-77 0 -146.5 17.5t-135 59t-113.5 104t-77 160.5t-29 220q0 265 103 461.5t296 268.5q34 13 80 25t100 22.5t90 16.5t86 14t52 8q51 11 77.5 34.5t36.5 69.5h256q-24 -122 -82 -191.5t-164 -95.5q-29 -6 -118 -21t-173 -32t-135 -35q-134 -46 -206 -148
t-84 -282h6q52 161 166 236t258 75q188 0 309 -112.5t121 -311.5q0 -110 -38 -210.5t-108.5 -179.5t-181.5 -126t-246 -47zM631 207q73 0 130 25.5t91 69t51 95.5t17 109q0 119 -66.5 176t-171.5 57q-135 0 -219 -86.5t-84 -212.5q0 -117 71.5 -175t180.5 -58z" />
    <glyph glyph-name="uni0432" unicode="&#x432;" horiz-adv-x="1089" 
d="M866 473q123 -42 123 -188q0 -124 -100.5 -204.5t-280.5 -80.5h-579l57 303l70 354l57 289h543q270 0 270 -217q0 -76 -35 -124t-112 -79q-68 -23 -154 -28v-4q86 -3 141 -21zM635 571q55 0 85 27t30 70q0 77 -111 77h-166q-39 0 -55 9l-2 -2q6 -25 0 -54l-8 -41l-9 -39
q-6 -31 -20 -53l2 -2q18 8 59 8h195zM586 201q70 0 104.5 29.5t34.5 76.5q0 92 -131 92h-186q-40 0 -58 9l-2 -2q8 -21 0 -52l-10 -51l-10 -55q-4 -25 -21 -53l2 -2q16 8 58 8h219z" />
    <glyph glyph-name="uni0433" unicode="&#x433;" horiz-adv-x="776" 
d="M29 0l184 946h645l-43 -221h-346q-41 0 -55 8l-2 -2q6 -25 0 -53l-133 -678h-250z" />
    <glyph glyph-name="uni0434" unicode="&#x434;" horiz-adv-x="1163" 
d="M-119 -287l92 482h82q33 0 47 -9l2 2q3 23 23 52q89 121 141 231t80 250l43 225h711l-137 -704q-8 -37 -21 -54l2 -2q20 9 60 9h73l-92 -482h-227l45 230q8 37 20 53l-2 2q-18 -8 -59 -8h-553q-41 0 -55 8l-2 -2q6 -25 0 -53l-45 -230h-228zM344 184q27 11 62 11h260
q39 0 57 -9l2 2q-8 20 0 54l86 446q7 33 20 53l-2 2q-16 -8 -57 -8h-145q-42 0 -56 8l-2 -2q6 -25 0 -53l-6 -29q-23 -123 -84.5 -260t-134.5 -211v-4z" />
    <glyph glyph-name="uni0435" unicode="&#x435;" horiz-adv-x="1101" 
d="M547 -31q-227 0 -357.5 120t-130.5 329q0 246 156 402.5t401 156.5q203 0 320 -103.5t117 -283.5q0 -58 -25 -174h-612q-88 0 -113 20l-6 -6l4 -16v-23q2 -95 68.5 -149t183.5 -54q78 0 150 26.5t153 86.5l109 -184q-104 -78 -203 -113t-215 -35zM324 565q25 19 94 19
h291q75 0 94 -19l6 4q-4 6 -4 21q0 190 -207 190q-212 0 -276 -211z" />
    <glyph glyph-name="uni0436" unicode="&#x436;" horiz-adv-x="1503" 
d="M1415 952h131l-41 -204h-39q-42 0 -66 -14t-46 -50l-47 -78q-30 -55 -81 -80.5t-145 -29.5l-2 -4q97 -3 139.5 -30t51.5 -91l16 -111q6 -36 21 -48.5t51 -12.5h41l-41 -205h-127q-68 0 -107.5 31.5t-46.5 91.5l-20 157q-8 65 -32.5 93t-88.5 28h-27q-47 0 -63 4l-2 -2
q3 -37 -6 -86l-62 -311h-231l63 311q10 50 27 86l-2 2q-16 -4 -64 -4h-28q-50 0 -81.5 -28.5t-62.5 -92.5l-78 -157q-29 -58 -86 -90.5t-131 -32.5h-145l41 205h41q40 0 61.5 12t44.5 49l56 111q32 63 82 90.5t147 30.5l2 4q-94 4 -134 29t-52 81l-15 74q-9 39 -27.5 53.5
t-60.5 14.5h-39l41 204h129q64 0 99 -24t47 -80l37 -152q8 -32 13.5 -46t17.5 -30.5t32 -22t51 -5.5h29q48 0 64 -4l2 2q-3 35 6 82l57 274h232l-56 -274q-8 -47 -26 -82l2 -2q16 4 63 4h29q25 0 42 5t34 23t25 29.5t30 46.5l94 152q65 104 217 104z" />
    <glyph glyph-name="uni0437" unicode="&#x437;" horiz-adv-x="937" 
d="M387 -31q-236 0 -399 80l92 201q152 -70 305 -70q195 0 195 115q0 54 -39.5 79t-124.5 25h-183l37 183h185q74 0 111.5 28t37.5 74q0 43 -34 62.5t-103 19.5q-137 0 -291 -57l-63 198q203 70 411 70q365 0 365 -232q0 -99 -75 -164.5t-249 -76.5v-4q131 -6 201 -63
t70 -163q0 -48 -14 -91t-47 -83t-83.5 -68.5t-128.5 -45.5t-176 -17z" />
    <glyph glyph-name="uni0438" unicode="&#x438;" horiz-adv-x="1126" 
d="M27 -12l186 958h250l-60 -299q-19 -100 -27 -133t-30 -88l4 -2q56 66 137 127l543 407h72l-187 -958h-251l59 299l10.5 52.5t8.5 43t7 30.5t8.5 31.5t9 27.5t13.5 36l-4 2q-48 -60 -137 -127l-543 -407h-69z" />
    <glyph glyph-name="uni0439" unicode="&#x439;" horiz-adv-x="1126" 
d="M713 1012q-129 0 -205 64t-76 177q0 38 8 74h160q-2 -14 -2 -41q0 -117 119 -117q138 0 174 158h166q-26 -152 -117 -233.5t-227 -81.5zM27 -12l186 958h250l-60 -299q-19 -100 -27 -133t-30 -88l4 -2q56 66 137 127l543 407h72l-187 -958h-251l59 299l10.5 52.5t8.5 43
t7 30.5t8.5 31.5t9 27.5t13.5 36l-4 2q-48 -60 -137 -127l-543 -407h-69z" />
    <glyph glyph-name="uni043A" unicode="&#x43a;" horiz-adv-x="1050" 
d="M778 -6q-68 0 -112.5 29.5t-51.5 93.5l-18 157q-6 59 -32 85t-87 26h-67q-50 0 -62 4l-4 -2q3 -37 -6 -86l-59 -301h-250l184 946h250l-51 -264q-7 -41 -27 -82l2 -2q16 4 64 4h67q46 0 72 19t59 75l92 152q67 104 222 104h131l-41 -209h-33q-38 0 -60 -12.5t-42 -46.5
l-48 -78q-34 -58 -84 -82.5t-157 -27.5v-4q73 -4 114.5 -20.5t57.5 -43t22 -72.5l15 -96q4 -33 21.5 -45t49.5 -12h39l-41 -209h-129z" />
    <glyph glyph-name="uni043B" unicode="&#x43b;" horiz-adv-x="1142" 
d="M1114 946l-184 -946h-252l131 674q7 33 20 53l-2 2q-16 -8 -57 -8h-240q-41 0 -57 8l-2 -2q7 -20 0 -53l-20 -115l-54 -276q-26 -139 -117 -213t-241 -74h-111l43 223h56q58 0 90 35.5t49 120.5l37 184l73 387h838z" />
    <glyph glyph-name="uni043C" unicode="&#x43c;" horiz-adv-x="1419" 
d="M596 -14l-102 362q-4 16 -12 42.5t-10.5 38t-5 28.5t-1.5 35h-6q-3 -13 -7.5 -25.5t-8 -21.5t-11 -24t-11 -21.5t-14.5 -27.5t-16 -30l-190 -342h-287l559 961h64l133 -453q20 -68 22 -113h4q14 33 64 113l299 453h65l197 -961h-254l-61 342q-17 95 -11 150h-6
q-6 -18 -15.5 -35.5t-16 -28t-25.5 -38t-29 -42.5l-241 -362h-66z" />
    <glyph glyph-name="uni043D" unicode="&#x43d;" horiz-adv-x="1148" 
d="M870 946h252l-184 -946h-252l68 350q8 37 20 53l-2 3q-20 -9 -59 -9h-307q-40 0 -56 9l-2 -3q6 -25 0 -53l-69 -350h-250l184 946h250l-53 -284q-7 -33 -23 -54l2 -2q18 8 60 8h307q41 0 55 -8l2 2q-5 21 2 54z" />
    <glyph glyph-name="uni043E" unicode="&#x43e;" horiz-adv-x="1161" 
d="M537 -31q-221 0 -350.5 122t-129.5 329q0 243 160 400t408 157q221 0 350 -122t129 -329q0 -243 -160 -400t-407 -157zM555 207q127 0 210 86t83 217q0 106 -64.5 167.5t-177.5 61.5q-128 0 -210.5 -85.5t-82.5 -217.5q0 -106 64.5 -167.5t177.5 -61.5z" />
    <glyph glyph-name="uni043F" unicode="&#x43f;" horiz-adv-x="1128" 
d="M1106 946l-184 -946h-252l131 670q8 37 20 53l-2 2q-18 -8 -59 -8h-297q-41 0 -57 8l-3 -2q7 -20 0 -53l-129 -670h-251l184 946h899z" />
    <glyph glyph-name="uni0440" unicode="&#x440;" horiz-adv-x="1220" 
d="M-51 -410l264 1356h248q-22 -116 -55 -192l6 -2q57 108 150 166.5t208 58.5q177 0 285 -122.5t108 -322.5q0 -161 -65.5 -289.5t-181 -201t-259.5 -72.5q-134 0 -225 63.5t-123 178.5l-8 -2q-3 -81 -25 -209l-79 -410h-248zM606 201q126 0 209.5 88t83.5 221
q0 107 -65 171t-175 64q-126 0 -209 -88t-83 -221q0 -108 64.5 -171.5t174.5 -63.5z" />
    <glyph glyph-name="uni0441" unicode="&#x441;" horiz-adv-x="991" 
d="M559 -31q-224 0 -360 130t-136 345q0 241 155.5 387t410.5 146q207 0 383 -117l-135 -205q-125 88 -261 88q-128 0 -209 -79.5t-81 -206.5q0 -114 69 -184t180 -70q101 0 213 59l91 -211q-152 -82 -320 -82z" />
    <glyph glyph-name="uni0442" unicode="&#x442;" horiz-adv-x="925" 
d="M1008 946l-45 -229h-277q-41 0 -55 8l-2 -2q6 -25 0 -53l-15 -68l-118 -602h-252l118 602l15 68q8 37 20 53l-2 2q-18 -8 -59 -8h-279l45 229h906z" />
    <glyph glyph-name="uni0443" unicode="&#x443;" horiz-adv-x="1044" 
d="M1130 946l-851 -1358h-275l315 510l-221 848h267l92 -411q28 -126 16 -248l8 2q19 79 70 164l295 493h284z" />
    <glyph glyph-name="uni0444" unicode="&#x444;" horiz-adv-x="1771" 
d="M596 -410l80 410q26 139 67 225l-8 4q-120 -260 -329 -260q-146 0 -241 116.5t-95 326.5q0 156 53 283.5t157.5 204.5t241.5 77q121 0 201.5 -64.5t107.5 -195.5l9 4q-8 89 20 225l88 465h240l-90 -465q-24 -135 -68 -225l8 -4q64 137 146.5 198.5t185.5 61.5
q146 0 240 -113.5t94 -320.5q0 -156 -53 -285t-158 -209t-244 -80q-248 0 -307 260l-8 -4q8 -86 -21 -225l-79 -410h-238zM528 197q81 0 141 49t87.5 121.5t27.5 154.5q-1 107 -56 167.5t-146 60.5q-79 0 -136.5 -49t-83 -121.5t-24.5 -155.5q0 -109 50.5 -168t139.5 -59z
M1194 197q80 0 137.5 49t82.5 121t24 155q0 109 -51 168.5t-140 59.5q-81 0 -141 -49.5t-87.5 -122t-27.5 -154.5q1 -107 56.5 -167t146.5 -60z" />
    <glyph glyph-name="uni0445" unicode="&#x445;" horiz-adv-x="1062" 
d="M1108 946l-371 -401q-4 -5 -12.5 -14.5t-12.5 -13.5t-11 -10.5t-13.5 -10.5t-13.5 -7l-2 -6q11 -5 20 -15.5t13 -17t14 -26.5l235 -424h-270l-125 238q-20 36 -27.5 60.5t-7.5 59.5h-6q-20 -62 -78 -125l-211 -233h-305l414 451q44 48 70 59l2 6q-18 9 -45 53l-211 377
h272l98 -178q21 -40 29 -66.5t8 -64.5h4q22 61 82 129l158 180h303z" />
    <glyph glyph-name="uni0446" unicode="&#x446;" horiz-adv-x="1179" 
d="M778 -287l47 240q8 36 21 53l-2 2q-18 -8 -60 -8h-755l184 946h250l-131 -674q-8 -36 -21 -53l2 -2q18 8 60 8h303q41 0 55 -8l2 2q-6 25 0 53l131 674h252l-131 -674q-7 -33 -20 -53v-2q18 8 59 8h80l-98 -512h-228z" />
    <glyph glyph-name="uni0447" unicode="&#x447;" horiz-adv-x="1032" 
d="M754 946h252l-52 -264l-90 -459l-43 -223h-252l43 223h2l13 68q12 69 32 100l-2 4q-162 -67 -305 -67q-144 0 -219.5 60t-75.5 192q0 58 15 125l47 241h250l-43 -223q-4 -40 -4 -53q0 -58 31 -84.5t93 -26.5q102 0 240 45l16 78z" />
    <glyph glyph-name="uni0448" unicode="&#x448;" horiz-adv-x="1697" 
d="M1419 946h252l-184 -946h-1458l184 946h250l-131 -674q-8 -36 -21 -53l2 -2q18 8 60 8h254q41 0 55 -8l2 2q-6 25 0 53l131 674h252l-131 -674q-7 -30 -21 -53v-2q18 8 60 8h254q41 0 55 -8l4 2q-7 20 0 53z" />
    <glyph glyph-name="uni0449" unicode="&#x449;" horiz-adv-x="1734" 
d="M1331 -287l47 240q8 36 21 53l-2 2q-18 -8 -60 -8h-1308l184 946h250l-131 -674q-8 -36 -21 -53l2 -2q18 8 60 8h254q41 0 55 -8l2 2q-6 25 0 53l131 674h252l-131 -674q-7 -30 -21 -53v-2q18 8 60 8h254q41 0 55 -8l4 2q-7 20 0 53l131 674h252l-133 -674
q-8 -37 -20 -53l2 -2q18 8 59 8h80l-100 -512h-228z" />
    <glyph glyph-name="uni044A" unicode="&#x44a;" horiz-adv-x="1175" 
d="M791 649q145 0 238 -72t93 -221q0 -159 -110 -257.5t-301 -98.5h-482l66 332l63 330l4 16q8 36 21 53l-2 2q-18 -8 -59 -8h-263l43 221h564l-41 -213l-9 -37q-4 -32 -20 -53l2 -2q18 8 59 8h134zM707 209q70 0 107.5 36t37.5 91q0 104 -131 104h-105q-39 0 -57 9l-2 -3
q7 -20 0 -53l-10 -61l-17 -76q-7 -33 -20 -53l2 -2q16 8 57 8h138z" />
    <glyph glyph-name="uni044B" unicode="&#x44b;" horiz-adv-x="1386" 
d="M588 649q69 0 127.5 -16.5t105.5 -50.5t74 -91.5t27 -134.5q0 -159 -110.5 -257.5t-301.5 -98.5h-481l63 332l78 401l43 213h250l-41 -213l-6 -37q-8 -32 -21 -53v-2q18 8 60 8h133zM1108 946h252l-184 -946h-252zM506 209q70 0 107.5 36t37.5 91q0 104 -131 104h-106
q-40 0 -56 9l-2 -3q6 -25 0 -53l-12 -61l-14 -76q-7 -30 -21 -53l2 -2q16 8 58 8h137z" />
    <glyph glyph-name="uni044C" unicode="&#x44c;" horiz-adv-x="972" 
d="M588 649q69 0 127.5 -16.5t105.5 -50.5t74 -91.5t27 -134.5q0 -159 -110.5 -257.5t-301.5 -98.5h-481l63 332l78 401l43 213h250l-41 -213l-6 -37q-8 -32 -21 -53v-2q18 8 60 8h133zM506 209q70 0 107.5 36t37.5 91q0 104 -131 104h-106q-40 0 -56 9l-2 -3q6 -25 0 -53
l-12 -61l-14 -76q-7 -30 -21 -53l2 -2q16 8 58 8h137z" />
    <glyph glyph-name="uni044D" unicode="&#x44d;" horiz-adv-x="997" 
d="M362 -31q-206 0 -382 117l135 205q125 -88 258 -88q94 0 161 37t99 100q26 43 33 51v2q-20 -8 -64 -8h-289l15 176h282q40 0 56 -8l2 2q-5 7 -21 51q-23 62 -85.5 99.5t-143.5 37.5q-100 0 -215 -59l-88 211q150 82 319 82q217 0 353.5 -127.5t136.5 -349.5
q0 -111 -37 -207t-106 -168.5t-177 -114t-242 -41.5z" />
    <glyph glyph-name="uni044E" unicode="&#x44e;" horiz-adv-x="1593" 
d="M1055 977q221 0 350 -122t129 -329q0 -243 -159.5 -400t-405.5 -157q-203 0 -329.5 104t-145.5 285h-103q-39 0 -55 9l-2 -2q6 -25 0 -54l-62 -311h-243l184 946h242l-60 -309q-8 -37 -20 -53l2 -2q18 8 59 8h78q52 175 197.5 281t343.5 106zM985 207q129 0 212 86
t83 217q0 106 -65 167.5t-177 61.5q-128 0 -211.5 -85.5t-83.5 -217.5q0 -106 65 -167.5t177 -61.5z" />
    <glyph glyph-name="uni044F" unicode="&#x44f;" horiz-adv-x="1058" 
d="M1030 946l-61 -319l-74 -377l-49 -250h-252l51 256l6 35q7 28 21 53l-2 2q-16 -8 -60 -8h-18l-340 -338h-318l3 10l264 246q44 39 72 58.5t67 35.5v6q-37 -5 -72 6q-69 15 -114 90.5t-45 172.5q0 146 105 233.5t282 87.5h534zM707 571l10 56l14 71q6 33 21 54l-2 2
q-21 -9 -60 -9h-158q-69 0 -107 -29.5t-38 -84.5q0 -107 150 -107h110q42 0 58 -8l2 2q-6 20 0 53z" />
    <glyph glyph-name="uni0451" unicode="&#x451;" horiz-adv-x="1101" 
d="M653 1319l-51 -260h-207l51 260h207zM1006 1319l-50 -260h-208l51 260h207zM547 -31q-227 0 -357.5 120t-130.5 329q0 246 156 402.5t401 156.5q203 0 320 -103.5t117 -283.5q0 -58 -25 -174h-612q-88 0 -113 20l-6 -6l4 -16v-23q2 -95 68.5 -149t183.5 -54
q78 0 150 26.5t153 86.5l109 -184q-104 -78 -203 -113t-215 -35zM324 565q25 19 94 19h291q75 0 94 -19l6 4q-4 6 -4 21q0 190 -207 190q-212 0 -276 -211z" />
    <glyph glyph-name="uni0452" unicode="&#x452;" horiz-adv-x="1144" 
d="M772 977q145 0 221 -78t76 -227q0 -64 -18 -154l-105 -518l-22 -115q-59 -299 -369 -299h-123l43 228h80q56 0 84.5 23.5t40.5 84.5l14 78l99 494q10 44 10 92q0 82 -43.5 125t-126.5 43q-106 0 -169.5 -73t-94.5 -230l-86 -451h-252l184 946l29 154q8 37 20 53l-2 2
q-18 -8 -59 -8h-74l29 149h75q42 0 56 -8l2 2q-6 25 0 53l24 121h252l-24 -121q-7 -30 -21 -53l2 -2q16 8 58 8h258l-29 -149h-258q-41 0 -55 8l-2 -2q6 -25 0 -53l-31 -154l-4 -28q-14 -86 -58 -179l7 -2q69 126 155.5 183t206.5 57z" />
    <glyph glyph-name="uni0453" unicode="&#x453;" horiz-adv-x="776" 
d="M1040 1346l-374 -316h-197l274 316h297zM29 0l184 946h645l-43 -221h-346q-41 0 -55 8l-2 -2q6 -25 0 -53l-133 -678h-250z" />
    <glyph glyph-name="uni0454" unicode="&#x454;" horiz-adv-x="987" 
d="M625 977q207 0 383 -117l-136 -205q-125 88 -258 88q-94 0 -161 -37t-99 -100q-1 -2 -6.5 -12.5t-12 -20.5t-13.5 -18v-2q20 8 63 8h289l-15 -176h-282q-39 0 -55 8l-3 -2q5 -7 21 -51q23 -62 85.5 -99.5t143.5 -37.5q100 0 215 59l88 -211q-150 -82 -319 -82
q-217 0 -353.5 127.5t-136.5 349.5q0 111 37 207t106 168.5t177 114t242 41.5z" />
    <glyph glyph-name="uni0455" unicode="&#x455;" horiz-adv-x="841" 
d="M88 309q168 -125 307 -125q47 0 73 18.5t26 51.5q0 23 -14.5 41.5t-53.5 44.5l-131 84q-166 108 -166 266q0 133 89 210t243 77q185 0 373 -107l-105 -188q-139 82 -254 82q-92 0 -92 -66q0 -25 15.5 -42.5t66.5 -51.5l119 -74q90 -56 129 -117t39 -147q0 -143 -94 -220
t-267 -77q-239 0 -430 156z" />
    <glyph glyph-name="uni0456" unicode="&#x456;" horiz-adv-x="483" 
d="M565 1434l-59 -306h-275l60 306h274zM459 946l-185 -946h-251l184 946h252z" />
    <glyph glyph-name="uni0457" unicode="&#x457;" horiz-adv-x="483" 
d="M334 1319l-51 -260h-207l51 260h207zM686 1319l-49 -260h-209l51 260h207zM459 946l-185 -946h-251l184 946h252z" />
    <glyph glyph-name="uni0458" unicode="&#x458;" horiz-adv-x="483" 
d="M565 1434l-59 -306h-275l60 306h274zM459 946l-195 -1007q-39 -200 -151.5 -289.5t-311.5 -89.5h-32l45 237h18q81 0 124 41t62 135l189 973h252z" />
    <glyph glyph-name="uni0459" unicode="&#x459;" horiz-adv-x="1615" 
d="M1231 649q145 0 238.5 -72t93.5 -221q0 -159 -110.5 -257.5t-301.5 -98.5h-473l131 674q7 33 20 53l-2 2q-16 -8 -57 -8h-240q-41 0 -57 8l-2 -2q7 -20 0 -53l-22 -115h2l-54 -276q-26 -139 -117 -213t-241 -74h-111l43 223h56q58 0 90 35.5t49 120.5l37 184l73 387h830
l-49 -250q-3 -24 -21 -53v-2q18 8 60 8h135zM1147 209q70 0 107.5 36t37.5 91q0 104 -131 104h-104q-40 0 -58 9l-2 -3q7 -20 0 -53l-26 -137q-7 -30 -21 -53l2 -2q16 8 58 8h137z" />
    <glyph glyph-name="uni045A" unicode="&#x45a;" horiz-adv-x="1628" 
d="M1243 639q69 0 127.5 -16t105 -49.5t73 -90.5t26.5 -133q0 -157 -110.5 -253.5t-301.5 -96.5h-477l72 375q7 33 20 53v2q-18 -8 -59 -8h-307q-42 0 -56 8l-4 -2q7 -20 0 -53l-73 -375h-250l184 946h250l-49 -260q-7 -30 -21 -53v-2q18 8 60 8h307q41 0 55 -8l4 2
q-7 20 0 53l51 260h252l-49 -260q-7 -33 -20 -53v-2q18 8 59 8h131zM1163 205q71 0 108.5 35.5t37.5 91.5q0 102 -129 102h-109q-41 0 -55 8l-2 -2q6 -25 0 -53l-27 -135q-7 -33 -20 -53l2 -2q16 8 57 8h137z" />
    <glyph glyph-name="uni045B" unicode="&#x45b;" horiz-adv-x="1144" 
d="M772 977q145 0 221 -78t76 -227q0 -64 -18 -154l-105 -518h-252l99 494q10 44 10 92q0 82 -43.5 125t-126.5 43q-106 0 -169.5 -73t-94.5 -230l-86 -451h-252l184 946l29 154q8 37 20 53l-2 2q-18 -8 -59 -8h-74l29 149h75q42 0 56 -8l2 2q-6 25 0 53l24 121h252
l-24 -121q-7 -30 -21 -53l2 -2q16 8 58 8h258l-29 -149h-258q-41 0 -55 8l-2 -2q6 -25 0 -53l-31 -154l-4 -28q-14 -86 -58 -179l7 -2q69 126 155.5 183t206.5 57z" />
    <glyph glyph-name="uni045C" unicode="&#x45c;" horiz-adv-x="1050" 
d="M1120 1346l-375 -316h-196l274 316h297zM778 -6q-68 0 -112.5 29.5t-51.5 93.5l-18 157q-6 59 -32 85t-87 26h-67q-50 0 -62 4l-4 -2q3 -37 -6 -86l-59 -301h-250l184 946h250l-51 -264q-7 -41 -27 -82l2 -2q16 4 64 4h67q46 0 72 19t59 75l92 152q67 104 222 104h131
l-41 -209h-33q-38 0 -60 -12.5t-42 -46.5l-48 -78q-34 -58 -84 -82.5t-157 -27.5v-4q73 -4 114.5 -20.5t57.5 -43t22 -72.5l15 -96q4 -33 21.5 -45t49.5 -12h39l-41 -209h-129z" />
    <glyph glyph-name="uni045E" unicode="&#x45e;" horiz-adv-x="1044" 
d="M635 1012q-129 0 -205 64t-76 177q0 38 8 74h160q-2 -14 -2 -41q0 -117 119 -117q138 0 174 158h166q-26 -152 -117 -233.5t-227 -81.5zM1130 946l-851 -1358h-275l315 510l-221 848h267l92 -411q28 -126 16 -248l8 2q19 79 70 164l295 493h284z" />
    <glyph glyph-name="uni045F" unicode="&#x45f;" horiz-adv-x="1134" 
d="M307 -287l47 240q8 36 21 53l-2 2q-18 -8 -60 -8h-284l184 946h250l-129 -670q-7 -30 -21 -53v-2q18 8 60 8h295q41 0 55 -8l2 2q-6 25 0 53l131 670h252l-184 -946h-285q-41 0 -55 8l-2 -2q6 -25 0 -53l-47 -240h-228z" />
    <glyph glyph-name="uni0462" unicode="&#x462;" horiz-adv-x="1370" 
d="M184 0l193 991q6 44 18 58l-4 4q-26 -11 -55 -11h-209l41 211h207q40 0 53 -8l6 4q-5 11 2 56l27 129h262l-27 -129q-5 -35 -18 -56l4 -4q16 8 53 8h361l-41 -211h-359q-31 0 -53 11l-4 -4q4 -19 -2 -58l-10 -53q-5 -34 -17 -53l2 -4q23 10 56 10h194q102 0 184.5 -23.5
t146.5 -72t99 -128.5t35 -186q0 -118 -43.5 -210.5t-120.5 -151t-177.5 -89t-217.5 -30.5h-586zM487 229q21 9 56 9h225q139 0 213 62t74 165q0 93 -58.5 140.5t-167.5 47.5h-206q-34 0 -52 9l-4 -5q4 -19 -2 -57l-61 -309q-8 -42 -19 -58z" />
    <glyph glyph-name="uni0463" unicode="&#x463;" horiz-adv-x="1034" 
d="M649 649q69 0 127.5 -16.5t105.5 -50.5t74 -91.5t27 -134.5q0 -159 -111 -257.5t-303 -98.5h-481l148 756q8 37 20 53l-2 2q-18 -8 -59 -8h-134l37 190h133q42 0 58 -8l2 2q-7 20 0 53l82 424h252l-84 -424q-8 -36 -21 -53l2 -2q18 8 60 8h286l-37 -190h-286q-42 0 -56 8
l-2 -2q4 -15 0 -53l-10 -60q-3 -26 -20 -53v-2q18 8 59 8h133zM565 209q72 0 109 35.5t37 91.5q0 59 -35 81.5t-94 22.5h-107q-39 0 -57 9l-2 -3q7 -20 0 -53l-27 -137q-8 -37 -20 -53l2 -2q18 8 59 8h135z" />
    <glyph glyph-name="uni0472" unicode="&#x472;" horiz-adv-x="1673" 
d="M946 1464q210 0 371 -82.5t250.5 -237.5t89.5 -360q0 -168 -61 -317.5t-169 -259.5t-264.5 -174t-337.5 -64q-210 0 -370.5 82.5t-250 237.5t-89.5 360q0 168 61 317.5t168.5 259.5t264 174t337.5 64zM1386 811l5 6q-3 14 -6 34.5t-5 27.5q-20 150 -144.5 241.5
t-309.5 91.5q-184 0 -313 -89.5t-189 -243.5q-16 -35 -35 -62l4 -6q22 10 72 10h854q47 0 67 -10zM1346 555q13 29 36 61l-4 7q-28 -11 -71 -11h-856q-43 0 -68 11l-4 -7q6 -25 10 -61q20 -150 145.5 -242t311.5 -92q182 0 311.5 90t188.5 244z" />
    <glyph glyph-name="uni0473" unicode="&#x473;" horiz-adv-x="1161" 
d="M625 977q138 0 245 -50t170.5 -153.5t63.5 -247.5q0 -154 -68.5 -280t-199 -201.5t-299.5 -75.5q-138 0 -245 50t-171 153.5t-64 247.5q0 154 69 280t199.5 201.5t299.5 75.5zM850 516l6 4v25q-10 106 -76 159.5t-168 53.5q-123 0 -198 -66.5t-99 -169.5l4 -6
q27 19 111 19h315q86 0 105 -19zM551 188q122 0 196.5 66.5t98.5 169.5l-2 6q-30 -18 -113 -18h-313q-89 0 -107 18l-6 -4q0 -19 2 -25q9 -106 75 -159.5t169 -53.5z" />
    <glyph glyph-name="uni0474" unicode="&#x474;" horiz-adv-x="1382" 
d="M545 -16l-359 1450h285l143 -725q29 -141 25 -224h8q8 22 15.5 40t21.5 44t19.5 37.5t28.5 51.5t30 53l276 483q33 58 60.5 96.5t63.5 73.5t76.5 54.5t94.5 30.5t123 11q54 0 117 -8l-47 -240q-36 5 -78 5q-54 0 -91 -30.5t-91 -115.5l-678 -1087h-43z" />
    <glyph glyph-name="uni0475" unicode="&#x475;" horiz-adv-x="1011" 
d="M1053 965h59l-47 -238h-16q-90 0 -136 -68l-452 -673h-86l-277 960h267l81 -377q13 -58 17 -78.5t7 -54.5t1 -74h8q39 99 107 207l127 201q57 92 135.5 143.5t204.5 51.5z" />
    <glyph glyph-name="uni048E" unicode="&#x48e;" horiz-adv-x="1169" 
d="M1233 1042q0 -152 -76.5 -259.5t-216.5 -157.5l125 -179l-90 -63l-150 213q-65 -10 -127 -10h-219q-38 0 -53 10l-4 -4q4 -17 -4 -57l-103 -535h-262l279 1434h448q215 0 334 -103t119 -289zM795 829q77 19 118 71t41 130q0 82 -51 126t-145 44h-160q-35 0 -51 8l-6 -4
q4 -17 -4 -57l-52 -275q-8 -39 -20 -57l4 -4q23 10 55 10h144l-78 109l90 63z" />
    <glyph glyph-name="uni048F" unicode="&#x48f;" horiz-adv-x="1220" 
d="M1163 532q0 -156 -61.5 -282t-169.5 -199l96 -119l-80 -63l-108 135q-84 -35 -183 -35q-134 0 -225 63.5t-123 178.5l-8 -2q-3 -81 -25 -209l-79 -410h-248l264 1356h248q-22 -116 -55 -192l6 -2q57 108 150 166.5t208 58.5q177 0 285 -122.5t108 -322.5zM606 201
q28 0 68 8l-109 135l80 64l127 -156q60 40 93.5 107.5t33.5 150.5q0 107 -65 171t-175 64q-126 0 -209 -88t-83 -221q0 -108 64.5 -171.5t174.5 -63.5z" />
    <glyph glyph-name="uni0490" unicode="&#x490;" horiz-adv-x="1038" 
d="M1014 1720h250l-103 -528h-565q-37 0 -53 8l-4 -4q4 -19 -4 -55l-220 -1141h-262l279 1434h573q36 0 51 -9l7 5q-2 12 4 55z" />
    <glyph glyph-name="uni0491" unicode="&#x491;" horiz-adv-x="829" 
d="M715 1231h252l-99 -506h-399q-41 0 -55 8l-2 -2q6 -25 0 -53l-133 -678h-250l184 946h397q42 0 56 -8l2 2q-6 25 0 53z" />
    <glyph glyph-name="uni0492" unicode="&#x492;" horiz-adv-x="1118" 
d="M717 1190q-38 0 -51 8l-7 -4q5 -12 -2 -55l-20 -105l-21 -102q-5 -33 -18 -55l4 -5q18 9 53 9h371l-43 -224h-369q-35 0 -53 11l-4 -4q4 -19 -2 -58l-119 -606h-262l119 606q6 42 16 58l-2 4q-26 -11 -55 -11h-199l43 224h197q38 0 53 -9l6 5q-4 11 2 55l21 102l78 400
h837l-47 -244h-526z" />
    <glyph glyph-name="uni0493" unicode="&#x493;" horiz-adv-x="831" 
d="M526 725q-41 0 -55 8l-2 -2q6 -25 0 -53l-20 -94q-8 -37 -21 -54l2 -2q20 9 59 9h220l-41 -203h-219q-42 0 -56 8l-2 -2q6 -25 0 -53l-55 -287h-252l55 287q8 36 21 53l-2 2q-18 -8 -60 -8h-86l39 203h88q40 0 58 -9l2 2q-8 20 0 54l69 362h645l-43 -221h-344z" />
    <glyph glyph-name="uni0494" unicode="&#x494;" horiz-adv-x="1318" 
d="M891 883q356 0 356 -312q0 -65 -20 -157l-25 -131l-55 -291q-37 -201 -143 -301.5t-289 -100.5h-191l47 246h125q76 0 125 41.5t68 142.5l53 263l21 108q12 74 12 101q0 143 -176 143q-145 0 -373 -62l-111 -573h-262l279 1434h895l-47 -242h-584q-38 0 -51 8l-6 -4
q4 -18 -2 -55l-15 -76l-28 -143q-15 -75 -35 -109l2 -4q215 74 430 74z" />
    <glyph glyph-name="uni0495" unicode="&#x495;" horiz-adv-x="1046" 
d="M328 -410l45 232h100q69 0 109.5 31t54.5 106l35 176q8 50 8 74q0 53 -32.5 76.5t-98.5 23.5q-91 0 -217 -43l-53 -266h-250l184 946h707l-43 -221h-408q-41 0 -55 8l-2 -2q6 -25 0 -53l-21 -98q-12 -69 -35 -103l4 -2q158 68 293 68q141 0 215 -60.5t74 -193.5
q0 -53 -16 -135l-43 -232q-29 -162 -130 -247t-261 -85h-164z" />
    <glyph glyph-name="uni0496" unicode="&#x496;" horiz-adv-x="2082" 
d="M1774 946q-46 -108 -120.5 -145t-238.5 -45v-4q77 -2 123 -11.5t79.5 -34t47.5 -66.5t16 -110l7 -161q3 -66 29.5 -93.5t80.5 -27.5q24 0 74 4l-12 -70h149l-92 -469h-246l55 277h-32q-114 0 -178.5 61.5t-67.5 206.5l-8 223q-1 89 -40 122.5t-138 33.5h-72q-44 0 -60 8
l-4 -4q7 -27 -4 -74l-108 -567h-260l108 567q9 45 27 74l-4 4q-16 -8 -60 -8h-82q-81 0 -128 -34t-83 -122l-110 -264q-49 -117 -137.5 -172t-223.5 -55q-52 0 -120 8l51 254q46 -4 67 -4q60 0 97.5 26.5t66.5 90.5l80 190q43 110 112.5 151.5t227.5 45.5v4
q-157 8 -212.5 45t-61.5 149l-13 170q-3 47 -31 64.5t-75 17.5q-8 0 -74 -4l47 238q71 6 119 6q115 0 171.5 -43.5t66.5 -153.5l20 -223q8 -81 49.5 -117.5t136.5 -36.5h82q42 0 58 -8l4 4q-3 28 4 74l98 496h260l-96 -496q-10 -50 -27 -74l2 -4q20 8 64 8h82q83 0 134 37
t87 117l104 225q47 108 128 151.5t206 43.5q52 0 123 -6l-47 -238q-58 4 -67 4q-101 0 -138 -82z" />
    <glyph glyph-name="uni0497" unicode="&#x497;" horiz-adv-x="1638" 
d="M1386 137h160l-84 -424h-225l53 281h-59q-68 0 -107.5 31.5t-46.5 91.5l-20 157q-8 65 -32.5 93t-88.5 28h-27q-47 0 -63 4l-2 -2q3 -37 -6 -86l-62 -311h-231l63 311q10 50 27 86l-2 2q-16 -4 -64 -4h-28q-50 0 -81.5 -28.5t-62.5 -92.5l-78 -157q-29 -58 -86 -90.5
t-131 -32.5h-145l41 205h41q40 0 61.5 12t44.5 49l56 111q32 63 82 90.5t147 30.5l2 4q-94 4 -134 29t-52 81l-15 74q-9 39 -27.5 53.5t-60.5 14.5h-39l41 204h129q64 0 99 -24t47 -80l37 -152q8 -32 13.5 -46t17.5 -30.5t32 -22t51 -5.5h29q48 0 64 -4l2 2q-3 35 6 82
l57 274h232l-56 -274q-8 -47 -26 -82l2 -2q16 4 63 4h29q25 0 42 5t34 23t25 29.5t30 46.5l94 152q65 104 217 104h131l-41 -204h-39q-42 0 -66 -14t-46 -50l-47 -78q-30 -55 -81 -80.5t-145 -29.5l-2 -4q97 -3 139.5 -30t51.5 -91l16 -111q6 -36 21 -48.5t51 -12.5h41z" />
    <glyph glyph-name="uni0498" unicode="&#x498;" horiz-adv-x="1243" 
d="M889 735q114 -28 174.5 -109t60.5 -206q0 -64 -16 -123t-55 -117t-98.5 -101.5t-153.5 -73t-213 -34.5l-23 -41q76 -19 118 -49.5t42 -81.5q0 -96 -153 -176q-52 -27 -224 -94l-20 80q99 47 140.5 75t41.5 56q0 45 -111 70l90 159q-269 9 -487 117l135 238
q204 -101 406 -101q158 0 231.5 56.5t73.5 148.5q0 95 -64.5 142.5t-179.5 47.5h-205l50 254h204q126 0 196.5 54.5t70.5 146.5q0 73 -51 107t-160 34q-200 0 -398 -73l-78 237q266 86 510 86q222 0 342.5 -85.5t120.5 -254.5q0 -134 -71.5 -215t-227.5 -129
q-67 -21 -155 -24l-2 -8q82 0 139 -13z" />
    <glyph glyph-name="uni0499" unicode="&#x499;" horiz-adv-x="937" 
d="M565 500q131 -6 201 -63t70 -163q0 -122 -96 -207.5t-304 -95.5l-22 -41q76 -19 117.5 -49.5t41.5 -81.5q0 -36 -21 -68.5t-50.5 -56.5t-79.5 -49.5t-90.5 -42.5t-100.5 -40q-23 -9 -34 -13l-21 80q99 47 140.5 75t41.5 56q0 46 -110 70l90 161q-199 6 -350 78l92 201
q152 -70 305 -70q195 0 195 115q0 54 -39.5 79t-124.5 25h-183l37 183h185q74 0 111.5 28t37.5 74q0 43 -34 62.5t-103 19.5q-137 0 -291 -57l-63 198q203 70 411 70q365 0 365 -232q0 -99 -75 -164.5t-249 -76.5v-4z" />
    <glyph glyph-name="uni049A" unicode="&#x49a;" horiz-adv-x="1443" 
d="M1104 946q-46 -107 -120 -144.5t-236 -45.5v-4q159 -4 219.5 -58.5t66.5 -179.5l6 -147q3 -69 29 -93t82 -24q30 0 80 4l-14 -72h151l-92 -469h-246l55 277h-32q-101 0 -169 59.5t-75 200.5l-10 219q-4 87 -52.5 123.5t-146.5 36.5h-108q-50 0 -62 6l-2 -2q4 -32 -6 -76
l-107 -557h-262l279 1434h262l-96 -490q-8 -47 -25 -74l2 -4q20 8 64 8h112q80 0 133 35t88 113l99 225q44 106 124.5 150.5t207.5 44.5q53 0 133 -6l-47 -242q-62 4 -72 4q-101 0 -137 -80z" />
    <glyph glyph-name="uni049B" unicode="&#x49b;" horiz-adv-x="1183" 
d="M936 137h160l-84 -424h-226l54 281h-62q-68 0 -112.5 29.5t-51.5 93.5l-18 157q-6 59 -32 85t-87 26h-67q-50 0 -62 4l-4 -2q3 -37 -6 -86l-59 -301h-250l184 946h250l-51 -264q-7 -41 -27 -82l2 -2q16 4 64 4h67q46 0 72 19t59 75l92 152q67 104 222 104h131l-41 -209
h-33q-38 0 -60 -12.5t-42 -46.5l-48 -78q-34 -58 -84 -82.5t-157 -27.5v-4q73 -4 114.5 -20.5t57.5 -43t22 -72.5l15 -96q4 -33 21.5 -45t49.5 -12h39z" />
    <glyph glyph-name="uni049C" unicode="&#x49c;" horiz-adv-x="1300" 
d="M1303 1442q53 0 133 -6l-47 -242q-62 4 -72 4q-101 0 -137 -80l-76 -172q-46 -107 -120 -144.5t-236 -45.5v-4q159 -4 219.5 -58.5t66.5 -179.5l6 -147q3 -69 29 -93t82 -24q30 0 80 4l-49 -256q-73 -8 -129 -8q-101 0 -169 59.5t-75 200.5l-10 219q-4 78 -44.5 115.5
t-121.5 42.5l-51 -265h-113l53 267h-30q-50 0 -62 6l-2 -2q4 -32 -6 -76l-107 -557h-262l279 1434h262l-96 -490q-8 -47 -25 -74l2 -4q20 8 64 8h30l54 273h110l-53 -270q68 6 114 40.5t78 104.5l99 225q44 106 124.5 150.5t207.5 44.5z" />
    <glyph glyph-name="uni049D" unicode="&#x49d;" horiz-adv-x="1050" 
d="M963 952h131l-41 -209h-33q-38 0 -60 -12.5t-42 -46.5l-48 -78q-34 -58 -84 -82.5t-157 -27.5v-4q73 -4 114.5 -20.5t57.5 -43t22 -72.5l15 -96q4 -33 21.5 -45t49.5 -12h39l-41 -209h-129q-68 0 -112.5 29.5t-51.5 93.5l-18 157q-6 57 -30 83.5t-79 27.5l-38 -201h-62
l39 201h-16q-50 0 -62 4l-4 -2q3 -37 -6 -86l-59 -301h-250l184 946h250l-51 -264q-7 -41 -27 -82l2 -2q16 4 64 4h16l39 195h61l-39 -195q41 1 65 20.5t56 73.5l92 152q67 104 222 104z" />
    <glyph glyph-name="uni049E" unicode="&#x49e;" horiz-adv-x="1421" 
d="M1425 1442q55 0 131 -6l-47 -242q-58 4 -69 4q-103 0 -137 -80l-76 -172q-46 -107 -121 -144.5t-236 -45.5v-4q159 -4 220 -58.5t67 -179.5l6 -147q3 -70 28.5 -93.5t82.5 -23.5q30 0 80 4l-51 -256q-71 -8 -127 -8q-48 0 -87.5 12.5t-75 40.5t-56.5 80.5t-25 126.5
l-10 219q-4 87 -52.5 124.5t-146.5 37.5h-109q-43 0 -59 8l-4 -2q4 -34 -4 -76l-111 -561h-262l195 991q6 42 16 58l-2 4q-26 -11 -55 -11h-201l41 211h199q37 0 53 -8l4 4q-2 12 4 56l25 129h262l-25 -129q-5 -35 -18 -56l2 -4q19 8 55 8h215l-39 -211h-217q-33 0 -51 11
l-4 -4q4 -19 -2 -58l-15 -61q-12 -51 -26 -74l4 -2q30 6 63 6h111q82 0 136 40.5t91 121.5l99 225q44 106 124 150.5t207 44.5z" />
    <glyph glyph-name="uni049F" unicode="&#x49f;" horiz-adv-x="1054" 
d="M965 952h131l-41 -209h-33q-37 0 -59.5 -12.5t-42.5 -46.5l-48 -78q-23 -39 -48 -60.5t-72 -34.5t-121 -15v-4q107 -6 146.5 -36.5t47.5 -99.5l15 -96q4 -33 21.5 -45t49.5 -12h39l-41 -209h-129q-68 0 -112.5 29.5t-51.5 93.5l-18 157q-6 60 -31.5 85.5t-87.5 25.5h-67
q-50 0 -62 4l-4 -2q3 -37 -6 -86l-57 -301h-252l184 946l29 154q8 37 20 53l-2 2q-18 -8 -59 -8h-74l29 149h75q42 0 56 -8l2 2q-6 25 0 53l24 121h252l-24 -121q-7 -30 -21 -53l2 -2q16 8 58 8h258l-29 -149h-258q-41 0 -55 8l-2 -2q6 -25 0 -53l-29 -154l-53 -264
q-7 -41 -27 -82l2 -2q16 4 64 4h67q48 0 72.5 19t58.5 75l94 152q64 104 220 104z" />
    <glyph glyph-name="uni04A0" unicode="&#x4a0;" horiz-adv-x="1542" 
d="M1544 1442q54 0 133 -6l-47 -242q-62 4 -69 4q-104 0 -140 -80l-73 -172q-48 -107 -122.5 -144.5t-236.5 -45.5v-4q159 -4 220 -58.5t67 -179.5l6 -147q3 -69 29.5 -93t83.5 -24q28 0 78 4l-50 -256q-71 -8 -129 -8q-47 0 -86.5 12.5t-74.5 40.5t-56.5 80.5t-25.5 126.5
l-11 219q-4 88 -51.5 125t-146.5 37h-109q-43 0 -59 8l-4 -2q7 -31 -4 -76l-109 -561h-262l192 993l31 148q5 31 19 55l-2 4q-21 -8 -58 -8h-321l47 242h631l-84 -441l-13 -63q-15 -51 -26 -74l2 -2q30 6 63 6h113q81 0 134.5 40.5t90.5 121.5l98 225q44 105 125 150t207 45
z" />
    <glyph glyph-name="uni04A1" unicode="&#x4a1;" horiz-adv-x="1218" 
d="M1128 952h132l-39 -209h-31q-39 0 -62 -13t-45 -46l-47 -76q-36 -60 -84 -84.5t-155 -27.5v-4q74 -4 116 -20.5t60 -43t24 -72.5l13 -96q6 -34 20 -45.5t45 -11.5h41l-43 -209h-127q-70 0 -115.5 29.5t-52.5 93.5l-16 157q-6 60 -31.5 85.5t-87.5 25.5h-68q-49 0 -61 4
l-4 -2q3 -37 -6 -86l-58 -301h-251l129 662l4 16q8 37 20 53l-2 2q-18 -8 -59 -8h-228l43 221h529l-43 -213l-8 -51q-11 -49 -27 -82l2 -2q16 4 63 4h68q46 0 72 19t59 75l92 152q67 104 219 104z" />
    <glyph glyph-name="uni04A2" unicode="&#x4a2;" horiz-adv-x="1505" 
d="M1524 1434l-244 -1252h150l-93 -469h-245l57 287h-168l113 584q10 43 18 57l-2 4q-23 -10 -55 -10h-563q-34 0 -54 10l-4 -4q4 -21 -4 -57l-113 -584h-264l279 1434h264l-98 -502q-5 -35 -19 -58l4 -4q21 9 56 9h563q36 0 51 -9l4 4q-4 21 4 58l99 502h264z" />
    <glyph glyph-name="uni04A3" unicode="&#x4a3;" horiz-adv-x="1212" 
d="M965 137h159l-84 -424h-225l55 287h-184l68 350q8 37 20 53l-2 3q-20 -9 -59 -9h-307q-40 0 -56 9l-2 -3q6 -25 0 -53l-69 -350h-250l184 946h250l-53 -284q-7 -33 -23 -54l2 -2q18 8 60 8h307q41 0 55 -8l2 2q-5 21 2 54l55 284h252z" />
    <glyph glyph-name="uni04A4" unicode="&#x4a4;" horiz-adv-x="1832" 
d="M1229 1434h776l-47 -244h-463q-37 0 -53 8l-4 -4q4 -21 -4 -55l-13 -70l-204 -1069h-267l115 584q5 36 18 57l-2 4q-27 -10 -57 -10h-532q-34 0 -54 10l-4 -4q4 -21 -4 -57l-113 -584h-264l279 1434h264l-98 -502q-5 -35 -19 -58l4 -4q21 9 56 9h534q33 0 51 -9l4 4
q-4 19 5 58l26 137z" />
    <glyph glyph-name="uni04A5" unicode="&#x4a5;" horiz-adv-x="1396" 
d="M850 946h629l-43 -221h-328q-41 0 -57 8l-2 -2q7 -20 0 -53l-7 -35l-124 -643h-252l67 350q8 36 21 53l-2 3q-20 -9 -60 -9h-286q-40 0 -56 9l-2 -3q6 -25 0 -53l-69 -350h-250l184 946h250l-53 -284q-7 -33 -23 -54l2 -2q18 8 60 8h286q42 0 56 -8l2 2q-5 21 2 54l12 69
z" />
    <glyph glyph-name="uni04A6" unicode="&#x4a6;" horiz-adv-x="2226" 
d="M1815 883q176 0 271 -73.5t95 -225.5q0 -42 -10 -107l-10 -47l-7 -37q-75 -393 -450 -393h-184l47 246h106q96 0 149 35.5t72 128.5l9 41q6 35 6 55q0 129 -189 129q-147 0 -383 -62l-110 -573h-262l206 1071l13 70q9 39 20 55l-2 4q-21 -8 -57 -8h-549q-38 0 -51 8
l-6 -4q5 -19 -4 -55l-220 -1141h-262l279 1434h1173l-71 -363l-29 -149q-14 -70 -37 -109l4 -4q218 74 443 74z" />
    <glyph glyph-name="uni04A7" unicode="&#x4a7;" horiz-adv-x="1673" 
d="M977 -410l45 232h98q68 0 109.5 35t58.5 116l45 238q6 37 6 61q0 60 -32 85.5t-97 25.5q-85 0 -217 -45l-65 -338h-252l131 674q7 33 20 53l-2 2q-16 -8 -57 -8h-299q-41 0 -55 8l-2 -2q6 -25 0 -53l-133 -674h-250l184 946h897l-55 -295q-15 -73 -35 -100l4 -4
q156 67 293 67q140 0 212.5 -60.5t72.5 -199.5q0 -52 -17 -145l-55 -287q-31 -167 -132.5 -249.5t-258.5 -82.5h-162z" />
    <glyph glyph-name="uni04A8" unicode="&#x4a8;" horiz-adv-x="1685" 
d="M745 -31q-292 0 -461 174.5t-169 491.5q0 172 54.5 321t157.5 263t265.5 179.5t365.5 65.5q157 0 310 -43l-97 -235q-86 26 -206 26q-140 0 -249.5 -45t-176.5 -125t-101.5 -183t-34.5 -224q0 -194 80.5 -306.5t225.5 -129.5q61 -10 145 -19l2 4q-70 29 -106 95
q-66 114 -66 256q0 150 55.5 271.5t165 195t254.5 73.5q169 0 276 -100.5t107 -288.5q0 -134 -55.5 -248t-159.5 -200q-47 -42 -113 -64l3 -6q28 5 56.5 9t55.5 9q78 2 195 54l57 -197q-180 -74 -346 -74q-196 0 -234 68l-8 -2q-102 -66 -248 -66zM1044 236h5q3 11 7 20
t12 17.5t12 12t15.5 12.5t14.5 11q80 66 127 157t47 191q0 168 -137 168q-69 0 -116 -44.5t-66 -109t-19 -141.5q0 -129 58 -215q5 -9 14 -22t15.5 -26t10.5 -31z" />
    <glyph glyph-name="uni04A9" unicode="&#x4a9;" horiz-adv-x="1243" 
d="M496 -31q-197 0 -317 116.5t-120 336.5q0 253 165 404t442 151q129 0 239 -35l-76 -201q-86 23 -153 23q-168 0 -262.5 -95t-94.5 -251q0 -189 140 -246q42 -17 112 -22l2 4q-50 23 -75 63q-31 50 -31 125q0 146 97 247t261 101q128 0 208.5 -65.5t80.5 -190.5
q0 -137 -110 -252q-26 -26 -80 -57l2 -2q40 2 82 12q15 4 28.5 9.5t28.5 13t22 10.5l52 -145q-133 -54 -232 -54q-136 0 -164 58h-4q-116 -58 -243 -58zM758 166h4q4 23 43 49q45 28 71.5 77t26.5 107q0 54 -24.5 79.5t-65.5 25.5q-64 0 -98.5 -51.5t-34.5 -124.5
q0 -98 78 -162z" />
    <glyph glyph-name="uni04AA" unicode="&#x4aa;" horiz-adv-x="1419" 
d="M950 1206q-244 0 -399.5 -153.5t-155.5 -393.5q0 -198 116 -315t312 -117q177 0 357 111l123 -223q-243 -146 -494 -146h-4l-23 -39q76 -19 118 -49.5t42 -81.5q0 -96 -153 -176q-52 -27 -224 -94l-20 80q99 47 140.5 75t41.5 56q0 45 -111 70l93 165
q-271 29 -432.5 211.5t-161.5 464.5q0 176 63.5 327t175.5 258t270.5 167.5t342.5 60.5q299 0 512 -157l-158 -220q-171 119 -371 119z" />
    <glyph glyph-name="uni04AB" unicode="&#x4ab;" horiz-adv-x="991" 
d="M879 51q-152 -79 -304 -82l-22 -39q76 -19 118 -49.5t42 -81.5q0 -96 -153 -176q-52 -27 -224 -94l-21 80q100 48 141.5 75.5t41.5 55.5q0 45 -111 70l92 163q-191 23 -303.5 150t-112.5 321q0 241 155.5 387t410.5 146q207 0 383 -117l-135 -205q-125 88 -261 88
q-128 0 -209 -79.5t-81 -206.5q0 -114 69 -184t180 -70q101 0 213 59z" />
    <glyph glyph-name="uni04AC" unicode="&#x4ac;" horiz-adv-x="1087" 
d="M203 1434h1054l-47 -246h-346q-38 0 -51 8l-6 -4q4 -18 -2 -55l-187 -955h150l-92 -469h-246l57 287h-165l221 1137q6 38 16 55l-2 4q-19 -8 -55 -8h-346z" />
    <glyph glyph-name="uni04AD" unicode="&#x4ad;" horiz-adv-x="925" 
d="M1008 946l-45 -229h-277q-41 0 -55 8l-2 -2q6 -25 0 -53l-15 -68l-92 -465h160l-84 -424h-225l55 287h-184l118 602l15 68q8 37 20 53l-2 2q-18 -8 -59 -8h-279l45 229h906z" />
    <glyph glyph-name="uni04AE" unicode="&#x4ae;" horiz-adv-x="1234" 
d="M1421 1434l-659 -891l-107 -543h-262l107 543l-314 891h287l133 -457q26 -92 34 -131t9 -92h8q22 53 45 92t84 131l308 457h327z" />
    <glyph glyph-name="uni04AF" unicode="&#x4af;" horiz-adv-x="1038" 
d="M1124 946l-557 -813l-104 -543h-238l109 557l-236 799h269l86 -387q2 -11 8 -38.5t7.5 -36t5 -29t4 -33t0.5 -31t-1 -39.5h8q8 24 15.5 43.5t19.5 42.5t18 33.5t25.5 43t26.5 44.5l235 387h299z" />
    <glyph glyph-name="uni04B0" unicode="&#x4b0;" horiz-adv-x="1234" 
d="M766 539q16 8 55 8h213l-41 -209h-221q-37 0 -53 8l-4 -4q4 -19 -2 -57l-56 -285h-264l56 285q11 48 18 57l-4 4q-16 -8 -55 -8h-220l41 209h213q35 0 54 -8l4 4l-314 891h289l133 -453q26 -90 33.5 -129t7.5 -92h10q22 54 45 93t84 128l308 453h325l-659 -891z" />
    <glyph glyph-name="uni04B1" unicode="&#x4b1;" horiz-adv-x="1038" 
d="M582 147q18 9 57 9h203l-45 -228h-219q-40 0 -56 9l-2 -3q6 -25 0 -53l-57 -291h-238l58 291q8 37 20 53l-2 3q-20 -9 -59 -9h-215l43 228h204q40 0 58 -9l2 3l-236 796h269l86 -387q2 -11 8 -38.5t7.5 -36t5 -29t4 -33t0.5 -31t-1 -39.5h8q8 24 15.5 43.5t19.5 42.5
t18 33.5t25.5 43t26.5 44.5l235 387h299l-544 -796z" />
    <glyph glyph-name="uni04B2" unicode="&#x4b2;" horiz-adv-x="1458" 
d="M987 582l203 -400h192l-92 -469h-246l58 287h-129l-201 422q-42 95 -45 160h-8q-15 -45 -105 -160l-348 -422h-346l531 610q96 116 147 158v8q-7 10 -15.5 24.5t-15.5 28.5t-25 49.5t-34 65.5l-256 490h311l162 -347q28 -61 37 -90t12 -67h8q16 43 107 155l287 349h342
l-459 -521q-129 -145 -158 -165l-2 -9q21 -26 88 -157z" />
    <glyph glyph-name="uni04B3" unicode="&#x4b3;" horiz-adv-x="1165" 
d="M719 424l160 -287h194l-84 -424h-225l55 287h-135l-125 238q-20 36 -27.5 60.5t-7.5 59.5h-6q-20 -62 -78 -125l-211 -233h-305l414 451q44 48 70 59l2 6q-18 9 -45 53l-211 377h272l98 -178q21 -40 29 -66.5t8 -64.5h4q22 61 82 129l158 180h303l-371 -401
q-4 -5 -12.5 -14.5t-12.5 -13.5t-11 -10.5t-13.5 -10.5t-13.5 -7l-2 -6q11 -5 20 -15.5t13 -17t14 -26.5z" />
    <glyph glyph-name="uni04B4" unicode="&#x4b4;" horiz-adv-x="1693" 
d="M1421 233q21 9 58 9h123l-105 -527h-246l45 234q5 31 19 55l-4 4q-13 -8 -56 -8h-964l182 938l41 199q6 38 16 55l-4 4q-16 -8 -53 -8h-317l47 246h985l-49 -246h-305q-37 0 -50 8l-6 -4q4 -18 -2 -55l-41 -199l-125 -645q-5 -37 -20 -55l4 -5q21 9 57 9h465q38 0 53 -9
l5 5q-4 18 2 55l221 1141h262l-221 -1141q-5 -35 -21 -55z" />
    <glyph glyph-name="uni04B5" unicode="&#x4b5;" horiz-adv-x="1255" 
d="M1073 217q18 8 60 8h45l-99 -512h-229l47 240q7 30 21 53v2q-18 -8 -60 -8h-686l117 594l14 76q8 36 21 53l-2 2q-18 -8 -60 -8h-205l45 229h729l-45 -229h-174q-41 0 -55 8l-2 -2q6 -25 0 -53l-14 -76l-64 -322q-8 -37 -20 -53l2 -2q18 8 59 8h264q42 0 56 -8l2 2
q-6 25 0 53l131 674h252l-131 -674q-8 -36 -21 -53z" />
    <glyph glyph-name="uni04B6" unicode="&#x4b6;" horiz-adv-x="1304" 
d="M1323 1434l-244 -1252h152l-92 -469h-246l57 287h-166l90 475q15 75 35 109l-2 4q-204 -74 -399 -74q-190 0 -293.5 86.5t-103.5 259.5q0 66 20 172l78 402h264l-78 -385q-10 -68 -10 -107q0 -98 52.5 -136t150.5 -38q138 0 356 63l117 603h262z" />
    <glyph glyph-name="uni04B7" unicode="&#x4b7;" horiz-adv-x="1067" 
d="M864 223l-16 -86h127l-82 -424h-227l57 287h-154l43 223h2l13 68q12 69 32 100l-2 4q-162 -67 -305 -67q-144 0 -219.5 60t-75.5 192q0 58 15 125l47 241h250l-43 -223q-4 -40 -4 -53q0 -58 31 -84.5t93 -26.5q102 0 240 45l16 78l52 264h252l-52 -264z" />
    <glyph glyph-name="uni04B8" unicode="&#x4b8;" horiz-adv-x="1282" 
d="M1061 1434h262l-279 -1434h-260l90 475q15 75 35 109l-2 4q-134 -48 -262 -64l-47 -239h-111l45 229h-24q-190 0 -293.5 86.5t-103.5 259.5q0 66 20 172l78 402h264l-78 -385q-10 -68 -10 -107q0 -96 51 -134t146 -40l59 303h111l-58 -295q100 11 250 55z" />
    <glyph glyph-name="uni04B9" unicode="&#x4b9;" horiz-adv-x="1032" 
d="M754 946h252l-52 -264l-90 -459l-43 -223h-252l43 223h2l13 68q12 69 32 100l-2 4q-90 -37 -176 -55l-30 -160h-62l29 152q-46 -4 -66 -4q-144 0 -219.5 60t-75.5 192q0 58 15 125l47 241h250l-43 -223q-4 -40 -4 -53q0 -58 31 -84.5t93 -26.5h15l39 199h61l-37 -193
q90 14 162 39l16 78z" />
    <glyph glyph-name="uni04BA" unicode="&#x4ba;" horiz-adv-x="1282" 
d="M592 1434l-90 -476q-14 -73 -35 -108l2 -4q204 74 399 74q190 0 294 -87t104 -260q0 -61 -21 -172l-78 -401h-264l76 385q12 61 12 107q0 98 -52.5 136t-150.5 38q-134 0 -356 -64l-117 -602h-262l279 1434h260z" />
    <glyph glyph-name="uni04BB" unicode="&#x4bb;" horiz-adv-x="1142" 
d="M563 1464l-92 -475q-28 -136 -68 -239l7 -2q70 121 155 175t205 54q145 0 221 -78t76 -227q0 -64 -18 -154l-105 -518h-252l99 494q10 44 10 92q0 82 -44.5 125t-127.5 43q-104 0 -167.5 -73t-94.5 -230l-88 -451h-250l284 1464h250z" />
    <glyph glyph-name="uni04BC" unicode="&#x4bc;" horiz-adv-x="1943" 
d="M1149 -31q-129 0 -240.5 31.5t-191.5 85t-139 126t-90 154.5t-37 169q-5 37 8 69l-4 4q-25 -14 -78 -14q-122 0 -197.5 65.5t-75.5 196.5q0 54 15 125h227q-6 -54 -6 -59q0 -48 22 -69.5t68 -23.5q27 -2 34.5 -3.5t16.5 -10.5l6 4q-1 15 9 66q23 89 67.5 171.5t114.5 157
t157.5 130t203.5 88t247 32.5q296 0 474.5 -157t178.5 -424q0 -133 -36 -289h-1086q-50 0 -92 16l-2 -6q11 -29 14 -76q6 -123 119 -213t299 -90q136 0 248.5 47t226.5 127l127 -229q-288 -201 -608 -201zM748 815q43 14 108 14h707q75 0 106 -14l6 4q-7 23 -10 82
q-7 153 -112.5 233t-276.5 80q-96 0 -176 -23.5t-128.5 -55.5t-88.5 -80t-57.5 -80.5t-34.5 -73.5q-7 -17 -9.5 -23t-5.5 -13t-6 -10.5t-5 -7t-8.5 -11.5t-11.5 -15z" />
    <glyph glyph-name="uni04BD" unicode="&#x4bd;" horiz-adv-x="1355" 
d="M803 -31q-215 0 -346.5 110t-139.5 296q-2 27 7 51l-2 2q-34 -12 -68 -12q-103 0 -158 50t-55 142q0 59 43 129h174q-39 -59 -39 -102q0 -48 66 -51q31 0 51 -13l4 4q-3 26 12 60q68 166 200 254t316 88q204 0 321.5 -103t117.5 -284q0 -58 -25 -174h-610q-86 0 -115 20
l-6 -6l4 -16v-23q2 -95 68.5 -149t183.5 -54q78 0 150 26.5t155 86.5l109 -184q-106 -78 -204.5 -113t-213.5 -35zM580 565q25 19 94 19h289q75 0 92 -17l6 4v19q0 94 -53 142t-156 48q-210 0 -277 -211z" />
    <glyph glyph-name="uni04BE" unicode="&#x4be;" horiz-adv-x="1943" 
d="M817 594q-50 0 -92 16l-2 -6q11 -29 14 -76q6 -123 119 -213t299 -90q136 0 248.5 47t226.5 127l127 -229q-168 -115 -325 -160q-106 -77 -155.5 -128t-49.5 -87q0 -20 15.5 -31.5t41.5 -11.5q32 0 84 10v-147q-106 -25 -149 -25q-80 0 -127.5 36.5t-47.5 103.5
q0 63 43.5 119.5t133.5 121.5q-25 -2 -72 -2q-129 0 -240.5 31.5t-191.5 85t-139 126t-90 154.5t-37 169q-5 37 8 69l-4 4q-25 -14 -78 -14q-122 0 -197.5 65.5t-75.5 196.5q0 54 15 125h227q-6 -54 -6 -59q0 -48 22 -69.5t68 -23.5q27 -2 34.5 -3.5t16.5 -10.5l6 4
q-1 15 9 66q23 89 67.5 171.5t114.5 157t157.5 130t203.5 88t247 32.5q296 0 474.5 -157t178.5 -424q0 -133 -36 -289h-1086zM791 901q-7 -17 -9.5 -23t-5.5 -13t-6 -10.5t-5 -7t-8.5 -11.5t-11.5 -15l3 -6q43 14 108 14h707q75 0 106 -14l6 4q-7 23 -10 82
q-7 153 -112.5 233t-276.5 80q-96 0 -176 -23.5t-128.5 -55.5t-88.5 -80t-57.5 -80.5t-34.5 -73.5z" />
    <glyph glyph-name="uni04BF" unicode="&#x4bf;" horiz-adv-x="1355" 
d="M670 416q-88 0 -113 20l-6 -6l4 -16v-23q2 -95 68.5 -149t183.5 -54q78 0 150 26.5t153 86.5l109 -184q-79 -59 -166 -99h2q-115 -81 -168 -134.5t-53 -90.5q0 -43 59 -43q30 0 82 10l2 -147q-110 -25 -152 -25q-80 0 -127 36t-47 104q0 63 43 119.5t133 121.5h-24
q-215 0 -347 110t-141 296q-2 28 9 51l-5 2q-35 -12 -65 -12q-103 0 -158.5 50t-54.5 142q0 59 43 129h174q-39 -59 -39 -102q0 -48 64 -51q22 0 30 -2t21 -11l4 4q0 25 12 60q69 166 201.5 254t316.5 88q204 0 321.5 -103t117.5 -284q0 -58 -25 -174h-612zM852 780
q-213 0 -277 -211l3 -4q25 19 94 19h291q75 0 92 -17l4 4v19q0 190 -207 190z" />
    <glyph glyph-name="uni04C0" unicode="&#x4c0;" horiz-adv-x="548" 
d="M592 1434l-279 -1434h-260l279 1434h260z" />
    <glyph glyph-name="uni04C1" unicode="&#x4c1;" horiz-adv-x="1949" 
d="M1180 1481q-134 0 -204.5 59t-70.5 164q0 33 6 63h164q-4 -20 -4 -45q0 -48 29.5 -75t89.5 -27q131 0 158 147h172q-31 -146 -113.5 -216t-226.5 -70zM1976 1442q52 0 123 -6l-47 -238q-58 4 -67 4q-101 0 -138 -82l-73 -174q-46 -108 -120.5 -145t-238.5 -45v-4
q77 -2 123 -11.5t79.5 -34t47.5 -66.5t16 -110l7 -161q3 -66 29.5 -93.5t80.5 -27.5q24 0 74 4l-49 -254q-71 -8 -129 -8q-114 0 -178.5 61.5t-67.5 206.5l-8 223q-1 89 -40 122.5t-138 33.5h-72q-44 0 -60 8l-4 -4q7 -27 -4 -74l-108 -567h-260l108 567q9 45 27 74l-4 4
q-16 -8 -60 -8h-82q-81 0 -128 -34t-83 -122l-110 -264q-49 -117 -137.5 -172t-223.5 -55q-52 0 -120 8l51 254q46 -4 67 -4q60 0 97.5 26.5t66.5 90.5l80 190q43 110 112.5 151.5t227.5 45.5v4q-157 8 -212.5 45t-61.5 149l-13 170q-3 47 -31 64.5t-75 17.5q-8 0 -74 -4
l47 238q71 6 119 6q115 0 171.5 -43.5t66.5 -153.5l20 -223q8 -81 49.5 -117.5t136.5 -36.5h82q42 0 58 -8l4 4q-3 28 4 74l98 496h260l-96 -496q-10 -50 -27 -74l2 -4q20 8 64 8h82q83 0 134 37t87 117l104 225q47 108 128 151.5t206 43.5z" />
    <glyph glyph-name="uni04C2" unicode="&#x4c2;" horiz-adv-x="1503" 
d="M870 1012q-129 0 -204.5 64t-75.5 177q0 38 8 74h160q-2 -14 -2 -41q0 -117 118 -117q139 0 175 158h165q-26 -152 -117 -233.5t-227 -81.5zM1415 952h131l-41 -204h-39q-42 0 -66 -14t-46 -50l-47 -78q-30 -55 -81 -80.5t-145 -29.5l-2 -4q97 -3 139.5 -30t51.5 -91
l16 -111q6 -36 21 -48.5t51 -12.5h41l-41 -205h-127q-68 0 -107.5 31.5t-46.5 91.5l-20 157q-8 65 -32.5 93t-88.5 28h-27q-47 0 -63 4l-2 -2q3 -37 -6 -86l-62 -311h-231l63 311q10 50 27 86l-2 2q-16 -4 -64 -4h-28q-50 0 -81.5 -28.5t-62.5 -92.5l-78 -157
q-29 -58 -86 -90.5t-131 -32.5h-145l41 205h41q40 0 61.5 12t44.5 49l56 111q32 63 82 90.5t147 30.5l2 4q-94 4 -134 29t-52 81l-15 74q-9 39 -27.5 53.5t-60.5 14.5h-39l41 204h129q64 0 99 -24t47 -80l37 -152q8 -32 13.5 -46t17.5 -30.5t32 -22t51 -5.5h29q48 0 64 -4
l2 2q-3 35 6 82l57 274h232l-56 -274q-8 -47 -26 -82l2 -2q16 4 63 4h29q25 0 42 5t34 23t25 29.5t30 46.5l94 152q65 104 217 104z" />
    <glyph glyph-name="uni04C3" unicode="&#x4c3;" horiz-adv-x="1302" 
d="M1319 1442q57 0 117 -8l-45 -240q-46 6 -68 6q-55 0 -87.5 -18.5t-53.5 -63.5l-78 -170q-36 -83 -108 -125t-205 -61v-4q223 -5 338.5 -84t115.5 -248q0 -54 -12 -119l-62 -313q-73 -404 -440 -404h-180l47 248h125q75 0 123 41t69 141l56 287q8 39 8 80
q0 133 -115.5 189.5t-371.5 56.5q-48 0 -60 6l-4 -4q7 -24 -4 -74l-109 -561h-262l279 1434h262l-100 -514q-12 -50 -25 -72l2 -4q20 8 64 8h114q78 0 133.5 43t98.5 147l90 205q46 103 127.5 149t220.5 46z" />
    <glyph glyph-name="uni04C4" unicode="&#x4c4;" horiz-adv-x="1054" 
d="M344 -410l45 232h98q72 0 113.5 35t58.5 116l35 174q11 56 11 80q0 161 -218 164l-75 2q-48 0 -64 4l-2 -2q3 -37 -6 -86l-61 -309h-250l184 946h250l-53 -274q-7 -36 -27 -82l2 -2q16 4 66 4h55q54 0 82.5 22.5t64.5 81.5l95 152q34 54 82 79t120 25h131l-41 -209h-30
q-44 0 -69.5 -13t-45.5 -46l-47 -78q-33 -56 -86.5 -80.5t-153.5 -27.5l-2 -9q344 0 344 -251q0 -37 -14 -111l-43 -227q-30 -149 -133.5 -229.5t-272.5 -80.5h-143z" />
    <glyph glyph-name="uni04C5" unicode="&#x4c5;" horiz-adv-x="1619" 
d="M1481 858l-129 -668h204l-249 -477h-211l131 287h-176l223 1141q10 45 18 55l-2 4q-19 -8 -55 -8h-500q-37 0 -53 8l-6 -4q7 -16 -2 -55l-53 -275l-99 -510q-37 -194 -133.5 -280t-284.5 -86q-87 0 -153 10l47 244q45 -6 123 -6q59 0 92.5 32.5t50.5 112.5l205 1051h1122
z" />
    <glyph glyph-name="uni04C6" unicode="&#x4c6;" horiz-adv-x="1230" 
d="M967 190h200l-249 -477h-213l133 287h-160l131 674q7 33 20 53l-2 2q-16 -8 -57 -8h-240q-41 0 -57 8l-2 -2q7 -20 0 -53l-20 -115l-54 -276q-26 -139 -117 -213t-241 -74h-111l43 223h56q58 0 90 35.5t49 120.5l37 184l73 387h838z" />
    <glyph glyph-name="uni04C7" unicode="&#x4c7;" horiz-adv-x="1482" 
d="M678 -410l49 250h90q132 0 164 164l113 580q10 43 18 57l-2 4q-23 -10 -55 -10h-563q-34 0 -54 10l-4 -4q4 -21 -4 -57l-113 -584h-264l279 1434h264l-98 -502q-5 -35 -19 -58l4 -4q21 9 56 9h563q36 0 51 -9l4 4q-4 21 4 58l99 502h264l-283 -1448q-22 -114 -63 -192
t-102.5 -122t-134 -63t-167.5 -19h-96z" />
    <glyph glyph-name="uni04C8" unicode="&#x4c8;" horiz-adv-x="1148" 
d="M870 946h252l-184 -946h-2l-23 -115q-59 -299 -368 -299h-123l43 228h80q56 0 84.5 23.5t40.5 84.5l14 78h2l68 350q8 37 20 53l-2 3q-20 -9 -59 -9h-307q-40 0 -56 9l-2 -3q6 -25 0 -53l-69 -350h-250l184 946h250l-53 -284q-7 -33 -23 -54l2 -2q18 8 60 8h307
q41 0 55 -8l2 2q-5 21 2 54z" />
    <glyph glyph-name="uni04C9" unicode="&#x4c9;" horiz-adv-x="1546" 
d="M1524 1434l-242 -1244h199l-250 -477h-211l131 287h-170l113 584q10 43 18 57l-2 4q-23 -10 -55 -10h-563q-34 0 -54 10l-4 -4q4 -21 -4 -57l-113 -584h-264l279 1434h264l-98 -502q-5 -35 -19 -58l4 -4q21 9 56 9h563q36 0 51 -9l4 4q-4 21 4 58l99 502h264z" />
    <glyph glyph-name="uni04CA" unicode="&#x4ca;" horiz-adv-x="1239" 
d="M975 190h199l-250 -477h-211l131 287h-158l68 350q8 37 20 53l-2 3q-20 -9 -59 -9h-307q-40 0 -56 9l-2 -3q6 -25 0 -53l-69 -350h-250l184 946h250l-53 -284q-7 -33 -23 -54l2 -2q18 8 60 8h307q41 0 55 -8l2 2q-5 21 2 54l55 284h252z" />
    <glyph glyph-name="uni04CB" unicode="&#x4cb;" horiz-adv-x="1282" 
d="M1323 1434l-279 -1434h-167l-58 -287h-246l93 469h153l55 293q15 75 35 109l-2 4q-204 -74 -399 -74q-190 0 -293.5 86.5t-103.5 259.5q0 66 20 172l78 402h264l-78 -385q-10 -68 -10 -107q0 -98 52.5 -136t150.5 -38q138 0 356 63l117 603h262z" />
    <glyph glyph-name="uni04CC" unicode="&#x4cc;" horiz-adv-x="1032" 
d="M754 946h252l-52 -264l-90 -459l-43 -223h-159l-58 -287h-225l82 424h135l16 86h2l13 68q12 69 32 100l-2 4q-162 -67 -305 -67q-144 0 -219.5 60t-75.5 192q0 58 15 125l47 241h250l-43 -223q-4 -40 -4 -53q0 -58 31 -84.5t93 -26.5q102 0 240 45l16 78z" />
    <glyph glyph-name="uni04CD" unicode="&#x4cd;" horiz-adv-x="2013" 
d="M1753 190h197l-250 -477h-213l131 287h-94l-90 686q-13 99 2 205h-6q-31 -93 -101 -201l-450 -704h-35l-182 704q-26 103 -23 201h-6q-33 -125 -72 -205l-342 -686h-299l758 1454h43l203 -840q14 -60 8 -155h8q26 87 66 155l524 840h45z" />
    <glyph glyph-name="uni04CE" unicode="&#x4ce;" horiz-adv-x="1552" 
d="M1282 190h207l-250 -477h-211l131 287h-92l-61 342q-17 95 -11 150h-6q-6 -18 -15.5 -35.5t-16 -28t-25.5 -38t-29 -42.5l-241 -362h-66l-102 362q-4 16 -12 42.5t-10.5 38t-5 28.5t-1.5 35h-6q-3 -13 -7.5 -25.5t-8 -21.5t-11 -24t-11 -21.5t-14.5 -27.5t-16 -30
l-190 -342h-287l559 961h64l133 -453q20 -68 22 -113h4q14 33 64 113l299 453h65z" />
    <glyph glyph-name="uni04CF" unicode="&#x4cf;" horiz-adv-x="491" 
d="M463 946l-184 -946h-250l184 946h250z" />
    <glyph glyph-name="uni04D0" unicode="&#x4d0;" horiz-adv-x="1452" 
d="M1272 1769q-31 -146 -113.5 -216t-226.5 -70q-134 0 -204.5 59t-70.5 164q0 28 7 63h163q-4 -20 -4 -45q0 -48 29.5 -75t89.5 -27q131 0 158 147h172zM-80 0l977 1462h43l408 -1462h-271l-90 340h-541l-217 -340h-309zM555 541q30 6 107 6h190q72 0 102 -6l4 2
q-28 40 -43 106l-47 221q-20 101 -14 156h-10q-12 -51 -76 -156l-131 -221q-45 -72 -84 -106z" />
    <glyph glyph-name="uni04D1" unicode="&#x4d1;" horiz-adv-x="1062" 
d="M647 1012q-129 0 -204.5 64t-75.5 177q0 38 8 74h160q-3 -21 -3 -41q0 -117 119 -117q138 0 174 158h166q-26 -152 -117 -233.5t-227 -81.5zM354 -29q-150 0 -242 87.5t-92 230.5q0 157 100.5 249.5t270.5 92.5q121 0 208.5 -53.5t127.5 -151.5l6 2q-9 58 2 119
q10 72 10 90q0 64 -44 94.5t-138 30.5q-123 0 -295 -35l-35 209q204 39 383 39q192 0 282 -72t87 -223q0 -34 -14 -127l-105 -553h-252q16 89 60 156l-8 6q-65 -101 -138 -146t-174 -45zM459 164q82 0 137 43t55 106q0 61 -54 101.5t-134 40.5q-78 0 -125 -41.5t-47 -110.5
q0 -63 46 -101t122 -38z" />
    <glyph glyph-name="uni04D2" unicode="&#x4d2;" horiz-adv-x="1452" 
d="M678 1761h209l-47 -239h-209zM1059 1761h209l-47 -239h-209zM-80 0l977 1462h43l408 -1462h-271l-90 340h-541l-217 -340h-309zM555 541q30 6 107 6h190q72 0 102 -6l4 2q-28 40 -43 106l-47 221q-20 101 -14 156h-10q-12 -51 -76 -156l-131 -221q-45 -72 -84 -106z" />
    <glyph glyph-name="uni04D3" unicode="&#x4d3;" horiz-adv-x="1062" 
d="M623 1319l-52 -260h-206l51 260h207zM975 1319l-49 -260h-209l51 260h207zM354 -29q-150 0 -242 87.5t-92 230.5q0 157 100.5 249.5t270.5 92.5q121 0 208.5 -53.5t127.5 -151.5l6 2q-9 58 2 119q10 72 10 90q0 64 -44 94.5t-138 30.5q-123 0 -295 -35l-35 209
q204 39 383 39q192 0 282 -72t87 -223q0 -34 -14 -127l-105 -553h-252q16 89 60 156l-8 6q-65 -101 -138 -146t-174 -45zM459 164q82 0 137 43t55 106q0 61 -54 101.5t-134 40.5q-78 0 -125 -41.5t-47 -110.5q0 -63 46 -101t122 -38z" />
    <glyph glyph-name="uni04D4" unicode="&#x4d4;" horiz-adv-x="1853" 
d="M1493 1194q-38 0 -51 8l-6 -4q7 -17 -2 -57l-39 -201q-9 -43 -21 -57l4 -4q19 8 56 8h428l-47 -238h-429q-35 0 -51 8l-4 -4q2 -11 -4 -57l-59 -303q-5 -34 -19 -57l2 -5q21 9 58 9h487l-47 -240h-782l55 287q10 44 20 57l-2 4q-19 -8 -57 -8h-465l-282 -340h-316
l1223 1434h874l-45 -240h-479zM1083 600l91 453q11 68 43 159h-5q-48 -88 -104 -157l-356 -428q-48 -60 -99 -88l2 -4q43 12 115 12h254q38 0 51 -8l6 4q-5 12 2 57z" />
    <glyph glyph-name="uni04D5" unicode="&#x4d5;" horiz-adv-x="1757" 
d="M1210 -31q-297 0 -395 224h-2q-69 -109 -176.5 -165.5t-245.5 -56.5q-177 0 -274 86t-97 236q0 148 97.5 243t271.5 95q253 0 340 -205l6 2q-9 48 2 119q1 12 6 44t5 46q0 125 -183 125q-126 0 -295 -35l-37 209q192 39 369 39q132 0 207.5 -43.5t95.5 -143.5h6
q55 88 153.5 138.5t225.5 50.5q191 0 303.5 -104.5t112.5 -282.5q0 -74 -25 -174h-596q-84 0 -114 20l-6 -6l4 -16v-23q2 -89 62.5 -146t182.5 -57q85 0 153.5 29.5t143.5 83.5l109 -184q-94 -71 -190.5 -109.5t-219.5 -38.5zM993 565q27 19 94 19h277q75 0 90 -17l6 4v19
q0 94 -51 142t-149 48q-205 0 -271 -211zM459 164q85 0 138.5 44t53.5 105q0 62 -53 102t-135 40q-86 0 -129 -44t-43 -106q0 -68 47.5 -104.5t120.5 -36.5z" />
    <glyph glyph-name="uni04D6" unicode="&#x4d6;" horiz-adv-x="1083" 
d="M1147 1767q-31 -146 -113.5 -216t-226.5 -70q-134 0 -204.5 59t-70.5 164q0 28 7 63h163q-4 -20 -4 -45q0 -48 29.5 -75t89.5 -27q131 0 158 147h172zM1180 1434l-47 -240h-537q-31 0 -51 10l-6 -4q7 -17 -2 -57l-39 -203q-5 -34 -19 -57l2 -4q19 8 58 8h473l-45 -238
h-475q-34 0 -54 10l-4 -4q5 -12 -2 -57l-59 -307q-10 -44 -21 -58l4 -4q22 11 56 11h544l-47 -240h-856l279 1434h848z" />
    <glyph glyph-name="uni04D7" unicode="&#x4d7;" horiz-adv-x="1101" 
d="M680 1012q-129 0 -205 64t-76 177q0 33 9 74h159q-2 -14 -2 -41q0 -117 119 -117q138 0 174 158h166q-26 -152 -117 -233.5t-227 -81.5zM547 -31q-227 0 -357.5 120t-130.5 329q0 246 156 402.5t401 156.5q203 0 320 -103.5t117 -283.5q0 -58 -25 -174h-612
q-88 0 -113 20l-6 -6l4 -16v-23q2 -95 68.5 -149t183.5 -54q78 0 150 26.5t153 86.5l109 -184q-104 -78 -203 -113t-215 -35zM324 565q25 19 94 19h291q75 0 94 -19l6 4q-4 6 -4 21q0 190 -207 190q-212 0 -276 -211z" />
    <glyph glyph-name="uni04D8" unicode="&#x4d8;" horiz-adv-x="1597" 
d="M883 1464q155 0 282.5 -42.5t220 -124.5t143 -208.5t50.5 -287.5q0 -172 -55 -322.5t-156.5 -264t-258 -179.5t-347.5 -66q-307 0 -485.5 159t-178.5 454q0 101 41 258h1080q47 0 90 -17l4 6q-13 36 -13 76q-9 132 -128 217.5t-300 85.5q-69 0 -133.5 -13.5t-123.5 -41
t-99.5 -51t-95.5 -60.5l-127 224q271 198 590 198zM1282 616q-35 -10 -106 -10h-705q-76 0 -115 10l-6 -4q15 -34 17 -86q3 -67 28 -120t63 -87t90 -56.5t105.5 -32t112.5 -9.5q357 0 481 309q8 24 12 33.5t13 24.5t14 24z" />
    <glyph glyph-name="uni04D9" unicode="&#x4d9;" horiz-adv-x="1101" 
d="M555 977q227 0 357 -120t130 -329q0 -246 -156 -402.5t-401 -156.5q-203 0 -319.5 103.5t-116.5 283.5q0 58 25 174h612q84 0 113 -20l6 6l-4 16v23q-2 95 -68.5 149t-183.5 54q-78 0 -150 -26.5t-153 -86.5l-111 184q106 78 205 113t215 35zM778 381q-28 -19 -94 -19
h-291q-75 0 -94 19l-6 -4q4 -6 4 -21q0 -190 207 -190q209 0 276 211z" />
    <glyph glyph-name="uni04DA" unicode="&#x4da;" horiz-adv-x="1597" 
d="M694 1761h209l-47 -239h-209zM1075 1761h209l-47 -239h-209zM883 1464q155 0 282.5 -42.5t220 -124.5t143 -208.5t50.5 -287.5q0 -172 -55 -322.5t-156.5 -264t-258 -179.5t-347.5 -66q-307 0 -485.5 159t-178.5 454q0 101 41 258h1080q47 0 90 -17l4 6q-13 36 -13 76
q-9 132 -128 217.5t-300 85.5q-69 0 -133.5 -13.5t-123.5 -41t-99.5 -51t-95.5 -60.5l-127 224q271 198 590 198zM1282 616q-35 -10 -106 -10h-705q-76 0 -115 10l-6 -4q15 -34 17 -86q3 -67 28 -120t63 -87t90 -56.5t105.5 -32t112.5 -9.5q357 0 481 309q8 24 12 33.5
t13 24.5t14 24z" />
    <glyph glyph-name="uni04DB" unicode="&#x4db;" horiz-adv-x="1101" 
d="M623 1319l-52 -260h-206l51 260h207zM975 1319l-49 -260h-209l51 260h207zM555 977q227 0 357 -120t130 -329q0 -246 -156 -402.5t-401 -156.5q-203 0 -319.5 103.5t-116.5 283.5q0 58 25 174h612q84 0 113 -20l6 6l-4 16v23q-2 95 -68.5 149t-183.5 54q-78 0 -150 -26.5
t-153 -86.5l-111 184q106 78 205 113t215 35zM778 381q-28 -19 -94 -19h-291q-75 0 -94 19l-6 -4q4 -6 4 -21q0 -190 207 -190q209 0 276 211z" />
    <glyph glyph-name="uni04DC" unicode="&#x4dc;" horiz-adv-x="1949" 
d="M1135 1761l-48 -239h-208l47 239h209zM1516 1761l-48 -239h-208l47 239h209zM1976 1442q52 0 123 -6l-47 -238q-58 4 -67 4q-101 0 -138 -82l-73 -174q-46 -108 -120.5 -145t-238.5 -45v-4q77 -2 123 -11.5t79.5 -34t47.5 -66.5t16 -110l7 -161q3 -66 29.5 -93.5
t80.5 -27.5q24 0 74 4l-49 -254q-71 -8 -129 -8q-114 0 -178.5 61.5t-67.5 206.5l-8 223q-1 89 -40 122.5t-138 33.5h-72q-44 0 -60 8l-4 -4q7 -27 -4 -74l-108 -567h-260l108 567q9 45 27 74l-4 4q-16 -8 -60 -8h-82q-81 0 -128 -34t-83 -122l-110 -264
q-49 -117 -137.5 -172t-223.5 -55q-52 0 -120 8l51 254q46 -4 67 -4q60 0 97.5 26.5t66.5 90.5l80 190q43 110 112.5 151.5t227.5 45.5v4q-157 8 -212.5 45t-61.5 149l-13 170q-3 47 -31 64.5t-75 17.5q-8 0 -74 -4l47 238q71 6 119 6q115 0 171.5 -43.5t66.5 -153.5
l20 -223q8 -81 49.5 -117.5t136.5 -36.5h82q42 0 58 -8l4 4q-3 28 4 74l98 496h260l-96 -496q-10 -50 -27 -74l2 -4q20 8 64 8h82q83 0 134 37t87 117l104 225q47 108 128 151.5t206 43.5z" />
    <glyph glyph-name="uni04DD" unicode="&#x4dd;" horiz-adv-x="1503" 
d="M844 1319l-51 -260h-207l51 260h207zM1196 1319l-49 -260h-209l51 260h207zM1415 952h131l-41 -204h-39q-42 0 -66 -14t-46 -50l-47 -78q-30 -55 -81 -80.5t-145 -29.5l-2 -4q97 -3 139.5 -30t51.5 -91l16 -111q6 -36 21 -48.5t51 -12.5h41l-41 -205h-127
q-68 0 -107.5 31.5t-46.5 91.5l-20 157q-8 65 -32.5 93t-88.5 28h-27q-47 0 -63 4l-2 -2q3 -37 -6 -86l-62 -311h-231l63 311q10 50 27 86l-2 2q-16 -4 -64 -4h-28q-50 0 -81.5 -28.5t-62.5 -92.5l-78 -157q-29 -58 -86 -90.5t-131 -32.5h-145l41 205h41q40 0 61.5 12
t44.5 49l56 111q32 63 82 90.5t147 30.5l2 4q-94 4 -134 29t-52 81l-15 74q-9 39 -27.5 53.5t-60.5 14.5h-39l41 204h129q64 0 99 -24t47 -80l37 -152q8 -32 13.5 -46t17.5 -30.5t32 -22t51 -5.5h29q48 0 64 -4l2 2q-3 35 6 82l57 274h232l-56 -274q-8 -47 -26 -82l2 -2
q16 4 63 4h29q25 0 42 5t34 23t25 29.5t30 46.5l94 152q65 104 217 104z" />
    <glyph glyph-name="uni04DE" unicode="&#x4de;" horiz-adv-x="1243" 
d="M545 1761h209l-47 -239h-209zM926 1761h209l-48 -239h-208zM532 -31q-298 0 -530 117l135 238q204 -101 406 -101q158 0 231.5 56.5t73.5 148.5q0 95 -64.5 142.5t-179.5 47.5h-205l50 254h204q126 0 196.5 54.5t70.5 146.5q0 73 -51 107t-160 34q-200 0 -398 -73
l-78 237q266 86 510 86q222 0 342.5 -85.5t120.5 -254.5q0 -134 -71.5 -215t-227.5 -129q-67 -21 -155 -24l-2 -8q82 0 139 -13q114 -28 174.5 -109t60.5 -206q0 -67 -17.5 -128.5t-60.5 -121.5t-108.5 -103.5t-169.5 -70.5t-236 -27z" />
    <glyph glyph-name="uni04DF" unicode="&#x4df;" horiz-adv-x="937" 
d="M555 1319l-51 -260h-207l51 260h207zM907 1319l-49 -260h-209l51 260h207zM387 -31q-236 0 -399 80l92 201q152 -70 305 -70q195 0 195 115q0 54 -39.5 79t-124.5 25h-183l37 183h185q74 0 111.5 28t37.5 74q0 43 -34 62.5t-103 19.5q-137 0 -291 -57l-63 198
q203 70 411 70q365 0 365 -232q0 -99 -75 -164.5t-249 -76.5v-4q131 -6 201 -63t70 -163q0 -48 -14 -91t-47 -83t-83.5 -68.5t-128.5 -45.5t-176 -17z" />
    <glyph glyph-name="uni04E0" unicode="&#x4e0;" horiz-adv-x="1198" 
d="M512 -31q-142 0 -275.5 32.5t-234.5 92.5l133 236q105 -51 195.5 -78t191.5 -27q150 0 227.5 59.5t77.5 159.5t-78.5 147.5t-242.5 47.5h-141l41 207l468 368l-2 7q-72 -27 -163 -27h-414l47 240h909l-45 -228l-542 -397l2 -6q60 24 112 24q144 0 236 -97.5t92 -272.5
q0 -73 -17 -139t-60 -131t-108.5 -112.5t-170.5 -76.5t-238 -29z" />
    <glyph glyph-name="uni04E1" unicode="&#x4e1;" horiz-adv-x="917" 
d="M254 -440q-247 0 -447 106l113 221q178 -90 350 -90q148 0 217.5 59t69.5 154q0 197 -313 197h-129l39 194l444 340l-2 7q-65 -27 -164 -27h-352l45 225h807l-43 -227l-492 -354v-7q60 25 111 25q137 0 223 -95.5t86 -254.5q0 -69 -16.5 -133t-57.5 -127t-103.5 -109.5
t-161.5 -75t-224 -28.5z" />
    <glyph glyph-name="uni04E2" unicode="&#x4e2;" horiz-adv-x="1495" 
d="M694 1706h631l-33 -162h-628zM1499 1454h43l-282 -1454h-263l133 680q34 180 70 254l-6 2q-50 -75 -133 -145l-971 -811h-41l283 1454h260l-131 -680q-37 -183 -72 -254l6 -2q57 82 133 145z" />
    </font>
</defs>
</svg>
