<?xml version="1.0" standalone="no"?>
<!DOCTYPE svg PUBLIC "-//W3C//DTD SVG 1.1//EN" "http://www.w3.org/Graphics/SVG/1.1/DTD/svg11.dtd" >
<svg xmlns="http://www.w3.org/2000/svg" xmlns:xlink="http://www.w3.org/1999/xlink" version="1.1">
<metadata>
Created by FontForge 20170731 at Sat Jul 23 01:52:14 2022
 By Aleksey,,,
Copyright (c) 2015 by Reto Moser. All rights reserved.
</metadata>
<defs>
<font id="GTEestiProText-Medium" horiz-adv-x="1228" >
  <font-face 
    font-family="GT Eesti Pro Text Medium"
    font-weight="500"
    font-stretch="normal"
    units-per-em="2048"
    panose-1="0 0 6 0 0 0 0 0 0 0"
    ascent="1536"
    descent="-512"
    x-height="946"
    cap-height="1434"
    bbox="-874 -516 2310 1800"
    underline-thickness="102"
    underline-position="-307"
    unicode-range="U+000D-FB02"
  />
<missing-glyph horiz-adv-x="1576" 
d="M788 -31q-213 0 -384 96.5t-267 267.5t-96 384q0 160 56.5 299t155 237.5t237 154.5t298.5 56q214 0 385 -95.5t267 -266.5t96 -385q0 -213 -96 -384t-267 -267.5t-385 -96.5zM788 20q149 0 279 53.5t223 146.5t146 224.5t53 282.5l-105 133l-143 -61l-139 184l-162 -90
l-152 242l-151 -242l-162 90l-139 -184l-143 61l-105 -133q0 -201 90.5 -363t250.5 -253t359 -91zM578 651q-31 0 -51.5 20.5t-20.5 51.5t20.5 51.5t51.5 20.5t51 -20.5t20 -51.5t-20 -51.5t-51 -20.5zM997 651q-31 0 -51 20.5t-20 51.5t20 51.5t51 20.5t51.5 -20.5
t20.5 -51.5t-20.5 -51.5t-51.5 -20.5zM702 522l74 207q1 7 8.5 10t14.5 0q6 -2 9.5 -8.5t0.5 -13.5l-57 -160h69q8 0 13.5 -5.5t5.5 -12.5q0 -6 -6 -11.5t-13 -5.5h-119zM385 350q-61 0 -101 40t-40 102t40 101.5t101 39.5t101 -39.5t40 -101.5t-40 -102t-101 -40zM1190 350
q-61 0 -101 40t-40 102t39.5 101.5t101.5 39.5t101.5 -39.5t39.5 -101.5t-40 -102t-101 -40zM788 395q-95 0 -126 -61q-6 -12 -19 -12q-16 0 -16 18q0 35 49.5 63.5t111.5 28.5t112 -28.5t50 -63.5q0 -18 -16 -18q-13 0 -19 12q-31 61 -127 61z" />
    <glyph glyph-name="fi" unicode="fi" horiz-adv-x="1189" 
d="M659 1452v-231h-18q-96 0 -140 -39t-44 -135v-43q-4 -53 -11 -70l5 -4q21 16 88 16h120v-223h-120q-67 0 -88 14l-5 -4q11 -34 11 -115v-618h-252v618q0 84 10 115l-4 4q-21 -14 -88 -14h-84v223h84q67 0 88 -16l4 4q-5 13 -10 67v35q0 112 31 194t88 129.5t129.5 70
t162.5 22.5h43zM1083 1434v-306h-276v306h276zM1069 946v-946h-250v946h250z" />
    <glyph glyph-name="fl" unicode="fl" horiz-adv-x="1189" 
d="M1069 1464v-1464h-250v1464h250zM659 1452v-231h-18q-96 0 -140 -39t-44 -135v-43q-4 -53 -11 -70l5 -4q21 16 88 16h120v-223h-120q-67 0 -88 14l-5 -4q11 -34 11 -115v-618h-252v618q0 84 10 115l-4 4q-21 -14 -88 -14h-84v223h84q67 0 88 -16l4 4q-5 13 -10 67v35
q0 112 31 194t88 129.5t129.5 70t162.5 22.5h43z" />
    <glyph glyph-name="f_f" unicode="ff" horiz-adv-x="1396" 
d="M659 1452v-231h-18q-96 0 -140 -39t-44 -135v-43q-4 -53 -11 -70l5 -4q21 16 88 16h120v-223h-120q-67 0 -88 14l-5 -4q11 -34 11 -115v-618h-252v618q0 84 10 115l-4 4q-21 -14 -88 -14h-84v223h84q67 0 88 -16l4 4q-5 13 -10 67v35q0 112 31 194t88 129.5t129.5 70
t162.5 22.5h43zM1358 1452v-231h-19q-96 0 -140 -39t-44 -135v-43q-5 -56 -10 -70l4 -4q21 16 88 16h121v-223h-121q-67 0 -88 14l-4 -4q10 -31 10 -115v-618h-252v618q0 84 10 115l-4 4q-21 -14 -88 -14h-84v223h84q67 0 88 -16l4 4q-5 13 -10 67v35q0 112 31.5 194
t88.5 129.5t129.5 70t162.5 22.5h43z" />
    <glyph glyph-name="f_f_i" unicode="ffi" horiz-adv-x="1888" 
d="M659 1452v-231h-18q-96 0 -140 -39t-44 -135v-43q-4 -53 -11 -70l5 -4q21 16 88 16h120v-223h-120q-67 0 -88 14l-5 -4q11 -34 11 -115v-618h-252v618q0 84 10 115l-4 4q-21 -14 -88 -14h-84v223h84q67 0 88 -16l4 4q-5 13 -10 67v35q0 112 31 194t88 129.5t129.5 70
t162.5 22.5h43zM1358 1452v-231h-19q-96 0 -140 -39t-44 -135v-43q-5 -56 -10 -70l4 -4q21 16 88 16h121v-223h-121q-67 0 -88 14l-4 -4q10 -31 10 -115v-618h-252v618q0 84 10 115l-4 4q-21 -14 -88 -14h-84v223h84q67 0 88 -16l4 4q-5 13 -10 67v35q0 112 31.5 194
t88.5 129.5t129.5 70t162.5 22.5h43zM1782 1434v-306h-277v306h277zM1767 946v-946h-249v946h249z" />
    <glyph glyph-name="f_f_l" unicode="ffl" horiz-adv-x="1888" 
d="M1767 1464v-1464h-249v1464h249zM659 1452v-231h-18q-96 0 -140 -39t-44 -135v-43q-4 -53 -11 -70l5 -4q21 16 88 16h120v-223h-120q-67 0 -88 14l-5 -4q11 -34 11 -115v-618h-252v618q0 84 10 115l-4 4q-21 -14 -88 -14h-84v223h84q67 0 88 -16l4 4q-5 13 -10 67v35
q0 112 31 194t88 129.5t129.5 70t162.5 22.5h43zM1358 1452v-231h-19q-96 0 -140 -39t-44 -135v-43q-5 -56 -10 -70l4 -4q21 16 88 16h121v-223h-121q-67 0 -88 14l-4 -4q10 -31 10 -115v-618h-252v618q0 84 10 115l-4 4q-21 -14 -88 -14h-84v223h84q67 0 88 -16l4 4
q-5 13 -10 67v35q0 112 31.5 194t88.5 129.5t129.5 70t162.5 22.5h43z" />
    <glyph glyph-name=".notdef" horiz-adv-x="1576" 
d="M788 -31q-213 0 -384 96.5t-267 267.5t-96 384q0 160 56.5 299t155 237.5t237 154.5t298.5 56q214 0 385 -95.5t267 -266.5t96 -385q0 -213 -96 -384t-267 -267.5t-385 -96.5zM788 20q149 0 279 53.5t223 146.5t146 224.5t53 282.5l-105 133l-143 -61l-139 184l-162 -90
l-152 242l-151 -242l-162 90l-139 -184l-143 61l-105 -133q0 -201 90.5 -363t250.5 -253t359 -91zM578 651q-31 0 -51.5 20.5t-20.5 51.5t20.5 51.5t51.5 20.5t51 -20.5t20 -51.5t-20 -51.5t-51 -20.5zM997 651q-31 0 -51 20.5t-20 51.5t20 51.5t51 20.5t51.5 -20.5
t20.5 -51.5t-20.5 -51.5t-51.5 -20.5zM702 522l74 207q1 7 8.5 10t14.5 0q6 -2 9.5 -8.5t0.5 -13.5l-57 -160h69q8 0 13.5 -5.5t5.5 -12.5q0 -6 -6 -11.5t-13 -5.5h-119zM385 350q-61 0 -101 40t-40 102t40 101.5t101 39.5t101 -39.5t40 -101.5t-40 -102t-101 -40zM1190 350
q-61 0 -101 40t-40 102t39.5 101.5t101.5 39.5t101.5 -39.5t39.5 -101.5t-40 -102t-101 -40zM788 395q-95 0 -126 -61q-6 -12 -19 -12q-16 0 -16 18q0 35 49.5 63.5t111.5 28.5t112 -28.5t50 -63.5q0 -18 -16 -18q-13 0 -19 12q-31 61 -127 61z" />
    <glyph glyph-name=".null" horiz-adv-x="0" 
 />
    <glyph glyph-name="nonmarkingreturn" horiz-adv-x="682" 
 />
    <glyph glyph-name="NULL" horiz-adv-x="0" 
 />
    <glyph glyph-name="NULL" horiz-adv-x="0" 
 />
    <glyph glyph-name="CR" unicode="&#xd;" horiz-adv-x="0" 
 />
    <glyph glyph-name="space" unicode=" " horiz-adv-x="579" 
 />
    <glyph glyph-name="exclam" unicode="!" horiz-adv-x="686" 
d="M254 451l-70 983h318l-70 -983h-178zM201 0v305h284v-305h-284z" />
    <glyph glyph-name="quotedbl" unicode="&#x22;" horiz-adv-x="653" 
d="M295 1464l-47 -518h-107l-47 518h201zM561 1464l-47 -518h-106l-48 518h201z" />
    <glyph glyph-name="numbersign" unicode="#" horiz-adv-x="1286" 
d="M1194 920h-246l-65 -359h233v-117h-254l-82 -444h-127l82 444h-282l-82 -444h-127l82 444h-232v117h252l66 359h-240v116h260l72 398h127l-72 -398h283l71 398h127l-71 -398h225v-116zM756 561l65 359h-282l-66 -359h283z" />
    <glyph glyph-name="dollar" unicode="$" horiz-adv-x="1071" 
d="M553 -168v78q0 48 8 72l-2 2q-25 -16 -65 -13q-252 12 -443 135l113 220q106 -56 177.5 -80.5t158.5 -34.5q44 -5 59 -18l2 2q-8 24 -8 77v310l-178 120q-230 149 -230 363q0 141 95.5 235t253.5 109q50 5 63 -10l4 2q-8 31 -8 67v82h61v-82q0 -32 -6 -67l4 -2
q13 13 54 10q129 -7 313 -88l-102 -221q-119 48 -209 65q-40 7 -56 23l-4 -4q6 -24 6 -64v-272l144 -94q145 -93 204.5 -182t59.5 -210q0 -161 -93.5 -261.5t-262.5 -123.5q-34 -3 -58 11l-2 -2q8 -27 8 -74v-80h-61zM559 872l2 2q-8 39 -8 76v172q0 42 8 66l-2 2
q-5 -6 -14.5 -9.5t-22.5 -6t-16 -3.5q-52 -10 -80.5 -38t-28.5 -68q0 -42 27 -75.5t98 -80.5q25 -16 37 -37zM608 197q14 14 49 24q111 35 111 123t-102 160q-47 37 -56 53h-2q6 -23 6 -74v-211q0 -42 -8 -73z" />
    <glyph glyph-name="percent" unicode="%" horiz-adv-x="1599" 
d="M440 748q-147 0 -242.5 92.5t-95.5 240.5t95 240t243 92q146 0 242 -92t96 -240t-96 -240.5t-242 -92.5zM315 0l811 1382h131l-811 -1382h-131zM440 868q94 0 152.5 59.5t58.5 153.5q0 93 -59 152t-152 59q-92 0 -152.5 -59.5t-60.5 -151.5q0 -93 60 -153t153 -60z
M1159 -10q-148 0 -243 92t-95 240t95.5 240.5t242.5 92.5q146 0 242 -92.5t96 -240.5t-96 -240t-242 -92zM1159 111q93 0 152 59t59 152q0 94 -58.5 153.5t-152.5 59.5q-93 0 -153 -60t-60 -153q0 -92 60.5 -151.5t152.5 -59.5z" />
    <glyph glyph-name="ampersand" unicode="&#x26;" horiz-adv-x="1409" 
d="M899 1382l137 -217l-2 -6h-403q-56 0 -76 17l-8 -5l489 -690h4q-5 31 23 74q52 83 113 197l217 -111q-108 -212 -168 -293q-26 -37 -60 -39v-4l215 -299l-2 -6h-299l-84 123h-6q-26 -61 -135.5 -107.5t-247.5 -46.5q-230 0 -375 131.5t-145 345.5q0 164 75.5 273
t203.5 166q39 14 67 12l2 4l-340 473l4 8h801zM559 729h-4q-5 -22 -39 -37q-168 -79 -168 -237q0 -107 69 -173.5t185 -66.5q41 0 80.5 10t60.5 19.5t58 29.5q40 18 63 13l2 6z" />
    <glyph glyph-name="quotesingle" unicode="'" horiz-adv-x="407" 
d="M315 1464l-47 -518h-127l-47 518h221z" />
    <glyph glyph-name="parenleft" unicode="(" horiz-adv-x="630" 
d="M418 1591l180 -116q-63 -89 -111.5 -174t-94.5 -196t-70.5 -242.5t-24.5 -274.5q0 -496 301 -905l-180 -123q-344 476 -344 1028q0 140 23.5 273t55.5 230t83.5 200t89.5 162.5t92 137.5z" />
    <glyph glyph-name="parenright" unicode=")" horiz-adv-x="630" 
d="M236 1591q54 -76 92.5 -137.5t90 -163t83.5 -199t55 -230.5t23 -273q0 -559 -344 -1028l-179 123q299 412 299 905q0 143 -24.5 274.5t-70.5 242.5t-94.5 196t-111.5 174z" />
    <glyph glyph-name="asterisk" unicode="*" horiz-adv-x="849" 
d="M287 758l-150 108l180 203l-264 59l58 175l247 -109l-26 270h184l-24 -270l247 109l58 -175l-267 -59l181 -203l-148 -108l-139 233z" />
    <glyph glyph-name="plus" unicode="+" 
d="M674 1108v-442h440v-111h-440v-442h-119v442h-440v111h440v442h119z" />
    <glyph glyph-name="comma" unicode="," horiz-adv-x="530" 
d="M78 -342l67 592h281l-207 -592h-141z" />
    <glyph glyph-name="hyphen" unicode="-" horiz-adv-x="813" 
d="M731 664v-234h-647v234h647z" />
    <glyph glyph-name="period" unicode="." horiz-adv-x="491" 
d="M104 0v305h285v-305h-285z" />
    <glyph glyph-name="slash" unicode="/" horiz-adv-x="1171" 
d="M211 -213l-158 88l905 1679l162 -90z" />
    <glyph glyph-name="zero" unicode="0" horiz-adv-x="1218" 
d="M610 1413q251 0 389 -188.5t138 -532.5t-138 -533.5t-389 -189.5q-250 0 -388 189.5t-138 533.5q0 345 137 533t389 188zM610 1180q-130 0 -201 -128t-71 -360t71.5 -360.5t200.5 -128.5t200 128.5t71 360.5t-71 360t-200 128z" />
    <glyph glyph-name="one" unicode="1" horiz-adv-x="755" 
d="M565 1382v-1382h-246v821q0 98 17 160l-6 4q-20 -32 -72 -57l-182 -94v245l258 183l39 120h192z" />
    <glyph glyph-name="two" unicode="2" horiz-adv-x="1077" 
d="M559 1413q192 0 299 -96t107 -266q0 -103 -43 -201t-144 -227l-209 -273q-57 -76 -123 -131l5 -6q71 23 198 23h375l2 -5l-133 -231h-881l-6 14l572 734q69 89 98 151t29 119q0 75 -45 117.5t-125 42.5q-139 0 -316 -127l-123 198q232 164 463 164z" />
    <glyph glyph-name="three" unicode="3" horiz-adv-x="1024" 
d="M485 1413q191 0 295.5 -85.5t104.5 -242.5q0 -104 -50 -181t-139 -109q-54 -20 -118 -25v-8q69 0 118 -14q128 -34 196.5 -124t68.5 -225q0 -201 -135.5 -315.5t-376.5 -114.5q-106 0 -215.5 26.5t-198.5 72.5l88 231q169 -94 326 -94q122 0 190 56.5t68 156.5
q0 115 -91 164t-303 49v223q157 0 238.5 46t81.5 134q0 71 -49 110.5t-138 39.5q-135 0 -294 -99l-103 205q200 123 436 123z" />
    <glyph glyph-name="four" unicode="4" horiz-adv-x="1171" 
d="M928 1382v-850q0 -40 -8 -53l4 -4q15 6 47 6h180l-74 -231h-106q-27 0 -47 8l-4 -4q8 -11 8 -53v-201h-240v201q0 41 6 53l-4 4q-16 -8 -45 -8h-618v199l667 933h234zM694 1077q-26 -75 -102 -184l-232 -324q-51 -70 -86 -100l5 -4q36 16 129 16h237q30 0 45 -6l4 4
q-6 10 -6 53v396q0 92 12 147z" />
    <glyph glyph-name="five" unicode="5" horiz-adv-x="1009" 
d="M999 1382l-92 -243h-332q-33 0 -57 8l-2 -2q0 -29 -12 -78l-29 -102q-9 -36 -39 -70l2 -4q34 12 84 12q201 0 320 -119t119 -321q0 -232 -147 -363t-406 -131q-220 0 -402 99l86 225q176 -90 322 -90q135 0 211.5 68.5t76.5 187.5q0 241 -315 241q-125 0 -217 -28l-8 6
l209 704h628z" />
    <glyph glyph-name="six" unicode="6" horiz-adv-x="1099" 
d="M860 1386l-373 -419q-103 -118 -147 -234l8 -2q104 189 285 189q189 0 307.5 -131t118.5 -338q0 -212 -140.5 -347t-363.5 -135q-226 0 -365 140.5t-139 369.5q0 155 58 294t190 304l250 309h311zM553 690q-113 0 -180.5 -67.5t-67.5 -182.5q0 -109 67.5 -174t180.5 -65
q114 0 181 68t67 184q0 109 -67 173t-181 64z" />
    <glyph glyph-name="seven" unicode="7" horiz-adv-x="944" 
d="M942 1382l2 -6l-596 -1376h-276l428 942q16 35 36 80t29 65.5t19.5 40.5t19.5 31l-4 4q-52 -22 -182 -22h-412l98 241h838z" />
    <glyph glyph-name="eight" unicode="8" horiz-adv-x="1136" 
d="M567 -31q-230 0 -360.5 108t-130.5 298q0 145 77 240.5t212 117.5v8q-113 20 -180.5 105.5t-67.5 206.5q0 165 122 262.5t328 97.5q207 0 330 -97.5t123 -262.5q0 -121 -67.5 -206.5t-180.5 -105.5v-8q134 -22 211.5 -118t77.5 -240q0 -190 -131 -298t-363 -108zM567 848
q88 0 141.5 47.5t53.5 126.5q0 78 -53.5 126t-141.5 48q-87 0 -139.5 -48t-52.5 -126q0 -80 52 -127t140 -47zM567 199q107 0 169.5 58t62.5 155q0 100 -63 158.5t-169 58.5q-104 0 -166.5 -58.5t-62.5 -158.5q0 -97 62 -155t167 -58z" />
    <glyph glyph-name="nine" unicode="9" horiz-adv-x="1062" 
d="M522 1413q226 0 363 -142.5t137 -375.5q0 -153 -51 -280t-174 -279l-265 -336h-299l377 453q55 67 81 105.5t44 82.5l-8 4q-46 -83 -118 -127.5t-160 -44.5q-181 0 -301.5 131.5t-120.5 329.5q0 211 138 345t357 134zM524 1180q-109 0 -175 -66.5t-66 -175.5t65.5 -173.5
t175.5 -64.5q112 0 178 64.5t66 173.5q0 112 -65.5 177t-178.5 65z" />
    <glyph glyph-name="colon" unicode=":" horiz-adv-x="491" 
d="M104 641v305h285v-305h-285zM104 0v305h285v-305h-285z" />
    <glyph glyph-name="semicolon" unicode=";" horiz-adv-x="532" 
d="M139 641v305h285v-305h-285zM78 -342l67 592h281l-207 -592h-141z" />
    <glyph glyph-name="less" unicode="&#x3c;" 
d="M1083 1092v-131l-800 -349l800 -344v-131l-938 414v125z" />
    <glyph glyph-name="equal" unicode="=" 
d="M1133 877v-115h-1037v115h1037zM1133 467v-115h-1037v115h1037z" />
    <glyph glyph-name="greater" unicode="&#x3e;" 
d="M145 1092l938 -416v-125l-938 -414v131l801 344l-801 349v131z" />
    <glyph glyph-name="question" unicode="?" horiz-adv-x="778" 
d="M393 1464q159 0 245.5 -71t86.5 -191q0 -135 -109 -244l-108 -108q-62 -62 -62 -109q0 -38 29 -68t90 -65l-104 -188q-45 19 -80 38t-73 47.5t-63 60t-41 75.5t-16 94q0 64 27 115t84 108l88 86q70 67 70 119q0 35 -26.5 56.5t-74.5 21.5q-95 0 -239 -88l-101 197
q198 114 377 114zM248 0v305h284v-305h-284z" />
    <glyph glyph-name="at" unicode="@" horiz-adv-x="1921" 
d="M993 -307q-182 0 -345 58.5t-286.5 164.5t-195.5 267.5t-72 355.5q0 268 110.5 466t313 303t473.5 105q184 0 339.5 -56.5t265 -158.5t170.5 -248.5t61 -320.5q0 -114 -23.5 -209.5t-69 -166.5t-117 -111t-163.5 -40q-104 0 -172.5 47t-85.5 138h-6q-39 -83 -117 -133
t-188 -50q-143 0 -231.5 85t-88.5 221t89 218.5t235 82.5q188 0 282 -148l5 2q-11 42 -15 107q-6 135 -194 135q-97 0 -260 -37l-41 191q183 36 323 36q198 0 293.5 -81t95.5 -252v-269q0 -56 25.5 -86t71.5 -30q73 0 120 83t47 242q0 151 -49 272.5t-136.5 201
t-205.5 121.5t-258 42q-327 0 -520.5 -185t-193.5 -515q0 -207 96 -362t257 -234.5t363 -79.5q190 0 377 74l64 -162q-233 -84 -443 -84zM975 287q72 0 116 35.5t44 93.5t-44 93.5t-116 35.5q-73 0 -117.5 -35t-44.5 -94t44.5 -94t117.5 -35z" />
    <glyph glyph-name="A" unicode="A" horiz-adv-x="1460" 
d="M16 0l693 1462h43l692 -1462h-291l-152 340h-542l-152 -340h-291zM524 541q30 6 105 6h202q75 0 105 -6l2 2q-27 34 -61 106l-95 225q-44 106 -47 156h-8q-6 -53 -49 -156l-94 -225q-27 -62 -62 -106z" />
    <glyph glyph-name="B" unicode="B" horiz-adv-x="1277" 
d="M145 0v1434h562q186 0 296.5 -97t110.5 -260q0 -108 -51 -184t-143 -107q-53 -19 -111 -22v-8q51 0 115 -15q132 -28 203 -117t71 -227q0 -183 -123 -290t-330 -107h-600zM403 844q16 8 54 8h184q100 0 154.5 48t54.5 134q0 82 -51 125t-148 43h-194q-39 0 -54 10l-4 -4
q9 -22 9 -55v-250q0 -32 -9 -55zM403 221q30 10 56 10h235q232 0 232 195q0 199 -248 199h-221q-38 0 -54 8l-4 -4q9 -23 9 -56v-290q0 -35 -9 -58z" />
    <glyph glyph-name="C" unicode="C" horiz-adv-x="1394" 
d="M834 -31q-225 0 -400.5 94.5t-273 265t-97.5 388.5t97.5 388t273 264.5t400.5 94.5q292 0 514 -157l-146 -222q-172 119 -368 119q-218 0 -354 -135t-136 -352t136 -352.5t354 -135.5q196 0 368 119l146 -221q-223 -158 -514 -158z" />
    <glyph glyph-name="D" unicode="D" horiz-adv-x="1415" 
d="M602 1434q344 0 547 -194t203 -523t-203 -523t-547 -194h-457v1434h457zM403 1204l-4 -4q9 -22 9 -57v-852q0 -35 -9 -58l4 -4q16 11 54 11h157q215 0 337 126.5t122 350.5t-122.5 350.5t-336.5 126.5h-157q-39 0 -54 10z" />
    <glyph glyph-name="E" unicode="E" horiz-adv-x="1083" 
d="M993 1434v-240h-536q-34 0 -54 10l-4 -4q9 -22 9 -57v-203q0 -34 -9 -57l4 -4q16 8 54 8h475v-238h-475q-34 0 -54 10l-4 -4q9 -23 9 -57v-307q0 -35 -9 -58l4 -4q22 11 54 11h544v-240h-856v1434h848z" />
    <glyph glyph-name="F" unicode="F" horiz-adv-x="1038" 
d="M1006 1434v-240h-549q-34 0 -54 10l-4 -4q9 -22 9 -57v-234q0 -35 -9 -57l4 -4q20 10 54 10h495v-240h-495q-36 0 -54 9l-4 -4q9 -22 9 -56v-567h-263v1434h861z" />
    <glyph glyph-name="G" unicode="G" horiz-adv-x="1585" 
d="M829 1464q314 0 551 -186l-161 -215q-77 64 -180.5 102.5t-219.5 38.5q-215 0 -347 -136t-132 -349q0 -218 133 -354t350 -136q107 0 192.5 32.5t137 86.5t79.5 116t32 128l-4 4q-30 -21 -134 -21h-305v232h713v-72q0 -125 -27.5 -237.5t-85 -209.5t-140 -167.5
t-200 -111t-258.5 -40.5q-164 0 -305 53.5t-241 150t-157 236.5t-57 306q0 165 55.5 304t155 237t242.5 153t313 55z" />
    <glyph glyph-name="H" unicode="H" horiz-adv-x="1482" 
d="M1337 1434v-1434h-262v584q0 44 8 57l-4 4q-20 -10 -55 -10h-567q-34 0 -54 10l-4 -4q9 -22 9 -57v-584h-263v1434h263v-502q0 -36 -9 -58l4 -4q18 9 54 9h567q37 0 55 -9l4 4q-8 13 -8 58v502h262z" />
    <glyph glyph-name="I" unicode="I" horiz-adv-x="550" 
d="M408 1434v-1434h-263v1434h263z" />
    <glyph glyph-name="J" unicode="J" horiz-adv-x="655" 
d="M512 1434v-1059q0 -198 -84.5 -291.5t-261.5 -93.5q-55 0 -123 8v242q33 -2 92 -2q58 0 86.5 33t28.5 112v1051h262z" />
    <glyph glyph-name="K" unicode="K" horiz-adv-x="1353" 
d="M1266 1434l-478 -555q-77 -86 -120 -111v-8q29 -18 47.5 -36.5t60.5 -68.5l572 -655h-355l-600 719l-6 -2q21 -91 21 -215v-502h-263v1434h263v-422q0 -128 -21 -213l6 -4l525 639h348z" />
    <glyph glyph-name="L" unicode="L" horiz-adv-x="1019" 
d="M408 1434v-1139q0 -33 -9 -55l4 -4q16 8 54 8h547v-244h-859v1434h263z" />
    <glyph glyph-name="M" unicode="M" horiz-adv-x="1882" 
d="M926 -14l-322 700q-32 70 -44 112.5t-15 90.5h-8q-4 -116 -33 -207l-209 -682h-279l476 1454h43l366 -840q29 -70 37 -155h8q9 91 35 155l367 840h43l477 -1454h-281l-207 682q-27 88 -32 207h-9q-9 -89 -59 -203l-322 -700h-32z" />
    <glyph glyph-name="N" unicode="N" horiz-adv-x="1495" 
d="M186 1454l815 -813q72 -75 103 -145l8 2q-22 74 -22 254v682h262v-1454h-43l-813 813q-73 73 -105 145l-8 -2q23 -77 23 -254v-682h-261v1454h41z" />
    <glyph glyph-name="O" unicode="O" horiz-adv-x="1628" 
d="M813 1464q162 0 302 -56t238.5 -154.5t155 -237t56.5 -299.5q0 -214 -96 -385t-268 -267t-388 -96q-215 0 -386.5 96t-267.5 267t-96 385q0 161 56.5 299.5t155 237t238 154.5t300.5 56zM813 1204q-209 0 -341 -136t-132 -351t132 -351.5t341 -136.5q210 0 342.5 136
t132.5 352q0 215 -132 351t-343 136z" />
    <glyph glyph-name="P" unicode="P" horiz-adv-x="1155" 
d="M639 1434q225 0 351 -111.5t126 -312.5q0 -200 -122.5 -312t-338.5 -112h-198q-39 0 -54 10l-4 -4q9 -23 9 -57v-535h-263v1434h494zM403 1208l-4 -4q9 -22 9 -57v-275q0 -34 -9 -57l4 -4q15 10 54 10h188q96 0 149.5 51t53.5 138t-53.5 138.5t-149.5 51.5h-188
q-38 0 -54 8z" />
    <glyph glyph-name="Q" unicode="Q" horiz-adv-x="1638" 
d="M821 -10q-160 0 -300.5 55.5t-241 152t-158.5 234t-58 295.5q0 159 56 296t155 234t239.5 152t303.5 55q216 0 386 -91t264 -252.5t94 -364.5q0 -167 -65 -287.5t-191 -208.5q-91 -61 -232 -106v-11q216 64 352 64h146v-217h-750zM821 252q202 0 331.5 134t129.5 347
q0 211 -127 341t-340 130q-214 0 -344.5 -132t-130.5 -345q0 -210 135.5 -342.5t345.5 -132.5z" />
    <glyph glyph-name="R" unicode="R" horiz-adv-x="1282" 
d="M649 1434q216 0 338.5 -107.5t122.5 -298.5q0 -164 -106.5 -275.5t-241.5 -111.5q-36 0 -60 8v-8q78 -22 154 -117l420 -524h-330l-475 618q-16 0 -31 3q-29 3 -41 10l-4 -4q13 -33 13 -80v-547h-263v1434h504zM403 1208l-4 -4q9 -22 9 -57v-252q0 -33 -9 -55l4 -4
q16 8 54 8h192q91 0 141 46.5t50 129.5q0 82 -49.5 131t-141.5 49h-192q-38 0 -54 8z" />
    <glyph glyph-name="S" unicode="S" horiz-adv-x="1062" 
d="M557 1464q205 0 414 -102l-117 -238q-157 88 -299 88q-152 0 -152 -104q0 -40 25 -73t86 -77l248 -176q129 -90 186.5 -182t57.5 -217q0 -199 -129.5 -306.5t-358.5 -107.5q-269 0 -491 137l118 240q201 -123 381 -123q98 0 151.5 40.5t53.5 105.5q0 50 -32.5 92.5
t-110.5 99.5l-234 168q-112 79 -168.5 169t-56.5 204q0 168 114 265t314 97z" />
    <glyph glyph-name="T" unicode="T" horiz-adv-x="1085" 
d="M1069 1434v-244h-344q-37 0 -53 8l-4 -4q6 -15 6 -55v-1139h-262v1139q0 35 8 55l-4 4q-19 -8 -54 -8h-346v244h1053z" />
    <glyph glyph-name="U" unicode="U" horiz-adv-x="1425" 
d="M1296 1434v-879q0 -273 -156 -428.5t-427 -155.5q-272 0 -428 155.5t-156 428.5v879h268v-869q0 -155 86 -244.5t230 -89.5t229.5 89.5t85.5 244.5v869h268z" />
    <glyph glyph-name="V" unicode="V" horiz-adv-x="1366" 
d="M1366 1434l-661 -1450h-43l-662 1450h309l303 -740q52 -131 66 -237h8q19 120 68 237l303 740h309z" />
    <glyph glyph-name="W" unicode="W" horiz-adv-x="1994" 
d="M1016 1454l291 -719q34 -87 46 -127t19 -100h8q6 59 17.5 102t40.5 127l241 697h299l-573 -1452h-45l-316 766q-34 80 -43 167h-8q-9 -86 -41 -167l-317 -766h-45l-574 1452h299l244 -697q47 -141 57 -229h9q6 60 17.5 100t45.5 127l291 719h37z" />
    <glyph glyph-name="X" unicode="X" horiz-adv-x="1388" 
d="M1315 1434l-373 -555q-56 -85 -88 -117v-6q32 -34 96 -129l422 -627h-323l-279 434q-65 103 -76 158h-8q-8 -49 -76 -158l-272 -434h-322l420 633q76 107 96 131v6q-25 23 -88 115l-370 549h321l221 -344q67 -107 78 -160h8q7 45 76 160l213 344h324z" />
    <glyph glyph-name="Y" unicode="Y" horiz-adv-x="1253" 
d="M1243 1434l-485 -891v-543h-262v543l-486 891h312l215 -453q9 -19 25.5 -52.5t21.5 -44.5t14 -31.5t12.5 -31.5t7.5 -27t7 -34h4q2 12 4.5 22t6 21t5.5 18.5t7.5 20.5t8 19.5t10.5 24t12 26t16 32.5t18 37l217 453h309z" />
    <glyph glyph-name="Z" unicode="Z" horiz-adv-x="1267" 
d="M1237 1434l4 -11l-792 -1206l6 -4q30 21 66 29t100 8h622l-131 -250h-1092l-4 10l797 1207l-4 4q-58 -37 -182 -37h-523l127 250h1006z" />
    <glyph glyph-name="bracketleft" unicode="[" horiz-adv-x="729" 
d="M709 1548v-188h-220q-57 0 -79 10l-2 -2q12 -27 12 -76v-1482q0 -49 -12 -76l2 -2q22 10 79 10h220v-191h-512v1997h512z" />
    <glyph glyph-name="backslash" unicode="\" horiz-adv-x="1130" 
d="M209 1554l868 -1634l-151 -80l-873 1633z" />
    <glyph glyph-name="bracketright" unicode="]" horiz-adv-x="729" 
d="M20 1548h512v-1997h-512v191h220q56 0 79 -10l3 2q-13 29 -13 76v1482q0 47 13 76l-3 2q-22 -10 -79 -10h-220v188z" />
    <glyph glyph-name="asciicircum" unicode="^" 
d="M735 1464l295 -659h-188l-228 518l-227 -518h-188l295 659h241z" />
    <glyph glyph-name="underscore" unicode="_" horiz-adv-x="1073" 
d="M1063 -31v-192h-1051v192h1051z" />
    <glyph glyph-name="grave" unicode="`" horiz-adv-x="671" 
d="M231 1448l238 -178l100 -133l-80 -4l-256 178l-129 133z" />
    <glyph glyph-name="a" unicode="a" horiz-adv-x="1052" 
d="M518 977q224 0 325 -90t101 -291v-596h-254q0 97 31 168l-8 4q-105 -203 -326 -203q-152 0 -245 91.5t-93 240.5q0 150 93 239t249 89q216 0 318 -164l8 4q-17 52 -17 139q-5 74 -58 113t-150 39q-113 0 -281 -41l-49 211q183 47 356 47zM487 457q-76 0 -123 -41.5
t-47 -106.5q0 -66 46.5 -105.5t121.5 -39.5q78 0 127.5 41t49.5 106q0 64 -49 105t-126 41z" />
    <glyph glyph-name="b" unicode="b" horiz-adv-x="1210" 
d="M707 -31q-123 0 -214 60t-135 170l-8 -2q15 -79 15 -197h-244v1464h250v-479q0 -159 -23 -235l8 -2q101 229 351 229q198 0 322 -140.5t124 -363.5q0 -225 -124 -364.5t-322 -139.5zM633 199q120 0 189 73.5t69 200.5q0 128 -69 201.5t-189 73.5q-122 0 -197.5 -76
t-75.5 -199t75.5 -198.5t197.5 -75.5z" />
    <glyph glyph-name="c" unicode="c" horiz-adv-x="950" 
d="M580 -31q-232 0 -377.5 140t-145.5 364t145.5 364t377.5 140q179 0 331 -94l-108 -207q-98 65 -219 65q-119 0 -194 -75t-75 -193t75 -193t194 -75q121 0 219 65l108 -207q-152 -94 -331 -94z" />
    <glyph glyph-name="d" unicode="d" horiz-adv-x="1210" 
d="M504 -31q-199 0 -323 139.5t-124 364.5q0 223 124.5 363.5t322.5 140.5q249 0 350 -229l8 2q-22 73 -22 235v479h250v-1464h-244q0 123 14 197l-8 2q-44 -110 -134.5 -170t-213.5 -60zM578 199q122 0 197 75.5t75 198.5t-75 199t-197 76q-120 0 -189.5 -74t-69.5 -201
t69.5 -200.5t189.5 -73.5z" />
    <glyph glyph-name="e" unicode="e" horiz-adv-x="1060" 
d="M547 977q216 0 338.5 -133t122.5 -369v-59h-586q-85 0 -119 20l-4 -6l8 -22q17 -106 85.5 -162t180.5 -56q159 0 281 113l115 -180q-171 -154 -396 -154q-234 0 -375 136.5t-141 365.5q0 230 135 368t355 138zM539 772q-97 0 -160.5 -54t-75.5 -149l4 -4q28 19 103 19
h223q98 0 117 -17l4 4q-6 96 -63 148.5t-152 52.5z" />
    <glyph glyph-name="f" unicode="f" horiz-adv-x="698" 
d="M659 1452v-231h-18q-96 0 -140 -39t-44 -135v-43q-4 -53 -11 -70l5 -4q21 16 88 16h120v-223h-120q-67 0 -88 14l-5 -4q11 -34 11 -115v-618h-252v618q0 84 10 115l-4 4q-21 -14 -88 -14h-84v223h84q67 0 88 -16l4 4q-5 13 -10 67v35q0 112 31 194t88 129.5t129.5 70
t162.5 22.5h43z" />
    <glyph glyph-name="g" unicode="g" horiz-adv-x="1204" 
d="M504 977q124 0 211.5 -60t136.5 -169l8 2q-22 67 -22 196h252v-885q0 -501 -529 -501q-262 0 -448 114l112 215q158 -94 326 -94q133 0 213 62.5t80 171.5v28q0 75 16 140l-8 2q-112 -219 -350 -219q-198 0 -321.5 135.5t-123.5 357.5q0 225 125 364.5t322 139.5z
M571 745q-115 0 -183.5 -73.5t-68.5 -198.5t68.5 -198.5t183.5 -73.5q118 0 193.5 75.5t75.5 196.5t-75.5 196.5t-193.5 75.5z" />
    <glyph glyph-name="h" unicode="h" horiz-adv-x="1148" 
d="M371 1464v-475q0 -131 -21 -248l8 -2q105 238 342 238q160 0 249 -96t89 -273v-608h-252v537q0 213 -182 213q-109 0 -171 -74.5t-62 -220.5v-455h-250v1464h250z" />
    <glyph glyph-name="i" unicode="i" horiz-adv-x="491" 
d="M385 1434v-306h-276v306h276zM371 946v-946h-250v946h250z" />
    <glyph glyph-name="j" unicode="j" horiz-adv-x="491" 
d="M385 1434v-306h-276v306h276zM371 946v-981q0 -208 -104 -306.5t-296 -98.5h-22v237h18q154 0 154 176v973h250z" />
    <glyph glyph-name="k" unicode="k" horiz-adv-x="1064" 
d="M371 1464v-727q0 -130 -25 -207l6 -2l361 418h313l-330 -352q-60 -65 -98 -78v-8q28 -10 86 -68l381 -440h-326l-387 475l-6 -4q25 -73 25 -197v-274h-250v1464h250z" />
    <glyph glyph-name="l" unicode="l" horiz-adv-x="491" 
d="M371 1464v-1464h-250v1464h250z" />
    <glyph glyph-name="m" unicode="m" horiz-adv-x="1716" 
d="M121 0v946h248q0 -103 -23 -198l8 -5q46 121 122 177.5t196 56.5q231 0 289 -229h8q35 106 116 167.5t203 61.5q150 0 234 -93.5t84 -273.5v-610h-252v528q0 116 -42.5 168t-129.5 52q-197 0 -197 -281v-467h-244v530q0 114 -43.5 166t-130.5 52q-196 0 -196 -281v-467
h-250z" />
    <glyph glyph-name="n" unicode="n" horiz-adv-x="1148" 
d="M702 977q162 0 249 -95t87 -274v-608h-252v537q0 105 -47 159t-135 54q-110 0 -171.5 -74.5t-61.5 -220.5v-455h-250v946h250q0 -120 -21 -215l8 -4q99 250 344 250z" />
    <glyph glyph-name="o" unicode="o" horiz-adv-x="1163" 
d="M582 977q228 0 376 -141.5t148 -362.5t-148 -362.5t-376 -141.5t-376.5 141.5t-148.5 362.5t148.5 362.5t376.5 141.5zM582 739q-118 0 -192.5 -73t-74.5 -193t74.5 -193t192.5 -73t192 73t74 193t-74 193t-192 73z" />
    <glyph glyph-name="p" unicode="p" horiz-adv-x="1210" 
d="M705 977q197 0 322.5 -139.5t125.5 -364.5t-124 -364.5t-322 -139.5q-120 0 -211 59t-138 171l-8 -2q19 -93 19 -193v-414h-248v1356h246q0 -118 -19 -196l8 -2q110 229 349 229zM633 748q-122 0 -197.5 -76t-75.5 -199t75.5 -198.5t197.5 -75.5q120 0 189 73.5t69 200.5
t-69.5 201t-188.5 74z" />
    <glyph glyph-name="q" unicode="q" horiz-adv-x="1210" 
d="M506 977q238 0 348 -229l8 2q-18 74 -18 196h246v-1356h-248v414q0 105 18 193l-8 2q-47 -113 -137.5 -171.5t-210.5 -58.5q-199 0 -323 139.5t-124 364.5t125.5 364.5t323.5 139.5zM578 748q-119 0 -189 -74t-70 -201t69.5 -200.5t189.5 -73.5q122 0 197 75.5t75 198.5
t-75 199t-197 76z" />
    <glyph glyph-name="r" unicode="r" horiz-adv-x="739" 
d="M664 975q37 0 53 -2v-266q-41 4 -78 4q-268 0 -268 -310v-401h-250v946h244q0 -113 -27 -278l8 -2q72 309 318 309z" />
    <glyph glyph-name="s" unicode="s" horiz-adv-x="860" 
d="M430 -31q-221 0 -401 101l100 209q157 -97 313 -97q121 0 121 70q0 27 -19 44t-63 38l-172 78q-211 90 -211 282q0 132 94 207.5t269 75.5q157 0 336 -68l-84 -204q-151 63 -262 63q-52 0 -75.5 -14t-23.5 -45q0 -28 21.5 -48.5t72.5 -42.5l166 -73q104 -46 154.5 -110
t50.5 -163q0 -146 -102.5 -224.5t-284.5 -78.5z" />
    <glyph glyph-name="t" unicode="t" horiz-adv-x="673" 
d="M455 1452v-422q0 -60 -11 -96l7 -4q21 16 86 16h100v-223h-100q-65 0 -86 14l-7 -4q11 -34 11 -115v-618h-252v618q0 84 12 115l-6 4q-21 -14 -88 -14h-82v223h82q67 0 88 -16l6 4q-12 33 -12 96v260l231 162h21z" />
    <glyph glyph-name="u" unicode="u" horiz-adv-x="1114" 
d="M999 946v-946h-247q0 112 28 215l-10 2q-48 -125 -128 -186.5t-202 -61.5q-154 0 -245 101t-91 286v590h258v-526q0 -108 47.5 -162.5t135.5 -54.5q94 0 148.5 71.5t54.5 210.5v461h251z" />
    <glyph glyph-name="v" unicode="v" horiz-adv-x="1048" 
d="M1038 946l-471 -960h-84l-471 960h285l160 -385q26 -64 35 -86.5t17 -53t13 -69.5h4q6 51 16.5 82.5t40.5 104.5l3 7.5t3 6.5t3 8l162 385h284z" />
    <glyph glyph-name="w" unicode="w" horiz-adv-x="1511" 
d="M430 -14l-418 960h277l137 -360q42 -112 51 -178h8q7 55 58 162q1 4 2 6t3 5.5t3 6.5l172 375h63l175 -375q36 -77 47.5 -108t17.5 -72h8q3 29 9.5 55.5t14 47.5t27.5 75l136 360h278l-418 -960h-67l-193 407q-32 67 -43.5 98t-17.5 68h-8q-6 -37 -17.5 -66.5
t-44.5 -99.5l-192 -407h-68z" />
    <glyph glyph-name="x" unicode="x" horiz-adv-x="1091" 
d="M16 0l320 434q13 17 18.5 25t16.5 18t22 15v6q-4 2 -8 5t-7.5 5.5t-7.5 6.5l-6 6t-6.5 7.5t-6.5 7.5t-7 8.5t-6 8.5l-285 393h299l121 -178q60 -88 70 -150h8q8 63 70 150l118 178h299l-284 -393q-32 -45 -56 -55v-6q25 -11 58 -60l319 -432h-297l-164 227
q-32 42 -45.5 72.5t-19.5 71.5h-8q-6 -39 -20 -69.5t-46 -74.5l-162 -227h-297z" />
    <glyph glyph-name="y" unicode="y" horiz-adv-x="1054" 
d="M1044 946l-587 -1358h-256l211 480l-400 878h277l188 -450q44 -102 49 -207h9q3 84 36 164l201 493h272z" />
    <glyph glyph-name="z" unicode="z" horiz-adv-x="974" 
d="M6 0l-4 10l569 748l-6 6q-40 -23 -76.5 -31t-107.5 -8h-307l131 221h760l4 -8l-557 -748l4 -6q36 23 78 30t131 7h338l-136 -221h-821z" />
    <glyph glyph-name="braceleft" unicode="{" horiz-adv-x="811" 
d="M233 559q160 -12 235 -85t75 -216v-307q0 -100 47 -144.5t149 -44.5h56v-211h-76q-189 0 -291 96t-102 292v301q0 101 -65 149.5t-198 54.5v238q133 6 198 55t65 150v274q0 387 393 387h76v-211h-45q-108 0 -157.5 -43t-49.5 -145v-281q0 -143 -75 -216t-235 -85v-8z" />
    <glyph glyph-name="bar" unicode="|" horiz-adv-x="645" 
d="M217 -440v1929h211v-1929h-211z" />
    <glyph glyph-name="braceright" unicode="}" horiz-adv-x="811" 
d="M578 559v8q-160 12 -235 85t-75 216v281q0 102 -49.5 145t-157.5 43h-45v211h78q391 0 391 -387v-274q0 -101 65 -150t198 -55v-238q-133 -6 -198 -54.5t-65 -149.5v-301q0 -197 -101 -292.5t-290 -95.5h-78v211h56q102 0 149 44.5t47 144.5v307q0 143 75 216t235 85z
" />
    <glyph glyph-name="asciitilde" unicode="~" 
d="M401 784q66 0 129.5 -20t105 -43.5t96 -43.5t104.5 -20q46 0 90 17.5t66.5 33.5t72.5 56l113 -168q-178 -152 -349 -152q-65 0 -128 19.5t-104.5 43t-96 43t-105.5 19.5q-47 0 -90 -16t-69.5 -34.5t-71.5 -55.5l-113 166q177 155 350 155z" />
    <glyph glyph-name="exclamdown" unicode="&#xa1;" horiz-adv-x="686" 
d="M201 997h284v-305h-284v305zM254 547h178l70 -983h-318z" />
    <glyph glyph-name="cent" unicode="&#xa2;" horiz-adv-x="993" 
d="M573 -133v41q0 56 9 72l-2 2q-20 -13 -62 -7q-195 23 -314.5 161t-119.5 339q0 199 119 334.5t319 163.5q46 4 58 -6l2 2q-9 21 -9 65v51h62v-51q0 -46 -8 -67l2 -2q20 14 55 8q152 -19 256 -90l-109 -207q-73 47 -151 57q-35 5 -49 19l-2 -2q6 -18 6 -72v-404
q0 -56 -12 -75l2 -2q14 10 59 16q73 12 147 57l109 -207q-110 -75 -248 -88q-38 -5 -63 7l-2 -2q6 -9 7 -19.5t1 -52.5v-41h-62zM580 195l2 4q-9 30 -9 75v404q0 54 11 70l-2 2q-10 -6 -33 -14l-23 -9q-87 -28 -134.5 -93.5t-47.5 -158.5q0 -95 47.5 -163t132.5 -93
q45 -13 56 -24z" />
    <glyph glyph-name="sterling" unicode="&#xa3;" horiz-adv-x="1120" 
d="M719 -29q-63 0 -124 19t-112 38t-90 19q-65 0 -180 -59l-119 200q236 135 236 306q0 47 -17 90.5t-73 142.5h-166v61h78q47 0 67 -12l2 2q-26 29 -39 62q-32 88 -32 180q0 179 125.5 286t334.5 107q210 0 389 -117l-127 -215q-125 90 -262 90q-94 0 -149 -47t-55 -127
t75 -209h363v-61h-262q-54 0 -82 14l-2 -4q69 -94 69 -198q0 -86 -48 -153.5t-161 -141.5l4 -6q58 22 113 22q53 0 122 -24.5t116 -24.5q116 0 227 108l127 -204q-163 -144 -348 -144z" />
    <glyph glyph-name="currency" unicode="&#xa4;" 
d="M975 983q117 -130 117 -319t-117 -322l117 -117l-41 -39l-117 117q-127 -115 -320 -115q-190 0 -321 115l-117 -117l-39 41l115 115q-115 134 -115 322q0 189 117 319l-117 117l41 41l117 -117q134 115 319 115q186 0 320 -115l117 117l41 -41zM614 408q112 0 181 71.5
t69 184.5q0 111 -69 182.5t-181 71.5q-111 0 -180 -71.5t-69 -182.5q0 -113 68.5 -184.5t180.5 -71.5z" />
    <glyph glyph-name="yen" unicode="&#xa5;" horiz-adv-x="1230" 
d="M498 0v455h-365v61h283q44 0 73 -8l3 2q-19 19 -35 47l-39 74h-285v61h199q40 0 69 -8l2 2q-26 29 -36 51l-324 645h289l223 -518q30 -70 41 -105t14 -75h8q5 42 16 77.5t42 102.5l223 518h289l-324 -645q-16 -28 -37 -51l2 -2q29 8 70 8h199v-61h-285l-39 -74
q-16 -28 -35 -47l2 -2q29 8 74 8h283v-61h-365v-455h-235z" />
    <glyph glyph-name="brokenbar" unicode="&#xa6;" horiz-adv-x="645" 
d="M217 680v809h211v-809h-211zM428 373v-813h-211v813h211z" />
    <glyph glyph-name="section" unicode="&#xa7;" horiz-adv-x="1157" 
d="M1055 549q0 -203 -185 -328q86 -89 86 -217q0 -151 -104 -239.5t-297 -88.5q-220 0 -412 127l125 199q152 -104 307 -104q71 0 107.5 27t36.5 73q0 41 -34 74.5t-88.5 59.5t-120 53t-131.5 62.5t-120.5 79t-88.5 112t-34 153.5q0 105 50 188.5t135 139.5q-88 88 -88 215
q0 151 105 240t296 89q218 0 412 -125l-123 -202q-155 104 -307 104q-71 0 -108.5 -27t-37.5 -71q0 -36 26.5 -67t70 -53t99 -47.5t114 -49.5t114 -60t99 -77t70 -103t26.5 -137zM340 610q0 -33 15.5 -61.5t36.5 -49t60 -43.5t69 -37t82 -37.5t81 -37.5q131 81 131 184
q0 33 -15.5 62t-35.5 49t-60 43.5t-69 37t-82.5 37.5t-81.5 38q-55 -33 -93 -80.5t-38 -104.5z" />
    <glyph glyph-name="dieresis" unicode="&#xa8;" horiz-adv-x="792" 
d="M311 1434v-273h-209v273h209zM690 1434v-273h-209v273h209z" />
    <glyph glyph-name="copyright" unicode="&#xa9;" horiz-adv-x="1677" 
d="M840 -31q-157 0 -295 56.5t-237 155t-156.5 238t-57.5 298.5t57.5 298.5t156.5 237.5t237 154.5t295 56.5q209 0 379 -96t268 -267.5t98 -383.5q0 -159 -57.5 -298.5t-156.5 -238t-237 -155t-294 -56.5zM840 100q170 0 308.5 78.5t218 220t79.5 318.5q0 133 -46.5 248
t-127 195.5t-193 126.5t-239.5 46q-171 0 -310 -78t-219 -219.5t-80 -318.5q0 -133 47 -248t127.5 -196t193.5 -127t241 -46zM850 262q-205 0 -340 132.5t-135 332.5t135 332.5t340 132.5q171 0 311 -100l-88 -154q-119 74 -227 74q-124 0 -201.5 -79.5t-77.5 -205.5
q0 -127 77 -206t202 -79q47 0 94 13t72 25.5t61 33.5l88 -154q-137 -98 -311 -98z" />
    <glyph glyph-name="ordfeminine" unicode="&#xaa;" horiz-adv-x="796" 
d="M307 692q-106 0 -169.5 59t-63.5 158t67 157t178 58q150 0 216 -114l6 2q-9 38 -9 80q0 108 -141 108q-71 0 -192 -26l-33 155q155 31 256 31q157 0 229 -62t72 -202v-383h-201q0 66 23 116l-8 5q-77 -142 -230 -142zM401 840q44 0 72.5 22.5t28.5 61.5q0 38 -28.5 61
t-72.5 23q-45 0 -72.5 -23t-27.5 -61q0 -39 27.5 -61.5t72.5 -22.5z" />
    <glyph glyph-name="guillemotleft" unicode="&#xab;" horiz-adv-x="980" 
d="M584 858v-8l-174 -234q-62 -85 -85.5 -112.5t-41.5 -40.5v-4q18 -12 41 -40t86 -114l174 -233v-9h-256l-295 398l295 397h256zM971 858v-8l-174 -234q-62 -85 -85.5 -112.5t-41.5 -40.5v-4q18 -12 41 -40t86 -114l174 -233v-9h-258l-295 398l295 397h258z" />
    <glyph glyph-name="logicalnot" unicode="&#xac;" 
d="M145 885h938v-117v-426h-120v426h-818v117z" />
    <glyph glyph-name="uni00AD" unicode="&#xad;" horiz-adv-x="815" 
d="M731 664v-234h-647v234h647z" />
    <glyph glyph-name="registered" unicode="&#xae;" horiz-adv-x="1107" 
d="M555 1464q206 0 342.5 -137.5t136.5 -347.5q0 -209 -136.5 -346t-342.5 -137q-207 0 -344 137t-137 346q0 210 137 347.5t344 137.5zM555 1358q-161 0 -265 -108t-104 -271t104 -270t265 -107q159 0 263 107.5t104 269.5q0 163 -104 271t-263 108zM586 1262
q72 0 117 -41.5t45 -110.5q0 -67 -38.5 -108t-103.5 -41v-5q23 -7 45 -38l125 -162v-11h-117l-153 211h-23v-211h-100v517h203zM573 1169h-90v-125h90q35 0 52.5 17t17.5 45q0 29 -18 46t-52 17z" />
    <glyph glyph-name="macron" unicode="&#xaf;" horiz-adv-x="817" 
d="M715 1380v-170h-613v170h613z" />
    <glyph glyph-name="degree" unicode="&#xb0;" horiz-adv-x="722" 
d="M362 1413q124 0 205.5 -80.5t81.5 -208.5q0 -126 -81.5 -206t-205.5 -80q-127 0 -207.5 79.5t-80.5 206.5q0 128 80.5 208.5t207.5 80.5zM362 1300q-74 0 -124 -49t-50 -127q0 -77 50.5 -125.5t123.5 -48.5t123 48.5t50 125.5q0 78 -50 127t-123 49z" />
    <glyph glyph-name="plusminus" unicode="&#xb1;" 
d="M674 1067v-272h430v-113h-430v-272h-119v272h-430v113h430v272h119zM1104 319v-116h-979v116h979z" />
    <glyph glyph-name="uni00B2" unicode="&#xb2;" horiz-adv-x="843" 
d="M35 713l-6 12l381 457q106 127 106 184q0 36 -26.5 57t-71.5 21q-100 0 -223 -84l-101 176q182 111 350 111q141 0 218 -66t77 -186q0 -69 -31 -131.5t-112 -157.5l-117 -137q-53 -58 -76 -72l3 -6q48 18 131 18h260l2 -2l-117 -194h-647z" />
    <glyph glyph-name="uni00B3" unicode="&#xb3;" horiz-adv-x="825" 
d="M379 694q-82 0 -167 16t-146 46l75 200q121 -59 236 -59q168 0 168 102q0 57 -62 81t-217 24v174q223 0 223 94q0 76 -116 76q-100 0 -221 -59l-84 178q171 80 342 80q143 0 223 -59.5t80 -166.5q0 -60 -30.5 -109.5t-90.5 -76.5q-37 -19 -90 -21v-8q52 0 90 -12
q80 -22 124 -77.5t44 -139.5q0 -135 -100.5 -209t-280.5 -74z" />
    <glyph glyph-name="acute" unicode="&#xb4;" horiz-adv-x="671" 
d="M567 1448l2 -6l-290 -309h-175l-2 6l211 309h254z" />
    <glyph glyph-name="uni00B5" unicode="&#xb5;" horiz-adv-x="1118" 
d="M752 946h252v-946h-246q0 120 26 215l-10 2q-48 -125 -127.5 -186.5t-200.5 -61.5q-54 0 -114 17v-396h-228v1002h5v354h258v-526q0 -108 47 -162.5t135 -54.5q94 0 148.5 71.5t54.5 210.5v461z" />
    <glyph glyph-name="paragraph" unicode="&#xb6;" horiz-adv-x="1312" 
d="M1210 1434v-187h-129v-1464h-186v1464h-209v-1464h-186v852q-170 0 -284 113.5t-114 293.5q0 174 119 283t299 109h690z" />
    <glyph glyph-name="periodcentered" unicode="&#xb7;" horiz-adv-x="489" 
d="M102 641v305h285v-305h-285z" />
    <glyph glyph-name="cedilla" unicode="&#xb8;" horiz-adv-x="567" 
d="M328 66l-49 -136q186 -44 186 -149q0 -41 -25.5 -77t-75 -66.5t-94.5 -51.5t-111 -49q-13 -5 -20 -8l-37 80q49 27 67.5 37.5t45.5 29t36 31.5t9 27q0 48 -123 76l92 256h99z" />
    <glyph glyph-name="uni00B9" unicode="&#xb9;" horiz-adv-x="600" 
d="M244 713v493q0 58 12 90l-6 4q-18 -21 -47 -34l-129 -58v205l180 123l31 90h172v-913h-213z" />
    <glyph glyph-name="ordmasculine" unicode="&#xba;" horiz-adv-x="858" 
d="M428 1360q155 0 255.5 -92.5t100.5 -241.5t-100.5 -241.5t-255.5 -92.5q-154 0 -254 92.5t-100 241.5t100 241.5t254 92.5zM428 1176q-65 0 -109.5 -41t-44.5 -109t44.5 -108.5t109.5 -40.5t109.5 40.5t44.5 108.5t-44.5 109t-109.5 41z" />
    <glyph glyph-name="guillemotright" unicode="&#xbb;" horiz-adv-x="989" 
d="M20 858h256l295 -397l-295 -398h-256v9l175 233q63 86 86 114t41 40v4q-18 13 -41.5 40.5t-85.5 112.5l-175 234v8zM406 858h256l294 -397l-294 -398h-256v9l174 233q63 86 86 114t41 40v4q-18 13 -41.5 40.5t-85.5 112.5l-174 234v8z" />
    <glyph glyph-name="onequarter" unicode="&#xbc;" horiz-adv-x="1433" 
d="M254 592v485q0 50 14 82l-6 2q-9 -13 -43 -28l-121 -58v121l164 100l21 86h92v-790h-121zM193 0l811 1382h131l-811 -1382h-131zM1112 0v111q0 20 4 32v4q-15 -6 -35 -6h-383v99l410 551h125v-500q0 -25 -6 -37l2 -2q12 6 28 6h113l-43 -117h-67q-19 0 -31 6l-2 -4
q6 -9 6 -30v-113h-121zM836 250q20 8 69 8h168q25 0 43 -6l2 2q-4 10 -4 41v237q0 78 6 105l-4 2q-5 -13 -10.5 -23t-17.5 -26t-19 -27l-197 -268q-25 -32 -38 -43z" />
    <glyph glyph-name="onehalf" unicode="&#xbd;" horiz-adv-x="1523" 
d="M254 592v485q0 50 14 82l-6 2q-9 -13 -43 -28l-121 -58v121l164 100l21 86h92v-790h-121zM215 0l809 1382h131l-809 -1382h-131zM862 0l-6 10l328 404q1 2 11.5 14t13.5 16.5t12.5 16.5t13 19t11 19.5t11 21.5t8 21t6 24t1.5 24q0 49 -31.5 75.5t-85.5 26.5
q-91 0 -211 -67l-53 102q141 82 276 82q106 0 169 -55.5t63 -151.5q0 -66 -29.5 -124.5t-93.5 -133.5l-139 -170q-39 -48 -76 -70l2 -6q43 15 106 15h269l2 -2l-68 -111h-510z" />
    <glyph glyph-name="threequarters" unicode="&#xbe;" horiz-adv-x="1638" 
d="M346 573q-143 0 -250 52l47 114q99 -47 199 -47q80 0 125 32.5t45 98.5q0 67 -58.5 99t-199.5 32v113q105 0 162 31t57 90q0 44 -34 69t-95 25q-84 0 -194 -55l-52 104q133 70 264 70q115 0 177.5 -52t62.5 -141q0 -76 -49 -126.5t-143 -59.5v-6q109 -2 170 -53t61 -148
q0 -114 -77 -178t-218 -64zM365 0l809 1382h131l-809 -1382h-131zM1300 0v111q0 17 5 32v4q-15 -6 -35 -6h-383v99l409 551h125v-500q0 -25 -6 -37l2 -2q12 6 29 6h113l-43 -117h-68q-19 0 -31 6l-2 -4q6 -9 6 -30v-113h-121zM1024 250q20 8 70 8h168q25 0 43 -6l2 2
q-4 10 -4 41v237q0 78 6 105l-4 2q-4 -13 -10.5 -23t-18 -25.5t-19.5 -27.5l-196 -268q-23 -30 -39 -43z" />
    <glyph glyph-name="questiondown" unicode="&#xbf;" horiz-adv-x="712" 
d="M485 1024v-305h-284v305h284zM338 -440q-158 0 -244 71t-86 191q0 135 109 244l108 108q60 60 60 109q0 38 -28.5 68.5t-90.5 64.5l106 188q57 -25 99 -50t85 -62.5t66 -89t23 -113.5q0 -64 -27.5 -115.5t-85.5 -107.5l-88 -86q-70 -70 -70 -119q0 -35 27 -56.5t76 -21.5
q92 0 239 88l101 -197q-198 -114 -379 -114z" />
    <glyph glyph-name="Agrave" unicode="&#xc0;" horiz-adv-x="1460" 
d="M618 1747l201 -219l-2 -6h-172l-301 219l2 6h272zM16 0l693 1462h43l692 -1462h-291l-152 340h-542l-152 -340h-291zM524 541q30 6 105 6h202q75 0 105 -6l2 2q-27 34 -61 106l-95 225q-44 106 -47 156h-8q-6 -53 -49 -156l-94 -225q-27 -62 -62 -106z" />
    <glyph glyph-name="Aacute" unicode="&#xc1;" horiz-adv-x="1460" 
d="M1114 1747l2 -6l-301 -219h-172l-2 6l203 219h270zM16 0l693 1462h43l692 -1462h-291l-152 340h-542l-152 -340h-291zM524 541q30 6 105 6h202q75 0 105 -6l2 2q-27 34 -61 106l-95 225q-44 106 -47 156h-8q-6 -53 -49 -156l-94 -225q-27 -62 -62 -106z" />
    <glyph glyph-name="Acircumflex" unicode="&#xc2;" horiz-adv-x="1460" 
d="M369 1522v8l235 237h252l236 -237v-8h-222l-57 57q-41 41 -57.5 64t-20.5 47h-8q-6 -24 -23 -47.5t-57 -63.5l-57 -57h-221zM16 0l693 1462h43l692 -1462h-291l-152 340h-542l-152 -340h-291zM524 541q30 6 105 6h202q75 0 105 -6l2 2q-27 34 -61 106l-95 225
q-44 106 -47 156h-8q-6 -53 -49 -156l-94 -225q-27 -62 -62 -106z" />
    <glyph glyph-name="Atilde" unicode="&#xc3;" horiz-adv-x="1460" 
d="M455 1513l-88 31q28 101 81 160t146 59q58 0 183.5 -33.5t166.5 -33.5q38 0 62 17t45 54l88 -30q-28 -100 -81 -159.5t-145 -59.5q-60 0 -185.5 33.5t-166.5 33.5q-37 0 -59.5 -16.5t-46.5 -55.5zM16 0l693 1462h43l692 -1462h-291l-152 340h-542l-152 -340h-291z
M524 541q30 6 105 6h202q75 0 105 -6l2 2q-27 34 -61 106l-95 225q-44 106 -47 156h-8q-6 -53 -49 -156l-94 -225q-27 -62 -62 -106z" />
    <glyph glyph-name="Adieresis" unicode="&#xc4;" horiz-adv-x="1460" 
d="M436 1759h209v-237h-209v237zM817 1759h209v-237h-209v237zM16 0l693 1462h43l692 -1462h-291l-152 340h-542l-152 -340h-291zM524 541q30 6 105 6h202q75 0 105 -6l2 2q-27 34 -61 106l-95 225q-44 106 -47 156h-8q-6 -53 -49 -156l-94 -225q-27 -62 -62 -106z" />
    <glyph glyph-name="Aring" unicode="&#xc5;" horiz-adv-x="1460" 
d="M768 1425l676 -1425h-291l-152 340h-542l-152 -340h-291l676 1425q-59 16 -98 66q-46 58 -37.5 126t68.5 112q60 45 128 36t115 -69q46 -58 38 -125t-68 -113q-36 -25 -70 -33zM653 1546q23 -33 58.5 -41t68.5 11q34 20 42.5 55t-13.5 69q-23 35 -58 43.5t-69 -12.5
q-34 -20 -42.5 -55.5t13.5 -69.5zM936 541l2 2q-27 34 -61 106l-95 225q-44 106 -47 156h-8q-6 -53 -49 -156l-94 -225q-27 -62 -62 -106l2 -2q30 6 105 6h202q75 0 105 -6z" />
    <glyph glyph-name="AE" unicode="&#xc6;" horiz-adv-x="1933" 
d="M1358 240h487v-240h-782v287q0 37 8 57l-4 4q-16 -8 -53 -8h-467l-215 -340h-316l953 1434h868v-240h-479q-37 0 -53 8l-5 -4q9 -22 9 -57v-201q0 -34 -9 -57l5 -4q16 8 53 8h428v-238h-428q-37 0 -53 8l-5 -4q9 -22 9 -57v-303q0 -35 -9 -57l5 -5q18 9 53 9zM1071 543
q-8 20 -8 57v457q0 80 14 160h-4q-32 -89 -74 -158l-272 -432q-21 -34 -37 -52t-43 -36l2 -4q39 12 111 12h254q40 0 53 -8z" />
    <glyph glyph-name="Ccedilla" unicode="&#xc7;" horiz-adv-x="1394" 
d="M1348 127q-204 -146 -476 -158l-14 -39q186 -44 186 -149q0 -24 -10.5 -47t-24 -41t-41.5 -38t-47.5 -32.5t-59.5 -31.5t-59.5 -27.5t-63.5 -26.5q-13 -5 -19 -8l-37 80q49 27 67.5 37.5t45.5 29t36 31.5t9 27q0 48 -123 76l57 161q-317 19 -514 224.5t-197 521.5
q0 218 97.5 388t273 264.5t400.5 94.5q292 0 514 -157l-146 -222q-172 119 -368 119q-218 0 -354 -135t-136 -352t136 -352.5t354 -135.5q196 0 368 119z" />
    <glyph glyph-name="Egrave" unicode="&#xc8;" horiz-adv-x="1083" 
d="M481 1747l201 -219l-2 -6h-172l-301 219l2 6h272zM993 1434v-240h-536q-34 0 -54 10l-4 -4q9 -22 9 -57v-203q0 -34 -9 -57l4 -4q16 8 54 8h475v-238h-475q-34 0 -54 10l-4 -4q9 -23 9 -57v-307q0 -35 -9 -58l4 -4q22 11 54 11h544v-240h-856v1434h848z" />
    <glyph glyph-name="Eacute" unicode="&#xc9;" horiz-adv-x="1083" 
d="M977 1747l2 -6l-301 -219h-172l-2 6l203 219h270zM993 1434v-240h-536q-34 0 -54 10l-4 -4q9 -22 9 -57v-203q0 -34 -9 -57l4 -4q16 8 54 8h475v-238h-475q-34 0 -54 10l-4 -4q9 -23 9 -57v-307q0 -35 -9 -58l4 -4q22 11 54 11h544v-240h-856v1434h848z" />
    <glyph glyph-name="Ecircumflex" unicode="&#xca;" horiz-adv-x="1083" 
d="M231 1522v8l236 237h252l235 -237v-8h-221l-57 57q-41 41 -57.5 64t-20.5 47h-8q-6 -24 -23 -47.5t-57 -63.5l-57 -57h-222zM993 1434v-240h-536q-34 0 -54 10l-4 -4q9 -22 9 -57v-203q0 -34 -9 -57l4 -4q16 8 54 8h475v-238h-475q-34 0 -54 10l-4 -4q9 -23 9 -57v-307
q0 -35 -9 -58l4 -4q22 11 54 11h544v-240h-856v1434h848z" />
    <glyph glyph-name="Edieresis" unicode="&#xcb;" horiz-adv-x="1083" 
d="M299 1759h209v-237h-209v237zM680 1759h209v-237h-209v237zM993 1434v-240h-536q-34 0 -54 10l-4 -4q9 -22 9 -57v-203q0 -34 -9 -57l4 -4q16 8 54 8h475v-238h-475q-34 0 -54 10l-4 -4q9 -23 9 -57v-307q0 -35 -9 -58l4 -4q22 11 54 11h544v-240h-856v1434h848z" />
    <glyph glyph-name="Igrave" unicode="&#xcc;" horiz-adv-x="550" 
d="M164 1747l201 -219l-3 -6h-172l-301 219l2 6h273zM408 1434v-1434h-263v1434h263z" />
    <glyph glyph-name="Iacute" unicode="&#xcd;" horiz-adv-x="550" 
d="M659 1747l3 -6l-302 -219h-172l-2 6l203 219h270zM408 1434v-1434h-263v1434h263z" />
    <glyph glyph-name="Icircumflex" unicode="&#xce;" horiz-adv-x="550" 
d="M-86 1522v8l236 237h251l236 -237v-8h-221l-58 57q-40 40 -56.5 63.5t-20.5 47.5h-9q-6 -25 -22.5 -48t-56.5 -63l-58 -57h-221zM408 1434v-1434h-263v1434h263z" />
    <glyph glyph-name="Idieresis" unicode="&#xcf;" horiz-adv-x="550" 
d="M-18 1759h208v-237h-208v237zM362 1759h209v-237h-209v237zM408 1434v-1434h-263v1434h263z" />
    <glyph glyph-name="Eth" unicode="&#xd0;" horiz-adv-x="1445" 
d="M635 1434q215 0 382.5 -85.5t263 -249t95.5 -382.5t-95.5 -382.5t-263 -249t-382.5 -85.5h-457v567q0 38 8 58l-4 4q-22 -11 -53 -11h-137v213h137q37 0 53 -8l4 4q-8 20 -8 56v551h457zM647 240q202 0 326.5 124t124.5 353q0 228 -124.5 352.5t-326.5 124.5h-155
q-36 0 -56 10l-4 -4q8 -13 8 -57v-260q0 -43 -8 -56l4 -4q16 8 56 8h288v-213h-288q-34 0 -56 11l-4 -4q8 -13 8 -58v-276q0 -45 -8 -58l4 -4q22 11 56 11h155z" />
    <glyph glyph-name="Ntilde" unicode="&#xd1;" horiz-adv-x="1495" 
d="M479 1513l-88 31q28 101 81 160t146 59q58 0 184 -33.5t167 -33.5q38 0 61 16.5t45 54.5l88 -30q-28 -101 -80.5 -160t-144.5 -59q-60 0 -185.5 33.5t-166.5 33.5q-37 0 -60 -17t-47 -55zM186 1454l815 -813q72 -75 103 -145l8 2q-22 74 -22 254v682h262v-1454h-43
l-813 813q-73 73 -105 145l-8 -2q23 -77 23 -254v-682h-261v1454h41z" />
    <glyph glyph-name="Ograve" unicode="&#xd2;" horiz-adv-x="1628" 
d="M702 1747l201 -219l-2 -6h-172l-301 219l2 6h272zM813 1464q162 0 302 -56t238.5 -154.5t155 -237t56.5 -299.5q0 -214 -96 -385t-268 -267t-388 -96q-215 0 -386.5 96t-267.5 267t-96 385q0 161 56.5 299.5t155 237t238 154.5t300.5 56zM813 1204q-209 0 -341 -136
t-132 -351t132 -351.5t341 -136.5q210 0 342.5 136t132.5 352q0 215 -132 351t-343 136z" />
    <glyph glyph-name="Oacute" unicode="&#xd3;" horiz-adv-x="1628" 
d="M1198 1747l2 -6l-301 -219h-172l-2 6l203 219h270zM813 1464q162 0 302 -56t238.5 -154.5t155 -237t56.5 -299.5q0 -214 -96 -385t-268 -267t-388 -96q-215 0 -386.5 96t-267.5 267t-96 385q0 161 56.5 299.5t155 237t238 154.5t300.5 56zM813 1204q-209 0 -341 -136
t-132 -351t132 -351.5t341 -136.5q210 0 342.5 136t132.5 352q0 215 -132 351t-343 136z" />
    <glyph glyph-name="Ocircumflex" unicode="&#xd4;" horiz-adv-x="1628" 
d="M453 1522v8l235 237h252l236 -237v-8h-222l-57 57q-41 41 -57.5 64t-20.5 47h-8q-6 -24 -23 -47.5t-57 -63.5l-57 -57h-221zM813 1464q162 0 302 -56t238.5 -154.5t155 -237t56.5 -299.5q0 -214 -96 -385t-268 -267t-388 -96q-215 0 -386.5 96t-267.5 267t-96 385
q0 161 56.5 299.5t155 237t238 154.5t300.5 56zM813 1204q-209 0 -341 -136t-132 -351t132 -351.5t341 -136.5q210 0 342.5 136t132.5 352q0 215 -132 351t-343 136z" />
    <glyph glyph-name="Otilde" unicode="&#xd5;" horiz-adv-x="1628" 
d="M539 1513l-88 31q28 101 81 160t146 59q58 0 183.5 -33.5t166.5 -33.5q38 0 62 17t45 54l88 -30q-28 -100 -81 -159.5t-145 -59.5q-60 0 -185.5 33.5t-166.5 33.5q-37 0 -59.5 -16.5t-46.5 -55.5zM813 1464q162 0 302 -56t238.5 -154.5t155 -237t56.5 -299.5
q0 -214 -96 -385t-268 -267t-388 -96q-215 0 -386.5 96t-267.5 267t-96 385q0 161 56.5 299.5t155 237t238 154.5t300.5 56zM813 1204q-209 0 -341 -136t-132 -351t132 -351.5t341 -136.5q210 0 342.5 136t132.5 352q0 215 -132 351t-343 136z" />
    <glyph glyph-name="Odieresis" unicode="&#xd6;" horiz-adv-x="1628" 
d="M520 1759h209v-237h-209v237zM901 1759h209v-237h-209v237zM813 1464q162 0 302 -56t238.5 -154.5t155 -237t56.5 -299.5q0 -214 -96 -385t-268 -267t-388 -96q-215 0 -386.5 96t-267.5 267t-96 385q0 161 56.5 299.5t155 237t238 154.5t300.5 56zM813 1204
q-209 0 -341 -136t-132 -351t132 -351.5t341 -136.5q210 0 342.5 136t132.5 352q0 215 -132 351t-343 136z" />
    <glyph glyph-name="multiply" unicode="&#xd7;" 
d="M979 1059l84 -84l-365 -365l365 -364l-84 -84l-365 364l-364 -364l-84 84l364 364l-364 365l84 84l364 -365z" />
    <glyph glyph-name="Oslash" unicode="&#xd8;" horiz-adv-x="1619" 
d="M1282 1315q134 -100 208.5 -255t74.5 -343q0 -214 -96 -385t-268 -267t-388 -96q-228 0 -410 109l-75 -107l-64 41l78 109q-132 101 -205.5 255t-73.5 341q0 161 56.5 299.5t155 237t238 154.5t300.5 56q227 0 406 -106l71 104l64 -43zM340 717q0 -116 41.5 -212.5
t116.5 -162.5l565 799q-108 63 -250 63q-209 0 -341 -136t-132 -351zM813 229q210 0 342.5 136t132.5 352q0 118 -42.5 215.5t-119.5 163.5l-567 -799q109 -68 254 -68z" />
    <glyph glyph-name="Ugrave" unicode="&#xd9;" horiz-adv-x="1425" 
d="M600 1747l201 -219l-2 -6h-172l-301 219l2 6h272zM1296 1434v-879q0 -273 -156 -428.5t-427 -155.5q-272 0 -428 155.5t-156 428.5v879h268v-869q0 -155 86 -244.5t230 -89.5t229.5 89.5t85.5 244.5v869h268z" />
    <glyph glyph-name="Uacute" unicode="&#xda;" horiz-adv-x="1425" 
d="M1096 1747l2 -6l-301 -219h-172l-2 6l202 219h271zM1296 1434v-879q0 -273 -156 -428.5t-427 -155.5q-272 0 -428 155.5t-156 428.5v879h268v-869q0 -155 86 -244.5t230 -89.5t229.5 89.5t85.5 244.5v869h268z" />
    <glyph glyph-name="Ucircumflex" unicode="&#xdb;" horiz-adv-x="1425" 
d="M350 1522v8l236 237h252l235 -237v-8h-221l-57 57q-41 41 -57.5 64t-20.5 47h-8q-6 -24 -23 -47.5t-57 -63.5l-58 -57h-221zM1296 1434v-879q0 -273 -156 -428.5t-427 -155.5q-272 0 -428 155.5t-156 428.5v879h268v-869q0 -155 86 -244.5t230 -89.5t229.5 89.5
t85.5 244.5v869h268z" />
    <glyph glyph-name="Udieresis" unicode="&#xdc;" horiz-adv-x="1425" 
d="M418 1759h209v-237h-209v237zM799 1759h209v-237h-209v237zM1296 1434v-879q0 -273 -156 -428.5t-427 -155.5q-272 0 -428 155.5t-156 428.5v879h268v-869q0 -155 86 -244.5t230 -89.5t229.5 89.5t85.5 244.5v869h268z" />
    <glyph glyph-name="Yacute" unicode="&#xdd;" horiz-adv-x="1253" 
d="M1012 1747l2 -6l-301 -219h-172l-2 6l202 219h271zM1243 1434l-485 -891v-543h-262v543l-486 891h312l215 -453q9 -19 25.5 -52.5t21.5 -44.5t14 -31.5t12.5 -31.5t7.5 -27t7 -34h4q2 12 4.5 22t6 21t5.5 18.5t7.5 20.5t8 19.5t10.5 24t12 26t16 32.5t18 37l217 453h309z
" />
    <glyph glyph-name="Thorn" unicode="&#xde;" horiz-adv-x="1130" 
d="M391 1434v-230q0 -43 -4 -53l4 -4q12 6 41 6h186q226 0 350 -110t124 -306t-124 -305.5t-350 -109.5h-186q-29 0 -41 6l-4 -4q4 -10 4 -54v-270h-246v1434h246zM391 926l-4 -4q4 -10 4 -48v-274q0 -37 -4 -47l4 -4q12 6 39 6h188q103 0 159.5 48t56.5 134t-56.5 134.5
t-159.5 48.5h-188q-27 0 -39 6z" />
    <glyph glyph-name="germandbls" unicode="&#xdf;" horiz-adv-x="1187" 
d="M721 807q193 -5 301 -97t108 -278q0 -218 -146.5 -330t-410.5 -112h-98v229h80q165 0 241 52.5t76 170.5q0 139 -94 195.5t-280 56.5v207q256 0 256 180q0 81 -50 121.5t-131 40.5q-95 0 -148.5 -53t-53.5 -162v-1294h-250v1274q0 208 117 332t346 124q202 0 311 -92.5
t109 -255.5q0 -120 -69 -201t-214 -100v-8z" />
    <glyph glyph-name="agrave" unicode="&#xe0;" horiz-adv-x="1052" 
d="M281 1448l237 -178l100 -133l-79 -4l-256 178l-129 133zM518 977q224 0 325 -90t101 -291v-596h-254q0 97 31 168l-8 4q-105 -203 -326 -203q-152 0 -245 91.5t-93 240.5q0 150 93 239t249 89q216 0 318 -164l8 4q-17 52 -17 139q-5 74 -58 113t-150 39q-113 0 -281 -41
l-49 211q183 47 356 47zM487 457q-76 0 -123 -41.5t-47 -106.5q0 -66 46.5 -105.5t121.5 -39.5q78 0 127.5 41t49.5 106q0 64 -49 105t-126 41z" />
    <glyph glyph-name="aacute" unicode="&#xe1;" horiz-adv-x="1052" 
d="M897 1448l2 -6l-291 -309h-174l-2 6l211 309h254zM518 977q224 0 325 -90t101 -291v-596h-254q0 97 31 168l-8 4q-105 -203 -326 -203q-152 0 -245 91.5t-93 240.5q0 150 93 239t249 89q216 0 318 -164l8 4q-17 52 -17 139q-5 74 -58 113t-150 39q-113 0 -281 -41
l-49 211q183 47 356 47zM487 457q-76 0 -123 -41.5t-47 -106.5q0 -66 46.5 -105.5t121.5 -39.5q78 0 127.5 41t49.5 106q0 64 -49 105t-126 41z" />
    <glyph glyph-name="acircumflex" unicode="&#xe2;" horiz-adv-x="1052" 
d="M649 1448l232 -309v-6h-205l-72 98q-42 57 -56 82.5t-20 58.5h-4q-6 -34 -20 -59.5t-55 -81.5l-72 -98h-205v6l231 309h246zM518 977q224 0 325 -90t101 -291v-596h-254q0 97 31 168l-8 4q-105 -203 -326 -203q-152 0 -245 91.5t-93 240.5q0 150 93 239t249 89
q216 0 318 -164l8 4q-17 52 -17 139q-5 74 -58 113t-150 39q-113 0 -281 -41l-49 211q183 47 356 47zM487 457q-76 0 -123 -41.5t-47 -106.5q0 -66 46.5 -105.5t121.5 -39.5q78 0 127.5 41t49.5 106q0 64 -49 105t-126 41z" />
    <glyph glyph-name="atilde" unicode="&#xe3;" horiz-adv-x="1052" 
d="M385 1438q52 0 117.5 -24t123 -47.5t89.5 -23.5q65 0 108 99l101 -35q-56 -244 -222 -244q-52 0 -117 24t-122 48.5t-88 24.5q-68 0 -111 -101l-100 35q56 244 221 244zM518 977q224 0 325 -90t101 -291v-596h-254q0 97 31 168l-8 4q-105 -203 -326 -203
q-152 0 -245 91.5t-93 240.5q0 150 93 239t249 89q216 0 318 -164l8 4q-17 52 -17 139q-5 74 -58 113t-150 39q-113 0 -281 -41l-49 211q183 47 356 47zM487 457q-76 0 -123 -41.5t-47 -106.5q0 -66 46.5 -105.5t121.5 -39.5q78 0 127.5 41t49.5 106q0 64 -49 105t-126 41z
" />
    <glyph glyph-name="adieresis" unicode="&#xe4;" horiz-adv-x="1052" 
d="M442 1434v-273h-209v273h209zM821 1434v-273h-209v273h209zM518 977q224 0 325 -90t101 -291v-596h-254q0 97 31 168l-8 4q-105 -203 -326 -203q-152 0 -245 91.5t-93 240.5q0 150 93 239t249 89q216 0 318 -164l8 4q-17 52 -17 139q-5 74 -58 113t-150 39
q-113 0 -281 -41l-49 211q183 47 356 47zM487 457q-76 0 -123 -41.5t-47 -106.5q0 -66 46.5 -105.5t121.5 -39.5q78 0 127.5 41t49.5 106q0 64 -49 105t-126 41z" />
    <glyph glyph-name="aring" unicode="&#xe5;" horiz-adv-x="1052" 
d="M526 1530q107 0 176.5 -68t69.5 -172t-69.5 -171.5t-176.5 -67.5q-106 0 -174.5 67.5t-68.5 171.5t68.5 172t174.5 68zM526 1419q-58 0 -93.5 -36.5t-35.5 -92.5t35.5 -92.5t93.5 -36.5q59 0 95 36.5t36 92.5t-36 92.5t-95 36.5zM518 977q224 0 325 -90t101 -291v-596
h-254q0 97 31 168l-8 4q-105 -203 -326 -203q-152 0 -245 91.5t-93 240.5q0 150 93 239t249 89q216 0 318 -164l8 4q-17 52 -17 139q-5 74 -58 113t-150 39q-113 0 -281 -41l-49 211q183 47 356 47zM487 457q-76 0 -123 -41.5t-47 -106.5q0 -66 46.5 -105.5t121.5 -39.5
q78 0 127.5 41t49.5 106q0 64 -49 105t-126 41z" />
    <glyph glyph-name="ae" unicode="&#xe6;" horiz-adv-x="1689" 
d="M403 -31q-163 0 -258.5 94.5t-95.5 243.5q0 148 95 235t251 87q212 0 314 -164l6 4q-13 48 -17 141q-7 150 -213 150q-109 0 -276 -41l-49 211q195 47 356 47q133 0 205 -38t110 -128h3q120 166 346 166q211 0 333.5 -133.5t122.5 -368.5v-59h-585q-82 0 -117 18l-4 -6
l6 -16q17 -107 84.5 -164.5t181.5 -57.5q159 0 281 113l114 -180q-168 -154 -389 -154q-148 0 -256.5 65t-156.5 177h-7q-45 -109 -148 -175.5t-237 -66.5zM936 565q28 19 102 19h226q88 0 116 -17l4 4q-7 96 -64 148.5t-153 52.5q-97 0 -159.5 -54t-75.5 -149zM485 164
q77 0 127 41t50 106q0 64 -50 105t-127 41q-75 0 -122.5 -40t-47.5 -106t47.5 -106.5t122.5 -40.5z" />
    <glyph glyph-name="ccedilla" unicode="&#xe7;" horiz-adv-x="950" 
d="M911 63q-134 -85 -293 -94l-14 -39q187 -44 187 -149q0 -41 -25.5 -77t-75 -66.5t-94.5 -51.5t-111 -49q-13 -5 -20 -8l-37 80q49 27 67.5 37.5t45.5 29t36 31.5t9 27q0 48 -123 76l59 161q-210 19 -337.5 156t-127.5 346q0 224 145.5 364t377.5 140q179 0 331 -94
l-108 -207q-98 65 -219 65q-119 0 -194 -75t-75 -193t75 -193t194 -75q121 0 219 65z" />
    <glyph glyph-name="egrave" unicode="&#xe8;" horiz-adv-x="1060" 
d="M303 1448l238 -178l100 -133l-80 -4l-256 178l-129 133zM547 977q216 0 338.5 -133t122.5 -369v-59h-586q-85 0 -119 20l-4 -6l8 -22q17 -106 85.5 -162t180.5 -56q159 0 281 113l115 -180q-171 -154 -396 -154q-234 0 -375 136.5t-141 365.5q0 230 135 368t355 138z
M539 772q-97 0 -160.5 -54t-75.5 -149l4 -4q28 19 103 19h223q98 0 117 -17l4 4q-6 96 -63 148.5t-152 52.5z" />
    <glyph glyph-name="eacute" unicode="&#xe9;" horiz-adv-x="1060" 
d="M920 1448l2 -6l-291 -309h-174l-2 6l211 309h254zM547 977q216 0 338.5 -133t122.5 -369v-59h-586q-85 0 -119 20l-4 -6l8 -22q17 -106 85.5 -162t180.5 -56q159 0 281 113l115 -180q-171 -154 -396 -154q-234 0 -375 136.5t-141 365.5q0 230 135 368t355 138zM539 772
q-97 0 -160.5 -54t-75.5 -149l4 -4q28 19 103 19h223q98 0 117 -17l4 4q-6 96 -63 148.5t-152 52.5z" />
    <glyph glyph-name="ecircumflex" unicode="&#xea;" horiz-adv-x="1060" 
d="M672 1448l231 -309v-6h-205l-71 98q-42 57 -56 82.5t-20 58.5h-4q-6 -33 -20 -58.5t-56 -82.5l-72 -98h-204v6l231 309h246zM547 977q216 0 338.5 -133t122.5 -369v-59h-586q-85 0 -119 20l-4 -6l8 -22q17 -106 85.5 -162t180.5 -56q159 0 281 113l115 -180
q-171 -154 -396 -154q-234 0 -375 136.5t-141 365.5q0 230 135 368t355 138zM539 772q-97 0 -160.5 -54t-75.5 -149l4 -4q28 19 103 19h223q98 0 117 -17l4 4q-6 96 -63 148.5t-152 52.5z" />
    <glyph glyph-name="edieresis" unicode="&#xeb;" horiz-adv-x="1060" 
d="M465 1434v-273h-209v273h209zM844 1434v-273h-209v273h209zM547 977q216 0 338.5 -133t122.5 -369v-59h-586q-85 0 -119 20l-4 -6l8 -22q17 -106 85.5 -162t180.5 -56q159 0 281 113l115 -180q-171 -154 -396 -154q-234 0 -375 136.5t-141 365.5q0 230 135 368t355 138z
M539 772q-97 0 -160.5 -54t-75.5 -149l4 -4q28 19 103 19h223q98 0 117 -17l4 4q-6 96 -63 148.5t-152 52.5z" />
    <glyph glyph-name="igrave" unicode="&#xec;" horiz-adv-x="491" 
d="M-12 1448h243l107 -309l-2 -6h-166l-184 309zM371 946v-946h-250v946h250z" />
    <glyph glyph-name="iacute" unicode="&#xed;" horiz-adv-x="491" 
d="M518 1448l2 -6l-182 -309h-168l-2 6l108 309h242zM371 946v-946h-250v946h250z" />
    <glyph glyph-name="icircumflex" unicode="&#xee;" horiz-adv-x="491" 
d="M362 1448l148 -309v-6h-176l-43 98q-35 73 -43 137h-4q-7 -56 -43 -137l-43 -98h-176v6l147 309h233zM371 946v-946h-250v946h250z" />
    <glyph glyph-name="idieresis" unicode="&#xef;" horiz-adv-x="491" 
d="M203 1434v-273h-209v273h209zM500 1434v-273h-209v273h209zM371 946v-946h-250v946h250z" />
    <glyph glyph-name="eth" unicode="&#xf0;" horiz-adv-x="1183" 
d="M803 1309q297 -197 297 -674q0 -329 -146 -497.5t-391 -168.5q-232 0 -371 142t-139 366q0 216 133.5 353t339.5 137q142 0 238 -71t131 -202h8q-12 125 -49 213q-67 170 -221 258l-178 -151l-82 88l137 117q-117 36 -260 45l26 200q243 -18 414 -94l150 127l82 -88z
M567 201q119 0 194 75t75 199t-75.5 198.5t-197.5 74.5q-120 0 -192 -74t-72 -197q0 -124 74 -200t194 -76z" />
    <glyph glyph-name="ntilde" unicode="&#xf1;" horiz-adv-x="1148" 
d="M457 1438q52 0 117 -24t122.5 -47.5t89.5 -23.5q66 0 109 99l100 -35q-56 -244 -221 -244q-41 0 -91.5 15t-89 33.5t-80 33.5t-67.5 15q-36 0 -62 -24.5t-48 -76.5l-100 35q56 244 221 244zM702 977q162 0 249 -95t87 -274v-608h-252v537q0 105 -47 159t-135 54
q-110 0 -171.5 -74.5t-61.5 -220.5v-455h-250v946h250q0 -120 -21 -215l8 -4q99 250 344 250z" />
    <glyph glyph-name="ograve" unicode="&#xf2;" horiz-adv-x="1163" 
d="M336 1448l237 -178l101 -133l-80 -4l-256 178l-129 133zM582 977q228 0 376 -141.5t148 -362.5t-148 -362.5t-376 -141.5t-376.5 141.5t-148.5 362.5t148.5 362.5t376.5 141.5zM582 739q-118 0 -192.5 -73t-74.5 -193t74.5 -193t192.5 -73t192 73t74 193t-74 193t-192 73
z" />
    <glyph glyph-name="oacute" unicode="&#xf3;" horiz-adv-x="1163" 
d="M952 1448l2 -6l-290 -309h-175l-2 6l211 309h254zM582 977q228 0 376 -141.5t148 -362.5t-148 -362.5t-376 -141.5t-376.5 141.5t-148.5 362.5t148.5 362.5t376.5 141.5zM582 739q-118 0 -192.5 -73t-74.5 -193t74.5 -193t192.5 -73t192 73t74 193t-74 193t-192 73z" />
    <glyph glyph-name="ocircumflex" unicode="&#xf4;" horiz-adv-x="1163" 
d="M705 1448l231 -309v-6h-205l-72 98q-41 56 -55 81.5t-20 59.5h-4q-6 -33 -20 -58.5t-56 -82.5l-72 -98h-205v6l232 309h246zM582 977q228 0 376 -141.5t148 -362.5t-148 -362.5t-376 -141.5t-376.5 141.5t-148.5 362.5t148.5 362.5t376.5 141.5zM582 739
q-118 0 -192.5 -73t-74.5 -193t74.5 -193t192.5 -73t192 73t74 193t-74 193t-192 73z" />
    <glyph glyph-name="otilde" unicode="&#xf5;" horiz-adv-x="1163" 
d="M440 1438q52 0 117.5 -24t123 -47.5t89.5 -23.5q66 0 109 99l100 -35q-56 -244 -221 -244q-41 0 -91.5 15t-89 33.5t-80 33.5t-67.5 15q-68 0 -111 -101l-100 35q56 244 221 244zM582 977q228 0 376 -141.5t148 -362.5t-148 -362.5t-376 -141.5t-376.5 141.5
t-148.5 362.5t148.5 362.5t376.5 141.5zM582 739q-118 0 -192.5 -73t-74.5 -193t74.5 -193t192.5 -73t192 73t74 193t-74 193t-192 73z" />
    <glyph glyph-name="odieresis" unicode="&#xf6;" horiz-adv-x="1163" 
d="M498 1434v-273h-209v273h209zM877 1434v-273h-209v273h209zM582 977q228 0 376 -141.5t148 -362.5t-148 -362.5t-376 -141.5t-376.5 141.5t-148.5 362.5t148.5 362.5t376.5 141.5zM582 739q-118 0 -192.5 -73t-74.5 -193t74.5 -193t192.5 -73t192 73t74 193t-74 193
t-192 73z" />
    <glyph glyph-name="divide" unicode="&#xf7;" 
d="M705 1034v-186h-181v186h181zM1145 668v-113h-1061v113h1061zM705 377v-189h-181v189h181z" />
    <glyph glyph-name="oslash" unicode="&#xf8;" horiz-adv-x="1163" 
d="M952 840q73 -67 113.5 -161.5t40.5 -205.5q0 -221 -148 -362.5t-376 -141.5q-182 0 -316 92l-80 -90l-59 47l80 91q-150 144 -150 364q0 221 148.5 362.5t376.5 141.5q175 0 309 -88l80 88l59 -49zM315 473q0 -103 58 -174l354 403q-61 37 -145 37q-118 0 -192.5 -73
t-74.5 -193zM582 207q118 0 192 73t74 193q0 106 -62 178l-356 -403q62 -41 152 -41z" />
    <glyph glyph-name="ugrave" unicode="&#xf9;" horiz-adv-x="1114" 
d="M309 1448l238 -178l100 -133l-80 -4l-256 178l-129 133zM999 946v-946h-247q0 112 28 215l-10 2q-48 -125 -128 -186.5t-202 -61.5q-154 0 -245 101t-91 286v590h258v-526q0 -108 47.5 -162.5t135.5 -54.5q94 0 148.5 71.5t54.5 210.5v461h251z" />
    <glyph glyph-name="uacute" unicode="&#xfa;" horiz-adv-x="1114" 
d="M928 1448l2 -6l-291 -309h-174l-2 6l211 309h254zM999 946v-946h-247q0 112 28 215l-10 2q-48 -125 -128 -186.5t-202 -61.5q-154 0 -245 101t-91 286v590h258v-526q0 -108 47.5 -162.5t135.5 -54.5q94 0 148.5 71.5t54.5 210.5v461h251z" />
    <glyph glyph-name="ucircumflex" unicode="&#xfb;" horiz-adv-x="1114" 
d="M678 1448l231 -309v-6h-204l-72 98q-42 57 -56 82.5t-20 58.5h-4q-6 -33 -20 -58.5t-56 -82.5l-71 -98h-205v6l231 309h246zM999 946v-946h-247q0 112 28 215l-10 2q-48 -125 -128 -186.5t-202 -61.5q-154 0 -245 101t-91 286v590h258v-526q0 -108 47.5 -162.5
t135.5 -54.5q94 0 148.5 71.5t54.5 210.5v461h251z" />
    <glyph glyph-name="udieresis" unicode="&#xfc;" horiz-adv-x="1114" 
d="M471 1434v-273h-209v273h209zM850 1434v-273h-209v273h209zM999 946v-946h-247q0 112 28 215l-10 2q-48 -125 -128 -186.5t-202 -61.5q-154 0 -245 101t-91 286v590h258v-526q0 -108 47.5 -162.5t135.5 -54.5q94 0 148.5 71.5t54.5 210.5v461h251z" />
    <glyph glyph-name="yacute" unicode="&#xfd;" horiz-adv-x="1054" 
d="M903 1448l2 -6l-291 -309h-174l-2 6l211 309h254zM1044 946l-587 -1358h-256l211 480l-400 878h277l188 -450q44 -102 49 -207h9q3 84 36 164l201 493h272z" />
    <glyph glyph-name="thorn" unicode="&#xfe;" horiz-adv-x="1208" 
d="M121 -410v1844h250v-488q0 -108 -23 -188l8 -4q50 100 138 161.5t215 61.5q192 0 318 -138t126 -368q0 -229 -125.5 -365.5t-320.5 -136.5q-113 0 -203.5 54.5t-143.5 162.5l-8 -4q17 -96 17 -217v-375h-248zM639 201q113 0 183.5 72.5t70.5 197.5q0 127 -70.5 200.5
t-183.5 73.5q-118 0 -193 -77t-75 -197q0 -118 74.5 -194t193.5 -76z" />
    <glyph glyph-name="ydieresis" unicode="&#xff;" horiz-adv-x="1054" 
d="M446 1434v-273h-208v273h208zM825 1434v-273h-209v273h209zM1044 946l-587 -1358h-256l211 480l-400 878h277l188 -450q44 -102 49 -207h9q3 84 36 164l201 493h272z" />
    <glyph glyph-name="Amacron" unicode="&#x100;" horiz-adv-x="1460" 
d="M414 1706h630v-162h-630v162zM16 0l693 1462h43l692 -1462h-291l-152 340h-542l-152 -340h-291zM524 541q30 6 105 6h202q75 0 105 -6l2 2q-27 34 -61 106l-95 225q-44 106 -47 156h-8q-6 -53 -49 -156l-94 -225q-27 -62 -62 -106z" />
    <glyph glyph-name="amacron" unicode="&#x101;" horiz-adv-x="1052" 
d="M834 1380v-170h-613v170h613zM518 977q224 0 325 -90t101 -291v-596h-254q0 97 31 168l-8 4q-105 -203 -326 -203q-152 0 -245 91.5t-93 240.5q0 150 93 239t249 89q216 0 318 -164l8 4q-17 52 -17 139q-5 74 -58 113t-150 39q-113 0 -281 -41l-49 211q183 47 356 47z
M487 457q-76 0 -123 -41.5t-47 -106.5q0 -66 46.5 -105.5t121.5 -39.5q78 0 127.5 41t49.5 106q0 64 -49 105t-126 41z" />
    <glyph glyph-name="Abreve" unicode="&#x102;" horiz-adv-x="1460" 
d="M1038 1755q-4 -113 -89 -177.5t-220 -64.5q-134 0 -218.5 65t-88.5 177h176q5 -42 39 -65t92 -23q59 0 93.5 23t39.5 65h176zM16 0l693 1462h43l692 -1462h-291l-152 340h-542l-152 -340h-291zM524 541q30 6 105 6h202q75 0 105 -6l2 2q-27 34 -61 106l-95 225
q-44 106 -47 156h-8q-6 -53 -49 -156l-94 -225q-27 -62 -62 -106z" />
    <glyph glyph-name="abreve" unicode="&#x103;" horiz-adv-x="1052" 
d="M836 1454q0 -145 -87 -230t-223 -85q-135 0 -221 85t-86 230h164q3 -73 39 -113.5t104 -40.5q69 0 105 40t39 114h166zM518 977q224 0 325 -90t101 -291v-596h-254q0 97 31 168l-8 4q-105 -203 -326 -203q-152 0 -245 91.5t-93 240.5q0 150 93 239t249 89q216 0 318 -164
l8 4q-17 52 -17 139q-5 74 -58 113t-150 39q-113 0 -281 -41l-49 211q183 47 356 47zM487 457q-76 0 -123 -41.5t-47 -106.5q0 -66 46.5 -105.5t121.5 -39.5q78 0 127.5 41t49.5 106q0 64 -49 105t-126 41z" />
    <glyph glyph-name="Aogonek" unicode="&#x104;" horiz-adv-x="1460" 
d="M1180 -250q32 0 80 10l30 -147q-102 -25 -145 -25q-92 0 -147.5 42t-55.5 120q0 67 49.5 130.5t151.5 144.5l-142 315h-542l-152 -340h-291l693 1462h43l692 -1462h-176q-154 -133 -154 -199q0 -51 66 -51zM936 541l2 2q-27 34 -61 106l-95 225q-44 106 -47 156h-8
q-6 -53 -49 -156l-94 -225q-27 -62 -62 -106l2 -2q30 6 105 6h202q75 0 105 -6z" />
    <glyph glyph-name="aogonek" unicode="&#x105;" horiz-adv-x="1052" 
d="M803 0q-154 -133 -154 -199q0 -51 66 -51q32 0 80 10l30 -147q-102 -25 -145 -25q-92 0 -147.5 42t-55.5 120q0 69 53 134.5t162 150.5q3 70 29 133l-8 4q-105 -203 -326 -203q-152 0 -245 91.5t-93 240.5q0 150 93 239t249 89q216 0 318 -164l8 4q-17 52 -17 139
q-5 74 -58 113t-150 39q-113 0 -281 -41l-49 211q183 47 356 47q224 0 325 -90t101 -291v-596h-141zM485 164q78 0 127.5 41t49.5 106q0 64 -49 105t-126 41q-76 0 -123 -41.5t-47 -106.5q0 -66 46.5 -105.5t121.5 -39.5z" />
    <glyph glyph-name="Cacute" unicode="&#x106;" horiz-adv-x="1394" 
d="M1190 1747l2 -6l-301 -219h-172l-2 6l203 219h270zM834 -31q-225 0 -400.5 94.5t-273 265t-97.5 388.5t97.5 388t273 264.5t400.5 94.5q292 0 514 -157l-146 -222q-172 119 -368 119q-218 0 -354 -135t-136 -352t136 -352.5t354 -135.5q196 0 368 119l146 -221
q-223 -158 -514 -158z" />
    <glyph glyph-name="cacute" unicode="&#x107;" horiz-adv-x="950" 
d="M920 1448l2 -6l-291 -309h-174l-2 6l211 309h254zM580 -31q-232 0 -377.5 140t-145.5 364t145.5 364t377.5 140q179 0 331 -94l-108 -207q-98 65 -219 65q-119 0 -194 -75t-75 -193t75 -193t194 -75q121 0 219 65l108 -207q-152 -94 -331 -94z" />
    <glyph glyph-name="Ccircumflex" unicode="&#x108;" horiz-adv-x="1394" 
d="M444 1522v8l236 237h252l235 -237v-8h-221l-57 57q-41 41 -57.5 64t-20.5 47h-8q-6 -24 -23 -47.5t-57 -63.5l-57 -57h-222zM834 -31q-225 0 -400.5 94.5t-273 265t-97.5 388.5t97.5 388t273 264.5t400.5 94.5q292 0 514 -157l-146 -222q-172 119 -368 119
q-218 0 -354 -135t-136 -352t136 -352.5t354 -135.5q196 0 368 119l146 -221q-223 -158 -514 -158z" />
    <glyph glyph-name="ccircumflex" unicode="&#x109;" horiz-adv-x="950" 
d="M670 1448l231 -309v-6h-205l-71 98q-42 57 -56 82.5t-20 58.5h-4q-6 -33 -20 -58.5t-56 -82.5l-72 -98h-204v6l231 309h246zM580 -31q-232 0 -377.5 140t-145.5 364t145.5 364t377.5 140q179 0 331 -94l-108 -207q-98 65 -219 65q-119 0 -194 -75t-75 -193t75 -193
t194 -75q121 0 219 65l108 -207q-152 -94 -331 -94z" />
    <glyph glyph-name="Cdotaccent" unicode="&#x10a;" horiz-adv-x="1394" 
d="M928 1769v-247h-246v247h246zM834 -31q-225 0 -400.5 94.5t-273 265t-97.5 388.5t97.5 388t273 264.5t400.5 94.5q292 0 514 -157l-146 -222q-172 119 -368 119q-218 0 -354 -135t-136 -352t136 -352.5t354 -135.5q196 0 368 119l146 -221q-223 -158 -514 -158z" />
    <glyph glyph-name="cdotaccent" unicode="&#x10b;" horiz-adv-x="950" 
d="M686 1434v-306h-276v306h276zM580 -31q-232 0 -377.5 140t-145.5 364t145.5 364t377.5 140q179 0 331 -94l-108 -207q-98 65 -219 65q-119 0 -194 -75t-75 -193t75 -193t194 -75q121 0 219 65l108 -207q-152 -94 -331 -94z" />
    <glyph glyph-name="Ccaron" unicode="&#x10c;" horiz-adv-x="1394" 
d="M1167 1767v-8l-235 -237h-252l-236 237v8h222l57 -57q40 -40 57 -63.5t23 -47.5h8q4 24 20.5 47t57.5 64l57 57h221zM834 -31q-225 0 -400.5 94.5t-273 265t-97.5 388.5t97.5 388t273 264.5t400.5 94.5q292 0 514 -157l-146 -222q-172 119 -368 119q-218 0 -354 -135
t-136 -352t136 -352.5t354 -135.5q196 0 368 119l146 -221q-223 -158 -514 -158z" />
    <glyph glyph-name="ccaron" unicode="&#x10d;" horiz-adv-x="950" 
d="M432 1133l-237 309v6h211l73 -98q40 -56 54 -81t18 -57h8q4 32 18 57t54 81l71 98h213v-6l-237 -309h-246zM580 -31q-232 0 -377.5 140t-145.5 364t145.5 364t377.5 140q179 0 331 -94l-108 -207q-98 65 -219 65q-119 0 -194 -75t-75 -193t75 -193t194 -75q121 0 219 65
l108 -207q-152 -94 -331 -94z" />
    <glyph glyph-name="Dcaron" unicode="&#x10e;" horiz-adv-x="1415" 
d="M950 1767v-8l-235 -237h-252l-236 237v8h222l57 -57q40 -40 57 -63.5t23 -47.5h8q4 24 20.5 47t57.5 64l57 57h221zM602 1434q344 0 547 -194t203 -523t-203 -523t-547 -194h-457v1434h457zM403 1204l-4 -4q9 -22 9 -57v-852q0 -35 -9 -58l4 -4q16 11 54 11h157
q215 0 337 126.5t122 350.5t-122.5 350.5t-336.5 126.5h-157q-39 0 -54 10z" />
    <glyph glyph-name="dcaron" unicode="&#x10f;" horiz-adv-x="1497" 
d="M1260 1495h258l-185 -428h-149zM504 -31q-199 0 -323 139.5t-124 364.5q0 223 124.5 363.5t322.5 140.5q249 0 350 -229l8 2q-22 73 -22 235v479h250v-1464h-244q0 123 14 197l-8 2q-44 -110 -134.5 -170t-213.5 -60zM578 199q122 0 197 75.5t75 198.5t-75 199t-197 76
q-120 0 -189.5 -74t-69.5 -201t69.5 -200.5t189.5 -73.5z" />
    <glyph glyph-name="Dcroat" unicode="&#x110;" horiz-adv-x="1445" 
d="M635 1434q215 0 382.5 -85.5t263 -249t95.5 -382.5t-95.5 -382.5t-263 -249t-382.5 -85.5h-457v567q0 38 8 58l-4 4q-22 -11 -53 -11h-137v213h137q37 0 53 -8l4 4q-8 20 -8 56v551h457zM647 240q202 0 326.5 124t124.5 353q0 228 -124.5 352.5t-326.5 124.5h-155
q-36 0 -56 10l-4 -4q8 -13 8 -57v-260q0 -43 -8 -56l4 -4q16 8 56 8h288v-213h-288q-34 0 -56 11l-4 -4q8 -13 8 -58v-276q0 -45 -8 -58l4 -4q22 11 56 11h155z" />
    <glyph glyph-name="dcroat" unicode="&#x111;" horiz-adv-x="1210" 
d="M1137 1296h75v-149h-75q-42 0 -58 8l-2 -2q10 -20 10 -53v-1100h-243q0 117 14 197l-8 2q-46 -113 -137 -171.5t-211 -58.5q-195 0 -320 137t-125 367t126.5 367t318.5 137q124 0 212.5 -60t137.5 -169l8 2q-24 92 -24 235v115q0 33 10 53l-2 2q-16 -8 -58 -8h-256v149
h256q42 0 58 -8l2 2q-10 20 -10 53v121h251v-121q0 -33 -10 -53l2 -2q16 8 58 8zM573 201q117 0 191 76.5t74 195.5t-74 195.5t-191 76.5q-112 0 -181.5 -72.5t-69.5 -199.5t69.5 -199.5t181.5 -72.5z" />
    <glyph glyph-name="Emacron" unicode="&#x112;" horiz-adv-x="1083" 
d="M276 1706h631v-162h-631v162zM993 1434v-240h-536q-34 0 -54 10l-4 -4q9 -22 9 -57v-203q0 -34 -9 -57l4 -4q16 8 54 8h475v-238h-475q-34 0 -54 10l-4 -4q9 -23 9 -57v-307q0 -35 -9 -58l4 -4q22 11 54 11h544v-240h-856v1434h848z" />
    <glyph glyph-name="emacron" unicode="&#x113;" horiz-adv-x="1060" 
d="M856 1380v-170h-612v170h612zM547 977q216 0 338.5 -133t122.5 -369v-59h-586q-85 0 -119 20l-4 -6l8 -22q17 -106 85.5 -162t180.5 -56q159 0 281 113l115 -180q-171 -154 -396 -154q-234 0 -375 136.5t-141 365.5q0 230 135 368t355 138zM539 772q-97 0 -160.5 -54
t-75.5 -149l4 -4q28 19 103 19h223q98 0 117 -17l4 4q-6 96 -63 148.5t-152 52.5z" />
    <glyph glyph-name="Ebreve" unicode="&#x114;" horiz-adv-x="1083" 
d="M901 1755q-4 -113 -89 -177.5t-220 -64.5q-134 0 -218.5 65t-88.5 177h176q5 -42 39 -65t92 -23q59 0 93.5 23t39.5 65h176zM993 1434v-240h-536q-34 0 -54 10l-4 -4q9 -22 9 -57v-203q0 -34 -9 -57l4 -4q16 8 54 8h475v-238h-475q-34 0 -54 10l-4 -4q9 -23 9 -57v-307
q0 -35 -9 -58l4 -4q22 11 54 11h544v-240h-856v1434h848z" />
    <glyph glyph-name="ebreve" unicode="&#x115;" horiz-adv-x="1060" 
d="M858 1454q0 -145 -86.5 -230t-222.5 -85q-135 0 -221 85t-86 230h164q3 -73 39 -113.5t104 -40.5q137 0 143 154h166zM547 977q216 0 338.5 -133t122.5 -369v-59h-586q-85 0 -119 20l-4 -6l8 -22q17 -106 85.5 -162t180.5 -56q159 0 281 113l115 -180
q-171 -154 -396 -154q-234 0 -375 136.5t-141 365.5q0 230 135 368t355 138zM539 772q-97 0 -160.5 -54t-75.5 -149l4 -4q28 19 103 19h223q98 0 117 -17l4 4q-6 96 -63 148.5t-152 52.5z" />
    <glyph glyph-name="Edotaccent" unicode="&#x116;" horiz-adv-x="1083" 
d="M715 1769v-247h-246v247h246zM993 1434v-240h-536q-34 0 -54 10l-4 -4q9 -22 9 -57v-203q0 -34 -9 -57l4 -4q16 8 54 8h475v-238h-475q-34 0 -54 10l-4 -4q9 -23 9 -57v-307q0 -35 -9 -58l4 -4q22 11 54 11h544v-240h-856v1434h848z" />
    <glyph glyph-name="edotaccent" unicode="&#x117;" horiz-adv-x="1060" 
d="M688 1434v-306h-276v306h276zM547 977q216 0 338.5 -133t122.5 -369v-59h-586q-85 0 -119 20l-4 -6l8 -22q17 -106 85.5 -162t180.5 -56q159 0 281 113l115 -180q-171 -154 -396 -154q-234 0 -375 136.5t-141 365.5q0 230 135 368t355 138zM539 772q-97 0 -160.5 -54
t-75.5 -149l4 -4q28 19 103 19h223q98 0 117 -17l4 4q-6 96 -63 148.5t-152 52.5z" />
    <glyph glyph-name="Eogonek" unicode="&#x118;" horiz-adv-x="1083" 
d="M961 0q-154 -133 -154 -199q0 -51 65 -51q32 0 80 10l31 -147q-102 -25 -145 -25q-92 0 -147.5 42t-55.5 120q0 62 42.5 120t129.5 130h-662v1434h848v-240h-536q-34 0 -54 10l-4 -4q9 -22 9 -57v-203q0 -34 -9 -57l4 -4q16 8 54 8h475v-238h-475q-34 0 -54 10l-4 -4
q9 -23 9 -57v-307q0 -35 -9 -58l4 -4q22 11 54 11h544v-240h-40z" />
    <glyph glyph-name="eogonek" unicode="&#x119;" horiz-adv-x="1060" 
d="M422 416q-85 0 -119 20l-4 -6l8 -22q17 -106 85.5 -162t180.5 -56q159 0 281 113l115 -180q-65 -59 -148 -100l13 -5q-90 -76 -132.5 -128t-42.5 -89q0 -51 66 -51q32 0 80 10l31 -147q-102 -25 -146 -25q-92 0 -147.5 42t-55.5 120q0 56 34.5 108t103.5 113
q-16 -2 -52 -2q-234 0 -375 136.5t-141 365.5q0 230 135 368t355 138q216 0 338.5 -133t122.5 -369v-59h-586zM539 772q-97 0 -160.5 -54t-75.5 -149l4 -4q28 19 103 19h223q98 0 117 -17l4 4q-6 96 -63 148.5t-152 52.5z" />
    <glyph glyph-name="Ecaron" unicode="&#x11a;" horiz-adv-x="1083" 
d="M954 1767v-8l-235 -237h-252l-236 237v8h222l57 -57q40 -40 57 -63.5t23 -47.5h8q4 24 20.5 47t57.5 64l57 57h221zM993 1434v-240h-536q-34 0 -54 10l-4 -4q9 -22 9 -57v-203q0 -34 -9 -57l4 -4q16 8 54 8h475v-238h-475q-34 0 -54 10l-4 -4q9 -23 9 -57v-307
q0 -35 -9 -58l4 -4q22 11 54 11h544v-240h-856v1434h848z" />
    <glyph glyph-name="ecaron" unicode="&#x11b;" horiz-adv-x="1060" 
d="M432 1133l-237 309v6h211l73 -98q40 -56 54 -81t18 -57h8q4 32 18 57t54 81l71 98h213v-6l-237 -309h-246zM547 977q216 0 338.5 -133t122.5 -369v-59h-586q-85 0 -119 20l-4 -6l8 -22q17 -106 85.5 -162t180.5 -56q159 0 281 113l115 -180q-171 -154 -396 -154
q-234 0 -375 136.5t-141 365.5q0 230 135 368t355 138zM539 772q-97 0 -160.5 -54t-75.5 -149l4 -4q28 19 103 19h223q98 0 117 -17l4 4q-6 96 -63 148.5t-152 52.5z" />
    <glyph glyph-name="Gcircumflex" unicode="&#x11c;" horiz-adv-x="1585" 
d="M440 1522v8l236 237h252l235 -237v-8h-221l-57 57q-41 41 -57.5 64t-20.5 47h-8q-6 -24 -23 -47.5t-57 -63.5l-57 -57h-222zM829 1464q314 0 551 -186l-161 -215q-77 64 -180.5 102.5t-219.5 38.5q-215 0 -347 -136t-132 -349q0 -218 133 -354t350 -136q107 0 192.5 32.5
t137 86.5t79.5 116t32 128l-4 4q-30 -21 -134 -21h-305v232h713v-72q0 -125 -27.5 -237.5t-85 -209.5t-140 -167.5t-200 -111t-258.5 -40.5q-164 0 -305 53.5t-241 150t-157 236.5t-57 306q0 165 55.5 304t155 237t242.5 153t313 55z" />
    <glyph glyph-name="gcircumflex" unicode="&#x11d;" horiz-adv-x="1204" 
d="M705 1448l231 -309v-6h-205l-72 98q-41 56 -55 81.5t-20 59.5h-4q-6 -33 -20 -58.5t-56 -82.5l-72 -98h-205v6l232 309h246zM504 977q124 0 211.5 -60t136.5 -169l8 2q-22 67 -22 196h252v-885q0 -501 -529 -501q-262 0 -448 114l112 215q158 -94 326 -94q133 0 213 62.5
t80 171.5v28q0 75 16 140l-8 2q-112 -219 -350 -219q-198 0 -321.5 135.5t-123.5 357.5q0 225 125 364.5t322 139.5zM571 745q-115 0 -183.5 -73.5t-68.5 -198.5t68.5 -198.5t183.5 -73.5q118 0 193.5 75.5t75.5 196.5t-75.5 196.5t-193.5 75.5z" />
    <glyph glyph-name="Gbreve" unicode="&#x11e;" horiz-adv-x="1585" 
d="M1112 1755q-4 -113 -89 -177.5t-220 -64.5q-134 0 -218.5 65t-88.5 177h176q5 -42 39 -65t92 -23q59 0 93.5 23t39.5 65h176zM829 1464q314 0 551 -186l-161 -215q-77 64 -180.5 102.5t-219.5 38.5q-215 0 -347 -136t-132 -349q0 -218 133 -354t350 -136
q107 0 192.5 32.5t137 86.5t79.5 116t32 128l-4 4q-30 -21 -134 -21h-305v232h713v-72q0 -125 -27.5 -237.5t-85 -209.5t-140 -167.5t-200 -111t-258.5 -40.5q-164 0 -305 53.5t-241 150t-157 236.5t-57 306q0 165 55.5 304t155 237t242.5 153t313 55z" />
    <glyph glyph-name="gbreve" unicode="&#x11f;" horiz-adv-x="1204" 
d="M891 1454q0 -145 -86.5 -230t-222.5 -85q-135 0 -221.5 85t-86.5 230h164q3 -73 39.5 -113.5t104.5 -40.5q137 0 143 154h166zM504 977q124 0 211.5 -60t136.5 -169l8 2q-22 67 -22 196h252v-885q0 -501 -529 -501q-262 0 -448 114l112 215q158 -94 326 -94
q133 0 213 62.5t80 171.5v28q0 75 16 140l-8 2q-112 -219 -350 -219q-198 0 -321.5 135.5t-123.5 357.5q0 225 125 364.5t322 139.5zM571 745q-115 0 -183.5 -73.5t-68.5 -198.5t68.5 -198.5t183.5 -73.5q118 0 193.5 75.5t75.5 196.5t-75.5 196.5t-193.5 75.5z" />
    <glyph glyph-name="Gdotaccent" unicode="&#x120;" horiz-adv-x="1585" 
d="M926 1769v-247h-246v247h246zM829 1464q314 0 551 -186l-161 -215q-77 64 -180.5 102.5t-219.5 38.5q-215 0 -347 -136t-132 -349q0 -218 133 -354t350 -136q107 0 192.5 32.5t137 86.5t79.5 116t32 128l-4 4q-30 -21 -134 -21h-305v232h713v-72q0 -125 -27.5 -237.5
t-85 -209.5t-140 -167.5t-200 -111t-258.5 -40.5q-164 0 -305 53.5t-241 150t-157 236.5t-57 306q0 165 55.5 304t155 237t242.5 153t313 55z" />
    <glyph glyph-name="gdotaccent" unicode="&#x121;" horiz-adv-x="1204" 
d="M721 1434v-306h-277v306h277zM504 977q124 0 211.5 -60t136.5 -169l8 2q-22 67 -22 196h252v-885q0 -501 -529 -501q-262 0 -448 114l112 215q158 -94 326 -94q133 0 213 62.5t80 171.5v28q0 75 16 140l-8 2q-112 -219 -350 -219q-198 0 -321.5 135.5t-123.5 357.5
q0 225 125 364.5t322 139.5zM571 745q-115 0 -183.5 -73.5t-68.5 -198.5t68.5 -198.5t183.5 -73.5q118 0 193.5 75.5t75.5 196.5t-75.5 196.5t-193.5 75.5z" />
    <glyph glyph-name="Gcommaaccent" unicode="&#x122;" horiz-adv-x="1585" 
d="M829 1464q314 0 551 -186l-161 -215q-77 64 -180.5 102.5t-219.5 38.5q-215 0 -347 -136t-132 -349q0 -218 133 -354t350 -136q107 0 192.5 32.5t137 86.5t79.5 116t32 128l-4 4q-30 -21 -134 -21h-305v232h713v-72q0 -125 -27.5 -237.5t-85 -209.5t-140 -167.5
t-200 -111t-258.5 -40.5q-164 0 -305 53.5t-241 150t-157 236.5t-57 306q0 165 55.5 304t155 237t242.5 153t313 55zM932 -104l-182 -336h-127l63 336h246z" />
    <glyph glyph-name="gcommaaccent" unicode="&#x123;" horiz-adv-x="1204" 
d="M709 1133h-269l209 350h131zM504 977q124 0 211.5 -60t136.5 -169l8 2q-22 67 -22 196h252v-885q0 -501 -529 -501q-262 0 -448 114l112 215q158 -94 326 -94q133 0 213 62.5t80 171.5v28q0 75 16 140l-8 2q-112 -219 -350 -219q-198 0 -321.5 135.5t-123.5 357.5
q0 225 125 364.5t322 139.5zM571 745q-115 0 -183.5 -73.5t-68.5 -198.5t68.5 -198.5t183.5 -73.5q118 0 193.5 75.5t75.5 196.5t-75.5 196.5t-193.5 75.5z" />
    <glyph glyph-name="Hcircumflex" unicode="&#x124;" horiz-adv-x="1482" 
d="M379 1522v8l235 237h252l236 -237v-8h-221l-58 57q-41 41 -57.5 64t-20.5 47h-8q-6 -24 -23 -47.5t-57 -63.5l-57 -57h-221zM1337 1434v-1434h-262v584q0 44 8 57l-4 4q-20 -10 -55 -10h-567q-34 0 -54 10l-4 -4q9 -22 9 -57v-584h-263v1434h263v-502q0 -36 -9 -58l4 -4
q18 9 54 9h567q37 0 55 -9l4 4q-8 13 -8 58v502h262z" />
    <glyph glyph-name="hcircumflex" unicode="&#x125;" horiz-adv-x="1148" 
d="M-115 1522v8l236 237h252l235 -237v-8h-221l-57 57q-41 41 -57.5 64t-20.5 47h-8q-6 -24 -23 -47.5t-57 -63.5l-58 -57h-221zM371 1464v-475q0 -131 -21 -248l8 -2q105 238 342 238q160 0 249 -96t89 -273v-608h-252v537q0 213 -182 213q-109 0 -171 -74.5t-62 -220.5
v-455h-250v1464h250z" />
    <glyph glyph-name="Hbar" unicode="&#x126;" horiz-adv-x="1456" 
d="M135 0v1001q0 38 4 50l-4 2q-16 -4 -41 -4h-102v206h102q29 0 41 -6l4 4q-4 10 -4 47v134h260v-134q0 -37 -4 -47l4 -4q12 6 39 6h588q27 0 39 -6l4 4q-4 10 -4 47v134h260v-134q0 -37 -4 -47l4 -4q12 6 39 6h104v-206h-104q-23 0 -39 4l-4 -2q4 -12 4 -50v-1001h-260
v582q0 42 8 55l-4 4q-20 -8 -49 -8h-576q-29 0 -49 8l-4 -4q8 -13 8 -55v-582h-260zM391 870q22 9 49 9h576q26 0 49 -9l4 4q-8 11 -8 50v77q0 26 4 50l-4 2q-16 -4 -39 -4h-588q-23 0 -39 4l-4 -2q4 -24 4 -50v-77q0 -39 -8 -50z" />
    <glyph glyph-name="hbar" unicode="&#x127;" horiz-adv-x="1148" 
d="M702 977q155 0 246.5 -93t91.5 -276v-608h-252v537q0 213 -184 213q-103 0 -167 -71.5t-64 -223.5v-455h-252v1100q0 33 10 53l-2 2q-16 -8 -57 -8h-74v149h74q41 0 57 -8l2 2q-10 20 -10 53v121h252v-121q0 -31 -11 -53l3 -2q16 8 57 8h258v-149h-258q-41 0 -57 8l-3 -2
q11 -22 11 -53v-111q0 -143 -21 -248l8 -2q103 238 342 238z" />
    <glyph glyph-name="Itilde" unicode="&#x128;" horiz-adv-x="550" 
d="M-88 1513l-88 31q28 101 81 160t146 59q58 0 183.5 -33.5t166.5 -33.5q38 0 62 17t45 54l88 -30q-28 -101 -80.5 -160t-144.5 -59q-60 0 -186 33.5t-167 33.5q-37 0 -59.5 -16.5t-46.5 -55.5zM319 1434v-1434h-262v1434h262z" />
    <glyph glyph-name="itilde" unicode="&#x129;" horiz-adv-x="491" 
d="M147 1438q47 0 95 -24t87 -47.5t64 -23.5q54 0 88 99l101 -35q-52 -244 -201 -244q-37 0 -75 15t-64 33.5t-55 33.5t-50 15q-51 0 -90 -101l-100 35q51 244 200 244zM371 946v-946h-250v946h250z" />
    <glyph glyph-name="Imacron" unicode="&#x12a;" horiz-adv-x="550" 
d="M-41 1706h631v-162h-631v162zM408 1434v-1434h-263v1434h263z" />
    <glyph glyph-name="imacron" unicode="&#x12b;" horiz-adv-x="491" 
d="M471 1380v-170h-448v170h448zM371 946v-946h-250v946h250z" />
    <glyph glyph-name="Ibreve" unicode="&#x12c;" horiz-adv-x="550" 
d="M584 1755q-4 -112 -89.5 -177t-220.5 -65q-134 0 -218.5 65t-88.5 177h176q5 -42 39 -65t92 -23q60 0 94.5 23t39.5 65h176zM408 1434v-1434h-263v1434h263z" />
    <glyph glyph-name="ibreve" unicode="&#x12d;" horiz-adv-x="491" 
d="M510 1454q0 -150 -71 -232.5t-193 -82.5q-120 0 -191 82.5t-71 232.5h163q2 -81 25 -119.5t74 -38.5q52 0 74 38t24 120h166zM371 946v-946h-250v946h250z" />
    <glyph glyph-name="Iogonek" unicode="&#x12e;" horiz-adv-x="550" 
d="M285 0q-154 -133 -154 -199q0 -51 66 -51q31 0 79 10l31 -147q-102 -25 -145 -25q-92 0 -147.5 42t-55.5 120q0 65 46 126t140 136v1422h263v-1434h-123z" />
    <glyph glyph-name="iogonek" unicode="&#x12f;" horiz-adv-x="491" 
d="M109 1434h276v-306h-276v306zM121 18v928h250v-946h-119q-154 -133 -154 -199q0 -51 66 -51q32 0 80 10l30 -147q-102 -25 -145 -25q-92 0 -147.5 42t-55.5 120q0 66 48 127.5t147 140.5z" />
    <glyph glyph-name="Idotaccent" unicode="&#x130;" horiz-adv-x="550" 
d="M397 1769v-247h-245v247h245zM408 1434v-1434h-263v1434h263z" />
    <glyph glyph-name="dotlessi" unicode="&#x131;" horiz-adv-x="491" 
d="M371 946v-946h-250v946h250z" />
    <glyph glyph-name="IJ" unicode="&#x132;" horiz-adv-x="1208" 
d="M408 1434v-1434h-263v1434h263zM1063 1434v-1059q0 -198 -84.5 -291.5t-261.5 -93.5q-55 0 -123 8v242q33 -2 92 -2q58 0 86.5 33t28.5 112v1051h262z" />
    <glyph glyph-name="ij" unicode="&#x133;" horiz-adv-x="983" 
d="M385 1434v-306h-276v306h276zM877 1434v-306h-277v306h277zM371 946v-946h-250v946h250zM862 946v-981q0 -405 -399 -405h-23v237h19q153 0 153 176v973h250z" />
    <glyph glyph-name="Jcircumflex" unicode="&#x134;" horiz-adv-x="655" 
d="M18 1522v8l236 237h252l235 -237v-8h-221l-57 57q-41 41 -57.5 64t-20.5 47h-8q-6 -24 -23 -47.5t-57 -63.5l-57 -57h-222zM512 1434v-1059q0 -198 -84.5 -291.5t-261.5 -93.5q-55 0 -123 8v242q33 -2 92 -2q58 0 86.5 33t28.5 112v1051h262z" />
    <glyph glyph-name="jcircumflex" unicode="&#x135;" horiz-adv-x="491" 
d="M362 1448l148 -309v-6h-176l-43 98q-35 73 -43 137h-4q-7 -56 -43 -137l-43 -98h-176v6l147 309h233zM371 946v-981q0 -208 -104 -306.5t-296 -98.5h-22v237h18q154 0 154 176v973h250z" />
    <glyph glyph-name="Kcommaaccent" unicode="&#x136;" horiz-adv-x="1353" 
d="M1266 1434l-478 -555q-77 -86 -120 -111v-8q29 -18 47.5 -36.5t60.5 -68.5l572 -655h-355l-600 719l-6 -2q21 -91 21 -215v-502h-263v1434h263v-422q0 -128 -21 -213l6 -4l525 639h348zM813 -104l-182 -336h-127l63 336h246z" />
    <glyph glyph-name="kcommaaccent" unicode="&#x137;" horiz-adv-x="1064" 
d="M371 1464v-727q0 -130 -25 -207l6 -2l361 418h313l-330 -352q-60 -65 -98 -78v-8q28 -10 86 -68l381 -440h-326l-387 475l-6 -4q25 -73 25 -197v-274h-250v1464h250zM690 -104l-182 -336h-127l63 336h246z" />
    <glyph glyph-name="kgreenlandic" unicode="&#x138;" horiz-adv-x="1060" 
d="M121 0v946h250v-209q0 -127 -25 -207l6 -2l344 418h312l-314 -350q-58 -63 -92 -80v-6q34 -17 80 -68l379 -442h-328l-381 475l-6 -4q25 -73 25 -197v-274h-250z" />
    <glyph glyph-name="Lacute" unicode="&#x139;" horiz-adv-x="1019" 
d="M659 1747l3 -6l-302 -219h-172l-2 6l203 219h270zM408 1434v-1139q0 -33 -9 -55l4 -4q16 8 54 8h547v-244h-859v1434h263z" />
    <glyph glyph-name="lacute" unicode="&#x13a;" horiz-adv-x="491" 
d="M631 1749l2 -6l-301 -219h-172l-2 6l202 219h271zM371 1464v-1464h-250v1464h250z" />
    <glyph glyph-name="Lcommaaccent" unicode="&#x13b;" horiz-adv-x="1019" 
d="M408 1434v-1139q0 -33 -9 -55l4 -4q16 8 54 8h547v-244h-859v1434h263zM717 -104l-182 -336h-127l63 336h246z" />
    <glyph glyph-name="lcommaaccent" unicode="&#x13c;" horiz-adv-x="491" 
d="M371 1464v-1464h-250v1464h250zM369 -104l-183 -336h-127l64 336h246z" />
    <glyph glyph-name="Lcaron" unicode="&#x13d;" horiz-adv-x="1019" 
d="M651 1495h258l-184 -537h-147zM408 1434v-1139q0 -33 -9 -55l4 -4q16 8 54 8h547v-244h-859v1434h263z" />
    <glyph glyph-name="lcaron" unicode="&#x13e;" horiz-adv-x="782" 
d="M545 1495h256l-183 -428h-149zM371 1464v-1464h-250v1464h250z" />
    <glyph glyph-name="Ldot" unicode="&#x13f;" horiz-adv-x="1019" 
d="M408 1434v-1139q0 -33 -9 -55l4 -4q16 8 54 8h547v-244h-859v1434h263zM623 662v305h284v-305h-284z" />
    <glyph glyph-name="ldot" unicode="&#x140;" horiz-adv-x="755" 
d="M371 1464v-1464h-250v1464h250zM465 641v305h285v-305h-285z" />
    <glyph glyph-name="Lslash" unicode="&#x141;" horiz-adv-x="1019" 
d="M145 0v492q0 75 15 114l-4 2q-20 -28 -90 -65l-86 -45v170l165 86v680h263v-465q0 -59 -21 -103l4 -2q29 32 90 64l269 139v-170l-342 -176v-426q0 -40 -9 -55l4 -4q16 8 56 8h545v-244h-859z" />
    <glyph glyph-name="lslash" unicode="&#x142;" horiz-adv-x="602" 
d="M170 0v545q0 58 23 102l-5 2q-28 -32 -67 -51l-101 -53v182l150 78v659h252v-428q0 -84 -27 -127l4 -4q32 38 80 62l103 53v-182l-160 -84v-754h-252z" />
    <glyph glyph-name="Nacute" unicode="&#x143;" horiz-adv-x="1495" 
d="M1139 1747l2 -6l-301 -219h-172l-2 6l202 219h271zM186 1454l815 -813q72 -75 103 -145l8 2q-22 74 -22 254v682h262v-1454h-43l-813 813q-73 73 -105 145l-8 -2q23 -77 23 -254v-682h-261v1454h41z" />
    <glyph glyph-name="nacute" unicode="&#x144;" horiz-adv-x="1148" 
d="M969 1448l2 -6l-291 -309h-174l-2 6l211 309h254zM702 977q162 0 249 -95t87 -274v-608h-252v537q0 105 -47 159t-135 54q-110 0 -171.5 -74.5t-61.5 -220.5v-455h-250v946h250q0 -120 -21 -215l8 -4q99 250 344 250z" />
    <glyph glyph-name="Ncommaaccent" unicode="&#x145;" horiz-adv-x="1495" 
d="M186 1454l815 -813q72 -75 103 -145l8 2q-22 74 -22 254v682h262v-1454h-43l-813 813q-73 73 -105 145l-8 -2q23 -77 23 -254v-682h-261v1454h41zM936 -104l-182 -336h-127l63 336h246z" />
    <glyph glyph-name="ncommaaccent" unicode="&#x146;" horiz-adv-x="1148" 
d="M702 977q162 0 249 -95t87 -274v-608h-252v537q0 105 -47 159t-135 54q-110 0 -171.5 -74.5t-61.5 -220.5v-455h-250v946h250q0 -120 -21 -215l8 -4q99 250 344 250zM702 -104l-182 -336h-127l64 336h245z" />
    <glyph glyph-name="Ncaron" unicode="&#x147;" horiz-adv-x="1495" 
d="M1116 1767v-8l-235 -237h-252l-236 237v8h221l58 -57q40 -40 57 -63.5t23 -47.5h8q4 24 20.5 47t57.5 64l57 57h221zM186 1454l815 -813q72 -75 103 -145l8 2q-22 74 -22 254v682h262v-1454h-43l-813 813q-73 73 -105 145l-8 -2q23 -77 23 -254v-682h-261v1454h41z" />
    <glyph glyph-name="ncaron" unicode="&#x148;" horiz-adv-x="1148" 
d="M481 1133l-237 309v6h211l73 -98q40 -56 54 -81t18 -57h8q4 32 18 57t54 81l72 98h213v-6l-238 -309h-246zM702 977q162 0 249 -95t87 -274v-608h-252v537q0 105 -47 159t-135 54q-110 0 -171.5 -74.5t-61.5 -220.5v-455h-250v946h250q0 -120 -21 -215l8 -4
q99 250 344 250z" />
    <glyph glyph-name="napostrophe" unicode="&#x149;" horiz-adv-x="1148" 
d="M-37 1495h258l-184 -537h-148zM702 977q162 0 249 -95t87 -274v-608h-252v537q0 105 -47 159t-135 54q-110 0 -171.5 -74.5t-61.5 -220.5v-455h-250v946h250q0 -120 -21 -215l8 -4q99 250 344 250z" />
    <glyph glyph-name="Eng" unicode="&#x14a;" horiz-adv-x="1495" 
d="M1352 1434v-1454h-2v-9q0 -381 -392 -381h-106v248h100q71 0 103 37t32 117v209l-591 592q-73 73 -105 145l-8 -2q23 -77 23 -254v-682h-261v1454h41l815 -813q72 -75 103 -145l8 2q-22 74 -22 254v682h262z" />
    <glyph glyph-name="eng" unicode="&#x14b;" horiz-adv-x="1148" 
d="M1038 608v-608v-41q0 -186 -98 -277.5t-278 -91.5h-103v238h96q131 0 131 147v43v519q0 105 -47 159t-135 54q-110 0 -171.5 -74.5t-61.5 -220.5v-455h-250v946h250q0 -120 -21 -215l8 -4q99 250 344 250q162 0 249 -95t87 -274z" />
    <glyph glyph-name="Omacron" unicode="&#x14c;" horiz-adv-x="1628" 
d="M498 1706h630v-162h-630v162zM813 1464q162 0 302 -56t238.5 -154.5t155 -237t56.5 -299.5q0 -214 -96 -385t-268 -267t-388 -96q-215 0 -386.5 96t-267.5 267t-96 385q0 161 56.5 299.5t155 237t238 154.5t300.5 56zM813 1204q-209 0 -341 -136t-132 -351t132 -351.5
t341 -136.5q210 0 342.5 136t132.5 352q0 215 -132 351t-343 136z" />
    <glyph glyph-name="omacron" unicode="&#x14d;" horiz-adv-x="1163" 
d="M889 1380v-170h-613v170h613zM582 977q228 0 376 -141.5t148 -362.5t-148 -362.5t-376 -141.5t-376.5 141.5t-148.5 362.5t148.5 362.5t376.5 141.5zM582 739q-118 0 -192.5 -73t-74.5 -193t74.5 -193t192.5 -73t192 73t74 193t-74 193t-192 73z" />
    <glyph glyph-name="Obreve" unicode="&#x14e;" horiz-adv-x="1628" 
d="M1122 1755q-4 -113 -89 -177.5t-220 -64.5q-134 0 -218.5 65t-88.5 177h176q5 -42 39 -65t92 -23q59 0 93.5 23t39.5 65h176zM813 1464q162 0 302 -56t238.5 -154.5t155 -237t56.5 -299.5q0 -214 -96 -385t-268 -267t-388 -96q-215 0 -386.5 96t-267.5 267t-96 385
q0 161 56.5 299.5t155 237t238 154.5t300.5 56zM813 1204q-209 0 -341 -136t-132 -351t132 -351.5t341 -136.5q210 0 342.5 136t132.5 352q0 215 -132 351t-343 136z" />
    <glyph glyph-name="obreve" unicode="&#x14f;" horiz-adv-x="1163" 
d="M889 1454q0 -145 -86.5 -230t-222.5 -85q-135 0 -221.5 85t-86.5 230h164q3 -73 39.5 -113.5t104.5 -40.5q137 0 143 154h166zM582 977q228 0 376 -141.5t148 -362.5t-148 -362.5t-376 -141.5t-376.5 141.5t-148.5 362.5t148.5 362.5t376.5 141.5zM582 739
q-118 0 -192.5 -73t-74.5 -193t74.5 -193t192.5 -73t192 73t74 193t-74 193t-192 73z" />
    <glyph glyph-name="Ohungarumlaut" unicode="&#x150;" horiz-adv-x="1628" 
d="M983 1747l2 -6l-231 -219h-170v4l213 221h186zM856 1526l215 221h184l2 -6l-231 -219h-168zM813 1464q162 0 302 -56t238.5 -154.5t155 -237t56.5 -299.5q0 -214 -96 -385t-268 -267t-388 -96q-215 0 -386.5 96t-267.5 267t-96 385q0 161 56.5 299.5t155 237t238 154.5
t300.5 56zM813 1204q-209 0 -341 -136t-132 -351t132 -351.5t341 -136.5q210 0 342.5 136t132.5 352q0 215 -132 351t-343 136z" />
    <glyph glyph-name="ohungarumlaut" unicode="&#x151;" horiz-adv-x="1163" 
d="M313 1133l-2 4l238 311h199l2 -4l-256 -311h-181zM643 1133l-2 4l238 311h196l2 -4l-254 -311h-180zM582 977q228 0 376 -141.5t148 -362.5t-148 -362.5t-376 -141.5t-376.5 141.5t-148.5 362.5t148.5 362.5t376.5 141.5zM582 739q-118 0 -192.5 -73t-74.5 -193
t74.5 -193t192.5 -73t192 73t74 193t-74 193t-192 73z" />
    <glyph glyph-name="OE" unicode="&#x152;" horiz-adv-x="2222" 
d="M799 -31q-208 0 -376 94.5t-264 266t-96 387.5q0 162 56 302t154 237t234 152.5t292 55.5q159 0 283.5 -52t199.5 -142l4 2q-8 31 -8 96v66h848v-240h-537q-33 0 -53 10l-4 -4q8 -20 8 -59v-201q0 -37 -8 -57l4 -4q16 8 53 8h475v-238h-475q-33 0 -53 10l-4 -4
q8 -20 8 -57v-305q0 -40 -8 -60l4 -4q22 11 53 11h545v-240h-856v74q0 53 8 90l-4 2q-75 -87 -199.5 -142t-283.5 -55zM811 229q209 0 342 134.5t133 353.5t-133 353t-342 134q-207 0 -338 -134t-131 -353q0 -220 131 -354t338 -134z" />
    <glyph glyph-name="oe" unicode="&#x153;" horiz-adv-x="1849" 
d="M575 -31q-224 0 -371 140.5t-147 363.5t148 363.5t373 140.5q260 0 383 -199h8q122 199 374 199q211 0 333 -135.5t122 -366.5v-59h-586q-85 0 -118 16l-4 -4l8 -20q35 -213 270 -213q151 0 274 110l117 -184q-176 -152 -397 -152q-273 0 -395 207h-9
q-125 -207 -383 -207zM1096 563q32 19 104 19h223q93 0 119 -17l4 4q-12 104 -71 155.5t-152 51.5q-88 0 -152.5 -51t-78.5 -158zM580 209q111 0 185.5 72t74.5 192t-74.5 192t-185.5 72q-112 0 -186.5 -72t-74.5 -192t74.5 -192t186.5 -72z" />
    <glyph glyph-name="Racute" unicode="&#x154;" horiz-adv-x="1282" 
d="M948 1747l2 -6l-301 -219h-172l-2 6l203 219h270zM649 1434q216 0 338.5 -107.5t122.5 -298.5q0 -164 -106.5 -275.5t-241.5 -111.5q-36 0 -60 8v-8q78 -22 154 -117l420 -524h-330l-475 618q-16 0 -31 3q-29 3 -41 10l-4 -4q13 -33 13 -80v-547h-263v1434h504zM403 1208
l-4 -4q9 -22 9 -57v-252q0 -33 -9 -55l4 -4q16 8 54 8h192q91 0 141 46.5t50 129.5q0 82 -49.5 131t-141.5 49h-192q-38 0 -54 8z" />
    <glyph glyph-name="racute" unicode="&#x155;" horiz-adv-x="739" 
d="M778 1448l2 -6l-291 -309h-174l-2 6l211 309h254zM664 975q37 0 53 -2v-266q-41 4 -78 4q-268 0 -268 -310v-401h-250v946h244q0 -113 -27 -278l8 -2q72 309 318 309z" />
    <glyph glyph-name="Rcommaaccent" unicode="&#x156;" horiz-adv-x="1282" 
d="M649 1434q216 0 338.5 -107.5t122.5 -298.5q0 -164 -106.5 -275.5t-241.5 -111.5q-36 0 -60 8v-8q78 -22 154 -117l420 -524h-330l-475 618q-16 0 -31 3q-29 3 -41 10l-4 -4q13 -33 13 -80v-547h-263v1434h504zM403 1208l-4 -4q9 -22 9 -57v-252q0 -33 -9 -55l4 -4
q16 8 54 8h192q91 0 141 46.5t50 129.5q0 82 -49.5 131t-141.5 49h-192q-38 0 -54 8zM801 -104l-183 -336h-126l63 336h246z" />
    <glyph glyph-name="rcommaaccent" unicode="&#x157;" horiz-adv-x="739" 
d="M664 975q37 0 53 -2v-266q-41 4 -78 4q-268 0 -268 -310v-401h-250v946h244q0 -113 -27 -278l8 -2q72 309 318 309zM369 -104l-183 -336h-127l64 336h246z" />
    <glyph glyph-name="Rcaron" unicode="&#x158;" horiz-adv-x="1282" 
d="M926 1767v-8l-236 -237h-252l-235 237v8h221l57 -57q40 -40 57 -63.5t23 -47.5h8q4 24 20.5 47t57.5 64l58 57h221zM649 1434q216 0 338.5 -107.5t122.5 -298.5q0 -164 -106.5 -275.5t-241.5 -111.5q-36 0 -60 8v-8q78 -22 154 -117l420 -524h-330l-475 618q-16 0 -31 3
q-29 3 -41 10l-4 -4q13 -33 13 -80v-547h-263v1434h504zM403 1208l-4 -4q9 -22 9 -57v-252q0 -33 -9 -55l4 -4q16 8 54 8h192q91 0 141 46.5t50 129.5q0 82 -49.5 131t-141.5 49h-192q-38 0 -54 8z" />
    <glyph glyph-name="rcaron" unicode="&#x159;" horiz-adv-x="739" 
d="M291 1133l-238 309v6h211l74 -98q40 -56 54 -81t18 -57h8q4 32 18 57.5t53 80.5l72 98h213v-6l-237 -309h-246zM664 975q37 0 53 -2v-266q-41 4 -78 4q-268 0 -268 -310v-401h-250v946h244q0 -113 -27 -278l8 -2q72 309 318 309z" />
    <glyph glyph-name="Sacute" unicode="&#x15a;" horiz-adv-x="1062" 
d="M946 1747l2 -6l-301 -219h-172l-2 6l203 219h270zM557 1464q205 0 414 -102l-117 -238q-157 88 -299 88q-152 0 -152 -104q0 -40 25 -73t86 -77l248 -176q129 -90 186.5 -182t57.5 -217q0 -199 -129.5 -306.5t-358.5 -107.5q-269 0 -491 137l118 240q201 -123 381 -123
q98 0 151.5 40.5t53.5 105.5q0 50 -32.5 92.5t-110.5 99.5l-234 168q-112 79 -168.5 169t-56.5 204q0 168 114 265t314 97z" />
    <glyph glyph-name="sacute" unicode="&#x15b;" horiz-adv-x="860" 
d="M823 1448l2 -6l-290 -309h-175l-2 6l211 309h254zM430 -31q-221 0 -401 101l100 209q157 -97 313 -97q121 0 121 70q0 27 -19 44t-63 38l-172 78q-211 90 -211 282q0 132 94 207.5t269 75.5q157 0 336 -68l-84 -204q-151 63 -262 63q-52 0 -75.5 -14t-23.5 -45
q0 -28 21.5 -48.5t72.5 -42.5l166 -73q104 -46 154.5 -110t50.5 -163q0 -146 -102.5 -224.5t-284.5 -78.5z" />
    <glyph glyph-name="Scircumflex" unicode="&#x15c;" horiz-adv-x="1062" 
d="M201 1522v8l235 237h252l236 -237v-8h-222l-57 57q-41 41 -57.5 64t-20.5 47h-8q-6 -24 -23 -47.5t-57 -63.5l-57 -57h-221zM557 1464q205 0 414 -102l-117 -238q-157 88 -299 88q-152 0 -152 -104q0 -40 25 -73t86 -77l248 -176q129 -90 186.5 -182t57.5 -217
q0 -199 -129.5 -306.5t-358.5 -107.5q-269 0 -491 137l118 240q201 -123 381 -123q98 0 151.5 40.5t53.5 105.5q0 50 -32.5 92.5t-110.5 99.5l-234 168q-112 79 -168.5 169t-56.5 204q0 168 114 265t314 97z" />
    <glyph glyph-name="scircumflex" unicode="&#x15d;" horiz-adv-x="860" 
d="M573 1448l232 -309v-6h-205l-72 98q-41 56 -55 81.5t-20 59.5h-4q-6 -33 -20 -58.5t-56 -82.5l-72 -98h-205v6l232 309h245zM430 -31q-221 0 -401 101l100 209q157 -97 313 -97q121 0 121 70q0 27 -19 44t-63 38l-172 78q-211 90 -211 282q0 132 94 207.5t269 75.5
q157 0 336 -68l-84 -204q-151 63 -262 63q-52 0 -75.5 -14t-23.5 -45q0 -28 21.5 -48.5t72.5 -42.5l166 -73q104 -46 154.5 -110t50.5 -163q0 -146 -102.5 -224.5t-284.5 -78.5z" />
    <glyph glyph-name="Scedilla" unicode="&#x15e;" horiz-adv-x="1062" 
d="M1006 383q0 -188 -116 -294.5t-323 -117.5l-14 -41q186 -44 186 -149q0 -24 -10.5 -47t-24 -41t-41.5 -38t-47.5 -32.5t-59.5 -31.5t-59.5 -27.5t-63.5 -26.5q-13 -5 -19 -8l-37 80q49 27 67.5 37.5t45.5 29t36 31.5t9 27q0 48 -123 76l57 161q-240 12 -442 135l118 240
q201 -123 381 -123q98 0 151.5 40.5t53.5 105.5q0 50 -32.5 92.5t-110.5 99.5l-234 168q-112 79 -168.5 169t-56.5 204q0 168 114 265t314 97q205 0 414 -102l-117 -238q-157 88 -299 88q-152 0 -152 -104q0 -40 25 -73t86 -77l248 -176q129 -90 186.5 -182t57.5 -217z" />
    <glyph glyph-name="scedilla" unicode="&#x15f;" horiz-adv-x="860" 
d="M817 272q0 -135 -88 -212.5t-246 -88.5l-14 -41q186 -44 186 -149q0 -24 -10.5 -47t-24 -41t-41.5 -38t-47.5 -32.5t-59.5 -31.5t-59.5 -27.5t-63.5 -26.5q-13 -5 -19 -8l-37 80q49 27 67.5 37.5t45.5 29t36 31.5t9 27q0 48 -123 76l57 161q-201 10 -356 99l100 209
q157 -97 313 -97q121 0 121 70q0 27 -19 44t-63 38l-172 78q-211 90 -211 282q0 132 94 207.5t269 75.5q157 0 336 -68l-84 -204q-151 63 -262 63q-52 0 -75.5 -14t-23.5 -45q0 -28 21.5 -48.5t72.5 -42.5l166 -73q104 -46 154.5 -110t50.5 -163z" />
    <glyph glyph-name="Scaron" unicode="&#x160;" horiz-adv-x="1062" 
d="M924 1767v-8l-236 -237h-252l-235 237v8h221l57 -57q40 -40 57 -63.5t23 -47.5h8q4 24 20.5 47t57.5 64l57 57h222zM557 1464q205 0 414 -102l-117 -238q-157 88 -299 88q-152 0 -152 -104q0 -40 25 -73t86 -77l248 -176q129 -90 186.5 -182t57.5 -217
q0 -199 -129.5 -306.5t-358.5 -107.5q-269 0 -491 137l118 240q201 -123 381 -123q98 0 151.5 40.5t53.5 105.5q0 50 -32.5 92.5t-110.5 99.5l-234 168q-112 79 -168.5 169t-56.5 204q0 168 114 265t314 97z" />
    <glyph glyph-name="scaron" unicode="&#x161;" horiz-adv-x="860" 
d="M336 1133l-238 309v6h211l74 -98q40 -56 54 -81t18 -57h8q4 32 18 57t54 81l71 98h213v-6l-237 -309h-246zM430 -31q-221 0 -401 101l100 209q157 -97 313 -97q121 0 121 70q0 27 -19 44t-63 38l-172 78q-211 90 -211 282q0 132 94 207.5t269 75.5q157 0 336 -68
l-84 -204q-151 63 -262 63q-52 0 -75.5 -14t-23.5 -45q0 -28 21.5 -48.5t72.5 -42.5l166 -73q104 -46 154.5 -110t50.5 -163q0 -146 -102.5 -224.5t-284.5 -78.5z" />
    <glyph glyph-name="uni0162" unicode="&#x162;" horiz-adv-x="1085" 
d="M725 1190q-37 0 -53 8l-4 -4q6 -15 6 -55v-1139h-82l-25 -70q187 -44 187 -149q0 -41 -25.5 -77t-75 -66.5t-94.5 -51.5t-111 -49q-13 -5 -20 -8l-37 80q49 27 67.5 37.5t45.5 29t36 31.5t9 27q0 48 -123 76l68 190h-82v1139q0 35 8 55l-4 4q-19 -8 -54 -8h-346v244h1053
v-244h-344z" />
    <glyph glyph-name="uni0163" unicode="&#x163;" horiz-adv-x="673" 
d="M537 723q-65 0 -86 14l-7 -4q11 -34 11 -115v-618h-76l-25 -70q187 -44 187 -149q0 -41 -25.5 -77t-75 -66.5t-94.5 -51.5t-111 -49q-13 -5 -20 -8l-37 80q49 27 67.5 37.5t45.5 29t36 31.5t9 27q0 48 -123 76l68 190h-78v618q0 84 12 115l-6 4q-21 -14 -88 -14h-82v223
h82q67 0 88 -16l6 4q-12 33 -12 96v260l231 162h21v-422q0 -60 -11 -96l7 -4q21 16 86 16h100v-223h-100z" />
    <glyph glyph-name="Tcaron" unicode="&#x164;" horiz-adv-x="1085" 
d="M905 1767v-8l-235 -237h-252l-236 237v8h221l58 -57q40 -40 57 -63.5t23 -47.5h8q4 24 20.5 47t57.5 64l57 57h221zM1069 1434v-244h-344q-37 0 -53 8l-4 -4q6 -15 6 -55v-1139h-262v1139q0 35 8 55l-4 4q-19 -8 -54 -8h-346v244h1053z" />
    <glyph glyph-name="tcaron" unicode="&#x165;" horiz-adv-x="923" 
d="M664 1495h258l-185 -428h-147zM455 1452v-422q0 -60 -11 -96l7 -4q21 16 86 16h100v-223h-100q-65 0 -86 14l-7 -4q11 -34 11 -115v-618h-252v618q0 84 12 115l-6 4q-21 -14 -88 -14h-82v223h82q67 0 88 -16l6 4q-12 33 -12 96v260l231 162h21z" />
    <glyph glyph-name="Tbar" unicode="&#x166;" horiz-adv-x="1087" 
d="M723 1188q-37 0 -53 8l-4 -4q8 -13 8 -55v-144q0 -39 -4 -49l4 -4q12 6 39 6h223v-207h-223q-27 0 -39 6l-4 -4q4 -10 4 -49v-692h-260v692q0 39 4 49l-4 4q-12 -6 -39 -6h-223v207h223q27 0 39 -6l4 4q-4 10 -4 49v144q0 35 8 55l-4 4q-16 -8 -53 -8h-349v246h1055v-246
h-348z" />
    <glyph glyph-name="tbar" unicode="&#x167;" horiz-adv-x="673" 
d="M203 0v379q0 53 8 67l-4 5q-13 -9 -62 -9h-100v150h100q43 0 62 -8l4 4q-8 16 -8 55v27q0 34 14 65l-6 4q-23 -16 -90 -16h-82v223h82q67 0 90 -16l6 4q-14 33 -14 98v258l231 162h21v-420q0 -62 -13 -98l7 -4q23 16 88 16h100v-223h-100q-65 0 -88 16l-7 -4
q13 -29 13 -65v-27q0 -43 -6 -55l4 -4q19 8 61 8h111v-150h-111q-48 0 -61 9l-4 -5q6 -14 6 -67v-379h-252z" />
    <glyph glyph-name="Utilde" unicode="&#x168;" horiz-adv-x="1425" 
d="M436 1513l-88 31q28 101 81 160t146 59q58 0 184 -33.5t167 -33.5q38 0 61 16.5t45 54.5l88 -30q-28 -101 -80.5 -160t-144.5 -59q-60 0 -185.5 33.5t-166.5 33.5q-37 0 -60 -17t-47 -55zM1296 1434v-879q0 -273 -156 -428.5t-427 -155.5q-272 0 -428 155.5t-156 428.5
v879h268v-869q0 -155 86 -244.5t230 -89.5t229.5 89.5t85.5 244.5v869h268z" />
    <glyph glyph-name="utilde" unicode="&#x169;" horiz-adv-x="1114" 
d="M414 1438q52 0 117 -24t122.5 -47.5t89.5 -23.5q65 0 109 99l100 -35q-56 -244 -221 -244q-41 0 -91.5 15t-89 33.5t-80 33.5t-67.5 15q-36 0 -62 -24.5t-48 -76.5l-100 35q56 244 221 244zM999 946v-946h-247q0 112 28 215l-10 2q-48 -125 -128 -186.5t-202 -61.5
q-154 0 -245 101t-91 286v590h258v-526q0 -108 47.5 -162.5t135.5 -54.5q94 0 148.5 71.5t54.5 210.5v461h251z" />
    <glyph glyph-name="Umacron" unicode="&#x16a;" horiz-adv-x="1425" 
d="M397 1706h631v-162h-631v162zM1296 1434v-879q0 -273 -156 -428.5t-427 -155.5q-272 0 -428 155.5t-156 428.5v879h268v-869q0 -155 86 -244.5t230 -89.5t229.5 89.5t85.5 244.5v869h268z" />
    <glyph glyph-name="umacron" unicode="&#x16b;" horiz-adv-x="1114" 
d="M862 1380v-170h-612v170h612zM999 946v-946h-247q0 112 28 215l-10 2q-48 -125 -128 -186.5t-202 -61.5q-154 0 -245 101t-91 286v590h258v-526q0 -108 47.5 -162.5t135.5 -54.5q94 0 148.5 71.5t54.5 210.5v461h251z" />
    <glyph glyph-name="Ubreve" unicode="&#x16c;" horiz-adv-x="1425" 
d="M1020 1755q-4 -113 -89 -177.5t-220 -64.5q-134 0 -219 65t-89 177h177q5 -42 39 -65t92 -23q59 0 93.5 23t39.5 65h176zM1296 1434v-879q0 -273 -156 -428.5t-427 -155.5q-272 0 -428 155.5t-156 428.5v879h268v-869q0 -155 86 -244.5t230 -89.5t229.5 89.5t85.5 244.5
v869h268z" />
    <glyph glyph-name="ubreve" unicode="&#x16d;" horiz-adv-x="1114" 
d="M864 1454q0 -145 -86.5 -230t-222.5 -85q-135 0 -221 85t-86 230h164q3 -73 39 -113.5t104 -40.5q137 0 143 154h166zM999 946v-946h-247q0 112 28 215l-10 2q-48 -125 -128 -186.5t-202 -61.5q-154 0 -245 101t-91 286v590h258v-526q0 -108 47.5 -162.5t135.5 -54.5
q94 0 148.5 71.5t54.5 210.5v461h251z" />
    <glyph glyph-name="Uring" unicode="&#x16e;" horiz-adv-x="1425" 
d="M819 1458q-60 -44 -129 -35t-115 68q-46 58 -37.5 126t68.5 112q60 45 128.5 36t115.5 -69q46 -58 37.5 -125t-68.5 -113zM762 1516q34 20 42.5 55t-13.5 69q-23 35 -58 43.5t-69 -12.5q-34 -20 -42.5 -55.5t13.5 -69.5q23 -33 58.5 -41t68.5 11zM1296 1434v-879
q0 -273 -156 -428.5t-427 -155.5q-272 0 -428 155.5t-156 428.5v879h268v-869q0 -155 86 -244.5t230 -89.5t229.5 89.5t85.5 244.5v869h268z" />
    <glyph glyph-name="uring" unicode="&#x16f;" horiz-adv-x="1114" 
d="M555 1530q107 0 176.5 -68t69.5 -172t-69.5 -171.5t-176.5 -67.5q-106 0 -175 67.5t-69 171.5t69 172t175 68zM555 1419q-58 0 -93.5 -36.5t-35.5 -92.5t35.5 -92.5t93.5 -36.5q59 0 95 36.5t36 92.5t-36 92.5t-95 36.5zM999 946v-946h-247q0 112 28 215l-10 2
q-48 -125 -128 -186.5t-202 -61.5q-154 0 -245 101t-91 286v590h258v-526q0 -108 47.5 -162.5t135.5 -54.5q94 0 148.5 71.5t54.5 210.5v461h251z" />
    <glyph glyph-name="Uhungarumlaut" unicode="&#x170;" horiz-adv-x="1425" 
d="M883 1747l2 -6l-232 -219h-170v4l213 221h187zM756 1526l215 221h184l2 -6l-231 -219h-168zM1296 1434v-879q0 -273 -156 -428.5t-427 -155.5q-272 0 -428 155.5t-156 428.5v879h268v-869q0 -155 86 -244.5t230 -89.5t229.5 89.5t85.5 244.5v869h268z" />
    <glyph glyph-name="uhungarumlaut" unicode="&#x171;" horiz-adv-x="1114" 
d="M287 1133l-2 4l237 311h199l2 -4l-256 -311h-180zM616 1133l-2 4l238 311h197l2 -4l-254 -311h-181zM999 946v-946h-247q0 112 28 215l-10 2q-48 -125 -128 -186.5t-202 -61.5q-154 0 -245 101t-91 286v590h258v-526q0 -108 47.5 -162.5t135.5 -54.5q94 0 148.5 71.5
t54.5 210.5v461h251z" />
    <glyph glyph-name="Uogonek" unicode="&#x172;" horiz-adv-x="1425" 
d="M1028 1434h268v-879q0 -201 -87 -341t-248 -200q-86 -75 -127 -125.5t-41 -87.5q0 -51 65 -51q32 0 80 10l31 -147q-102 -25 -146 -25q-92 0 -147 42t-55 120q0 56 35 109t104 114q-7 0 -23 -1t-24 -1q-272 0 -428 155.5t-156 428.5v879h268v-869q0 -155 86 -244.5
t230 -89.5t229.5 89.5t85.5 244.5v869z" />
    <glyph glyph-name="uogonek" unicode="&#x173;" horiz-adv-x="1114" 
d="M862 0q-153 -132 -153 -199q0 -51 65 -51q32 0 80 10l31 -147q-102 -25 -146 -25q-92 0 -147 42t-55 120q0 70 53 135t164 152q3 87 26 178l-10 2q-48 -125 -128 -186.5t-202 -61.5q-154 0 -245 101t-91 286v590h258v-526q0 -108 47.5 -162.5t135.5 -54.5
q94 0 148.5 71.5t54.5 210.5v461h251v-946h-137z" />
    <glyph glyph-name="Wcircumflex" unicode="&#x174;" horiz-adv-x="1994" 
d="M637 1522v8l235 237h252l236 -237v-8h-221l-58 57q-40 40 -56.5 63.5t-20.5 47.5h-9q-6 -24 -23 -47.5t-57 -63.5l-57 -57h-221zM1016 1454l291 -719q34 -87 46 -127t19 -100h8q6 59 17.5 102t40.5 127l241 697h299l-573 -1452h-45l-316 766q-34 80 -43 167h-8
q-9 -86 -41 -167l-317 -766h-45l-574 1452h299l244 -697q47 -141 57 -229h9q6 60 17.5 100t45.5 127l291 719h37z" />
    <glyph glyph-name="wcircumflex" unicode="&#x175;" horiz-adv-x="1511" 
d="M879 1448l231 -309v-6h-205l-71 98q-42 57 -56 82.5t-20 58.5h-4q-6 -33 -20 -58.5t-56 -82.5l-72 -98h-205v6l232 309h246zM430 -14l-418 960h277l137 -360q42 -112 51 -178h8q7 55 58 162q1 4 2 6t3 5.5t3 6.5l172 375h63l175 -375q36 -77 47.5 -108t17.5 -72h8
q3 29 9.5 55.5t14 47.5t27.5 75l136 360h278l-418 -960h-67l-193 407q-32 67 -43.5 98t-17.5 68h-8q-6 -37 -17.5 -66.5t-44.5 -99.5l-192 -407h-68z" />
    <glyph glyph-name="Ycircumflex" unicode="&#x176;" horiz-adv-x="1253" 
d="M266 1522v8l236 237h252l235 -237v-8h-221l-57 57q-41 41 -57.5 64t-20.5 47h-8q-6 -24 -23 -47.5t-57 -63.5l-58 -57h-221zM1243 1434l-485 -891v-543h-262v543l-486 891h312l215 -453q9 -19 25.5 -52.5t21.5 -44.5t14 -31.5t12.5 -31.5t7.5 -27t7 -34h4q2 12 4.5 22
t6 21t5.5 18.5t7.5 20.5t8 19.5t10.5 24t12 26t16 32.5t18 37l217 453h309z" />
    <glyph glyph-name="ycircumflex" unicode="&#x177;" horiz-adv-x="1054" 
d="M653 1448l232 -309v-6h-205l-72 98q-42 57 -56 82.5t-20 58.5h-4q-6 -34 -20 -59.5t-55 -81.5l-72 -98h-205v6l232 309h245zM1044 946l-587 -1358h-256l211 480l-400 878h277l188 -450q44 -102 49 -207h9q3 84 36 164l201 493h272z" />
    <glyph glyph-name="Ydieresis" unicode="&#x178;" horiz-adv-x="1253" 
d="M332 1759h209v-237h-209v237zM713 1759h209v-237h-209v237zM1243 1434l-485 -891v-543h-262v543l-486 891h312l215 -453q9 -19 25.5 -52.5t21.5 -44.5t14 -31.5t12.5 -31.5t7.5 -27t7 -34h4q2 12 4.5 22t6 21t5.5 18.5t7.5 20.5t8 19.5t10.5 24t12 26t16 32.5t18 37
l217 453h309z" />
    <glyph glyph-name="Zacute" unicode="&#x179;" horiz-adv-x="1267" 
d="M1073 1747l2 -6l-301 -219h-172l-2 6l203 219h270zM1237 1434l4 -11l-792 -1206l6 -4q30 21 66 29t100 8h622l-131 -250h-1092l-4 10l797 1207l-4 4q-58 -37 -182 -37h-523l127 250h1006z" />
    <glyph glyph-name="zacute" unicode="&#x17a;" horiz-adv-x="974" 
d="M922 1448l2 -6l-291 -309h-174l-2 6l211 309h254zM6 0l-4 10l569 748l-6 6q-40 -23 -76.5 -31t-107.5 -8h-307l131 221h760l4 -8l-557 -748l4 -6q36 23 78 30t131 7h338l-136 -221h-821z" />
    <glyph glyph-name="Zdotaccent" unicode="&#x17b;" horiz-adv-x="1267" 
d="M811 1769v-247h-246v247h246zM1237 1434l4 -11l-792 -1206l6 -4q30 21 66 29t100 8h622l-131 -250h-1092l-4 10l797 1207l-4 4q-58 -37 -182 -37h-523l127 250h1006z" />
    <glyph glyph-name="zdotaccent" unicode="&#x17c;" horiz-adv-x="974" 
d="M688 1434v-306h-276v306h276zM6 0l-4 10l569 748l-6 6q-40 -23 -76.5 -31t-107.5 -8h-307l131 221h760l4 -8l-557 -748l4 -6q36 23 78 30t131 7h338l-136 -221h-821z" />
    <glyph glyph-name="Zcaron" unicode="&#x17d;" horiz-adv-x="1267" 
d="M1051 1767v-8l-236 -237h-252l-235 237v8h221l57 -57q40 -40 57 -63.5t23 -47.5h8q4 24 20.5 47t57.5 64l57 57h222zM1237 1434l4 -11l-792 -1206l6 -4q30 21 66 29t100 8h622l-131 -250h-1092l-4 10l797 1207l-4 4q-58 -37 -182 -37h-523l127 250h1006z" />
    <glyph glyph-name="zcaron" unicode="&#x17e;" horiz-adv-x="974" 
d="M434 1133l-237 309v6h211l73 -98q40 -56 54 -81t18 -57h8q4 32 18 57t54 81l72 98h213v-6l-238 -309h-246zM6 0l-4 10l569 748l-6 6q-40 -23 -76.5 -31t-107.5 -8h-307l131 221h760l4 -8l-557 -748l4 -6q36 23 78 30t131 7h338l-136 -221h-821z" />
    <glyph glyph-name="florin" unicode="&#x192;" horiz-adv-x="782" 
d="M657 1401q39 0 95 -6v-224q-78 5 -80 5q-170 0 -170 -162v-17q0 -39 -4 -55l2 -2q21 6 59 6h189v-61h-189q-23 0 -59 6l-2 -2q4 -70 4 -103v-790q0 -110 -28.5 -191t-79 -127t-112 -68t-135.5 -22q-41 0 -112 6v224q33 -4 92 -4q131 0 131 163v809q0 33 4 103l-2 2
q-30 -6 -61 -6h-158v61h158q46 0 61 -6l2 2q-4 32 -4 49v10q0 108 32 187.5t88.5 124.5t126 66.5t152.5 21.5z" />
    <glyph glyph-name="AEacute" unicode="&#x1fc;" horiz-adv-x="1933" 
d="M1491 1522h-172l-2 6l203 219h270l2 -6zM1358 240h487v-240h-782v287q0 37 8 57l-4 4q-16 -8 -53 -8h-467l-215 -340h-316l953 1434h868v-240h-479q-37 0 -53 8l-5 -4q9 -22 9 -57v-201q0 -34 -9 -57l5 -4q16 8 53 8h428v-238h-428q-37 0 -53 8l-5 -4q9 -22 9 -57v-303
q0 -35 -9 -57l5 -5q18 9 53 9zM1071 543q-8 20 -8 57v457q0 80 14 160h-4q-32 -89 -74 -158l-272 -432q-21 -34 -37 -52t-43 -36l2 -4q39 12 111 12h254q40 0 53 -8z" />
    <glyph glyph-name="aeacute" unicode="&#x1fd;" horiz-adv-x="1689" 
d="M1233 1448l2 -6l-291 -309h-174l-2 6l211 309h254zM403 -31q-163 0 -258.5 94.5t-95.5 243.5q0 148 95 235t251 87q212 0 314 -164l6 4q-13 48 -17 141q-7 150 -213 150q-109 0 -276 -41l-49 211q195 47 356 47q133 0 205 -38t110 -128h3q120 166 346 166
q211 0 333.5 -133.5t122.5 -368.5v-59h-585q-82 0 -117 18l-4 -6l6 -16q17 -107 84.5 -164.5t181.5 -57.5q159 0 281 113l114 -180q-168 -154 -389 -154q-148 0 -256.5 65t-156.5 177h-7q-45 -109 -148 -175.5t-237 -66.5zM936 565q28 19 102 19h226q88 0 116 -17l4 4
q-7 96 -64 148.5t-153 52.5q-97 0 -159.5 -54t-75.5 -149zM485 164q77 0 127 41t50 106q0 64 -50 105t-127 41q-75 0 -122.5 -40t-47.5 -106t47.5 -106.5t122.5 -40.5z" />
    <glyph glyph-name="Oslashacute" unicode="&#x1fe;" horiz-adv-x="1619" 
d="M895 1522h-172l-2 6l203 219h270l2 -6zM1282 1315q134 -100 208.5 -255t74.5 -343q0 -214 -96 -385t-268 -267t-388 -96q-228 0 -410 109l-75 -107l-64 41l78 109q-132 101 -205.5 255t-73.5 341q0 161 56.5 299.5t155 237t238 154.5t300.5 56q227 0 406 -106l71 104
l64 -43zM340 717q0 -116 41.5 -212.5t116.5 -162.5l565 799q-108 63 -250 63q-209 0 -341 -136t-132 -351zM813 229q210 0 342.5 136t132.5 352q0 118 -42.5 215.5t-119.5 163.5l-567 -799q109 -68 254 -68z" />
    <glyph glyph-name="oslashacute" unicode="&#x1ff;" horiz-adv-x="1163" 
d="M664 1133h-175l-2 6l211 309h254l2 -6zM952 840q73 -67 113.5 -161.5t40.5 -205.5q0 -221 -148 -362.5t-376 -141.5q-182 0 -316 92l-80 -90l-59 47l80 91q-150 144 -150 364q0 221 148.5 362.5t376.5 141.5q175 0 309 -88l80 88l59 -49zM315 473q0 -103 58 -174l354 403
q-61 37 -145 37q-118 0 -192.5 -73t-74.5 -193zM582 207q118 0 192 73t74 193q0 106 -62 178l-356 -403q62 -41 152 -41z" />
    <glyph glyph-name="Scommaaccent" unicode="&#x218;" horiz-adv-x="1062" 
d="M557 1464q205 0 414 -102l-117 -238q-157 88 -299 88q-152 0 -152 -104q0 -40 25 -73t86 -77l248 -176q129 -90 186.5 -182t57.5 -217q0 -199 -129.5 -306.5t-358.5 -107.5q-269 0 -491 137l118 240q201 -123 381 -123q98 0 151.5 40.5t53.5 105.5q0 50 -32.5 92.5
t-110.5 99.5l-234 168q-112 79 -168.5 169t-56.5 204q0 168 114 265t314 97zM651 -104l-182 -336h-127l64 336h245z" />
    <glyph glyph-name="scommaaccent" unicode="&#x219;" horiz-adv-x="860" 
d="M430 -31q-221 0 -401 101l100 209q157 -97 313 -97q121 0 121 70q0 27 -19 44t-63 38l-172 78q-211 90 -211 282q0 132 94 207.5t269 75.5q157 0 336 -68l-84 -204q-151 63 -262 63q-52 0 -75.5 -14t-23.5 -45q0 -28 21.5 -48.5t72.5 -42.5l166 -73q104 -46 154.5 -110
t50.5 -163q0 -146 -102.5 -224.5t-284.5 -78.5zM567 -104l-182 -336h-127l64 336h245z" />
    <glyph glyph-name="uni021A" unicode="&#x21a;" horiz-adv-x="1085" 
d="M1069 1434v-244h-344q-37 0 -53 8l-4 -4q6 -15 6 -55v-1139h-262v1139q0 35 8 55l-4 4q-19 -8 -54 -8h-346v244h1053zM666 -104l-183 -336h-127l64 336h246z" />
    <glyph glyph-name="uni021B" unicode="&#x21b;" horiz-adv-x="673" 
d="M455 1452v-422q0 -60 -11 -96l7 -4q21 16 86 16h100v-223h-100q-65 0 -86 14l-7 -4q11 -34 11 -115v-618h-252v618q0 84 12 115l-6 4q-21 -14 -88 -14h-82v223h82q67 0 88 -16l6 4q-12 33 -12 96v260l231 162h21zM453 -104l-183 -336h-127l64 336h246z" />
    <glyph glyph-name="uni0237" unicode="&#x237;" horiz-adv-x="491" 
d="M371 946v-981q0 -208 -104 -306.5t-296 -98.5h-22v237h18q154 0 154 176v973h250z" />
    <glyph glyph-name="uni02BC" unicode="&#x2bc;" horiz-adv-x="434" 
d="M137 1495h258l-184 -537h-148z" />
    <glyph glyph-name="circumflex" unicode="&#x2c6;" horiz-adv-x="913" 
d="M580 1448l231 -309v-6h-205l-71 98q-42 57 -56 82.5t-20 58.5h-4q-6 -33 -20 -58.5t-56 -82.5l-72 -98h-205v6l232 309h246z" />
    <glyph glyph-name="caron" unicode="&#x2c7;" horiz-adv-x="925" 
d="M340 1133l-238 309v6h211l74 -98q40 -56 54 -81t18 -57h8q4 32 18 57t54 81l71 98h213v-6l-237 -309h-246z" />
    <glyph glyph-name="breve" unicode="&#x2d8;" horiz-adv-x="821" 
d="M719 1454q0 -145 -86.5 -230t-222.5 -85q-135 0 -221.5 85t-86.5 230h164q3 -73 39.5 -113.5t104.5 -40.5q137 0 143 154h166z" />
    <glyph glyph-name="dotaccent" unicode="&#x2d9;" horiz-adv-x="481" 
d="M379 1434v-306h-277v306h277z" />
    <glyph glyph-name="ring" unicode="&#x2da;" horiz-adv-x="694" 
d="M346 1530q107 0 176.5 -68t69.5 -172t-69.5 -171.5t-176.5 -67.5q-106 0 -175 67.5t-69 171.5t69 172t175 68zM346 1419q-58 0 -93.5 -36.5t-35.5 -92.5t35.5 -92.5t93.5 -36.5q59 0 95 36.5t36 92.5t-36 92.5t-95 36.5z" />
    <glyph glyph-name="ogonek" unicode="&#x2db;" horiz-adv-x="557" 
d="M338 53l111 -33q-90 -76 -132.5 -128t-42.5 -89q0 -51 66 -51q32 0 80 10l31 -147q-102 -25 -146 -25q-92 0 -147.5 42t-55.5 120q0 72 57 139t179 162z" />
    <glyph glyph-name="tilde" unicode="&#x2dc;" horiz-adv-x="964" 
d="M324 1438q52 0 117 -24t122.5 -47.5t89.5 -23.5q65 0 109 99l100 -35q-56 -244 -221 -244q-41 0 -91.5 15t-89 33.5t-80 33.5t-67.5 15q-36 0 -62 -24.5t-48 -76.5l-101 35q56 244 222 244z" />
    <glyph glyph-name="hungarumlaut" unicode="&#x2dd;" horiz-adv-x="970" 
d="M104 1133l-2 4l238 311h199l2 -4l-256 -311h-181zM434 1133l-2 4l238 311h196l2 -4l-254 -311h-180z" />
    <glyph glyph-name="gravecomb" unicode="&#x300;" horiz-adv-x="0" 
d="M-440 1448l237 -178l101 -133l-80 -4l-256 178l-129 133z" />
    <glyph glyph-name="acutecomb" unicode="&#x301;" horiz-adv-x="0" 
d="M-104 1448l2 -6l-291 -309h-174l-2 6l211 309h254z" />
    <glyph glyph-name="uni0302" unicode="&#x302;" horiz-adv-x="0" 
d="M-334 1448l232 -309v-6h-205l-72 98q-42 57 -56 82.5t-20 58.5h-4q-6 -33 -20 -58.5t-56 -82.5l-71 -98h-205v6l231 309h246z" />
    <glyph glyph-name="tildecomb" unicode="&#x303;" horiz-adv-x="0" 
d="M-641 1438q52 0 117.5 -24t123 -47.5t89.5 -23.5q65 0 108 99l101 -35q-56 -244 -222 -244q-52 0 -117 24t-122 48.5t-88 24.5q-68 0 -111 -101l-100 35q56 244 221 244z" />
    <glyph glyph-name="uni0304" unicode="&#x304;" horiz-adv-x="0" 
d="M-102 1380v-170h-613v170h613z" />
    <glyph glyph-name="uni0306" unicode="&#x306;" horiz-adv-x="0" 
d="M-102 1454q0 -145 -87 -230t-223 -85q-135 0 -221 85t-86 230h164q3 -73 39 -113.5t104 -40.5q69 0 105 40t39 114h166z" />
    <glyph glyph-name="uni0307" unicode="&#x307;" horiz-adv-x="0" 
d="M-102 1434v-306h-277v306h277z" />
    <glyph glyph-name="uni0308" unicode="&#x308;" horiz-adv-x="0" 
d="M-481 1434v-273h-209v273h209zM-102 1434v-273h-209v273h209z" />
    <glyph glyph-name="uni030A" unicode="&#x30a;" horiz-adv-x="0" 
d="M-348 1530q107 0 176.5 -68t69.5 -172t-69.5 -171.5t-176.5 -67.5q-106 0 -175 67.5t-69 171.5t69 172t175 68zM-348 1419q-58 0 -93.5 -36.5t-35.5 -92.5t35.5 -92.5t93.5 -36.5q59 0 95 36.5t36 92.5t-36 92.5t-95 36.5z" />
    <glyph glyph-name="uni030B" unicode="&#x30b;" horiz-adv-x="0" 
d="M-866 1133l-2 4l237 311h199l2 -4l-256 -311h-180zM-537 1133l-2 4l238 311h197l2 -4l-254 -311h-181z" />
    <glyph glyph-name="uni030C" unicode="&#x30c;" horiz-adv-x="0" 
d="M-586 1133l-237 309v6h211l73 -98q40 -56 54 -81t18 -57h8q4 32 18 57t54 81l72 98h213v-6l-238 -309h-246z" />
    <glyph glyph-name="uni0326" unicode="&#x326;" horiz-adv-x="0" 
d="M-102 -104l-183 -336h-127l64 336h246z" />
    <glyph glyph-name="uni0327" unicode="&#x327;" horiz-adv-x="0" 
d="M-240 66l-49 -136q187 -44 187 -149q0 -41 -25.5 -77t-75 -66.5t-94.5 -51.5t-111 -49q-13 -5 -20 -8l-37 80q49 27 67.5 37.5t45.5 29t36 31.5t9 27q0 48 -123 76l92 256h98z" />
    <glyph glyph-name="uni0328" unicode="&#x328;" horiz-adv-x="0" 
d="M-219 53l110 -33q-174 -148 -174 -217q0 -51 66 -51q32 0 80 10l31 -147q-102 -25 -146 -25q-92 0 -147.5 42t-55.5 120q0 72 57 139t179 162z" />
    <glyph glyph-name="uni0394" unicode="&#x394;" horiz-adv-x="1286" 
d="M735 1434l510 -1434h-1204l510 1434h184zM643 1071l-303 -921h604z" />
    <glyph glyph-name="uni03A9" unicode="&#x3a9;" horiz-adv-x="1531" 
d="M766 1464q314 0 506 -182t192 -471q0 -115 -37.5 -216.5t-104.5 -177t-156 -129t-195 -79.5v-6q84 16 178 16h289v-219h-590v371q163 31 262.5 147.5t99.5 280.5q0 192 -120 308t-324 116q-203 0 -323.5 -116t-120.5 -308q0 -164 99.5 -280.5t262.5 -147.5v-371h-590v219
h289q94 0 178 -16v6q-106 26 -195 79.5t-156 129t-104.5 177t-37.5 216.5q0 289 192.5 471t505.5 182z" />
    <glyph glyph-name="pi" unicode="&#x3c0;" horiz-adv-x="1273" 
d="M1212 977v-223h-202v-754h-234v754h-233l-176 -754h-236l176 752q-140 -6 -246 -39v223q118 41 301 41h850z" />
    <glyph glyph-name="uni0401" unicode="&#x401;" horiz-adv-x="1083" 
d="M299 1759h209v-237h-209v237zM680 1759h209v-237h-209v237zM993 1434v-240h-536q-34 0 -54 10l-4 -4q9 -22 9 -57v-203q0 -34 -9 -57l4 -4q16 8 54 8h475v-238h-475q-34 0 -54 10l-4 -4q9 -23 9 -57v-307q0 -35 -9 -58l4 -4q22 11 54 11h544v-240h-856v1434h848z" />
    <glyph glyph-name="uni0402" unicode="&#x402;" horiz-adv-x="1495" 
d="M1044 883q207 0 318 -105t111 -301v-86q0 -194 -101.5 -292.5t-300.5 -98.5h-156v246h107q101 0 144.5 38t43.5 126v45q0 88 -54 134t-157 46q-159 0 -378 -62v-573h-263v1139q0 33 9 55l-5 4q-16 -8 -53 -8h-293v244h1098v-244h-442q-35 0 -54 8l-4 -4q7 -18 7 -55v-217
q0 -78 -15 -109l4 -4q203 74 434 74z" />
    <glyph glyph-name="uni0403" unicode="&#x403;" horiz-adv-x="1001" 
d="M934 1747l2 -6l-301 -219h-172l-2 6l203 219h270zM985 1434v-242h-528q-38 0 -54 8l-4 -4q9 -22 9 -55v-1141h-263v1434h840z" />
    <glyph glyph-name="uni0404" unicode="&#x404;" horiz-adv-x="1382" 
d="M813 -31q-340 0 -545 205t-205 543t205 542.5t545 204.5q300 0 522 -151l-129 -226q-178 119 -401 119q-167 0 -282 -84.5t-156 -238.5q-7 -27 -23 -47l4 -5q27 9 74 9h536v-246h-536q-50 0 -74 8l-4 -4q16 -20 23 -47q41 -154 156 -239t282 -85q223 0 401 119l129 -225
q-223 -152 -522 -152z" />
    <glyph glyph-name="uni0405" unicode="&#x405;" horiz-adv-x="1062" 
d="M557 1464q205 0 414 -102l-117 -238q-157 88 -299 88q-152 0 -152 -104q0 -40 25 -73t86 -77l248 -176q129 -90 186.5 -182t57.5 -217q0 -199 -129.5 -306.5t-358.5 -107.5q-269 0 -491 137l118 240q201 -123 381 -123q98 0 151.5 40.5t53.5 105.5q0 50 -32.5 92.5
t-110.5 99.5l-234 168q-112 79 -168.5 169t-56.5 204q0 168 114 265t314 97z" />
    <glyph glyph-name="uni0406" unicode="&#x406;" horiz-adv-x="550" 
d="M408 1434v-1434h-263v1434h263z" />
    <glyph glyph-name="uni0407" unicode="&#x407;" horiz-adv-x="550" 
d="M-18 1759h208v-237h-208v237zM362 1759h209v-237h-209v237zM408 1434v-1434h-263v1434h263z" />
    <glyph glyph-name="uni0408" unicode="&#x408;" horiz-adv-x="655" 
d="M512 1434v-1059q0 -198 -84.5 -291.5t-261.5 -93.5q-55 0 -123 8v242q33 -2 92 -2q58 0 86.5 33t28.5 112v1051h262z" />
    <glyph glyph-name="uni0409" unicode="&#x409;" horiz-adv-x="2152" 
d="M1638 891q223 0 352.5 -119.5t129.5 -325.5q0 -207 -129.5 -326.5t-352.5 -119.5h-544v1008v133q0 42 8 55l-4 4q-19 -8 -54 -8h-462q-38 0 -54 8l-4 -4q8 -20 8 -55v-764q0 -199 -83.5 -293t-260.5 -94q-64 0 -145 8v244q41 -4 113 -4q60 0 87 34.5t27 110.5v1051h1086
v-492q0 -42 -8 -55l4 -4q19 8 53 8h233zM1604 238q118 0 180.5 54t62.5 154q0 99 -63 153t-180 54h-199q-34 0 -53 11l-4 -5q8 -13 8 -57v-311q0 -45 -8 -58l4 -4q21 9 53 9h199z" />
    <glyph glyph-name="uni040A" unicode="&#x40a;" horiz-adv-x="2091" 
d="M145 0v1434h263v-492q0 -32 -9 -55l4 -4q16 8 54 8h526q36 0 55 -8l4 4q-8 13 -8 55v492h262v-492q0 -35 -8 -55l4 -4q19 8 54 8h231q224 0 353.5 -119.5t129.5 -325.5q0 -207 -129.5 -326.5t-353.5 -119.5h-543v602q0 44 8 57l-4 5q-19 -11 -55 -11h-526q-38 0 -54 11
l-4 -5q9 -23 9 -57v-602h-263zM1292 229q21 9 54 9h198q118 0 181 54t63 154q0 98 -64 152.5t-180 54.5h-198q-35 0 -54 11l-4 -5q8 -20 8 -57v-311q0 -38 -8 -58z" />
    <glyph glyph-name="uni040B" unicode="&#x40b;" horiz-adv-x="1466" 
d="M997 883q214 0 330.5 -122.5t116.5 -354.5v-406h-262v383q0 124 -60.5 188t-169.5 64q-151 0 -360 -62v-573h-262v1139q0 35 8 55l-4 4q-16 -8 -53 -8h-265v244h1053v-244h-426q-37 0 -53 8l-4 -4q6 -15 6 -55v-217q0 -74 -14 -109l4 -4q199 74 415 74z" />
    <glyph glyph-name="uni040C" unicode="&#x40c;" horiz-adv-x="1308" 
d="M1032 1747l2 -6l-301 -219h-172l-2 6l203 219h270zM1122 -12q-249 0 -295 225l-49 240q-19 101 -65 143.5t-135 42.5h-117q-49 0 -62 8l-2 -4q11 -29 11 -74v-569h-263v1434h263v-514q0 -43 -11 -72l2 -4q16 8 62 8h117q83 0 129 43.5t69 146.5l49 205q25 103 96.5 151
t200.5 48q76 0 131 -8v-240q-29 4 -71 4q-54 0 -82 -20t-39 -64l-45 -172q-26 -110 -93 -150t-235 -44v-9q173 -5 245.5 -49t94.5 -159l37 -173q14 -69 41 -96.5t84 -27.5q17 0 86 6v-248q-81 -8 -154 -8z" />
    <glyph glyph-name="uni040E" unicode="&#x40e;" horiz-adv-x="1353" 
d="M989 1767q-6 -135 -86 -210.5t-221 -75.5t-220 75.5t-85 210.5h172q0 -69 34 -108t99 -39q66 0 100.5 39t32.5 108h174zM371 -16q-87 0 -195 12l2 246q85 -15 172 -15q120 0 197 140l-537 1067h318l282 -619q48 -100 64.5 -142t23.5 -89h9q7 70 19 111.5t48 125.5
l266 613h303l-493 -1072q-84 -196 -197.5 -287t-281.5 -91z" />
    <glyph glyph-name="uni040F" unicode="&#x40f;" horiz-adv-x="1476" 
d="M616 -287v236q0 37 7 55l-5 4q-16 -8 -53 -8h-420v1434h263v-1141q0 -33 -9 -55l4 -5q18 9 54 9h563q34 0 55 -9l4 5q-8 13 -8 55v1141h262v-1434h-422q-34 0 -53 8l-4 -4q8 -20 8 -55v-236h-246z" />
    <glyph glyph-name="uni0410" unicode="&#x410;" horiz-adv-x="1460" 
d="M16 0l693 1462h43l692 -1462h-291l-152 340h-542l-152 -340h-291zM524 541q30 6 105 6h202q75 0 105 -6l2 2q-27 34 -61 106l-95 225q-44 106 -47 156h-8q-6 -53 -49 -156l-94 -225q-27 -62 -62 -106z" />
    <glyph glyph-name="uni0411" unicode="&#x411;" horiz-adv-x="1271" 
d="M709 891q220 0 352.5 -116.5t132.5 -328.5t-132.5 -329t-352.5 -117h-564v1006v428h969v-242h-657q-38 0 -54 8l-4 -4q9 -22 9 -57v-197q0 -32 -9 -55l4 -4q16 8 54 8h252zM676 238q120 0 182 53t62 155q0 98 -63.5 152.5t-180.5 54.5h-219q-38 0 -54 11l-4 -5
q9 -23 9 -57v-311q0 -35 -9 -58l4 -4q18 9 54 9h219z" />
    <glyph glyph-name="uni0412" unicode="&#x412;" horiz-adv-x="1277" 
d="M145 0v1434h562q186 0 296.5 -97t110.5 -260q0 -108 -51 -184t-143 -107q-53 -19 -111 -22v-8q51 0 115 -15q132 -28 203 -117t71 -227q0 -183 -123 -290t-330 -107h-600zM403 844q16 8 54 8h184q100 0 154.5 48t54.5 134q0 82 -51 125t-148 43h-194q-39 0 -54 10l-4 -4
q9 -22 9 -55v-250q0 -32 -9 -55zM403 221q30 10 56 10h235q232 0 232 195q0 199 -248 199h-221q-38 0 -54 8l-4 -4q9 -23 9 -56v-290q0 -35 -9 -58z" />
    <glyph glyph-name="uni0413" unicode="&#x413;" horiz-adv-x="1001" 
d="M985 1434v-242h-528q-38 0 -54 8l-4 -4q9 -22 9 -55v-1141h-263v1434h840z" />
    <glyph glyph-name="uni0414" unicode="&#x414;" horiz-adv-x="1443" 
d="M10 -287v504h113q37 0 57 -10l4 4q0 37 15 59q79 167 118 359t39 448v357h871v-1164q0 -46 -8 -59l4 -4q23 10 55 10h117v-504h-246v211q0 45 8 58l-4 4q-18 -9 -53 -9h-793q-37 0 -55 9l-4 -4q8 -13 8 -58v-211h-246zM449 207q23 10 55 10h414q33 0 53 -10l4 4
q-6 15 -6 59v873q0 42 6 57l-4 4q-16 -8 -53 -8h-252q-38 0 -54 8l-4 -4q8 -20 8 -57v-109q0 -249 -48 -474.5t-124 -348.5z" />
    <glyph glyph-name="uni0415" unicode="&#x415;" horiz-adv-x="1083" 
d="M993 1434v-240h-536q-34 0 -54 10l-4 -4q9 -22 9 -57v-203q0 -34 -9 -57l4 -4q16 8 54 8h475v-238h-475q-34 0 -54 10l-4 -4q9 -23 9 -57v-307q0 -35 -9 -58l4 -4q22 11 54 11h544v-240h-856v1434h848z" />
    <glyph glyph-name="uni0416" unicode="&#x416;" horiz-adv-x="1951" 
d="M162 -10q-63 0 -123 8v254q50 -4 72 -4q55 0 86 26t45 91l43 194q26 112 88.5 150t220.5 41v8q-165 6 -230 43.5t-92 146.5l-41 172q-20 82 -118 82q-6 0 -72 -4v238q83 6 121 6q128 0 196 -44t97 -151l61 -225q21 -84 67.5 -123t131.5 -39h82q45 0 61 -8l2 4
q-10 22 -10 74v504h252v-504q0 -52 -10 -74l4 -4q13 8 61 8h80q85 0 131 38t68 124l61 225q29 107 97 151t198 44q40 0 119 -6v-238q-62 4 -70 4q-102 0 -119 -82l-43 -172q-26 -109 -90.5 -146.5t-230.5 -43.5v-8q158 -3 221.5 -41t87.5 -150l45 -194q15 -66 45 -91.5
t84 -25.5q26 0 72 4v-254q-60 -8 -121 -8q-137 0 -210 53.5t-101 173.5l-60 264q-19 90 -60.5 127t-123.5 37h-80q-41 0 -61 8l-4 -4q10 -23 10 -76v-573h-252v573q0 53 10 76l-2 4q-24 -8 -61 -8h-82q-80 0 -122.5 -37t-62.5 -127l-57 -264q-28 -120 -102 -173.5
t-209 -53.5z" />
    <glyph glyph-name="uni0417" unicode="&#x417;" horiz-adv-x="1175" 
d="M553 -31q-293 0 -506 115l107 229q198 -94 403 -94q270 0 270 195q0 104 -81 154t-248 50h-197v250h197q272 0 272 185q0 161 -227 161q-175 0 -369 -79l-86 241q257 88 479 88q477 0 477 -362q0 -124 -57.5 -201t-179.5 -115q-65 -21 -141 -24v-8q65 0 141 -13
q148 -32 218.5 -119t70.5 -235q0 -207 -137 -312.5t-406 -105.5z" />
    <glyph glyph-name="uni0418" unicode="&#x418;" horiz-adv-x="1495" 
d="M1309 1454h43v-1454h-262v700q0 178 22 252l-8 2q-32 -72 -103 -143l-815 -831h-41v1454h261v-699q0 -177 -23 -254l8 -2q33 75 105 144z" />
    <glyph glyph-name="uni0419" unicode="&#x419;" horiz-adv-x="1495" 
d="M1110 1767q-6 -135 -86 -210.5t-221 -75.5t-220 75.5t-85 210.5h172q0 -69 34 -108t99 -39q66 0 100.5 39t32.5 108h174zM1309 1454h43v-1454h-262v700q0 178 22 252l-8 2q-32 -72 -103 -143l-815 -831h-41v1454h261v-699q0 -177 -23 -254l8 -2q33 75 105 144z" />
    <glyph glyph-name="uni041A" unicode="&#x41a;" horiz-adv-x="1308" 
d="M1122 -12q-249 0 -295 225l-49 240q-19 101 -65 143.5t-135 42.5h-117q-49 0 -62 8l-2 -4q11 -29 11 -74v-569h-263v1434h263v-514q0 -43 -11 -72l2 -4q16 8 62 8h117q83 0 129 43.5t69 146.5l49 205q25 103 96.5 151t200.5 48q76 0 131 -8v-240q-29 4 -71 4
q-54 0 -82 -20t-39 -64l-45 -172q-26 -110 -93 -150t-235 -44v-9q173 -5 245.5 -49t94.5 -159l37 -173q14 -69 41 -96.5t84 -27.5q17 0 86 6v-248q-81 -8 -154 -8z" />
    <glyph glyph-name="uni041B" unicode="&#x41b;" horiz-adv-x="1538" 
d="M1393 1434v-1434h-263v1141q0 40 9 55l-4 4q-19 -8 -56 -8h-497q-38 0 -54 8l-4 -4q8 -20 8 -55v-764q0 -199 -83.5 -293t-260.5 -94q-64 0 -145 8v244q41 -4 113 -4q60 0 87 34.5t27 110.5v1051h1123z" />
    <glyph glyph-name="uni041C" unicode="&#x41c;" horiz-adv-x="1882" 
d="M926 -14l-322 700q-32 70 -44 112.5t-15 90.5h-8q-4 -116 -33 -207l-209 -682h-279l476 1454h43l366 -840q29 -70 37 -155h8q9 91 35 155l367 840h43l477 -1454h-281l-207 682q-27 88 -32 207h-9q-9 -89 -59 -203l-322 -700h-32z" />
    <glyph glyph-name="uni041D" unicode="&#x41d;" horiz-adv-x="1482" 
d="M1337 1434v-1434h-262v584q0 44 8 57l-4 4q-20 -10 -55 -10h-567q-34 0 -54 10l-4 -4q9 -22 9 -57v-584h-263v1434h263v-502q0 -36 -9 -58l4 -4q18 9 54 9h567q37 0 55 -9l4 4q-8 13 -8 58v502h262z" />
    <glyph glyph-name="uni041E" unicode="&#x41e;" horiz-adv-x="1628" 
d="M813 1464q162 0 302 -56t238.5 -154.5t155 -237t56.5 -299.5q0 -214 -96 -385t-268 -267t-388 -96q-215 0 -386.5 96t-267.5 267t-96 385q0 161 56.5 299.5t155 237t238 154.5t300.5 56zM813 1204q-209 0 -341 -136t-132 -351t132 -351.5t341 -136.5q210 0 342.5 136
t132.5 352q0 215 -132 351t-343 136z" />
    <glyph glyph-name="uni041F" unicode="&#x41f;" horiz-adv-x="1470" 
d="M1325 1434v-1434h-262v1141q0 35 8 55l-4 4q-16 -8 -53 -8h-557q-38 0 -54 8l-4 -4q9 -22 9 -55v-1141h-263v1434h1180z" />
    <glyph glyph-name="uni0420" unicode="&#x420;" horiz-adv-x="1155" 
d="M639 1434q225 0 351 -111.5t126 -312.5q0 -200 -122.5 -312t-338.5 -112h-198q-39 0 -54 10l-4 -4q9 -23 9 -57v-535h-263v1434h494zM403 1208l-4 -4q9 -22 9 -57v-275q0 -34 -9 -57l4 -4q15 10 54 10h188q96 0 149.5 51t53.5 138t-53.5 138.5t-149.5 51.5h-188
q-38 0 -54 8z" />
    <glyph glyph-name="uni0421" unicode="&#x421;" horiz-adv-x="1394" 
d="M834 -31q-225 0 -400.5 94.5t-273 265t-97.5 388.5t97.5 388t273 264.5t400.5 94.5q292 0 514 -157l-146 -222q-172 119 -368 119q-218 0 -354 -135t-136 -352t136 -352.5t354 -135.5q196 0 368 119l146 -221q-223 -158 -514 -158z" />
    <glyph glyph-name="uni0422" unicode="&#x422;" horiz-adv-x="1085" 
d="M1069 1434v-244h-344q-37 0 -53 8l-4 -4q6 -15 6 -55v-1139h-262v1139q0 35 8 55l-4 4q-19 -8 -54 -8h-346v244h1053z" />
    <glyph glyph-name="uni0423" unicode="&#x423;" horiz-adv-x="1353" 
d="M371 -16q-87 0 -195 12l2 246q85 -15 172 -15q120 0 197 140l-537 1067h318l282 -619q48 -100 64.5 -142t23.5 -89h9q7 70 19 111.5t48 125.5l266 613h303l-493 -1072q-84 -196 -197.5 -287t-281.5 -91z" />
    <glyph glyph-name="uni0424" unicode="&#x424;" horiz-adv-x="1736" 
d="M741 -82v98q0 42 11 64l-4 2q-16 -8 -70 -8q-173 0 -314 83.5t-221 231t-80 328.5t80 328.5t221 231t314 83.5q54 0 70 -8l4 2q-11 22 -11 63v99h254v-99q0 -43 -10 -63l4 -2q16 8 70 8q173 0 314 -83.5t220.5 -231t79.5 -328.5t-79.5 -328.5t-220.5 -231t-314 -83.5
q-54 0 -70 8l-4 -2q10 -20 10 -64v-98h-254zM758 303l4 2q-10 20 -10 64v696q0 43 10 63l-4 2q-8 -3 -60 -6q-165 -4 -260.5 -114t-95.5 -293q0 -184 95.5 -294t260.5 -114q52 -3 60 -6zM979 303q8 3 61 6q164 4 260.5 114.5t96.5 293.5t-96.5 292.5t-260.5 114.5
q-53 3 -61 6l-2 -2q10 -20 10 -63v-696q0 -44 -10 -64z" />
    <glyph glyph-name="uni0425" unicode="&#x425;" horiz-adv-x="1388" 
d="M1315 1434l-373 -555q-56 -85 -88 -117v-6q32 -34 96 -129l422 -627h-323l-279 434q-65 103 -76 158h-8q-8 -49 -76 -158l-272 -434h-322l420 633q76 107 96 131v6q-25 23 -88 115l-370 549h321l221 -344q67 -107 78 -160h8q7 45 76 160l213 344h324z" />
    <glyph glyph-name="uni0426" unicode="&#x426;" horiz-adv-x="1533" 
d="M1239 -285v234q0 38 10 55l-4 4q-16 -8 -55 -8h-1045v1434h263v-1141q0 -37 -11 -55l4 -5q18 9 56 9h542q38 0 56 -9l4 5q-10 17 -10 55v1141h262v-1141q0 -35 -8 -55l4 -5q15 9 55 9h125v-527h-248z" />
    <glyph glyph-name="uni0427" unicode="&#x427;" horiz-adv-x="1280" 
d="M874 0v496q0 77 15 108l-4 4q-189 -71 -416 -71q-217 0 -331.5 122.5t-114.5 352.5v422h262v-398q0 -123 58.5 -188.5t170.5 -65.5q151 0 360 62v590h263v-1434h-263z" />
    <glyph glyph-name="uni0428" unicode="&#x428;" horiz-adv-x="2129" 
d="M145 0v1434h263v-1141q0 -37 -11 -55l4 -5q18 9 56 9h428q34 0 55 -9l4 5q-10 17 -10 55v1141h262v-1141q0 -35 -8 -55l4 -5q15 9 55 9h426q38 0 56 -9l4 5q-9 23 -9 55v1141h263v-1434h-1842z" />
    <glyph glyph-name="uni0429" unicode="&#x429;" horiz-adv-x="2211" 
d="M2036 242h127v-527h-246v234q0 35 8 55l-4 4q-16 -8 -55 -8h-1721v1434h263v-1141q0 -37 -11 -55l4 -5q18 9 56 9h428q34 0 55 -9l4 5q-10 17 -10 55v1141h262v-1141q0 -35 -8 -55l4 -5q15 9 55 9h426q38 0 56 -9l4 5q-9 23 -9 55v1141h263v-1141q0 -37 -11 -55l4 -5
q18 9 56 9z" />
    <glyph glyph-name="uni042A" unicode="&#x42a;" horiz-adv-x="1458" 
d="M944 891q223 0 352 -119.5t129 -325.5q0 -207 -129 -326.5t-352 -119.5h-565v1141q0 42 8 55l-4 4q-16 -8 -53 -8h-314v242h625v-492q0 -42 -8 -55l4 -4q19 8 53 8h254zM909 238q118 0 181 54t63 154q0 98 -63.5 152.5t-180.5 54.5h-219q-34 0 -53 11l-4 -5q8 -13 8 -57
v-311q0 -45 -8 -58l4 -4q21 9 53 9h219z" />
    <glyph glyph-name="uni042B" unicode="&#x42b;" horiz-adv-x="1699" 
d="M709 891q224 0 353.5 -119.5t129.5 -325.5q0 -207 -129.5 -326.5t-353.5 -119.5h-564v1034v400h263v-492q0 -32 -9 -55l4 -4q16 8 54 8h252zM1294 1434h262v-1434h-262v1434zM676 238q117 0 180.5 54t63.5 154q0 98 -64 152.5t-180 54.5h-219q-38 0 -54 11l-4 -5
q9 -23 9 -57v-311q0 -35 -9 -58l4 -4q18 9 54 9h219z" />
    <glyph glyph-name="uni042C" unicode="&#x42c;" horiz-adv-x="1222" 
d="M709 891q224 0 353.5 -119.5t129.5 -325.5q0 -207 -129.5 -326.5t-353.5 -119.5h-564v1034v400h263v-492q0 -32 -9 -55l4 -4q16 8 54 8h252zM676 238q117 0 180.5 54t63.5 154q0 98 -64 152.5t-180 54.5h-219q-38 0 -54 11l-4 -5q9 -23 9 -57v-311q0 -35 -9 -58l4 -4
q18 9 54 9h219z" />
    <glyph glyph-name="uni042D" unicode="&#x42d;" horiz-adv-x="1382" 
d="M569 -31q-299 0 -522 152l129 225q178 -119 402 -119q167 0 282 85t156 239q8 29 22 47l-4 4q-24 -8 -73 -8h-537v246h537q46 0 73 -9l4 5q-14 18 -22 47q-41 154 -156 238.5t-282 84.5q-224 0 -402 -119l-129 226q222 151 522 151q340 0 545 -204.5t205 -542.5
t-205 -543t-545 -205z" />
    <glyph glyph-name="uni042E" unicode="&#x42e;" horiz-adv-x="2127" 
d="M1313 1462q216 0 387.5 -95.5t267.5 -266.5t96 -385t-96 -385t-267.5 -267t-387.5 -96q-146 0 -275 46.5t-225.5 129t-159.5 199.5t-82 256h-114q-38 0 -54 8l-4 -4q9 -23 9 -55v-547h-263v1434h263v-543q0 -33 -9 -55l4 -5q18 9 54 9h114q41 278 245 450t497 172z
M1313 225q210 0 342.5 137t132.5 353q0 215 -132 351t-343 136q-209 0 -341 -136t-132 -351q0 -216 132 -353t341 -137z" />
    <glyph glyph-name="uni042F" unicode="&#x42f;" horiz-adv-x="1306" 
d="M631 1434h532v-1434h-262v547q0 47 10 80l-4 4q-9 -7 -41 -10q-27 -3 -55 -3l-477 -618h-328l420 524q39 50 73.5 77t78.5 40v8q-27 -8 -58 -8q-89 0 -169 49.5t-130.5 139.5t-50.5 198q0 188 121.5 297t339.5 109zM905 1208q-19 -8 -55 -8h-213q-89 0 -140 -47.5
t-51 -132.5q0 -84 50.5 -130t140.5 -46h213q36 0 55 -8l4 4q-8 13 -8 55v252q0 44 8 57z" />
    <glyph glyph-name="uni0430" unicode="&#x430;" horiz-adv-x="1052" 
d="M518 977q224 0 325 -90t101 -291v-596h-254q0 97 31 168l-8 4q-105 -203 -326 -203q-152 0 -245 91.5t-93 240.5q0 150 93 239t249 89q216 0 318 -164l8 4q-17 52 -17 139q-5 74 -58 113t-150 39q-113 0 -281 -41l-49 211q183 47 356 47zM487 457q-76 0 -123 -41.5
t-47 -106.5q0 -66 46.5 -105.5t121.5 -39.5q78 0 127.5 41t49.5 106q0 64 -49 105t-126 41z" />
    <glyph glyph-name="uni0431" unicode="&#x431;" horiz-adv-x="1179" 
d="M604 -31q-251 0 -399 162.5t-148 474.5q0 237 65 388.5t197 230.5q46 27 113 51t164 51t111 31q91 27 94 86h254q0 -106 -42.5 -170.5t-140.5 -97.5q-24 -8 -191 -49.5t-232 -73.5q-100 -50 -143.5 -146t-45.5 -254h6q37 148 143 225.5t255 79.5q207 0 332.5 -130
t125.5 -349q0 -228 -142 -369t-376 -141zM598 207q114 0 188 74.5t74 193.5t-74.5 192.5t-191.5 73.5q-114 0 -189 -74.5t-75 -191.5q0 -120 75.5 -194t192.5 -74z" />
    <glyph glyph-name="uni0432" unicode="&#x432;" horiz-adv-x="1026" 
d="M831 473q138 -42 138 -211q0 -125 -89.5 -193.5t-226.5 -68.5h-532v655v291h534q137 0 211 -57.5t74 -173.5q0 -137 -109 -189q-52 -25 -145 -28v-9q92 0 145 -16zM360 752q11 -19 11 -56v-80q0 -31 -11 -53l2 -2q19 8 58 8h153q48 0 75.5 24.5t27.5 68.5q0 83 -105 83
h-151q-37 0 -58 9zM594 201q111 0 111 100q0 96 -111 96h-174q-37 0 -58 9l-2 -3q11 -22 11 -51v-104q0 -31 -11 -53l2 -2q19 8 58 8h174z" />
    <glyph glyph-name="uni0433" unicode="&#x433;" horiz-adv-x="776" 
d="M121 0v946h645v-225h-346q-42 0 -58 8l-2 -2q11 -22 11 -53v-674h-250z" />
    <glyph glyph-name="uni0434" unicode="&#x434;" horiz-adv-x="1173" 
d="M20 -287v494h89q30 0 49 -8l2 2q-3 18 12 51q119 219 119 504v190h719v-692q0 -24 -11 -53l2 -2q19 8 58 8h78v-494h-228v230q0 24 11 53l-2 2q-19 -8 -58 -8h-563q-38 0 -57 8l-2 -2q10 -20 10 -53v-230h-228zM399 197q20 10 62 10h262q38 0 57 -8l2 2q-10 20 -10 53
v432q0 33 10 53l-2 2q-19 -8 -57 -8h-156q-38 0 -57 8l-2 -2q10 -20 10 -53v-45q0 -113 -34.5 -239.5t-86.5 -200.5z" />
    <glyph glyph-name="uni0435" unicode="&#x435;" horiz-adv-x="1060" 
d="M547 977q216 0 338.5 -133t122.5 -369v-59h-586q-85 0 -119 20l-4 -6l8 -22q17 -106 85.5 -162t180.5 -56q159 0 281 113l115 -180q-171 -154 -396 -154q-234 0 -375 136.5t-141 365.5q0 230 135 368t355 138zM539 772q-97 0 -160.5 -54t-75.5 -149l4 -4q28 19 103 19
h223q98 0 117 -17l4 4q-6 96 -63 148.5t-152 52.5z" />
    <glyph glyph-name="uni0436" unicode="&#x436;" horiz-adv-x="1476" 
d="M39 -6v205h41q38 0 56.5 12.5t33.5 48.5l35 111q21 62 67 89.5t144 28.5v9q-96 3 -143 28.5t-66 79.5l-31 78q-19 37 -39 50.5t-57 13.5h-41v204h131q140 0 186 -104l64 -152q24 -62 47.5 -83t71.5 -21h28q44 0 64 -4l2 2q-10 42 -10 82v274h229v-274q0 -51 -10 -82l2 -2
q20 4 63 4h29q50 0 73.5 21t47.5 83l63 152q43 104 187 104h131v-204h-41q-38 0 -59 -13.5t-38 -50.5l-30 -78q-21 -54 -67.5 -79.5t-141.5 -28.5v-9q98 -1 143 -28.5t66 -89.5l35 -111q15 -36 33.5 -48.5t56.5 -12.5h41v-205h-144q-152 0 -190 123l-49 157q-20 68 -44 94.5
t-73 26.5h-29q-43 0 -63 4l-2 -2q10 -31 10 -86v-311h-229v311q0 44 10 86l-2 2q-20 -4 -64 -4h-28q-49 0 -73 -26.5t-44 -94.5l-47 -157q-21 -62 -67 -92.5t-124 -30.5h-145z" />
    <glyph glyph-name="uni0437" unicode="&#x437;" horiz-adv-x="925" 
d="M442 -31q-235 0 -413 88l88 201q156 -78 315 -78q102 0 147.5 25.5t45.5 81.5t-38.5 82t-121.5 26h-137v197h123q124 0 124 86q0 88 -159 88q-134 0 -293 -70l-80 201q207 80 406 80q380 0 380 -248q0 -99 -61.5 -156.5t-181.5 -66.5v-8q282 -16 282 -242
q0 -141 -107 -214t-319 -73z" />
    <glyph glyph-name="uni0438" unicode="&#x438;" horiz-adv-x="1126" 
d="M121 -12v958h250v-319q0 -142 -15 -221l9 -3q26 51 108 127l463 428h72v-958h-252v319q0 148 14 222l-8 2q-25 -49 -109 -127l-463 -428h-69z" />
    <glyph glyph-name="uni0439" unicode="&#x439;" horiz-adv-x="1126" 
d="M909 1352q0 -145 -86.5 -230.5t-222.5 -85.5q-135 0 -221 85.5t-86 230.5h164q3 -73 39 -113.5t104 -40.5q137 0 143 154h166zM121 -12v958h250v-319q0 -142 -15 -221l9 -3q26 51 108 127l463 428h72v-958h-252v319q0 148 14 222l-8 2q-25 -49 -109 -127l-463 -428h-69z
" />
    <glyph glyph-name="uni043A" unicode="&#x43a;" horiz-adv-x="1040" 
d="M856 -6q-83 0 -128 30t-66 93l-48 157q-18 67 -43 94t-75 27h-70q-40 0 -64 4l-2 -2q11 -34 11 -86v-311h-250v946h250v-274q0 -48 -11 -82l2 -2q24 4 64 4h70q49 0 74 21t48 83l64 152q22 55 66.5 79.5t121.5 24.5h131v-209h-30q-46 0 -69 -12.5t-40 -46.5l-31 -78
q-21 -56 -66.5 -81.5t-139.5 -26.5v-9q98 -1 142 -28.5t64 -89.5l37 -111q15 -35 33 -46t60 -11h40v-209h-145z" />
    <glyph glyph-name="uni043B" unicode="&#x43b;" horiz-adv-x="1122" 
d="M1008 946v-946h-252v674q0 26 10 53l-2 2q-19 -8 -57 -8h-205q-42 0 -58 8l-2 -2q11 -29 11 -53v-332q0 -346 -338 -346h-99v223h76q58 0 83.5 31.5t25.5 109.5v586h807z" />
    <glyph glyph-name="uni043C" unicode="&#x43c;" horiz-adv-x="1439" 
d="M686 -14l-174 374q-44 93 -51 125q-2 11 -4 23h-8q-2 -27 -8 -52.5t-11.5 -40.5t-21.5 -59l-125 -356h-271l381 961h66l215 -453q33 -62 41 -115h8q11 54 43 115l215 453h66l380 -961h-270l-127 356q-2 6 -8 23t-7.5 21t-6 17.5t-5.5 18.5t-4 16t-4 18t-2 17t-2 21h-8
q-2 -14 -5 -26t-8.5 -27t-10 -25t-15 -33t-16.5 -37l-174 -374h-68z" />
    <glyph glyph-name="uni043D" unicode="&#x43d;" horiz-adv-x="1159" 
d="M786 946h252v-946h-252v346q0 31 11 53l-2 2q-16 -8 -58 -8h-317q-42 0 -58 8l-2 -2q11 -22 11 -53v-346h-250v946h250v-282q0 -32 -11 -54l2 -2q16 8 58 8h317q42 0 58 -8l2 2q-11 22 -11 54v282z" />
    <glyph glyph-name="uni043E" unicode="&#x43e;" horiz-adv-x="1163" 
d="M582 977q228 0 376 -141.5t148 -362.5t-148 -362.5t-376 -141.5t-376.5 141.5t-148.5 362.5t148.5 362.5t376.5 141.5zM582 739q-118 0 -192.5 -73t-74.5 -193t74.5 -193t192.5 -73t192 73t74 193t-74 193t-192 73z" />
    <glyph glyph-name="uni043F" unicode="&#x43f;" horiz-adv-x="1128" 
d="M1014 946v-946h-252v674q0 33 10 53l-2 2q-16 -8 -57 -8h-297q-42 0 -58 8l-2 -2q11 -22 11 -53v-674h-252v946h899z" />
    <glyph glyph-name="uni0440" unicode="&#x440;" horiz-adv-x="1210" 
d="M705 977q197 0 322.5 -139.5t125.5 -364.5t-124 -364.5t-322 -139.5q-120 0 -211 59t-138 171l-8 -2q19 -93 19 -193v-414h-248v1356h246q0 -118 -19 -196l8 -2q110 229 349 229zM633 748q-122 0 -197.5 -76t-75.5 -199t75.5 -198.5t197.5 -75.5q120 0 189 73.5t69 200.5
t-69.5 201t-188.5 74z" />
    <glyph glyph-name="uni0441" unicode="&#x441;" horiz-adv-x="950" 
d="M580 -31q-232 0 -377.5 140t-145.5 364t145.5 364t377.5 140q179 0 331 -94l-108 -207q-98 65 -219 65q-119 0 -194 -75t-75 -193t75 -193t194 -75q121 0 219 65l108 -207q-152 -94 -331 -94z" />
    <glyph glyph-name="uni0442" unicode="&#x442;" horiz-adv-x="923" 
d="M10 946h903v-225h-276q-41 0 -57 8l-2 -2q10 -20 10 -53v-674h-252v674q0 33 10 53l-2 2q-16 -8 -57 -8h-277v225z" />
    <glyph glyph-name="uni0443" unicode="&#x443;" horiz-adv-x="1054" 
d="M1044 946l-587 -1358h-256l211 480l-400 878h277l188 -450q44 -102 49 -207h9q3 84 36 164l201 493h272z" />
    <glyph glyph-name="uni0444" unicode="&#x444;" horiz-adv-x="1748" 
d="M754 -410v410q0 144 24 225l-8 4q-47 -130 -124.5 -195t-196.5 -65q-173 0 -277 136.5t-104 367.5t104 367.5t277 136.5q119 0 196.5 -65t124.5 -195l8 4q-24 81 -24 225v465h239v-465q0 -141 -22 -225l8 -4q45 130 123.5 195t197.5 65q171 0 276 -137t105 -367
t-105 -367t-276 -137q-119 0 -197.5 65t-123.5 195l-8 -4q22 -84 22 -225v-410h-239zM547 201q99 0 158 73t59 199t-59 199t-158 73t-158 -73t-59 -199t59 -199t158 -73zM1204 201q98 0 156.5 73t58.5 199t-58.5 199t-156.5 73q-99 0 -159 -73t-60 -199t60 -199t159 -73z
" />
    <glyph glyph-name="uni0445" unicode="&#x445;" horiz-adv-x="1091" 
d="M16 0l320 434q13 17 18.5 25t16.5 18t22 15v6q-4 2 -8 5t-7.5 5.5t-7.5 6.5l-6 6t-6.5 7.5t-6.5 7.5t-7 8.5t-6 8.5l-285 393h299l121 -178q60 -88 70 -150h8q8 63 70 150l118 178h299l-284 -393q-32 -45 -56 -55v-6q25 -11 58 -60l319 -432h-297l-164 227
q-32 42 -45.5 72.5t-19.5 71.5h-8q-6 -39 -20 -69.5t-46 -74.5l-162 -227h-297z" />
    <glyph glyph-name="uni0446" unicode="&#x446;" horiz-adv-x="1171" 
d="M909 -287v240q0 31 11 53l-2 2q-16 -8 -58 -8h-739v946h250v-674q0 -31 -11 -53l2 -2q16 8 58 8h280q42 0 58 -8l2 2q-10 20 -10 53v674h251v-674q0 -33 -10 -53l2 -2q16 8 58 8h84v-512h-226z" />
    <glyph glyph-name="uni0447" unicode="&#x447;" horiz-adv-x="1017" 
d="M651 946h252v-723v-223h-252v291q0 65 15 100l-4 4q-146 -67 -291 -67q-176 0 -265.5 91t-89.5 286v241h252v-223q0 -88 40 -126t122 -38q89 0 221 45v342z" />
    <glyph glyph-name="uni0448" unicode="&#x448;" horiz-adv-x="1697" 
d="M1327 946h252v-946h-1458v946h250v-674q0 -31 -11 -53l2 -2q16 8 58 8h254q41 0 57 -8l2 2q-10 20 -10 53v674h252v-674q0 -33 -10 -53l2 -2q16 8 57 8h254q41 0 57 -8l2 2q-10 20 -10 53v674z" />
    <glyph glyph-name="uni0449" unicode="&#x449;" horiz-adv-x="1746" 
d="M1483 -287v240q0 33 10 53l-2 2q-16 -8 -57 -8h-1313v946h250v-674q0 -31 -11 -53l2 -2q16 8 58 8h254q41 0 57 -8l2 2q-10 20 -10 53v674h252v-674q0 -33 -10 -53l2 -2q16 8 57 8h254q41 0 57 -8l2 2q-10 20 -10 53v674h252v-674q0 -33 -10 -53l2 -2q16 8 57 8h82v-512
h-227z" />
    <glyph glyph-name="uni044A" unicode="&#x44a;" horiz-adv-x="1157" 
d="M774 649q165 0 260.5 -84t95.5 -239q0 -154 -98 -240t-260 -86h-475v657v17q0 33 10 53l-2 2q-19 -8 -57 -8h-238v225h539v-250q0 -26 -10 -53l2 -2q19 8 57 8h176zM735 211q63 0 98 29.5t35 83.5q0 55 -35 84.5t-98 29.5h-137q-38 0 -57 8l-2 -2q10 -27 10 -53v-133
q0 -26 -10 -53l2 -2q19 8 57 8h137z" />
    <glyph glyph-name="uni044B" unicode="&#x44b;" horiz-adv-x="1386" 
d="M590 649q162 0 256 -84t94 -239q0 -154 -96 -240t-256 -86h-467v733v213h250v-250q0 -31 -11 -53l2 -2q19 8 58 8h170zM1016 946h252v-946h-252v946zM553 211q60 0 92.5 29t32.5 84t-32.5 84.5t-92.5 29.5h-133q-39 0 -58 8l-2 -2q11 -22 11 -53v-133q0 -31 -11 -53l2 -2
q19 8 58 8h133z" />
    <glyph glyph-name="uni044C" unicode="&#x44c;" horiz-adv-x="968" 
d="M590 649q162 0 256 -84t94 -239q0 -154 -96 -240t-256 -86h-467v733v213h250v-250q0 -31 -11 -53l2 -2q19 8 58 8h170zM553 211q60 0 92.5 29t32.5 84t-32.5 84.5t-92.5 29.5h-133q-39 0 -58 8l-2 -2q11 -22 11 -53v-133q0 -31 -11 -53l2 -2q19 8 58 8h133z" />
    <glyph glyph-name="uni044D" unicode="&#x44d;" horiz-adv-x="952" 
d="M393 -31q-197 0 -354 88l96 201q120 -63 246 -63q82 0 144 37.5t85 107.5q9 34 21 51l-2 2q-18 -8 -58 -8h-290v176h290q40 0 58 -8l2 2q-15 22 -21 51q-23 70 -85.5 108t-143.5 38q-125 0 -246 -64l-96 201q157 88 354 88q223 0 357.5 -135.5t134.5 -368.5
t-134.5 -368.5t-357.5 -135.5z" />
    <glyph glyph-name="uni044E" unicode="&#x44e;" horiz-adv-x="1605" 
d="M1024 977q228 0 376 -141.5t148 -362.5t-148 -362.5t-376 -141.5q-196 0 -337.5 109.5t-176.5 286.5h-96q-42 0 -58 8l-2 -2q11 -22 11 -54v-317h-244v946h244v-315q0 -31 -11 -53l2 -3q18 9 58 9h96q37 177 177.5 285t336.5 108zM1024 207q118 0 192 73t74 193t-74 193
t-192 73q-117 0 -190.5 -73t-73.5 -193t73.5 -193t190.5 -73z" />
    <glyph glyph-name="uni044F" unicode="&#x44f;" horiz-adv-x="1060" 
d="M942 946v-696v-250h-252v291q0 33 10 53l-2 2q-14 -8 -57 -8h-33l-280 -338h-301v10l223 244q59 68 119 96v6q-46 -8 -72 2q-102 24 -156.5 101t-54.5 180q0 146 91 226.5t257 80.5h508zM700 514q-10 20 -10 53v133q0 34 10 54l-2 2q-19 -8 -57 -8h-145q-144 0 -144 -113
q0 -54 36 -84.5t108 -30.5h145q43 0 57 -8z" />
    <glyph glyph-name="uni0451" unicode="&#x451;" horiz-adv-x="1060" 
d="M477 1331v-272h-198v272h198zM819 1331v-272h-196v272h196zM547 977q216 0 338.5 -133t122.5 -369v-59h-586q-85 0 -119 20l-4 -6l8 -22q17 -106 85.5 -162t180.5 -56q159 0 281 113l115 -180q-171 -154 -396 -154q-234 0 -375 136.5t-141 365.5q0 230 135 368t355 138z
M539 772q-97 0 -160.5 -54t-75.5 -149l4 -4q28 19 103 19h223q98 0 117 -17l4 4q-6 96 -63 148.5t-152 52.5z" />
    <glyph glyph-name="uni0452" unicode="&#x452;" horiz-adv-x="1148" 
d="M1040 -41q0 -186 -98 -277.5t-278 -91.5h-103v238h96q131 0 131 147v43v519q0 213 -184 213q-103 0 -167 -71.5t-64 -223.5v-455h-252v1100q0 33 10 53l-2 2q-16 -8 -57 -8h-74v149h74q41 0 57 -8l2 2q-10 20 -10 53v121h252v-121q0 -31 -11 -53l3 -2q16 8 57 8h258v-149
h-258q-41 0 -57 8l-3 -2q11 -22 11 -53v-111q0 -143 -21 -248l8 -2q103 238 342 238q155 0 246.5 -93t91.5 -276v-649z" />
    <glyph glyph-name="uni0453" unicode="&#x453;" horiz-adv-x="776" 
d="M866 1346l2 -7l-319 -309h-174l-2 6l211 310h282zM121 0v946h645v-225h-346q-42 0 -58 8l-2 -2q11 -22 11 -53v-674h-250z" />
    <glyph glyph-name="uni0454" unicode="&#x454;" horiz-adv-x="954" 
d="M559 -31q-223 0 -357 135.5t-134 368.5t134 368.5t357 135.5q195 0 356 -88l-96 -201q-125 64 -246 64q-82 0 -145 -38t-84 -108q-12 -36 -22 -51l2 -2q18 8 59 8h289v-176h-289q-41 0 -59 8l-2 -2q6 -8 22 -51q21 -70 83.5 -107.5t145.5 -37.5q123 0 246 63l96 -201
q-161 -88 -356 -88z" />
    <glyph glyph-name="uni0455" unicode="&#x455;" horiz-adv-x="860" 
d="M430 -31q-221 0 -401 101l100 209q157 -97 313 -97q121 0 121 70q0 27 -19 44t-63 38l-172 78q-211 90 -211 282q0 132 94 207.5t269 75.5q157 0 336 -68l-84 -204q-151 63 -262 63q-52 0 -75.5 -14t-23.5 -45q0 -28 21.5 -48.5t72.5 -42.5l166 -73q104 -46 154.5 -110
t50.5 -163q0 -146 -102.5 -224.5t-284.5 -78.5z" />
    <glyph glyph-name="uni0456" unicode="&#x456;" horiz-adv-x="491" 
d="M385 1434v-306h-276v306h276zM371 946v-946h-250v946h250z" />
    <glyph glyph-name="uni0457" unicode="&#x457;" horiz-adv-x="548" 
d="M178 1331v-272h-196v272h196zM522 1331v-272h-196v272h196zM371 946v-946h-250v946h250z" />
    <glyph glyph-name="uni0458" unicode="&#x458;" horiz-adv-x="491" 
d="M385 1434v-306h-276v306h276zM371 946v-981q0 -208 -104 -306.5t-296 -98.5h-22v237h18q154 0 154 176v973h250z" />
    <glyph glyph-name="uni0459" unicode="&#x459;" horiz-adv-x="1576" 
d="M1200 649q162 0 256 -84t94 -239q0 -154 -96 -240t-256 -86h-448v674q0 26 10 53l-2 2q-16 -8 -58 -8h-196q-39 0 -58 8l-2 -2q11 -22 11 -53v-115h2v-217q0 -346 -338 -346h-103v223h80q58 0 83.5 31.5t25.5 109.5v199h-2v387h798v-250q0 -33 -10 -53l2 -2q19 8 58 8
h149zM1163 211q60 0 92.5 29t32.5 84t-32.5 84.5t-92.5 29.5h-112q-39 0 -58 8l-2 -2q10 -20 10 -53v-133q0 -33 -10 -53l2 -2q19 8 58 8h112z" />
    <glyph glyph-name="uni045A" unicode="&#x45a;" horiz-adv-x="1572" 
d="M121 0v946h250v-260q0 -31 -11 -53l2 -2q14 8 58 8h276q44 0 58 -8l2 2q-11 29 -11 53v260h252v-260q0 -26 -10 -53l2 -2q14 8 58 8h147q163 0 256.5 -81.5t93.5 -238.5q0 -151 -95.5 -235t-254.5 -84h-449v373q0 24 11 53l-2 2q-14 -8 -58 -8h-276q-44 0 -58 8l-2 -2
q11 -22 11 -53v-373h-250zM989 205q19 8 58 8h108q127 0 127 106q0 111 -127 111h-108q-44 0 -58 8l-2 -2q10 -27 10 -53v-123q0 -26 -10 -53z" />
    <glyph glyph-name="uni045B" unicode="&#x45b;" horiz-adv-x="1148" 
d="M702 977q155 0 246.5 -93t91.5 -276v-608h-252v537q0 213 -184 213q-103 0 -167 -71.5t-64 -223.5v-455h-252v1100q0 33 10 53l-2 2q-16 -8 -57 -8h-74v149h74q41 0 57 -8l2 2q-10 20 -10 53v121h252v-121q0 -31 -11 -53l3 -2q16 8 57 8h258v-149h-258q-41 0 -57 8l-3 -2
q11 -22 11 -53v-111q0 -143 -21 -248l8 -2q103 238 342 238z" />
    <glyph glyph-name="uni045C" unicode="&#x45c;" horiz-adv-x="1040" 
d="M944 1346l2 -7l-319 -309h-174l-2 6l211 310h282zM856 -6q-83 0 -128 30t-66 93l-48 157q-18 67 -43 94t-75 27h-70q-40 0 -64 4l-2 -2q11 -34 11 -86v-311h-250v946h250v-274q0 -48 -11 -82l2 -2q24 4 64 4h70q49 0 74 21t48 83l64 152q22 55 66.5 79.5t121.5 24.5h131
v-209h-30q-46 0 -69 -12.5t-40 -46.5l-31 -78q-21 -56 -66.5 -81.5t-139.5 -26.5v-9q98 -1 142 -28.5t64 -89.5l37 -111q15 -35 33 -46t60 -11h40v-209h-145z" />
    <glyph glyph-name="uni045E" unicode="&#x45e;" horiz-adv-x="1054" 
d="M840 1352q0 -145 -87 -230.5t-223 -85.5q-135 0 -221 85.5t-86 230.5h164q3 -73 39 -113.5t104 -40.5q69 0 105 40t39 114h166zM1044 946l-587 -1358h-256l211 480l-400 878h277l188 -450q44 -102 49 -207h9q3 84 36 164l201 493h272z" />
    <glyph glyph-name="uni045F" unicode="&#x45f;" horiz-adv-x="1134" 
d="M455 -287v240q0 33 10 53l-2 2q-16 -8 -57 -8h-285v946h250v-670q0 -31 -11 -53l2 -2q16 8 58 8h295q41 0 57 -8l2 2q-10 20 -10 53v670h252v-946h-285q-41 0 -57 8l-2 -2q10 -20 10 -53v-240h-227z" />
    <glyph glyph-name="uni0462" unicode="&#x462;" horiz-adv-x="1331" 
d="M817 891q224 0 353.5 -119.5t129.5 -325.5q0 -207 -129.5 -326.5t-353.5 -119.5h-563v981q0 44 8 57l-4 4q-19 -8 -55 -8h-207v217h207q37 0 55 -10l4 4q-8 13 -8 58v131h262v-131q0 -38 -8 -58l4 -4q15 10 53 10h359v-217h-359q-37 0 -53 8l-4 -4q8 -20 8 -57v-41
q0 -33 -8 -53l4 -4q16 8 53 8h252zM784 238q117 0 180.5 54t63.5 154q0 98 -64 152.5t-180 54.5h-219q-37 0 -53 11l-4 -5q8 -20 8 -57v-311q0 -38 -8 -58l4 -4q18 9 53 9h219z" />
    <glyph glyph-name="uni0463" unicode="&#x463;" horiz-adv-x="1009" 
d="M631 649q163 0 257.5 -84t94.5 -239q0 -154 -96.5 -240t-255.5 -86h-469v725v31q0 26 10 53l-2 2q-19 -8 -57 -8h-115v190h115q43 0 57 -8l2 2q-10 27 -10 53v424h252v-424q0 -31 -11 -53l3 -2q14 8 57 8h299v-190h-299q-38 0 -57 8l-3 -2q11 -22 11 -53v-60
q0 -31 -11 -53l3 -2q19 8 57 8h168zM596 211q59 0 92 29t33 84t-33 84.5t-92 29.5h-133q-38 0 -57 8l-3 -2q11 -22 11 -53v-133q0 -31 -11 -53l3 -2q19 8 57 8h133z" />
    <glyph glyph-name="uni0472" unicode="&#x472;" horiz-adv-x="1628" 
d="M813 1464q162 0 302 -56t238.5 -154.5t155 -237t56.5 -299.5q0 -213 -96 -384t-268 -267.5t-388 -96.5q-214 0 -385.5 96.5t-268 267.5t-96.5 384q0 214 96.5 385t268 266.5t385.5 95.5zM1288 811l4 6q-10 17 -22 62q-43 155 -163.5 242t-293.5 87q-172 0 -292 -87
t-163 -242q-10 -38 -22 -62l4 -6q22 10 70 10h809q47 0 69 -10zM1270 555q11 43 22 61l-4 7q-25 -11 -69 -11h-809q-45 0 -70 11l-4 -7q13 -25 22 -61q43 -155 163 -242.5t292 -87.5q173 0 293.5 87.5t163.5 242.5z" />
    <glyph glyph-name="uni0473" unicode="&#x473;" horiz-adv-x="1157" 
d="M580 977q227 0 374.5 -141t147.5 -363t-147.5 -363t-374.5 -141t-375 141t-148 363t148 363t375 141zM844 516l4 4q-12 106 -85.5 167t-182.5 61q-111 0 -185 -61t-84 -167l4 -4q24 19 109 19h309q87 0 111 -19zM580 199q109 0 182.5 60.5t85.5 166.5l-4 4
q-23 -18 -111 -18h-309q-86 0 -109 18l-4 -4q10 -106 84 -166.5t185 -60.5z" />
    <glyph glyph-name="uni0474" unicode="&#x474;" horiz-adv-x="1363" 
d="M1268 1460q30 0 116 -8v-240q-34 5 -71 5q-59 0 -92 -30t-70 -116l-467 -1087h-43l-641 1450h311l279 -734q29 -74 43 -122t24 -115h9q20 114 67 237l193 490q60 152 135.5 211t206.5 59z" />
    <glyph glyph-name="uni0475" unicode="&#x475;" horiz-adv-x="1032" 
d="M999 965h31v-238h-24q-91 0 -121 -68l-324 -673h-86l-463 960h285l152 -383q45 -109 55 -157q6 -22 10 -50h8q11 67 24 105t42 102l90 207q48 107 119.5 151t201.5 44z" />
    <glyph glyph-name="uni048E" unicode="&#x48e;" horiz-adv-x="1155" 
d="M1116 1010q0 -248 -182 -357l113 -157l-91 -64l-125 178q-77 -24 -176 -24h-198q-39 0 -54 10l-4 -4q9 -23 9 -57v-535h-263v1434h494q225 0 351 -111.5t126 -312.5zM645 821q25 0 37 2l-111 156l91 63l124 -178q62 50 62 146q0 87 -53.5 138.5t-149.5 51.5h-188
q-38 0 -54 8l-4 -4q9 -22 9 -57v-275q0 -34 -9 -57l4 -4q15 10 54 10h188z" />
    <glyph glyph-name="uni048F" unicode="&#x48f;" horiz-adv-x="1210" 
d="M1153 473q0 -138 -48.5 -246.5t-135.5 -173.5l96 -119l-78 -65l-108 133q-84 -33 -172 -33q-120 0 -211 59t-138 171l-8 -2q19 -93 19 -193v-414h-248v1356h246q0 -118 -19 -196l8 -2q110 229 349 229q197 0 322.5 -139.5t125.5 -364.5zM633 199q36 0 78 10l-111 133
l78 66l125 -154q88 73 88 219q0 127 -69.5 201t-188.5 74q-122 0 -197.5 -76t-75.5 -199t75.5 -198.5t197.5 -75.5z" />
    <glyph glyph-name="uni0490" unicode="&#x490;" horiz-adv-x="1024" 
d="M762 1720h246v-528h-551q-38 0 -54 8l-4 -4q9 -22 9 -55v-1141h-263v1434h568q35 0 53 -9l4 5q-8 13 -8 55v235z" />
    <glyph glyph-name="uni0491" unicode="&#x491;" horiz-adv-x="841" 
d="M567 1231h252v-510h-399q-42 0 -58 8l-2 -2q11 -22 11 -53v-674h-250v946h397q41 0 57 -8l3 2q-11 22 -11 53v238z" />
    <glyph glyph-name="uni0492" unicode="&#x492;" horiz-adv-x="1101" 
d="M559 1192q-36 0 -55 8l-4 -4q8 -13 8 -55v-275q0 -44 -8 -57l4 -4q23 10 55 10h387v-237h-387q-36 0 -55 8l-4 -4q8 -13 8 -56v-526h-262v526q0 36 8 56l-4 4q-16 -8 -53 -8h-181v237h181q33 0 53 -10l4 4q-8 20 -8 57v568h839v-242h-526z" />
    <glyph glyph-name="uni0493" unicode="&#x493;" horiz-adv-x="835" 
d="M481 721q-41 0 -57 8l-2 -2q10 -20 10 -53v-103q0 -33 -10 -53l2 -2q16 8 57 8h264v-211h-264q-39 0 -57 9l-2 -3q10 -20 10 -53v-266h-252v266q0 33 10 53l-2 3q-18 -9 -57 -9h-92v211h92q41 0 57 -8l2 2q-10 20 -10 53v375h645v-225h-344z" />
    <glyph glyph-name="uni0494" unicode="&#x494;" horiz-adv-x="1337" 
d="M819 883q202 0 311 -108t109 -314v-469q0 -201 -102.5 -301.5t-290.5 -100.5h-150v246h125q80 0 118 44.5t38 139.5v416q0 199 -205 199q-152 0 -364 -62v-573h-263v1434h895v-242h-583q-38 0 -54 8l-4 -4q9 -22 9 -55v-219q0 -74 -17 -109l4 -4q202 74 424 74z" />
    <glyph glyph-name="uni0495" unicode="&#x495;" horiz-adv-x="1046" 
d="M500 -410v232h100q71 0 104 37t33 114v174q0 87 -38.5 124.5t-118.5 37.5q-88 0 -209 -43v-266h-250v946h706v-221h-407q-39 0 -58 8l-2 -2q11 -22 11 -53v-98q0 -74 -15 -103l4 -2q148 68 279 68q174 0 262 -90.5t88 -286.5v-197q0 -191 -94.5 -285t-271.5 -94h-123z
" />
    <glyph glyph-name="uni0496" unicode="&#x496;" horiz-adv-x="2095" 
d="M1913 182h164v-469h-246v279q-14 -2 -39 -2q-137 0 -210 53.5t-101 173.5l-60 264q-19 90 -60.5 127t-123.5 37h-80q-41 0 -61 8l-4 -4q10 -23 10 -76v-573h-252v573q0 53 10 76l-2 4q-24 -8 -61 -8h-82q-80 0 -122.5 -37t-62.5 -127l-57 -264q-28 -120 -102 -173.5
t-209 -53.5q-63 0 -123 8v254q50 -4 72 -4q55 0 86 26t45 91l43 194q26 112 88.5 150t220.5 41v8q-165 6 -230 43.5t-92 146.5l-41 172q-20 82 -118 82q-6 0 -72 -4v238q83 6 121 6q128 0 196 -44t97 -151l61 -225q21 -84 67.5 -123t131.5 -39h82q45 0 61 -8l2 4
q-10 22 -10 74v504h252v-504q0 -52 -10 -74l4 -4q13 8 61 8h80q85 0 131 38t68 124l61 225q29 107 97 151t198 44q40 0 119 -6v-238q-62 4 -70 4q-102 0 -119 -82l-43 -172q-26 -109 -90.5 -146.5t-230.5 -43.5v-8q158 -3 221.5 -41t87.5 -150l45 -194q15 -66 45 -91.5
t84 -25.5q26 0 72 4v-70z" />
    <glyph glyph-name="uni0497" unicode="&#x497;" horiz-adv-x="1583" 
d="M1436 137h131v-424h-226v281h-49q-152 0 -190 123l-49 157q-20 68 -44 94.5t-73 26.5h-29q-43 0 -63 4l-2 -2q10 -31 10 -86v-311h-229v311q0 44 10 86l-2 2q-20 -4 -64 -4h-28q-49 0 -73 -26.5t-44 -94.5l-47 -157q-21 -62 -67 -92.5t-124 -30.5h-145v205h41
q38 0 56.5 12.5t33.5 48.5l35 111q21 62 67 89.5t144 28.5v9q-96 3 -143 28.5t-66 79.5l-31 78q-19 37 -39 50.5t-57 13.5h-41v204h131q140 0 186 -104l64 -152q24 -62 47.5 -83t71.5 -21h28q44 0 64 -4l2 2q-10 42 -10 82v274h229v-274q0 -51 -10 -82l2 -2q20 4 63 4h29
q50 0 73.5 21t47.5 83l63 152q43 104 187 104h131v-204h-41q-38 0 -59 -13.5t-38 -50.5l-30 -78q-21 -54 -67.5 -79.5t-141.5 -28.5v-9q98 -1 143 -28.5t66 -89.5l35 -111q15 -36 33.5 -48.5t56.5 -12.5h41v-62z" />
    <glyph glyph-name="uni0498" unicode="&#x498;" horiz-adv-x="1175" 
d="M1096 387q0 -191 -117 -296t-346 -120l-15 -41q187 -44 187 -149q0 -41 -25.5 -77t-75 -66.5t-94.5 -51.5t-111 -49q-13 -5 -20 -8l-37 80q49 27 67.5 37.5t45.5 29t36 31.5t9 27q0 48 -123 76l58 159q-275 3 -488 115l107 229q198 -94 403 -94q270 0 270 195
q0 104 -81 154t-248 50h-197v250h197q272 0 272 185q0 161 -227 161q-175 0 -369 -79l-86 241q257 88 479 88q477 0 477 -362q0 -124 -57.5 -201t-179.5 -115q-65 -21 -141 -24v-8q65 0 141 -13q148 -32 218.5 -119t70.5 -235z" />
    <glyph glyph-name="uni0499" unicode="&#x499;" horiz-adv-x="925" 
d="M868 256q0 -128 -88.5 -200.5t-261.5 -84.5l-14 -41q186 -44 186 -149q0 -24 -10.5 -47t-24 -41t-41.5 -38t-47.5 -32.5t-59.5 -31.5t-59.5 -27.5t-63.5 -26.5q-13 -5 -19 -8l-37 80q113 62 137 87q20 19 20 38q0 48 -123 76l58 159q-226 6 -391 88l88 201
q156 -78 315 -78q102 0 147.5 25.5t45.5 81.5t-38.5 82t-121.5 26h-137v197h123q124 0 124 86q0 88 -159 88q-134 0 -293 -70l-80 201q207 80 406 80q380 0 380 -248q0 -99 -61.5 -156.5t-181.5 -66.5v-8q282 -16 282 -242z" />
    <glyph glyph-name="uni049A" unicode="&#x49a;" horiz-adv-x="1447" 
d="M1276 182h154v-469h-246v277q-20 -2 -62 -2q-249 0 -295 225l-49 240q-19 101 -65 143.5t-135 42.5h-117q-49 0 -62 8l-2 -4q11 -29 11 -74v-569h-263v1434h263v-514q0 -43 -11 -72l2 -4q16 8 62 8h117q83 0 129 43.5t69 146.5l49 205q25 103 96.5 151t200.5 48
q76 0 131 -8v-240q-29 4 -71 4q-54 0 -82 -20t-39 -64l-45 -172q-26 -110 -93 -150t-235 -44v-9q173 -5 245.5 -49t94.5 -159l37 -173q14 -69 41 -96.5t84 -27.5q17 0 86 6v-62z" />
    <glyph glyph-name="uni049B" unicode="&#x49b;" horiz-adv-x="1144" 
d="M1001 137h127v-424h-225v281h-47q-83 0 -128 30t-66 93l-48 157q-18 67 -43 94t-75 27h-70q-40 0 -64 4l-2 -2q11 -34 11 -86v-311h-250v946h250v-274q0 -48 -11 -82l2 -2q24 4 64 4h70q49 0 74 21t48 83l64 152q22 55 66.5 79.5t121.5 24.5h131v-209h-30
q-46 0 -69 -12.5t-40 -46.5l-31 -78q-21 -56 -66.5 -81.5t-139.5 -26.5v-9q98 -1 142 -28.5t64 -89.5l37 -111q15 -35 33 -46t60 -11h40v-66z" />
    <glyph glyph-name="uni049C" unicode="&#x49c;" horiz-adv-x="1308" 
d="M1190 238q17 0 86 6v-248q-81 -8 -154 -8q-249 0 -295 225l-49 240q-17 91 -55.5 135t-110.5 51v-277h-110v277h-41q-49 0 -62 8l-2 -4q11 -29 11 -74v-569h-263v1434h263v-514q0 -43 -11 -72l2 -4q16 8 62 8h41v295h110v-293q66 9 105 53.5t59 134.5l49 205
q25 103 96.5 151t200.5 48q76 0 131 -8v-240q-29 4 -71 4q-54 0 -82 -20t-39 -64l-45 -172q-26 -110 -93 -150t-235 -44v-9q173 -5 245.5 -49t94.5 -159l37 -173q14 -69 41 -96.5t84 -27.5z" />
    <glyph glyph-name="uni049D" unicode="&#x49d;" horiz-adv-x="1040" 
d="M831 606q-21 -56 -66.5 -81.5t-139.5 -26.5v-9q98 -1 142 -28.5t64 -89.5l37 -111q15 -35 33 -46t60 -11h40v-209h-145q-83 0 -128 30t-66 93l-48 157q-18 66 -42 93t-72 28v-211h-62v211h-12q-40 0 -64 4l-2 -2q11 -34 11 -86v-311h-250v946h250v-274q0 -48 -11 -82
l2 -2q24 4 64 4h12v205h62v-205q47 1 71 22.5t47 81.5l64 152q22 55 66.5 79.5t121.5 24.5h131v-209h-30q-46 0 -69 -12.5t-40 -46.5z" />
    <glyph glyph-name="uni049E" unicode="&#x49e;" horiz-adv-x="1427" 
d="M1309 238q19 0 88 6v-248q-71 -8 -166 -8q-116 0 -192 57t-97 168l-49 240q-20 95 -66 134.5t-131 39.5h-114q-51 0 -62 8l-4 -4q10 -22 10 -74v-557h-262v995q0 38 8 58l-4 4q-20 -10 -53 -10h-199v206h199q37 0 53 -8l4 4q-8 20 -8 56v129h262v-129q0 -41 -6 -56l4 -4
q16 8 54 8h227v-206h-227q-34 0 -54 10l-4 -4q6 -15 6 -58v-63q0 -52 -10 -72l4 -4q13 8 62 8h114q80 0 126.5 42.5t68.5 135.5l49 205q25 103 97.5 151t203.5 48q70 0 133 -8v-240q-35 4 -74 4q-53 0 -81.5 -19.5t-38.5 -64.5l-43 -172q-26 -111 -93 -150.5t-235 -45.5v-5
q169 -6 243 -50.5t97 -159.5l35 -173q15 -72 42.5 -98t82.5 -26z" />
    <glyph glyph-name="uni049F" unicode="&#x49f;" horiz-adv-x="1091" 
d="M883 606q-21 -56 -67 -81.5t-140 -26.5v-9q98 -1 143 -28.5t64 -89.5l37 -111q15 -35 33 -46t59 -11h41v-209h-146q-83 0 -128 30t-66 93l-47 157q-18 66 -43.5 93.5t-75.5 27.5h-70q-39 0 -63 4l-2 -2q10 -31 10 -86v-311h-250v946v154q0 33 10 53l-2 2q-16 -8 -57 -8
h-125v149h125q41 0 57 -8l2 2q-10 20 -10 53v121h250v-121q0 -33 -10 -53l2 -2q16 8 57 8h291v-149h-291q-41 0 -57 8l-2 -2q10 -20 10 -53v-154v-274q0 -51 -10 -82l2 -2q24 4 63 4h70q49 0 74.5 21t48.5 83l63 152q22 55 67 79.5t122 24.5h131v-209h-31q-46 0 -69 -12.5
t-40 -46.5z" />
    <glyph glyph-name="uni04A0" unicode="&#x4a0;" horiz-adv-x="1542" 
d="M1423 238q17 0 86 6v-248q-110 -8 -157 -8q-246 0 -291 225l-49 240q-20 94 -67.5 134t-133.5 40h-117q-48 0 -61 8l-2 -4q10 -22 10 -74v-557h-262v1141q0 42 8 55l-4 4q-16 -8 -53 -8h-314v242h625v-502q0 -52 -10 -72l2 -4q16 8 61 8h117q80 0 128 42.5t71 135.5
l49 205q25 103 99 151t206 48q66 0 123 -8v-240q-33 4 -72 4q-53 0 -82 -19.5t-39 -64.5l-43 -172q-27 -111 -95 -150.5t-234 -45.5v-5q171 -6 245 -50.5t97 -159.5l34 -173q13 -71 41 -97.5t84 -26.5z" />
    <glyph glyph-name="uni04A1" unicode="&#x4a1;" horiz-adv-x="1206" 
d="M1014 606q-23 -56 -72 -81.5t-151 -26.5v-9q105 -1 153 -28t72 -90l35 -111q12 -36 26 -46.5t49 -10.5h41v-209h-145q-148 0 -188 123l-48 157q-19 61 -46.5 86t-77.5 25h-68q-44 0 -64 4l-2 -2q11 -46 11 -86v-301h-252v674q0 33 10 53l-2 2q-19 -8 -57 -8h-228v225h529
v-264q0 -36 -11 -82l2 -2q20 4 64 4h68q50 0 76.5 19.5t49.5 74.5l66 152q42 104 182 104h131v-209h-32q-37 0 -57.5 -13t-33.5 -46z" />
    <glyph glyph-name="uni04A2" unicode="&#x4a2;" horiz-adv-x="1509" 
d="M1337 182h154v-469h-246v287h-170v584q0 44 8 57l-4 4q-20 -10 -55 -10h-567q-34 0 -54 10l-4 -4q9 -22 9 -57v-584h-263v1434h263v-502q0 -36 -9 -58l4 -4q18 9 54 9h567q37 0 55 -9l4 4q-8 13 -8 58v502h262v-1252z" />
    <glyph glyph-name="uni04A3" unicode="&#x4a3;" horiz-adv-x="1181" 
d="M1038 137h127v-424h-227v287h-152v346q0 31 11 53l-2 2q-16 -8 -58 -8h-317q-42 0 -58 8l-2 -2q11 -22 11 -53v-346h-250v946h250v-282q0 -32 -11 -54l2 -2q16 8 58 8h317q42 0 58 -8l2 2q-11 22 -11 54v282h252v-809z" />
    <glyph glyph-name="uni04A4" unicode="&#x4a4;" horiz-adv-x="1869" 
d="M1042 1434h811v-244h-497q-37 0 -53 8l-5 -4q7 -18 7 -55v-1139h-263v584q0 34 9 57l-4 4q-20 -10 -54 -10h-536q-34 0 -54 10l-4 -4q9 -22 9 -57v-584h-263v1434h263v-502q0 -36 -9 -58l4 -4q18 9 54 9h536q36 0 54 -9l4 4q-9 22 -9 58v502z" />
    <glyph glyph-name="uni04A5" unicode="&#x4a5;" horiz-adv-x="1376" 
d="M758 946h608v-221h-307q-42 0 -58 8l-2 -2q11 -22 11 -53v-678h-252v350q0 33 10 53l-2 3q-18 -9 -57 -9h-289q-40 0 -58 9l-2 -3q11 -22 11 -53v-350h-250v946h250v-282q0 -32 -11 -54l2 -2q16 8 58 8h289q41 0 57 -8l2 2q-10 20 -10 54v282z" />
    <glyph glyph-name="uni04A6" unicode="&#x4a6;" horiz-adv-x="2191" 
d="M1741 883q206 0 317 -104t111 -302v-86q0 -199 -104.5 -295t-297.5 -96h-157v246h108q100 0 144.5 38.5t44.5 125.5v45q0 88 -55.5 134t-157.5 46q-158 0 -377 -62v-573h-262v1141q0 35 8 55l-4 4q-16 -8 -53 -8h-549q-38 0 -54 8l-4 -4q9 -22 9 -55v-1141h-263v1434
h1172v-512q0 -74 -14 -109l4 -4q206 74 434 74z" />
    <glyph glyph-name="uni04A7" unicode="&#x4a7;" horiz-adv-x="1673" 
d="M1288 614q173 0 260.5 -90t87.5 -284v-271q0 -191 -94.5 -285t-271.5 -94h-121v232h98q72 0 105.5 37t33.5 114v246q0 87 -38.5 125.5t-118.5 38.5q-82 0 -209 -45v-338h-252v641v33q0 26 10 53l-2 2q-19 -8 -57 -8h-299q-39 0 -58 8l-2 -2q11 -22 11 -53v-674h-250v946
h899v-295q0 -68 -14 -100l4 -4q140 67 278 67z" />
    <glyph glyph-name="uni04A8" unicode="&#x4a8;" horiz-adv-x="1658" 
d="M780 -31q-316 0 -506 204t-190 544q0 346 207 546.5t563 200.5q121 0 225 -26l-65 -242q-52 16 -148 16q-233 0 -364 -133.5t-131 -371.5q0 -213 102 -348.5t279 -157.5q56 -10 108 -15v4q-45 22 -84 72q-52 67 -80 161.5t-28 197.5q0 207 114.5 330.5t307.5 123.5
q185 0 294 -118.5t109 -319.5q0 -226 -129 -383q-36 -46 -88 -66v-6q31 2 72 2q61 0 109 12.5t114 43.5l78 -201q-156 -70 -314 -70q-93 0 -159 21t-80 55h-6q-110 -76 -310 -76zM1059 233h4q9 10 37 40t41 46q50 52 77 130t27 167q0 209 -155 209q-162 0 -162 -219
q0 -165 92 -280q25 -31 35 -50.5t4 -42.5z" />
    <glyph glyph-name="uni04A9" unicode="&#x4a9;" horiz-adv-x="1202" 
d="M569 -31q-235 0 -373.5 137t-138.5 375q0 242 148.5 369t408.5 127q101 0 201 -19l-47 -206q-68 12 -131 12q-153 0 -238.5 -73.5t-85.5 -219.5q0 -213 170 -291q21 -12 80 -20l2 4q-31 16 -53 55q-37 75 -37 166q0 142 90.5 223.5t235.5 81.5q142 0 223.5 -76t81.5 -215
q0 -113 -62 -204q-26 -40 -73 -62l2 -4q31 6 59 10q43 8 103 37l57 -158q-104 -49 -211 -49q-142 0 -172 56h-4q-94 -56 -236 -56zM758 178l4 -2q143 75 143 199q0 58 -28 93.5t-78 35.5t-79.5 -37t-29.5 -102q0 -76 43 -132q22 -27 25 -55z" />
    <glyph glyph-name="uni04AA" unicode="&#x4aa;" horiz-adv-x="1394" 
d="M1348 127q-204 -146 -476 -158l-14 -39q186 -44 186 -149q0 -24 -10.5 -47t-24 -41t-41.5 -38t-47.5 -32.5t-59.5 -31.5t-59.5 -27.5t-63.5 -26.5q-13 -5 -19 -8l-37 80q49 27 67.5 37.5t45.5 29t36 31.5t9 27q0 48 -123 76l57 161q-317 19 -514 224.5t-197 521.5
q0 218 97.5 388t273 264.5t400.5 94.5q292 0 514 -157l-146 -222q-172 119 -368 119q-218 0 -354 -135t-136 -352t136 -352.5t354 -135.5q196 0 368 119z" />
    <glyph glyph-name="uni04AB" unicode="&#x4ab;" horiz-adv-x="950" 
d="M911 63q-134 -85 -293 -94l-14 -39q187 -44 187 -149q0 -41 -25.5 -77t-75 -66.5t-94.5 -51.5t-111 -49q-13 -5 -20 -8l-37 80q49 27 67.5 37.5t45.5 29t36 31.5t9 27q0 48 -123 76l59 161q-210 19 -337.5 156t-127.5 346q0 224 145.5 364t377.5 140q179 0 331 -94
l-108 -207q-98 65 -219 65q-119 0 -194 -75t-75 -193t75 -193t194 -75q121 0 219 65z" />
    <glyph glyph-name="uni04AC" unicode="&#x4ac;" horiz-adv-x="1085" 
d="M725 1190q-37 0 -53 8l-4 -4q6 -15 6 -55v-957h164v-469h-246v287h-180v1139q0 35 8 55l-4 4q-19 -8 -54 -8h-346v244h1053v-244h-344z" />
    <glyph glyph-name="uni04AD" unicode="&#x4ad;" horiz-adv-x="923" 
d="M637 721q-41 0 -57 8l-2 -2q10 -20 10 -53v-537h135v-424h-225v287h-162v674q0 33 10 53l-2 2q-16 -8 -57 -8h-277v225h903v-225h-276z" />
    <glyph glyph-name="uni04AE" unicode="&#x4ae;" horiz-adv-x="1253" 
d="M1243 1434l-485 -891v-543h-262v543l-486 891h312l215 -453q9 -19 25.5 -52.5t21.5 -44.5t14 -31.5t12.5 -31.5t7.5 -27t7 -34h4q2 12 4.5 22t6 21t5.5 18.5t7.5 20.5t8 19.5t10.5 24t12 26t16 32.5t18 37l217 453h309z" />
    <glyph glyph-name="uni04AF" unicode="&#x4af;" horiz-adv-x="1048" 
d="M1038 946l-393 -799v-557h-250v576l-383 780h285l160 -385q26 -64 35 -86.5t17 -53t13 -69.5h4q6 51 16.5 82.5t40.5 104.5l3 7.5t3 6.5t3 8l162 385h284z" />
    <glyph glyph-name="uni04B0" unicode="&#x4b0;" horiz-adv-x="1253" 
d="M762 539q16 8 53 8h207v-205h-213q-39 0 -55 8l-4 -4q8 -13 8 -55v-291h-262v291q0 35 8 55l-4 4q-16 -8 -54 -8h-213v205h205q38 0 54 -8l4 4l-486 891h307l220 -453q43 -89 59 -128t27 -93h8q11 54 27 93t59 128l219 453h307l-485 -891z" />
    <glyph glyph-name="uni04B1" unicode="&#x4b1;" horiz-adv-x="1089" 
d="M670 147q18 9 55 9h186v-228h-190q-39 0 -57 9l-2 -3q10 -20 10 -53v-291h-252v291q0 33 10 53l-2 3q-18 -9 -57 -9h-193v228h187q37 0 55 -9l4 3l-391 796h284l160 -385q48 -116 57 -155q5 -23 9 -54h4q7 54 18 88t47 121l162 385h285l-391 -796z" />
    <glyph glyph-name="uni04B2" unicode="&#x4b2;" horiz-adv-x="1447" 
d="M1249 182h181v-469h-246v287h-135l-279 434q-65 103 -76 158h-8q-8 -49 -76 -158l-272 -434h-322l420 633q76 107 96 131v6q-25 23 -88 115l-370 549h321l221 -344q67 -107 78 -160h8q7 45 76 160l213 344h324l-373 -555q-56 -85 -88 -117v-6q32 -34 96 -129z" />
    <glyph glyph-name="uni04B3" unicode="&#x4b3;" horiz-adv-x="1130" 
d="M975 137h141v-424h-227v287h-111l-164 227q-32 42 -45.5 72.5t-19.5 71.5h-8q-6 -39 -20 -69.5t-46 -74.5l-162 -227h-297l320 434q13 17 18.5 25t16.5 18t22 15v6q-4 2 -8 5t-7.5 5.5t-7.5 6.5l-6 6t-6.5 7.5t-6.5 7.5t-7 8.5t-6 8.5l-285 393h299l121 -178
q60 -88 70 -150h8q8 63 70 150l118 178h299l-284 -393q-32 -45 -56 -55v-6q25 -11 58 -60z" />
    <glyph glyph-name="uni04B4" unicode="&#x4b4;" horiz-adv-x="1792" 
d="M1618 242h127v-527h-248v234q0 35 8 55l-4 4q-13 -8 -55 -8h-1002v1139q0 37 7 55l-5 4q-13 -8 -53 -8h-377v244h1045v-244h-305q-35 0 -54 8l-4 -4q9 -23 9 -55v-846q0 -37 -11 -55l4 -5q21 9 56 9h499q38 0 56 -9l4 5q-8 20 -8 55v1141h262v-1141q0 -38 -10 -55l4 -5
q18 9 55 9z" />
    <glyph glyph-name="uni04B5" unicode="&#x4b5;" horiz-adv-x="1298" 
d="M1190 225h72v-512h-228v240q0 33 10 53l-2 2q-16 -8 -57 -8h-715v670q0 31 11 53l-2 2q-16 -8 -58 -8h-211v229h735v-229h-174q-41 0 -57 8l-2 -2q10 -20 10 -53v-398q0 -33 -10 -53l2 -2q16 8 57 8h269q41 0 57 -8l2 2q-10 20 -10 53v674h252v-674q0 -31 -11 -53l3 -2
q16 8 57 8z" />
    <glyph glyph-name="uni04B6" unicode="&#x4b6;" horiz-adv-x="1316" 
d="M1137 182h163v-469h-247v287h-179v496q0 77 15 108l-4 4q-189 -71 -416 -71q-217 0 -331.5 122.5t-114.5 352.5v422h262v-398q0 -123 58.5 -188.5t170.5 -65.5q151 0 360 62v590h263v-1252z" />
    <glyph glyph-name="uni04B7" unicode="&#x4b7;" horiz-adv-x="1054" 
d="M903 137h135v-424h-225v287h-162v291q0 65 15 100l-4 4q-146 -67 -291 -67q-176 0 -265.5 91t-89.5 286v241h252v-223q0 -88 40 -126t122 -38q89 0 221 45v342h252v-723v-86z" />
    <glyph glyph-name="uni04B8" unicode="&#x4b8;" horiz-adv-x="1280" 
d="M874 1434h263v-1434h-263v496q0 77 15 108l-4 4q-111 -42 -248 -61v-223h-111v213h-57q-217 0 -331.5 122.5t-114.5 352.5v422h262v-398q0 -123 58.5 -188.5t170.5 -65.5h12v326h111v-317q91 10 237 53v590z" />
    <glyph glyph-name="uni04B9" unicode="&#x4b9;" horiz-adv-x="1017" 
d="M651 946h252v-723v-223h-252v291q0 65 15 100l-4 4q-68 -33 -164 -55v-152h-62v144q-40 -4 -65 -4q-176 0 -265.5 91t-89.5 286v241h252v-223q0 -88 40 -126t122 -38h6v205h62v-199q64 8 153 39v342z" />
    <glyph glyph-name="uni04BA" unicode="&#x4ba;" horiz-adv-x="1282" 
d="M408 1434v-496q0 -74 -17 -109l4 -4q195 72 418 72q216 0 331.5 -122.5t115.5 -352.5v-422h-263v397q0 123 -59.5 188.5t-171.5 65.5q-155 0 -358 -61v-590h-263v1434h263z" />
    <glyph glyph-name="uni04BB" unicode="&#x4bb;" horiz-adv-x="1148" 
d="M371 1464v-475q0 -131 -21 -248l8 -2q105 238 342 238q160 0 249 -96t89 -273v-608h-252v537q0 213 -182 213q-109 0 -171 -74.5t-62 -220.5v-455h-250v1464h250z" />
    <glyph glyph-name="uni04BC" unicode="&#x4bc;" horiz-adv-x="1884" 
d="M1141 -31q-306 0 -488 144t-247 415q-8 47 -3 72l-4 4q-20 -8 -65 -8q-156 0 -237 80.5t-81 236.5q0 87 19 164h241q-20 -73 -20 -127q0 -113 94 -119q34 -3 49 -12l4 2q-5 37 3 76q52 257 243.5 412t483.5 155q221 0 377.5 -92.5t233.5 -257.5t77 -389v-131h-1057
q-52 0 -94 16l-4 -6q12 -22 28 -76q40 -139 152.5 -219t296.5 -80q142 0 243 43.5t201 118.5l139 -223q-252 -199 -585 -199zM678 817q27 10 86 10h676q69 0 98 -10l4 4q-12 24 -20 70q-12 66 -38.5 120t-72.5 100t-120 71.5t-169 25.5q-335 0 -428 -315q-4 -26 -20 -72z
" />
    <glyph glyph-name="uni04BD" unicode="&#x4bd;" horiz-adv-x="1300" 
d="M807 -31q-207 0 -341 105.5t-165 294.5q-4 41 0 55l-2 2q-33 -10 -59 -10q-242 0 -242 260q0 51 16 104h174q-14 -49 -14 -102q0 -51 19 -71.5t65 -22.5q24 0 49 -11l4 5q-2 21 6 61q43 156 167.5 247t297.5 91q213 0 337 -133.5t124 -368.5v-59h-584q-84 0 -118 20
l-4 -6l6 -22q17 -106 85.5 -162t180.5 -56q159 0 281 113l112 -180q-168 -154 -395 -154zM543 565q25 19 102 19h225q98 0 117 -17l4 4q-7 96 -65.5 148.5t-155.5 52.5q-94 0 -156.5 -54t-74.5 -149z" />
    <glyph glyph-name="uni04BE" unicode="&#x4be;" horiz-adv-x="1884" 
d="M764 594q-52 0 -94 16l-4 -6q12 -22 28 -76q40 -139 152.5 -219t296.5 -80q142 0 243 43.5t201 118.5l139 -223q-122 -95 -258 -145l9 -3q-174 -148 -174 -217q0 -51 65 -51q32 0 80 10l31 -147q-102 -25 -146 -25q-92 0 -147.5 42t-55.5 120q0 57 35 109.5t107 115.5
q-55 -8 -131 -8q-306 0 -488 144t-247 415q-8 47 -3 72l-4 4q-20 -8 -65 -8q-156 0 -237 80.5t-81 236.5q0 87 19 164h241q-20 -73 -20 -127q0 -113 94 -119q34 -3 49 -12l4 2q-5 37 3 76q52 257 243.5 412t483.5 155q221 0 377.5 -92.5t233.5 -257.5t77 -389v-131h-1057z
M694 893q-4 -26 -20 -72l4 -4q27 10 86 10h676q69 0 98 -10l4 4q-12 24 -20 70q-12 66 -38.5 120t-72.5 100t-120 71.5t-169 25.5q-335 0 -428 -315z" />
    <glyph glyph-name="uni04BF" unicode="&#x4bf;" horiz-adv-x="1300" 
d="M659 416q-84 0 -118 20l-4 -6l6 -22q17 -106 85.5 -162t180.5 -56q159 0 281 113l112 -180q-67 -64 -149 -103l4 -2q-174 -148 -174 -217q0 -51 65 -51q32 0 80 10l31 -147q-102 -25 -146 -25q-92 0 -147 42t-55 120q0 56 33.5 108t101.5 113q-12 -2 -39 -2
q-207 0 -341 105.5t-165 294.5q-4 41 0 55l-2 2q-33 -10 -59 -10q-242 0 -242 260q0 51 16 104h174q-14 -49 -14 -102q0 -51 19 -71.5t65 -22.5q24 0 49 -11l4 5q-2 21 6 61q43 156 167.5 247t297.5 91q213 0 337 -133.5t124 -368.5v-59h-584zM770 772q-94 0 -156.5 -54
t-74.5 -149l4 -4q25 19 102 19h225q98 0 117 -17l4 4q-7 96 -65.5 148.5t-155.5 52.5z" />
    <glyph glyph-name="uni04C0" unicode="&#x4c0;" horiz-adv-x="550" 
d="M408 1434v-1434h-263v1434h263z" />
    <glyph glyph-name="uni04C1" unicode="&#x4c1;" horiz-adv-x="1951" 
d="M1282 1767q-6 -135 -86 -210.5t-221 -75.5t-220 75.5t-85 210.5h172q0 -69 34 -108t99 -39q66 0 100.5 39t32.5 108h174zM162 -10q-63 0 -123 8v254q50 -4 72 -4q55 0 86 26t45 91l43 194q26 112 88.5 150t220.5 41v8q-165 6 -230 43.5t-92 146.5l-41 172q-20 82 -118 82
q-6 0 -72 -4v238q83 6 121 6q128 0 196 -44t97 -151l61 -225q21 -84 67.5 -123t131.5 -39h82q45 0 61 -8l2 4q-10 22 -10 74v504h252v-504q0 -52 -10 -74l4 -4q13 8 61 8h80q85 0 131 38t68 124l61 225q29 107 97 151t198 44q40 0 119 -6v-238q-62 4 -70 4q-102 0 -119 -82
l-43 -172q-26 -109 -90.5 -146.5t-230.5 -43.5v-8q158 -3 221.5 -41t87.5 -150l45 -194q15 -66 45 -91.5t84 -25.5q26 0 72 4v-254q-60 -8 -121 -8q-137 0 -210 53.5t-101 173.5l-60 264q-19 90 -60.5 127t-123.5 37h-80q-41 0 -61 8l-4 -4q10 -23 10 -76v-573h-252v573
q0 53 10 76l-2 4q-24 -8 -61 -8h-82q-80 0 -122.5 -37t-62.5 -127l-57 -264q-28 -120 -102 -173.5t-209 -53.5z" />
    <glyph glyph-name="uni04C2" unicode="&#x4c2;" horiz-adv-x="1476" 
d="M1047 1352q0 -145 -87 -230.5t-223 -85.5q-135 0 -221 85.5t-86 230.5h164q3 -73 39 -113.5t104 -40.5q69 0 105 40t39 114h166zM39 -6v205h41q38 0 56.5 12.5t33.5 48.5l35 111q21 62 67 89.5t144 28.5v9q-96 3 -143 28.5t-66 79.5l-31 78q-19 37 -39 50.5t-57 13.5h-41
v204h131q140 0 186 -104l64 -152q24 -62 47.5 -83t71.5 -21h28q44 0 64 -4l2 2q-10 42 -10 82v274h229v-274q0 -51 -10 -82l2 -2q20 4 63 4h29q50 0 73.5 21t47.5 83l63 152q43 104 187 104h131v-204h-41q-38 0 -59 -13.5t-38 -50.5l-30 -78q-21 -54 -67.5 -79.5
t-141.5 -28.5v-9q98 -1 143 -28.5t66 -89.5l35 -111q15 -36 33.5 -48.5t56.5 -12.5h41v-205h-144q-152 0 -190 123l-49 157q-20 68 -44 94.5t-73 26.5h-29q-43 0 -63 4l-2 -2q10 -31 10 -86v-311h-229v311q0 44 10 86l-2 2q-20 -4 -64 -4h-28q-49 0 -73 -26.5t-44 -94.5
l-47 -157q-21 -62 -67 -92.5t-124 -30.5h-145z" />
    <glyph glyph-name="uni04C3" unicode="&#x4c3;" horiz-adv-x="1374" 
d="M735 758q267 -5 399 -114.5t132 -336.5v-313q0 -201 -103.5 -302.5t-292.5 -101.5h-149v248h125q80 0 119 44.5t39 137.5v287q0 177 -125.5 251.5t-417.5 74.5q-47 0 -62 6l-2 -4q11 -29 11 -74v-561h-263v1434h263v-514q0 -43 -11 -72l2 -4q16 8 62 8h117q80 0 125 44.5
t67 145.5l51 205q25 101 100.5 150t208.5 49q66 0 123 -8v-240q-33 4 -71 4q-54 0 -82.5 -19.5t-38.5 -64.5l-45 -170q-20 -83 -83.5 -124.5t-197.5 -61.5v-4z" />
    <glyph glyph-name="uni04C4" unicode="&#x4c4;" horiz-adv-x="1042" 
d="M604 489q189 0 294.5 -79.5t105.5 -247.5v-193q0 -191 -95 -285t-272 -94h-121v232h98q74 0 109 37t35 114v193q0 222 -254 225l-78 2q-40 0 -64 4l-2 -2q11 -34 11 -86v-309h-250v946h250v-274q0 -48 -11 -82l2 -2q24 4 64 4h57q53 0 77.5 22t49.5 82l66 152
q44 104 182 104h131v-209h-33q-82 0 -102 -59l-31 -78q-23 -55 -70.5 -80t-148.5 -28v-9z" />
    <glyph glyph-name="uni04C5" unicode="&#x4c5;" horiz-adv-x="1591" 
d="M1393 190h188l-168 -477h-207l90 287h-166v1141q0 40 9 55l-4 4q-19 -8 -56 -8h-497q-38 0 -54 8l-4 -4q8 -20 8 -55v-764q0 -199 -83.5 -293t-260.5 -94q-64 0 -145 8v244q41 -4 113 -4q60 0 87 34.5t27 110.5v1051h1123v-1244z" />
    <glyph glyph-name="uni04C6" unicode="&#x4c6;" horiz-adv-x="1198" 
d="M1008 190h180l-168 -477h-207l90 287h-147v674q0 26 10 53l-2 2q-19 -8 -57 -8h-205q-42 0 -58 8l-2 -2q11 -29 11 -53v-332q0 -346 -338 -346h-99v223h76q58 0 83.5 31.5t25.5 109.5v586h807v-756z" />
    <glyph glyph-name="uni04C7" unicode="&#x4c7;" horiz-adv-x="1482" 
d="M1337 1434v-1434h-2v-29q0 -381 -391 -381h-106v248h100q71 0 103 37t32 117v313l2 -2v281q0 44 8 57l-4 4q-20 -10 -55 -10h-567q-34 0 -54 10l-4 -4q9 -22 9 -57v-584h-263v1434h263v-502q0 -36 -9 -58l4 -4q18 9 54 9h567q37 0 55 -9l4 4q-8 13 -8 58v502h262z" />
    <glyph glyph-name="uni04C8" unicode="&#x4c8;" horiz-adv-x="1159" 
d="M1038 946v-946v-41q0 -186 -98 -277.5t-278 -91.5h-103v238h96q131 0 131 147v43v328q0 31 11 53l-2 2q-16 -8 -58 -8h-317q-42 0 -58 8l-2 -2q11 -22 11 -53v-346h-250v946h250v-282q0 -32 -11 -54l2 -2q16 8 58 8h317q42 0 58 -8l2 2q-11 22 -11 54v282h252z" />
    <glyph glyph-name="uni04C9" unicode="&#x4c9;" horiz-adv-x="1531" 
d="M1337 190h185l-166 -477h-207l90 287h-164v584q0 44 8 57l-4 4q-20 -10 -55 -10h-567q-34 0 -54 10l-4 -4q9 -22 9 -57v-584h-263v1434h263v-502q0 -36 -9 -58l4 -4q18 9 54 9h567q37 0 55 -9l4 4q-8 13 -8 58v502h262v-1244z" />
    <glyph glyph-name="uni04CA" unicode="&#x4ca;" horiz-adv-x="1241" 
d="M1038 190h193l-168 -477h-207l90 287h-160v346q0 31 11 53l-2 2q-16 -8 -58 -8h-317q-42 0 -58 8l-2 -2q11 -22 11 -53v-346h-250v946h250v-282q0 -32 -11 -54l2 -2q16 8 58 8h317q42 0 58 -8l2 2q-11 22 -11 54v282h252v-756z" />
    <glyph glyph-name="uni04CB" unicode="&#x4cb;" horiz-adv-x="1280" 
d="M1137 1434v-1434h-199v-287h-246v469h182v314q0 77 15 108l-4 4q-189 -71 -416 -71q-217 0 -331.5 122.5t-114.5 352.5v422h262v-398q0 -123 58.5 -188.5t170.5 -65.5q151 0 360 62v590h263z" />
    <glyph glyph-name="uni04CC" unicode="&#x4cc;" horiz-adv-x="1017" 
d="M651 946h252v-723v-223h-182v-287h-225v424h155v154q0 65 15 100l-4 4q-146 -67 -291 -67q-176 0 -265.5 91t-89.5 286v241h252v-223q0 -88 40 -126t122 -38q89 0 221 45v342z" />
    <glyph glyph-name="uni04CD" unicode="&#x4cd;" horiz-adv-x="1996" 
d="M1804 190h183l-166 -477h-207l90 287h-117l-207 682q-27 88 -32 207h-9q-9 -89 -59 -203l-322 -700h-32l-322 700q-32 70 -44 112.5t-15 90.5h-8q-4 -116 -33 -207l-209 -682h-279l476 1454h43l366 -840q29 -70 37 -155h8q9 91 35 155l367 840h43z" />
    <glyph glyph-name="uni04CE" unicode="&#x4ce;" horiz-adv-x="1529" 
d="M1352 190h168l-166 -477h-207l90 287h-80l-127 356q-2 6 -8 23t-7.5 21t-6 17.5t-5.5 18.5t-4 16t-4 18t-2 17t-2 21h-8q-2 -14 -5 -26t-8.5 -27t-10 -25t-15 -33t-16.5 -37l-174 -374h-68l-174 374q-44 93 -51 125q-2 11 -4 23h-8q-2 -27 -8 -52.5t-11.5 -40.5
t-21.5 -59l-125 -356h-271l381 961h66l215 -453q33 -62 41 -115h8q11 54 43 115l215 453h66z" />
    <glyph glyph-name="uni04CF" unicode="&#x4cf;" horiz-adv-x="491" 
d="M371 946v-946h-250v946h250z" />
    <glyph glyph-name="uni04D0" unicode="&#x4d0;" horiz-adv-x="1460" 
d="M1036 1767q-6 -135 -86 -210.5t-221 -75.5t-220 75.5t-85 210.5h172q0 -69 34 -108t99 -39q66 0 100.5 39t32.5 108h174zM16 0l693 1462h43l692 -1462h-291l-152 340h-542l-152 -340h-291zM524 541q30 6 105 6h202q75 0 105 -6l2 2q-27 34 -61 106l-95 225
q-44 106 -47 156h-8q-6 -53 -49 -156l-94 -225q-27 -62 -62 -106z" />
    <glyph glyph-name="uni04D1" unicode="&#x4d1;" horiz-adv-x="1052" 
d="M836 1352q0 -145 -87 -230.5t-223 -85.5q-135 0 -221 85.5t-86 230.5h164q3 -73 39 -113.5t104 -40.5q69 0 105 40t39 114h166zM518 977q224 0 325 -90t101 -291v-596h-254q0 97 31 168l-8 4q-105 -203 -326 -203q-152 0 -245 91.5t-93 240.5q0 150 93 239t249 89
q216 0 318 -164l8 4q-17 52 -17 139q-5 74 -58 113t-150 39q-113 0 -281 -41l-49 211q183 47 356 47zM487 457q-76 0 -123 -41.5t-47 -106.5q0 -66 46.5 -105.5t121.5 -39.5q78 0 127.5 41t49.5 106q0 64 -49 105t-126 41z" />
    <glyph glyph-name="uni04D2" unicode="&#x4d2;" horiz-adv-x="1460" 
d="M436 1759h209v-237h-209v237zM817 1759h209v-237h-209v237zM16 0l693 1462h43l692 -1462h-291l-152 340h-542l-152 -340h-291zM524 541q30 6 105 6h202q75 0 105 -6l2 2q-27 34 -61 106l-95 225q-44 106 -47 156h-8q-6 -53 -49 -156l-94 -225q-27 -62 -62 -106z" />
    <glyph glyph-name="uni04D3" unicode="&#x4d3;" horiz-adv-x="1052" 
d="M455 1331v-272h-199v272h199zM797 1331v-272h-197v272h197zM518 977q224 0 325 -90t101 -291v-596h-254q0 97 31 168l-8 4q-105 -203 -326 -203q-152 0 -245 91.5t-93 240.5q0 150 93 239t249 89q216 0 318 -164l8 4q-17 52 -17 139q-5 74 -58 113t-150 39
q-113 0 -281 -41l-49 211q183 47 356 47zM487 457q-76 0 -123 -41.5t-47 -106.5q0 -66 46.5 -105.5t121.5 -39.5q78 0 127.5 41t49.5 106q0 64 -49 105t-126 41z" />
    <glyph glyph-name="uni04D4" unicode="&#x4d4;" horiz-adv-x="1933" 
d="M1358 240h487v-240h-782v287q0 37 8 57l-4 4q-16 -8 -53 -8h-467l-215 -340h-316l953 1434h868v-240h-479q-37 0 -53 8l-5 -4q9 -22 9 -57v-201q0 -34 -9 -57l5 -4q16 8 53 8h428v-238h-428q-37 0 -53 8l-5 -4q9 -22 9 -57v-303q0 -35 -9 -57l5 -5q18 9 53 9zM1071 543
q-8 20 -8 57v457q0 80 14 160h-4q-32 -89 -74 -158l-272 -432q-21 -34 -37 -52t-43 -36l2 -4q39 12 111 12h254q40 0 53 -8z" />
    <glyph glyph-name="uni04D5" unicode="&#x4d5;" horiz-adv-x="1689" 
d="M403 -31q-163 0 -258.5 94.5t-95.5 243.5q0 148 95 235t251 87q212 0 314 -164l6 4q-13 48 -17 141q-7 150 -213 150q-109 0 -276 -41l-49 211q195 47 356 47q133 0 205 -38t110 -128h3q120 166 346 166q211 0 333.5 -133.5t122.5 -368.5v-59h-585q-82 0 -117 18l-4 -6
l6 -16q17 -107 84.5 -164.5t181.5 -57.5q159 0 281 113l114 -180q-168 -154 -389 -154q-148 0 -256.5 65t-156.5 177h-7q-45 -109 -148 -175.5t-237 -66.5zM936 565q28 19 102 19h226q88 0 116 -17l4 4q-7 96 -64 148.5t-153 52.5q-97 0 -159.5 -54t-75.5 -149zM485 164
q77 0 127 41t50 106q0 64 -50 105t-127 41q-75 0 -122.5 -40t-47.5 -106t47.5 -106.5t122.5 -40.5z" />
    <glyph glyph-name="uni04D6" unicode="&#x4d6;" horiz-adv-x="1083" 
d="M899 1767q-6 -135 -86 -210.5t-221 -75.5t-220 75.5t-85 210.5h172q0 -69 34 -108t99 -39q66 0 100.5 39t32.5 108h174zM993 1434v-240h-536q-34 0 -54 10l-4 -4q9 -22 9 -57v-203q0 -34 -9 -57l4 -4q16 8 54 8h475v-238h-475q-34 0 -54 10l-4 -4q9 -23 9 -57v-307
q0 -35 -9 -58l4 -4q22 11 54 11h544v-240h-856v1434h848z" />
    <glyph glyph-name="uni04D7" unicode="&#x4d7;" horiz-adv-x="1060" 
d="M858 1352q0 -145 -86.5 -230.5t-222.5 -85.5q-135 0 -221 85.5t-86 230.5h164q3 -73 39 -113.5t104 -40.5q137 0 143 154h166zM547 977q216 0 338.5 -133t122.5 -369v-59h-586q-85 0 -119 20l-4 -6l8 -22q17 -106 85.5 -162t180.5 -56q159 0 281 113l115 -180
q-171 -154 -396 -154q-234 0 -375 136.5t-141 365.5q0 230 135 368t355 138zM539 772q-97 0 -160.5 -54t-75.5 -149l4 -4q28 19 103 19h223q98 0 117 -17l4 4q-6 96 -63 148.5t-152 52.5z" />
    <glyph glyph-name="uni04D8" unicode="&#x4d8;" horiz-adv-x="1562" 
d="M754 1464q223 0 390 -85.5t261 -254.5t94 -403q0 -345 -195.5 -548.5t-535.5 -203.5q-335 0 -520 199.5t-185 548.5v123h1067q51 0 95 -17l4 6q-14 26 -29 76q-87 299 -459 299q-130 0 -236 -37t-210 -110l-133 225q255 182 592 182zM1221 616q-29 -10 -97 -10h-686
q-77 0 -102 10l-6 -4q16 -23 22 -65q10 -65 39.5 -121t80 -102.5t128.5 -73.5t176 -27q178 0 283.5 84t142.5 236q13 44 23 69z" />
    <glyph glyph-name="uni04D9" unicode="&#x4d9;" horiz-adv-x="1060" 
d="M514 -31q-216 0 -338.5 133t-122.5 369v59h586q85 0 119 -20l4 6l-8 23q-17 106 -85.5 161.5t-181.5 55.5q-158 0 -280 -113l-115 180q171 154 395 154q234 0 375.5 -136.5t141.5 -365.5q0 -230 -135 -368t-355 -138zM522 174q97 0 160.5 54t75.5 149l-4 4
q-28 -19 -103 -19h-223q-98 0 -117 17l-4 -4q6 -96 63 -148.5t152 -52.5z" />
    <glyph glyph-name="uni04DA" unicode="&#x4da;" horiz-adv-x="1562" 
d="M479 1759h209v-237h-209v237zM860 1759h209v-237h-209v237zM754 1464q223 0 390 -85.5t261 -254.5t94 -403q0 -345 -195.5 -548.5t-535.5 -203.5q-335 0 -520 199.5t-185 548.5v123h1067q51 0 95 -17l4 6q-14 26 -29 76q-87 299 -459 299q-130 0 -236 -37t-210 -110
l-133 225q255 182 592 182zM1221 616q-29 -10 -97 -10h-686q-77 0 -102 10l-6 -4q16 -23 22 -65q10 -65 39.5 -121t80 -102.5t128.5 -73.5t176 -27q178 0 283.5 84t142.5 236q13 44 23 69z" />
    <glyph glyph-name="uni04DB" unicode="&#x4db;" horiz-adv-x="1060" 
d="M463 1331v-272h-199v272h199zM805 1331v-272h-197v272h197zM514 -31q-216 0 -338.5 133t-122.5 369v59h586q85 0 119 -20l4 6l-8 23q-17 106 -85.5 161.5t-181.5 55.5q-158 0 -280 -113l-115 180q171 154 395 154q234 0 375.5 -136.5t141.5 -365.5q0 -230 -135 -368
t-355 -138zM522 174q97 0 160.5 54t75.5 149l-4 4q-28 -19 -103 -19h-223q-98 0 -117 17l-4 -4q6 -96 63 -148.5t152 -52.5z" />
    <glyph glyph-name="uni04DC" unicode="&#x4dc;" horiz-adv-x="1951" 
d="M682 1759h209v-237h-209v237zM1063 1759h209v-237h-209v237zM162 -10q-63 0 -123 8v254q50 -4 72 -4q55 0 86 26t45 91l43 194q26 112 88.5 150t220.5 41v8q-165 6 -230 43.5t-92 146.5l-41 172q-20 82 -118 82q-6 0 -72 -4v238q83 6 121 6q128 0 196 -44t97 -151
l61 -225q21 -84 67.5 -123t131.5 -39h82q45 0 61 -8l2 4q-10 22 -10 74v504h252v-504q0 -52 -10 -74l4 -4q13 8 61 8h80q85 0 131 38t68 124l61 225q29 107 97 151t198 44q40 0 119 -6v-238q-62 4 -70 4q-102 0 -119 -82l-43 -172q-26 -109 -90.5 -146.5t-230.5 -43.5v-8
q158 -3 221.5 -41t87.5 -150l45 -194q15 -66 45 -91.5t84 -25.5q26 0 72 4v-254q-60 -8 -121 -8q-137 0 -210 53.5t-101 173.5l-60 264q-19 90 -60.5 127t-123.5 37h-80q-41 0 -61 8l-4 -4q10 -23 10 -76v-573h-252v573q0 53 10 76l-2 4q-24 -8 -61 -8h-82q-80 0 -122.5 -37
t-62.5 -127l-57 -264q-28 -120 -102 -173.5t-209 -53.5z" />
    <glyph glyph-name="uni04DD" unicode="&#x4dd;" horiz-adv-x="1476" 
d="M666 1331v-272h-199v272h199zM1008 1331v-272h-197v272h197zM39 -6v205h41q38 0 56.5 12.5t33.5 48.5l35 111q21 62 67 89.5t144 28.5v9q-96 3 -143 28.5t-66 79.5l-31 78q-19 37 -39 50.5t-57 13.5h-41v204h131q140 0 186 -104l64 -152q24 -62 47.5 -83t71.5 -21h28
q44 0 64 -4l2 2q-10 42 -10 82v274h229v-274q0 -51 -10 -82l2 -2q20 4 63 4h29q50 0 73.5 21t47.5 83l63 152q43 104 187 104h131v-204h-41q-38 0 -59 -13.5t-38 -50.5l-30 -78q-21 -54 -67.5 -79.5t-141.5 -28.5v-9q98 -1 143 -28.5t66 -89.5l35 -111q15 -36 33.5 -48.5
t56.5 -12.5h41v-205h-144q-152 0 -190 123l-49 157q-20 68 -44 94.5t-73 26.5h-29q-43 0 -63 4l-2 -2q10 -31 10 -86v-311h-229v311q0 44 10 86l-2 2q-20 -4 -64 -4h-28q-49 0 -73 -26.5t-44 -94.5l-47 -157q-21 -62 -67 -92.5t-124 -30.5h-145z" />
    <glyph glyph-name="uni04DE" unicode="&#x4de;" horiz-adv-x="1175" 
d="M287 1759h209v-237h-209v237zM668 1759h209v-237h-209v237zM553 -31q-293 0 -506 115l107 229q198 -94 403 -94q270 0 270 195q0 104 -81 154t-248 50h-197v250h197q272 0 272 185q0 161 -227 161q-175 0 -369 -79l-86 241q257 88 479 88q477 0 477 -362
q0 -124 -57.5 -201t-179.5 -115q-65 -21 -141 -24v-8q65 0 141 -13q148 -32 218.5 -119t70.5 -235q0 -207 -137 -312.5t-406 -105.5z" />
    <glyph glyph-name="uni04DF" unicode="&#x4df;" horiz-adv-x="925" 
d="M389 1331v-272h-199v272h199zM731 1331v-272h-196v272h196zM442 -31q-235 0 -413 88l88 201q156 -78 315 -78q102 0 147.5 25.5t45.5 81.5t-38.5 82t-121.5 26h-137v197h123q124 0 124 86q0 88 -159 88q-134 0 -293 -70l-80 201q207 80 406 80q380 0 380 -248
q0 -99 -61.5 -156.5t-181.5 -66.5v-8q282 -16 282 -242q0 -141 -107 -214t-319 -73z" />
    <glyph glyph-name="uni04E0" unicode="&#x4e0;" horiz-adv-x="1146" 
d="M526 -31q-302 0 -518 125l115 236q224 -105 395 -105q133 0 200.5 52t67.5 147q0 109 -87 162t-269 53h-141v207l397 364l-2 7q-60 -27 -158 -27h-415v244h911v-228l-467 -397l2 -6q52 24 113 24q181 0 289 -106t108 -303q0 -213 -133 -331t-408 -118z" />
    <glyph glyph-name="uni04E1" unicode="&#x4e1;" horiz-adv-x="925" 
d="M406 -440q-252 0 -459 106l90 221q201 -98 366 -98q126 0 189 54.5t63 154.5q0 209 -272 209h-205v194l379 340l-4 7q-58 -27 -158 -27h-360v225h817v-227l-424 -354l4 -7q61 25 109 25q162 0 268 -107.5t106 -283.5q0 -196 -130 -314t-379 -118z" />
    <glyph glyph-name="uni04E2" unicode="&#x4e2;" horiz-adv-x="1495" 
d="M487 1706h631v-162h-631v162zM1309 1454h43v-1454h-262v700q0 178 22 252l-8 2q-32 -72 -103 -143l-815 -831h-41v1454h261v-699q0 -177 -23 -254l8 -2q33 75 105 144z" />
    <glyph glyph-name="uni04E3" unicode="&#x4e3;" horiz-adv-x="1126" 
d="M907 1380v-170h-612v170h612zM121 -12v958h250v-319q0 -142 -15 -221l9 -3q26 51 108 127l463 428h72v-958h-252v319q0 148 14 222l-8 2q-25 -49 -109 -127l-463 -428h-69z" />
    <glyph glyph-name="uni04E4" unicode="&#x4e4;" horiz-adv-x="1495" 
d="M508 1759h209v-237h-209v237zM889 1759h209v-237h-209v237zM1309 1454h43v-1454h-262v700q0 178 22 252l-8 2q-32 -72 -103 -143l-815 -831h-41v1454h261v-699q0 -177 -23 -254l8 -2q33 75 105 144z" />
    <glyph glyph-name="uni04E5" unicode="&#x4e5;" horiz-adv-x="1126" 
d="M528 1331v-272h-198v272h198zM870 1331v-272h-196v272h196zM121 -12v958h250v-319q0 -142 -15 -221l9 -3q26 51 108 127l463 428h72v-958h-252v319q0 148 14 222l-8 2q-25 -49 -109 -127l-463 -428h-69z" />
    <glyph glyph-name="uni04E6" unicode="&#x4e6;" horiz-adv-x="1628" 
d="M520 1759h209v-237h-209v237zM901 1759h209v-237h-209v237zM813 1464q162 0 302 -56t238.5 -154.5t155 -237t56.5 -299.5q0 -214 -96 -385t-268 -267t-388 -96q-215 0 -386.5 96t-267.5 267t-96 385q0 161 56.5 299.5t155 237t238 154.5t300.5 56zM813 1204
q-209 0 -341 -136t-132 -351t132 -351.5t341 -136.5q210 0 342.5 136t132.5 352q0 215 -132 351t-343 136z" />
    <glyph glyph-name="uni04E7" unicode="&#x4e7;" horiz-adv-x="1163" 
d="M510 1331v-272h-199v272h199zM852 1331v-272h-197v272h197zM582 977q228 0 376 -141.5t148 -362.5t-148 -362.5t-376 -141.5t-376.5 141.5t-148.5 362.5t148.5 362.5t376.5 141.5zM582 739q-118 0 -192.5 -73t-74.5 -193t74.5 -193t192.5 -73t192 73t74 193t-74 193
t-192 73z" />
    <glyph glyph-name="uni04E8" unicode="&#x4e8;" horiz-adv-x="1628" 
d="M813 1464q162 0 302 -56t238.5 -154.5t155 -237t56.5 -299.5q0 -213 -96 -384t-268 -267.5t-388 -96.5q-214 0 -385.5 96.5t-268 267.5t-96.5 384q0 214 96.5 385t268 266.5t385.5 95.5zM1288 811l4 6q-10 17 -22 62q-43 155 -163.5 242t-293.5 87q-172 0 -292 -87
t-163 -242q-10 -38 -22 -62l4 -6q22 10 70 10h809q47 0 69 -10zM1270 555q11 43 22 61l-4 7q-25 -11 -69 -11h-809q-45 0 -70 11l-4 -7q13 -25 22 -61q43 -155 163 -242.5t292 -87.5q173 0 293.5 87.5t163.5 242.5z" />
    <glyph glyph-name="uni04E9" unicode="&#x4e9;" horiz-adv-x="1157" 
d="M580 977q227 0 374.5 -141t147.5 -363t-147.5 -363t-374.5 -141t-375 141t-148 363t148 363t375 141zM844 516l4 4q-12 106 -85.5 167t-182.5 61q-111 0 -185 -61t-84 -167l4 -4q24 19 109 19h309q87 0 111 -19zM580 199q109 0 182.5 60.5t85.5 166.5l-4 4
q-23 -18 -111 -18h-309q-86 0 -109 18l-4 -4q10 -106 84 -166.5t185 -60.5z" />
    <glyph glyph-name="uni04EA" unicode="&#x4ea;" horiz-adv-x="1628" 
d="M723 1759v-237h-209v237h209zM1104 1759v-237h-209v237h209zM813 1464q162 0 302 -56t238.5 -154.5t155 -237t56.5 -299.5q0 -213 -96 -384t-268 -267.5t-388 -96.5q-214 0 -385.5 96.5t-268 267.5t-96.5 384q0 214 96.5 385t268 266.5t385.5 95.5zM1288 811l4 6
q-10 17 -22 62q-43 155 -163.5 242t-293.5 87q-172 0 -292 -87t-163 -242q-10 -38 -22 -62l4 -6q22 10 70 10h809q47 0 69 -10zM1270 555q11 43 22 61l-4 7q-25 -11 -69 -11h-809q-45 0 -70 11l-4 -7q13 -25 22 -61q43 -155 163 -242.5t292 -87.5q173 0 293.5 87.5
t163.5 242.5z" />
    <glyph glyph-name="uni04EB" unicode="&#x4eb;" horiz-adv-x="1157" 
d="M502 1331v-272h-199v272h199zM844 1331v-272h-197v272h197zM580 977q227 0 374.5 -141t147.5 -363t-147.5 -363t-374.5 -141t-375 141t-148 363t148 363t375 141zM844 516l4 4q-12 106 -85.5 167t-182.5 61q-111 0 -185 -61t-84 -167l4 -4q24 19 109 19h309q87 0 111 -19
zM580 199q109 0 182.5 60.5t85.5 166.5l-4 4q-23 -18 -111 -18h-309q-86 0 -109 18l-4 -4q10 -106 84 -166.5t185 -60.5z" />
    <glyph glyph-name="uni04EC" unicode="&#x4ec;" horiz-adv-x="1382" 
d="M299 1759h209v-237h-209v237zM680 1759h209v-237h-209v237zM569 -31q-299 0 -522 152l129 225q178 -119 402 -119q167 0 282 85t156 239q8 29 22 47l-4 4q-24 -8 -73 -8h-537v246h537q46 0 73 -9l4 5q-14 18 -22 47q-41 154 -156 238.5t-282 84.5q-224 0 -402 -119
l-129 226q222 151 522 151q340 0 545 -204.5t205 -542.5t-205 -543t-545 -205z" />
    <glyph glyph-name="uni04ED" unicode="&#x4ed;" horiz-adv-x="952" 
d="M391 1331v-272h-198v272h198zM733 1331v-272h-196v272h196zM393 -31q-197 0 -354 88l96 201q120 -63 246 -63q82 0 144 37.5t85 107.5q9 34 21 51l-2 2q-18 -8 -58 -8h-290v176h290q40 0 58 -8l2 2q-15 22 -21 51q-23 70 -85.5 108t-143.5 38q-125 0 -246 -64l-96 201
q157 88 354 88q223 0 357.5 -135.5t134.5 -368.5t-134.5 -368.5t-357.5 -135.5z" />
    <glyph glyph-name="uni04EE" unicode="&#x4ee;" horiz-adv-x="1353" 
d="M367 1706h630v-162h-630v162zM371 -16q-87 0 -195 12l2 246q85 -15 172 -15q120 0 197 140l-537 1067h318l282 -619q48 -100 64.5 -142t23.5 -89h9q7 70 19 111.5t48 125.5l266 613h303l-493 -1072q-84 -196 -197.5 -287t-281.5 -91z" />
    <glyph glyph-name="uni04EF" unicode="&#x4ef;" horiz-adv-x="1054" 
d="M838 1264v-168h-613v168h613zM1044 946l-587 -1358h-256l211 480l-400 878h277l188 -450q44 -102 49 -207h9q3 84 36 164l201 493h272z" />
    <glyph glyph-name="uni04F0" unicode="&#x4f0;" horiz-adv-x="1353" 
d="M387 1759h209v-237h-209v237zM768 1759h209v-237h-209v237zM371 -16q-87 0 -195 12l2 246q85 -15 172 -15q120 0 197 140l-537 1067h318l282 -619q48 -100 64.5 -142t23.5 -89h9q7 70 19 111.5t48 125.5l266 613h303l-493 -1072q-84 -196 -197.5 -287t-281.5 -91z" />
    <glyph glyph-name="uni04F1" unicode="&#x4f1;" horiz-adv-x="1054" 
d="M459 1331v-272h-199v272h199zM801 1331v-272h-197v272h197zM1044 946l-587 -1358h-256l211 480l-400 878h277l188 -450q44 -102 49 -207h9q3 84 36 164l201 493h272z" />
    <glyph glyph-name="uni04F2" unicode="&#x4f2;" horiz-adv-x="1353" 
d="M852 1747l2 -6l-231 -219h-170v4l213 221h186zM725 1526l215 221h184l2 -6l-231 -219h-168zM371 -16q-87 0 -195 12l2 246q85 -15 172 -15q120 0 197 140l-537 1067h318l282 -619q48 -100 64.5 -142t23.5 -89h9q7 70 19 111.5t48 125.5l266 613h303l-493 -1072
q-84 -196 -197.5 -287t-281.5 -91z" />
    <glyph glyph-name="uni04F3" unicode="&#x4f3;" horiz-adv-x="1054" 
d="M305 1030l-2 4l246 312h199l2 -5l-265 -311h-180zM598 1030l-2 4l246 312h198l2 -5l-264 -311h-180zM1044 946l-587 -1358h-256l211 480l-400 878h277l188 -450q44 -102 49 -207h9q3 84 36 164l201 493h272z" />
    <glyph glyph-name="uni04F4" unicode="&#x4f4;" horiz-adv-x="1280" 
d="M326 1759h209v-237h-209v237zM707 1759h208v-237h-208v237zM874 0v496q0 77 15 108l-4 4q-189 -71 -416 -71q-217 0 -331.5 122.5t-114.5 352.5v422h262v-398q0 -123 58.5 -188.5t170.5 -65.5q151 0 360 62v590h263v-1434h-263z" />
    <glyph glyph-name="uni04F5" unicode="&#x4f5;" horiz-adv-x="1017" 
d="M387 1331v-272h-199v272h199zM729 1331v-272h-197v272h197zM651 946h252v-723v-223h-252v291q0 65 15 100l-4 4q-146 -67 -291 -67q-176 0 -265.5 91t-89.5 286v241h252v-223q0 -88 40 -126t122 -38q89 0 221 45v342z" />
    <glyph glyph-name="uni04F8" unicode="&#x4f8;" horiz-adv-x="1699" 
d="M780 1759v-237h-209v237h209zM1161 1759v-237h-209v237h209zM709 891q224 0 353.5 -119.5t129.5 -325.5q0 -207 -129.5 -326.5t-353.5 -119.5h-564v1034v400h263v-492q0 -32 -9 -55l4 -4q16 8 54 8h252zM1294 1434h262v-1434h-262v1434zM676 238q117 0 180.5 54t63.5 154
q0 98 -64 152.5t-180 54.5h-219q-38 0 -54 11l-4 -5q9 -23 9 -57v-311q0 -35 -9 -58l4 -4q18 9 54 9h219z" />
    <glyph glyph-name="uni04F9" unicode="&#x4f9;" horiz-adv-x="1386" 
d="M614 1331v-272h-198v272h198zM760 1059v272h196v-272h-196zM590 649q162 0 256 -84t94 -239q0 -154 -96 -240t-256 -86h-467v733v213h250v-250q0 -31 -11 -53l2 -2q19 8 58 8h170zM1016 946h252v-946h-252v946zM553 211q60 0 92.5 29t32.5 84t-32.5 84.5t-92.5 29.5h-133
q-39 0 -58 8l-2 -2q11 -22 11 -53v-133q0 -31 -11 -53l2 -2q19 8 58 8h133z" />
    <glyph glyph-name="uni04FC" unicode="&#x4fc;" horiz-adv-x="1339" 
d="M1145 332q87 -132 123.5 -224.5t36.5 -187.5q0 -330 -390 -330h-96l2 244h86q146 0 146 107q0 47 -25.5 96.5t-116.5 187.5l-141 207q-63 90 -76 158h-8q-19 -68 -76 -158l-270 -432h-324l400 598q92 144 116 162v8q-16 18 -28 34t-20.5 28t-29.5 44t-40 60l-340 500h323
l219 -342q62 -101 78 -160h8q6 40 76 160l213 342h322l-342 -508q-88 -135 -119 -166v-8q41 -44 117 -160z" />
    <glyph glyph-name="uni04FD" unicode="&#x4fd;" horiz-adv-x="1054" 
d="M639 -410v215h68q61 0 86.5 25.5t25.5 73.5q0 37 -25.5 81t-91.5 126l-92 118q-49 62 -67 146h-6q-26 -83 -68 -144l-162 -231h-291l320 434q31 47 57 58v6q-7 3 -12.5 7t-12 11t-9.5 10t-11 14t-10 13l-283 393h289l125 -180q50 -73 72 -154h4q14 70 71 154l121 180h291
l-283 -393q-31 -43 -55 -55v-6q25 -11 58 -60l167 -229q76 -97 110 -172t34 -158q0 -135 -87 -209t-257 -74h-76z" />
    <glyph glyph-name="uni0510" unicode="&#x510;" horiz-adv-x="1175" 
d="M623 -31q-269 0 -406 105.5t-137 312.5q0 148 70.5 235t218.5 119q76 13 141 13v8q-76 3 -141 24q-122 38 -180 115t-58 201q0 362 477 362q222 0 479 -88l-86 -241q-194 79 -368 79q-227 0 -227 -161q0 -185 272 -185h196v-250h-196q-168 0 -249 -50t-81 -154
q0 -195 270 -195q206 0 404 94l106 -229q-213 -115 -505 -115z" />
    <glyph glyph-name="uni0511" unicode="&#x511;" horiz-adv-x="927" 
d="M483 -31q-210 0 -318 73t-108 214q0 226 283 242v8q-120 9 -182 66.5t-62 156.5q0 248 383 248q195 0 406 -80l-80 -201q-159 70 -295 70q-158 0 -158 -88q0 -86 123 -86h123v-197h-135q-83 0 -121.5 -26t-38.5 -82t44.5 -81.5t146.5 -25.5q159 0 315 78l90 -201
q-181 -88 -416 -88z" />
    <glyph glyph-name="uni0512" unicode="&#x512;" horiz-adv-x="1538" 
d="M1393 1434v-1434h-2v-29q0 -381 -392 -381h-106v248h100q71 0 103 37t32 117v313l2 -2v838q0 40 9 55l-4 4q-19 -8 -56 -8h-497q-38 0 -54 8l-4 -4q8 -20 8 -55v-764q0 -199 -83.5 -293t-260.5 -94q-64 0 -145 8v244q41 -4 113 -4q60 0 87 34.5t27 110.5v1051h1123z" />
    <glyph glyph-name="uni0513" unicode="&#x513;" horiz-adv-x="1122" 
d="M1008 946v-946v-41q0 -186 -98.5 -277.5t-278.5 -91.5h-103v238h97q131 0 131 147v43v656q0 26 10 53l-2 2q-19 -8 -57 -8h-205q-42 0 -58 8l-2 -2q11 -29 11 -53v-332q0 -346 -338 -346h-99v223h76q58 0 83.5 31.5t25.5 109.5v586h807z" />
    <glyph glyph-name="uni051C" unicode="&#x51c;" horiz-adv-x="1994" 
d="M1016 1454l291 -719q34 -87 46 -127t19 -100h8q6 59 17.5 102t40.5 127l241 697h299l-573 -1452h-45l-316 766q-34 80 -43 167h-8q-9 -86 -41 -167l-317 -766h-45l-574 1452h299l244 -697q47 -141 57 -229h9q6 60 17.5 100t45.5 127l291 719h37z" />
    <glyph glyph-name="uni051D" unicode="&#x51d;" horiz-adv-x="1511" 
d="M430 -14l-418 960h277l137 -360q42 -112 51 -178h8q7 55 58 162q1 4 2 6t3 5.5t3 6.5l172 375h63l175 -375q36 -77 47.5 -108t17.5 -72h8q3 29 9.5 55.5t14 47.5t27.5 75l136 360h278l-418 -960h-67l-193 407q-32 67 -43.5 98t-17.5 68h-8q-6 -37 -17.5 -66.5
t-44.5 -99.5l-192 -407h-68z" />
    <glyph glyph-name="uni0524" unicode="&#x524;" horiz-adv-x="1497" 
d="M1325 182h156v-469h-248v287h-170v1141q0 35 8 55l-4 4q-16 -8 -53 -8h-557q-38 0 -54 8l-4 -4q9 -22 9 -55v-1141h-263v1434h1180v-1252z" />
    <glyph glyph-name="uni0525" unicode="&#x525;" horiz-adv-x="1142" 
d="M1020 137h106v-424h-225v287h-133v674q0 33 10 53l-2 2q-16 -8 -57 -8h-299q-42 0 -58 8l-2 -2q11 -22 11 -53v-674h-250v946h899v-809z" />
    <glyph glyph-name="uni0526" unicode="&#x526;" horiz-adv-x="1449" 
d="M1260 182h174v-469h-248v287h-189v397q0 123 -59.5 188.5t-171.5 65.5q-155 0 -358 -61v-590h-263v1434h263v-496q0 -74 -17 -109l4 -4q195 72 418 72q216 0 331.5 -122.5t115.5 -352.5v-240z" />
    <glyph glyph-name="uni0527" unicode="&#x527;" horiz-adv-x="1185" 
d="M1038 137h133v-424h-227v287h-158v537q0 213 -182 213q-109 0 -171 -74.5t-62 -220.5v-455h-250v1464h250v-475q0 -131 -21 -248l8 -2q105 238 342 238q160 0 249 -96t89 -273v-471z" />
    <glyph glyph-name="uni0E3F" unicode="&#xe3f;" horiz-adv-x="1144" 
d="M539 -178v127q0 40 6 55l-4 4q-16 -8 -52 -8h-344v1382h344q36 0 52 -8l4 4q-6 15 -6 56v127h61v-127q0 -40 -8 -56l4 -4q8 8 33 8q173 0 280 -96.5t107 -259.5q0 -147 -77.5 -232.5t-203.5 -93.5v-8q159 -8 245.5 -92t86.5 -238q0 -167 -119.5 -264.5t-316.5 -97.5
q-24 0 -35 8l-4 -4q8 -24 8 -55v-127h-61zM377 788q18 9 53 9h59q34 0 52 -9l4 5q-6 15 -6 57v268q0 43 6 58l-4 4q-22 -11 -52 -11h-59q-31 0 -53 11l-4 -4q8 -20 8 -58v-268q0 -37 -8 -57zM594 791q82 6 127 57.5t45 140.5q0 173 -170 189l-4 -4q8 -21 8 -54v-276
q0 -29 -10 -49zM377 203q16 8 53 8h59q36 0 52 -8l4 4q-6 15 -6 57v268q0 43 6 58l-4 4q-17 -10 -52 -10h-59q-36 0 -53 10l-4 -4q8 -20 8 -58v-268q0 -37 -8 -57zM596 205q219 3 219 194q0 92 -57 141.5t-162 51.5l-4 -4q8 -28 8 -56v-270q0 -34 -8 -53z" />
    <glyph glyph-name="Wgrave" unicode="&#x1e80;" horiz-adv-x="1994" 
d="M885 1747l200 -219l-2 -6h-172l-301 219l2 6h273zM1016 1454l291 -719q34 -87 46 -127t19 -100h8q6 59 17.5 102t40.5 127l241 697h299l-573 -1452h-45l-316 766q-34 80 -43 167h-8q-9 -86 -41 -167l-317 -766h-45l-574 1452h299l244 -697q47 -141 57 -229h9
q6 60 17.5 100t45.5 127l291 719h37z" />
    <glyph glyph-name="wgrave" unicode="&#x1e81;" horiz-adv-x="1511" 
d="M510 1448l238 -178l100 -133l-80 -4l-256 178l-129 133zM430 -14l-418 960h277l137 -360q42 -112 51 -178h8q7 55 58 162q1 4 2 6t3 5.5t3 6.5l172 375h63l175 -375q36 -77 47.5 -108t17.5 -72h8q3 29 9.5 55.5t14 47.5t27.5 75l136 360h278l-418 -960h-67l-193 407
q-32 67 -43.5 98t-17.5 68h-8q-6 -37 -17.5 -66.5t-44.5 -99.5l-192 -407h-68z" />
    <glyph glyph-name="Wacute" unicode="&#x1e82;" horiz-adv-x="1994" 
d="M1382 1747l2 -6l-301 -219h-172l-2 6l203 219h270zM1016 1454l291 -719q34 -87 46 -127t19 -100h8q6 59 17.5 102t40.5 127l241 697h299l-573 -1452h-45l-316 766q-34 80 -43 167h-8q-9 -86 -41 -167l-317 -766h-45l-574 1452h299l244 -697q47 -141 57 -229h9
q6 60 17.5 100t45.5 127l291 719h37z" />
    <glyph glyph-name="wacute" unicode="&#x1e83;" horiz-adv-x="1511" 
d="M1126 1448l2 -6l-290 -309h-174l-2 6l210 309h254zM430 -14l-418 960h277l137 -360q42 -112 51 -178h8q7 55 58 162q1 4 2 6t3 5.5t3 6.5l172 375h63l175 -375q36 -77 47.5 -108t17.5 -72h8q3 29 9.5 55.5t14 47.5t27.5 75l136 360h278l-418 -960h-67l-193 407
q-32 67 -43.5 98t-17.5 68h-8q-6 -37 -17.5 -66.5t-44.5 -99.5l-192 -407h-68z" />
    <glyph glyph-name="Wdieresis" unicode="&#x1e84;" horiz-adv-x="1994" 
d="M702 1759h209v-237h-209v237zM1083 1759h209v-237h-209v237zM1016 1454l291 -719q34 -87 46 -127t19 -100h8q6 59 17.5 102t40.5 127l241 697h299l-573 -1452h-45l-316 766q-34 80 -43 167h-8q-9 -86 -41 -167l-317 -766h-45l-574 1452h299l244 -697q47 -141 57 -229h9
q6 60 17.5 100t45.5 127l291 719h37z" />
    <glyph glyph-name="wdieresis" unicode="&#x1e85;" horiz-adv-x="1511" 
d="M672 1434v-273h-209v273h209zM1051 1434v-273h-209v273h209zM430 -14l-418 960h277l137 -360q42 -112 51 -178h8q7 55 58 162q1 4 2 6t3 5.5t3 6.5l172 375h63l175 -375q36 -77 47.5 -108t17.5 -72h8q3 29 9.5 55.5t14 47.5t27.5 75l136 360h278l-418 -960h-67l-193 407
q-32 67 -43.5 98t-17.5 68h-8q-6 -37 -17.5 -66.5t-44.5 -99.5l-192 -407h-68z" />
    <glyph glyph-name="Ygrave" unicode="&#x1ef2;" horiz-adv-x="1253" 
d="M514 1747l201 -219l-2 -6h-172l-301 219l2 6h272zM1243 1434l-485 -891v-543h-262v543l-486 891h312l215 -453q9 -19 25.5 -52.5t21.5 -44.5t14 -31.5t12.5 -31.5t7.5 -27t7 -34h4q2 12 4.5 22t6 21t5.5 18.5t7.5 20.5t8 19.5t10.5 24t12 26t16 32.5t18 37l217 453h309z
" />
    <glyph glyph-name="ygrave" unicode="&#x1ef3;" horiz-adv-x="1054" 
d="M287 1448l237 -178l101 -133l-80 -4l-256 178l-129 133zM1044 946l-587 -1358h-256l211 480l-400 878h277l188 -450q44 -102 49 -207h9q3 84 36 164l201 493h272z" />
    <glyph glyph-name="endash" unicode="&#x2013;" horiz-adv-x="1521" 
d="M1430 655v-211h-1336v211h1336z" />
    <glyph glyph-name="emdash" unicode="&#x2014;" horiz-adv-x="2344" 
d="M2251 653v-202h-2157v202h2157z" />
    <glyph glyph-name="quoteleft" unicode="&#x2018;" horiz-adv-x="434" 
d="M295 942h-256l182 537h150z" />
    <glyph glyph-name="quoteright" unicode="&#x2019;" horiz-adv-x="434" 
d="M137 1495h258l-184 -537h-148z" />
    </font>
</defs>
</svg>
