<?xml version="1.0" standalone="no"?>
<!DOCTYPE svg PUBLIC "-//W3C//DTD SVG 1.1//EN" "http://www.w3.org/Graphics/SVG/1.1/DTD/svg11.dtd" >
<svg xmlns="http://www.w3.org/2000/svg" xmlns:xlink="http://www.w3.org/1999/xlink" version="1.1">
<metadata>
Created by FontForge 20170731 at Sat Jul 23 01:52:12 2022
 By Aleksey,,,
Copyright (c) 2015 by Reto Moser. All rights reserved.
</metadata>
<defs>
<font id="GTEestiProText-LightItalic" horiz-adv-x="1228" >
  <font-face 
    font-family="GT Eesti Pro Text Light"
    font-weight="300"
    font-style="italic"
    font-stretch="normal"
    units-per-em="2048"
    panose-1="0 0 4 0 0 0 0 0 0 0"
    ascent="1536"
    descent="-512"
    x-height="946"
    cap-height="1434"
    bbox="-645 -516 2410 1864"
    underline-thickness="102"
    underline-position="-307"
    slope="-11"
    unicode-range="U+0020-FB02"
  />
<missing-glyph horiz-adv-x="1609" 
d="M852 -31q-213 0 -384 96.5t-267.5 267.5t-96.5 384q0 214 96.5 385t267.5 266.5t384 95.5q160 0 299 -56t237.5 -154.5t154.5 -237.5t56 -299q0 -213 -95.5 -384t-266.5 -267.5t-385 -96.5zM852 20q199 0 359 91t250.5 253t90.5 363l-104 133l-143 -61l-140 184l-161 -90
l-152 242l-152 -242l-161 90l-140 -184l-143 61l-104 -133q0 -201 90.5 -363t250.5 -253t359 -91zM641 651q-31 0 -51.5 20.5t-20.5 51.5t20.5 51.5t51.5 20.5t51.5 -20.5t20.5 -51.5t-20.5 -51.5t-51.5 -20.5zM1061 651q-31 0 -51.5 20.5t-20.5 51.5t20.5 51.5t51.5 20.5
t51.5 -20.5t20.5 -51.5t-20.5 -51.5t-51.5 -20.5zM766 522l74 207q3 17 22 10q6 -2 9.5 -8.5t0.5 -13.5l-57 -160h70q7 0 12.5 -5.5t5.5 -12.5q0 -6 -5.5 -11.5t-12.5 -5.5h-119zM449 350q-61 0 -101.5 40t-40.5 102q0 61 40 101t102 40q61 0 101 -39.5t40 -101.5t-40 -102
t-101 -40zM1253 350q-61 0 -101 40t-40 102t40 101.5t101 39.5q62 0 102 -40t40 -101q0 -62 -40.5 -102t-101.5 -40zM852 395q-96 0 -127 -61q-6 -12 -18 -12q-17 0 -17 18q0 35 50 63.5t112 28.5t112 -28.5t50 -63.5q0 -18 -17 -18q-12 0 -18 12q-31 61 -127 61z" />
    <glyph glyph-name="fi" unicode="fi" horiz-adv-x="1099" 
d="M797 1452l-27 -139h-16q-103 0 -163 -56t-83 -174l-16 -86q-15 -50 -21 -61l2 -2q24 12 76 12h147l-26 -139h-148q-55 0 -69 12l-7 -2q5 -32 -6 -86l-141 -731h-149l141 731q6 36 24 86l-2 2q-22 -12 -75 -12h-121l26 139h121q55 0 72 -12l4 2q-5 18 2 59l20 113
q65 344 381 344h54zM1151 1434l-53 -269h-168l53 269h168zM1051 946l-185 -946h-149l184 946h150z" />
    <glyph glyph-name="fl" unicode="fl" horiz-adv-x="1107" 
d="M1155 1464l-285 -1464h-149l285 1464h149zM797 1452l-27 -139h-16q-103 0 -163 -56t-83 -174l-16 -86q-15 -50 -21 -61l2 -2q24 12 76 12h147l-26 -139h-148q-55 0 -69 12l-7 -2q5 -32 -6 -86l-141 -731h-149l141 731q6 36 24 86l-2 2q-22 -12 -75 -12h-121l26 139h121
q55 0 72 -12l4 2q-5 18 2 59l20 113q65 344 381 344h54z" />
    <glyph glyph-name="f_f" unicode="ff" horiz-adv-x="1333" 
d="M797 1452l-27 -139h-16q-103 0 -163 -56t-83 -174l-16 -86q-15 -50 -21 -61l2 -2q24 12 76 12h147l-26 -139h-148q-55 0 -69 12l-7 -2q5 -32 -6 -86l-141 -731h-149l141 731q6 36 24 86l-2 2q-22 -12 -75 -12h-121l26 139h121q55 0 72 -12l4 2q-5 18 2 59l20 113
q65 344 381 344h54zM1464 1452l-26 -139h-17q-103 0 -162.5 -56t-82.5 -174l-17 -86q-16 -54 -20 -61l2 -2q24 12 76 12h147l-27 -139h-147q-56 0 -70 12l-6 -2q5 -32 -6 -86l-141 -731h-150l141 731q5 30 25 86l-2 2q-22 -12 -76 -12h-121l27 139h121q55 0 72 -12l4 2
q-5 18 2 59l20 113q65 344 381 344h53z" />
    <glyph glyph-name="f_f_i" unicode="ffi" horiz-adv-x="1765" 
d="M797 1452l-27 -139h-16q-103 0 -163 -56t-83 -174l-16 -86q-15 -50 -21 -61l2 -2q24 12 76 12h147l-26 -139h-148q-55 0 -69 12l-7 -2q5 -32 -6 -86l-141 -731h-149l141 731q6 36 24 86l-2 2q-22 -12 -75 -12h-121l26 139h121q55 0 72 -12l4 2q-5 18 2 59l20 113
q65 344 381 344h54zM1464 1452l-26 -139h-17q-103 0 -162.5 -56t-82.5 -174l-17 -86q-16 -54 -20 -61l2 -2q24 12 76 12h147l-27 -139h-147q-56 0 -70 12l-6 -2q5 -32 -6 -86l-141 -731h-150l141 731q5 30 25 86l-2 2q-22 -12 -76 -12h-121l27 139h121q55 0 72 -12l4 2
q-5 18 2 59l20 113q65 344 381 344h53zM1817 1434l-54 -269h-168l54 269h168zM1716 946l-184 -946h-150l185 946h149z" />
    <glyph glyph-name="f_f_l" unicode="ffl" horiz-adv-x="1773" 
d="M1821 1464l-285 -1464h-150l285 1464h150zM797 1452l-27 -139h-16q-103 0 -163 -56t-83 -174l-16 -86q-15 -50 -21 -61l2 -2q24 12 76 12h147l-26 -139h-148q-55 0 -69 12l-7 -2q5 -32 -6 -86l-141 -731h-149l141 731q6 36 24 86l-2 2q-22 -12 -75 -12h-121l26 139h121
q55 0 72 -12l4 2q-5 18 2 59l20 113q65 344 381 344h54zM1464 1452l-26 -139h-17q-103 0 -162.5 -56t-82.5 -174l-17 -86q-16 -54 -20 -61l2 -2q24 12 76 12h147l-27 -139h-147q-56 0 -70 12l-6 -2q5 -32 -6 -86l-141 -731h-150l141 731q5 30 25 86l-2 2q-22 -12 -76 -12
h-121l27 139h121q55 0 72 -12l4 2q-5 18 2 59l20 113q65 344 381 344h53z" />
    <glyph glyph-name=".notdef" horiz-adv-x="1609" 
d="M852 -31q-213 0 -384 96.5t-267.5 267.5t-96.5 384q0 214 96.5 385t267.5 266.5t384 95.5q160 0 299 -56t237.5 -154.5t154.5 -237.5t56 -299q0 -213 -95.5 -384t-266.5 -267.5t-385 -96.5zM852 20q199 0 359 91t250.5 253t90.5 363l-104 133l-143 -61l-140 184l-161 -90
l-152 242l-152 -242l-161 90l-140 -184l-143 61l-104 -133q0 -201 90.5 -363t250.5 -253t359 -91zM641 651q-31 0 -51.5 20.5t-20.5 51.5t20.5 51.5t51.5 20.5t51.5 -20.5t20.5 -51.5t-20.5 -51.5t-51.5 -20.5zM1061 651q-31 0 -51.5 20.5t-20.5 51.5t20.5 51.5t51.5 20.5
t51.5 -20.5t20.5 -51.5t-20.5 -51.5t-51.5 -20.5zM766 522l74 207q3 17 22 10q6 -2 9.5 -8.5t0.5 -13.5l-57 -160h70q7 0 12.5 -5.5t5.5 -12.5q0 -6 -5.5 -11.5t-12.5 -5.5h-119zM449 350q-61 0 -101.5 40t-40.5 102q0 61 40 101t102 40q61 0 101 -39.5t40 -101.5t-40 -102
t-101 -40zM1253 350q-61 0 -101 40t-40 102t40 101.5t101 39.5q62 0 102 -40t40 -101q0 -62 -40.5 -102t-101.5 -40zM852 395q-96 0 -127 -61q-6 -12 -18 -12q-17 0 -17 18q0 35 50 63.5t112 28.5t112 -28.5t50 -63.5q0 -18 -17 -18q-12 0 -18 12q-31 61 -127 61z" />
    <glyph glyph-name=".null" horiz-adv-x="0" 
 />
    <glyph glyph-name="nonmarkingreturn" horiz-adv-x="682" 
 />
    <glyph glyph-name="NULL" horiz-adv-x="16" 
 />
    <glyph glyph-name="NULL" horiz-adv-x="16" 
 />
    <glyph glyph-name="space" unicode=" " horiz-adv-x="630" 
 />
    <glyph glyph-name="exclam" unicode="!" horiz-adv-x="641" 
d="M596 1434l-238 -1012h-102l158 1012h182zM129 0l41 215h205l-43 -215h-203z" />
    <glyph glyph-name="quotedbl" unicode="&#x22;" horiz-adv-x="573" 
d="M444 1464l-139 -518h-63l61 518h141zM655 1464l-139 -518h-63l61 518h141z" />
    <glyph glyph-name="numbersign" unicode="#" 
d="M1247 940h-256l-147 -395h254l-17 -80h-268l-174 -465h-92l174 465h-309l-174 -465h-93l177 465h-252l16 80h266l148 395h-264l16 80h278l156 414h92l-155 -414h307l155 414h93l-156 -414h242zM752 545l147 395h-307l-150 -395h310z" />
    <glyph glyph-name="dollar" unicode="$" horiz-adv-x="1107" 
d="M412 -168l16 92q1 4 3.5 15t5.5 20.5t7 17.5l-4 5q-17 -4 -47 0q-105 21 -202 71t-168 113l94 127q138 -121 305 -164q42 -10 47 -14l4 2q-5 23 4 51l96 500l-102 82q-188 141 -188 327q0 144 104.5 240t288.5 96q28 0 43 -6l2 2q-3 13 4 39l20 102h62l-21 -102
q-9 -35 -14 -43l2 -2q15 2 37 -2q79 -18 140 -43t141 -74l-88 -135q-112 72 -218 102q-22 4 -36 15l-5 -2q3 -21 -4 -52l-79 -407l118 -92q103 -79 153 -167t50 -196q0 -184 -119 -283.5t-321 -99.5q-31 0 -45 8l-4 -2q2 -20 -5 -49l-16 -92h-61zM610 834l2 2q0 26 6 69
l62 309q3 28 14 56l-2 2q-8 -4 -20 -4q-111 0 -171.5 -55.5t-60.5 -135.5q0 -62 38.5 -112t105.5 -101q17 -12 26 -30zM526 111q5 3 12.5 4t18 1t16.5 1q120 5 186 64t66 163q0 72 -39 130t-120 120q-29 21 -41 43l-2 -2q0 -10 -9 -66l-75 -401q-2 -6 -7 -25t-10 -28z" />
    <glyph glyph-name="percent" unicode="%" horiz-adv-x="1591" 
d="M528 797q-130 0 -215.5 74.5t-85.5 209.5q0 95 43.5 177t127.5 134t190 52q128 0 213.5 -74.5t85.5 -208.5q0 -96 -43.5 -178.5t-127 -134t-188.5 -51.5zM270 0l1004 1382h98l-1003 -1382h-99zM532 893q80 0 140.5 42.5t88 101.5t27.5 122q0 90 -57.5 139.5t-148.5 49.5
q-80 0 -140.5 -42.5t-88 -101.5t-27.5 -121q0 -89 58 -139.5t148 -50.5zM1098 -10q-128 0 -213.5 74t-85.5 208q0 148 100.5 256.5t259.5 108.5q128 0 213.5 -75t85.5 -210q0 -95 -43.5 -177t-127 -133.5t-189.5 -51.5zM1104 86q61 0 111.5 24.5t81 64t47 85t16.5 90.5
q0 90 -58 140.5t-149 50.5q-61 0 -111.5 -25t-81 -64.5t-47 -85.5t-16.5 -92q0 -89 58 -138.5t149 -49.5z" />
    <glyph glyph-name="ampersand" unicode="&#x26;" horiz-adv-x="1372" 
d="M1071 1382l55 -133l-4 -4h-448q-56 0 -99 12l-2 -2l453 -876h2q5 18 35 55q67 88 100 136t72 118l133 -67q-113 -192 -219 -320q-39 -39 -55 -47v-2l129 -248v-4h-176l-78 156h-2q-26 -67 -160.5 -127t-259.5 -60q-205 0 -331 117.5t-126 308.5q0 175 108.5 299.5
t317.5 188.5q51 14 66 14l2 2l-250 477l2 6h735zM639 786h-2q-14 -20 -53 -32q-166 -53 -248 -138t-82 -208q0 -132 83.5 -210.5t221.5 -78.5q73 0 141 25.5t152 84.5q40 27 59 27v2z" />
    <glyph glyph-name="quotesingle" unicode="'" horiz-adv-x="374" 
d="M455 1464l-138 -518h-75l61 518h152z" />
    <glyph glyph-name="parenleft" unicode="(" horiz-adv-x="679" 
d="M717 1567l108 -94q-127 -129 -220.5 -253t-167 -264.5t-111 -297t-37.5 -326.5q0 -197 47 -381t127 -328l-121 -63q-199 362 -199 768q0 123 19.5 242.5t50.5 218t79 197t95 174t109 155t111 134.5t110 118z" />
    <glyph glyph-name="parenright" unicode=")" horiz-adv-x="679" 
d="M-2 -440l-109 94q127 130 220.5 253.5t167.5 264.5t111.5 297t37.5 326q0 198 -47.5 381t-128.5 327l123 64q198 -360 198 -768q0 -171 -37.5 -333.5t-91.5 -285t-137.5 -246.5t-151 -203.5t-155.5 -170.5z" />
    <glyph glyph-name="asterisk" unicode="*" horiz-adv-x="847" 
d="M401 791l-98 73l193 228l-291 71l37 117l276 -113l-22 297h122l-20 -297l276 113l37 -117l-288 -71l192 -228l-98 -71l-158 254z" />
    <glyph glyph-name="plus" unicode="+" 
d="M682 1108v-459h459v-78h-459v-460h-82v460h-459v78h459v459h82z" />
    <glyph glyph-name="comma" unicode="," horiz-adv-x="481" 
d="M-53 -342l184 539h184l-282 -539h-86z" />
    <glyph glyph-name="hyphen" unicode="-" horiz-adv-x="774" 
d="M702 627l-28 -146h-572l29 146h571z" />
    <glyph glyph-name="period" unicode="." horiz-adv-x="438" 
d="M25 0l43 215h202l-41 -215h-204z" />
    <glyph glyph-name="slash" unicode="/" horiz-adv-x="1169" 
d="M35 -178l-88 59l1270 1669l88 -61z" />
    <glyph glyph-name="zero" unicode="0" horiz-adv-x="1191" 
d="M553 -31q-204 0 -314 136.5t-110 388.5q0 261 75 470.5t211.5 329t309.5 119.5q204 0 314 -136t110 -388q0 -260 -75 -469.5t-211.5 -330t-309.5 -120.5zM555 115q127 0 227.5 103t155.5 280.5t55 394.5q0 179 -70.5 277t-199.5 98q-126 0 -226.5 -103t-156 -281
t-55.5 -395q0 -177 71 -275.5t199 -98.5z" />
    <glyph glyph-name="one" unicode="1" horiz-adv-x="692" 
d="M662 1382l-271 -1382h-149l178 915q13 70 22 101.5t29 77.5l-4 4q-27 -30 -90 -62l-203 -102l31 156l295 178l53 114h109z" />
    <glyph glyph-name="two" unicode="2" horiz-adv-x="1015" 
d="M666 1413q177 0 280 -82.5t103 -234.5q0 -110 -60 -209.5t-209 -245.5l-374 -360q-123 -117 -181 -150l2 -6q79 18 207 18h438l2 -4l-106 -139h-842l-2 8l740 717q114 111 168.5 193t54.5 165q0 90 -63 137.5t-162 47.5q-156 0 -363 -115l-63 129q234 131 430 131z" />
    <glyph glyph-name="three" unicode="3" horiz-adv-x="1028" 
d="M625 1413q175 0 268.5 -77.5t93.5 -223.5q0 -122 -75 -206.5t-210 -121.5q-65 -14 -94 -16l-2 -8q38 0 86 -10q109 -26 174.5 -111.5t65.5 -220.5q0 -204 -142 -326.5t-399 -122.5q-234 0 -424 111l74 133q90 -51 171 -74.5t177 -23.5q184 0 284.5 78.5t100.5 228.5
q0 140 -99 204t-306 64l24 137q193 0 312.5 69.5t119.5 195.5q0 88 -59 133t-158 45q-157 0 -334 -94l-61 131q214 106 412 106z" />
    <glyph glyph-name="four" unicode="4" horiz-adv-x="1130" 
d="M1057 1382l-178 -913q-5 -25 -13 -49l2 -4q10 4 37 4h176l-75 -144h-127q-17 0 -37 5l-4 -2q1 -4 -4 -46l-46 -233h-143l45 231q4 32 10 48l-2 2q-30 -5 -41 -5h-659l25 127l892 979h142zM870 1167q-42 -72 -104 -139l-459 -491q-84 -96 -119 -123l2 -4q39 10 154 10h332
q35 0 49 -4l2 2q0 15 8 55l105 539q19 102 37 153z" />
    <glyph glyph-name="five" unicode="5" horiz-adv-x="968" 
d="M1106 1382l-86 -147h-393q-44 0 -54 2l-2 -2q-14 -51 -34 -94l-95 -189q-32 -61 -57 -84l2 -4q61 21 119 21q181 0 292 -107t111 -305q0 -225 -142 -364.5t-402 -139.5q-240 0 -420 121l82 135q162 -110 348 -110q95 0 169 29t118.5 78.5t67 112t22.5 134.5
q0 145 -85.5 214t-230.5 69q-112 0 -252 -35l-6 6l324 659h604z" />
    <glyph glyph-name="six" unicode="6" horiz-adv-x="1116" 
d="M522 -31q-208 0 -335.5 113.5t-127.5 312.5q0 144 76.5 284.5t272.5 340.5l383 389h202l-389 -379q-149 -149 -244 -266l5 -4q130 141 297 141q169 0 280 -116t111 -306q0 -224 -151 -367t-380 -143zM520 115q163 0 269 100t106 260q0 138 -81.5 209.5t-209.5 73.5
q-164 3 -278.5 -101.5t-114.5 -261.5q0 -127 83.5 -203.5t225.5 -76.5z" />
    <glyph glyph-name="seven" unicode="7" horiz-adv-x="888" 
d="M1055 1382l2 -4l-873 -1378h-166l709 1100q14 23 30.5 48.5t24.5 38t16.5 26t14.5 21t12 13.5l-4 2q-31 -10 -141 -10h-508l86 143h797z" />
    <glyph glyph-name="eight" unicode="8" horiz-adv-x="1126" 
d="M510 -31q-206 0 -325 98.5t-119 268.5q0 160 105.5 269.5t283.5 137.5v5q-215 60 -215 274q0 173 131 282t340 109q189 0 298 -89t109 -241q0 -136 -87.5 -227.5t-244.5 -120.5v-4q117 -22 178.5 -100.5t61.5 -206.5q0 -202 -141 -328.5t-375 -126.5zM639 807
q141 0 230 72.5t89 187.5q0 97 -65.5 151t-183.5 54q-139 0 -226.5 -72.5t-87.5 -189.5q0 -97 63.5 -150t180.5 -53zM520 111q164 0 257 85.5t93 229.5q0 120 -69 181t-201 61q-164 0 -268.5 -89.5t-104.5 -230.5q0 -114 76 -175.5t217 -61.5z" />
    <glyph glyph-name="nine" unicode="9" horiz-adv-x="1077" 
d="M201 0l403 395q175 175 232 238l-7 4q-147 -150 -317 -150q-164 0 -271.5 119t-107.5 297q0 141 65.5 257t185.5 184.5t271 68.5q204 0 332.5 -116t128.5 -324q0 -144 -69 -271t-250 -305l-410 -397h-186zM580 629q161 0 273 102t112 256q0 130 -85 205.5t-227 75.5
q-162 0 -262 -103t-100 -258q0 -128 77.5 -203t211.5 -75z" />
    <glyph glyph-name="colon" unicode=":" horiz-adv-x="442" 
d="M170 731l43 215h203l-41 -215h-205zM27 0l43 215h202l-41 -215h-204z" />
    <glyph glyph-name="semicolon" unicode=";" horiz-adv-x="481" 
d="M201 731l43 215h202l-40 -215h-205zM-53 -342l184 539h184l-282 -539h-86z" />
    <glyph glyph-name="less" unicode="&#x3c;" 
d="M1055 1053v-92l-801 -349l801 -348v-90l-903 397v82z" />
    <glyph glyph-name="equal" unicode="=" 
d="M1159 834v-78h-1036v78h1036zM1159 469v-78h-1036v78h1036z" />
    <glyph glyph-name="greater" unicode="&#x3e;" 
d="M229 1053l901 -400v-82l-901 -397v90l801 348l-801 349v92z" />
    <glyph glyph-name="question" unicode="?" horiz-adv-x="796" 
d="M582 1464q138 0 212 -59.5t74 -173.5q0 -83 -41 -148.5t-139 -140.5l-133 -100q-63 -50 -89 -87.5t-26 -80.5q0 -41 25.5 -77t91.5 -89l-102 -115q-87 66 -127.5 132t-40.5 143q0 74 36.5 135.5t118.5 124.5l129 98q78 59 107 98t29 86q0 53 -37.5 82t-104.5 29
q-129 0 -303 -100l-61 135q115 57 203.5 82.5t177.5 25.5zM180 0l41 215h205l-43 -215h-203z" />
    <glyph glyph-name="at" unicode="@" horiz-adv-x="1998" 
d="M940 -307q-242 0 -427 98t-286.5 277.5t-101.5 414.5q0 269 122 481.5t340.5 330.5t495.5 118q236 0 418 -88t282.5 -248t100.5 -368q0 -162 -57 -298t-156 -214t-217 -78q-95 0 -150 46t-57 124h-6q-106 -185 -317 -185q-146 0 -237 81t-91 212q0 145 100 235.5
t260 90.5q114 0 195 -47t119 -135l6 2q1 11 2 19.5t2.5 21t3.5 24.5q10 82 10 115q0 78 -48 114.5t-152 36.5q-110 0 -295 -43l-31 119q187 47 338 47q160 0 236.5 -62.5t76.5 -191.5q0 -39 -16 -133l-43 -225q-4 -18 -4 -45q0 -104 106 -104q120 0 206.5 139t86.5 334
q0 262 -185.5 423.5t-486.5 161.5q-238 0 -427 -103.5t-295.5 -288t-106.5 -415.5q0 -309 189 -492t509 -183q226 0 420 90l33 -115q-230 -94 -465 -94zM948 219q112 0 194.5 63.5t82.5 149.5q0 75 -70 125.5t-176 50.5q-108 0 -174 -58t-66 -153q0 -82 57 -130t152 -48z
" />
    <glyph glyph-name="A" unicode="A" horiz-adv-x="1390" 
d="M-68 0l947 1464h16l379 -1464h-164l-106 424h-613l-266 -424h-193zM463 555q50 4 115 4h286q67 0 117 -4v2q-23 44 -39 119l-76 340q-23 119 -18 170h-8q-19 -64 -84 -170l-207 -340q-44 -70 -86 -119v-2z" />
    <glyph glyph-name="B" unicode="B" horiz-adv-x="1284" 
d="M70 0l278 1434h486q169 0 268.5 -86t99.5 -232q0 -119 -63 -207t-181 -129q-75 -23 -131 -26l-2 -9q62 0 127 -16q100 -26 154.5 -104.5t54.5 -196.5q0 -196 -145 -312t-391 -116h-555zM385 813q18 6 53 6h264q154 0 242 69.5t88 190.5q0 101 -66.5 153t-195.5 52h-242
q-33 0 -51 6l-4 -2q2 -8 -4 -51l-72 -371q-4 -29 -16 -51zM254 143q21 7 53 7h320q175 0 270.5 73t95.5 207q0 120 -79.5 182t-233.5 62h-270q-35 0 -50 6l-6 -2q3 -17 -4 -51l-82 -430q-9 -40 -16 -52z" />
    <glyph glyph-name="C" unicode="C" horiz-adv-x="1431" 
d="M793 -31q-305 0 -485.5 179t-180.5 481q0 239 109.5 430t305 298t441.5 107q285 0 487 -164l-98 -133q-192 138 -407 138q-188 0 -340.5 -87t-239 -240t-86.5 -341q0 -238 136 -373t374 -135q103 0 198.5 30.5t202.5 98.5l86 -133q-238 -156 -503 -156z" />
    <glyph glyph-name="D" unicode="D" horiz-adv-x="1431" 
d="M70 0l278 1434h430q286 0 454.5 -168.5t168.5 -452.5q0 -242 -110.5 -426.5t-313 -285.5t-467.5 -101h-440zM254 143q21 7 53 7h238q198 0 354.5 84t244 235t87.5 342q0 221 -125 347t-342 126h-236q-33 0 -51 6l-4 -2q2 -13 -4 -51l-201 -1040q-9 -38 -16 -52z" />
    <glyph glyph-name="E" unicode="E" horiz-adv-x="1052" 
d="M1149 1434l-29 -150h-592q-33 0 -51 6l-4 -2q4 -22 -4 -51l-63 -330q-6 -31 -17 -49l4 -4q14 6 53 6h527l-29 -147h-526q-39 0 -51 6l-5 -4q3 -13 -4 -51l-90 -467q-11 -42 -16 -52l2 -2q24 7 53 7h600l-28 -150h-809l278 1434h801z" />
    <glyph glyph-name="F" unicode="F" horiz-adv-x="1030" 
d="M1157 1434l-29 -150h-600q-33 0 -51 6l-4 -2q4 -22 -4 -51l-68 -360q-12 -45 -16 -52l2 -4q19 8 53 8h547l-29 -149h-546q-40 0 -52 6l-4 -4q2 -12 -4 -49l-123 -633h-159l278 1434h809z" />
    <glyph glyph-name="G" unicode="G" horiz-adv-x="1650" 
d="M829 -29q-322 0 -510 181t-188 489q0 237 108 424.5t301 292t437 104.5q328 0 567 -205l-121 -124q-198 170 -462 170q-143 0 -266 -49.5t-209.5 -136t-135.5 -208.5t-49 -264q0 -242 141 -378t389 -136q241 0 404 136t205 366l-4 2q-54 -21 -144 -21h-403l29 150h718
l-14 -76q-60 -340 -267 -528.5t-526 -188.5z" />
    <glyph glyph-name="H" unicode="H" horiz-adv-x="1441" 
d="M1466 1434l-278 -1434h-162l125 641q7 33 16 49l-2 4q-16 -6 -55 -6h-696q-39 0 -49 6l-5 -4q3 -14 -4 -49l-125 -641h-161l278 1434h162l-107 -549q-8 -39 -14 -49l2 -5q16 7 53 7h697q35 0 51 -7l4 5q-4 20 2 49l107 549h161z" />
    <glyph glyph-name="I" unicode="I" horiz-adv-x="485" 
d="M510 1434l-279 -1434h-161l278 1434h162z" />
    <glyph glyph-name="J" unicode="J" horiz-adv-x="587" 
d="M610 1434l-221 -1141q-30 -164 -111 -233.5t-235 -69.5q-32 0 -84 6l29 149q23 -2 71 -2q73 0 115 39t62 131l217 1121h157z" />
    <glyph glyph-name="K" unicode="K" horiz-adv-x="1224" 
d="M1331 1434l-612 -541q-80 -70 -182 -145l-2 -7q19 -14 38 -35t48.5 -60.5t40.5 -53.5l446 -592h-201l-542 741l-7 -2q-3 -94 -32 -241l-97 -498h-159l278 1434h160l-80 -410q-33 -168 -61 -242l6 -2l727 654h231z" />
    <glyph glyph-name="L" unicode="L" horiz-adv-x="1007" 
d="M508 1434l-240 -1235q-5 -31 -16 -52l4 -2q21 7 51 7h611l-29 -152h-819l278 1434h160z" />
    <glyph glyph-name="M" unicode="M" horiz-adv-x="1781" 
d="M793 -20l-179 866q-5 22 -8.5 42t-5.5 35t-4 32.5t-2.5 27t-1 26t-0.5 22v23v21.5h-6q-27 -121 -80 -231l-395 -844h-179l691 1458h20l195 -985q13 -68 10 -180h8q25 86 78 180l573 985h21l137 -1458h-154l-75 844q-13 124 6 231h-6q-2 -5 -17 -41.5t-22.5 -53t-27 -54.5
t-44.5 -80l-514 -866h-18z" />
    <glyph glyph-name="N" unicode="N" horiz-adv-x="1478" 
d="M369 1454l682 -989q65 -92 84 -160l6 2q-3 88 30 258l170 869h160l-282 -1454h-19l-680 989q-63 88 -82 161l-6 -2q0 -90 -33 -258l-170 -870h-159l282 1454h17z" />
    <glyph glyph-name="O" unicode="O" horiz-adv-x="1710" 
d="M840 -31q-321 0 -515 186t-194 494q0 173 63.5 324.5t173.5 259t265 169.5t332 62q321 0 514.5 -186t193.5 -494q0 -231 -107.5 -417.5t-298.5 -292t-427 -105.5zM846 127q288 0 472.5 188t184.5 480q0 229 -149.5 370.5t-392.5 141.5q-190 0 -341 -85.5t-235 -238
t-84 -344.5q0 -229 151 -370.5t394 -141.5z" />
    <glyph glyph-name="P" unicode="P" horiz-adv-x="1101" 
d="M764 1434q187 0 293 -96.5t106 -266.5q0 -194 -133 -310t-356 -116h-268q-34 0 -52 6l-4 -2q2 -5 -4 -51l-117 -598h-159l278 1434h416zM477 1290l-4 -2q1 -6 -4 -51l-76 -393q-2 -24 -14 -53l2 -3q21 7 53 7h242q149 0 234 72t85 198q0 103 -62.5 161t-176.5 58h-228
q-33 0 -51 6z" />
    <glyph glyph-name="Q" unicode="Q" horiz-adv-x="1691" 
d="M821 -8q-310 0 -499 184.5t-189 485.5q0 170 62 319t170.5 255t261 167t327.5 61q316 0 507.5 -179.5t191.5 -475.5q0 -265 -150.5 -444t-445.5 -267v-6q215 41 336 41h159l-26 -141h-705zM836 150q185 0 333 84.5t231 234.5t83 338q0 223 -147.5 361.5t-385.5 138.5
q-186 0 -334 -84t-230.5 -233.5t-82.5 -336.5q0 -225 147.5 -364t385.5 -139z" />
    <glyph glyph-name="R" unicode="R" horiz-adv-x="1193" 
d="M758 1434q194 0 301.5 -93t107.5 -256q0 -183 -124.5 -294t-329.5 -111q-35 0 -76 8l-2 -2q62 -41 106 -113l338 -573h-188l-395 672h-88q-38 0 -50 6l-4 -4q3 -20 -4 -51l-121 -623h-159l278 1434h410zM477 1290l-4 -2q1 -6 -4 -51l-70 -367q-10 -41 -16 -51l4 -4
q13 8 51 8h267q135 0 212.5 67.5t77.5 184.5q0 100 -61.5 154.5t-175.5 54.5h-230q-33 0 -51 6z" />
    <glyph glyph-name="S" unicode="S" horiz-adv-x="1044" 
d="M502 -31q-145 0 -279.5 53.5t-240.5 153.5l100 133q200 -182 422 -182q127 0 197.5 59.5t70.5 165.5q0 67 -36 127t-118 129l-194 166q-184 156 -184 344q0 158 107 252t288 94q105 0 203 -34t211 -109l-93 -141q-175 127 -325 127q-102 0 -161.5 -51.5t-59.5 -137.5
q0 -110 139 -225l192 -164q106 -88 153.5 -176t47.5 -197q0 -181 -116 -284t-324 -103z" />
    <glyph glyph-name="T" unicode="T" horiz-adv-x="1054" 
d="M1221 1434l-29 -152h-379q-31 0 -49 6l-6 -2q3 -20 -2 -51l-240 -1235h-158l240 1235q6 35 14 51l-2 2q-21 -6 -53 -6h-379l29 152h1014z" />
    <glyph glyph-name="U" unicode="U" horiz-adv-x="1394" 
d="M635 -31q-233 0 -361.5 117.5t-128.5 331.5q0 70 17 157l170 859h166l-172 -883q-11 -62 -11 -111q0 -146 87 -226.5t247 -80.5q181 0 297 107t156 311l172 883h166l-174 -895q-53 -279 -214 -424.5t-417 -145.5z" />
    <glyph glyph-name="V" unicode="V" horiz-adv-x="1271" 
d="M1450 1434l-901 -1459h-19l-335 1459h178l190 -914q26 -126 23 -250h8q41 119 119 250l542 914h195z" />
    <glyph glyph-name="W" unicode="W" horiz-adv-x="1931" 
d="M463 -25l-252 1459h170l125 -846q20 -121 20 -266h9q65 162 124 270l478 866h20l141 -866q21 -136 21 -268h8q63 159 123 266l457 844h186l-819 -1459h-19l-157 940q-16 93 -8 183h-9q-22 -88 -73 -183l-527 -940h-18z" />
    <glyph glyph-name="X" unicode="X" horiz-adv-x="1249" 
d="M1368 1434l-401 -469q-160 -183 -197 -215l-2 -7q33 -50 104 -202l261 -541h-183l-213 461q-54 116 -65 182h-6q-18 -40 -134 -180l-387 -463h-213l476 559q15 17 56.5 64.5t73 82.5t52.5 54l2 6q-26 37 -109 217l-219 451h187l174 -390q29 -64 37.5 -83.5t17 -45.5
t12.5 -51h8q17 38 134 178l327 392h207z" />
    <glyph glyph-name="Y" unicode="Y" horiz-adv-x="1126" 
d="M1294 1434l-637 -873l-108 -561h-158l107 561l-293 873h174l166 -539q24 -79 33 -120.5t10 -94.5h8q40 91 125 215l375 539h198z" />
    <glyph glyph-name="Z" unicode="Z" horiz-adv-x="1210" 
d="M1325 1434v-7l-1092 -1296v-6q29 16 72.5 22.5t134.5 6.5h674l-110 -154h-1063l-2 8l1091 1297l-2 4q-67 -29 -207 -29h-549l109 154h944z" />
    <glyph glyph-name="bracketleft" unicode="[" horiz-adv-x="671" 
d="M856 1530l-25 -123h-231q-46 0 -65 8l-3 -2q4 -33 -2 -63l-315 -1616q-9 -43 -22 -64l2 -2q21 8 71 8h230l-25 -125h-432l385 1979h432z" />
    <glyph glyph-name="backslash" unicode="\" horiz-adv-x="1173" 
d="M881 -190l-615 1716l115 45l618 -1718z" />
    <glyph glyph-name="bracketright" unicode="]" horiz-adv-x="669" 
d="M-160 -449l27 123h229q47 0 68 -8l2 2q-6 24 2 66l313 1614q8 42 23 63l-2 2q-16 -6 -70 -6h-231l26 123h432l-387 -1979h-432z" />
    <glyph glyph-name="asciicircum" unicode="^" 
d="M754 1464l299 -659h-127l-248 553l-248 -553h-127l299 659h152z" />
    <glyph glyph-name="underscore" unicode="_" horiz-adv-x="1107" 
d="M-92 -154l22 123h1051l-23 -123h-1050z" />
    <glyph glyph-name="grave" unicode="`" horiz-adv-x="583" 
d="M479 1448l133 -307l-4 -8h-106l-211 309l2 6h186z" />
    <glyph glyph-name="a" unicode="a" horiz-adv-x="1048" 
d="M389 -29q-155 0 -251.5 88.5t-96.5 231.5q0 157 105.5 252.5t283.5 95.5q133 0 222.5 -58.5t127.5 -160.5l6 2q-6 38 9 127q16 84 16 119q0 172 -221 172q-128 0 -311 -43l-29 137q182 41 354 41q350 0 350 -281q0 -46 -12 -114l-113 -580h-147q14 85 51 158l-8 4
q-117 -191 -336 -191zM434 96q123 0 210 63t87 154q0 85 -78.5 141t-195.5 56q-118 0 -188 -59.5t-70 -159.5q0 -89 63.5 -142t171.5 -53z" />
    <glyph glyph-name="b" unicode="b" horiz-adv-x="1220" 
d="M618 -31q-149 0 -246 69t-134 200l-7 -2q0 -91 -32 -236h-146l285 1464h149l-98 -508q-26 -132 -59 -215l6 -2q55 112 159.5 175t233.5 63q187 0 303.5 -125t116.5 -326q0 -157 -68.5 -284.5t-190.5 -200t-272 -72.5zM594 111q172 0 285.5 117.5t113.5 297.5
q0 143 -82.5 226.5t-226.5 83.5q-172 0 -288.5 -120t-116.5 -300q0 -141 84 -223t231 -82z" />
    <glyph glyph-name="c" unicode="c" horiz-adv-x="1009" 
d="M561 -31q-219 0 -352 129t-133 342q0 237 154.5 387t398.5 150q205 0 372 -123l-86 -121q-136 103 -294 103q-167 0 -277.5 -111.5t-110.5 -280.5q0 -148 92 -240.5t238 -92.5q122 0 258 77l66 -127q-159 -92 -326 -92z" />
    <glyph glyph-name="d" unicode="d" horiz-adv-x="1222" 
d="M494 -31q-189 0 -305.5 125t-116.5 326q0 240 150 398.5t378 158.5q151 0 249 -69.5t132 -200.5l6 2q0 71 31 237l102 518h148l-285 -1464h-145q24 122 53 211l-4 2q-55 -115 -158.5 -179.5t-234.5 -64.5zM537 111q174 0 290.5 119.5t116.5 299.5q0 143 -85 224.5
t-234 81.5q-175 0 -286.5 -116t-111.5 -300q0 -142 83.5 -225.5t226.5 -83.5z" />
    <glyph glyph-name="e" unicode="e" horiz-adv-x="1110" 
d="M526 -31q-214 0 -335 117t-121 326q0 246 158 405.5t401 159.5q195 0 307.5 -103t112.5 -282q0 -58 -19 -143h-706q-74 0 -101 12l-4 -2l2 -17q0 -10 -1 -26t-1 -21q0 -134 81.5 -209t227.5 -75q100 0 184.5 37.5t174.5 123.5l92 -108q-109 -103 -216 -149t-237 -46z
M240 549q27 16 90 16h473q64 0 96 -14l4 2q-2 10 -2 35q0 123 -74 190.5t-209 67.5q-139 0 -244 -81.5t-136 -213.5z" />
    <glyph glyph-name="f" unicode="f" horiz-adv-x="667" 
d="M797 1452l-27 -139h-16q-103 0 -163 -56t-83 -174l-16 -86q-15 -50 -21 -61l2 -2q24 12 76 12h147l-26 -139h-148q-55 0 -69 12l-7 -2q5 -32 -6 -86l-141 -731h-149l141 731q6 36 24 86l-2 2q-22 -12 -75 -12h-121l26 139h121q55 0 72 -12l4 2q-5 18 2 59l20 113
q65 344 381 344h54z" />
    <glyph glyph-name="g" unicode="g" horiz-adv-x="1206" 
d="M455 -440q-277 0 -463 145l96 125q94 -66 182.5 -96.5t190.5 -30.5q162 0 252.5 74t124.5 233q30 138 44 174q4 12 11 27l-6 2q-56 -116 -159.5 -180t-235.5 -64q-187 0 -303.5 125t-116.5 326q0 240 151 398.5t379 158.5q150 0 248 -69t133 -199l6 2q-3 81 31 235h147
l-184 -944q-43 -226 -172 -334t-356 -108zM537 111q173 0 290 119.5t117 297.5q0 144 -84.5 226t-232.5 82q-172 0 -286 -118t-114 -298q0 -141 84.5 -225t225.5 -84z" />
    <glyph glyph-name="h" unicode="h" horiz-adv-x="1126" 
d="M487 1464l-106 -538q-27 -142 -62 -224l9 -4q67 144 162.5 211.5t230.5 67.5q149 0 227 -79.5t78 -231.5q0 -68 -18 -158l-101 -508h-149l100 512q12 53 12 111q0 104 -55.5 160.5t-159.5 56.5q-142 0 -236 -102.5t-132 -299.5l-84 -438h-150l285 1464h149z" />
    <glyph glyph-name="i" unicode="i" horiz-adv-x="432" 
d="M483 1434l-53 -269h-168l53 269h168zM383 946l-184 -946h-150l184 946h150z" />
    <glyph glyph-name="j" unicode="j" horiz-adv-x="432" 
d="M483 1434l-53 -269h-168l53 269h168zM383 946l-207 -1069q-33 -168 -125.5 -242.5t-251.5 -74.5h-28l28 145h19q92 0 142 44.5t71 154.5l202 1042h150z" />
    <glyph glyph-name="k" unicode="k" horiz-adv-x="942" 
d="M487 1464l-141 -725q-27 -139 -57 -209l6 -2l469 418h211l-426 -364q-71 -59 -115 -82v-4q35 -19 82 -78l326 -418h-189l-366 489l-6 -4q2 -58 -25 -206l-53 -279h-150l285 1464h149z" />
    <glyph glyph-name="l" unicode="l" horiz-adv-x="440" 
d="M487 1464l-284 -1464h-150l285 1464h149z" />
    <glyph glyph-name="m" unicode="m" horiz-adv-x="1665" 
d="M49 0l184 946h150q-24 -134 -64 -229l7 -4q60 135 145.5 199.5t202.5 64.5q120 0 187.5 -65t76.5 -187h8q47 123 135 187.5t207 64.5q133 0 206 -77t73 -218q0 -64 -17 -147l-106 -535h-150l105 537q12 66 12 104q0 95 -47.5 145t-138.5 50q-244 0 -312 -351l-94 -485
h-145l104 528q13 63 13 111q0 97 -47 147t-136 50q-123 0 -203.5 -94t-115.5 -277l-90 -465h-150z" />
    <glyph glyph-name="n" unicode="n" horiz-adv-x="1122" 
d="M49 0l184 946h150l-8 -39q-19 -123 -62 -217l9 -2q66 149 162 219t233 70q149 0 227 -79.5t78 -231.5q0 -68 -18 -158l-101 -508h-149l100 512q12 53 12 111q0 104 -55.5 160.5t-159.5 56.5q-142 0 -236 -102.5t-132 -299.5l-84 -438h-150z" />
    <glyph glyph-name="o" unicode="o" horiz-adv-x="1169" 
d="M532 -31q-213 0 -337.5 120.5t-124.5 324.5q0 119 43 223.5t117.5 179t179.5 117.5t225 43q215 0 340 -120.5t125 -324.5q0 -241 -162.5 -402t-405.5 -161zM547 115q170 0 284.5 118t114.5 295q0 140 -86.5 221.5t-236.5 81.5q-171 0 -285.5 -118t-114.5 -295
q0 -140 87 -221.5t237 -81.5z" />
    <glyph glyph-name="p" unicode="p" horiz-adv-x="1218" 
d="M-31 -410l264 1356h150q-28 -136 -55 -203l6 -4q55 112 159 175t232 63q189 0 305.5 -125t116.5 -326q0 -157 -68 -284.5t-188.5 -200t-269.5 -72.5q-150 0 -250 70t-135 199l-9 -2q3 -79 -28 -236l-80 -410h-150zM596 109q171 0 284 118.5t113 298.5q0 143 -83.5 227.5
t-227.5 84.5q-172 0 -290 -121.5t-118 -300.5q0 -141 86.5 -224t235.5 -83z" />
    <glyph glyph-name="q" unicode="q" horiz-adv-x="1200" 
d="M754 -410l84 412q26 132 53 209l-4 2q-55 -115 -158.5 -179.5t-234.5 -64.5q-189 0 -305.5 125t-116.5 326q0 240 151 398.5t379 158.5q148 0 246 -69.5t133 -198.5l8 2q-3 76 29 235h149l-264 -1356h-149zM537 109q172 0 289.5 121t117.5 300q0 143 -85 225.5t-232 82.5
q-172 0 -287 -119t-115 -299q0 -142 84.5 -226.5t227.5 -84.5z" />
    <glyph glyph-name="r" unicode="r" horiz-adv-x="690" 
d="M49 0l184 946h150q-34 -169 -78 -287l10 -2q61 168 152.5 243t232.5 75q36 0 56 -2l-33 -170q-55 6 -80 6q-137 0 -234.5 -111t-134.5 -307l-75 -391h-150z" />
    <glyph glyph-name="s" unicode="s" horiz-adv-x="819" 
d="M70 248q157 -139 315 -139q78 0 122 33t44 91q0 39 -22.5 72t-77.5 72l-123 86q-86 60 -126 122.5t-40 137.5q0 117 79 185.5t214 68.5q169 0 327 -107l-77 -122q-137 90 -242 90q-69 0 -108.5 -32t-39.5 -87q0 -41 23.5 -72t91.5 -78l113 -77q87 -61 124.5 -122
t37.5 -139q0 -126 -83 -194t-237 -68q-234 0 -405 162z" />
    <glyph glyph-name="t" unicode="t" horiz-adv-x="632" 
d="M580 1452l-86 -430q-11 -57 -25 -86l4 -2q22 12 74 12h121l-27 -139h-121q-52 0 -69 12l-5 -2q2 -30 -8 -86l-141 -731h-150l144 731q11 61 24 86l-4 2q-22 -12 -75 -12h-115l26 139h115q55 0 72 -12l4 2q-2 33 8 86l62 321l159 109h13z" />
    <glyph glyph-name="u" unicode="u" horiz-adv-x="1077" 
d="M1036 946l-184 -946h-147q36 172 67 240l-8 4q-69 -143 -157.5 -209t-211.5 -66q-146 0 -226 83.5t-77 232.5q0 56 17 139l102 522h151l-102 -516q-12 -58 -12 -104q-3 -103 49.5 -159t153.5 -56q134 0 225.5 102.5t128.5 294.5l84 438h147z" />
    <glyph glyph-name="v" unicode="v" horiz-adv-x="974" 
d="M373 -14l-262 960h163l119 -500q2 -7 6.5 -27t6 -24.5t5.5 -22.5t4 -21t3.5 -20t3 -20t2.5 -20t1.5 -21t0.5 -22.5t0 -24.5h6q15 41 33 78t32.5 60.5t53.5 84.5l315 500h183l-635 -960h-41z" />
    <glyph glyph-name="w" unicode="w" horiz-adv-x="1466" 
d="M319 -14l-198 960h160l88 -516q16 -93 14 -162h6q29 66 90 166l324 529h33l118 -529q23 -115 25 -166h6q22 69 76 162l291 516h178l-574 -960h-32l-129 557q-20 92 -15 155h-6q-20 -67 -76 -155l-344 -557h-35z" />
    <glyph glyph-name="x" unicode="x" horiz-adv-x="954" 
d="M995 946l-366 -391q-33 -42 -68 -63l-2 -7q17 -11 43 -61l240 -424h-160l-166 303q-34 73 -37 105h-6q-20 -48 -80 -111l-280 -297h-185l414 446q52 52 68 60l2 6q-18 14 -45 63l-207 371h162l137 -248q32 -63 37 -114h4q16 34 31 54.5t49 57.5l231 250h184z" />
    <glyph glyph-name="y" unicode="y" horiz-adv-x="976" 
d="M1051 946l-850 -1358h-170l309 490l-229 868h161l131 -526q35 -145 27 -236l8 2q23 76 86 179l357 581h170z" />
    <glyph glyph-name="z" unicode="z" horiz-adv-x="925" 
d="M-68 0l-4 10l779 819l-5 7q-43 -20 -81.5 -25.5t-122.5 -5.5h-346l114 141h725l2 -8l-782 -821l4 -4q37 18 75 23t126 5h420l-117 -141h-787z" />
    <glyph glyph-name="braceleft" unicode="{" horiz-adv-x="778" 
d="M510 -449q-136 0 -212.5 67t-76.5 200q0 51 12 112l66 338q8 50 8 64q0 76 -53.5 112t-169.5 41l31 158q138 6 207.5 56.5t91.5 158.5l63 320q35 185 136.5 268.5t279.5 83.5h61l-26 -131h-41q-122 0 -184.5 -54t-86.5 -174l-59 -303q-27 -140 -106 -214t-228 -87v-8
q117 -10 172.5 -61t55.5 -146q0 -37 -13 -94l-67 -348q-6 -40 -6 -74q0 -76 43.5 -113.5t140.5 -37.5h47l-27 -134h-59z" />
    <glyph glyph-name="bar" unicode="|" horiz-adv-x="577" 
d="M45 -457l379 1946h125l-379 -1946h-125z" />
    <glyph glyph-name="braceright" unicode="}" horiz-adv-x="778" 
d="M295 1530q137 0 213 -66t76 -200q0 -46 -13 -113l-65 -338q-8 -46 -8 -61q0 -76 53.5 -112.5t169.5 -41.5l-29 -158q-139 -6 -209 -56.5t-92 -158.5l-61 -321q-36 -185 -137.5 -269t-280.5 -84h-59l24 132h41q122 0 184 53.5t86 173.5l60 303q27 140 106 214t228 87l2 8
q-118 10 -173 62t-55 147q0 47 11 92l67 348q6 41 6 74q0 76 -43.5 115t-140.5 39h-45l25 131h59z" />
    <glyph glyph-name="asciitilde" unicode="~" 
d="M414 745q54 0 106 -14.5t93 -34.5t80.5 -40.5t85.5 -35t91 -14.5q67 0 120.5 27.5t115.5 81.5l76 -107q-154 -137 -318 -137q-54 0 -106 14.5t-93 34.5t-80.5 40.5t-85.5 35t-91 14.5q-67 0 -121 -27.5t-115 -80.5l-76 106q159 137 318 137z" />
    <glyph glyph-name="exclamdown" unicode="&#xa1;" horiz-adv-x="641" 
d="M522 997l-41 -215h-205l43 215h203zM55 -436l236 1011h104l-159 -1011h-181z" />
    <glyph glyph-name="cent" unicode="&#xa2;" horiz-adv-x="1011" 
d="M426 -135l10 57q4 37 21 62l-2 4q-28 -4 -74 8q-141 44 -223 163t-82 283q0 141 57.5 256t171 189t266.5 88q41 4 72 -4l4 2q-3 24 4 55l11 55h61l-10 -57q-8 -38 -17 -55l2 -2q26 6 50 -2q78 -14 135.5 -40.5t120.5 -72.5l-89 -123q-94 68 -188 90q-35 7 -55 17l-2 -2
q2 -17 -6 -56l-117 -598q-8 -47 -19 -69l2 -2q32 4 56 4q118 6 235 75l66 -129q-157 -92 -326 -92q-39 0 -57 8l-2 -2q2 -21 -6 -57l-9 -53h-61zM475 117l2 2q3 35 10 71l117 592q8 41 14 54l-2 2q-10 -2 -35.5 -6.5t-33.5 -6.5q-143 -24 -228.5 -131.5t-85.5 -249.5
q0 -103 47.5 -181t127.5 -116q55 -22 67 -30z" />
    <glyph glyph-name="sterling" unicode="&#xa3;" horiz-adv-x="1155" 
d="M625 -29q-72 0 -174.5 38t-149.5 38q-61 0 -182 -57l-53 123q62 32 114.5 70t100 87.5t75 112.5t27.5 131q0 36 -9 77t-17 64t-27 72h-189l13 61h108q29 0 53 -8l2 2q-14 16 -22 41q-27 94 -27 166q0 85 28.5 160t83.5 134.5t145 94.5t204 35q219 0 395 -145l-94 -125
q-140 125 -305 125q-143 0 -221 -81.5t-78 -197.5q0 -73 47 -201h416l-12 -61h-334q-36 0 -56 10l-2 -2q14 -19 23 -47q33 -97 33 -168q0 -37 -8 -71t-19 -60t-31.5 -53t-36.5 -44t-43.5 -39.5t-43 -33.5t-45 -31.5t-40.5 -27.5v-8q57 24 111 24q55 0 127 -32.5t125 -32.5
q128 0 266 135l74 -115q-179 -160 -352 -160z" />
    <glyph glyph-name="currency" unicode="&#xa4;" 
d="M1128 662q0 -190 -118 -320l116 -117l-43 -39l-114 117q-134 -115 -322 -115q-187 0 -321 115l-117 -117l-37 41l115 115q-121 134 -121 324q0 188 121 319l-115 115l41 41l115 -115q132 113 319 113q188 0 322 -115l116 117l41 -41l-116 -115q118 -134 118 -323z
M647 322q153 0 247.5 96t94.5 244q0 150 -94.5 247t-245.5 97q-152 0 -247 -96t-95 -244q0 -150 95 -247t245 -97z" />
    <glyph glyph-name="yen" unicode="&#xa5;" horiz-adv-x="1167" 
d="M420 0l92 481h-375l13 62h305q34 0 59 -8l2 4q-7 14 -14.5 33t-7.5 20l-19 65h-303l12 62h215q35 0 62 -8l2 4q-9 18 -25 65l-180 602h164l156 -600q22 -84 22 -157h8q19 57 84 157l389 600h181l-420 -614q-24 -35 -45 -51l2 -4q25 6 63 6h217l-12 -62h-301l-53 -75
q-16 -24 -37 -41l2 -4q27 6 61 6h305l-12 -62h-375l-94 -481h-143z" />
    <glyph glyph-name="brokenbar" unicode="&#xa6;" horiz-adv-x="577" 
d="M266 686l158 803h125l-158 -803h-125zM332 373l-162 -830h-125l162 830h125z" />
    <glyph glyph-name="section" unicode="&#xa7;" horiz-adv-x="1071" 
d="M438 1141q0 -43 19.5 -78t52 -60t74.5 -46.5t89 -41.5t93.5 -41.5t88.5 -50.5t74.5 -64t52 -87t19.5 -115q0 -127 -72 -205.5t-198 -128.5q92 -85 92 -219q0 -145 -101 -237.5t-298 -92.5q-221 0 -404 113l89 129q156 -100 317 -100q118 0 182 50.5t64 131.5
q0 48 -24.5 86.5t-64 63t-90.5 49.5t-104 46t-104 52t-90.5 67t-64 92.5t-24.5 127.5q0 66 21 120.5t61 93.5t85.5 67t105.5 52q-94 87 -94 220q0 145 101.5 237t299.5 92q223 0 404 -112l-89 -129q-156 100 -317 100q-118 0 -182 -50.5t-64 -131.5zM625 295q225 93 225 254
q0 42 -16.5 77t-41 58t-65 46.5t-75.5 38t-85 36.5t-82 39q-225 -90 -225 -254q0 -42 16.5 -77t41 -58t65 -46.5t75.5 -38t85 -36.5t82 -39z" />
    <glyph glyph-name="dieresis" unicode="&#xa8;" horiz-adv-x="698" 
d="M438 1434l-47 -248h-151l49 248h149zM782 1434l-47 -248h-151l49 248h149z" />
    <glyph glyph-name="copyright" unicode="&#xa9;" horiz-adv-x="1740" 
d="M918 1464q208 0 380 -96.5t271.5 -268.5t99.5 -384q0 -158 -58.5 -297t-158.5 -237t-239 -155t-295 -57q-207 0 -379 96.5t-272.5 269t-100.5 384.5q0 158 59 296.5t159.5 237t239.5 155t294 56.5zM918 1374q-182 0 -332 -84t-237 -234.5t-87 -336.5q0 -189 87.5 -340.5
t237.5 -235.5t331 -84q182 0 331.5 84t236.5 235t87 337q0 189 -87.5 340.5t-237 235t-330.5 83.5zM924 1190q171 0 311 -100l-59 -101q-122 82 -256 82q-154 0 -249.5 -95.5t-95.5 -246.5q0 -158 95.5 -254t249.5 -96q134 0 256 82l59 -103q-143 -98 -313 -98
q-206 0 -339.5 133t-133.5 336q0 199 133.5 330t341.5 131z" />
    <glyph glyph-name="ordfeminine" unicode="&#xaa;" horiz-adv-x="804" 
d="M424 692q-111 0 -176.5 58.5t-65.5 154.5q0 105 74.5 167.5t194.5 62.5q85 0 148 -34t91 -97l8 2q0 18 11 69q4 46 4 62q0 55 -34 81.5t-112 26.5q-82 0 -211 -33l-20 111q151 37 262 37q120 0 182 -46.5t62 -154.5q0 -45 -15 -121l-63 -325h-135q10 62 39 127l-4 2
q-86 -150 -240 -150zM473 801q72 0 123 38t51 93q0 47 -43 77.5t-112 30.5q-71 0 -114.5 -35.5t-43.5 -93.5q0 -50 37.5 -80t101.5 -30z" />
    <glyph glyph-name="guillemotleft" unicode="&#xab;" horiz-adv-x="839" 
d="M584 856l-2 -8l-234 -250q-75 -83 -104 -110.5t-51 -38.5v-9q13 -9 27.5 -32.5t68.5 -118.5l123 -217l-2 -9h-144l-219 396l375 397h162zM885 856l-2 -8l-234 -250q-81 -87 -108 -112.5t-47 -36.5v-9q3 -2 5.5 -4t5 -4.5t5.5 -7l6 -9t7.5 -12t8 -14t10.5 -18.5
t12.5 -22.5t15.5 -27.5t18 -32l125 -217l-2 -9h-144l-219 396l375 397h162z" />
    <glyph glyph-name="logicalnot" unicode="&#xac;" 
d="M174 885h936v-80v-463h-76v463h-860v80z" />
    <glyph glyph-name="uni00AD" unicode="&#xad;" horiz-adv-x="774" 
d="M702 627l-28 -146h-572l29 146h571z" />
    <glyph glyph-name="registered" unicode="&#xae;" horiz-adv-x="1177" 
d="M690 1464q203 0 339 -136t136 -341q0 -203 -135.5 -339t-339.5 -136q-206 0 -341.5 136t-135.5 343q0 203 136 338t341 135zM690 1389q-169 0 -283 -113.5t-114 -284.5q0 -175 114 -288t283 -113q168 0 281.5 112.5t113.5 284.5q0 175 -114 288.5t-281 113.5zM729 1270
q69 0 114.5 -41.5t45.5 -108.5q0 -65 -45.5 -108t-112.5 -43l-2 -6q27 -12 55 -48l138 -159v-8h-95l-180 219h-41v-219h-78v522h201zM723 1196h-117v-156h119q36 0 60 22t24 54q0 36 -25 58t-61 22z" />
    <glyph glyph-name="macron" unicode="&#xaf;" horiz-adv-x="784" 
d="M856 1364l-22 -113h-580l22 113h580z" />
    <glyph glyph-name="degree" unicode="&#xb0;" horiz-adv-x="741" 
d="M500 1413q121 0 201.5 -79t80.5 -204q0 -120 -80 -198t-200 -78q-124 0 -204.5 78.5t-80.5 202.5q0 121 80 199.5t203 78.5zM500 1335q-86 0 -143.5 -56t-57.5 -144q0 -89 58 -146t143 -57t142.5 57t57.5 144q0 90 -57 146t-143 56z" />
    <glyph glyph-name="plusminus" unicode="&#xb1;" 
d="M662 1069v-291h448v-78h-448l2 -290h-82l-2 290h-447l-2 78h449v291h82zM1110 313l-2 -75h-977l2 75h977z" />
    <glyph glyph-name="uni00B2" unicode="&#xb2;" horiz-adv-x="802" 
d="M84 713l-2 8l508 469q68 63 106.5 115.5t38.5 103.5t-36 80t-93 29q-110 0 -254 -99l-69 107q174 121 338 121q121 0 189.5 -58t68.5 -157q0 -80 -43.5 -149t-145.5 -165l-219 -205q-47 -45 -109 -86v-2q67 13 154 13h279l2 -7l-97 -118h-616z" />
    <glyph glyph-name="uni00B3" unicode="&#xb3;" horiz-adv-x="784" 
d="M444 694q-80 0 -161.5 17.5t-135.5 48.5l60 125q120 -62 237 -62q111 0 170.5 46t59.5 122q0 152 -275 152l25 121q126 0 202 39.5t76 113.5q0 54 -37.5 78.5t-95.5 24.5q-96 0 -233 -60l-49 117q160 70 301 70q128 0 196 -54.5t68 -150.5q0 -149 -182 -207
q-35 -12 -76 -16v-7q45 -3 72 -10q64 -18 105.5 -75t41.5 -140q0 -57 -20.5 -107.5t-62.5 -93t-115.5 -67.5t-170.5 -25z" />
    <glyph glyph-name="acute" unicode="&#xb4;" horiz-adv-x="583" 
d="M672 1448l-2 -6l-330 -309h-107l-2 8l252 307h189z" />
    <glyph glyph-name="uni00B5" unicode="&#xb5;" horiz-adv-x="1077" 
d="M889 946h147l-184 -946h-147q36 172 67 240l-8 4q-69 -143 -157.5 -209t-211.5 -66q-135 0 -213 72l-88 -451h-143l143 740q5 40 15 94l102 522h151l-102 -516q-12 -58 -12 -104q-3 -103 49.5 -159t153.5 -56q134 0 225.5 102.5t128.5 294.5z" />
    <glyph glyph-name="paragraph" unicode="&#xb6;" 
d="M1313 1434l-25 -117h-117l-299 -1534h-124l299 1534h-250l-299 -1534h-125l166 852q-146 0 -237 101t-91 261q0 199 141.5 318t362.5 119h598z" />
    <glyph glyph-name="periodcentered" unicode="&#xb7;" horiz-adv-x="409" 
d="M152 731l43 215h204l-43 -215h-204z" />
    <glyph glyph-name="cedilla" unicode="&#xb8;" horiz-adv-x="495" 
d="M176 41l-67 -121q151 -37 151 -129q0 -34 -20.5 -66.5t-46.5 -54.5t-76 -49t-81 -40.5t-89 -37.5l-15 56q55 28 79.5 41t56 33.5t43.5 37.5t12 35q0 54 -133 82l119 213h67z" />
    <glyph glyph-name="uni00B9" unicode="&#xb9;" horiz-adv-x="561" 
d="M319 713l111 569q11 53 33 102l-2 5q-24 -21 -60 -37l-143 -68l27 135l204 119l41 88h101l-176 -913h-136z" />
    <glyph glyph-name="ordmasculine" unicode="&#xba;" horiz-adv-x="894" 
d="M522 692q-147 0 -235 80t-88 219q0 156 107.5 262.5t281.5 106.5q145 0 234 -80t89 -219q0 -156 -107.5 -262.5t-281.5 -106.5zM526 813q109 0 179.5 70.5t70.5 173.5q0 87 -52.5 134.5t-139.5 47.5q-110 0 -180 -70.5t-70 -173.5q0 -87 52.5 -134.5t139.5 -47.5z" />
    <glyph glyph-name="guillemotright" unicode="&#xbb;" horiz-adv-x="835" 
d="M-51 63l2 9l233 250q74 82 104 109.5t52 39.5v8q-13 8 -27 31t-69 121l-123 217l2 8h143l219 -395l-374 -398h-162zM248 63l2 9l233 250q80 86 107.5 112t48.5 37v8q-3 2 -5.5 4.5t-6 6.5t-6 7.5t-7.5 11t-8.5 14.5t-10.5 19.5t-13.5 23.5t-16.5 29.5t-20 35.5l-125 217
l2 8h143l219 -395l-374 -398h-162z" />
    <glyph glyph-name="onequarter" unicode="&#xbc;" horiz-adv-x="1396" 
d="M96 0l1006 1382h98l-1005 -1382h-99zM279 592l100 522q8 39 29 86l-2 2q-14 -14 -52 -31l-143 -65l18 90l191 100l35 86h65l-153 -790h-88zM1022 0l22 117q3 19 11 35l-2 2q-20 -4 -33 -4h-399l12 69l532 572h99l-103 -525q-4 -24 -12 -37h2q8 2 27 2h100l-49 -81h-66
q-12 0 -28 4l-2 -2q3 -14 0 -31l-23 -121h-88zM741 227q24 4 62 4h221q33 0 45 -4l4 2q-2 11 2 45l62 314q16 80 22 96l-2 2q-19 -32 -59 -74l-314 -340q-38 -38 -45 -43z" />
    <glyph glyph-name="onehalf" unicode="&#xbd;" horiz-adv-x="1372" 
d="M96 0l1006 1382h98l-1005 -1382h-99zM279 592l100 522q8 39 29 86l-2 2q-14 -14 -52 -31l-143 -65l18 90l191 100l35 86h65l-153 -790h-88zM643 0l-4 8l412 395q68 64 104.5 116.5t36.5 103.5q0 50 -33.5 74t-89.5 24q-95 0 -213 -62l-37 78q137 72 258 72
q98 0 154.5 -46.5t56.5 -133.5q0 -72 -38.5 -130t-135.5 -155l-203 -197q-38 -38 -94 -71v-2q27 8 127 8h266l-63 -82h-504z" />
    <glyph glyph-name="threequarters" unicode="&#xbe;" horiz-adv-x="1605" 
d="M395 573q-141 0 -248 58l46 84q112 -53 208 -53q105 0 159 42t54 117q0 74 -57.5 112t-189.5 38l16 86q124 0 197 39.5t73 113.5q0 103 -143 103q-94 0 -203 -47l-31 77q123 58 244 58q109 0 169.5 -49t60.5 -135q0 -89 -66 -138t-174 -57v-4q90 -3 145.5 -50.5
t55.5 -144.5q0 -51 -16.5 -94t-52 -79t-99 -56.5t-148.5 -20.5zM305 0l1006 1382h98l-1006 -1382h-98zM1231 0l22 117q3 19 11 35l-2 2q-20 -4 -33 -4h-400l13 69l532 572h99l-103 -525q-4 -24 -12 -37h2q8 2 26 2h101l-49 -81h-66q-13 0 -29 4l-2 -2q3 -14 0 -31l-22 -121
h-88zM950 227q24 4 62 4h221q33 0 45 -4l4 2q-2 11 2 45l62 314q16 80 22 96l-2 2q-19 -32 -59 -74l-314 -340q-38 -38 -45 -43z" />
    <glyph glyph-name="questiondown" unicode="&#xbf;" horiz-adv-x="724" 
d="M606 997l-41 -215h-205l43 215h203zM207 -467q-140 0 -214.5 60t-74.5 174q0 84 41.5 149t140.5 139l131 101q65 51 91 88.5t26 79.5q0 41 -26.5 77.5t-92.5 87.5l103 115q170 -125 170 -274q0 -72 -37.5 -134.5t-118.5 -125.5l-129 -99q-79 -58 -108 -97t-29 -85
q0 -54 37.5 -83.5t103.5 -29.5q122 0 303 101l64 -133q-116 -59 -205 -85t-176 -26z" />
    <glyph glyph-name="Agrave" unicode="&#xc0;" horiz-adv-x="1390" 
d="M815 1747l139 -221l-4 -4h-106l-209 219l4 6h176zM-68 0l947 1464h16l379 -1464h-164l-106 424h-613l-266 -424h-193zM463 555q50 4 115 4h286q67 0 117 -4v2q-23 44 -39 119l-76 340q-23 119 -18 170h-8q-19 -64 -84 -170l-207 -340q-44 -70 -86 -119v-2z" />
    <glyph glyph-name="Aacute" unicode="&#xc1;" horiz-adv-x="1390" 
d="M1249 1747v-6l-295 -219h-106v4l225 221h176zM-68 0l947 1464h16l379 -1464h-164l-106 424h-613l-266 -424h-193zM463 555q50 4 115 4h286q67 0 117 -4v2q-23 44 -39 119l-76 340q-23 119 -18 170h-8q-19 -64 -84 -170l-207 -340q-44 -70 -86 -119v-2z" />
    <glyph glyph-name="Acircumflex" unicode="&#xc2;" horiz-adv-x="1390" 
d="M578 1522l2 8l282 237h168l191 -237l-2 -8h-136l-61 69q-40 47 -54.5 71.5t-17.5 57.5h-6q-18 -36 -42 -62t-79 -67l-92 -69h-153zM-68 0l947 1464h16l379 -1464h-164l-106 424h-613l-266 -424h-193zM463 555q50 4 115 4h286q67 0 117 -4v2q-23 44 -39 119l-76 340
q-23 119 -18 170h-8q-19 -64 -84 -170l-207 -340q-44 -70 -86 -119v-2z" />
    <glyph glyph-name="Atilde" unicode="&#xc3;" horiz-adv-x="1390" 
d="M1085 1528q-52 0 -112 25t-113 50t-88 25q-65 0 -123 -86l-65 23q17 38 34 66.5t43.5 60t63 48.5t80.5 17q52 0 112 -25t112.5 -50t88.5 -25q62 0 121 86l68 -23q-16 -37 -33.5 -66t-44.5 -60.5t-63.5 -48.5t-80.5 -17zM-68 0l947 1464h16l379 -1464h-164l-106 424h-613
l-266 -424h-193zM463 555q50 4 115 4h286q67 0 117 -4v2q-23 44 -39 119l-76 340q-23 119 -18 170h-8q-19 -64 -84 -170l-207 -340q-44 -70 -86 -119v-2z" />
    <glyph glyph-name="Adieresis" unicode="&#xc4;" horiz-adv-x="1390" 
d="M694 1749h150l-45 -227h-150zM1032 1749h152l-45 -227h-152zM-68 0l947 1464h16l379 -1464h-164l-106 424h-613l-266 -424h-193zM463 555q50 4 115 4h286q67 0 117 -4v2q-23 44 -39 119l-76 340q-23 119 -18 170h-8q-19 -64 -84 -170l-207 -340q-44 -70 -86 -119v-2z" />
    <glyph glyph-name="Aring" unicode="&#xc5;" horiz-adv-x="1390" 
d="M915 1386l359 -1386h-164l-106 424h-613l-266 -424h-193l899 1389q-80 13 -122.5 68.5t-42.5 135.5q0 114 77.5 192.5t198.5 78.5q101 0 157 -57.5t56 -151.5q0 -106 -66.5 -181.5t-173.5 -87.5zM752 1597q0 -63 35 -98t102 -35q83 0 132.5 56t49.5 131q0 62 -36 97.5
t-101 35.5q-83 0 -132.5 -56t-49.5 -131zM981 555v2q-23 44 -39 119l-76 340q-23 119 -18 170h-8q-19 -64 -84 -170l-207 -340q-44 -70 -86 -119v-2q50 4 115 4h286q67 0 117 -4z" />
    <glyph glyph-name="AE" unicode="&#xc6;" horiz-adv-x="1806" 
d="M1403 1284q-39 0 -51 6l-4 -4q2 -10 -5 -51l-63 -328q-7 -34 -16 -49l4 -4q12 6 53 6h475l-29 -149h-477q-30 0 -51 6l-2 -2q2 -14 -4 -53l-90 -463q-6 -33 -17 -52l2 -4q16 7 54 7h536l-28 -150h-738l74 375q7 39 14 51v4q-16 -6 -55 -6h-498l-360 -424h-195l1235 1434
h793l-29 -150h-528zM1012 559q39 0 51 -6l4 4q-3 15 4 49l111 561q12 62 37 138h-5q-42 -75 -94 -134l-454 -534q-50 -60 -93 -84l2 -4q37 10 109 10h328z" />
    <glyph glyph-name="Ccedilla" unicode="&#xc7;" horiz-adv-x="1431" 
d="M965 1305q-188 0 -340.5 -87t-239 -240t-86.5 -341q0 -238 136 -373t374 -135q103 0 198.5 30.5t202.5 98.5l86 -133q-238 -156 -503 -156h-11l-26 -49q151 -37 151 -129q0 -34 -20.5 -66.5t-46.5 -54.5t-76 -49t-81 -40.5t-89 -37.5l-14 56q54 27 79.5 41t56 34t42.5 37
t12 35q0 54 -133 82l80 143q-272 23 -431 199.5t-159 458.5q0 239 109.5 430t305 298t441.5 107q285 0 487 -164l-98 -133q-192 138 -407 138z" />
    <glyph glyph-name="Egrave" unicode="&#xc8;" horiz-adv-x="1052" 
d="M715 1747l139 -221l-4 -4h-107l-208 219l4 6h176zM1149 1434l-29 -150h-592q-33 0 -51 6l-4 -2q4 -22 -4 -51l-63 -330q-6 -31 -17 -49l4 -4q14 6 53 6h527l-29 -147h-526q-39 0 -51 6l-5 -4q3 -13 -4 -51l-90 -467q-11 -42 -16 -52l2 -2q24 7 53 7h600l-28 -150h-809
l278 1434h801z" />
    <glyph glyph-name="Eacute" unicode="&#xc9;" horiz-adv-x="1052" 
d="M1149 1747v-6l-295 -219h-106v4l225 221h176zM1149 1434l-29 -150h-592q-33 0 -51 6l-4 -2q4 -22 -4 -51l-63 -330q-6 -31 -17 -49l4 -4q14 6 53 6h527l-29 -147h-526q-39 0 -51 6l-5 -4q3 -13 -4 -51l-90 -467q-11 -42 -16 -52l2 -2q24 7 53 7h600l-28 -150h-809
l278 1434h801z" />
    <glyph glyph-name="Ecircumflex" unicode="&#xca;" horiz-adv-x="1052" 
d="M477 1522l2 8l283 237h168l190 -237l-2 -8h-135l-61 69q-40 47 -54.5 71.5t-17.5 57.5h-6q-18 -36 -42 -62t-79 -67l-92 -69h-154zM1149 1434l-29 -150h-592q-33 0 -51 6l-4 -2q4 -22 -4 -51l-63 -330q-6 -31 -17 -49l4 -4q14 6 53 6h527l-29 -147h-526q-39 0 -51 6
l-5 -4q3 -13 -4 -51l-90 -467q-11 -42 -16 -52l2 -2q24 7 53 7h600l-28 -150h-809l278 1434h801z" />
    <glyph glyph-name="Edieresis" unicode="&#xcb;" horiz-adv-x="1052" 
d="M594 1749h149l-45 -227h-149zM932 1749h151l-45 -227h-151zM1149 1434l-29 -150h-592q-33 0 -51 6l-4 -2q4 -22 -4 -51l-63 -330q-6 -31 -17 -49l4 -4q14 6 53 6h527l-29 -147h-526q-39 0 -51 6l-5 -4q3 -13 -4 -51l-90 -467q-11 -42 -16 -52l2 -2q24 7 53 7h600
l-28 -150h-809l278 1434h801z" />
    <glyph glyph-name="Igrave" unicode="&#xcc;" horiz-adv-x="485" 
d="M365 1747l139 -221l-4 -4h-107l-209 219l4 6h177zM510 1434l-279 -1434h-161l278 1434h162z" />
    <glyph glyph-name="Iacute" unicode="&#xcd;" horiz-adv-x="485" 
d="M797 1747v-6l-295 -219h-107v4l226 221h176zM510 1434l-279 -1434h-161l278 1434h162z" />
    <glyph glyph-name="Icircumflex" unicode="&#xce;" horiz-adv-x="485" 
d="M125 1522l2 8l283 237h168l190 -237l-2 -8h-135l-62 69q-39 46 -53.5 71t-17.5 58h-6q-18 -36 -42 -62t-79 -67l-92 -69h-154zM510 1434l-279 -1434h-161l278 1434h162z" />
    <glyph glyph-name="Idieresis" unicode="&#xcf;" horiz-adv-x="485" 
d="M242 1749h149l-45 -227h-149zM580 1749h151l-45 -227h-151zM510 1434l-279 -1434h-161l278 1434h162z" />
    <glyph glyph-name="Eth" unicode="&#xd0;" horiz-adv-x="1517" 
d="M864 1434q286 0 454.5 -165.5t168.5 -457.5q0 -243 -113.5 -428t-315.5 -284t-464 -99h-438l118 612q6 34 15 52l-2 2q-25 -7 -54 -7h-196l26 144h197q39 0 51 -6l4 4q-2 12 4 49l27 129l88 455h430zM631 150q113 0 216 29t188.5 86t148.5 135.5t98 183.5t35 225
q0 227 -127.5 351t-339.5 124h-236q-33 0 -51 6l-4 -2q2 -14 -4 -51l-49 -258l-27 -129q-5 -31 -16 -49l2 -4q14 6 53 6h373l-27 -144h-372q-31 0 -52 7l-4 -2q3 -21 -2 -52l-80 -415q-4 -21 -16 -52l2 -2q24 7 53 7h238z" />
    <glyph glyph-name="Ntilde" unicode="&#xd1;" horiz-adv-x="1478" 
d="M1116 1528q-52 0 -112 25t-113 50t-88 25q-65 0 -123 -86l-66 23q16 37 33.5 66t44.5 60.5t63.5 48.5t80.5 17q52 0 112 -25t112.5 -50t88.5 -25q62 0 121 86l67 -23q-17 -38 -34 -66.5t-43.5 -60t-63 -48.5t-80.5 -17zM369 1454l682 -989q65 -92 84 -160l6 2
q-3 88 30 258l170 869h160l-282 -1454h-19l-680 989q-63 88 -82 161l-6 -2q0 -90 -33 -258l-170 -870h-159l282 1454h17z" />
    <glyph glyph-name="Ograve" unicode="&#xd2;" horiz-adv-x="1710" 
d="M913 1747l140 -221l-4 -4h-107l-209 219l4 6h176zM840 -31q-321 0 -515 186t-194 494q0 173 63.5 324.5t173.5 259t265 169.5t332 62q321 0 514.5 -186t193.5 -494q0 -231 -107.5 -417.5t-298.5 -292t-427 -105.5zM846 127q288 0 472.5 188t184.5 480q0 229 -149.5 370.5
t-392.5 141.5q-190 0 -341 -85.5t-235 -238t-84 -344.5q0 -229 151 -370.5t394 -141.5z" />
    <glyph glyph-name="Oacute" unicode="&#xd3;" horiz-adv-x="1710" 
d="M1346 1747v-6l-295 -219h-107v4l225 221h177zM840 -31q-321 0 -515 186t-194 494q0 173 63.5 324.5t173.5 259t265 169.5t332 62q321 0 514.5 -186t193.5 -494q0 -231 -107.5 -417.5t-298.5 -292t-427 -105.5zM846 127q288 0 472.5 188t184.5 480q0 229 -149.5 370.5
t-392.5 141.5q-190 0 -341 -85.5t-235 -238t-84 -344.5q0 -229 151 -370.5t394 -141.5z" />
    <glyph glyph-name="Ocircumflex" unicode="&#xd4;" horiz-adv-x="1710" 
d="M674 1522l2 8l282 237h168l191 -237l-2 -8h-135l-62 69q-39 46 -53.5 71t-17.5 58h-7q-18 -36 -42 -62.5t-78 -66.5l-93 -69h-153zM840 -31q-321 0 -515 186t-194 494q0 173 63.5 324.5t173.5 259t265 169.5t332 62q321 0 514.5 -186t193.5 -494q0 -231 -107.5 -417.5
t-298.5 -292t-427 -105.5zM846 127q288 0 472.5 188t184.5 480q0 229 -149.5 370.5t-392.5 141.5q-190 0 -341 -85.5t-235 -238t-84 -344.5q0 -229 151 -370.5t394 -141.5z" />
    <glyph glyph-name="Otilde" unicode="&#xd5;" horiz-adv-x="1710" 
d="M1182 1528q-52 0 -112.5 25t-113.5 50t-88 25q-65 0 -123 -86l-65 23q17 38 34 66.5t43.5 60t63 48.5t80.5 17q52 0 112 -25t112.5 -50t88.5 -25q62 0 121 86l68 -23q-17 -38 -34 -66.5t-43.5 -60t-63 -48.5t-80.5 -17zM840 -31q-321 0 -515 186t-194 494
q0 173 63.5 324.5t173.5 259t265 169.5t332 62q321 0 514.5 -186t193.5 -494q0 -231 -107.5 -417.5t-298.5 -292t-427 -105.5zM846 127q288 0 472.5 188t184.5 480q0 229 -149.5 370.5t-392.5 141.5q-190 0 -341 -85.5t-235 -238t-84 -344.5q0 -229 151 -370.5t394 -141.5z
" />
    <glyph glyph-name="Odieresis" unicode="&#xd6;" horiz-adv-x="1710" 
d="M791 1749h149l-45 -227h-150zM1128 1749h152l-45 -227h-152zM840 -31q-321 0 -515 186t-194 494q0 173 63.5 324.5t173.5 259t265 169.5t332 62q321 0 514.5 -186t193.5 -494q0 -231 -107.5 -417.5t-298.5 -292t-427 -105.5zM846 127q288 0 472.5 188t184.5 480
q0 229 -149.5 370.5t-392.5 141.5q-190 0 -341 -85.5t-235 -238t-84 -344.5q0 -229 151 -370.5t394 -141.5z" />
    <glyph glyph-name="multiply" unicode="&#xd7;" 
d="M1018 1047l57 -60l-377 -377l375 -377l-55 -57l-377 377l-377 -379l-59 59l377 379l-375 375l55 60l379 -379z" />
    <glyph glyph-name="Oslash" unicode="&#xd8;" horiz-adv-x="1710" 
d="M1479 1278q194 -185 194 -494q0 -231 -107.5 -417.5t-298.5 -292t-427 -105.5q-262 0 -443 127l-121 -133l-53 45l119 131q-101 91 -156 221t-55 289q0 173 63.5 324.5t173.5 259t265 169.5t332 62q272 0 462 -141l125 139l54 -45zM301 639q0 -232 156 -375l856 934
q-143 109 -352 109q-190 0 -341 -85.5t-235 -238t-84 -344.5zM846 127q288 0 472.5 188t184.5 480q0 222 -139 358l-852 -932q140 -94 334 -94z" />
    <glyph glyph-name="Ugrave" unicode="&#xd9;" horiz-adv-x="1394" 
d="M811 1747l139 -221l-4 -4h-106l-209 219l4 6h176zM635 -31q-233 0 -361.5 117.5t-128.5 331.5q0 70 17 157l170 859h166l-172 -883q-11 -62 -11 -111q0 -146 87 -226.5t247 -80.5q181 0 297 107t156 311l172 883h166l-174 -895q-53 -279 -214 -424.5t-417 -145.5z" />
    <glyph glyph-name="Uacute" unicode="&#xda;" horiz-adv-x="1394" 
d="M1243 1747v-6l-295 -219h-106v4l225 221h176zM635 -31q-233 0 -361.5 117.5t-128.5 331.5q0 70 17 157l170 859h166l-172 -883q-11 -62 -11 -111q0 -146 87 -226.5t247 -80.5q181 0 297 107t156 311l172 883h166l-174 -895q-53 -279 -214 -424.5t-417 -145.5z" />
    <glyph glyph-name="Ucircumflex" unicode="&#xdb;" horiz-adv-x="1394" 
d="M571 1522l2 8l283 237h168l190 -237l-2 -8h-135l-61 69q-40 47 -54.5 71.5t-17.5 57.5h-6q-18 -36 -42 -62t-79 -67l-92 -69h-154zM635 -31q-233 0 -361.5 117.5t-128.5 331.5q0 70 17 157l170 859h166l-172 -883q-11 -62 -11 -111q0 -146 87 -226.5t247 -80.5
q181 0 297 107t156 311l172 883h166l-174 -895q-53 -279 -214 -424.5t-417 -145.5z" />
    <glyph glyph-name="Udieresis" unicode="&#xdc;" horiz-adv-x="1394" 
d="M690 1749h150l-45 -227h-150zM1028 1749h152l-45 -227h-152zM635 -31q-233 0 -361.5 117.5t-128.5 331.5q0 70 17 157l170 859h166l-172 -883q-11 -62 -11 -111q0 -146 87 -226.5t247 -80.5q181 0 297 107t156 311l172 883h166l-174 -895q-53 -279 -214 -424.5
t-417 -145.5z" />
    <glyph glyph-name="Yacute" unicode="&#xdd;" horiz-adv-x="1126" 
d="M1104 1747v-6l-295 -219h-107v4l226 221h176zM1294 1434l-637 -873l-108 -561h-158l107 561l-293 873h174l166 -539q24 -79 33 -120.5t10 -94.5h8q40 91 125 215l375 539h198z" />
    <glyph glyph-name="Thorn" unicode="&#xde;" horiz-adv-x="1126" 
d="M70 0l278 1434h160l-51 -260q-8 -40 -15 -52v-4q16 6 56 6h207q186 0 292.5 -96t106.5 -266q0 -90 -32.5 -167.5t-93 -135.5t-154.5 -90.5t-210 -32.5h-270q-35 0 -51 8l-4 -4q3 -13 -4 -51l-56 -289h-159zM319 479q14 6 54 6h245q155 0 236.5 74.5t81.5 194.5
q0 109 -64.5 166t-175.5 57h-229q-39 0 -49 6l-4 -4q0 -28 -4 -51l-76 -393q-9 -42 -17 -52z" />
    <glyph glyph-name="germandbls" unicode="&#xdf;" horiz-adv-x="1140" 
d="M700 809q173 -9 265 -100t92 -254q0 -221 -154.5 -343t-435.5 -122h-152l29 141h115q442 0 442 320q0 148 -96 215t-305 67l24 135q177 0 278 72.5t101 198.5q0 86 -55 134t-152 48q-121 0 -190.5 -65.5t-97.5 -204.5l-256 -1317h-150l262 1347q37 187 150.5 285
t292.5 98q161 0 257.5 -83t96.5 -220q0 -145 -94.5 -235.5t-266.5 -112.5v-4z" />
    <glyph glyph-name="agrave" unicode="&#xe0;" horiz-adv-x="1048" 
d="M563 1448l133 -307l-4 -8h-106l-211 309l2 6h186zM389 -29q-155 0 -251.5 88.5t-96.5 231.5q0 157 105.5 252.5t283.5 95.5q133 0 222.5 -58.5t127.5 -160.5l6 2q-6 38 9 127q16 84 16 119q0 172 -221 172q-128 0 -311 -43l-29 137q182 41 354 41q350 0 350 -281
q0 -46 -12 -114l-113 -580h-147q14 85 51 158l-8 4q-117 -191 -336 -191zM434 96q123 0 210 63t87 154q0 85 -78.5 141t-195.5 56q-118 0 -188 -59.5t-70 -159.5q0 -89 63.5 -142t171.5 -53z" />
    <glyph glyph-name="aacute" unicode="&#xe1;" horiz-adv-x="1048" 
d="M1038 1448l-2 -6l-329 -309h-107l-2 8l252 307h188zM389 -29q-155 0 -251.5 88.5t-96.5 231.5q0 157 105.5 252.5t283.5 95.5q133 0 222.5 -58.5t127.5 -160.5l6 2q-6 38 9 127q16 84 16 119q0 172 -221 172q-128 0 -311 -43l-29 137q182 41 354 41q350 0 350 -281
q0 -46 -12 -114l-113 -580h-147q14 85 51 158l-8 4q-117 -191 -336 -191zM434 96q123 0 210 63t87 154q0 85 -78.5 141t-195.5 56q-118 0 -188 -59.5t-70 -159.5q0 -89 63.5 -142t171.5 -53z" />
    <glyph glyph-name="acircumflex" unicode="&#xe2;" horiz-adv-x="1048" 
d="M778 1448l180 -311l-2 -4h-125l-79 133q-31 50 -41 70.5t-11 49.5h-6q-14 -29 -32.5 -51t-67.5 -69l-131 -133h-146v4l301 311h160zM389 -29q-155 0 -251.5 88.5t-96.5 231.5q0 157 105.5 252.5t283.5 95.5q133 0 222.5 -58.5t127.5 -160.5l6 2q-6 38 9 127q16 84 16 119
q0 172 -221 172q-128 0 -311 -43l-29 137q182 41 354 41q350 0 350 -281q0 -46 -12 -114l-113 -580h-147q14 85 51 158l-8 4q-117 -191 -336 -191zM434 96q123 0 210 63t87 154q0 85 -78.5 141t-195.5 56q-118 0 -188 -59.5t-70 -159.5q0 -89 63.5 -142t171.5 -53z" />
    <glyph glyph-name="atilde" unicode="&#xe3;" horiz-adv-x="1048" 
d="M813 1192q-52 0 -111.5 27t-112 54t-87.5 27q-65 0 -123 -90l-68 21q17 39 34 68.5t44 62t64.5 50.5t81.5 18q51 0 110.5 -28t112 -55.5t88.5 -27.5q34 0 62.5 22.5t58.5 69.5l67 -22q-17 -39 -33.5 -68t-43 -61.5t-63.5 -50t-81 -17.5zM389 -29q-155 0 -251.5 88.5
t-96.5 231.5q0 157 105.5 252.5t283.5 95.5q133 0 222.5 -58.5t127.5 -160.5l6 2q-6 38 9 127q16 84 16 119q0 172 -221 172q-128 0 -311 -43l-29 137q182 41 354 41q350 0 350 -281q0 -46 -12 -114l-113 -580h-147q14 85 51 158l-8 4q-117 -191 -336 -191zM434 96
q123 0 210 63t87 154q0 85 -78.5 141t-195.5 56q-118 0 -188 -59.5t-70 -159.5q0 -89 63.5 -142t171.5 -53z" />
    <glyph glyph-name="adieresis" unicode="&#xe4;" horiz-adv-x="1048" 
d="M608 1434l-47 -248h-151l49 248h149zM952 1434l-47 -248h-151l49 248h149zM389 -29q-155 0 -251.5 88.5t-96.5 231.5q0 157 105.5 252.5t283.5 95.5q133 0 222.5 -58.5t127.5 -160.5l6 2q-6 38 9 127q16 84 16 119q0 172 -221 172q-128 0 -311 -43l-29 137q182 41 354 41
q350 0 350 -281q0 -46 -12 -114l-113 -580h-147q14 85 51 158l-8 4q-117 -191 -336 -191zM434 96q123 0 210 63t87 154q0 85 -78.5 141t-195.5 56q-118 0 -188 -59.5t-70 -159.5q0 -89 63.5 -142t171.5 -53z" />
    <glyph glyph-name="aring" unicode="&#xe5;" horiz-adv-x="1048" 
d="M684 1530q103 0 166 -62.5t63 -160.5q0 -105 -71.5 -180.5t-186.5 -75.5q-104 0 -166.5 62.5t-62.5 160.5q0 106 71 181t187 75zM682 1450q-81 0 -125.5 -51t-44.5 -123q0 -67 38.5 -106.5t106.5 -39.5q80 0 125 52t45 123q0 66 -39 105.5t-106 39.5zM389 -29
q-155 0 -251.5 88.5t-96.5 231.5q0 157 105.5 252.5t283.5 95.5q133 0 222.5 -58.5t127.5 -160.5l6 2q-6 38 9 127q16 84 16 119q0 172 -221 172q-128 0 -311 -43l-29 137q182 41 354 41q350 0 350 -281q0 -46 -12 -114l-113 -580h-147q14 85 51 158l-8 4
q-117 -191 -336 -191zM434 96q123 0 210 63t87 154q0 85 -78.5 141t-195.5 56q-118 0 -188 -59.5t-70 -159.5q0 -89 63.5 -142t171.5 -53z" />
    <glyph glyph-name="ae" unicode="&#xe6;" horiz-adv-x="1798" 
d="M1231 -31q-156 0 -255.5 67.5t-133.5 194.5h-4q-126 -260 -428 -260q-168 0 -267.5 86.5t-99.5 235.5t101.5 247.5t283.5 98.5q129 0 221 -54.5t133 -158.5l6 2q-7 44 9 121q16 82 16 121q0 166 -217 166q-130 0 -315 -41l-29 137q187 43 358 43q139 0 218.5 -49
t93.5 -166h4q64 102 167.5 159.5t237.5 57.5q192 0 298 -107.5t106 -277.5q0 -57 -21 -143h-674q-72 0 -100 12l-4 -2l2 -17q-2 -16 -2 -47q0 -130 76 -207t221 -77q107 0 184 41t158 120l94 -108q-95 -93 -195 -144t-243 -51zM956 549q31 16 91 16h442q69 0 94 -14l4 2
q-1 4 -1 10t0.5 13.5t0.5 11.5q0 122 -70 190t-200 68q-67 0 -123.5 -18.5t-96 -48t-69.5 -69t-47.5 -79t-26.5 -80.5zM434 96q120 0 209.5 61.5t89.5 153.5q0 86 -79 142.5t-199 56.5q-127 0 -190.5 -65t-63.5 -154q0 -91 64 -143t169 -52z" />
    <glyph glyph-name="ccedilla" unicode="&#xe7;" horiz-adv-x="1009" 
d="M621 836q-167 0 -277.5 -111.5t-110.5 -280.5q0 -148 92 -240.5t238 -92.5q122 0 258 77l66 -127q-155 -89 -320 -92l-26 -49q151 -37 151 -129q0 -34 -20.5 -66.5t-46.5 -54.5t-76 -49t-81 -40.5t-89 -37.5l-14 56q54 27 79.5 41t56 34t42.5 37t12 35q0 54 -133 82
l80 143q-195 19 -310.5 145t-115.5 324q0 237 154.5 387t398.5 150q205 0 372 -123l-86 -121q-136 103 -294 103z" />
    <glyph glyph-name="egrave" unicode="&#xe8;" horiz-adv-x="1110" 
d="M600 1448l133 -307l-4 -8h-106l-211 309l2 6h186zM526 -31q-214 0 -335 117t-121 326q0 246 158 405.5t401 159.5q195 0 307.5 -103t112.5 -282q0 -58 -19 -143h-706q-74 0 -101 12l-4 -2l2 -17q0 -10 -1 -26t-1 -21q0 -134 81.5 -209t227.5 -75q100 0 184.5 37.5
t174.5 123.5l92 -108q-109 -103 -216 -149t-237 -46zM240 549q27 16 90 16h473q64 0 96 -14l4 2q-2 10 -2 35q0 123 -74 190.5t-209 67.5q-139 0 -244 -81.5t-136 -213.5z" />
    <glyph glyph-name="eacute" unicode="&#xe9;" horiz-adv-x="1110" 
d="M1073 1448l-2 -6l-330 -309h-106l-2 8l252 307h188zM526 -31q-214 0 -335 117t-121 326q0 246 158 405.5t401 159.5q195 0 307.5 -103t112.5 -282q0 -58 -19 -143h-706q-74 0 -101 12l-4 -2l2 -17q0 -10 -1 -26t-1 -21q0 -134 81.5 -209t227.5 -75q100 0 184.5 37.5
t174.5 123.5l92 -108q-109 -103 -216 -149t-237 -46zM240 549q27 16 90 16h473q64 0 96 -14l4 2q-2 10 -2 35q0 123 -74 190.5t-209 67.5q-139 0 -244 -81.5t-136 -213.5z" />
    <glyph glyph-name="ecircumflex" unicode="&#xea;" horiz-adv-x="1110" 
d="M815 1448l180 -311l-2 -4h-125l-80 133q-30 48 -40 69.5t-11 50.5h-6q-14 -29 -32.5 -51t-67.5 -69l-131 -133h-146v4l301 311h160zM526 -31q-214 0 -335 117t-121 326q0 246 158 405.5t401 159.5q195 0 307.5 -103t112.5 -282q0 -58 -19 -143h-706q-74 0 -101 12l-4 -2
l2 -17q0 -10 -1 -26t-1 -21q0 -134 81.5 -209t227.5 -75q100 0 184.5 37.5t174.5 123.5l92 -108q-109 -103 -216 -149t-237 -46zM240 549q27 16 90 16h473q64 0 96 -14l4 2q-2 10 -2 35q0 123 -74 190.5t-209 67.5q-139 0 -244 -81.5t-136 -213.5z" />
    <glyph glyph-name="edieresis" unicode="&#xeb;" horiz-adv-x="1110" 
d="M645 1434l-47 -248h-152l50 248h149zM989 1434l-47 -248h-151l49 248h149zM526 -31q-214 0 -335 117t-121 326q0 246 158 405.5t401 159.5q195 0 307.5 -103t112.5 -282q0 -58 -19 -143h-706q-74 0 -101 12l-4 -2l2 -17q0 -10 -1 -26t-1 -21q0 -134 81.5 -209t227.5 -75
q100 0 184.5 37.5t174.5 123.5l92 -108q-109 -103 -216 -149t-237 -46zM240 549q27 16 90 16h473q64 0 96 -14l4 2q-2 10 -2 35q0 123 -74 190.5t-209 67.5q-139 0 -244 -81.5t-136 -213.5z" />
    <glyph glyph-name="igrave" unicode="&#xec;" horiz-adv-x="432" 
d="M315 1448l72 -307l-4 -8h-115l-98 309l2 6h143zM383 946l-184 -946h-150l184 946h150z" />
    <glyph glyph-name="iacute" unicode="&#xed;" horiz-adv-x="432" 
d="M614 1448l-2 -6l-200 -309h-125l-2 8l170 307h159zM383 946l-184 -946h-150l184 946h150z" />
    <glyph glyph-name="icircumflex" unicode="&#xee;" horiz-adv-x="432" 
d="M473 1448l82 -311v-4h-109l-32 133q-17 88 -19 120h-4q-16 -41 -65 -120l-86 -133h-129v4l211 311h151zM383 946l-184 -946h-150l184 946h150z" />
    <glyph glyph-name="idieresis" unicode="&#xef;" horiz-adv-x="432" 
d="M348 1434l-47 -248h-151l49 248h149zM594 1434l-49 -248h-150l47 248h152zM383 946l-184 -946h-150l184 946h150z" />
    <glyph glyph-name="eth" unicode="&#xf0;" horiz-adv-x="1267" 
d="M948 1309q115 -80 170.5 -214t55.5 -337q0 -197 -49.5 -350.5t-135.5 -248t-196 -142.5t-236 -48q-220 0 -350.5 132.5t-130.5 342.5q0 145 63 265.5t184.5 193t278.5 72.5q198 0 311 -111t121 -286h8q10 150 5 241q-20 282 -216 406l-227 -166l-47 63l197 144
q-122 50 -283 65l25 125q231 -27 378 -102l218 157l43 -65zM575 111q93 0 167 33.5t119 90t69 126.5t24 147q0 160 -94.5 244t-247.5 84q-95 0 -170 -33.5t-120 -90.5t-68 -125t-23 -143q0 -158 94.5 -245.5t249.5 -87.5z" />
    <glyph glyph-name="ntilde" unicode="&#xf1;" horiz-adv-x="1122" 
d="M868 1192q-52 0 -111.5 27t-112 54t-87.5 27q-65 0 -123 -90l-67 21q17 39 34 68.5t43.5 62t64 50.5t81.5 18q51 0 110.5 -28t112 -55.5t88.5 -27.5q34 0 62.5 22.5t58.5 69.5l68 -22q-17 -39 -33.5 -68t-43.5 -61.5t-64 -50t-81 -17.5zM49 0l184 946h150l-8 -39
q-19 -123 -62 -217l9 -2q66 149 162 219t233 70q149 0 227 -79.5t78 -231.5q0 -68 -18 -158l-101 -508h-149l100 512q12 53 12 111q0 104 -55.5 160.5t-159.5 56.5q-142 0 -236 -102.5t-132 -299.5l-84 -438h-150z" />
    <glyph glyph-name="ograve" unicode="&#xf2;" horiz-adv-x="1169" 
d="M602 1448l133 -307l-4 -8h-106l-211 309l2 6h186zM532 -31q-213 0 -337.5 120.5t-124.5 324.5q0 119 43 223.5t117.5 179t179.5 117.5t225 43q215 0 340 -120.5t125 -324.5q0 -241 -162.5 -402t-405.5 -161zM547 115q170 0 284.5 118t114.5 295q0 140 -86.5 221.5
t-236.5 81.5q-171 0 -285.5 -118t-114.5 -295q0 -140 87 -221.5t237 -81.5z" />
    <glyph glyph-name="oacute" unicode="&#xf3;" horiz-adv-x="1169" 
d="M1077 1448l-2 -6l-330 -309h-106l-2 8l252 307h188zM532 -31q-213 0 -337.5 120.5t-124.5 324.5q0 119 43 223.5t117.5 179t179.5 117.5t225 43q215 0 340 -120.5t125 -324.5q0 -241 -162.5 -402t-405.5 -161zM547 115q170 0 284.5 118t114.5 295q0 140 -86.5 221.5
t-236.5 81.5q-171 0 -285.5 -118t-114.5 -295q0 -140 87 -221.5t237 -81.5z" />
    <glyph glyph-name="ocircumflex" unicode="&#xf4;" horiz-adv-x="1169" 
d="M817 1448l180 -311l-2 -4h-125l-79 133q-31 50 -41 70.5t-11 49.5h-6q-14 -29 -32.5 -51t-67.5 -69l-131 -133h-146v4l301 311h160zM532 -31q-213 0 -337.5 120.5t-124.5 324.5q0 119 43 223.5t117.5 179t179.5 117.5t225 43q215 0 340 -120.5t125 -324.5
q0 -241 -162.5 -402t-405.5 -161zM547 115q170 0 284.5 118t114.5 295q0 140 -86.5 221.5t-236.5 81.5q-171 0 -285.5 -118t-114.5 -295q0 -140 87 -221.5t237 -81.5z" />
    <glyph glyph-name="otilde" unicode="&#xf5;" horiz-adv-x="1169" 
d="M852 1192q-52 0 -111.5 27t-112 54t-87.5 27q-65 0 -123 -90l-68 21q17 39 34 68.5t43.5 62t64 50.5t81.5 18q41 0 87.5 -17.5t81 -38t74.5 -38t69 -17.5q34 0 62.5 22.5t58.5 69.5l67 -22q-17 -39 -33.5 -68t-43 -61.5t-63.5 -50t-81 -17.5zM532 -31
q-213 0 -337.5 120.5t-124.5 324.5q0 119 43 223.5t117.5 179t179.5 117.5t225 43q215 0 340 -120.5t125 -324.5q0 -241 -162.5 -402t-405.5 -161zM547 115q170 0 284.5 118t114.5 295q0 140 -86.5 221.5t-236.5 81.5q-171 0 -285.5 -118t-114.5 -295q0 -140 87 -221.5
t237 -81.5z" />
    <glyph glyph-name="odieresis" unicode="&#xf6;" horiz-adv-x="1169" 
d="M647 1434l-47 -248h-151l49 248h149zM991 1434l-47 -248h-151l49 248h149zM532 -31q-213 0 -337.5 120.5t-124.5 324.5q0 119 43 223.5t117.5 179t179.5 117.5t225 43q215 0 340 -120.5t125 -324.5q0 -241 -162.5 -402t-405.5 -161zM547 115q170 0 284.5 118t114.5 295
q0 140 -86.5 221.5t-236.5 81.5q-171 0 -285.5 -118t-114.5 -295q0 -140 87 -221.5t237 -81.5z" />
    <glyph glyph-name="divide" unicode="&#xf7;" 
d="M711 1001v-159h-140v159h140zM1171 649v-78h-1060v78h1060zM711 379v-162h-140v162h140z" />
    <glyph glyph-name="oslash" unicode="&#xf8;" horiz-adv-x="1169" 
d="M1120 932l-114 -109q94 -118 94 -291q0 -241 -162.5 -402t-405.5 -161q-200 0 -323 107l-113 -105l-45 43l115 107q-96 120 -96 293q0 119 43 223.5t117.5 179t179.5 117.5t225 43q205 0 326 -109l116 109zM223 418q0 -112 58 -189l565 533q-84 69 -223 69
q-171 0 -285.5 -118t-114.5 -295zM946 528q0 112 -57 187l-565 -531q84 -69 223 -69q170 0 284.5 118t114.5 295z" />
    <glyph glyph-name="ugrave" unicode="&#xf9;" horiz-adv-x="1077" 
d="M563 1448l133 -307l-4 -8h-106l-211 309l2 6h186zM1036 946l-184 -946h-147q36 172 67 240l-8 4q-69 -143 -157.5 -209t-211.5 -66q-146 0 -226 83.5t-77 232.5q0 56 17 139l102 522h151l-102 -516q-12 -58 -12 -104q-3 -103 49.5 -159t153.5 -56q134 0 225.5 102.5
t128.5 294.5l84 438h147z" />
    <glyph glyph-name="uacute" unicode="&#xfa;" horiz-adv-x="1077" 
d="M1038 1448l-2 -6l-329 -309h-107l-2 8l252 307h188zM1036 946l-184 -946h-147q36 172 67 240l-8 4q-69 -143 -157.5 -209t-211.5 -66q-146 0 -226 83.5t-77 232.5q0 56 17 139l102 522h151l-102 -516q-12 -58 -12 -104q-3 -103 49.5 -159t153.5 -56q134 0 225.5 102.5
t128.5 294.5l84 438h147z" />
    <glyph glyph-name="ucircumflex" unicode="&#xfb;" horiz-adv-x="1077" 
d="M778 1448l180 -311l-2 -4h-125l-79 133q-31 50 -41 70.5t-11 49.5h-6q-14 -29 -32.5 -51t-67.5 -69l-131 -133h-146v4l301 311h160zM1036 946l-184 -946h-147q36 172 67 240l-8 4q-69 -143 -157.5 -209t-211.5 -66q-146 0 -226 83.5t-77 232.5q0 56 17 139l102 522h151
l-102 -516q-12 -58 -12 -104q-3 -103 49.5 -159t153.5 -56q134 0 225.5 102.5t128.5 294.5l84 438h147z" />
    <glyph glyph-name="udieresis" unicode="&#xfc;" horiz-adv-x="1077" 
d="M608 1434l-47 -248h-151l49 248h149zM952 1434l-47 -248h-151l49 248h149zM1036 946l-184 -946h-147q36 172 67 240l-8 4q-69 -143 -157.5 -209t-211.5 -66q-146 0 -226 83.5t-77 232.5q0 56 17 139l102 522h151l-102 -516q-12 -58 -12 -104q-3 -103 49.5 -159t153.5 -56
q134 0 225.5 102.5t128.5 294.5l84 438h147z" />
    <glyph glyph-name="yacute" unicode="&#xfd;" horiz-adv-x="976" 
d="M993 1448l-2 -6l-329 -309h-107l-2 8l252 307h188zM1051 946l-850 -1358h-170l309 490l-229 868h161l131 -526q35 -145 27 -236l8 2q23 76 86 179l357 581h170z" />
    <glyph glyph-name="thorn" unicode="&#xfe;" horiz-adv-x="1222" 
d="M-27 -410l361 1844h149l-96 -488q-29 -139 -55 -203l6 -4q58 117 162.5 177.5t230.5 60.5q183 0 301.5 -122t118.5 -329q0 -154 -65.5 -281t-186.5 -201.5t-274 -74.5q-149 0 -249 69t-136 200l-9 -2q3 -80 -28 -236l-80 -410h-150zM600 109q122 0 214.5 61t137.5 154.5
t45 201.5q0 142 -83 227t-228 85q-90 0 -167.5 -35t-128.5 -94t-80 -135t-29 -158q0 -139 83 -223t236 -84z" />
    <glyph glyph-name="ydieresis" unicode="&#xff;" horiz-adv-x="976" 
d="M565 1434l-47 -248h-151l49 248h149zM909 1434l-47 -248h-151l49 248h149zM1051 946l-850 -1358h-170l309 490l-229 868h161l131 -526q35 -145 27 -236l8 2q23 76 86 179l357 581h170z" />
    <glyph glyph-name="Amacron" unicode="&#x100;" horiz-adv-x="1390" 
d="M637 1677h582l-23 -106h-580zM-68 0l947 1464h16l379 -1464h-164l-106 424h-613l-266 -424h-193zM463 555q50 4 115 4h286q67 0 117 -4v2q-23 44 -39 119l-76 340q-23 119 -18 170h-8q-19 -64 -84 -170l-207 -340q-44 -70 -86 -119v-2z" />
    <glyph glyph-name="amacron" unicode="&#x101;" horiz-adv-x="1048" 
d="M983 1364l-22 -113h-580l22 113h580zM389 -29q-155 0 -251.5 88.5t-96.5 231.5q0 157 105.5 252.5t283.5 95.5q133 0 222.5 -58.5t127.5 -160.5l6 2q-6 38 9 127q16 84 16 119q0 172 -221 172q-128 0 -311 -43l-29 137q182 41 354 41q350 0 350 -281q0 -46 -12 -114
l-113 -580h-147q14 85 51 158l-8 4q-117 -191 -336 -191zM434 96q123 0 210 63t87 154q0 85 -78.5 141t-195.5 56q-118 0 -188 -59.5t-70 -159.5q0 -89 63.5 -142t171.5 -53z" />
    <glyph glyph-name="Abreve" unicode="&#x102;" horiz-adv-x="1390" 
d="M901 1520q-113 0 -176 52t-63 146q0 25 2 39h112q0 -5 -1 -16t-1 -15q0 -48 36.5 -74t104.5 -26q152 0 197 131h115q-28 -112 -114.5 -174.5t-211.5 -62.5zM-68 0l947 1464h16l379 -1464h-164l-106 424h-613l-266 -424h-193zM463 555q50 4 115 4h286q67 0 117 -4v2
q-23 44 -39 119l-76 340q-23 119 -18 170h-8q-19 -64 -84 -170l-207 -340q-44 -70 -86 -119v-2z" />
    <glyph glyph-name="abreve" unicode="&#x103;" horiz-adv-x="1048" 
d="M657 1147q-114 0 -179.5 58.5t-65.5 164.5q0 37 8 70h106q-4 -36 -4 -49q0 -70 37 -106t105 -36q78 0 133 49t75 142h109q-26 -144 -110.5 -218.5t-213.5 -74.5zM389 -29q-155 0 -251.5 88.5t-96.5 231.5q0 157 105.5 252.5t283.5 95.5q133 0 222.5 -58.5t127.5 -160.5
l6 2q-6 38 9 127q16 84 16 119q0 172 -221 172q-128 0 -311 -43l-29 137q182 41 354 41q350 0 350 -281q0 -46 -12 -114l-113 -580h-147q14 85 51 158l-8 4q-117 -191 -336 -191zM434 96q123 0 210 63t87 154q0 85 -78.5 141t-195.5 56q-118 0 -188 -59.5t-70 -159.5
q0 -89 63.5 -142t171.5 -53z" />
    <glyph glyph-name="Aogonek" unicode="&#x104;" horiz-adv-x="1390" 
d="M1006 -283q48 0 98 13l4 -95q-75 -22 -141 -22q-70 0 -111 33t-41 90q0 77 68 146t217 161l-96 381h-613l-266 -424h-193l947 1464h16l379 -1464h-119q-116 -78 -169.5 -131.5t-53.5 -97.5q0 -54 74 -54zM981 555v2q-23 44 -39 119l-76 340q-23 119 -18 170h-8
q-19 -64 -84 -170l-207 -340q-44 -70 -86 -119v-2q50 4 115 4h286q67 0 117 -4z" />
    <glyph glyph-name="aogonek" unicode="&#x105;" horiz-adv-x="1048" 
d="M604 975q350 0 350 -281q0 -46 -12 -114l-113 -580h-90q-116 -78 -169.5 -131.5t-53.5 -97.5q0 -54 74 -54q48 0 98 13l4 -95q-75 -22 -141 -22q-70 0 -111 33t-41 90q0 78 69 147t222 164q12 50 43 111l-8 4q-117 -191 -336 -191q-155 0 -251.5 88.5t-96.5 231.5
q0 157 105.5 252.5t283.5 95.5q133 0 222.5 -58.5t127.5 -160.5l6 2q-6 38 9 127q16 84 16 119q0 172 -221 172q-128 0 -311 -43l-29 137q182 41 354 41zM434 96q123 0 210 63t87 154q0 85 -78.5 141t-195.5 56q-118 0 -188 -59.5t-70 -159.5q0 -89 63.5 -142t171.5 -53z
" />
    <glyph glyph-name="Cacute" unicode="&#x106;" horiz-adv-x="1431" 
d="M1346 1747v-6l-295 -219h-107v4l225 221h177zM793 -31q-305 0 -485.5 179t-180.5 481q0 239 109.5 430t305 298t441.5 107q285 0 487 -164l-98 -133q-192 138 -407 138q-188 0 -340.5 -87t-239 -240t-86.5 -341q0 -238 136 -373t374 -135q103 0 198.5 30.5t202.5 98.5
l86 -133q-238 -156 -503 -156z" />
    <glyph glyph-name="cacute" unicode="&#x107;" horiz-adv-x="1009" 
d="M1040 1448l-2 -6l-329 -309h-107l-2 8l252 307h188zM561 -31q-219 0 -352 129t-133 342q0 237 154.5 387t398.5 150q205 0 372 -123l-86 -121q-136 103 -294 103q-167 0 -277.5 -111.5t-110.5 -280.5q0 -148 92 -240.5t238 -92.5q122 0 258 77l66 -127q-159 -92 -326 -92
z" />
    <glyph glyph-name="Ccircumflex" unicode="&#x108;" horiz-adv-x="1431" 
d="M672 1522l2 8l282 237h168l191 -237l-2 -8h-135l-62 69q-40 47 -54.5 71.5t-17.5 57.5h-6q-18 -36 -42 -62.5t-78 -66.5l-93 -69h-153zM793 -31q-305 0 -485.5 179t-180.5 481q0 239 109.5 430t305 298t441.5 107q285 0 487 -164l-98 -133q-192 138 -407 138
q-188 0 -340.5 -87t-239 -240t-86.5 -341q0 -238 136 -373t374 -135q103 0 198.5 30.5t202.5 98.5l86 -133q-238 -156 -503 -156z" />
    <glyph glyph-name="ccircumflex" unicode="&#x109;" horiz-adv-x="1009" 
d="M782 1448l181 -311l-2 -4h-125l-80 133q-30 48 -40 69.5t-11 50.5h-7q-14 -29 -32.5 -51t-67.5 -69l-131 -133h-145v4l301 311h159zM561 -31q-219 0 -352 129t-133 342q0 237 154.5 387t398.5 150q205 0 372 -123l-86 -121q-136 103 -294 103q-167 0 -277.5 -111.5
t-110.5 -280.5q0 -148 92 -240.5t238 -92.5q122 0 258 77l66 -127q-159 -92 -326 -92z" />
    <glyph glyph-name="Cdotaccent" unicode="&#x10a;" horiz-adv-x="1431" 
d="M1116 1749l-45 -229h-156l46 229h155zM793 -31q-305 0 -485.5 179t-180.5 481q0 239 109.5 430t305 298t441.5 107q285 0 487 -164l-98 -133q-192 138 -407 138q-188 0 -340.5 -87t-239 -240t-86.5 -341q0 -238 136 -373t374 -135q103 0 198.5 30.5t202.5 98.5l86 -133
q-238 -156 -503 -156z" />
    <glyph glyph-name="cdotaccent" unicode="&#x10b;" horiz-adv-x="1009" 
d="M797 1434l-54 -269h-168l54 269h168zM561 -31q-219 0 -352 129t-133 342q0 237 154.5 387t398.5 150q205 0 372 -123l-86 -121q-136 103 -294 103q-167 0 -277.5 -111.5t-110.5 -280.5q0 -148 92 -240.5t238 -92.5q122 0 258 77l66 -127q-159 -92 -326 -92z" />
    <glyph glyph-name="Ccaron" unicode="&#x10c;" horiz-adv-x="1431" 
d="M1362 1767l-2 -8l-283 -237h-168l-190 237l2 8h135l64 -69q39 -42 53.5 -68t17.5 -61h6q17 35 41 60.5t80 68.5l88 69h156zM793 -31q-305 0 -485.5 179t-180.5 481q0 239 109.5 430t305 298t441.5 107q285 0 487 -164l-98 -133q-192 138 -407 138q-188 0 -340.5 -87
t-239 -240t-86.5 -341q0 -238 136 -373t374 -135q103 0 198.5 30.5t202.5 98.5l86 -133q-238 -156 -503 -156z" />
    <glyph glyph-name="ccaron" unicode="&#x10d;" horiz-adv-x="1009" 
d="M571 1118l-180 312l2 4h123l80 -131q49 -77 53 -121h6q13 27 32 50t67 71l131 131h147l-2 -4l-299 -312h-160zM561 -31q-219 0 -352 129t-133 342q0 237 154.5 387t398.5 150q205 0 372 -123l-86 -121q-136 103 -294 103q-167 0 -277.5 -111.5t-110.5 -280.5
q0 -148 92 -240.5t238 -92.5q122 0 258 77l66 -127q-159 -92 -326 -92z" />
    <glyph glyph-name="Dcaron" unicode="&#x10e;" horiz-adv-x="1431" 
d="M1161 1767l-2 -8l-282 -237h-168l-191 237l2 8h135l64 -69q39 -42 54 -68.5t18 -60.5h6q17 35 41 60.5t80 68.5l88 69h155zM70 0l278 1434h430q286 0 454.5 -168.5t168.5 -452.5q0 -242 -110.5 -426.5t-313 -285.5t-467.5 -101h-440zM254 143q21 7 53 7h238
q198 0 354.5 84t244 235t87.5 342q0 221 -125 347t-342 126h-236q-33 0 -51 6l-4 -2q2 -13 -4 -51l-201 -1040q-9 -38 -16 -52z" />
    <glyph glyph-name="dcaron" unicode="&#x10f;" horiz-adv-x="1402" 
d="M1450 1495h154l-230 -397h-71zM494 -31q-189 0 -305.5 125t-116.5 326q0 240 150 398.5t378 158.5q151 0 249 -69.5t132 -200.5l6 2q0 71 31 237l102 518h148l-285 -1464h-145q24 122 53 211l-4 2q-55 -115 -158.5 -179.5t-234.5 -64.5zM537 111q174 0 290.5 119.5
t116.5 299.5q0 143 -85 224.5t-234 81.5q-175 0 -286.5 -116t-111.5 -300q0 -142 83.5 -225.5t226.5 -83.5z" />
    <glyph glyph-name="Dcroat" unicode="&#x110;" horiz-adv-x="1390" 
d="M864 1434q286 0 454.5 -165.5t168.5 -457.5q0 -243 -113.5 -428t-315.5 -284t-464 -99h-438l118 612q6 34 15 52l-2 2q-25 -7 -54 -7h-196l26 144h197q39 0 51 -6l4 4q-2 12 4 49l27 129l88 455h430zM631 150q113 0 216 29t188.5 86t148.5 135.5t98 183.5t35 225
q0 227 -127.5 351t-339.5 124h-236q-33 0 -51 6l-4 -2q2 -14 -4 -51l-49 -258l-27 -129q-5 -31 -16 -49l2 -4q14 6 53 6h373l-27 -144h-372q-31 0 -52 7l-4 -2q3 -21 -2 -52l-80 -415q-4 -21 -16 -52l2 -2q24 7 53 7h238z" />
    <glyph glyph-name="dcroat" unicode="&#x111;" horiz-adv-x="1218" 
d="M1278 1268h86l-21 -97h-83q-35 0 -56 9l-2 -2q6 -24 0 -54l-18 -88l-201 -1036h-145q25 133 53 211l-4 2q-56 -117 -160.5 -180.5t-232.5 -63.5q-186 0 -304 123.5t-118 327.5q0 155 66.5 282t188 201t273.5 74q151 0 248 -69.5t133 -198.5l8 2q-3 69 29 235l16 90l19 88
q9 39 20 54l-2 2q-24 -9 -57 -9h-287l21 97h284q37 0 53 -8l5 2q-6 20 0 55l30 147h148l-29 -147q-8 -39 -18 -55v-2q19 8 57 8zM537 111q174 0 290.5 120.5t116.5 298.5q0 140 -84 223t-235 83q-180 0 -289 -118.5t-109 -297.5q0 -142 83.5 -225.5t226.5 -83.5z" />
    <glyph glyph-name="Emacron" unicode="&#x112;" horiz-adv-x="1052" 
d="M537 1677h581l-22 -106h-580zM1149 1434l-29 -150h-592q-33 0 -51 6l-4 -2q4 -22 -4 -51l-63 -330q-6 -31 -17 -49l4 -4q14 6 53 6h527l-29 -147h-526q-39 0 -51 6l-5 -4q3 -13 -4 -51l-90 -467q-11 -42 -16 -52l2 -2q24 7 53 7h600l-28 -150h-809l278 1434h801z" />
    <glyph glyph-name="emacron" unicode="&#x113;" horiz-adv-x="1110" 
d="M1020 1364l-23 -113h-579l22 113h580zM526 -31q-214 0 -335 117t-121 326q0 246 158 405.5t401 159.5q195 0 307.5 -103t112.5 -282q0 -58 -19 -143h-706q-74 0 -101 12l-4 -2l2 -17q0 -10 -1 -26t-1 -21q0 -134 81.5 -209t227.5 -75q100 0 184.5 37.5t174.5 123.5
l92 -108q-109 -103 -216 -149t-237 -46zM240 549q27 16 90 16h473q64 0 96 -14l4 2q-2 10 -2 35q0 123 -74 190.5t-209 67.5q-139 0 -244 -81.5t-136 -213.5z" />
    <glyph glyph-name="Ebreve" unicode="&#x114;" horiz-adv-x="1052" 
d="M801 1520q-113 0 -176.5 52t-63.5 146q0 25 2 39h113q0 -5 -1 -16t-1 -15q0 -48 36 -74t103 -26q154 0 199 131h112q-26 -112 -112 -174.5t-211 -62.5zM1149 1434l-29 -150h-592q-33 0 -51 6l-4 -2q4 -22 -4 -51l-63 -330q-6 -31 -17 -49l4 -4q14 6 53 6h527l-29 -147
h-526q-39 0 -51 6l-5 -4q3 -13 -4 -51l-90 -467q-11 -42 -16 -52l2 -2q24 7 53 7h600l-28 -150h-809l278 1434h801z" />
    <glyph glyph-name="ebreve" unicode="&#x115;" horiz-adv-x="1110" 
d="M694 1147q-114 0 -179.5 58.5t-65.5 164.5q0 37 8 70h106q-4 -36 -4 -49q0 -70 36.5 -106t104.5 -36q78 0 133.5 49t75.5 142h109q-26 -144 -110.5 -218.5t-213.5 -74.5zM526 -31q-214 0 -335 117t-121 326q0 246 158 405.5t401 159.5q195 0 307.5 -103t112.5 -282
q0 -58 -19 -143h-706q-74 0 -101 12l-4 -2l2 -17q0 -10 -1 -26t-1 -21q0 -134 81.5 -209t227.5 -75q100 0 184.5 37.5t174.5 123.5l92 -108q-109 -103 -216 -149t-237 -46zM240 549q27 16 90 16h473q64 0 96 -14l4 2q-2 10 -2 35q0 123 -74 190.5t-209 67.5
q-139 0 -244 -81.5t-136 -213.5z" />
    <glyph glyph-name="Edotaccent" unicode="&#x116;" horiz-adv-x="1052" 
d="M922 1749l-45 -229h-156l45 229h156zM1149 1434l-29 -150h-592q-33 0 -51 6l-4 -2q4 -22 -4 -51l-63 -330q-6 -31 -17 -49l4 -4q14 6 53 6h527l-29 -147h-526q-39 0 -51 6l-5 -4q3 -13 -4 -51l-90 -467q-11 -42 -16 -52l2 -2q24 7 53 7h600l-28 -150h-809l278 1434h801z
" />
    <glyph glyph-name="edotaccent" unicode="&#x117;" horiz-adv-x="1110" 
d="M829 1434l-53 -269h-168l54 269h167zM526 -31q-214 0 -335 117t-121 326q0 246 158 405.5t401 159.5q195 0 307.5 -103t112.5 -282q0 -58 -19 -143h-706q-74 0 -101 12l-4 -2l2 -17q0 -10 -1 -26t-1 -21q0 -134 81.5 -209t227.5 -75q100 0 184.5 37.5t174.5 123.5
l92 -108q-109 -103 -216 -149t-237 -46zM240 549q27 16 90 16h473q64 0 96 -14l4 2q-2 10 -2 35q0 123 -74 190.5t-209 67.5q-139 0 -244 -81.5t-136 -213.5z" />
    <glyph glyph-name="Eogonek" unicode="&#x118;" horiz-adv-x="1052" 
d="M528 1284q-33 0 -51 6l-4 -2q4 -22 -4 -51l-63 -330q-6 -31 -17 -49l4 -4q14 6 53 6h527l-29 -147h-526q-39 0 -51 6l-5 -4q3 -13 -4 -51l-90 -467q-11 -42 -16 -52l2 -2q24 7 53 7h600l-28 -150h-82q-117 -78 -170.5 -131.5t-53.5 -97.5q0 -54 74 -54q48 0 98 13l5 -95
q-75 -22 -142 -22q-70 0 -110.5 33t-40.5 90q0 67 53.5 129t163.5 135h-604l278 1434h801l-29 -150h-592z" />
    <glyph glyph-name="eogonek" unicode="&#x119;" horiz-adv-x="1110" 
d="M324 449q-74 0 -101 12l-4 -2l2 -17q0 -10 -1 -26t-1 -21q0 -134 81.5 -209t227.5 -75q100 0 184.5 37.5t174.5 123.5l92 -108q-118 -112 -229 -156q-123 -82 -179.5 -137t-56.5 -100q0 -54 74 -54q48 0 98 13l4 -95q-75 -22 -141 -22q-70 0 -111 33t-41 90
q0 61 42.5 115.5t131.5 117.5h-45q-214 0 -335 117t-121 326q0 246 158 405.5t401 159.5q195 0 307.5 -103t112.5 -282q0 -58 -19 -143h-706zM618 846q-139 0 -244 -81.5t-136 -213.5l2 -2q27 16 90 16h473q64 0 96 -14l4 2q-2 10 -2 35q0 123 -74 190.5t-209 67.5z" />
    <glyph glyph-name="Ecaron" unicode="&#x11a;" horiz-adv-x="1052" 
d="M1167 1767l-2 -8l-282 -237h-168l-191 237l2 8h136l63 -69q39 -42 54 -68.5t18 -60.5h6q17 35 41 60.5t80 68.5l88 69h155zM1149 1434l-29 -150h-592q-33 0 -51 6l-4 -2q4 -22 -4 -51l-63 -330q-6 -31 -17 -49l4 -4q14 6 53 6h527l-29 -147h-526q-39 0 -51 6l-5 -4
q3 -13 -4 -51l-90 -467q-11 -42 -16 -52l2 -2q24 7 53 7h600l-28 -150h-809l278 1434h801z" />
    <glyph glyph-name="ecaron" unicode="&#x11b;" horiz-adv-x="1110" 
d="M604 1118l-180 312l2 4h123l80 -131q49 -77 53 -121h6q13 28 32 51t66 70l132 131h147l-2 -4l-299 -312h-160zM526 -31q-214 0 -335 117t-121 326q0 246 158 405.5t401 159.5q195 0 307.5 -103t112.5 -282q0 -58 -19 -143h-706q-74 0 -101 12l-4 -2l2 -17q0 -10 -1 -26
t-1 -21q0 -134 81.5 -209t227.5 -75q100 0 184.5 37.5t174.5 123.5l92 -108q-109 -103 -216 -149t-237 -46zM240 549q27 16 90 16h473q64 0 96 -14l4 2q-2 10 -2 35q0 123 -74 190.5t-209 67.5q-139 0 -244 -81.5t-136 -213.5z" />
    <glyph glyph-name="Gcircumflex" unicode="&#x11c;" horiz-adv-x="1650" 
d="M684 1522l2 8l283 237h168l190 -237l-2 -8h-135l-62 69q-39 46 -53.5 71t-17.5 58h-6q-18 -36 -42 -62t-79 -67l-92 -69h-154zM829 -29q-322 0 -510 181t-188 489q0 237 108 424.5t301 292t437 104.5q328 0 567 -205l-121 -124q-198 170 -462 170q-143 0 -266 -49.5
t-209.5 -136t-135.5 -208.5t-49 -264q0 -242 141 -378t389 -136q241 0 404 136t205 366l-4 2q-54 -21 -144 -21h-403l29 150h718l-14 -76q-60 -340 -267 -528.5t-526 -188.5z" />
    <glyph glyph-name="gcircumflex" unicode="&#x11d;" horiz-adv-x="1206" 
d="M811 1448l180 -311l-2 -4h-125l-80 133q-30 48 -40 69.5t-11 50.5h-6q-14 -29 -32.5 -51t-67.5 -69l-131 -133h-146v4l301 311h160zM455 -440q-277 0 -463 145l96 125q94 -66 182.5 -96.5t190.5 -30.5q162 0 252.5 74t124.5 233q30 138 44 174q4 12 11 27l-6 2
q-56 -116 -159.5 -180t-235.5 -64q-187 0 -303.5 125t-116.5 326q0 240 151 398.5t379 158.5q150 0 248 -69t133 -199l6 2q-3 81 31 235h147l-184 -944q-43 -226 -172 -334t-356 -108zM537 111q173 0 290 119.5t117 297.5q0 144 -84.5 226t-232.5 82q-172 0 -286 -118
t-114 -298q0 -141 84.5 -225t225.5 -84z" />
    <glyph glyph-name="Gbreve" unicode="&#x11e;" horiz-adv-x="1650" 
d="M1010 1520q-113 0 -176.5 52t-63.5 146q0 25 2 39h113q0 -5 -1 -16t-1 -15q0 -48 36 -74t103 -26q154 0 199 131h112q-26 -112 -112 -174.5t-211 -62.5zM829 -29q-322 0 -510 181t-188 489q0 237 108 424.5t301 292t437 104.5q328 0 567 -205l-121 -124
q-198 170 -462 170q-143 0 -266 -49.5t-209.5 -136t-135.5 -208.5t-49 -264q0 -242 141 -378t389 -136q241 0 404 136t205 366l-4 2q-54 -21 -144 -21h-403l29 150h718l-14 -76q-60 -340 -267 -528.5t-526 -188.5z" />
    <glyph glyph-name="gbreve" unicode="&#x11f;" horiz-adv-x="1206" 
d="M690 1147q-114 0 -180 58.5t-66 164.5q0 32 9 70h106q-4 -36 -4 -49q0 -70 36.5 -106t104.5 -36q78 0 133.5 49t75.5 142h109q-26 -144 -110.5 -218.5t-213.5 -74.5zM455 -440q-277 0 -463 145l96 125q94 -66 182.5 -96.5t190.5 -30.5q162 0 252.5 74t124.5 233
q30 138 44 174q4 12 11 27l-6 2q-56 -116 -159.5 -180t-235.5 -64q-187 0 -303.5 125t-116.5 326q0 240 151 398.5t379 158.5q150 0 248 -69t133 -199l6 2q-3 81 31 235h147l-184 -944q-43 -226 -172 -334t-356 -108zM537 111q173 0 290 119.5t117 297.5q0 144 -84.5 226
t-232.5 82q-172 0 -286 -118t-114 -298q0 -141 84.5 -225t225.5 -84z" />
    <glyph glyph-name="Gdotaccent" unicode="&#x120;" horiz-adv-x="1650" 
d="M1128 1749l-45 -229h-155l45 229h155zM829 -29q-322 0 -510 181t-188 489q0 237 108 424.5t301 292t437 104.5q328 0 567 -205l-121 -124q-198 170 -462 170q-143 0 -266 -49.5t-209.5 -136t-135.5 -208.5t-49 -264q0 -242 141 -378t389 -136q241 0 404 136t205 366l-4 2
q-54 -21 -144 -21h-403l29 150h718l-14 -76q-60 -340 -267 -528.5t-526 -188.5z" />
    <glyph glyph-name="gdotaccent" unicode="&#x121;" horiz-adv-x="1206" 
d="M825 1434l-53 -269h-168l53 269h168zM455 -440q-277 0 -463 145l96 125q94 -66 182.5 -96.5t190.5 -30.5q162 0 252.5 74t124.5 233q30 138 44 174q4 12 11 27l-6 2q-56 -116 -159.5 -180t-235.5 -64q-187 0 -303.5 125t-116.5 326q0 240 151 398.5t379 158.5
q150 0 248 -69t133 -199l6 2q-3 81 31 235h147l-184 -944q-43 -226 -172 -334t-356 -108zM537 111q173 0 290 119.5t117 297.5q0 144 -84.5 226t-232.5 82q-172 0 -286 -118t-114 -298q0 -141 84.5 -225t225.5 -84z" />
    <glyph glyph-name="Gcommaaccent" unicode="&#x122;" horiz-adv-x="1650" 
d="M829 -29q-322 0 -510 181t-188 489q0 237 108 424.5t301 292t437 104.5q328 0 567 -205l-121 -124q-198 170 -462 170q-143 0 -266 -49.5t-209.5 -136t-135.5 -208.5t-49 -264q0 -242 141 -378t389 -136q241 0 404 136t205 366l-4 2q-54 -21 -144 -21h-403l29 150h718
l-14 -76q-60 -340 -267 -528.5t-526 -188.5zM858 -104l-209 -336h-86l137 336h158z" />
    <glyph glyph-name="gcommaaccent" unicode="&#x123;" horiz-adv-x="1191" 
d="M770 1133h-164l221 323h84zM455 -440q-277 0 -463 145l96 125q94 -66 182.5 -96.5t190.5 -30.5q162 0 252.5 74t124.5 233q30 138 44 174q4 12 11 27l-6 2q-56 -116 -159.5 -180t-235.5 -64q-187 0 -303.5 125t-116.5 326q0 240 151 398.5t379 158.5q150 0 248 -69
t133 -199l6 2q-3 81 31 235h147l-184 -944q-43 -226 -172 -334t-356 -108zM537 111q173 0 290 119.5t117 297.5q0 144 -84.5 226t-232.5 82q-172 0 -286 -118t-114 -298q0 -141 84.5 -225t225.5 -84z" />
    <glyph glyph-name="Hcircumflex" unicode="&#x124;" horiz-adv-x="1431" 
d="M600 1522l2 8l283 237h168l192 -237l-2 -8h-137l-59 69q-41 46 -56 71t-16 58h-8q-18 -36 -42 -62t-79 -67l-90 -69h-156zM1466 1434l-278 -1434h-162l125 641q7 33 16 49l-2 4q-16 -6 -55 -6h-696q-39 0 -49 6l-5 -4q3 -14 -4 -49l-125 -641h-161l278 1434h162
l-107 -549q-8 -39 -14 -49l2 -5q16 7 53 7h697q35 0 51 -7l4 5q-4 20 2 49l107 549h161z" />
    <glyph glyph-name="hcircumflex" unicode="&#x125;" horiz-adv-x="1126" 
d="M104 1522l2 8l283 237h168l191 -237l-3 -8h-135l-61 69q-40 47 -54.5 71.5t-17.5 57.5h-6q-18 -36 -42 -62t-79 -67l-92 -69h-154zM487 1464l-106 -538q-27 -142 -62 -224l9 -4q67 144 162.5 211.5t230.5 67.5q149 0 227 -79.5t78 -231.5q0 -68 -18 -158l-101 -508h-149
l100 512q12 53 12 111q0 104 -55.5 160.5t-159.5 56.5q-142 0 -236 -102.5t-132 -299.5l-84 -438h-150l285 1464h149z" />
    <glyph glyph-name="Hbar" unicode="&#x126;" horiz-adv-x="1460" 
d="M59 0l197 1012q7 35 14 49l-2 2q-20 -4 -45 -4h-100l27 137h100q35 0 43 -4l4 2q-3 16 4 49l37 191h158l-37 -191q-6 -32 -15 -49l2 -2q12 4 48 4h716q35 0 43 -4l7 2q-4 21 2 49l38 191h156l-37 -191q-7 -35 -14 -49l2 -2q12 4 45 4h102l-26 -137h-101q-25 0 -45 4
l-2 -2q2 -10 -6 -49l-196 -1012h-156l123 643q6 34 16 49l-4 2q-10 -4 -47 -4h-715q-37 0 -45 4l-4 -2q2 -13 -4 -49l-125 -643h-158zM377 831q17 7 47 7h715q31 0 45 -7l4 5q-3 14 4 47l27 129q7 35 14 49l-4 2q-20 -4 -45 -4h-717q-25 0 -45 4l-4 -2q3 -16 -4 -49
l-25 -129q-7 -36 -14 -47z" />
    <glyph glyph-name="hbar" unicode="&#x127;" horiz-adv-x="1124" 
d="M717 977q151 0 229 -79.5t78 -231.5q0 -53 -18 -158l-101 -508h-149l100 512q12 53 12 111q0 104 -56.5 160.5t-160.5 56.5q-141 0 -234.5 -102.5t-131.5 -299.5l-84 -438h-150l185 946l34 178q7 35 19 54v2q-20 -9 -58 -9h-86l19 97h86q39 0 53 -8l2 2q-5 20 2 55
l29 147h149l-30 -147q-7 -36 -19 -55v-2q18 8 60 8h284l-18 -97h-285q-39 0 -55 9l-2 -2q6 -24 0 -54l-35 -178l-8 -39q-22 -123 -62 -217l9 -2q66 149 162 219t231 70z" />
    <glyph glyph-name="Itilde" unicode="&#x128;" horiz-adv-x="485" 
d="M633 1528q-52 0 -112.5 25t-113.5 50t-88 25q-64 0 -122 -86l-66 23q17 38 34 66.5t43.5 60t63 48.5t80.5 17q52 0 112 -25t113 -50t89 -25q61 0 120 86l68 -23q-17 -38 -34 -66.5t-43.5 -60t-63 -48.5t-80.5 -17zM510 1434l-279 -1434h-161l278 1434h162z" />
    <glyph glyph-name="itilde" unicode="&#x129;" horiz-adv-x="432" 
d="M287 1430q34 0 68.5 -18t58 -39.5t50 -39.5t46.5 -18q23 0 44 22t46 68l64 -25q-76 -188 -191 -188q-34 0 -68.5 17.5t-58 39t-50 39t-46.5 17.5q-25 0 -46 -21.5t-46 -66.5l-62 22q74 191 191 191zM383 946l-184 -946h-150l184 946h150z" />
    <glyph glyph-name="Imacron" unicode="&#x12a;" horiz-adv-x="485" 
d="M184 1677h582l-23 -106h-579zM510 1434l-279 -1434h-161l278 1434h162z" />
    <glyph glyph-name="imacron" unicode="&#x12b;" horiz-adv-x="432" 
d="M588 1356l-23 -111h-415l22 111h416zM383 946l-184 -946h-150l184 946h150z" />
    <glyph glyph-name="Ibreve" unicode="&#x12c;" horiz-adv-x="485" 
d="M449 1520q-113 0 -176.5 52t-63.5 146q0 25 2 39h113q0 -5 -1 -16t-1 -15q0 -48 36 -74t103 -26q153 0 198 131h113q-26 -112 -112 -174.5t-211 -62.5zM510 1434l-279 -1434h-161l278 1434h162z" />
    <glyph glyph-name="ibreve" unicode="&#x12d;" horiz-adv-x="432" 
d="M354 1147q-92 0 -143 56t-51 157q0 41 8 80h106q-6 -38 -6 -70q0 -121 92 -121q57 0 88.5 45.5t45.5 145.5h108q-37 -293 -248 -293zM383 946l-184 -946h-150l184 946h150z" />
    <glyph glyph-name="Iogonek" unicode="&#x12e;" horiz-adv-x="485" 
d="M160 0q-118 -79 -172 -132t-54 -97q0 -54 76 -54q49 0 99 13l4 -95q-75 -22 -142 -22q-70 0 -110.5 33t-40.5 90q0 73 62 139t194 150l272 1409h162l-279 -1434h-71z" />
    <glyph glyph-name="iogonek" unicode="&#x12f;" horiz-adv-x="432" 
d="M315 1434h168l-53 -269h-168zM57 41l176 905h150l-184 -946h-82q-118 -79 -172 -132t-54 -97q0 -54 76 -54q49 0 99 13l4 -95q-75 -22 -142 -22q-70 0 -110.5 33t-40.5 90q0 77 66.5 145t213.5 160z" />
    <glyph glyph-name="Idotaccent" unicode="&#x130;" horiz-adv-x="485" 
d="M569 1749l-45 -229h-155l45 229h155zM510 1434l-279 -1434h-161l278 1434h162z" />
    <glyph glyph-name="dotlessi" unicode="&#x131;" horiz-adv-x="432" 
d="M383 946l-184 -946h-150l184 946h150z" />
    <glyph glyph-name="IJ" unicode="&#x132;" horiz-adv-x="1073" 
d="M510 1434l-279 -1434h-161l278 1434h162zM1096 1434l-222 -1141q-30 -164 -111 -233.5t-235 -69.5q-32 0 -84 6l29 149q23 -2 72 -2q73 0 114.5 39t61.5 131l217 1121h158z" />
    <glyph glyph-name="ij" unicode="&#x133;" horiz-adv-x="864" 
d="M483 1434l-53 -269h-168l53 269h168zM915 1434l-53 -269h-168l54 269h167zM383 946l-184 -946h-150l184 946h150zM815 946l-207 -1069q-33 -168 -125.5 -242.5t-251.5 -74.5h-28l28 145h19q92 0 142 44.5t71 154.5l203 1042h149z" />
    <glyph glyph-name="Jcircumflex" unicode="&#x134;" horiz-adv-x="587" 
d="M223 1522l2 8l283 237h168l190 -237l-2 -8h-135l-61 69q-40 47 -54.5 71.5t-17.5 57.5h-6q-18 -36 -42 -62t-79 -67l-92 -69h-154zM610 1434l-221 -1141q-30 -164 -111 -233.5t-235 -69.5q-32 0 -84 6l29 149q23 -2 71 -2q73 0 115 39t62 131l217 1121h157z" />
    <glyph glyph-name="jcircumflex" unicode="&#x135;" horiz-adv-x="432" 
d="M473 1448l82 -311v-4h-109l-32 133q-17 88 -19 120h-4q-16 -41 -65 -120l-86 -133h-129v4l211 311h151zM383 946l-207 -1069q-33 -168 -125.5 -242.5t-251.5 -74.5h-28l28 145h19q92 0 142 44.5t71 154.5l202 1042h150z" />
    <glyph glyph-name="Kcommaaccent" unicode="&#x136;" horiz-adv-x="1224" 
d="M1331 1434l-612 -541q-80 -70 -182 -145l-2 -7q19 -14 38 -35t48.5 -60.5t40.5 -53.5l446 -592h-201l-542 741l-7 -2q-3 -94 -32 -241l-97 -498h-159l278 1434h160l-80 -410q-33 -168 -61 -242l6 -2l727 654h231zM600 -104l-209 -336h-86l137 336h158z" />
    <glyph glyph-name="kcommaaccent" unicode="&#x137;" horiz-adv-x="942" 
d="M487 1464l-141 -725q-27 -139 -57 -209l6 -2l469 418h211l-426 -364q-71 -59 -115 -82v-4q35 -19 82 -78l326 -418h-189l-366 489l-6 -4q2 -58 -25 -206l-53 -279h-150l285 1464h149zM502 -104l-209 -336h-86l137 336h158z" />
    <glyph glyph-name="kgreenlandic" unicode="&#x138;" horiz-adv-x="942" 
d="M53 0l185 946h149l-41 -207q-27 -139 -57 -209l6 -2l469 418h211l-430 -364q-66 -57 -113 -82v-4q39 -24 82 -78l328 -418h-189l-366 489l-6 -4q2 -58 -25 -206l-53 -279h-150z" />
    <glyph glyph-name="Lacute" unicode="&#x139;" horiz-adv-x="1007" 
d="M807 1747v-6l-295 -219h-106v4l225 221h176zM508 1434l-240 -1235q-5 -31 -16 -52l4 -2q21 7 51 7h611l-29 -152h-819l278 1434h160z" />
    <glyph glyph-name="lacute" unicode="&#x13a;" horiz-adv-x="430" 
d="M768 1747v-6l-295 -219h-104l-2 4l225 221h176zM487 1464l-284 -1464h-150l285 1464h149z" />
    <glyph glyph-name="Lcommaaccent" unicode="&#x13b;" horiz-adv-x="1007" 
d="M508 1434l-240 -1235q-5 -31 -16 -52l4 -2q21 7 51 7h611l-29 -152h-819l278 1434h160zM545 -104l-209 -336h-86l137 336h158z" />
    <glyph glyph-name="lcommaaccent" unicode="&#x13c;" horiz-adv-x="440" 
d="M487 1464l-284 -1464h-150l285 1464h149zM193 -104l-209 -336h-86l137 336h158z" />
    <glyph glyph-name="Lcaron" unicode="&#x13d;" horiz-adv-x="1007" 
d="M885 1495h153l-229 -448h-72zM508 1434l-240 -1235q-5 -31 -16 -52l4 -2q21 7 51 7h611l-29 -152h-819l278 1434h160z" />
    <glyph glyph-name="lcaron" unicode="&#x13e;" horiz-adv-x="604" 
d="M651 1495h154l-230 -397h-73zM487 1464l-284 -1464h-150l285 1464h149z" />
    <glyph glyph-name="Ldot" unicode="&#x13f;" horiz-adv-x="1007" 
d="M508 1434l-240 -1235q-5 -31 -16 -52l4 -2q21 7 51 7h611l-29 -152h-819l278 1434h160zM668 731l43 215h202l-41 -215h-204z" />
    <glyph glyph-name="ldot" unicode="&#x140;" horiz-adv-x="634" 
d="M487 1464l-284 -1464h-150l285 1464h149zM465 731l43 215h203l-41 -215h-205z" />
    <glyph glyph-name="Lslash" unicode="&#x141;" horiz-adv-x="1007" 
d="M70 0l112 582q4 28 27 61l-4 2q-28 -25 -60 -37l-129 -51l23 119l176 67l133 691h160l-113 -580q-8 -38 -28 -63l2 -5q35 30 65 41l371 146l-23 -119l-417 -162l-97 -493q-9 -39 -16 -52l4 -2q18 7 51 7h611l-29 -152h-819z" />
    <glyph glyph-name="lslash" unicode="&#x142;" horiz-adv-x="524" 
d="M96 0l121 623q13 65 35 96l-4 2q-24 -26 -88 -59l-113 -54l23 119l184 88l127 649h147l-94 -495q-8 -39 -14 -54.5t-23 -40.5l2 -2q30 28 90 56l113 53l-20 -119l-189 -88l-149 -774h-148z" />
    <glyph glyph-name="Nacute" unicode="&#x143;" horiz-adv-x="1478" 
d="M1280 1747v-6l-295 -219h-106v4l225 221h176zM369 1454l682 -989q65 -92 84 -160l6 2q-3 88 30 258l170 869h160l-282 -1454h-19l-680 989q-63 88 -82 161l-6 -2q0 -90 -33 -258l-170 -870h-159l282 1454h17z" />
    <glyph glyph-name="nacute" unicode="&#x144;" horiz-adv-x="1122" 
d="M1094 1448l-2 -6l-330 -309h-107l-2 8l252 307h189zM49 0l184 946h150l-8 -39q-19 -123 -62 -217l9 -2q66 149 162 219t233 70q149 0 227 -79.5t78 -231.5q0 -68 -18 -158l-101 -508h-149l100 512q12 53 12 111q0 104 -55.5 160.5t-159.5 56.5q-142 0 -236 -102.5
t-132 -299.5l-84 -438h-150z" />
    <glyph glyph-name="Ncommaaccent" unicode="&#x145;" horiz-adv-x="1478" 
d="M369 1454l682 -989q65 -92 84 -160l6 2q-3 88 30 258l170 869h160l-282 -1454h-19l-680 989q-63 88 -82 161l-6 -2q0 -90 -33 -258l-170 -870h-159l282 1454h17zM745 -104l-208 -336h-86l137 336h157z" />
    <glyph glyph-name="ncommaaccent" unicode="&#x146;" horiz-adv-x="1122" 
d="M49 0l184 946h150l-8 -39q-19 -123 -62 -217l9 -2q66 149 162 219t233 70q149 0 227 -79.5t78 -231.5q0 -68 -18 -158l-101 -508h-149l100 512q12 53 12 111q0 104 -55.5 160.5t-159.5 56.5q-142 0 -236 -102.5t-132 -299.5l-84 -438h-150zM537 -104l-209 -336h-86
l137 336h158z" />
    <glyph glyph-name="Ncaron" unicode="&#x147;" horiz-adv-x="1478" 
d="M1298 1767l-2 -8l-282 -237h-168l-191 237l2 8h136l63 -69q39 -42 54 -68.5t18 -60.5h6q17 35 41 60.5t80 68.5l88 69h155zM369 1454l682 -989q65 -92 84 -160l6 2q-3 88 30 258l170 869h160l-282 -1454h-19l-680 989q-63 88 -82 161l-6 -2q0 -90 -33 -258l-170 -870
h-159l282 1454h17z" />
    <glyph glyph-name="ncaron" unicode="&#x148;" horiz-adv-x="1122" 
d="M623 1118l-181 312l2 4h123l80 -131q49 -77 53 -121h7q13 28 32 51t66 70l131 131h147l-2 -4l-299 -312h-159zM49 0l184 946h150l-8 -39q-19 -123 -62 -217l9 -2q66 149 162 219t233 70q149 0 227 -79.5t78 -231.5q0 -68 -18 -158l-101 -508h-149l100 512q12 53 12 111
q0 104 -55.5 160.5t-159.5 56.5q-142 0 -236 -102.5t-132 -299.5l-84 -438h-150z" />
    <glyph glyph-name="napostrophe" unicode="&#x149;" horiz-adv-x="1122" 
d="M240 1495h153l-229 -448h-72zM49 0l184 946h150l-8 -39q-19 -123 -62 -217l9 -2q66 149 162 219t233 70q149 0 227 -79.5t78 -231.5q0 -68 -18 -158l-101 -508h-149l100 512q12 53 12 111q0 104 -55.5 160.5t-159.5 56.5q-142 0 -236 -102.5t-132 -299.5l-84 -438h-150z
" />
    <glyph glyph-name="Eng" unicode="&#x14a;" horiz-adv-x="1478" 
d="M1501 1434l-282 -1454h-9l-8 -37q-36 -191 -127 -272t-252 -81h-94l31 160h94q153 0 193 193l38 204l-565 822q-63 88 -82 161l-6 -2q0 -90 -33 -258l-170 -870h-159l282 1454h17l682 -989q65 -92 84 -160l6 2q-3 88 30 258l170 869h160z" />
    <glyph glyph-name="eng" unicode="&#x14b;" horiz-adv-x="1122" 
d="M717 977q149 0 227 -79.5t78 -231.5q0 -68 -18 -158l-101 -508l-24 -131q-31 -156 -112 -219.5t-214 -63.5h-98l26 138h82q72 0 111.5 36t56.5 121l23 119l100 512q12 53 12 111q0 104 -55.5 160.5t-159.5 56.5q-142 0 -236 -102.5t-132 -299.5l-84 -438h-150l184 946
h150l-8 -39q-19 -123 -62 -217l9 -2q66 149 162 219t233 70z" />
    <glyph glyph-name="Omacron" unicode="&#x14c;" horiz-adv-x="1710" 
d="M733 1677h582l-23 -106h-579zM840 -31q-321 0 -515 186t-194 494q0 173 63.5 324.5t173.5 259t265 169.5t332 62q321 0 514.5 -186t193.5 -494q0 -231 -107.5 -417.5t-298.5 -292t-427 -105.5zM846 127q288 0 472.5 188t184.5 480q0 229 -149.5 370.5t-392.5 141.5
q-190 0 -341 -85.5t-235 -238t-84 -344.5q0 -229 151 -370.5t394 -141.5z" />
    <glyph glyph-name="omacron" unicode="&#x14d;" horiz-adv-x="1169" 
d="M1024 1364l-23 -113h-579l22 113h580zM532 -31q-213 0 -337.5 120.5t-124.5 324.5q0 119 43 223.5t117.5 179t179.5 117.5t225 43q215 0 340 -120.5t125 -324.5q0 -241 -162.5 -402t-405.5 -161zM547 115q170 0 284.5 118t114.5 295q0 140 -86.5 221.5t-236.5 81.5
q-171 0 -285.5 -118t-114.5 -295q0 -140 87 -221.5t237 -81.5z" />
    <glyph glyph-name="Obreve" unicode="&#x14e;" horiz-adv-x="1710" 
d="M997 1520q-113 0 -176 52t-63 146q0 25 2 39h112q0 -5 -1 -16t-1 -15q0 -47 36.5 -73.5t103.5 -26.5q153 0 198 131h113q-26 -112 -112.5 -174.5t-211.5 -62.5zM840 -31q-321 0 -515 186t-194 494q0 173 63.5 324.5t173.5 259t265 169.5t332 62q321 0 514.5 -186
t193.5 -494q0 -231 -107.5 -417.5t-298.5 -292t-427 -105.5zM846 127q288 0 472.5 188t184.5 480q0 229 -149.5 370.5t-392.5 141.5q-190 0 -341 -85.5t-235 -238t-84 -344.5q0 -229 151 -370.5t394 -141.5z" />
    <glyph glyph-name="obreve" unicode="&#x14f;" horiz-adv-x="1169" 
d="M698 1147q-114 0 -179.5 58.5t-65.5 164.5q0 37 8 70h106q-4 -36 -4 -49q0 -70 37 -106t105 -36q78 0 133 49t75 142h109q-26 -144 -110.5 -218.5t-213.5 -74.5zM532 -31q-213 0 -337.5 120.5t-124.5 324.5q0 119 43 223.5t117.5 179t179.5 117.5t225 43
q215 0 340 -120.5t125 -324.5q0 -241 -162.5 -402t-405.5 -161zM547 115q170 0 284.5 118t114.5 295q0 140 -86.5 221.5t-236.5 81.5q-171 0 -285.5 -118t-114.5 -295q0 -140 87 -221.5t237 -81.5z" />
    <glyph glyph-name="Ohungarumlaut" unicode="&#x150;" horiz-adv-x="1710" 
d="M1202 1747v-6l-246 -219h-110v4l235 221h121zM1059 1526l235 221h121v-6l-246 -219h-108zM840 -31q-321 0 -515 186t-194 494q0 173 63.5 324.5t173.5 259t265 169.5t332 62q321 0 514.5 -186t193.5 -494q0 -231 -107.5 -417.5t-298.5 -292t-427 -105.5zM846 127
q288 0 472.5 188t184.5 480q0 229 -149.5 370.5t-392.5 141.5q-190 0 -341 -85.5t-235 -238t-84 -344.5q0 -229 151 -370.5t394 -141.5z" />
    <glyph glyph-name="ohungarumlaut" unicode="&#x151;" horiz-adv-x="1169" 
d="M520 1133l-2 4l281 311h127v-4l-289 -311h-117zM741 1133l-2 4l279 311h129v-4l-291 -311h-115zM532 -31q-213 0 -337.5 120.5t-124.5 324.5q0 119 43 223.5t117.5 179t179.5 117.5t225 43q215 0 340 -120.5t125 -324.5q0 -241 -162.5 -402t-405.5 -161zM547 115
q170 0 284.5 118t114.5 295q0 140 -86.5 221.5t-236.5 81.5q-171 0 -285.5 -118t-114.5 -295q0 -140 87 -221.5t237 -81.5z" />
    <glyph glyph-name="OE" unicode="&#x152;" horiz-adv-x="2316" 
d="M829 -31q-161 0 -292.5 50t-220.5 139.5t-137 214.5t-48 274q0 168 61 317t169.5 260t270 175.5t351.5 64.5q426 0 573 -346l5 2q0 43 10 101l41 213h798l-28 -150h-590q-31 0 -49 6l-6 -2q4 -22 -4 -51l-62 -330q-5 -26 -16 -49l2 -4q14 6 53 6h528l-28 -147h-527
q-39 0 -53 6l-2 -4q3 -13 -4 -51l-90 -467q-6 -27 -16 -52l2 -2q24 7 53 7h598l-29 -150h-807l23 111q11 64 31 114l-5 2q-85 -123 -226.5 -190.5t-328.5 -67.5zM834 131q197 0 349.5 86.5t234 235.5t81.5 335q0 245 -146.5 381t-385.5 136q-151 0 -278 -54.5t-211 -147
t-130.5 -212t-46.5 -250.5q0 -232 142 -371t391 -139z" />
    <glyph glyph-name="oe" unicode="&#x153;" horiz-adv-x="1964" 
d="M532 -31q-211 0 -336.5 119t-125.5 324q0 158 71.5 287t201 203.5t290.5 74.5q149 0 260.5 -65t150.5 -183h5q60 117 175.5 182.5t264.5 65.5q194 0 303 -106t109 -279q0 -54 -21 -143h-688q-70 0 -100 12l-5 -2l3 -17q-3 -24 -3 -47q0 -134 80.5 -209t225.5 -75
q102 0 183 40t165 121l94 -108q-104 -98 -206 -146.5t-238 -48.5q-301 0 -402 250h-4q-153 -250 -453 -250zM1108 549q27 16 90 16h457q69 0 94 -14l4 2q-1 4 -1 10t0.5 13.5t0.5 11.5q0 122 -72 190t-206 68q-76 0 -140.5 -24t-109 -66t-74.5 -93.5t-45 -111.5zM543 115
q176 0 288.5 119.5t112.5 291.5q0 142 -86 223.5t-233 81.5q-177 0 -289.5 -119.5t-112.5 -291.5q0 -142 86.5 -223.5t233.5 -81.5z" />
    <glyph glyph-name="Racute" unicode="&#x154;" horiz-adv-x="1193" 
d="M1100 1747v-6l-295 -219h-107v4l226 221h176zM758 1434q194 0 301.5 -93t107.5 -256q0 -183 -124.5 -294t-329.5 -111q-35 0 -76 8l-2 -2q62 -41 106 -113l338 -573h-188l-395 672h-88q-38 0 -50 6l-4 -4q3 -20 -4 -51l-121 -623h-159l278 1434h410zM477 1290l-4 -2
q1 -6 -4 -51l-70 -367q-10 -41 -16 -51l4 -4q13 8 51 8h267q135 0 212.5 67.5t77.5 184.5q0 100 -61.5 154.5t-175.5 54.5h-230q-33 0 -51 6z" />
    <glyph glyph-name="racute" unicode="&#x155;" horiz-adv-x="690" 
d="M885 1448l-2 -6l-330 -309h-107l-2 8l252 307h189zM49 0l184 946h150q-34 -169 -78 -287l10 -2q61 168 152.5 243t232.5 75q36 0 56 -2l-33 -170q-55 6 -80 6q-137 0 -234.5 -111t-134.5 -307l-75 -391h-150z" />
    <glyph glyph-name="Rcommaaccent" unicode="&#x156;" horiz-adv-x="1193" 
d="M758 1434q194 0 301.5 -93t107.5 -256q0 -183 -124.5 -294t-329.5 -111q-35 0 -76 8l-2 -2q62 -41 106 -113l338 -573h-188l-395 672h-88q-38 0 -50 6l-4 -4q3 -20 -4 -51l-121 -623h-159l278 1434h410zM477 1290l-4 -2q1 -6 -4 -51l-70 -367q-10 -41 -16 -51l4 -4
q13 8 51 8h267q135 0 212.5 67.5t77.5 184.5q0 100 -61.5 154.5t-175.5 54.5h-230q-33 0 -51 6zM629 -104l-209 -336h-86l137 336h158z" />
    <glyph glyph-name="rcommaaccent" unicode="&#x157;" horiz-adv-x="690" 
d="M49 0l184 946h150q-34 -169 -78 -287l10 -2q61 168 152.5 243t232.5 75q36 0 56 -2l-33 -170q-55 6 -80 6q-137 0 -234.5 -111t-134.5 -307l-75 -391h-150zM199 -104l-209 -336h-86l137 336h158z" />
    <glyph glyph-name="Rcaron" unicode="&#x158;" horiz-adv-x="1193" 
d="M1118 1767l-2 -8l-282 -237h-168l-191 237l2 8h135l64 -69q39 -42 54 -68.5t18 -60.5h6q17 35 41 60.5t79 68.5l89 69h155zM758 1434q194 0 301.5 -93t107.5 -256q0 -183 -124.5 -294t-329.5 -111q-35 0 -76 8l-2 -2q62 -41 106 -113l338 -573h-188l-395 672h-88
q-38 0 -50 6l-4 -4q3 -20 -4 -51l-121 -623h-159l278 1434h410zM477 1290l-4 -2q1 -6 -4 -51l-70 -367q-10 -41 -16 -51l4 -4q13 8 51 8h267q135 0 212.5 67.5t77.5 184.5q0 100 -61.5 154.5t-175.5 54.5h-230q-33 0 -51 6z" />
    <glyph glyph-name="rcaron" unicode="&#x159;" horiz-adv-x="690" 
d="M414 1118l-181 312l3 4h122l80 -131q30 -48 40.5 -70.5t13.5 -50.5h6q13 28 32 51t66 70l131 131h147l-2 -4l-299 -312h-159zM49 0l184 946h150q-34 -169 -78 -287l10 -2q61 168 152.5 243t232.5 75q36 0 56 -2l-33 -170q-55 6 -80 6q-137 0 -234.5 -111t-134.5 -307
l-75 -391h-150z" />
    <glyph glyph-name="Sacute" unicode="&#x15a;" horiz-adv-x="1044" 
d="M1020 1747v-6l-295 -219h-107v4l226 221h176zM502 -31q-145 0 -279.5 53.5t-240.5 153.5l100 133q200 -182 422 -182q127 0 197.5 59.5t70.5 165.5q0 67 -36 127t-118 129l-194 166q-184 156 -184 344q0 158 107 252t288 94q105 0 203 -34t211 -109l-93 -141
q-175 127 -325 127q-102 0 -161.5 -51.5t-59.5 -137.5q0 -110 139 -225l192 -164q106 -88 153.5 -176t47.5 -197q0 -181 -116 -284t-324 -103z" />
    <glyph glyph-name="sacute" unicode="&#x15b;" horiz-adv-x="819" 
d="M922 1448l-2 -6l-330 -309h-107l-2 8l252 307h189zM70 248q157 -139 315 -139q78 0 122 33t44 91q0 39 -22.5 72t-77.5 72l-123 86q-86 60 -126 122.5t-40 137.5q0 117 79 185.5t214 68.5q169 0 327 -107l-77 -122q-137 90 -242 90q-69 0 -108.5 -32t-39.5 -87
q0 -41 23.5 -72t91.5 -78l113 -77q87 -61 124.5 -122t37.5 -139q0 -126 -83 -194t-237 -68q-234 0 -405 162z" />
    <glyph glyph-name="Scircumflex" unicode="&#x15c;" horiz-adv-x="1044" 
d="M348 1522l2 8l283 237h168l190 -237l-2 -8h-135l-61 69q-40 47 -54.5 71.5t-17.5 57.5h-6q-18 -36 -42 -62t-79 -67l-92 -69h-154zM502 -31q-145 0 -279.5 53.5t-240.5 153.5l100 133q200 -182 422 -182q127 0 197.5 59.5t70.5 165.5q0 67 -36 127t-118 129l-194 166
q-184 156 -184 344q0 158 107 252t288 94q105 0 203 -34t211 -109l-93 -141q-175 127 -325 127q-102 0 -161.5 -51.5t-59.5 -137.5q0 -110 139 -225l192 -164q106 -88 153.5 -176t47.5 -197q0 -181 -116 -284t-324 -103z" />
    <glyph glyph-name="scircumflex" unicode="&#x15d;" horiz-adv-x="819" 
d="M662 1448l180 -311l-2 -4h-125l-80 133q-30 48 -40 69.5t-11 50.5h-6q-14 -29 -32.5 -50.5t-68.5 -69.5l-131 -133h-145v4l301 311h160zM70 248q157 -139 315 -139q78 0 122 33t44 91q0 39 -22.5 72t-77.5 72l-123 86q-86 60 -126 122.5t-40 137.5q0 117 79 185.5
t214 68.5q169 0 327 -107l-77 -122q-137 90 -242 90q-69 0 -108.5 -32t-39.5 -87q0 -41 23.5 -72t91.5 -78l113 -77q87 -61 124.5 -122t37.5 -139q0 -126 -83 -194t-237 -68q-234 0 -405 162z" />
    <glyph glyph-name="Scedilla" unicode="&#x15e;" horiz-adv-x="1044" 
d="M631 1307q-102 0 -161.5 -51.5t-59.5 -137.5q0 -110 139 -225l192 -164q106 -88 153.5 -176t47.5 -197q0 -177 -111.5 -280t-310.5 -107l-26 -49q151 -37 151 -129q0 -34 -20.5 -66.5t-46.5 -54.5t-76 -49t-81 -40.5t-89 -37.5l-15 56q55 28 79.5 41t56 33.5t43.5 37.5
t12 35q0 54 -133 82l80 143q-131 7 -253.5 60.5t-219.5 144.5l100 133q200 -182 422 -182q127 0 197.5 59.5t70.5 165.5q0 67 -36 127t-118 129l-194 166q-184 156 -184 344q0 158 107 252t288 94q105 0 203 -34t211 -109l-93 -141q-175 127 -325 127z" />
    <glyph glyph-name="scedilla" unicode="&#x15f;" horiz-adv-x="819" 
d="M543 492q87 -61 124.5 -122t37.5 -139q0 -124 -81.5 -192t-232.5 -70l-26 -49q151 -37 151 -129q0 -34 -20.5 -66.5t-46.5 -54.5t-76 -49t-81 -40.5t-89 -37.5l-15 56q55 28 79.5 41t56 33.5t43.5 37.5t12 35q0 54 -133 82l80 143q-195 18 -346 160l90 117
q157 -139 315 -139q78 0 122 33t44 91q0 39 -22.5 72t-77.5 72l-123 86q-86 60 -126 122.5t-40 137.5q0 117 79 185.5t214 68.5q169 0 327 -107l-77 -122q-137 90 -242 90q-69 0 -108.5 -32t-39.5 -87q0 -41 23.5 -72t91.5 -78z" />
    <glyph glyph-name="Scaron" unicode="&#x160;" horiz-adv-x="1044" 
d="M1038 1767l-2 -8l-282 -237h-168l-191 237l2 8h135l64 -69q39 -42 54 -68.5t18 -60.5h6q17 35 41 60.5t80 68.5l88 69h155zM502 -31q-145 0 -279.5 53.5t-240.5 153.5l100 133q200 -182 422 -182q127 0 197.5 59.5t70.5 165.5q0 67 -36 127t-118 129l-194 166
q-184 156 -184 344q0 158 107 252t288 94q105 0 203 -34t211 -109l-93 -141q-175 127 -325 127q-102 0 -161.5 -51.5t-59.5 -137.5q0 -110 139 -225l192 -164q106 -88 153.5 -176t47.5 -197q0 -181 -116 -284t-324 -103z" />
    <glyph glyph-name="scaron" unicode="&#x161;" horiz-adv-x="819" 
d="M451 1118l-181 312l2 4h123l80 -131q49 -77 53 -121h7q13 28 32 51t66 70l131 131h147l-2 -4l-299 -312h-159zM70 248q157 -139 315 -139q78 0 122 33t44 91q0 39 -22.5 72t-77.5 72l-123 86q-86 60 -126 122.5t-40 137.5q0 117 79 185.5t214 68.5q169 0 327 -107
l-77 -122q-137 90 -242 90q-69 0 -108.5 -32t-39.5 -87q0 -41 23.5 -72t91.5 -78l113 -77q87 -61 124.5 -122t37.5 -139q0 -126 -83 -194t-237 -68q-234 0 -405 162z" />
    <glyph glyph-name="uni0162" unicode="&#x162;" horiz-adv-x="1054" 
d="M207 1434h1014l-29 -152h-379q-31 0 -49 6l-6 -2q3 -20 -2 -51l-240 -1235h-41l-45 -80q152 -37 152 -129q0 -25 -11 -48.5t-25.5 -42t-43 -39t-50 -33.5t-60.5 -31.5t-60.5 -27.5t-63.5 -26l-14 56q54 27 79.5 41t56 34t42.5 37t12 35q0 54 -133 82l97 172h-50l240 1235
q6 35 14 51l-2 2q-21 -6 -53 -6h-379z" />
    <glyph glyph-name="uni0163" unicode="&#x163;" horiz-adv-x="632" 
d="M547 946h121l-27 -139h-121q-52 0 -69 12l-5 -2q2 -30 -8 -86l-141 -731h-37l-45 -80q152 -37 152 -129q0 -25 -11 -48.5t-25.5 -42t-43 -39t-50 -33.5t-60.5 -31.5t-60.5 -27.5t-63.5 -26l-14 56q54 27 79.5 41t56 34t42.5 37t12 35q0 54 -133 82l97 172h-46l144 731
q11 61 24 86l-4 2q-22 -12 -75 -12h-115l26 139h115q55 0 72 -12l4 2q-2 33 8 86l62 321l159 109h13l-86 -430q-11 -57 -25 -86l4 -2q22 12 74 12z" />
    <glyph glyph-name="Tcaron" unicode="&#x164;" horiz-adv-x="1054" 
d="M1098 1767l-2 -8l-283 -237h-168l-190 237l2 8h135l63 -69q39 -42 54 -68.5t18 -60.5h6q17 35 41 60.5t80 68.5l88 69h156zM1221 1434l-29 -152h-379q-31 0 -49 6l-6 -2q3 -20 -2 -51l-240 -1235h-158l240 1235q6 35 14 51l-2 2q-21 -6 -53 -6h-379l29 152h1014z" />
    <glyph glyph-name="tcaron" unicode="&#x165;" horiz-adv-x="776" 
d="M803 1495h151l-227 -397h-74zM580 1452l-86 -430q-11 -57 -25 -86l4 -2q22 12 74 12h121l-27 -139h-121q-52 0 -69 12l-5 -2q2 -30 -8 -86l-141 -731h-150l144 731q11 61 24 86l-4 2q-22 -12 -75 -12h-115l26 139h115q55 0 72 -12l4 2q-2 33 8 86l62 321l159 109h13z" />
    <glyph glyph-name="Tbar" unicode="&#x166;" horiz-adv-x="1071" 
d="M821 1284q-33 0 -51 6l-4 -2q3 -20 -2 -51l-47 -246h-2q-8 -38 -13 -47l3 -4q15 6 45 6h247l-26 -139h-248q-25 0 -45 4l-4 -2q4 -10 -4 -49l-148 -760h-157l149 760q8 38 12 49l-2 2q-20 -4 -45 -4h-248l29 139h246q30 0 45 -6l4 4q-3 14 4 47l47 246q5 26 17 51l-5 2
q-21 -6 -53 -6h-387l29 150h1030l-29 -150h-387z" />
    <glyph glyph-name="tbar" unicode="&#x167;" horiz-adv-x="630" 
d="M408 1335l167 123h3l-84 -436q-12 -46 -25 -84l4 -2q22 10 72 10h123l-29 -139h-121q-50 0 -67 12l-7 -4q2 -33 -4 -59l-12 -64q-12 -52 -16 -61l2 -2q12 4 49 4h135l-18 -96h-136q-35 0 -47 6l-4 -2q2 -15 -4 -52l-94 -489h-148l97 489q7 43 12 52l-2 2q-15 -6 -47 -6
h-125l20 96h125q35 0 43 -4l4 2q-2 12 9 61l12 62q9 41 18 61l-2 4q-22 -12 -75 -12h-115l29 139h114q50 0 70 -10l2 2q0 32 10 84z" />
    <glyph glyph-name="Utilde" unicode="&#x168;" horiz-adv-x="1394" 
d="M1079 1528q-52 0 -112 25t-113 50t-88 25q-65 0 -123 -86l-65 23q17 38 34 66.5t43.5 60t63 48.5t80.5 17q52 0 112 -25t112.5 -50t88.5 -25q62 0 121 86l67 -23q-17 -38 -34 -66.5t-43.5 -60t-63 -48.5t-80.5 -17zM635 -31q-233 0 -361.5 117.5t-128.5 331.5
q0 70 17 157l170 859h166l-172 -883q-11 -62 -11 -111q0 -146 87 -226.5t247 -80.5q181 0 297 107t156 311l172 883h166l-174 -895q-53 -279 -214 -424.5t-417 -145.5z" />
    <glyph glyph-name="utilde" unicode="&#x169;" horiz-adv-x="1077" 
d="M813 1192q-52 0 -111.5 27t-112 54t-87.5 27q-65 0 -123 -90l-68 21q17 39 34 68.5t44 62t64.5 50.5t81.5 18q51 0 110.5 -28t112 -55.5t88.5 -27.5q34 0 62.5 22.5t58.5 69.5l67 -22q-17 -39 -33.5 -68t-43 -61.5t-63.5 -50t-81 -17.5zM1036 946l-184 -946h-147
q36 172 67 240l-8 4q-69 -143 -157.5 -209t-211.5 -66q-146 0 -226 83.5t-77 232.5q0 56 17 139l102 522h151l-102 -516q-12 -58 -12 -104q-3 -103 49.5 -159t153.5 -56q134 0 225.5 102.5t128.5 294.5l84 438h147z" />
    <glyph glyph-name="Umacron" unicode="&#x16a;" horiz-adv-x="1394" 
d="M633 1677h581l-22 -106h-580zM635 -31q-233 0 -361.5 117.5t-128.5 331.5q0 70 17 157l170 859h166l-172 -883q-11 -62 -11 -111q0 -146 87 -226.5t247 -80.5q181 0 297 107t156 311l172 883h166l-174 -895q-53 -279 -214 -424.5t-417 -145.5z" />
    <glyph glyph-name="umacron" unicode="&#x16b;" horiz-adv-x="1077" 
d="M983 1364l-22 -113h-580l22 113h580zM1036 946l-184 -946h-147q36 172 67 240l-8 4q-69 -143 -157.5 -209t-211.5 -66q-146 0 -226 83.5t-77 232.5q0 56 17 139l102 522h151l-102 -516q-12 -58 -12 -104q-3 -103 49.5 -159t153.5 -56q134 0 225.5 102.5t128.5 294.5
l84 438h147z" />
    <glyph glyph-name="Ubreve" unicode="&#x16c;" horiz-adv-x="1394" 
d="M897 1520q-113 0 -176.5 52t-63.5 146q0 25 2 39h113q0 -5 -1 -16t-1 -15q0 -48 36 -74t103 -26q154 0 199 131h113q-26 -112 -112.5 -174.5t-211.5 -62.5zM635 -31q-233 0 -361.5 117.5t-128.5 331.5q0 70 17 157l170 859h166l-172 -883q-11 -62 -11 -111
q0 -146 87 -226.5t247 -80.5q181 0 297 107t156 311l172 883h166l-174 -895q-53 -279 -214 -424.5t-417 -145.5z" />
    <glyph glyph-name="ubreve" unicode="&#x16d;" horiz-adv-x="1077" 
d="M657 1147q-114 0 -179.5 58.5t-65.5 164.5q0 37 8 70h106q-4 -36 -4 -49q0 -70 37 -106t105 -36q78 0 133 49t75 142h109q-26 -144 -110.5 -218.5t-213.5 -74.5zM1036 946l-184 -946h-147q36 172 67 240l-8 4q-69 -143 -157.5 -209t-211.5 -66q-146 0 -226 83.5
t-77 232.5q0 56 17 139l102 522h151l-102 -516q-12 -58 -12 -104q-3 -103 49.5 -159t153.5 -56q134 0 225.5 102.5t128.5 294.5l84 438h147z" />
    <glyph glyph-name="Uring" unicode="&#x16e;" horiz-adv-x="1394" 
d="M877 1384q-102 0 -158.5 58t-56.5 151q0 114 77.5 192.5t198.5 78.5q101 0 157 -57.5t56 -151.5q0 -115 -76.5 -193t-197.5 -78zM885 1464q83 0 132.5 56t49.5 131q0 62 -36 97.5t-101 35.5q-83 0 -132.5 -56t-49.5 -131q0 -63 35 -98t102 -35zM635 -31
q-233 0 -361.5 117.5t-128.5 331.5q0 70 17 157l170 859h166l-172 -883q-11 -62 -11 -111q0 -146 87 -226.5t247 -80.5q181 0 297 107t156 311l172 883h166l-174 -895q-53 -279 -214 -424.5t-417 -145.5z" />
    <glyph glyph-name="uring" unicode="&#x16f;" horiz-adv-x="1077" 
d="M684 1530q103 0 166 -62.5t63 -160.5q0 -105 -71.5 -180.5t-186.5 -75.5q-104 0 -166.5 62.5t-62.5 160.5q0 106 71 181t187 75zM682 1450q-81 0 -125.5 -51t-44.5 -123q0 -67 38.5 -106.5t106.5 -39.5q80 0 125 52t45 123q0 66 -39 105.5t-106 39.5zM1036 946l-184 -946
h-147q36 172 67 240l-8 4q-69 -143 -157.5 -209t-211.5 -66q-146 0 -226 83.5t-77 232.5q0 56 17 139l102 522h151l-102 -516q-12 -58 -12 -104q-3 -103 49.5 -159t153.5 -56q134 0 225.5 102.5t128.5 294.5l84 438h147z" />
    <glyph glyph-name="Uhungarumlaut" unicode="&#x170;" horiz-adv-x="1394" 
d="M1100 1747v-6l-246 -219h-111v4l236 221h121zM956 1526l236 221h121v-6l-246 -219h-109zM635 -31q-233 0 -361.5 117.5t-128.5 331.5q0 70 17 157l170 859h166l-172 -883q-11 -62 -11 -111q0 -146 87 -226.5t247 -80.5q181 0 297 107t156 311l172 883h166l-174 -895
q-53 -279 -214 -424.5t-417 -145.5z" />
    <glyph glyph-name="uhungarumlaut" unicode="&#x171;" horiz-adv-x="1077" 
d="M481 1133l-2 4l281 311h127v-4l-289 -311h-117zM702 1133l-2 4l279 311h129v-4l-291 -311h-115zM1036 946l-184 -946h-147q36 172 67 240l-8 4q-69 -143 -157.5 -209t-211.5 -66q-146 0 -226 83.5t-77 232.5q0 56 17 139l102 522h151l-102 -516q-12 -58 -12 -104
q-3 -103 49.5 -159t153.5 -56q134 0 225.5 102.5t128.5 294.5l84 438h147z" />
    <glyph glyph-name="Uogonek" unicode="&#x172;" horiz-adv-x="1394" 
d="M1274 1434h166l-174 -895q-53 -279 -214 -424.5t-417 -145.5h-2q-91 -64 -133.5 -110t-42.5 -86q0 -54 73 -54q49 0 99 13l4 -94q-79 -23 -141 -23q-70 0 -111 33t-41 90q0 62 44.5 118.5t137.5 120.5q-182 28 -279.5 141.5t-97.5 299.5q0 70 17 157l170 859h166
l-172 -883q-11 -62 -11 -111q0 -146 87 -226.5t247 -80.5q181 0 297 107t156 311z" />
    <glyph glyph-name="uogonek" unicode="&#x173;" horiz-adv-x="1077" 
d="M776 0q-116 -78 -169.5 -131.5t-53.5 -97.5q0 -54 74 -54q48 0 98 13l4 -95q-75 -22 -141 -22q-70 0 -111 33t-41 90q0 75 67 144t210 159q28 124 59 201l-8 4q-69 -143 -157.5 -209t-211.5 -66q-146 0 -226 83.5t-77 232.5q0 56 17 139l102 522h151l-102 -516
q-12 -58 -12 -104q-3 -103 49.5 -159t153.5 -56q134 0 225.5 102.5t128.5 294.5l84 438h147l-184 -946h-76z" />
    <glyph glyph-name="Wcircumflex" unicode="&#x174;" horiz-adv-x="1931" 
d="M838 1522l2 8l282 237h168l191 -237l-2 -8h-136l-61 69q-40 47 -54.5 71.5t-17.5 57.5h-6q-18 -36 -42 -62t-79 -67l-92 -69h-153zM463 -25l-252 1459h170l125 -846q20 -121 20 -266h9q65 162 124 270l478 866h20l141 -866q21 -136 21 -268h8q63 159 123 266l457 844h186
l-819 -1459h-19l-157 940q-16 93 -8 183h-9q-22 -88 -73 -183l-527 -940h-18z" />
    <glyph glyph-name="wcircumflex" unicode="&#x175;" horiz-adv-x="1466" 
d="M977 1448l180 -311l-2 -4h-125l-80 133q-30 48 -40 69.5t-11 50.5h-6q-14 -29 -32.5 -51t-67.5 -69l-131 -133h-146v4l301 311h160zM319 -14l-198 960h160l88 -516q16 -93 14 -162h6q29 66 90 166l324 529h33l118 -529q23 -115 25 -166h6q22 69 76 162l291 516h178
l-574 -960h-32l-129 557q-20 92 -15 155h-6q-20 -67 -76 -155l-344 -557h-35z" />
    <glyph glyph-name="Ycircumflex" unicode="&#x176;" horiz-adv-x="1126" 
d="M432 1522l2 8l283 237h168l190 -237l-2 -8h-135l-61 69q-40 47 -54.5 71.5t-17.5 57.5h-6q-18 -36 -42 -62t-79 -67l-92 -69h-154zM1294 1434l-637 -873l-108 -561h-158l107 561l-293 873h174l166 -539q24 -79 33 -120.5t10 -94.5h8q40 91 125 215l375 539h198z" />
    <glyph glyph-name="ycircumflex" unicode="&#x177;" horiz-adv-x="976" 
d="M735 1448l180 -311l-2 -4h-125l-79 133q-31 50 -41 70.5t-11 49.5h-6q-14 -29 -32.5 -51t-67.5 -69l-131 -133h-146v4l301 311h160zM1051 946l-850 -1358h-170l309 490l-229 868h161l131 -526q35 -145 27 -236l8 2q23 76 86 179l357 581h170z" />
    <glyph glyph-name="Ydieresis" unicode="&#x178;" horiz-adv-x="1126" 
d="M551 1749h149l-45 -227h-149zM889 1749h151l-45 -227h-151zM1294 1434l-637 -873l-108 -561h-158l107 561l-293 873h174l166 -539q24 -79 33 -120.5t10 -94.5h8q40 91 125 215l375 539h198z" />
    <glyph glyph-name="Zacute" unicode="&#x179;" horiz-adv-x="1210" 
d="M1178 1747v-6l-295 -219h-107v4l225 221h177zM1325 1434v-7l-1092 -1296v-6q29 16 72.5 22.5t134.5 6.5h674l-110 -154h-1063l-2 8l1091 1297l-2 4q-67 -29 -207 -29h-549l109 154h944z" />
    <glyph glyph-name="zacute" unicode="&#x17a;" horiz-adv-x="925" 
d="M1049 1448l-2 -6l-330 -309h-107l-2 8l252 307h189zM-68 0l-4 10l779 819l-5 7q-43 -20 -81.5 -25.5t-122.5 -5.5h-346l114 141h725l2 -8l-782 -821l4 -4q37 18 75 23t126 5h420l-117 -141h-787z" />
    <glyph glyph-name="Zdotaccent" unicode="&#x17b;" horiz-adv-x="1210" 
d="M950 1749l-45 -229h-155l45 229h155zM1325 1434v-7l-1092 -1296v-6q29 16 72.5 22.5t134.5 6.5h674l-110 -154h-1063l-2 8l1091 1297l-2 4q-67 -29 -207 -29h-549l109 154h944z" />
    <glyph glyph-name="zdotaccent" unicode="&#x17c;" horiz-adv-x="925" 
d="M805 1434l-53 -269h-168l53 269h168zM-68 0l-4 10l779 819l-5 7q-43 -20 -81.5 -25.5t-122.5 -5.5h-346l114 141h725l2 -8l-782 -821l4 -4q37 18 75 23t126 5h420l-117 -141h-787z" />
    <glyph glyph-name="Zcaron" unicode="&#x17d;" horiz-adv-x="1210" 
d="M1196 1767l-2 -8l-283 -237h-168l-190 237l2 8h135l64 -69q39 -42 53.5 -68t17.5 -61h6q17 35 41 60.5t80 68.5l88 69h156zM1325 1434v-7l-1092 -1296v-6q29 16 72.5 22.5t134.5 6.5h674l-110 -154h-1063l-2 8l1091 1297l-2 4q-67 -29 -207 -29h-549l109 154h944z" />
    <glyph glyph-name="zcaron" unicode="&#x17e;" horiz-adv-x="925" 
d="M578 1118l-181 312l2 4h123l80 -131q49 -77 53 -121h7q13 28 32 51t66 70l131 131h147l-2 -4l-299 -312h-159zM-68 0l-4 10l779 819l-5 7q-43 -20 -81.5 -25.5t-122.5 -5.5h-346l114 141h725l2 -8l-782 -821l4 -4q37 18 75 23t126 5h420l-117 -141h-787z" />
    <glyph glyph-name="florin" unicode="&#x192;" horiz-adv-x="835" 
d="M854 1401q49 0 90 -8l-26 -133q-66 4 -84 4q-91 0 -157 -52t-85 -163l-8 -50q-10 -39 -17 -57l2 -2q18 6 60 6h223l-12 -61h-224q-39 0 -57 6l-2 -2q-4 -48 -10 -80l-176 -913q-60 -308 -344 -308q-48 0 -127 9l26 131q51 -4 107 -4q78 0 125 44.5t69 155.5l172 885
q8 52 21 80l-2 2q-18 -6 -62 -6h-184l12 61h185q41 0 59 -6l2 2q-1 10 4 53l17 74q36 178 139.5 255t263.5 77z" />
    <glyph glyph-name="AEacute" unicode="&#x1fc;" horiz-adv-x="1806" 
d="M1851 1741l-295 -219h-106v4l225 221h176v-6zM1403 1284q-39 0 -51 6l-4 -4q2 -10 -5 -51l-63 -328q-7 -34 -16 -49l4 -4q12 6 53 6h475l-29 -149h-477q-30 0 -51 6l-2 -2q2 -14 -4 -53l-90 -463q-6 -33 -17 -52l2 -4q16 7 54 7h536l-28 -150h-738l74 375q7 39 14 51v4
q-16 -6 -55 -6h-498l-360 -424h-195l1235 1434h793l-29 -150h-528zM1012 559q39 0 51 -6l4 4q-3 15 4 49l111 561q12 62 37 138h-5q-42 -75 -94 -134l-454 -534q-50 -60 -93 -84l2 -4q37 10 109 10h328z" />
    <glyph glyph-name="aeacute" unicode="&#x1fd;" horiz-adv-x="1798" 
d="M1407 1448l-2 -6l-330 -309h-106l-2 8l252 307h188zM1231 -31q-156 0 -255.5 67.5t-133.5 194.5h-4q-126 -260 -428 -260q-168 0 -267.5 86.5t-99.5 235.5t101.5 247.5t283.5 98.5q129 0 221 -54.5t133 -158.5l6 2q-7 44 9 121q16 82 16 121q0 166 -217 166
q-130 0 -315 -41l-29 137q187 43 358 43q139 0 218.5 -49t93.5 -166h4q64 102 167.5 159.5t237.5 57.5q192 0 298 -107.5t106 -277.5q0 -57 -21 -143h-674q-72 0 -100 12l-4 -2l2 -17q-2 -16 -2 -47q0 -130 76 -207t221 -77q107 0 184 41t158 120l94 -108q-95 -93 -195 -144
t-243 -51zM956 549q31 16 91 16h442q69 0 94 -14l4 2q-1 4 -1 10t0.5 13.5t0.5 11.5q0 122 -70 190t-200 68q-67 0 -123.5 -18.5t-96 -48t-69.5 -69t-47.5 -79t-26.5 -80.5zM434 96q120 0 209.5 61.5t89.5 153.5q0 86 -79 142.5t-199 56.5q-127 0 -190.5 -65t-63.5 -154
q0 -91 64 -143t169 -52z" />
    <glyph glyph-name="Oslashacute" unicode="&#x1fe;" horiz-adv-x="1638" 
d="M1079 1522h-104l-2 4l225 221h176v-6zM1479 1278q194 -185 194 -494q0 -231 -107.5 -417.5t-298.5 -292t-427 -105.5q-262 0 -443 127l-121 -133l-53 45l119 131q-101 91 -156 221t-55 289q0 173 63.5 324.5t173.5 259t265 169.5t332 62q272 0 462 -141l125 139l54 -45z
M301 639q0 -232 156 -375l856 934q-143 109 -352 109q-190 0 -341 -85.5t-235 -238t-84 -344.5zM846 127q288 0 472.5 188t184.5 480q0 222 -139 358l-852 -932q140 -94 334 -94z" />
    <glyph glyph-name="oslashacute" unicode="&#x1ff;" horiz-adv-x="1169" 
d="M766 1133h-107l-2 8l252 307h189l-2 -6zM1120 932l-114 -109q94 -118 94 -291q0 -241 -162.5 -402t-405.5 -161q-200 0 -323 107l-113 -105l-45 43l115 107q-96 120 -96 293q0 119 43 223.5t117.5 179t179.5 117.5t225 43q205 0 326 -109l116 109zM223 418
q0 -112 58 -189l565 533q-84 69 -223 69q-171 0 -285.5 -118t-114.5 -295zM946 528q0 112 -57 187l-565 -531q84 -69 223 -69q170 0 284.5 118t114.5 295z" />
    <glyph glyph-name="Scommaaccent" unicode="&#x218;" horiz-adv-x="1044" 
d="M502 -31q-145 0 -279.5 53.5t-240.5 153.5l100 133q200 -182 422 -182q127 0 197.5 59.5t70.5 165.5q0 67 -36 127t-118 129l-194 166q-184 156 -184 344q0 158 107 252t288 94q105 0 203 -34t211 -109l-93 -141q-175 127 -325 127q-102 0 -161.5 -51.5t-59.5 -137.5
q0 -110 139 -225l192 -164q106 -88 153.5 -176t47.5 -197q0 -181 -116 -284t-324 -103zM567 -104l-209 -336h-86l138 336h157z" />
    <glyph glyph-name="scommaaccent" unicode="&#x219;" horiz-adv-x="819" 
d="M70 248q157 -139 315 -139q78 0 122 33t44 91q0 39 -22.5 72t-77.5 72l-123 86q-86 60 -126 122.5t-40 137.5q0 117 79 185.5t214 68.5q169 0 327 -107l-77 -122q-137 90 -242 90q-69 0 -108.5 -32t-39.5 -87q0 -41 23.5 -72t91.5 -78l113 -77q87 -61 124.5 -122
t37.5 -139q0 -126 -83 -194t-237 -68q-234 0 -405 162zM436 -104l-209 -336h-86l138 336h157z" />
    <glyph glyph-name="uni021A" unicode="&#x21a;" horiz-adv-x="1054" 
d="M1221 1434l-29 -152h-379q-31 0 -49 6l-6 -2q3 -20 -2 -51l-240 -1235h-158l240 1235q6 35 14 51l-2 2q-21 -6 -53 -6h-379l29 152h1014zM502 -104l-209 -336h-86l137 336h158z" />
    <glyph glyph-name="uni021B" unicode="&#x21b;" horiz-adv-x="632" 
d="M580 1452l-86 -430q-11 -57 -25 -86l4 -2q22 12 74 12h121l-27 -139h-121q-52 0 -69 12l-5 -2q2 -30 -8 -86l-141 -731h-150l144 731q11 61 24 86l-4 2q-22 -12 -75 -12h-115l26 139h115q55 0 72 -12l4 2q-2 33 8 86l62 321l159 109h13zM287 -104l-209 -336h-86l137 336
h158z" />
    <glyph glyph-name="uni0237" unicode="&#x237;" horiz-adv-x="432" 
d="M383 946l-207 -1069q-33 -168 -125.5 -242.5t-251.5 -74.5h-28l28 145h19q92 0 142 44.5t71 154.5l202 1042h150z" />
    <glyph glyph-name="uni02BC" unicode="&#x2bc;" horiz-adv-x="364" 
d="M340 1495h154l-230 -448h-71z" />
    <glyph glyph-name="circumflex" unicode="&#x2c6;" horiz-adv-x="845" 
d="M692 1448l180 -311l-2 -4h-125l-79 133q-31 50 -41 70.5t-11 49.5h-6q-14 -29 -32.5 -51t-67.5 -69l-131 -133h-146v4l301 311h160z" />
    <glyph glyph-name="caron" unicode="&#x2c7;" horiz-adv-x="845" 
d="M469 1118l-180 312l2 4h123l80 -131q49 -77 53 -121h6q13 28 32 51t66 70l131 131h148l-2 -4l-299 -312h-160z" />
    <glyph glyph-name="breve" unicode="&#x2d8;" horiz-adv-x="765" 
d="M528 1147q-114 0 -179.5 58.5t-65.5 164.5q0 37 8 70h106q-4 -36 -4 -49q0 -70 37 -106t105 -36q78 0 133 49t75 142h109q-26 -144 -110.5 -218.5t-213.5 -74.5z" />
    <glyph glyph-name="dotaccent" unicode="&#x2d9;" horiz-adv-x="374" 
d="M459 1434l-53 -269h-168l53 269h168z" />
    <glyph glyph-name="ring" unicode="&#x2da;" horiz-adv-x="694" 
d="M520 1530q103 0 166.5 -62.5t63.5 -160.5q0 -105 -71.5 -180.5t-186.5 -75.5q-104 0 -167 62.5t-63 160.5q0 106 71 181t187 75zM518 1450q-81 0 -125.5 -51t-44.5 -123q0 -67 39 -106.5t107 -39.5q80 0 125 52t45 123q0 66 -39.5 105.5t-106.5 39.5z" />
    <glyph glyph-name="ogonek" unicode="&#x2db;" horiz-adv-x="526" 
d="M115 -385q-70 0 -111 33t-41 90q0 80 72.5 150.5t232.5 168.5l62 -37q-133 -89 -191.5 -144.5t-58.5 -102.5q0 -54 74 -54q48 0 98 13l4 -94q-79 -23 -141 -23z" />
    <glyph glyph-name="tilde" unicode="&#x2dc;" horiz-adv-x="894" 
d="M752 1192q-52 0 -112 27t-112.5 54t-87.5 27q-65 0 -123 -90l-67 21q17 39 34 68.5t43.5 62t64 50.5t81.5 18q51 0 110.5 -28t112 -55.5t88.5 -27.5q34 0 62.5 22.5t58.5 69.5l68 -22q-17 -39 -33.5 -68t-43 -61.5t-63.5 -50t-81 -17.5z" />
    <glyph glyph-name="hungarumlaut" unicode="&#x2dd;" horiz-adv-x="774" 
d="M233 1133l-2 4l281 311h127v-4l-289 -311h-117zM455 1133l-2 4l278 311h129v-4l-291 -311h-114z" />
    <glyph glyph-name="gravecomb" unicode="&#x300;" horiz-adv-x="0" 
d="M-104 1448l133 -307l-4 -8h-107l-211 309l2 6h187z" />
    <glyph glyph-name="acutecomb" unicode="&#x301;" horiz-adv-x="0" 
d="M88 1448l-2 -6l-330 -309h-106l-2 8l252 307h188z" />
    <glyph glyph-name="uni0302" unicode="&#x302;" horiz-adv-x="0" 
d="M-154 1448l181 -311l-2 -4h-125l-80 133q-30 48 -40 69.5t-11 50.5h-7q-14 -29 -32.5 -51t-67.5 -69l-131 -133h-145v4l301 311h159z" />
    <glyph glyph-name="tildecomb" unicode="&#x303;" horiz-adv-x="0" 
d="M-143 1192q-52 0 -112 27t-112.5 54t-87.5 27q-65 0 -123 -90l-67 21q17 39 34 68.5t43.5 62t64 50.5t81.5 18q51 0 110.5 -28t112 -55.5t88.5 -27.5q34 0 62.5 22.5t58.5 69.5l68 -22q-17 -39 -33.5 -68t-43 -61.5t-63.5 -50t-81 -17.5z" />
    <glyph glyph-name="uni0304" unicode="&#x304;" horiz-adv-x="0" 
d="M72 1364l-23 -113h-579l22 113h580z" />
    <glyph glyph-name="uni0306" unicode="&#x306;" horiz-adv-x="0" 
d="M-238 1147q-114 0 -179.5 58.5t-65.5 164.5q0 37 8 70h106q-4 -36 -4 -49q0 -70 37 -106t105 -36q78 0 133 49t75 142h109q-26 -144 -110.5 -218.5t-213.5 -74.5z" />
    <glyph glyph-name="uni0307" unicode="&#x307;" horiz-adv-x="0" 
d="M84 1434l-53 -269h-168l53 269h168z" />
    <glyph glyph-name="uni0308" unicode="&#x308;" horiz-adv-x="0" 
d="M-260 1434l-47 -248h-152l49 248h150zM84 1434l-47 -248h-152l49 248h150z" />
    <glyph glyph-name="uni030A" unicode="&#x30a;" horiz-adv-x="0" 
d="M-174 1530q103 0 166 -62.5t63 -160.5q0 -105 -71.5 -180.5t-186.5 -75.5q-104 0 -166.5 62.5t-62.5 160.5q0 106 71 181t187 75zM-176 1450q-81 0 -125.5 -51t-44.5 -123q0 -67 38.5 -106.5t106.5 -39.5q80 0 125 52t45 123q0 66 -39 105.5t-106 39.5z" />
    <glyph glyph-name="uni030B" unicode="&#x30b;" horiz-adv-x="0" 
d="M-541 1133l-2 4l281 311h127v-4l-289 -311h-117zM-319 1133l-3 4l279 311h129v-4l-291 -311h-114z" />
    <glyph glyph-name="uni030C" unicode="&#x30c;" horiz-adv-x="0" 
d="M-369 1118l-180 312l2 4h123l80 -131q49 -77 53 -121h6q13 27 32 50t67 71l131 131h147l-2 -4l-299 -312h-160z" />
    <glyph glyph-name="uni0326" unicode="&#x326;" horiz-adv-x="0" 
d="M-215 -104l-209 -336h-86l137 336h158z" />
    <glyph glyph-name="uni0327" unicode="&#x327;" horiz-adv-x="0" 
d="M-319 41l-68 -121q151 -37 151 -129q0 -34 -20.5 -66.5t-46.5 -54.5t-76 -49t-81 -40.5t-89 -37.5l-14 56q54 27 79.5 41t56 34t42.5 37t12 35q0 54 -133 82l119 213h68z" />
    <glyph glyph-name="uni0328" unicode="&#x328;" horiz-adv-x="0" 
d="M-412 -385q-70 0 -110.5 33t-40.5 90q0 80 72.5 150.5t232.5 168.5l61 -37q-133 -89 -191 -144.5t-58 -102.5q0 -54 73 -54q49 0 99 13l4 -94q-79 -23 -142 -23z" />
    <glyph glyph-name="uni0394" unicode="&#x394;" horiz-adv-x="1253" 
d="M659 1434l531 -1434h-1204l530 1434h143zM588 1245l-416 -1169h829z" />
    <glyph glyph-name="uni03A9" unicode="&#x3a9;" horiz-adv-x="1638" 
d="M827 1464q161 0 297 -52t228.5 -143.5t144 -218t51.5 -272.5q0 -129 -43.5 -241t-120 -193.5t-177 -137t-218.5 -81.5v-6q89 14 164 14h352l-2 -133h-594v215q221 43 352.5 195.5t131.5 363.5q0 240 -154 393.5t-412 153.5q-130 0 -237.5 -41.5t-179 -113.5t-111 -170.5
t-39.5 -211.5q0 -217 132 -371.5t353 -197.5v-215h-593v133h350q90 0 164 -14v6q-118 26 -218.5 82t-177 139t-120.5 197.5t-44 247.5q0 141 51 264t143 214t228.5 143t298.5 52z" />
    <glyph glyph-name="pi" unicode="&#x3c0;" 
d="M1270 977l-27 -137h-225l-164 -840h-143l163 840h-323l-358 -840h-144l357 840q-160 0 -287 -41l26 137q125 41 293 41h832z" />
    <glyph glyph-name="uni0401" unicode="&#x401;" horiz-adv-x="1052" 
d="M594 1749h149l-45 -227h-149zM932 1749h151l-45 -227h-151zM1149 1434l-29 -150h-592q-33 0 -51 6l-4 -2q4 -22 -4 -51l-63 -330q-6 -31 -17 -49l4 -4q14 6 53 6h527l-29 -147h-526q-39 0 -51 6l-5 -4q3 -13 -4 -51l-90 -467q-11 -42 -16 -52l2 -2q24 7 53 7h600
l-28 -150h-809l278 1434h801z" />
    <glyph glyph-name="uni0402" unicode="&#x402;" horiz-adv-x="1452" 
d="M1063 856q162 0 246 -64t84 -208q0 -42 -11 -113l-10 -49l-8 -47q-34 -186 -136 -280.5t-298 -94.5h-174l28 150h140q125 0 190.5 52t91.5 177l8 43l11 47q8 54 8 70q0 88 -55 125.5t-160 37.5q-180 0 -459 -75l-123 -627h-157l202 1053h2l35 184q4 27 14 51l-2 2
q-18 -6 -53 -6h-299l29 150h1034l-29 -150h-477q-33 0 -51 6l-4 -2q3 -20 -2 -51l-35 -184h-2l-37 -199q-10 -45 -24 -76l2 -2q244 80 481 80z" />
    <glyph glyph-name="uni0403" unicode="&#x403;" horiz-adv-x="987" 
d="M1112 1747v-6l-295 -219h-106v4l225 221h176zM70 0l278 1434h805l-29 -152h-596q-33 0 -51 6l-4 -2q2 -14 -4 -51l-240 -1235h-159z" />
    <glyph glyph-name="uni0404" unicode="&#x404;" horiz-adv-x="1431" 
d="M983 1464q279 0 490 -164l-101 -133q-180 138 -409 138q-235 0 -403.5 -124t-233.5 -337q-8 -28 -25 -53l2 -5q24 7 59 7h601l-29 -152h-580q-39 0 -57 6l-4 -2q1 -6 2 -20t2 -21q9 -230 146.5 -352.5t365.5 -122.5q116 0 208.5 33t192.5 96l86 -133q-232 -156 -501 -156
q-308 0 -487 180t-179 484q0 176 62.5 329.5t173.5 264t271 174t347 63.5z" />
    <glyph glyph-name="uni0405" unicode="&#x405;" horiz-adv-x="1044" 
d="M502 -31q-145 0 -279.5 53.5t-240.5 153.5l100 133q200 -182 422 -182q127 0 197.5 59.5t70.5 165.5q0 67 -36 127t-118 129l-194 166q-184 156 -184 344q0 158 107 252t288 94q105 0 203 -34t211 -109l-93 -141q-175 127 -325 127q-102 0 -161.5 -51.5t-59.5 -137.5
q0 -110 139 -225l192 -164q106 -88 153.5 -176t47.5 -197q0 -181 -116 -284t-324 -103z" />
    <glyph glyph-name="uni0406" unicode="&#x406;" horiz-adv-x="485" 
d="M510 1434l-279 -1434h-161l278 1434h162z" />
    <glyph glyph-name="uni0407" unicode="&#x407;" horiz-adv-x="485" 
d="M242 1749h149l-45 -227h-149zM580 1749h151l-45 -227h-151zM510 1434l-279 -1434h-161l278 1434h162z" />
    <glyph glyph-name="uni0408" unicode="&#x408;" horiz-adv-x="587" 
d="M610 1434l-221 -1141q-30 -164 -111 -233.5t-235 -69.5q-32 0 -84 6l29 149q23 -2 71 -2q73 0 115 39t62 131l217 1121h157z" />
    <glyph glyph-name="uni0409" unicode="&#x409;" horiz-adv-x="2195" 
d="M1704 836q207 0 323.5 -97t116.5 -284q0 -142 -68.5 -245.5t-187.5 -156.5t-274 -53h-510l192 991l50 246q6 35 14 51l-2 2q-21 -6 -53 -6h-631q-33 0 -51 6l-5 -2q3 -20 -2 -51l-69 -348l-115 -590q-31 -165 -111 -237t-237 -72q-68 0 -125 8l29 149q41 -4 112 -4
q72 0 114.5 37.5t61.5 132.5l113 576l105 545h1048l-86 -443l-20 -108q-5 -28 -17 -49l4 -5q14 7 52 7h229zM1620 150q172 0 265 82.5t93 218.5q0 117 -72 177t-210 60h-250q-39 0 -51 6l-4 -4q4 -19 -2 -49l-86 -444q-4 -28 -17 -52l4 -2q21 7 51 7h279z" />
    <glyph glyph-name="uni040A" unicode="&#x40a;" horiz-adv-x="2101" 
d="M70 0l278 1434h160l-107 -549q-5 -29 -16 -51l4 -3q21 7 51 7h701q27 0 51 -7l4 3q-2 14 4 51l107 549h157l-106 -549q-5 -26 -17 -51l5 -3q24 7 51 7h215q205 0 321.5 -98t116.5 -285q0 -142 -68.5 -245.5t-187.5 -156.5t-274 -53h-492l123 639q6 35 14 51l-2 2
q-21 -6 -53 -6h-698q-34 0 -52 6l-4 -2q3 -20 -2 -51l-125 -639h-159zM1210 143q24 7 54 7h262q172 0 265 82.5t93 218.5q0 117 -72 177t-210 60h-234q-31 0 -49 6l-4 -2q2 -14 -4 -51l-86 -444q-5 -28 -17 -52z" />
    <glyph glyph-name="uni040B" unicode="&#x40b;" horiz-adv-x="1505" 
d="M1001 932q357 0 357 -311q0 -73 -21 -172l-88 -449h-157l92 483q12 56 12 101q0 106 -58 148t-167 42q-149 0 -389 -74l-138 -700h-159l204 1053l37 182q3 26 15 51l-2 2q-21 -6 -54 -6h-307l29 152h1014l-29 -152h-449q-33 0 -51 6l-4 -2q3 -20 -2 -51l-35 -182
l-24 -127q-12 -50 -27 -74l2 -4q222 84 399 84z" />
    <glyph glyph-name="uni040C" unicode="&#x40c;" horiz-adv-x="1253" 
d="M1147 1747v-6l-295 -219h-107v4l226 221h176zM1022 -6q-47 0 -86.5 11.5t-73 37.5t-54 73t-24.5 113l-22 283q-4 89 -53.5 129.5t-149.5 40.5h-141q-48 0 -64 4l-2 -2q3 -37 -6 -86l-117 -598h-159l278 1434h160l-100 -523q-7 -36 -27 -82l2 -2q28 7 66 7h145
q95 0 155 38.5t105 131.5l119 249q47 103 124 145t191 42q40 0 92 -6l-28 -152q-40 4 -60 4q-64 0 -109.5 -22.5t-72.5 -79.5l-100 -213q-53 -115 -123 -159t-197 -50v-4q120 -6 168.5 -57.5t56.5 -165.5l19 -254q6 -74 39 -101.5t100 -27.5q26 0 76 4l-31 -156
q-52 -6 -96 -6z" />
    <glyph glyph-name="uni040E" unicode="&#x40e;" horiz-adv-x="1263" 
d="M1108 1767q-52 -278 -313 -278q-117 0 -181.5 55t-64.5 154q0 32 6 69h104q-6 -35 -6 -55q0 -125 146 -125q88 0 134.5 47t65.5 133h109zM207 -14q-90 0 -166 22l41 152q72 -21 133 -21q87 0 163 49t161 181l-334 1065h178l217 -732q30 -99 37.5 -132.5t7.5 -82.5l6 2
q20 64 40 104.5t69 115.5l477 725h193l-742 -1127q-117 -182 -221 -251.5t-260 -69.5z" />
    <glyph glyph-name="uni040F" unicode="&#x40f;" horiz-adv-x="1441" 
d="M498 -287l47 240q6 35 14 51l-2 2q-21 -6 -53 -6h-434l278 1434h160l-240 -1239q-6 -33 -16 -50l2 -4q14 6 53 6h701q39 0 51 -6l4 4q-3 13 4 50l240 1239h159l-278 -1434h-434q-31 0 -49 6l-7 -2q3 -20 -2 -51l-47 -240h-151z" />
    <glyph glyph-name="uni0410" unicode="&#x410;" horiz-adv-x="1390" 
d="M-68 0l947 1464h16l379 -1464h-164l-106 424h-613l-266 -424h-193zM463 555q50 4 115 4h286q67 0 117 -4v2q-23 44 -39 119l-76 340q-23 119 -18 170h-8q-19 -64 -84 -170l-207 -340q-44 -70 -86 -119v-2z" />
    <glyph glyph-name="uni0411" unicode="&#x411;" horiz-adv-x="1249" 
d="M528 1282q-33 0 -51 6l-4 -2q4 -22 -4 -51l-37 -188l-31 -164q-5 -30 -16 -49l4 -5q14 7 51 7h250q207 0 323.5 -97t116.5 -284q0 -142 -68.5 -245.5t-187.5 -156.5t-274 -53h-530l202 1047l76 387h879l-29 -152h-670zM412 688q-40 0 -52 6l-4 -4q4 -19 -2 -49l-86 -444
q-4 -31 -16 -52l4 -2q21 7 51 7h299q172 0 264.5 82.5t92.5 218.5q0 117 -72 177t-209 60h-270z" />
    <glyph glyph-name="uni0412" unicode="&#x412;" horiz-adv-x="1284" 
d="M70 0l278 1434h486q169 0 268.5 -86t99.5 -232q0 -119 -63 -207t-181 -129q-75 -23 -131 -26l-2 -9q62 0 127 -16q100 -26 154.5 -104.5t54.5 -196.5q0 -196 -145 -312t-391 -116h-555zM385 813q18 6 53 6h264q154 0 242 69.5t88 190.5q0 101 -66.5 153t-195.5 52h-242
q-33 0 -51 6l-4 -2q2 -8 -4 -51l-72 -371q-4 -29 -16 -51zM254 143q21 7 53 7h320q175 0 270.5 73t95.5 207q0 120 -79.5 182t-233.5 62h-270q-35 0 -50 6l-6 -2q3 -17 -4 -51l-82 -430q-9 -40 -16 -52z" />
    <glyph glyph-name="uni0413" unicode="&#x413;" horiz-adv-x="987" 
d="M70 0l278 1434h805l-29 -152h-596q-33 0 -51 6l-4 -2q2 -14 -4 -51l-240 -1235h-159z" />
    <glyph glyph-name="uni0414" unicode="&#x414;" horiz-adv-x="1388" 
d="M-129 -287l84 426h104q37 0 50 -8l2 4q5 22 28 55q170 242 263 457t153 508l55 279h752l-242 -1246q-6 -32 -16 -53l2 -2q24 6 55 6h92l-84 -426h-151l45 230q7 40 16 51l-2 4q-19 -8 -55 -8h-895q-35 0 -51 8l-4 -4q3 -13 -4 -51l-43 -230h-154zM283 131q21 8 57 8h563
q34 0 49 -6l4 2q-2 12 5 53l202 1049q9 36 17 51l-2 2q-21 -6 -54 -6h-333q-34 0 -52 6l-4 -2q4 -22 -4 -51l-20 -104q-54 -272 -163 -530t-267 -470z" />
    <glyph glyph-name="uni0415" unicode="&#x415;" horiz-adv-x="1052" 
d="M1149 1434l-29 -150h-592q-33 0 -51 6l-4 -2q4 -22 -4 -51l-63 -330q-6 -31 -17 -49l4 -4q14 6 53 6h527l-29 -147h-526q-39 0 -51 6l-5 -4q3 -13 -4 -51l-90 -467q-11 -42 -16 -52l2 -2q24 7 53 7h600l-28 -150h-809l278 1434h801z" />
    <glyph glyph-name="uni0416" unicode="&#x416;" horiz-adv-x="1861" 
d="M1907 1440q43 0 98 -6l-29 -150q-40 4 -57 4q-63 0 -106.5 -23t-71.5 -81l-105 -213q-54 -116 -123.5 -159.5t-195.5 -49.5v-4q108 -6 153.5 -51t51.5 -166l14 -256q4 -70 38 -101.5t99 -31.5q22 0 72 4l-31 -156q-52 -6 -94 -6q-226 0 -236 254l-14 278q-3 88 -46 126
t-142 38h-76q-50 0 -62 4l-4 -2q3 -37 -6 -86l-116 -606h-158l119 606q7 42 26 86l-2 2q-16 -4 -63 -4h-86q-86 0 -142 -38.5t-94 -125.5l-139 -319q-47 -110 -124.5 -161.5t-195.5 -51.5q-41 0 -94 6l31 156q50 -4 65 -4q67 0 110.5 30t72.5 97l125 286q44 104 105 146.5
t181 46.5v4q-117 6 -167 51t-60 160l-22 211q-6 59 -42.5 81.5t-99.5 22.5q-23 0 -63 -4l30 150q49 6 86 6q109 0 164.5 -43.5t65.5 -145.5l28 -247q10 -93 59 -135t146 -42h88q36 0 60 -6l2 2q-3 35 6 82l102 529h158l-102 -529q-7 -41 -27 -82l2 -2q24 6 66 6h86
q92 0 153 41.5t107 135.5l121 249q49 102 124 144.5t181 42.5z" />
    <glyph glyph-name="uni0417" unicode="&#x417;" horiz-adv-x="1300" 
d="M569 -31q-290 0 -522 135l86 146q213 -121 442 -121q194 0 290 78t96 213q0 133 -86.5 196.5t-227.5 63.5h-209l31 154h207q151 0 257.5 74.5t106.5 203.5q0 195 -280 195q-212 0 -426 -80l-51 149q252 88 487 88q215 0 327.5 -86.5t112.5 -247.5q0 -132 -73 -216
t-226 -128q-60 -20 -166 -26l-2 -6q80 0 150 -13q109 -25 171 -106.5t62 -210.5q0 -67 -16.5 -129t-57.5 -122.5t-102.5 -105t-159.5 -71.5t-221 -27z" />
    <glyph glyph-name="uni0418" unicode="&#x418;" horiz-adv-x="1478" 
d="M1489 1454h16l-282 -1454h-160l168 858q34 173 67 256l-6 2q-47 -73 -143 -162l-1067 -974h-16l282 1454h160l-166 -859q-30 -151 -68 -256l5 -2q49 76 145 162z" />
    <glyph glyph-name="uni0419" unicode="&#x419;" horiz-adv-x="1478" 
d="M1272 1767q-52 -278 -314 -278q-117 0 -181 55t-64 154q0 32 6 69h104q-6 -34 -6 -55q0 -125 146 -125q88 0 134.5 47t65.5 133h109zM1489 1454h16l-282 -1454h-160l168 858q34 173 67 256l-6 2q-47 -73 -143 -162l-1067 -974h-16l282 1454h160l-166 -859
q-30 -151 -68 -256l5 -2q49 76 145 162z" />
    <glyph glyph-name="uni041A" unicode="&#x41a;" horiz-adv-x="1253" 
d="M1022 -6q-47 0 -86.5 11.5t-73 37.5t-54 73t-24.5 113l-22 283q-4 89 -53.5 129.5t-149.5 40.5h-141q-48 0 -64 4l-2 -2q3 -37 -6 -86l-117 -598h-159l278 1434h160l-100 -523q-7 -36 -27 -82l2 -2q28 7 66 7h145q95 0 155 38.5t105 131.5l119 249q47 103 124 145t191 42
q40 0 92 -6l-28 -152q-40 4 -60 4q-64 0 -109.5 -22.5t-72.5 -79.5l-100 -213q-53 -115 -123 -159t-197 -50v-4q120 -6 168.5 -57.5t56.5 -165.5l19 -254q6 -74 39 -101.5t100 -27.5q26 0 76 4l-31 -156q-52 -6 -96 -6z" />
    <glyph glyph-name="uni041B" unicode="&#x41b;" horiz-adv-x="1517" 
d="M1542 1434l-110 -574l-168 -860h-160l168 860l74 377q6 35 14 51l-2 2q-21 -6 -53 -6h-631q-33 0 -51 6l-5 -2q3 -20 -2 -51l-69 -348l-115 -590q-31 -165 -111 -237t-237 -72q-60 0 -125 8l29 149q47 -4 112 -4q72 0 114.5 37.5t61.5 132.5l113 576l105 545h1048z" />
    <glyph glyph-name="uni041C" unicode="&#x41c;" horiz-adv-x="1781" 
d="M793 -20l-179 866q-5 22 -8.5 42t-5.5 35t-4 32.5t-2.5 27t-1 26t-0.5 22v23v21.5h-6q-27 -121 -80 -231l-395 -844h-179l691 1458h20l195 -985q13 -68 10 -180h8q25 86 78 180l573 985h21l137 -1458h-154l-75 844q-13 124 6 231h-6q-2 -5 -17 -41.5t-22.5 -53t-27 -54.5
t-44.5 -80l-514 -866h-18z" />
    <glyph glyph-name="uni041D" unicode="&#x41d;" horiz-adv-x="1441" 
d="M1466 1434l-278 -1434h-162l125 641q7 33 16 49l-2 4q-16 -6 -55 -6h-696q-39 0 -49 6l-5 -4q3 -14 -4 -49l-125 -641h-161l278 1434h162l-107 -549q-8 -39 -14 -49l2 -5q16 7 53 7h697q35 0 51 -7l4 5q-4 20 2 49l107 549h161z" />
    <glyph glyph-name="uni041E" unicode="&#x41e;" horiz-adv-x="1687" 
d="M840 -31q-321 0 -515 186t-194 494q0 173 63.5 324.5t173.5 259t265 169.5t332 62q321 0 514.5 -186t193.5 -494q0 -231 -107.5 -417.5t-298.5 -292t-427 -105.5zM846 127q288 0 472.5 188t184.5 480q0 229 -149.5 370.5t-392.5 141.5q-190 0 -341 -85.5t-235 -238
t-84 -344.5q0 -229 151 -370.5t394 -141.5z" />
    <glyph glyph-name="uni041F" unicode="&#x41f;" horiz-adv-x="1425" 
d="M70 0l278 1434h1102l-279 -1434h-159l239 1237q5 26 17 51l-2 2q-21 -6 -54 -6h-684q-33 0 -51 6l-4 -2q2 -14 -4 -51l-240 -1237h-159z" />
    <glyph glyph-name="uni0420" unicode="&#x420;" horiz-adv-x="1101" 
d="M764 1434q187 0 293 -96.5t106 -266.5q0 -194 -133 -310t-356 -116h-268q-34 0 -52 6l-4 -2q2 -5 -4 -51l-117 -598h-159l278 1434h416zM477 1290l-4 -2q1 -6 -4 -51l-76 -393q-2 -24 -14 -53l2 -3q21 7 53 7h242q149 0 234 72t85 198q0 103 -62.5 161t-176.5 58h-228
q-33 0 -51 6z" />
    <glyph glyph-name="uni0421" unicode="&#x421;" horiz-adv-x="1431" 
d="M793 -31q-305 0 -485.5 179t-180.5 481q0 239 109.5 430t305 298t441.5 107q285 0 487 -164l-98 -133q-192 138 -407 138q-188 0 -340.5 -87t-239 -240t-86.5 -341q0 -238 136 -373t374 -135q103 0 198.5 30.5t202.5 98.5l86 -133q-238 -156 -503 -156z" />
    <glyph glyph-name="uni0422" unicode="&#x422;" horiz-adv-x="1054" 
d="M1221 1434l-29 -152h-379q-31 0 -49 6l-6 -2q3 -20 -2 -51l-240 -1235h-158l240 1235q6 35 14 51l-2 2q-21 -6 -53 -6h-379l29 152h1014z" />
    <glyph glyph-name="uni0423" unicode="&#x423;" horiz-adv-x="1263" 
d="M207 -14q-90 0 -166 22l41 152q72 -21 133 -21q87 0 163 49t161 181l-334 1065h178l217 -732q30 -99 37.5 -132.5t7.5 -82.5l6 2q20 64 40 104.5t69 115.5l477 725h193l-742 -1127q-117 -182 -221 -251.5t-260 -69.5z" />
    <glyph glyph-name="uni0424" unicode="&#x424;" horiz-adv-x="1759" 
d="M711 -20l12 61q4 34 18 55l-2 2q-24 -4 -73 -4q-79 0 -154 21t-144 67t-121 111.5t-83 163t-31 213.5q0 313 204 491t560 178q60 0 74 -4l4 2q-4 30 2 56l10 61h154l-11 -61q-10 -44 -20 -56l2 -2q24 4 74 4q82 0 158 -21t144.5 -67t119 -112.5t80.5 -163t30 -213.5
q0 -313 -203.5 -490.5t-560.5 -177.5q-57 0 -73 4l-2 -2q3 -22 -2 -55l-13 -61h-153zM774 238l4 2q-3 24 2 57l154 840q8 36 20 57l-4 2q-12 -4 -65 -4q-147 -1 -260.5 -41t-183.5 -111t-105 -163.5t-35 -204.5q0 -114 35.5 -200t95.5 -134.5t129.5 -72t147.5 -23.5
q53 0 65 -4zM901 238q10 4 68 4q289 3 436 144t147 370q0 113 -33 199.5t-90.5 136.5t-129.5 75t-156 25q-52 0 -66 4l-2 -2q0 -40 -4 -57l-153 -840q-3 -19 -19 -57z" />
    <glyph glyph-name="uni0425" unicode="&#x425;" horiz-adv-x="1249" 
d="M1368 1434l-401 -469q-160 -183 -197 -215l-2 -7q33 -50 104 -202l261 -541h-183l-213 461q-54 116 -65 182h-6q-18 -40 -134 -180l-387 -463h-213l476 559q15 17 56.5 64.5t73 82.5t52.5 54l2 6q-26 37 -109 217l-219 451h187l174 -390q29 -64 37.5 -83.5t17 -45.5
t12.5 -51h8q17 38 134 178l327 392h207z" />
    <glyph glyph-name="uni0426" unicode="&#x426;" horiz-adv-x="1425" 
d="M1057 -285l47 238q6 35 14 51l-2 2q-18 -6 -53 -6h-993l278 1434h160l-240 -1237q-4 -25 -18 -52l4 -2q24 7 53 7h623q32 0 53 -7l4 2q-3 21 2 52l240 1237h160l-240 -1237q-4 -21 -19 -52l5 -2q21 7 53 7h104l-84 -435h-151z" />
    <glyph glyph-name="uni0427" unicode="&#x427;" horiz-adv-x="1218" 
d="M805 0l110 567q9 49 25 76l-2 2q-228 -80 -432 -80q-375 0 -375 314q0 73 23 178l75 377h158l-78 -396q-14 -66 -14 -118q0 -60 17.5 -100.5t52.5 -60.5t75 -28t95 -8q156 0 426 76l122 635h160l-278 -1434h-160z" />
    <glyph glyph-name="uni0428" unicode="&#x428;" horiz-adv-x="2070" 
d="M70 0l278 1434h160l-240 -1237q-4 -25 -18 -52l4 -2q24 7 53 7h535q32 0 53 -7l4 2q-3 21 2 52l240 1237h159l-239 -1237q-5 -28 -17 -52l3 -2q21 7 53 7h534q30 0 54 -7l4 2q-3 21 2 52l239 1237h160l-276 -1434h-1747z" />
    <glyph glyph-name="uni0429" unicode="&#x429;" horiz-adv-x="2129" 
d="M1890 150h107l-84 -435h-152l45 238q5 26 17 51l-2 2q-21 -6 -56 -6h-1695l278 1434h160l-240 -1237q-4 -25 -18 -52l4 -2q21 7 53 7h535q28 0 53 -7l4 2q-3 21 2 52l240 1237h159l-239 -1237q-4 -21 -19 -52l5 -2q21 7 53 7h534q30 0 54 -7l2 2q-2 15 4 52l239 1237h158
l-240 -1237q-5 -31 -16 -52l2 -2q24 7 53 7z" />
    <glyph glyph-name="uni042A" unicode="&#x42a;" horiz-adv-x="1421" 
d="M932 836q206 0 322 -97t116 -284q0 -142 -68.5 -245.5t-187.5 -156.5t-274 -53h-531l193 991l49 246q6 35 14 51l-2 2q-21 -6 -53 -6h-332l29 150h541l-86 -443l-21 -108q-5 -30 -16 -49l4 -5q14 7 51 7h252zM846 150q172 0 265 82.5t93 218.5q0 117 -72 177t-210 60
h-271q-39 0 -51 6l-4 -4q4 -19 -2 -49l-86 -444q-4 -31 -16 -52l4 -2q21 7 51 7h299z" />
    <glyph glyph-name="uni042B" unicode="&#x42b;" horiz-adv-x="1570" 
d="M692 836q206 0 323.5 -97.5t117.5 -283.5q0 -212 -147 -333.5t-384 -121.5h-530l192 993l86 441h160l-86 -441l-21 -110q-9 -37 -16 -49l2 -5q16 7 53 7h250zM1432 1434h161l-278 -1434h-162zM608 150q172 0 264.5 82.5t92.5 218.5q0 117 -72.5 177t-210.5 60h-270
q-40 0 -52 6l-4 -4q5 -25 -2 -49l-84 -444q-11 -43 -16 -52l2 -2q24 7 53 7h299z" />
    <glyph glyph-name="uni042C" unicode="&#x42c;" horiz-adv-x="1183" 
d="M692 836q206 0 323.5 -97.5t117.5 -283.5q0 -212 -147 -333.5t-384 -121.5h-530l192 993l86 441h160l-86 -441l-21 -110q-9 -37 -16 -49l2 -5q16 7 53 7h250zM608 150q172 0 264.5 82.5t92.5 218.5q0 117 -72.5 177t-210.5 60h-270q-40 0 -52 6l-4 -4q5 -25 -2 -49
l-84 -444q-11 -43 -16 -52l2 -2q24 7 53 7h299z" />
    <glyph glyph-name="uni042D" unicode="&#x42d;" horiz-adv-x="1433" 
d="M545 -31q-279 0 -490 164l101 133q179 -137 409 -137q235 0 403.5 124t233.5 337q7 23 25 55l-2 2q-21 -6 -60 -6h-600l29 152h580q36 0 57 -7l4 5q-1 4 -1.5 9t-1 13.5t-1.5 15.5q-9 230 -146.5 353t-365.5 123q-116 0 -209 -33t-193 -96l-86 133q231 155 502 155
q308 0 487 -179.5t179 -483.5q0 -176 -62.5 -330t-173.5 -264.5t-271 -174t-347 -63.5z" />
    <glyph glyph-name="uni042E" unicode="&#x42e;" horiz-adv-x="2134" 
d="M1389 1462q321 0 514.5 -186t193.5 -494q0 -231 -107.5 -417.5t-298.5 -292t-427 -105.5q-322 0 -514.5 185t-194.5 493h-152q-31 0 -49 6l-4 -2q2 -14 -4 -53l-117 -596h-159l278 1434h160l-115 -590q-6 -38 -14 -51l2 -5q21 9 51 9h135q50 295 277 480t545 185z
M1268 125q190 0 340.5 85.5t234.5 238t84 344.5q0 227 -151 368.5t-394 141.5q-190 0 -340 -85t-233.5 -237t-83.5 -344q0 -229 150 -370.5t393 -141.5z" />
    <glyph glyph-name="uni042F" unicode="&#x42f;" horiz-adv-x="1206" 
d="M-68 0l557 573q73 73 152 113l-2 2q-30 -6 -68 -6q-34 0 -72.5 10t-81 34.5t-76.5 61.5t-56.5 97.5t-22.5 134.5q0 183 125.5 298.5t349.5 115.5h494l-279 -1434h-159l120 623q10 40 17 51l-2 4q-14 -6 -49 -6h-80l-658 -672h-209zM954 815l4 4q-2 10 5 51l69 367
q3 12 6.5 23t7 19t3.5 9l-2 2q-21 -6 -54 -6h-258q-148 0 -226.5 -67.5t-78.5 -186.5q0 -207 266 -207h207q35 0 51 -8z" />
    <glyph glyph-name="uni0430" unicode="&#x430;" horiz-adv-x="1048" 
d="M389 -29q-155 0 -251.5 88.5t-96.5 231.5q0 157 105.5 252.5t283.5 95.5q133 0 222.5 -58.5t127.5 -160.5l6 2q-6 38 9 127q16 84 16 119q0 172 -221 172q-128 0 -311 -43l-29 137q182 41 354 41q350 0 350 -281q0 -46 -12 -114l-113 -580h-147q14 85 51 158l-8 4
q-117 -191 -336 -191zM434 96q123 0 210 63t87 154q0 85 -78.5 141t-195.5 56q-118 0 -188 -59.5t-70 -159.5q0 -89 63.5 -142t171.5 -53z" />
    <glyph glyph-name="uni0431" unicode="&#x431;" horiz-adv-x="1239" 
d="M596 -31q-75 0 -142 17t-129 57t-107 99t-72 150t-27 204q0 117 21.5 227t67 214t125.5 186t187 126q63 25 153.5 45t194.5 35.5t109 16.5q112 19 131 104h147q-15 -92 -69 -145.5t-152 -75.5q-30 -7 -122.5 -22t-178.5 -34t-149 -43q-151 -58 -233 -186.5t-101 -343.5h6
q28 97 76.5 169t111 113.5t131.5 61t146 19.5q196 0 321 -114t125 -317q0 -113 -38.5 -214.5t-109.5 -179t-180.5 -123.5t-242.5 -46zM618 115q93 0 169 33.5t123.5 89.5t73.5 127.5t26 150.5q0 152 -88 230.5t-230 78.5q-119 -1 -214 -56t-146 -145.5t-51 -197.5
q0 -148 95.5 -229.5t241.5 -81.5z" />
    <glyph glyph-name="uni0432" unicode="&#x432;" horiz-adv-x="1048" 
d="M817 475q58 -22 89.5 -72t31.5 -118q0 -128 -102.5 -206.5t-278.5 -78.5h-508l66 336l59 303l59 307h480q120 0 194 -52.5t74 -164.5q0 -149 -150 -205q-53 -18 -129 -24l-2 -4q70 -3 117 -21zM324 639h-2l-7 -39q-6 -37 -20 -55l2 -2q18 8 57 8h256q103 0 153 40t50 107
q0 113 -154 113h-253q-42 0 -56 8l-2 -2q6 -25 0 -53zM571 135q102 0 153.5 44.5t51.5 115.5q0 70 -50.5 104.5t-139.5 34.5h-254q-42 0 -56 8l-2 -2q6 -24 0 -55l-10 -49l-31 -154q-4 -32 -20 -53l2 -2q18 8 59 8h297z" />
    <glyph glyph-name="uni0433" unicode="&#x433;" horiz-adv-x="757" 
d="M49 0l184 946h607l-27 -137h-407q-42 0 -56 8l-2 -2q6 -25 0 -53l-149 -762h-150z" />
    <glyph glyph-name="uni0434" unicode="&#x434;" horiz-adv-x="1103" 
d="M-106 -287l79 414h76q33 0 47 -8l2 2q0 22 23 51q62 87 101.5 150t84.5 172t70 231l43 221h614l-149 -772q-7 -30 -21 -53l2 -2q16 8 58 8h57l-80 -414h-137l47 238q8 37 20 53l-2 2q-18 -8 -59 -8h-633q-41 0 -55 8l-2 -2q6 -25 0 -53l-47 -238h-139zM238 119q20 8 61 8
h385q41 0 55 -8l2 2q-6 25 0 53l117 592q8 36 21 53l-2 2q-18 -8 -60 -8h-231q-42 0 -56 8l-2 -2q6 -25 0 -53l-10 -49q-35 -177 -115 -347.5t-165 -248.5v-2z" />
    <glyph glyph-name="uni0435" unicode="&#x435;" horiz-adv-x="1110" 
d="M526 -31q-214 0 -335 117t-121 326q0 246 158 405.5t401 159.5q195 0 307.5 -103t112.5 -282q0 -58 -19 -143h-706q-74 0 -101 12l-4 -2l2 -17q0 -10 -1 -26t-1 -21q0 -134 81.5 -209t227.5 -75q100 0 184.5 37.5t174.5 123.5l92 -108q-109 -103 -216 -149t-237 -46z
M240 549q27 16 90 16h473q64 0 96 -14l4 2q-2 10 -2 35q0 123 -74 190.5t-209 67.5q-139 0 -244 -81.5t-136 -213.5z" />
    <glyph glyph-name="uni0436" unicode="&#x436;" horiz-adv-x="1413" 
d="M1368 952h86l-27 -131h-51q-45 0 -74 -18.5t-53 -63.5l-63 -112q-37 -68 -89.5 -97t-135.5 -34l-3 -4q86 -3 129 -30t50 -95l14 -158q4 -47 24 -65.5t62 -18.5h59l-26 -131h-96q-138 0 -150 145l-18 162q-6 69 -38.5 100t-101.5 31h-39q-47 0 -63 4l-2 -2q3 -37 -6 -86
l-68 -348h-78h-69l71 348q9 49 27 86l-2 2q-16 -4 -64 -4h-41q-60 0 -101.5 -32t-74.5 -101l-84 -170q-30 -64 -86 -99.5t-131 -35.5h-98l25 131h59q47 0 75.5 19t51.5 65l76 158q31 67 81.5 94.5t133.5 30.5l2 4q-81 5 -122.5 34t-53.5 97l-21 112q-9 45 -29.5 63.5
t-62.5 18.5h-51l24 131h86q124 0 146 -106l35 -164q15 -69 43 -98t96 -29h39q47 0 63 -4l2 2q-3 32 7 82l63 311h80h67l-61 -311q-6 -34 -27 -82l2 -2q16 4 64 4h39q59 0 92.5 27.5t75.5 99.5l98 164q65 106 213 106z" />
    <glyph glyph-name="uni0437" unicode="&#x437;" horiz-adv-x="925" 
d="M379 -31q-226 0 -402 94l68 132q169 -89 350 -89q133 0 201 45.5t68 129.5q0 157 -230 157h-198l24 123h199q108 0 172.5 40.5t64.5 115.5q0 121 -186 121q-145 0 -336 -72l-43 131q199 80 399 80q160 0 244 -56.5t84 -168.5q0 -98 -72 -166t-237 -78v-6
q123 -6 192.5 -62.5t69.5 -165.5q0 -62 -23.5 -115t-72.5 -96.5t-135 -68.5t-201 -25z" />
    <glyph glyph-name="uni0438" unicode="&#x438;" horiz-adv-x="1095" 
d="M47 -16l186 962h150l-86 -432q-29 -156 -55 -240l4 -2q60 80 135 146l627 545h41l-187 -963h-149l86 432q25 136 55 240l-4 2q-49 -71 -135 -146l-627 -544h-41z" />
    <glyph glyph-name="uni0439" unicode="&#x439;" horiz-adv-x="1095" 
d="M676 1024q-114 0 -180 58.5t-66 164.5q0 37 8 70h107q-4 -36 -4 -49q0 -70 36.5 -106t104.5 -36q78 0 133.5 49t75.5 142h108q-26 -144 -110 -218.5t-213 -74.5zM47 -16l186 962h150l-86 -432q-29 -156 -55 -240l4 -2q60 80 135 146l627 545h41l-187 -963h-149l86 432
q25 136 55 240l-4 2q-49 -71 -135 -146l-627 -544h-41z" />
    <glyph glyph-name="uni043A" unicode="&#x43a;" horiz-adv-x="989" 
d="M758 -6q-68 0 -111 35t-49 110l-14 162q-6 66 -38.5 95.5t-103.5 29.5h-106q-50 0 -62 4l-4 -2q3 -37 -6 -86l-65 -342h-150l184 946h150l-59 -305q-8 -44 -27 -82l2 -2q16 4 63 4h107q58 0 90.5 25t71.5 96l98 164q66 106 215 106h88l-26 -135h-52q-78 0 -120 -78
l-66 -112q-40 -71 -89.5 -99.5t-139.5 -31.5v-4q90 -4 130 -36t46 -102l16 -145q3 -44 24 -62t62 -18h57l-26 -135h-90z" />
    <glyph glyph-name="uni043B" unicode="&#x43b;" horiz-adv-x="1124" 
d="M1073 946l-182 -946h-150l148 762q7 33 20 53l-2 2q-16 -8 -57 -8h-377q-41 0 -57 8l-2 -2q7 -20 0 -53l-23 -117l-78 -405q-25 -125 -96 -185.5t-194 -60.5h-91l27 135h68q60 0 95 38t50 118l72 360l55 301h774z" />
    <glyph glyph-name="uni043C" unicode="&#x43c;" horiz-adv-x="1316" 
d="M557 -14l-111 479q-28 119 -28 180h-6q-20 -76 -76 -182l-240 -463h-170l502 961h35l135 -560q18 -82 18 -141h7q24 64 71 141l338 560h35l139 -961h-147l-64 465q-14 107 -6 180h-6q-20 -53 -98 -178l-291 -481h-37z" />
    <glyph glyph-name="uni043D" unicode="&#x43d;" horiz-adv-x="1122" 
d="M922 946h149l-184 -946h-148l76 391q7 37 21 55l-2 3q-25 -11 -58 -11h-444q-34 0 -53 11l-3 -3q5 -20 -2 -55l-75 -391h-150l184 946h148l-62 -325q-7 -35 -20 -56l2 -2q23 10 57 10h443q37 0 55 -10l2 2q-6 16 2 56z" />
    <glyph glyph-name="uni043E" unicode="&#x43e;" horiz-adv-x="1169" 
d="M532 -31q-213 0 -337.5 120.5t-124.5 324.5q0 119 43 223.5t117.5 179t179.5 117.5t225 43q215 0 340 -120.5t125 -324.5q0 -241 -162.5 -402t-405.5 -161zM547 115q170 0 284.5 118t114.5 295q0 140 -86.5 221.5t-236.5 81.5q-171 0 -285.5 -118t-114.5 -295
q0 -140 87 -221.5t237 -81.5z" />
    <glyph glyph-name="uni043F" unicode="&#x43f;" horiz-adv-x="1079" 
d="M1040 946l-184 -946h-149l149 762q8 36 21 53l-3 2q-18 -8 -59 -8h-420q-41 0 -55 8l-2 -2q6 -25 0 -53l-150 -762h-149l184 946h817z" />
    <glyph glyph-name="uni0440" unicode="&#x440;" horiz-adv-x="1218" 
d="M-31 -410l264 1356h150q-28 -136 -55 -203l6 -4q55 112 159 175t232 63q189 0 305.5 -125t116.5 -326q0 -157 -68 -284.5t-188.5 -200t-269.5 -72.5q-150 0 -250 70t-135 199l-9 -2q3 -79 -28 -236l-80 -410h-150zM596 109q171 0 284 118.5t113 298.5q0 143 -83.5 227.5
t-227.5 84.5q-172 0 -290 -121.5t-118 -300.5q0 -141 86.5 -224t235.5 -83z" />
    <glyph glyph-name="uni0441" unicode="&#x441;" horiz-adv-x="1009" 
d="M561 -31q-219 0 -352 129t-133 342q0 237 154.5 387t398.5 150q205 0 372 -123l-86 -121q-136 103 -294 103q-167 0 -277.5 -111.5t-110.5 -280.5q0 -148 92 -240.5t238 -92.5q122 0 258 77l66 -127q-159 -92 -326 -92z" />
    <glyph glyph-name="uni0442" unicode="&#x442;" horiz-adv-x="917" 
d="M997 946l-26 -137h-324q-41 0 -55 8l-2 -2q6 -25 0 -53l-15 -70l-135 -692h-149l137 692l14 70q8 36 21 53l-2 2q-18 -8 -60 -8h-325l26 137h895z" />
    <glyph glyph-name="uni0443" unicode="&#x443;" horiz-adv-x="976" 
d="M1051 946l-850 -1358h-170l309 490l-229 868h161l131 -526q35 -145 27 -236l8 2q23 76 86 179l357 581h170z" />
    <glyph glyph-name="uni0444" unicode="&#x444;" horiz-adv-x="1732" 
d="M627 -410l84 435q24 115 55 198h-6q-104 -254 -344 -254q-155 0 -244.5 112t-89.5 318q0 160 54 290.5t158 209t241 78.5q124 0 209.5 -66.5t109.5 -195.5h6q0 70 25 207l94 489h139l-94 -489q-28 -130 -55 -199h6q58 131 142.5 192.5t201.5 61.5q157 0 245.5 -112.5
t88.5 -315.5q0 -162 -54.5 -293t-159.5 -209t-243 -78q-122 0 -205 64.5t-108 199.5l-9 -2q0 -89 -24 -206l-84 -435h-139zM473 109q78 0 143.5 37.5t108 99.5t66 138.5t22.5 156.5q-2 135 -68 216t-184 81q-78 0 -141 -38t-101 -100.5t-58 -140t-19 -160.5
q2 -137 59 -213.5t172 -76.5zM1174 109q79 0 142 38t101 102t58 141t20 161q-2 135 -57.5 210t-169.5 75q-105 0 -185.5 -65t-120 -162.5t-38.5 -205.5q0 -131 66 -212.5t184 -81.5z" />
    <glyph glyph-name="uni0445" unicode="&#x445;" horiz-adv-x="954" 
d="M995 946l-366 -391q-33 -42 -68 -63l-2 -7q17 -11 43 -61l240 -424h-160l-166 303q-34 73 -37 105h-6q-20 -48 -80 -111l-280 -297h-185l414 446q52 52 68 60l2 6q-18 14 -45 63l-207 371h162l137 -248q32 -63 37 -114h4q16 34 31 54.5t49 57.5l231 250h184z" />
    <glyph glyph-name="uni0446" unicode="&#x446;" horiz-adv-x="1120" 
d="M780 -287l47 240q8 36 21 53l-2 2q-18 -8 -60 -8h-737l184 946h150l-150 -762q-8 -37 -20 -53l2 -2q18 8 59 8h416q41 0 55 -8l3 2q-6 25 0 53l149 762h147l-147 -762q-8 -37 -20 -53l2 -2q18 8 59 8h63l-81 -424h-140z" />
    <glyph glyph-name="uni0447" unicode="&#x447;" horiz-adv-x="956" 
d="M760 946h147l-57 -301l-127 -645h-148l52 270h2l12 68q8 52 27 84l-2 2q-173 -66 -320 -66q-133 0 -208 52t-75 178q0 45 13 112l47 246h149l-43 -227q-12 -55 -12 -90q0 -129 160 -129q121 0 307 61l16 84z" />
    <glyph glyph-name="uni0448" unicode="&#x448;" horiz-adv-x="1642" 
d="M1446 946h147l-184 -946h-1360l184 946h150l-150 -762q-8 -37 -20 -53l2 -2q18 8 59 8h359q41 0 55 -8l2 2q-6 25 0 53l150 762h149l-149 -762q-8 -36 -21 -53l2 -2q18 8 60 8h358q41 0 55 -8l2 2q-6 25 0 53z" />
    <glyph glyph-name="uni0449" unicode="&#x449;" horiz-adv-x="1667" 
d="M1327 -287l47 240q8 36 21 53l-2 2q-18 -8 -60 -8h-1284l184 946h150l-150 -762q-8 -37 -20 -53l2 -2q18 8 59 8h359q41 0 55 -8l2 2q-6 25 0 53l150 762h149l-149 -762q-8 -36 -21 -53l2 -2q18 8 60 8h358q41 0 55 -8l2 2q-6 25 0 53l150 762h147l-147 -762
q-8 -36 -21 -53l2 -2q18 8 60 8h61l-82 -424h-139z" />
    <glyph glyph-name="uni044A" unicode="&#x44a;" horiz-adv-x="1136" 
d="M758 600q132 0 220.5 -69t88.5 -205q0 -147 -103.5 -236.5t-275.5 -89.5h-430l68 350l67 340l15 72q8 37 20 53l-2 2q-18 -8 -59 -8h-291l26 137h490l-51 -256l-9 -43q-2 -26 -20 -55l2 -2q23 10 57 10h187zM696 135q104 0 158.5 49.5t54.5 130.5q0 148 -178 148h-184
q-35 0 -55 10l-3 -2q6 -16 -2 -55l-12 -66l-33 -168q-7 -33 -20 -53l2 -2q16 8 57 8h215z" />
    <glyph glyph-name="uni044B" unicode="&#x44b;" horiz-adv-x="1269" 
d="M551 600q131 0 219 -69t88 -205q0 -147 -103.5 -236.5t-275.5 -89.5h-430l70 350l65 340l49 256h150l-51 -256l-6 -43q-5 -29 -21 -55v-2q23 10 57 10h189zM1071 946h148l-185 -946h-147zM487 135q105 0 160 49.5t55 130.5q0 148 -180 148h-184q-35 0 -55 10l-2 -2
q6 -16 -2 -55l-13 -66l-33 -168q-8 -37 -20 -53l2 -2q18 8 59 8h213z" />
    <glyph glyph-name="uni044C" unicode="&#x44c;" horiz-adv-x="929" 
d="M551 600q131 0 219 -69t88 -205q0 -147 -103.5 -236.5t-275.5 -89.5h-430l70 350l65 340l49 256h150l-51 -256l-6 -43q-5 -29 -21 -55v-2q23 10 57 10h189zM487 135q105 0 160 49.5t55 130.5q0 148 -180 148h-184q-35 0 -55 10l-2 -2q6 -16 -2 -55l-13 -66l-33 -168
q-8 -37 -20 -53l2 -2q18 8 59 8h213z" />
    <glyph glyph-name="uni044D" unicode="&#x44d;" horiz-adv-x="1015" 
d="M379 -31q-207 0 -371 123l88 121q137 -102 293 -102q135 0 231 66.5t132 176.5q12 35 32 64l-2 2q-18 -10 -55 -10h-391l2 127h391q35 0 53 -11l2 2l-18 72q-22 106 -107.5 171t-203.5 65q-130 0 -267 -78l-63 127q160 92 334 92q215 0 343 -129t128 -344
q0 -151 -66.5 -272t-193 -192t-291.5 -71z" />
    <glyph glyph-name="uni044E" unicode="&#x44e;" horiz-adv-x="1515" 
d="M983 977q213 0 338 -120.5t125 -324.5q0 -119 -43 -223.5t-117.5 -179t-179.5 -117.5t-225 -43q-212 0 -336 117.5t-127 319.5h-96q-36 0 -54 10l-4 -2q7 -19 0 -56l-69 -358h-146l184 946h144l-70 -356q-8 -39 -20 -55l2 -3q25 11 59 11h84q40 192 191.5 313t359.5 121z
M895 115q170 0 283.5 118t113.5 295q0 140 -86.5 221.5t-236.5 81.5q-170 0 -284 -118t-114 -295q0 -140 87 -221.5t237 -81.5z" />
    <glyph glyph-name="uni044F" unicode="&#x44f;" horiz-adv-x="974" 
d="M926 946l-127 -647l-58 -299h-149l57 299l6 29q10 40 21 55l-2 2q-21 -8 -58 -8h-75l-404 -377h-198l2 6l313 291q58 55 115 86v4q-29 -7 -58 -4q-83 6 -141.5 83t-58.5 179q0 138 98.5 219.5t267.5 81.5h449zM713 623l28 141q9 36 21 53l-2 2q-19 -8 -60 -8h-221
q-95 0 -150 -43.5t-55 -118.5q0 -66 44 -103.5t122 -37.5h201q38 0 57 -8l2 2q-6 15 0 55z" />
    <glyph glyph-name="uni0451" unicode="&#x451;" horiz-adv-x="1110" 
d="M637 1303l-45 -238h-152l45 238h152zM961 1303l-46 -238h-151l45 238h152zM526 -31q-214 0 -335 117t-121 326q0 246 158 405.5t401 159.5q195 0 307.5 -103t112.5 -282q0 -58 -19 -143h-706q-74 0 -101 12l-4 -2l2 -17q0 -10 -1 -26t-1 -21q0 -134 81.5 -209t227.5 -75
q100 0 184.5 37.5t174.5 123.5l92 -108q-109 -103 -216 -149t-237 -46zM240 549q27 16 90 16h473q64 0 96 -14l4 2q-2 10 -2 35q0 123 -74 190.5t-209 67.5q-139 0 -244 -81.5t-136 -213.5z" />
    <glyph glyph-name="uni0452" unicode="&#x452;" horiz-adv-x="1124" 
d="M717 977q151 0 229 -79.5t78 -231.5q0 -53 -18 -158l-101 -508l-24 -131q-31 -156 -112 -219.5t-214 -63.5h-98l26 138h82q72 0 111.5 36t56.5 121l23 119l100 512q12 53 12 111q0 104 -56.5 160.5t-160.5 56.5q-141 0 -234.5 -102.5t-131.5 -299.5l-84 -438h-150
l185 946l34 178q7 35 19 54v2q-20 -9 -58 -9h-86l19 97h86q39 0 53 -8l2 2q-5 20 2 55l29 147h149l-30 -147q-7 -36 -19 -55v-2q18 8 60 8h284l-18 -97h-285q-39 0 -55 9l-2 -2q6 -24 0 -54l-35 -178l-8 -39q-22 -123 -62 -217l9 -2q66 149 162 219t231 70z" />
    <glyph glyph-name="uni0453" unicode="&#x453;" horiz-adv-x="757" 
d="M946 1346l-332 -316h-122l256 316h198zM49 0l184 946h607l-27 -137h-407q-42 0 -56 8l-2 -2q6 -25 0 -53l-149 -762h-150z" />
    <glyph glyph-name="uni0454" unicode="&#x454;" horiz-adv-x="1005" 
d="M627 977q206 0 370 -123l-88 -121q-139 103 -293 103q-135 0 -230.5 -67t-131.5 -177q-11 -32 -33 -64l2 -2q20 11 56 11h391l-2 -127h-392q-37 0 -53 10l-4 -2q10 -28 21 -72q22 -106 107.5 -170.5t203.5 -64.5q131 0 266 77l64 -127q-160 -92 -334 -92q-215 0 -343 129
t-128 344q0 151 66.5 272t193 192t291.5 71z" />
    <glyph glyph-name="uni0455" unicode="&#x455;" horiz-adv-x="819" 
d="M70 248q157 -139 315 -139q78 0 122 33t44 91q0 39 -22.5 72t-77.5 72l-123 86q-86 60 -126 122.5t-40 137.5q0 117 79 185.5t214 68.5q169 0 327 -107l-77 -122q-137 90 -242 90q-69 0 -108.5 -32t-39.5 -87q0 -41 23.5 -72t91.5 -78l113 -77q87 -61 124.5 -122
t37.5 -139q0 -126 -83 -194t-237 -68q-234 0 -405 162z" />
    <glyph glyph-name="uni0456" unicode="&#x456;" horiz-adv-x="432" 
d="M483 1434l-53 -269h-168l53 269h168zM383 946l-184 -946h-150l184 946h150z" />
    <glyph glyph-name="uni0457" unicode="&#x457;" horiz-adv-x="432" 
d="M291 1303l-45 -238h-152l45 238h152zM614 1303l-45 -238h-151l45 238h151zM383 946l-184 -946h-150l184 946h150z" />
    <glyph glyph-name="uni0458" unicode="&#x458;" horiz-adv-x="432" 
d="M483 1434l-53 -269h-168l53 269h168zM383 946l-207 -1069q-33 -168 -125.5 -242.5t-251.5 -74.5h-28l28 145h19q92 0 142 44.5t71 154.5l202 1042h150z" />
    <glyph glyph-name="uni0459" unicode="&#x459;" horiz-adv-x="1622" 
d="M1243 600q131 0 219 -69t88 -205q0 -147 -103.5 -236.5t-275.5 -89.5h-430l150 762q7 33 20 53l-2 2q-16 -8 -57 -8h-379q-41 0 -57 8l-2 -2q7 -20 0 -53l-23 -117l-78 -405q-46 -246 -290 -246h-91l27 135h68q60 0 95 38t50 118l72 360l55 301h776l-57 -299
q-7 -33 -21 -55v-2q23 10 60 10h186zM1180 135q105 0 160 49.5t55 130.5q0 148 -181 148h-184q-35 0 -55 10l-2 -2q6 -16 -2 -55l-45 -234q-8 -36 -21 -53l2 -2q18 8 60 8h213z" />
    <glyph glyph-name="uni045A" unicode="&#x45a;" horiz-adv-x="1611" 
d="M1233 600q131 0 219 -69t88 -205q0 -147 -103.5 -236.5t-275.5 -89.5h-426l80 416q5 30 21 55v2q-18 -8 -58 -8h-440q-39 0 -53 8l-4 -2q5 -14 -2 -55l-80 -416h-150l184 946h150l-57 -299q-6 -31 -21 -55v-2q23 10 57 10h441q35 0 53 -10l4 2q-6 16 2 55l58 299h145
l-57 -299q-6 -31 -21 -55v-2q23 10 57 10h189zM1169 135q105 0 160 49.5t55 130.5q0 148 -180 148h-184q-35 0 -55 10l-2 -2q6 -16 -2 -55l-46 -234q-8 -37 -20 -53l2 -2q18 8 59 8h213z" />
    <glyph glyph-name="uni045B" unicode="&#x45b;" horiz-adv-x="1124" 
d="M717 977q151 0 229 -79.5t78 -231.5q0 -53 -18 -158l-101 -508h-149l100 512q12 53 12 111q0 104 -56.5 160.5t-160.5 56.5q-141 0 -234.5 -102.5t-131.5 -299.5l-84 -438h-150l185 946l34 178q7 35 19 54v2q-20 -9 -58 -9h-86l19 97h86q39 0 53 -8l2 2q-5 20 2 55
l29 147h149l-30 -147q-7 -36 -19 -55v-2q18 8 60 8h284l-18 -97h-285q-39 0 -55 9l-2 -2q6 -24 0 -54l-35 -178l-8 -39q-22 -123 -62 -217l9 -2q66 149 162 219t231 70z" />
    <glyph glyph-name="uni045C" unicode="&#x45c;" horiz-adv-x="989" 
d="M989 1346l-332 -316h-122l256 316h198zM758 -6q-68 0 -111 35t-49 110l-14 162q-6 66 -38.5 95.5t-103.5 29.5h-106q-50 0 -62 4l-4 -2q3 -37 -6 -86l-65 -342h-150l184 946h150l-59 -305q-8 -44 -27 -82l2 -2q16 4 63 4h107q58 0 90.5 25t71.5 96l98 164q66 106 215 106
h88l-26 -135h-52q-78 0 -120 -78l-66 -112q-40 -71 -89.5 -99.5t-139.5 -31.5v-4q90 -4 130 -36t46 -102l16 -145q3 -44 24 -62t62 -18h57l-26 -135h-90z" />
    <glyph glyph-name="uni045E" unicode="&#x45e;" horiz-adv-x="976" 
d="M588 1024q-114 0 -180 58.5t-66 164.5q0 37 8 70h107q-4 -36 -4 -49q0 -70 36.5 -106t104.5 -36q78 0 133.5 49t75.5 142h108q-26 -144 -110 -218.5t-213 -74.5zM1051 946l-850 -1358h-170l309 490l-229 868h161l131 -526q35 -145 27 -236l8 2q23 76 86 179l357 581h170z
" />
    <glyph glyph-name="uni045F" unicode="&#x45f;" horiz-adv-x="1099" 
d="M334 -287l47 240q8 37 20 53l-2 2q-18 -8 -59 -8h-291l184 946h150l-150 -762q-8 -37 -20 -53l2 -2q18 8 59 8h422q42 0 56 -8l2 2q-6 25 0 53l147 762h150l-185 -946h-291q-41 0 -55 8l-2 -2q6 -25 0 -53l-47 -240h-137z" />
    <glyph glyph-name="uni0462" unicode="&#x462;" horiz-adv-x="1312" 
d="M201 0l196 1020q7 36 15 49l-2 4q-14 -6 -54 -6h-219l25 139h221q34 0 53 -8l2 4q-3 13 4 51l35 181h160l-35 -181q-6 -34 -16 -51l4 -4q16 8 51 8h385l-27 -139h-385q-39 0 -51 6l-4 -4q4 -20 -2 -49l-25 -137q-9 -37 -16 -49l2 -5q16 7 53 7h250q206 0 323.5 -97.5
t117.5 -283.5q0 -213 -147.5 -334t-385.5 -121h-528zM385 143q25 7 53 7h297q172 0 265.5 82.5t93.5 218.5q0 117 -72.5 177t-210.5 60h-268q-39 0 -51 6l-5 -4q4 -19 -2 -49l-86 -444q-11 -43 -16 -52z" />
    <glyph glyph-name="uni0463" unicode="&#x463;" horiz-adv-x="978" 
d="M600 600q131 0 219 -69t88 -205q0 -147 -103 -236.5t-274 -89.5h-432l152 774q7 35 22 55l-2 2q-22 -10 -59 -10h-133l24 125h136q39 0 53 -8l2 2q-6 24 0 53l92 471h147l-90 -471q-7 -36 -20 -53l2 -2q18 8 57 8h299l-24 -125h-299q-37 0 -54 10l-2 -2q5 -20 -2 -55
l-24 -127q-5 -29 -21 -55v-2q22 10 58 10h188zM537 135q105 0 160 49.5t55 130.5q0 148 -181 148h-184q-35 0 -55 10l-2 -2q6 -16 -2 -55l-45 -234q-8 -36 -21 -53l2 -2q18 8 60 8h213z" />
    <glyph glyph-name="uni0472" unicode="&#x472;" horiz-adv-x="1710" 
d="M965 1464q210 0 370 -82.5t249 -237.5t89 -360q0 -168 -61 -317.5t-168 -259.5t-263.5 -174t-338.5 -64q-320 0 -515.5 185t-195.5 495q0 168 61 317.5t169 259.5t265 174t339 64zM1458 784q37 0 55 -6l5 4q-6 25 -9 64q-13 210 -166.5 335.5t-392.5 125.5
q-240 0 -405.5 -128t-225.5 -343q-9 -29 -26 -54l2 -4q20 6 57 6h1106zM1487 600q9 30 26 51l-2 4q-20 -6 -59 -6h-1106q-37 0 -55 6l-4 -4q3 -10 8 -63q9 -139 82 -244t196.5 -161t280.5 -56q241 0 406 128t227 345z" />
    <glyph glyph-name="uni0473" unicode="&#x473;" horiz-adv-x="1169" 
d="M635 977q208 0 336.5 -117t128.5 -328q0 -153 -70 -281t-201 -205t-297 -77q-208 0 -335 116.5t-127 328.5q0 153 70 281t200 205t295 77zM948 510v35q-4 138 -93 215.5t-232 77.5q-156 0 -260 -94t-134 -232l2 -4q32 14 105 14h508q75 0 100 -14zM547 109
q156 0 259.5 93.5t133.5 231.5l-2 4q-32 -14 -104 -14h-508q-76 0 -101 14l-4 -2q-2 -12 -2 -35q6 -138 95.5 -215t232.5 -77z" />
    <glyph glyph-name="uni0474" unicode="&#x474;" horiz-adv-x="1331" 
d="M508 -25l-313 1459h172l170 -899q27 -138 24 -236h8q31 82 117 236l371 671q37 66 66.5 106.5t72 77t97.5 52.5t128 16q28 0 90 -4l-26 -147q-54 4 -74 4q-62 0 -107 -39.5t-106 -143.5l-672 -1153h-18z" />
    <glyph glyph-name="uni0475" unicode="&#x475;" horiz-adv-x="995" 
d="M1053 965h28l-28 -146h-19q-52 0 -86.5 -19.5t-64.5 -68.5l-482 -745h-41l-249 960h163l109 -493q19 -87 25.5 -126t7.5 -98h6q26 63 49 107t70 117l217 346q31 51 63.5 84t92 57.5t139.5 24.5z" />
    <glyph glyph-name="uni048E" unicode="&#x48e;" horiz-adv-x="1101" 
d="M1163 1071q0 -148 -79.5 -253t-221.5 -146l148 -205l-64 -47l-168 233q-44 -8 -104 -8h-268q-34 0 -52 6l-4 -2q2 -5 -4 -51l-117 -598h-159l278 1434h416q187 0 293 -96.5t106 -266.5zM768 803q107 20 167 89t60 173q0 103 -62.5 161t-176.5 58h-228q-33 0 -51 6l-4 -2
q1 -6 -4 -51l-76 -393q-2 -24 -14 -53l2 -3q21 7 53 7h242h2l-107 147l62 45z" />
    <glyph glyph-name="uni048F" unicode="&#x48f;" horiz-adv-x="1218" 
d="M1147 526q0 -156 -67.5 -283t-184.5 -198l117 -141l-56 -47l-127 153q-96 -41 -208 -41q-150 0 -250 70t-135 199l-9 -2q3 -79 -28 -236l-80 -410h-150l264 1356h150q-28 -136 -55 -203l6 -4q55 112 159 175t232 63q189 0 305.5 -125t116.5 -326zM596 109q67 0 135 22
l-137 168l55 45l150 -180q91 53 142.5 147.5t51.5 214.5q0 143 -83.5 227.5t-227.5 84.5q-172 0 -290 -121.5t-118 -300.5q0 -141 86.5 -224t235.5 -83z" />
    <glyph glyph-name="uni0490" unicode="&#x490;" horiz-adv-x="997" 
d="M1061 1720h158l-82 -436h-609q-33 0 -51 6l-4 -2q2 -14 -4 -51l-240 -1237h-159l278 1434h606q31 0 52 -7l4 3q-2 14 4 51z" />
    <glyph glyph-name="uni0491" unicode="&#x491;" horiz-adv-x="782" 
d="M770 1231h150l-82 -422h-432q-42 0 -56 8l-2 -2q6 -25 0 -53l-149 -762h-150l184 946h433q41 0 55 -8l2 2q-6 25 0 53z" />
    <glyph glyph-name="uni0492" unicode="&#x492;" horiz-adv-x="1099" 
d="M639 1282q-33 0 -51 6l-4 -2q2 -14 -4 -51l-33 -172l-27 -135q-5 -29 -16 -51l4 -3q24 7 51 7h414l-29 -152h-414q-31 0 -49 6l-6 -2q3 -20 -2 -51l-133 -682h-158l133 682q2 25 15 51l-2 2q-24 -6 -54 -6h-202l28 152h203q27 0 51 -7l4 3q-2 14 4 51l27 135l72 371h805
l-29 -152h-598z" />
    <glyph glyph-name="uni0493" unicode="&#x493;" horiz-adv-x="835" 
d="M481 809q-41 0 -55 8l-2 -2q7 -20 0 -53l-35 -172q-8 -40 -18 -53l2 -2q18 8 57 8h266l-28 -140h-267q-34 0 -53 11l-2 -2q6 -22 -2 -52l-70 -360h-149l72 360q9 38 20 52l-2 2q-25 -11 -59 -11h-113l27 140h114q40 0 54 -8l2 2q-6 24 0 53l69 356h606l-26 -137h-408z
" />
    <glyph glyph-name="uni0494" unicode="&#x494;" horiz-adv-x="1255" 
d="M834 856q160 0 242.5 -63t82.5 -211q0 -47 -14 -136l-29 -145l-61 -317q-36 -194 -132.5 -294t-287.5 -100h-152l29 150h121q108 0 173 59.5t91 188.5l59 313l29 143q10 58 10 91q0 92 -52 129.5t-155 37.5q-173 0 -436 -75l-123 -627h-159l204 1053l74 381h830l-29 -150
h-621q-33 0 -51 6l-4 -2q3 -20 -2 -51l-35 -184h-2l-39 -199q-8 -47 -24 -76l4 -2q236 80 459 80z" />
    <glyph glyph-name="uni0495" unicode="&#x495;" horiz-adv-x="958" 
d="M285 -410l26 140h103q97 0 152.5 44t76.5 150l59 301q7 47 7 66q0 68 -39.5 97.5t-118.5 29.5q-121 0 -285 -60l-69 -358h-148l184 946h646l-27 -137h-449q-41 0 -55 8l-2 -2q6 -25 0 -53l-37 -180q-9 -60 -26 -84l2 -2q170 63 315 63q127 0 193.5 -53t66.5 -170
q0 -60 -10 -109l-62 -317q-29 -158 -116 -239t-246 -81h-141z" />
    <glyph glyph-name="uni0496" unicode="&#x496;" horiz-adv-x="1925" 
d="M1907 1440q43 0 98 -6l-29 -150q-40 4 -57 4q-63 0 -106.5 -23t-71.5 -81l-105 -213q-54 -116 -123.5 -159.5t-195.5 -49.5v-4q108 -6 153.5 -51t51.5 -166l14 -256q4 -70 38 -101.5t99 -31.5q22 0 72 4l-10 -52h80l-76 -391h-150l56 281h-25q-226 0 -236 254l-14 278
q-3 88 -46 126t-142 38h-76q-50 0 -62 4l-4 -2q3 -37 -6 -86l-116 -606h-158l119 606q7 42 26 86l-2 2q-16 -4 -63 -4h-86q-86 0 -142 -38.5t-94 -125.5l-139 -319q-47 -110 -124.5 -161.5t-195.5 -51.5q-41 0 -94 6l31 156q50 -4 65 -4q67 0 110.5 30t72.5 97l125 286
q44 104 105 146.5t181 46.5v4q-117 6 -167 51t-60 160l-22 211q-6 59 -42.5 81.5t-99.5 22.5q-23 0 -63 -4l30 150q49 6 86 6q109 0 164.5 -43.5t65.5 -145.5l28 -247q10 -93 59 -135t146 -42h88q36 0 60 -6l2 2q-3 35 6 82l102 529h158l-102 -529q-7 -41 -27 -82l2 -2
q24 6 66 6h86q92 0 153 41.5t107 135.5l121 249q49 102 124 144.5t181 42.5z" />
    <glyph glyph-name="uni0497" unicode="&#x497;" horiz-adv-x="1511" 
d="M1186 627q-37 -68 -89.5 -97t-135.5 -34l-3 -4q86 -3 129 -30t50 -95l14 -158q4 -47 24 -65.5t62 -18.5h59l-8 -37h94l-71 -375h-135l53 281h-55q-138 0 -150 145l-18 162q-6 69 -38.5 100t-101.5 31h-39q-47 0 -63 4l-2 -2q3 -37 -6 -86l-68 -348h-78h-69l71 348
q9 49 27 86l-2 2q-16 -4 -64 -4h-41q-60 0 -101.5 -32t-74.5 -101l-84 -170q-30 -64 -86 -99.5t-131 -35.5h-98l25 131h59q47 0 75.5 19t51.5 65l76 158q31 67 81.5 94.5t133.5 30.5l2 4q-81 5 -122.5 34t-53.5 97l-21 112q-9 45 -29.5 63.5t-62.5 18.5h-51l24 131h86
q124 0 146 -106l35 -164q15 -69 43 -98t96 -29h39q47 0 63 -4l2 2q-3 32 7 82l63 311h80h67l-61 -311q-6 -34 -27 -82l2 -2q16 4 64 4h39q59 0 92.5 27.5t75.5 99.5l98 164q65 106 213 106h86l-27 -131h-51q-45 0 -74 -18.5t-53 -63.5z" />
    <glyph glyph-name="uni0498" unicode="&#x498;" horiz-adv-x="1300" 
d="M893 741q109 -25 171 -106.5t62 -210.5q0 -65 -15.5 -125.5t-54 -120t-96.5 -104t-150 -73.5t-208 -32l-29 -49q152 -37 152 -129q0 -34 -20.5 -66.5t-46.5 -54.5t-76 -49t-81 -40.5t-89 -37.5l-15 56q55 28 79.5 41t56 33.5t43.5 37.5t12 35q0 54 -133 82l80 141
q-268 8 -488 135l86 146q213 -121 442 -121q194 0 290 78t96 213q0 133 -86.5 196.5t-227.5 63.5h-209l31 154h207q151 0 257.5 74.5t106.5 203.5q0 195 -280 195q-212 0 -426 -80l-51 149q252 88 487 88q215 0 327.5 -86.5t112.5 -247.5q0 -132 -73 -216t-226 -128
q-60 -20 -166 -26l-2 -6q80 0 150 -13z" />
    <glyph glyph-name="uni0499" unicode="&#x499;" horiz-adv-x="925" 
d="M549 502q123 -6 192.5 -62.5t69.5 -165.5q0 -59 -21.5 -110t-66 -94t-123 -70t-182.5 -31l-29 -49q152 -37 152 -129q0 -25 -11 -48.5t-25.5 -42t-43 -39t-50 -33.5t-60.5 -31.5t-60.5 -27.5t-63.5 -26l-14 56q54 27 79.5 41t56 34t42.5 37t12 35q0 54 -133 82l80 141
q-208 8 -373 94l68 132q169 -89 350 -89q133 0 201 45.5t68 129.5q0 157 -230 157h-198l24 123h199q108 0 172.5 40.5t64.5 115.5q0 121 -186 121q-145 0 -336 -72l-43 131q199 80 399 80q160 0 244 -56.5t84 -168.5q0 -98 -72 -166t-237 -78v-6z" />
    <glyph glyph-name="uni049A" unicode="&#x49a;" horiz-adv-x="1325" 
d="M1288 1440q40 0 92 -6l-28 -152q-40 4 -60 4q-64 0 -109.5 -22.5t-72.5 -79.5l-100 -213q-53 -115 -123 -159t-197 -50v-4q120 -6 168.5 -57.5t56.5 -165.5l19 -254q6 -74 39 -101.5t100 -27.5q26 0 76 4l-10 -52h73l-75 -391h-150l55 281h-20q-47 0 -86.5 11.5t-73 37.5
t-54 73t-24.5 113l-22 283q-4 89 -53.5 129.5t-149.5 40.5h-141q-48 0 -64 4l-2 -2q3 -37 -6 -86l-117 -598h-159l278 1434h160l-100 -523q-7 -36 -27 -82l2 -2q28 7 66 7h145q95 0 155 38.5t105 131.5l119 249q47 103 124 145t191 42z" />
    <glyph glyph-name="uni049B" unicode="&#x49b;" horiz-adv-x="1091" 
d="M768 627q-40 -71 -89.5 -99.5t-139.5 -31.5v-4q90 -4 130 -36t46 -102l16 -145q3 -44 24 -62t62 -18h57l-8 -41h97l-72 -375h-135l53 281h-51q-68 0 -111 35t-49 110l-14 162q-6 66 -38.5 95.5t-103.5 29.5h-106q-50 0 -62 4l-4 -2q3 -37 -6 -86l-65 -342h-150l184 946
h150l-59 -305q-8 -44 -27 -82l2 -2q16 4 63 4h107q58 0 90.5 25t71.5 96l98 164q66 106 215 106h88l-26 -135h-52q-78 0 -120 -78z" />
    <glyph glyph-name="uni049C" unicode="&#x49c;" horiz-adv-x="1253" 
d="M1288 1440q40 0 92 -6l-28 -152q-40 4 -60 4q-64 0 -109.5 -22.5t-72.5 -79.5l-100 -213q-53 -115 -123 -159t-197 -50v-4q120 -6 168.5 -57.5t56.5 -165.5l19 -254q6 -74 39 -101.5t100 -27.5q26 0 76 4l-31 -156q-52 -6 -96 -6q-47 0 -86.5 11.5t-73 37.5t-54 73
t-24.5 113l-22 283q-4 88 -53 128t-150 40l-57 -301h-86l59 303h-57q-48 0 -64 4l-2 -2q3 -37 -6 -86l-117 -598h-159l278 1434h160l-100 -523q-7 -36 -27 -82l2 -2q28 7 66 7h55l59 296h84l-57 -296h4q95 0 155 38.5t105 131.5l119 249q47 103 124 145t191 42z" />
    <glyph glyph-name="uni049D" unicode="&#x49d;" horiz-adv-x="989" 
d="M944 952h88l-26 -135h-52q-78 0 -120 -78l-66 -112q-40 -71 -89.5 -99.5t-139.5 -31.5v-4q90 -4 130 -36t46 -102l16 -145q3 -44 24 -62t62 -18h57l-26 -135h-90q-68 0 -111 35t-49 110l-14 162q-6 66 -38.5 95.5t-103.5 29.5h-6l-47 -242h-59l47 242h-41q-50 0 -62 4
l-4 -2q3 -37 -6 -86l-65 -342h-150l184 946h150l-59 -305q-8 -44 -27 -82l2 -2q16 4 63 4h41l46 236h59l-45 -236h6q58 0 90.5 25t71.5 96l98 164q66 106 215 106z" />
    <glyph glyph-name="uni049E" unicode="&#x49e;" horiz-adv-x="1382" 
d="M1419 1440q39 0 92 -6l-30 -152q-36 4 -60 4q-131 0 -180 -102l-102 -213q-51 -115 -121.5 -159t-196.5 -50v-4q121 -6 169.5 -58t53.5 -165l15 -254q4 -74 37.5 -101.5t101.5 -27.5q24 0 74 4l-31 -156q-49 -6 -94 -6q-101 0 -166.5 54.5t-71.5 180.5l-16 283
q-4 89 -53 130.5t-148 41.5h-143q-48 0 -64 4l-2 -2q3 -38 -6 -84l-117 -602h-159l196 1020q7 36 15 49l-2 4q-14 -6 -54 -6h-219l25 139h221q34 0 53 -8l2 4q-3 13 4 51l35 181h160l-35 -181q-6 -34 -16 -51l4 -4q16 8 51 8h250l-27 -139h-250q-39 0 -51 6l-4 -4
q4 -20 -2 -49l-25 -123q-8 -40 -26 -82l2 -2q24 6 65 6h146q96 0 157.5 44.5t106.5 140.5l119 249q49 102 126.5 144.5t190.5 42.5z" />
    <glyph glyph-name="uni049F" unicode="&#x49f;" horiz-adv-x="991" 
d="M946 952h86l-24 -135h-52q-42 0 -69.5 -18t-50.5 -60l-66 -112q-40 -71 -89.5 -99.5t-139.5 -31.5l-2 -4q91 -4 131.5 -36t46.5 -102l14 -145q4 -44 25 -62t61 -18h60l-29 -135h-88q-68 0 -111 35t-49 110l-14 162q-6 66 -38.5 95.5t-103.5 29.5h-106q-50 0 -62 4l-4 -2
q3 -37 -6 -86l-65 -342h-150l185 946l34 178q7 35 21 54l-2 2q-20 -9 -58 -9h-86l21 97h84q39 0 53 -8l2 2q-5 20 2 55l29 147h149l-30 -147q-8 -40 -19 -55l2 -2q18 8 58 8h286l-20 -97h-285q-39 0 -55 9l-2 -2q6 -24 0 -54l-35 -178l-59 -305q-8 -44 -27 -82l2 -2
q16 4 64 4h104q60 0 92.5 25t71.5 96l98 164q63 106 215 106z" />
    <glyph glyph-name="uni04A0" unicode="&#x4a0;" horiz-adv-x="1495" 
d="M1530 1440q40 0 92 -6l-29 -152q-40 4 -61 4q-131 0 -180 -102l-101 -213q-52 -115 -122.5 -159t-196.5 -50v-4q121 -6 169.5 -58t53.5 -165l14 -254q4 -74 38 -101.5t102 -27.5q23 0 73 4l-30 -156q-50 -6 -95 -6q-224 0 -237 235l-16 283q-4 89 -52.5 130.5
t-148.5 41.5h-144q-47 0 -63 4l-2 -2q3 -38 -6 -84l-117 -602h-160l197 1006l45 231q5 29 16 51l-2 2q-21 -6 -55 -6h-334l29 150h541l-82 -428l-21 -109q-9 -35 -29 -82l2 -2q24 6 66 6h147q96 0 157 44.5t108 140.5l118 249q47 102 125 144.5t191 42.5z" />
    <glyph glyph-name="uni04A1" unicode="&#x4a1;" horiz-adv-x="1161" 
d="M1114 952h88l-26 -135h-52q-40 0 -67.5 -18t-52.5 -60l-66 -112q-42 -70 -91 -99t-138 -32v-4q90 -4 130 -36t48 -102l14 -145q4 -44 24.5 -62t61.5 -18h57l-26 -135h-90q-66 0 -109.5 35t-50.5 110l-14 162q-6 66 -38 95.5t-104 29.5h-104q-48 0 -64 4l-2 -2
q3 -37 -6 -86l-67 -342h-150l139 713l11 49q8 37 20 53l-2 2q-18 -8 -59 -8h-252l26 137h451l-45 -233l-14 -72q-8 -44 -27 -82l2 -2q16 4 63 4h107q60 0 91 24.5t71 96.5l98 164q66 106 215 106z" />
    <glyph glyph-name="uni04A2" unicode="&#x4a2;" horiz-adv-x="1400" 
d="M1466 1434l-258 -1330h80l-76 -391h-149l55 287h-92l125 641q7 33 16 49l-2 4q-16 -6 -55 -6h-696q-39 0 -49 6l-5 -4q3 -14 -4 -49l-125 -641h-161l278 1434h162l-107 -549q-8 -39 -14 -49l2 -5q16 7 53 7h697q35 0 51 -7l4 5q-4 20 2 49l107 549h161z" />
    <glyph glyph-name="uni04A3" unicode="&#x4a3;" horiz-adv-x="1130" 
d="M1071 946l-166 -858h96l-71 -375h-135l55 287h-111l76 391q7 37 21 55l-2 3q-25 -11 -58 -11h-444q-34 0 -53 11l-3 -3q5 -20 -2 -55l-75 -391h-150l184 946h148l-62 -325q-7 -35 -20 -56l2 -2q23 10 57 10h443q37 0 55 -10l2 2q-6 16 2 56l62 325h149z" />
    <glyph glyph-name="uni04A4" unicode="&#x4a4;" horiz-adv-x="1832" 
d="M1276 1434h723l-29 -152h-514q-32 0 -53 6l-2 -2q2 -14 -4 -51l-25 -131l-213 -1104h-162l125 641q6 31 17 49l-4 4q-14 -6 -54 -6h-667q-39 0 -49 6l-5 -4q3 -14 -4 -49l-125 -641h-161l278 1434h162l-107 -549q-8 -39 -14 -49l2 -5q16 7 53 7h668q35 0 49 -7l4 5
q-3 15 4 49l43 219z" />
    <glyph glyph-name="uni04A5" unicode="&#x4a5;" horiz-adv-x="1380" 
d="M893 946h569l-28 -137h-369q-41 0 -55 8l-2 -2q6 -25 0 -53l-15 -70l-135 -692h-149l77 391q7 37 21 55l-2 3q-25 -11 -60 -11h-413q-34 0 -53 11l-3 -3q5 -20 -2 -55l-75 -391h-150l184 946h148l-62 -325q-7 -35 -20 -56l2 -2q23 10 57 10h414q35 0 55 -10l2 2
q-7 19 0 56l15 71z" />
    <glyph glyph-name="uni04A6" unicode="&#x4a6;" horiz-adv-x="2187" 
d="M1800 872q163 0 247.5 -63t84.5 -207q0 -50 -12 -115l-13 -65l-8 -47q-35 -186 -136.5 -280.5t-297.5 -94.5h-174l29 150h137q126 0 192 52t93 177l8 43l12 63q8 36 8 72q0 88 -55 126t-160 38q-168 0 -459 -76l-125 -645h-159l207 1059l32 178q5 26 17 51l-2 2
q-21 -6 -54 -6h-684q-33 0 -51 6l-4 -2q3 -16 -4 -51l-240 -1237h-159l278 1434h1102l-72 -375l-37 -187q-9 -50 -24 -75l4 -4q237 79 479 79z" />
    <glyph glyph-name="uni04A7" unicode="&#x4a7;" horiz-adv-x="1607" 
d="M948 -410l29 140h102q93 0 151 44.5t79 149.5l59 307q8 41 8 76q0 74 -37.5 104.5t-117.5 30.5q-124 0 -285 -61l-74 -381h-147l149 762q8 36 21 53l-2 2q-18 -8 -60 -8h-420q-41 0 -55 8l-2 -2q6 -25 0 -53l-149 -762h-148l184 946h814l-66 -342q-12 -60 -29 -84l4 -2
q169 66 312 66q129 0 194.5 -55t65.5 -177q0 -37 -15 -129l-59 -313q-60 -320 -356 -320h-150z" />
    <glyph glyph-name="uni04A8" unicode="&#x4a8;" horiz-adv-x="1624" 
d="M721 -31q-125 0 -230 38t-186.5 115t-127.5 205t-46 296q0 131 28.5 251.5t91.5 228.5t154 188t225 126.5t296 46.5q169 0 311 -51l-72 -145q-117 37 -243 37q-128 0 -233 -39t-175.5 -105t-119 -155t-70 -186.5t-21.5 -201.5q0 -253 119 -381t323 -128q24 0 78 2.5
t78 3.5v4q-60 16 -94 71q-100 145 -100 359q0 150 50 275t155 204.5t249 79.5q161 0 253.5 -98.5t92.5 -282.5q0 -157 -68 -308.5t-206 -252.5q-61 -42 -111 -55v-5q28 0 62 -1t43 -1q99 0 225 64l49 -127q-159 -72 -299 -72q-173 0 -215 58l-4 -2q-109 -56 -262 -56z
M1020 158h4q5 14 17 24.5t32 23t29 19.5q115 86 180.5 215.5t65.5 270.5q0 239 -193 239q-71 0 -127.5 -33.5t-90.5 -90t-51.5 -128t-17.5 -151.5q0 -191 90 -311q9 -11 23 -25t23.5 -25.5t15.5 -27.5z" />
    <glyph glyph-name="uni04A9" unicode="&#x4a9;" horiz-adv-x="1177" 
d="M483 -31q-66 0 -124.5 14t-112 47t-92 82.5t-61.5 124.5t-23 169q0 117 36 218.5t106 181t183.5 125.5t257.5 46q134 0 246 -41l-61 -131q-84 33 -181 33q-106 0 -189.5 -35.5t-134.5 -96.5t-77.5 -138t-26.5 -165q0 -143 64.5 -213.5t169.5 -83.5q41 -7 108 -12l2 4
q-46 21 -73 56q-54 66 -54 178q0 95 36.5 175.5t115 133.5t186.5 53q118 0 192.5 -62.5t74.5 -189.5q0 -183 -158 -309q-34 -27 -80 -47l2 -2q32 -4 82 0q48 6 129 43l43 -104q-121 -54 -227 -54q-56 0 -98 12t-54 33h-4q-91 -45 -203 -45zM705 109l4 2q4 25 59 55
q62 40 101.5 109.5t39.5 148.5q0 73 -36 108t-95 35q-88 0 -138 -68.5t-50 -170.5q0 -56 19.5 -102t41 -68.5t54.5 -48.5z" />
    <glyph glyph-name="uni04AA" unicode="&#x4aa;" horiz-adv-x="1431" 
d="M965 1305q-188 0 -340.5 -87t-239 -240t-86.5 -341q0 -238 136 -373t374 -135q103 0 198.5 30.5t202.5 98.5l86 -133q-238 -156 -503 -156h-11l-26 -49q151 -37 151 -129q0 -34 -20.5 -66.5t-46.5 -54.5t-76 -49t-81 -40.5t-89 -37.5l-14 56q54 27 79.5 41t56 34t42.5 37
t12 35q0 54 -133 82l80 143q-272 23 -431 199.5t-159 458.5q0 239 109.5 430t305 298t441.5 107q285 0 487 -164l-98 -133q-192 138 -407 138z" />
    <glyph glyph-name="uni04AB" unicode="&#x4ab;" horiz-adv-x="1009" 
d="M621 836q-167 0 -277.5 -111.5t-110.5 -280.5q0 -148 92 -240.5t238 -92.5q122 0 258 77l66 -127q-155 -89 -320 -92l-26 -49q151 -37 151 -129q0 -34 -20.5 -66.5t-46.5 -54.5t-76 -49t-81 -40.5t-89 -37.5l-14 56q54 27 79.5 41t56 34t42.5 37t12 35q0 54 -133 82
l80 143q-195 19 -310.5 145t-115.5 324q0 237 154.5 387t398.5 150q205 0 372 -123l-86 -121q-136 103 -294 103z" />
    <glyph glyph-name="uni04AC" unicode="&#x4ac;" horiz-adv-x="1054" 
d="M207 1434h1014l-29 -152h-379q-31 0 -49 6l-6 -2q3 -20 -2 -51l-219 -1131h79l-75 -391h-150l55 287h-88l240 1235q6 35 14 51l-2 2q-21 -6 -53 -6h-379z" />
    <glyph glyph-name="uni04AD" unicode="&#x4ad;" horiz-adv-x="917" 
d="M997 946l-26 -137h-324q-41 0 -55 8l-2 -2q6 -25 0 -53l-15 -70l-118 -604h98l-72 -375h-135l55 287h-112l137 692l14 70q8 36 21 53l-2 2q-18 -8 -60 -8h-325l26 137h895z" />
    <glyph glyph-name="uni04AE" unicode="&#x4ae;" horiz-adv-x="1105" 
d="M1284 1434l-637 -873l-108 -561h-158l106 561l-292 873h174l166 -539q24 -79 33 -120.5t10 -94.5h8q40 91 125 215l374 539h199z" />
    <glyph glyph-name="uni04AF" unicode="&#x4af;" horiz-adv-x="974" 
d="M1049 946l-564 -852l-98 -504h-149l100 521l-227 835h163l119 -500q2 -7 6.5 -27t6 -24.5t5.5 -22.5t4 -21t3.5 -20t3 -20t2.5 -20t1.5 -21t0.5 -22.5t0 -24.5h6q15 41 33 78t32.5 60.5t53.5 84.5l315 500h183z" />
    <glyph glyph-name="uni04B0" unicode="&#x4b0;" horiz-adv-x="1105" 
d="M653 559q18 6 52 6h243l-26 -139h-250q-37 0 -49 6l-7 -4q4 -19 -2 -49l-71 -379h-160l72 379q8 39 14 49l-2 4q-14 -6 -53 -6h-250l26 139h244q33 0 51 -6l4 2l-294 873h178l164 -533q23 -77 31.5 -118.5t11.5 -98.5h6q24 55 48.5 96.5t78.5 120.5l372 533h199
l-635 -873z" />
    <glyph glyph-name="uni04B1" unicode="&#x4b1;" horiz-adv-x="974" 
d="M485 94q23 10 58 10h227l-27 -137h-237q-36 0 -53 10l-2 -2q5 -20 -2 -55l-64 -330h-149l65 330q7 37 21 55l-3 2q-23 -10 -57 -10h-233l26 137h228q35 0 53 -10l2 2h4l-231 850h163l119 -500q2 -7 6.5 -27t6 -24.5t5.5 -22.5t4 -21t3.5 -20t3 -20t2.5 -20t1.5 -21
t0.5 -22.5t0 -24.5h6q15 41 33 78t32.5 60.5t53.5 84.5l315 500h183z" />
    <glyph glyph-name="uni04B2" unicode="&#x4b2;" horiz-adv-x="1292" 
d="M872 541l211 -437h99l-76 -391h-150l56 287h-62l-213 461q-54 116 -65 182h-6q-18 -40 -134 -180l-387 -463h-213l476 559q15 17 56.5 64.5t73 82.5t52.5 54l2 6q-26 37 -109 217l-219 451h187l174 -390q29 -64 37.5 -83.5t17 -45.5t12.5 -51h8q17 38 134 178l327 392
h207l-401 -469q-160 -183 -197 -215l-2 -7q33 -50 104 -202z" />
    <glyph glyph-name="uni04B3" unicode="&#x4b3;" horiz-adv-x="1048" 
d="M602 424l191 -336h127l-72 -375h-135l55 287h-86l-166 303q-34 73 -37 105h-6q-20 -48 -80 -111l-280 -297h-185l414 446q52 52 68 60l2 6q-18 14 -45 63l-207 371h162l137 -248q32 -63 37 -114h4q16 34 31 54.5t49 57.5l231 250h184l-366 -391q-33 -42 -68 -63l-2 -7
q17 -11 43 -61z" />
    <glyph glyph-name="uni04B4" unicode="&#x4b4;" horiz-adv-x="1675" 
d="M1382 143q24 7 56 7h102l-84 -435h-153l47 238q5 29 16 51l-2 2q-21 -6 -55 -6h-957l191 963l51 272q6 35 14 51l-2 2q-18 -6 -53 -6h-375l29 152h989l-29 -152h-356q-33 0 -51 6l-4 -2q3 -20 -2 -51l-54 -272h-2l-147 -766q-5 -31 -16 -52l2 -2q28 7 55 7h588
q30 0 51 -7l4 2q-3 21 2 52l240 1237h159l-239 -1237q-5 -28 -17 -52z" />
    <glyph glyph-name="uni04B5" unicode="&#x4b5;" horiz-adv-x="1230" 
d="M1014 129q18 8 59 8h39l-84 -424h-139l47 240q7 33 20 53v2q-18 -8 -59 -8h-670l127 649l23 113q8 37 20 53l-2 2q-18 -8 -59 -8h-260l26 137h738l-27 -137h-231q-42 0 -56 8l-2 -2q6 -25 0 -53l-22 -113l-90 -465q-8 -36 -21 -53l2 -2q18 8 60 8h372q42 0 56 -8l2 2
q-6 25 0 53l149 762h148l-148 -762q-8 -37 -20 -53z" />
    <glyph glyph-name="uni04B6" unicode="&#x4b6;" horiz-adv-x="1177" 
d="M1243 1434l-258 -1330h80l-76 -391h-149l55 287h-90l110 567q9 49 25 76l-2 2q-228 -80 -432 -80q-375 0 -375 314q0 73 23 178l75 377h158l-78 -396q-14 -66 -14 -118q0 -60 17.5 -100.5t52.5 -60.5t75 -28t95 -8q156 0 426 76l122 635h160z" />
    <glyph glyph-name="uni04B7" unicode="&#x4b7;" horiz-adv-x="950" 
d="M850 645l-74 -375l-35 -182h80l-73 -375h-136l58 287h-95l52 270h2l12 68q8 52 27 84l-2 2q-173 -66 -320 -66q-133 0 -208 52t-75 178q0 45 13 112l47 246h149l-43 -227q-12 -55 -12 -90q0 -129 160 -129q121 0 307 61l16 84l60 301h147z" />
    <glyph glyph-name="uni04B8" unicode="&#x4b8;" horiz-adv-x="1218" 
d="M1083 1434h160l-278 -1434h-160l110 567q9 49 25 76l-2 2q-169 -58 -326 -74l-53 -280h-86l53 276q-6 -2 -20 -2q-375 0 -375 314q0 73 23 178l75 377h158l-78 -396q-14 -66 -14 -118q0 -60 17.5 -100.5t52.5 -60.5t75 -28t95 -8h22l64 319h84l-62 -313q117 13 318 70z
" />
    <glyph glyph-name="uni04B9" unicode="&#x4b9;" horiz-adv-x="956" 
d="M760 946h147l-57 -301l-127 -645h-148l52 270h2l12 68q8 52 27 84l-2 2q-115 -43 -217 -57l-37 -183h-60l35 176q-7 0 -20.5 -1t-20.5 -1q-133 0 -208 52t-75 178q0 45 13 112l47 246h149l-43 -227q-12 -55 -12 -90q0 -129 160 -129q6 0 18.5 1t18.5 1l41 215h61
l-41 -209q85 12 209 53l16 84z" />
    <glyph glyph-name="uni04BA" unicode="&#x4ba;" horiz-adv-x="1218" 
d="M508 1434l-109 -568q-13 -53 -24 -73l2 -5q224 80 430 80q377 0 377 -313q0 -51 -23 -178l-76 -377h-159l78 395q14 66 14 119q0 60 -18 100.5t-52.5 61.5t-74.5 29t-95 8q-149 0 -426 -78l-123 -635h-159l278 1434h160z" />
    <glyph glyph-name="uni04BB" unicode="&#x4bb;" horiz-adv-x="1126" 
d="M487 1464l-106 -538q-27 -142 -62 -224l9 -4q67 144 162.5 211.5t230.5 67.5q149 0 227 -79.5t78 -231.5q0 -68 -18 -158l-101 -508h-149l100 512q12 53 12 111q0 104 -55.5 160.5t-159.5 56.5q-142 0 -236 -102.5t-132 -299.5l-84 -438h-150l285 1464h149z" />
    <glyph glyph-name="uni04BC" unicode="&#x4bc;" horiz-adv-x="1878" 
d="M1049 -31q-128 0 -237.5 32.5t-187 88t-132.5 130t-81.5 158.5t-27.5 173q0 61 12 90l-4 2q-20 -10 -67 -10q-104 0 -163 57t-59 162q0 41 23 119h143q-16 -54 -16 -84q0 -55 26 -80t87 -25q37 0 47 -6l4 2q0 34 12 80q77 274 289.5 440t509.5 166q185 0 328 -65.5
t226 -197t83 -312.5q0 -86 -37 -256h-1198q-47 0 -78 12l-2 -4q4 -17 4 -80q0 -86 34 -164t96.5 -138t159.5 -96t214 -36q277 0 510 207l94 -129q-273 -236 -612 -236zM580 774q33 8 90 8h923q74 0 99 -8l6 4q-3 5 -3.5 17t0 30.5t-0.5 48.5q-1 138 -62.5 237t-166.5 147.5
t-244 48.5q-111 0 -206 -29t-160 -74.5t-116.5 -107t-80.5 -119t-48 -119.5q-16 -48 -32 -80z" />
    <glyph glyph-name="uni04BD" unicode="&#x4bd;" horiz-adv-x="1314" 
d="M735 -31q-215 0 -339 114t-124 312q0 40 11 62l-4 2q-27 -10 -64 -10q-85 0 -129.5 41.5t-44.5 119.5q0 58 35 121h117q-31 -61 -31 -102q0 -29 18.5 -46.5t50.5 -17.5q39 0 60 -8l4 2q0 24 8 43q50 169 193 272t331 103q197 0 310.5 -103.5t113.5 -281.5q0 -56 -20 -143
h-707q-76 0 -100 12l-4 -2l2 -17q-4 -32 -4 -47q0 -135 82.5 -209.5t234.5 -74.5q100 0 183 37t176 124l92 -108q-113 -105 -217 -150t-234 -45zM440 549q27 16 90 16h476q69 0 94 -14l4 2q-1 4 -1 10t0.5 13.5t0.5 11.5q0 123 -75 190.5t-210 67.5q-141 0 -244 -80
t-137 -215z" />
    <glyph glyph-name="uni04BE" unicode="&#x4be;" horiz-adv-x="1878" 
d="M629 633q-47 0 -78 12l-2 -4q4 -17 4 -80q0 -86 34 -164t96.5 -138t159.5 -96t214 -36q277 0 510 207l94 -129q-159 -139 -340 -195q-122 -82 -178 -136.5t-56 -100.5q0 -54 74 -54q47 0 101 13l2 -94q-79 -23 -142 -23q-70 0 -110.5 33t-40.5 90q0 61 43.5 116.5
t132.5 118.5q-62 -4 -98 -4q-128 0 -237.5 32.5t-187 88t-132.5 130t-81.5 158.5t-27.5 173q0 61 12 90l-4 2q-20 -10 -67 -10q-104 0 -163 57t-59 162q0 41 23 119h143q-16 -54 -16 -84q0 -55 26 -80t87 -25q37 0 47 -6l4 2q0 34 12 80q77 274 289.5 440t509.5 166
q185 0 328 -65.5t226 -197t83 -312.5q0 -86 -37 -256h-1198zM610 858q-16 -48 -32 -80l2 -4q33 8 90 8h923q74 0 99 -8l6 4q-3 5 -3.5 17t0 30.5t-0.5 48.5q-1 138 -62.5 237t-166.5 147.5t-244 48.5q-111 0 -206 -29t-160 -74.5t-116.5 -107t-80.5 -119t-48 -119.5z" />
    <glyph glyph-name="uni04BF" unicode="&#x4bf;" horiz-adv-x="1314" 
d="M524 449q-76 0 -100 12l-4 -2l2 -17q-4 -32 -4 -47q0 -135 82.5 -209.5t234.5 -74.5q100 0 183 37t176 124l92 -108q-105 -99 -209 -148q-133 -88 -190.5 -142.5t-57.5 -102.5q0 -54 74 -54q48 0 98 13l4 -92q-79 -23 -141 -23q-71 0 -111.5 32.5t-40.5 90.5q0 60 43 115
t131 116h-51q-215 0 -339 114t-124 312q0 40 11 62l-4 2q-27 -10 -64 -10q-85 0 -129.5 41.5t-44.5 119.5q0 58 35 121h117q-31 -61 -31 -102q0 -29 18.5 -46.5t50.5 -17.5q39 0 60 -8l4 2q0 24 8 43q50 169 193 272t331 103q197 0 310.5 -103.5t113.5 -281.5
q0 -56 -20 -143h-707zM819 846q-141 0 -244 -80t-137 -215l2 -2q27 16 90 16h476q69 0 94 -14l4 2q-1 4 -1 10t0.5 13.5t0.5 11.5q0 123 -75 190.5t-210 67.5z" />
    <glyph glyph-name="uni04C0" unicode="&#x4c0;" horiz-adv-x="485" 
d="M510 1434l-279 -1434h-161l278 1434h162z" />
    <glyph glyph-name="uni04C1" unicode="&#x4c1;" horiz-adv-x="1861" 
d="M1126 1489q-117 0 -181 55t-64 154q0 32 6 69h104q-6 -34 -6 -55q0 -125 145 -125q88 0 135 47t66 133h109q-52 -278 -314 -278zM1907 1440q43 0 98 -6l-29 -150q-40 4 -57 4q-63 0 -106.5 -23t-71.5 -81l-105 -213q-54 -116 -123.5 -159.5t-195.5 -49.5v-4
q108 -6 153.5 -51t51.5 -166l14 -256q4 -70 38 -101.5t99 -31.5q22 0 72 4l-31 -156q-52 -6 -94 -6q-226 0 -236 254l-14 278q-3 88 -46 126t-142 38h-76q-50 0 -62 4l-4 -2q3 -37 -6 -86l-116 -606h-158l119 606q7 42 26 86l-2 2q-16 -4 -63 -4h-86q-86 0 -142 -38.5
t-94 -125.5l-139 -319q-47 -110 -124.5 -161.5t-195.5 -51.5q-41 0 -94 6l31 156q50 -4 65 -4q67 0 110.5 30t72.5 97l125 286q44 104 105 146.5t181 46.5v4q-117 6 -167 51t-60 160l-22 211q-6 59 -42.5 81.5t-99.5 22.5q-23 0 -63 -4l30 150q49 6 86 6q109 0 164.5 -43.5
t65.5 -145.5l28 -247q10 -93 59 -135t146 -42h88q36 0 60 -6l2 2q-3 35 6 82l102 529h158l-102 -529q-7 -41 -27 -82l2 -2q24 6 66 6h86q92 0 153 41.5t107 135.5l121 249q49 102 124 144.5t181 42.5z" />
    <glyph glyph-name="uni04C2" unicode="&#x4c2;" horiz-adv-x="1413" 
d="M813 1024q-114 0 -180 58.5t-66 164.5q0 37 8 70h107q-4 -36 -4 -49q0 -70 36.5 -106t104.5 -36q78 0 133.5 49t75.5 142h109q-26 -144 -110.5 -218.5t-213.5 -74.5zM1368 952h86l-27 -131h-51q-45 0 -74 -18.5t-53 -63.5l-63 -112q-37 -68 -89.5 -97t-135.5 -34l-3 -4
q86 -3 129 -30t50 -95l14 -158q4 -47 24 -65.5t62 -18.5h59l-26 -131h-96q-138 0 -150 145l-18 162q-6 69 -38.5 100t-101.5 31h-39q-47 0 -63 4l-2 -2q3 -37 -6 -86l-68 -348h-78h-69l71 348q9 49 27 86l-2 2q-16 -4 -64 -4h-41q-60 0 -101.5 -32t-74.5 -101l-84 -170
q-30 -64 -86 -99.5t-131 -35.5h-98l25 131h59q47 0 75.5 19t51.5 65l76 158q31 67 81.5 94.5t133.5 30.5l2 4q-81 5 -122.5 34t-53.5 97l-21 112q-9 45 -29.5 63.5t-62.5 18.5h-51l24 131h86q124 0 146 -106l35 -164q15 -69 43 -98t96 -29h39q47 0 63 -4l2 2q-3 32 7 82
l63 311h80h67l-61 -311q-6 -34 -27 -82l2 -2q16 4 64 4h39q59 0 92.5 27.5t75.5 99.5l98 164q65 106 213 106z" />
    <glyph glyph-name="uni04C3" unicode="&#x4c3;" horiz-adv-x="1222" 
d="M1274 1440q46 0 90 -8l-29 -150q-30 6 -57 6q-70 0 -113.5 -23.5t-70.5 -78.5l-103 -215q-44 -97 -115 -145.5t-194 -65.5v-4q228 -3 344.5 -73.5t116.5 -231.5q0 -59 -19 -152l-61 -315q-36 -194 -133 -294t-287 -100h-151l28 150h121q108 0 173 59.5t91 188.5l60 311
q14 69 14 113q0 65 -26 113t-71 78t-117.5 48t-154.5 25t-192 8q-50 0 -62 4l-4 -2q3 -37 -6 -84l-117 -602h-159l278 1434h160l-107 -541q-8 -49 -24 -82l2 -2q24 6 63 6h136q91 0 152 44.5t116 164.5l108 229q47 97 124.5 142t195.5 45z" />
    <glyph glyph-name="uni04C4" unicode="&#x4c4;" horiz-adv-x="974" 
d="M291 -410l28 140h103q93 0 150 44.5t79 149.5l45 230q9 65 9 94q0 179 -254 182l-115 2q-48 0 -64 4l-2 -2q3 -37 -6 -86l-67 -348h-148l184 946h148l-62 -311q-8 -40 -26 -82l2 -2q16 4 63 4h95q68 0 106 28t80 99l100 164q62 106 193 106h86l-25 -135h-53
q-40 0 -68 -18t-51 -60l-65 -112q-40 -71 -92.5 -98t-137.5 -29l-2 -6q161 0 246.5 -55t85.5 -179q0 -39 -14 -113l-49 -253q-30 -154 -118.5 -229t-246.5 -75h-137z" />
    <glyph glyph-name="uni04C5" unicode="&#x4c5;" horiz-adv-x="1527" 
d="M1542 1434l-110 -574l-142 -723h127l-223 -424h-133l139 287h-96l168 860l74 377q6 35 14 51l-2 2q-21 -6 -53 -6h-631q-33 0 -51 6l-5 -2q3 -20 -2 -51l-69 -348l-115 -590q-31 -165 -111 -237t-237 -72q-60 0 -125 8l29 149q47 -4 112 -4q72 0 114.5 37.5t61.5 132.5
l113 576l105 545h1048z" />
    <glyph glyph-name="uni04C6" unicode="&#x4c6;" horiz-adv-x="1140" 
d="M1073 946l-155 -809h120l-223 -424h-133l139 287h-80l148 762q7 33 20 53l-2 2q-16 -8 -57 -8h-377q-41 0 -57 8l-2 -2q7 -20 0 -53l-23 -117l-78 -405q-25 -125 -96 -185.5t-194 -60.5h-91l27 135h68q60 0 95 38t50 118l72 360l55 301h774z" />
    <glyph glyph-name="uni04C7" unicode="&#x4c7;" horiz-adv-x="1443" 
d="M702 -410l31 160h92q151 0 191 193l135 698q6 36 16 49l-2 4q-16 -6 -55 -6h-696q-39 0 -49 6l-5 -4q3 -14 -4 -49l-125 -641h-161l278 1434h162l-107 -549q-3 -31 -14 -49l2 -5q16 7 53 7h697q35 0 51 -7l4 5q-4 20 2 49l107 549h163l-290 -1491q-37 -191 -129 -272
t-254 -81h-93z" />
    <glyph glyph-name="uni04C8" unicode="&#x4c8;" horiz-adv-x="1122" 
d="M922 946h149l-184 -946l-25 -131q-31 -156 -111.5 -219.5t-213.5 -63.5h-99l27 138h82q72 0 111.5 36t56.5 121l22 119h2l76 391q7 37 21 55l-2 3q-25 -11 -58 -11h-444q-34 0 -53 11l-3 -3q5 -20 -2 -55l-75 -391h-150l184 946h148l-62 -325q-7 -35 -20 -56l2 -2
q23 10 57 10h443q37 0 55 -10l2 2q-6 16 2 56z" />
    <glyph glyph-name="uni04C9" unicode="&#x4c9;" horiz-adv-x="1445" 
d="M1466 1434l-252 -1297h123l-223 -424h-133l137 287h-92l125 641q7 33 16 49l-2 4q-16 -6 -55 -6h-696q-39 0 -49 6l-5 -4q3 -14 -4 -49l-125 -641h-161l278 1434h162l-107 -549q-8 -39 -14 -49l2 -5q16 7 53 7h697q35 0 51 -7l4 5q-4 20 2 49l107 549h161z" />
    <glyph glyph-name="uni04CA" unicode="&#x4ca;" horiz-adv-x="1136" 
d="M1071 946l-158 -809h123l-223 -424h-133l139 287h-80l76 391q7 37 21 55l-2 3q-25 -11 -58 -11h-444q-34 0 -53 11l-3 -3q5 -20 -2 -55l-75 -391h-150l184 946h148l-62 -325q-7 -35 -20 -56l2 -2q23 10 57 10h443q37 0 55 -10l2 2q-6 16 2 56l62 325h149z" />
    <glyph glyph-name="uni04CB" unicode="&#x4cb;" horiz-adv-x="1218" 
d="M1243 1434l-278 -1434h-109l-57 -287h-150l76 391h100l90 463q9 49 25 76l-2 2q-228 -80 -432 -80q-375 0 -375 314q0 73 23 178l75 377h158l-78 -396q-14 -66 -14 -118q0 -60 17.5 -100.5t52.5 -60.5t75 -28t95 -8q156 0 426 76l122 635h160z" />
    <glyph glyph-name="uni04CC" unicode="&#x4cc;" horiz-adv-x="956" 
d="M760 946h147l-57 -301l-127 -645h-105l-55 -287h-135l72 375h92l35 182h2l12 68q8 52 27 84l-2 2q-173 -66 -320 -66q-133 0 -208 52t-75 178q0 45 13 112l47 246h149l-43 -227q-12 -55 -12 -90q0 -129 160 -129q121 0 307 61l16 84z" />
    <glyph glyph-name="uni04CD" unicode="&#x4cd;" horiz-adv-x="1847" 
d="M1653 137h119l-224 -424h-133l139 287h-43l-75 844q-13 124 6 231h-6q-2 -5 -17 -41.5t-22.5 -53t-27 -54.5t-44.5 -80l-514 -866h-18l-179 866q-5 22 -8.5 42t-5.5 35t-4 32.5t-2.5 27t-1 26t-0.5 22v23v21.5h-6q-27 -121 -80 -231l-395 -844h-179l691 1458h20l195 -985
q13 -68 10 -180h8q25 86 78 180l573 985h21z" />
    <glyph glyph-name="uni04CE" unicode="&#x4ce;" horiz-adv-x="1392" 
d="M1186 137h133l-225 -424h-133l139 287h-41l-64 465q-14 107 -6 180h-6q-20 -53 -98 -178l-291 -481h-37l-111 479q-28 119 -28 180h-6q-20 -76 -76 -182l-240 -463h-170l502 961h35l135 -560q18 -82 18 -141h7q24 64 71 141l338 560h35z" />
    <glyph glyph-name="uni04CF" unicode="&#x4cf;" horiz-adv-x="432" 
d="M383 946l-184 -946h-150l184 946h150z" />
    <glyph glyph-name="uni04D0" unicode="&#x4d0;" horiz-adv-x="1390" 
d="M1202 1767q-52 -278 -313 -278q-117 0 -181.5 55t-64.5 154q0 32 6 69h105q-6 -35 -6 -55q0 -125 145 -125q89 0 135.5 47t65.5 133h108zM-68 0l947 1464h16l379 -1464h-164l-106 424h-613l-266 -424h-193zM463 555q50 4 115 4h286q67 0 117 -4v2q-23 44 -39 119l-76 340
q-23 119 -18 170h-8q-19 -64 -84 -170l-207 -340q-44 -70 -86 -119v-2z" />
    <glyph glyph-name="uni04D1" unicode="&#x4d1;" horiz-adv-x="1048" 
d="M631 1024q-114 0 -180 58.5t-66 164.5q0 37 8 70h107q-4 -36 -4 -49q0 -70 36.5 -106t104.5 -36q78 0 133.5 49t75.5 142h108q-26 -144 -110 -218.5t-213 -74.5zM389 -29q-155 0 -251.5 88.5t-96.5 231.5q0 157 105.5 252.5t283.5 95.5q133 0 222.5 -58.5t127.5 -160.5
l6 2q-6 38 9 127q16 84 16 119q0 172 -221 172q-128 0 -311 -43l-29 137q182 41 354 41q350 0 350 -281q0 -46 -12 -114l-113 -580h-147q14 85 51 158l-8 4q-117 -191 -336 -191zM434 96q123 0 210 63t87 154q0 85 -78.5 141t-195.5 56q-118 0 -188 -59.5t-70 -159.5
q0 -89 63.5 -142t171.5 -53z" />
    <glyph glyph-name="uni04D2" unicode="&#x4d2;" horiz-adv-x="1390" 
d="M694 1749h150l-45 -227h-150zM1032 1749h152l-45 -227h-152zM-68 0l947 1464h16l379 -1464h-164l-106 424h-613l-266 -424h-193zM463 555q50 4 115 4h286q67 0 117 -4v2q-23 44 -39 119l-76 340q-23 119 -18 170h-8q-19 -64 -84 -170l-207 -340q-44 -70 -86 -119v-2z" />
    <glyph glyph-name="uni04D3" unicode="&#x4d3;" horiz-adv-x="1048" 
d="M600 1303l-45 -238h-152l46 238h151zM924 1303l-45 -238h-152l45 238h152zM389 -29q-155 0 -251.5 88.5t-96.5 231.5q0 157 105.5 252.5t283.5 95.5q133 0 222.5 -58.5t127.5 -160.5l6 2q-6 38 9 127q16 84 16 119q0 172 -221 172q-128 0 -311 -43l-29 137q182 41 354 41
q350 0 350 -281q0 -46 -12 -114l-113 -580h-147q14 85 51 158l-8 4q-117 -191 -336 -191zM434 96q123 0 210 63t87 154q0 85 -78.5 141t-195.5 56q-118 0 -188 -59.5t-70 -159.5q0 -89 63.5 -142t171.5 -53z" />
    <glyph glyph-name="uni04D4" unicode="&#x4d4;" horiz-adv-x="1806" 
d="M1403 1284q-39 0 -51 6l-4 -4q2 -10 -5 -51l-63 -328q-7 -34 -16 -49l4 -4q12 6 53 6h475l-29 -149h-477q-30 0 -51 6l-2 -2q2 -14 -4 -53l-90 -463q-6 -33 -17 -52l2 -4q16 7 54 7h536l-28 -150h-738l74 375q7 39 14 51v4q-16 -6 -55 -6h-498l-360 -424h-195l1235 1434
h793l-29 -150h-528zM1012 559q39 0 51 -6l4 4q-3 15 4 49l111 561q12 62 37 138h-5q-42 -75 -94 -134l-454 -534q-50 -60 -93 -84l2 -4q37 10 109 10h328z" />
    <glyph glyph-name="uni04D5" unicode="&#x4d5;" horiz-adv-x="1798" 
d="M1231 -31q-156 0 -255.5 67.5t-133.5 194.5h-4q-126 -260 -428 -260q-168 0 -267.5 86.5t-99.5 235.5t101.5 247.5t283.5 98.5q129 0 221 -54.5t133 -158.5l6 2q-7 44 9 121q16 82 16 121q0 166 -217 166q-130 0 -315 -41l-29 137q187 43 358 43q139 0 218.5 -49
t93.5 -166h4q64 102 167.5 159.5t237.5 57.5q192 0 298 -107.5t106 -277.5q0 -57 -21 -143h-674q-72 0 -100 12l-4 -2l2 -17q-2 -16 -2 -47q0 -130 76 -207t221 -77q107 0 184 41t158 120l94 -108q-95 -93 -195 -144t-243 -51zM956 549q31 16 91 16h442q69 0 94 -14l4 2
q-1 4 -1 10t0.5 13.5t0.5 11.5q0 122 -70 190t-200 68q-67 0 -123.5 -18.5t-96 -48t-69.5 -69t-47.5 -79t-26.5 -80.5zM434 96q120 0 209.5 61.5t89.5 153.5q0 86 -79 142.5t-199 56.5q-127 0 -190.5 -65t-63.5 -154q0 -91 64 -143t169 -52z" />
    <glyph glyph-name="uni04D6" unicode="&#x4d6;" horiz-adv-x="1052" 
d="M1102 1767q-52 -278 -314 -278q-117 0 -181 55t-64 154q0 32 6 69h104q-6 -35 -6 -55q0 -125 146 -125q88 0 134.5 47t65.5 133h109zM1149 1434l-29 -150h-592q-33 0 -51 6l-4 -2q4 -22 -4 -51l-63 -330q-6 -31 -17 -49l4 -4q14 6 53 6h527l-29 -147h-526q-39 0 -51 6
l-5 -4q3 -13 -4 -51l-90 -467q-11 -42 -16 -52l2 -2q24 7 53 7h600l-28 -150h-809l278 1434h801z" />
    <glyph glyph-name="uni04D7" unicode="&#x4d7;" horiz-adv-x="1110" 
d="M668 1024q-114 0 -180 58.5t-66 164.5q0 37 8 70h107q-5 -45 -5 -49q0 -70 37 -106t105 -36q78 0 133.5 49t75.5 142h108q-26 -144 -110 -218.5t-213 -74.5zM526 -31q-214 0 -335 117t-121 326q0 246 158 405.5t401 159.5q195 0 307.5 -103t112.5 -282q0 -58 -19 -143
h-706q-74 0 -101 12l-4 -2l2 -17q0 -10 -1 -26t-1 -21q0 -134 81.5 -209t227.5 -75q100 0 184.5 37.5t174.5 123.5l92 -108q-109 -103 -216 -149t-237 -46zM240 549q27 16 90 16h473q64 0 96 -14l4 2q-2 10 -2 35q0 123 -74 190.5t-209 67.5q-139 0 -244 -81.5t-136 -213.5z
" />
    <glyph glyph-name="uni04D8" unicode="&#x4d8;" horiz-adv-x="1607" 
d="M915 1464q145 0 265 -40t208.5 -118.5t137.5 -202.5t49 -284q0 -178 -58.5 -334t-163.5 -270t-260 -180t-339 -66q-141 0 -256 37.5t-201.5 111t-134 192t-47.5 272.5q0 94 32 219h1196q44 0 80 -13l4 5q-10 27 -10 75q0 199 -143.5 319t-370.5 120q-258 0 -497 -193
l-87 135q267 215 596 215zM1401 659q-33 -8 -96 -8h-936q-74 0 -99 8l-6 -4q4 -8 4 -88q1 -95 28.5 -171t74 -125.5t110.5 -82.5t132.5 -47t144.5 -14q121 0 223.5 35t167 85t114.5 115.5t73 116t36 96.5q14 49 24 67q4 7 7 13z" />
    <glyph glyph-name="uni04D9" unicode="&#x4d9;" horiz-adv-x="1110" 
d="M584 977q214 0 335 -116.5t121 -325.5q0 -246 -158 -406t-401 -160q-195 0 -307.5 103t-112.5 282q0 58 19 144h706q72 0 101 -13l4 2l-2 17q0 10 1 26t1 21q0 134 -81.5 209.5t-227.5 75.5q-100 0 -184 -38t-175 -124l-92 108q109 103 216 149t237 46zM870 397
q-27 -16 -90 -16h-473q-64 0 -96 14l-4 -2q2 -10 2 -35q0 -123 74 -190.5t209 -67.5q141 0 245 81.5t135 213.5z" />
    <glyph glyph-name="uni04DA" unicode="&#x4da;" horiz-adv-x="1607" 
d="M782 1749h150l-45 -227h-150zM1120 1749h152l-45 -227h-152zM915 1464q145 0 265 -40t208.5 -118.5t137.5 -202.5t49 -284q0 -178 -58.5 -334t-163.5 -270t-260 -180t-339 -66q-141 0 -256 37.5t-201.5 111t-134 192t-47.5 272.5q0 94 32 219h1196q44 0 80 -13l4 5
q-10 27 -10 75q0 199 -143.5 319t-370.5 120q-258 0 -497 -193l-87 135q267 215 596 215zM1401 659q-33 -8 -96 -8h-936q-74 0 -99 8l-6 -4q4 -8 4 -88q1 -95 28.5 -171t74 -125.5t110.5 -82.5t132.5 -47t144.5 -14q121 0 223.5 35t167 85t114.5 115.5t73 116t36 96.5
q14 49 24 67q4 7 7 13z" />
    <glyph glyph-name="uni04DB" unicode="&#x4db;" horiz-adv-x="1110" 
d="M604 1303l-45 -238h-151l45 238h151zM928 1303l-45 -238h-152l45 238h152zM584 977q214 0 335 -116.5t121 -325.5q0 -246 -158 -406t-401 -160q-195 0 -307.5 103t-112.5 282q0 58 19 144h706q72 0 101 -13l4 2l-2 17q0 10 1 26t1 21q0 134 -81.5 209.5t-227.5 75.5
q-100 0 -184 -38t-175 -124l-92 108q109 103 216 149t237 46zM870 397q-27 -16 -90 -16h-473q-64 0 -96 14l-4 -2q2 -10 2 -35q0 -123 74 -190.5t209 -67.5q141 0 245 81.5t135 213.5z" />
    <glyph glyph-name="uni04DC" unicode="&#x4dc;" horiz-adv-x="1861" 
d="M1081 1749l-45 -227h-149l45 227h149zM1421 1749l-45 -227h-151l45 227h151zM1907 1440q43 0 98 -6l-29 -150q-40 4 -57 4q-63 0 -106.5 -23t-71.5 -81l-105 -213q-54 -116 -123.5 -159.5t-195.5 -49.5v-4q108 -6 153.5 -51t51.5 -166l14 -256q4 -70 38 -101.5t99 -31.5
q22 0 72 4l-31 -156q-52 -6 -94 -6q-226 0 -236 254l-14 278q-3 88 -46 126t-142 38h-76q-50 0 -62 4l-4 -2q3 -37 -6 -86l-116 -606h-158l119 606q7 42 26 86l-2 2q-16 -4 -63 -4h-86q-86 0 -142 -38.5t-94 -125.5l-139 -319q-47 -110 -124.5 -161.5t-195.5 -51.5
q-41 0 -94 6l31 156q50 -4 65 -4q67 0 110.5 30t72.5 97l125 286q44 104 105 146.5t181 46.5v4q-117 6 -167 51t-60 160l-22 211q-6 59 -42.5 81.5t-99.5 22.5q-23 0 -63 -4l30 150q49 6 86 6q109 0 164.5 -43.5t65.5 -145.5l28 -247q10 -93 59 -135t146 -42h88q36 0 60 -6
l2 2q-3 35 6 82l102 529h158l-102 -529q-7 -41 -27 -82l2 -2q24 6 66 6h86q92 0 153 41.5t107 135.5l121 249q49 102 124 144.5t181 42.5z" />
    <glyph glyph-name="uni04DD" unicode="&#x4dd;" horiz-adv-x="1413" 
d="M780 1303l-45 -238h-151l45 238h151zM1104 1303l-45 -238h-152l45 238h152zM1368 952h86l-27 -131h-51q-45 0 -74 -18.5t-53 -63.5l-63 -112q-37 -68 -89.5 -97t-135.5 -34l-3 -4q86 -3 129 -30t50 -95l14 -158q4 -47 24 -65.5t62 -18.5h59l-26 -131h-96q-138 0 -150 145
l-18 162q-6 69 -38.5 100t-101.5 31h-39q-47 0 -63 4l-2 -2q3 -37 -6 -86l-68 -348h-78h-69l71 348q9 49 27 86l-2 2q-16 -4 -64 -4h-41q-60 0 -101.5 -32t-74.5 -101l-84 -170q-30 -64 -86 -99.5t-131 -35.5h-98l25 131h59q47 0 75.5 19t51.5 65l76 158q31 67 81.5 94.5
t133.5 30.5l2 4q-81 5 -122.5 34t-53.5 97l-21 112q-9 45 -29.5 63.5t-62.5 18.5h-51l24 131h86q124 0 146 -106l35 -164q15 -69 43 -98t96 -29h39q47 0 63 -4l2 2q-3 32 7 82l63 311h80h67l-61 -311q-6 -34 -27 -82l2 -2q16 4 64 4h39q59 0 92.5 27.5t75.5 99.5l98 164
q65 106 213 106z" />
    <glyph glyph-name="uni04DE" unicode="&#x4de;" horiz-adv-x="1300" 
d="M623 1749h149l-45 -227h-149zM961 1749h151l-45 -227h-152zM569 -31q-290 0 -522 135l86 146q213 -121 442 -121q194 0 290 78t96 213q0 133 -86.5 196.5t-227.5 63.5h-209l31 154h207q151 0 257.5 74.5t106.5 203.5q0 195 -280 195q-212 0 -426 -80l-51 149
q252 88 487 88q215 0 327.5 -86.5t112.5 -247.5q0 -132 -73 -216t-226 -128q-60 -20 -166 -26l-2 -6q80 0 150 -13q109 -25 171 -106.5t62 -210.5q0 -67 -16.5 -129t-57.5 -122.5t-102.5 -105t-159.5 -71.5t-221 -27z" />
    </font>
</defs>
</svg>
