<?xml version="1.0" standalone="no"?>
<!DOCTYPE svg PUBLIC "-//W3C//DTD SVG 1.1//EN" "http://www.w3.org/Graphics/SVG/1.1/DTD/svg11.dtd" >
<svg xmlns="http://www.w3.org/2000/svg" xmlns:xlink="http://www.w3.org/1999/xlink" version="1.1">
<metadata>
Created by FontForge 20170731 at Sat Jul 23 01:52:12 2022
 By Aleksey,,,
Copyright (c) 2015 by Reto Moser. All rights reserved.
</metadata>
<defs>
<font id="GTEestiProText-Light" horiz-adv-x="1228" >
  <font-face 
    font-family="GT Eesti Pro Text Light"
    font-weight="300"
    font-stretch="normal"
    units-per-em="2048"
    panose-1="0 0 4 0 0 0 0 0 0 0"
    ascent="1536"
    descent="-512"
    x-height="946"
    cap-height="1434"
    bbox="-811 -516 2273 1843"
    underline-thickness="102"
    underline-position="-307"
    unicode-range="U+0020-FB02"
  />
<missing-glyph horiz-adv-x="1576" 
d="M788 -31q-213 0 -384 96.5t-267 267.5t-96 384q0 160 56.5 299t155 237.5t237 154.5t298.5 56q214 0 385 -95.5t267 -266.5t96 -385q0 -213 -96 -384t-267 -267.5t-385 -96.5zM788 20q149 0 279 53.5t223 146.5t146 224.5t53 282.5l-105 133l-143 -61l-139 184l-162 -90
l-152 242l-151 -242l-162 90l-139 -184l-143 61l-105 -133q0 -201 90.5 -363t250.5 -253t359 -91zM578 651q-31 0 -51.5 20.5t-20.5 51.5t20.5 51.5t51.5 20.5t51 -20.5t20 -51.5t-20 -51.5t-51 -20.5zM997 651q-31 0 -51 20.5t-20 51.5t20 51.5t51 20.5t51.5 -20.5
t20.5 -51.5t-20.5 -51.5t-51.5 -20.5zM702 522l74 207q1 7 8.5 10t14.5 0q6 -2 9.5 -8.5t0.5 -13.5l-57 -160h69q8 0 13.5 -5.5t5.5 -12.5q0 -6 -6 -11.5t-13 -5.5h-119zM385 350q-61 0 -101 40t-40 102t40 101.5t101 39.5t101 -39.5t40 -101.5t-40 -102t-101 -40zM1190 350
q-61 0 -101 40t-40 102t39.5 101.5t101.5 39.5t101.5 -39.5t39.5 -101.5t-40 -102t-101 -40zM788 395q-95 0 -126 -61q-6 -12 -19 -12q-16 0 -16 18q0 35 49.5 63.5t111.5 28.5t112 -28.5t50 -63.5q0 -18 -16 -18q-13 0 -19 12q-31 61 -127 61z" />
    <glyph glyph-name="fi" unicode="fi" horiz-adv-x="1103" 
d="M604 1452v-139h-16q-99 0 -150 -52.5t-51 -177.5v-86q-5 -50 -10 -61l6 -2q17 12 72 12h147v-139h-147q-55 0 -72 12l-6 -2q10 -34 10 -86v-731h-147v731q0 59 8 86l-2 2q-19 -12 -74 -12h-121v139h121q55 0 74 -12l2 2q-2 7 -8 59v78q0 103 28.5 179.5t77.5 118.5
t107 61.5t125 19.5h26zM967 1434v-269h-168v269h168zM956 946v-946h-147v946h147z" />
    <glyph glyph-name="fl" unicode="fl" horiz-adv-x="1103" 
d="M956 1464v-1464h-147v1464h147zM604 1452v-139h-16q-99 0 -150 -52.5t-51 -177.5v-86q-5 -50 -10 -61l6 -2q17 12 72 12h147v-139h-147q-55 0 -72 12l-6 -2q10 -34 10 -86v-731h-147v731q0 59 8 86l-2 2q-19 -12 -74 -12h-121v139h121q55 0 74 -12l2 2q-2 7 -8 59v78
q0 103 28.5 179.5t77.5 118.5t107 61.5t125 19.5h26z" />
    <glyph glyph-name="f_f" unicode="ff" horiz-adv-x="1327" 
d="M604 1452v-139h-16q-99 0 -150 -52.5t-51 -177.5v-86q-5 -50 -10 -61l6 -2q17 12 72 12h147v-139h-147q-55 0 -72 12l-6 -2q10 -34 10 -86v-731h-147v731q0 59 8 86l-2 2q-19 -12 -74 -12h-121v139h121q55 0 74 -12l2 2q-2 7 -8 59v78q0 103 28.5 179.5t77.5 118.5
t107 61.5t125 19.5h26zM1268 1452v-139h-17q-99 0 -149.5 -52.5t-50.5 -177.5v-86q-5 -47 -11 -61l7 -2q17 12 71 12h148v-139h-148q-54 0 -71 12l-7 -2q11 -37 11 -86v-731h-148v731q0 59 8 86l-2 2q-19 -12 -73 -12h-121v139h121q54 0 73 -12l2 2q-2 7 -8 59v78
q0 103 28.5 179.5t77.5 118.5t107 61.5t125 19.5h27z" />
    <glyph glyph-name="f_f_i" unicode="ffi" horiz-adv-x="1767" 
d="M604 1452v-139h-16q-99 0 -150 -52.5t-51 -177.5v-86q-5 -50 -10 -61l6 -2q17 12 72 12h147v-139h-147q-55 0 -72 12l-6 -2q10 -34 10 -86v-731h-147v731q0 59 8 86l-2 2q-19 -12 -74 -12h-121v139h121q55 0 74 -12l2 2q-2 7 -8 59v78q0 103 28.5 179.5t77.5 118.5
t107 61.5t125 19.5h26zM1268 1452v-139h-17q-99 0 -149.5 -52.5t-50.5 -177.5v-86q-5 -47 -11 -61l7 -2q17 12 71 12h148v-139h-148q-54 0 -71 12l-7 -2q11 -37 11 -86v-731h-148v731q0 59 8 86l-2 2q-19 -12 -73 -12h-121v139h121q54 0 73 -12l2 2q-2 7 -8 59v78
q0 103 28.5 179.5t77.5 118.5t107 61.5t125 19.5h27zM1630 1434v-269h-168v269h168zM1620 946v-946h-147v946h147z" />
    <glyph glyph-name="f_f_l" unicode="ffl" horiz-adv-x="1767" 
d="M1620 1464v-1464h-147v1464h147zM604 1452v-139h-16q-99 0 -150 -52.5t-51 -177.5v-86q-5 -50 -10 -61l6 -2q17 12 72 12h147v-139h-147q-55 0 -72 12l-6 -2q10 -34 10 -86v-731h-147v731q0 59 8 86l-2 2q-19 -12 -74 -12h-121v139h121q55 0 74 -12l2 2q-2 7 -8 59v78
q0 103 28.5 179.5t77.5 118.5t107 61.5t125 19.5h26zM1268 1452v-139h-17q-99 0 -149.5 -52.5t-50.5 -177.5v-86q-5 -47 -11 -61l7 -2q17 12 71 12h148v-139h-148q-54 0 -71 12l-7 -2q11 -37 11 -86v-731h-148v731q0 59 8 86l-2 2q-19 -12 -73 -12h-121v139h121q54 0 73 -12
l2 2q-2 7 -8 59v78q0 103 28.5 179.5t77.5 118.5t107 61.5t125 19.5h27z" />
    <glyph glyph-name=".notdef" horiz-adv-x="1576" 
d="M788 -31q-213 0 -384 96.5t-267 267.5t-96 384q0 160 56.5 299t155 237.5t237 154.5t298.5 56q214 0 385 -95.5t267 -266.5t96 -385q0 -213 -96 -384t-267 -267.5t-385 -96.5zM788 20q149 0 279 53.5t223 146.5t146 224.5t53 282.5l-105 133l-143 -61l-139 184l-162 -90
l-152 242l-151 -242l-162 90l-139 -184l-143 61l-105 -133q0 -201 90.5 -363t250.5 -253t359 -91zM578 651q-31 0 -51.5 20.5t-20.5 51.5t20.5 51.5t51.5 20.5t51 -20.5t20 -51.5t-20 -51.5t-51 -20.5zM997 651q-31 0 -51 20.5t-20 51.5t20 51.5t51 20.5t51.5 -20.5
t20.5 -51.5t-20.5 -51.5t-51.5 -20.5zM702 522l74 207q1 7 8.5 10t14.5 0q6 -2 9.5 -8.5t0.5 -13.5l-57 -160h69q8 0 13.5 -5.5t5.5 -12.5q0 -6 -6 -11.5t-13 -5.5h-119zM385 350q-61 0 -101 40t-40 102t40 101.5t101 39.5t101 -39.5t40 -101.5t-40 -102t-101 -40zM1190 350
q-61 0 -101 40t-40 102t39.5 101.5t101.5 39.5t101.5 -39.5t39.5 -101.5t-40 -102t-101 -40zM788 395q-95 0 -126 -61q-6 -12 -19 -12q-16 0 -16 18q0 35 49.5 63.5t111.5 28.5t112 -28.5t50 -63.5q0 -18 -16 -18q-13 0 -19 12q-31 61 -127 61z" />
    <glyph glyph-name=".null" horiz-adv-x="0" 
 />
    <glyph glyph-name="nonmarkingreturn" horiz-adv-x="682" 
 />
    <glyph glyph-name="NULL" horiz-adv-x="16" 
 />
    <glyph glyph-name="NULL" horiz-adv-x="16" 
 />
    <glyph glyph-name="space" unicode=" " horiz-adv-x="636" 
 />
    <glyph glyph-name="exclam" unicode="!" horiz-adv-x="616" 
d="M256 422l-39 1012h182l-39 -1012h-104zM207 0v215h203v-215h-203z" />
    <glyph glyph-name="quotedbl" unicode="&#x22;" horiz-adv-x="573" 
d="M391 1464l-39 -518h-63l-2 35l-2 -35h-64l-39 518h209z" />
    <glyph glyph-name="numbersign" unicode="#" horiz-adv-x="1308" 
d="M1198 940h-256l-72 -395h254v-80h-268l-86 -465h-90l84 465h-309l-84 -465h-92l83 465h-251v80h266l72 395h-265v80h279l76 414h92l-76 -414h309l76 414h90l-74 -414h242v-80zM778 545l72 395h-309l-72 -395h309z" />
    <glyph glyph-name="dollar" unicode="$" horiz-adv-x="1019" 
d="M512 -168v78q0 43 8 70l-2 2q-28 -14 -63 -11q-207 15 -385 123l67 131q98 -51 169 -74t155 -34q41 -5 55 -17l4 2q-8 27 -8 82v473l-139 101q-106 75 -161.5 155.5t-55.5 182.5q0 137 87 218.5t216 92.5q43 6 59 -8l2 2q-8 41 -8 74v75h61v-75q0 -43 -6 -72l4 -4
q21 16 60 10q105 -10 268 -78l-61 -135q-110 48 -209 66q-45 7 -58 20l-4 -4q6 -23 6 -68v-405l123 -86q134 -96 196 -182.5t62 -204.5q0 -148 -87.5 -241.5t-241.5 -113.5q-29 -4 -58 7l-2 -2q8 -27 8 -70v-80h-61zM516 834l2 2q-6 53 -6 79v295q0 37 8 70l-4 2
q-5 -6 -14 -10t-21 -6.5t-14 -3.5q-70 -11 -114 -50.5t-44 -107.5q0 -66 36.5 -115t131.5 -115q1 -1 6.5 -5t7 -5t6.5 -5t7 -7t5.5 -7.5t6.5 -10.5zM569 102q21 19 54 23q88 20 133 72t45 125t-42.5 130.5t-123.5 116.5q-43 31 -68 62l-2 -2q8 -25 8 -78v-365q0 -53 -8 -82z
" />
    <glyph glyph-name="percent" unicode="%" horiz-adv-x="1546" 
d="M428 766q-142 0 -234 91t-92 233t92 232.5t234 90.5t235 -90.5t93 -232.5t-93 -233t-235 -91zM303 0l809 1382h92l-809 -1382h-92zM430 852q104 0 169 66t65 172t-65 170.5t-169 64.5q-106 0 -170.5 -64.5t-64.5 -170.5t65 -172t170 -66zM1118 -10q-143 0 -235 90.5
t-92 232.5t92 233t235 91q142 0 234 -91t92 -233t-92 -232.5t-234 -90.5zM1118 78q106 0 170 64.5t64 170.5t-64.5 172t-169.5 66q-104 0 -169.5 -66t-65.5 -172q0 -105 65 -170t170 -65z" />
    <glyph glyph-name="ampersand" unicode="&#x26;" horiz-adv-x="1355" 
d="M885 1382l82 -133l-4 -4h-465q-48 0 -78 15l-4 -5l622 -874h4q-2 23 21 61q61 97 123 252l137 -55q-70 -187 -158 -320q-28 -35 -49 -40v-5l193 -270v-4h-187l-108 156h-6q-23 -64 -148 -125.5t-278 -61.5q-215 0 -350.5 124.5t-135.5 328.5q0 173 87.5 286t236.5 173
q39 16 65 10l2 4l-346 481l2 6h742zM559 791h-4q-5 -22 -43 -37q-256 -96 -256 -326q0 -139 91 -225t239 -86q153 0 299 112q32 23 53 23l2 4z" />
    <glyph glyph-name="quotesingle" unicode="'" horiz-adv-x="374" 
d="M262 1464l-37 -518h-75l-39 518h151z" />
    <glyph glyph-name="parenleft" unicode="(" horiz-adv-x="624" 
d="M463 1554l110 -81q-157 -202 -243 -424.5t-86 -493.5q0 -506 329 -909l-110 -86q-363 437 -363 995q0 136 23 265.5t57.5 229.5t85.5 199t96.5 166.5t100.5 138.5z" />
    <glyph glyph-name="parenright" unicode=")" horiz-adv-x="624" 
d="M201 1554q71 -90 127.5 -181t113.5 -216t89 -279.5t32 -322.5q0 -135 -22.5 -265t-57 -232t-84 -199t-96.5 -166t-100 -133l-111 86q330 405 330 909q0 271 -86.5 493.5t-245.5 424.5z" />
    <glyph glyph-name="asterisk" unicode="*" horiz-adv-x="847" 
d="M266 791l-98 73l192 228l-290 71l39 117l274 -113l-21 297h123l-22 -297l276 113l37 -117l-289 -71l193 -228l-98 -71l-158 254z" />
    <glyph glyph-name="plus" unicode="+" 
d="M657 1108v-459h457v-78h-457v-458h-86v458h-456v78h456v459h86z" />
    <glyph glyph-name="comma" unicode="," horiz-adv-x="464" 
d="M86 -342l80 539h186l-180 -539h-86z" />
    <glyph glyph-name="hyphen" unicode="-" horiz-adv-x="774" 
d="M674 627v-146h-574v146h574z" />
    <glyph glyph-name="period" unicode="." horiz-adv-x="438" 
d="M117 0v215h205v-215h-205z" />
    <glyph glyph-name="slash" unicode="/" horiz-adv-x="1171" 
d="M164 -178l-103 57l945 1667l104 -57z" />
    <glyph glyph-name="zero" unicode="0" horiz-adv-x="1193" 
d="M596 1413q232 0 364 -187.5t132 -533.5t-132 -534.5t-364 -188.5q-230 0 -363 188.5t-133 534.5t132 533.5t364 187.5zM596 1278q-158 0 -251 -155t-93 -431t93 -432t251 -156q159 0 251.5 156t92.5 432t-92.5 431t-251.5 155z" />
    <glyph glyph-name="one" unicode="1" horiz-adv-x="681" 
d="M483 1382v-1382h-149v920q0 69 3.5 100t14.5 78l-6 4q-21 -30 -78 -62l-184 -102v152l260 178l33 114h106z" />
    <glyph glyph-name="two" unicode="2" horiz-adv-x="1007" 
d="M524 1413q179 0 283 -94.5t104 -261.5q0 -198 -182 -416l-301 -360q-80 -96 -152 -150l5 -4q53 18 161 18h492l2 -4l-82 -141h-836l-4 8l596 717q148 178 148 319q0 110 -66.5 170t-173.5 60q-155 0 -348 -152l-78 117q214 174 432 174z" />
    <glyph glyph-name="three" unicode="3" horiz-adv-x="993" 
d="M467 1413q179 0 277 -86.5t98 -232.5q0 -107 -57.5 -185.5t-157.5 -109.5q-41 -15 -111 -21v-8q73 0 109 -10q137 -30 215 -121.5t78 -241.5q0 -196 -127.5 -312t-364.5 -116q-209 0 -389 101l51 137q182 -98 336 -98q162 0 251 75t89 217q0 150 -109.5 219.5
t-347.5 69.5v137q176 0 279.5 63t103.5 177q0 100 -65.5 154.5t-180.5 54.5q-148 0 -319 -102l-62 122q188 117 404 117z" />
    <glyph glyph-name="four" unicode="4" horiz-adv-x="1130" 
d="M879 1382v-917q0 -34 -5 -49l5 -4q12 6 36 6h177l-50 -142h-127q-22 0 -36 7l-5 -4q5 -12 5 -46v-233h-144v231q0 38 2 48l-2 4q-21 -7 -41 -7h-659v125l704 981h140zM735 1188q-20 -62 -78 -146l-391 -540q-7 -9 -19.5 -25.5t-19 -25t-17 -19.5t-20.5 -20l5 -6
q44 12 104 12h385q30 0 51 -6l2 4q-4 14 -4 53v592q0 76 10 125z" />
    <glyph glyph-name="five" unicode="5" horiz-adv-x="1003" 
d="M963 1382l-56 -147h-397q-39 0 -51 2l-2 -2q0 -34 -17 -92l-57 -191q-14 -45 -41 -84l2 -4q65 21 129 21q214 0 337.5 -116t123.5 -316q0 -223 -143.5 -353.5t-393.5 -130.5q-213 0 -383 101l54 137q175 -101 342 -101q178 0 274 93.5t96 244.5q0 150 -96.5 228
t-263.5 78q-118 0 -240 -35l-6 8l195 659h594z" />
    <glyph glyph-name="six" unicode="6" horiz-adv-x="1083" 
d="M791 1397l-310 -367q-142 -170 -207 -301l7 -2q65 94 141 134t170 40q193 0 314.5 -129.5t121.5 -329.5q0 -209 -134.5 -341t-346.5 -132q-134 0 -243 57t-175 170.5t-66 264.5q0 136 57 270t177 285l305 381h189zM549 760q-149 0 -241.5 -91.5t-92.5 -240.5
q0 -146 92 -235t242 -89q148 0 236.5 91t88.5 243q0 147 -88 234.5t-237 87.5z" />
    <glyph glyph-name="seven" unicode="7" horiz-adv-x="886" 
d="M877 1382l2 -4l-605 -1378h-161l495 1098q8 19 20 47l16.5 38.5t11.5 25t11 21.5t9 13l-2 2q-42 -10 -142 -10h-509l59 147h795z" />
    <glyph glyph-name="eight" unicode="8" horiz-adv-x="1099" 
d="M549 -31q-216 0 -340.5 106.5t-124.5 291.5q0 148 79.5 245.5t219.5 122.5v8q-119 25 -188.5 111t-69.5 207q0 161 115 256.5t309 95.5q195 0 310.5 -95.5t115.5 -256.5q0 -121 -69.5 -207t-188.5 -111v-8q138 -25 217.5 -123t79.5 -245q0 -185 -124.5 -291.5
t-340.5 -106.5zM549 809q123 0 197.5 65.5t74.5 172.5q0 106 -73.5 168.5t-198.5 62.5q-123 0 -196.5 -62.5t-73.5 -168.5q0 -107 74 -172.5t196 -65.5zM549 104q146 0 228.5 73.5t82.5 201.5q0 134 -83 210.5t-228 76.5q-143 0 -226 -77t-83 -210q0 -128 82.5 -201.5
t226.5 -73.5z" />
    <glyph glyph-name="nine" unicode="9" horiz-adv-x="1046" 
d="M522 1413q135 0 243 -57.5t172 -172t64 -268.5q0 -140 -50.5 -262t-162.5 -254l-327 -399h-178l325 395q141 172 187 244l-9 4q-122 -158 -309 -158q-189 0 -313.5 131.5t-124.5 327.5q0 207 134.5 338t348.5 131zM520 1276q-146 0 -236.5 -90t-90.5 -238
q0 -146 87.5 -233.5t235.5 -87.5q150 0 241 88t91 235q0 148 -89 237t-239 89z" />
    <glyph glyph-name="colon" unicode=":" horiz-adv-x="438" 
d="M117 731v215h205v-215h-205zM117 0v215h205v-215h-205z" />
    <glyph glyph-name="semicolon" unicode=";" horiz-adv-x="475" 
d="M156 731v215h204v-215h-204zM86 -342l80 539h186l-180 -539h-86z" />
    <glyph glyph-name="less" unicode="&#x3c;" 
d="M1067 1055v-94l-803 -349l803 -348v-92l-905 399v84z" />
    <glyph glyph-name="equal" unicode="=" 
d="M1133 836v-80h-1037v80h1037zM1133 469v-80h-1037v80h1037z" />
    <glyph glyph-name="greater" unicode="&#x3e;" 
d="M162 1055l905 -400v-84l-905 -399v92l803 348l-803 349v94z" />
    <glyph glyph-name="question" unicode="?" horiz-adv-x="768" 
d="M383 1464q147 0 231 -73t84 -195q0 -146 -125 -254l-114 -102q-41 -38 -60.5 -70.5t-19.5 -71.5q0 -55 35.5 -94t115.5 -90l-81 -121q-36 21 -61.5 38t-59 46.5t-54.5 59t-36 71.5t-15 88q0 125 117 230l111 98q46 40 70 76t24 80q0 67 -48 104t-124 37q-122 0 -277 -104
l-67 124q181 123 354 123zM285 0v215h204v-215h-204z" />
    <glyph glyph-name="at" unicode="@" horiz-adv-x="1931" 
d="M1004 -307q-144 0 -277 36.5t-244.5 109t-195 173.5t-130 237.5t-46.5 293.5q0 201 65.5 365.5t182 274.5t278.5 170t354 60q180 0 333.5 -56.5t263 -158.5t171.5 -250t62 -325q0 -229 -89.5 -366.5t-252.5 -137.5q-88 0 -149 43.5t-75 130.5h-6q-41 -90 -121 -139.5
t-194 -49.5q-150 0 -244 86t-94 228q0 139 92 222t248 83q217 0 303 -174l4 2q-10 46 -10 123q-3 102 -62 150t-174 48q-113 0 -276 -41l-29 125q172 41 312 41q180 0 269 -79.5t89 -245.5v-287q0 -74 35 -111.5t96 -37.5q98 0 151.5 102t53.5 274q0 208 -93.5 365t-253 238
t-360.5 81q-162 0 -300 -50.5t-239.5 -144t-158.5 -236.5t-57 -320q0 -169 61.5 -309.5t167 -232.5t245 -142.5t296.5 -50.5q207 0 413 88l47 -109q-239 -96 -462 -96zM969 219q111 0 179.5 55.5t68.5 141.5q0 85 -69 138.5t-179 53.5q-106 0 -169 -54t-63 -138
q0 -86 62.5 -141.5t169.5 -55.5z" />
    <glyph glyph-name="A" unicode="A" horiz-adv-x="1386" 
d="M25 0l659 1464h16l660 -1464h-176l-185 424h-612l-186 -424h-176zM430 555q36 4 115 4h295q78 0 114 -4l2 2q-29 42 -63 119l-143 340q-48 119 -54 170h-8q-7 -64 -53 -170l-143 -340q-30 -73 -62 -119v-2z" />
    <glyph glyph-name="B" unicode="B" horiz-adv-x="1269" 
d="M162 0v1434h514q185 0 292 -95.5t107 -259.5q0 -208 -180 -286q-53 -22 -117 -27v-8q58 0 119 -15q129 -31 197.5 -121t68.5 -227q0 -183 -121.5 -289t-332.5 -106h-547zM317 813q18 6 52 6h249q138 0 215.5 64.5t77.5 179.5q0 107 -66.5 164t-191.5 57h-284q-34 0 -52 6
l-4 -2q6 -18 6 -51v-371q0 -33 -6 -51zM317 143q21 7 52 7h317q311 0 311 253q0 134 -85.5 202.5t-252.5 68.5h-290q-34 0 -52 6l-4 -2q6 -18 6 -51v-430q0 -34 -6 -52z" />
    <glyph glyph-name="C" unicode="C" horiz-adv-x="1415" 
d="M846 -31q-342 0 -554 207.5t-212 540.5t212 540t554 207q282 0 500 -161l-97 -138q-189 140 -409 140q-261 0 -424.5 -164t-163.5 -424t163.5 -424t424.5 -164q221 0 409 139l97 -137q-219 -162 -500 -162z" />
    <glyph glyph-name="D" unicode="D" horiz-adv-x="1413" 
d="M602 1434q331 0 531 -196.5t200 -520.5t-200 -520.5t-531 -196.5h-440v1434h440zM317 1290l-4 -2q6 -18 6 -51v-1040q0 -34 -6 -52l4 -2q21 7 52 7h235q258 0 407.5 152t149.5 415q0 262 -150 414.5t-407 152.5h-235q-34 0 -52 6z" />
    <glyph glyph-name="E" unicode="E" horiz-adv-x="1050" 
d="M961 1434v-150h-592q-34 0 -52 6l-4 -2q6 -18 6 -51v-330q0 -34 -6 -49l4 -4q12 6 52 6h526v-147h-526q-40 0 -52 6l-4 -4q6 -15 6 -51v-467q0 -34 -6 -52l4 -2q21 7 52 7h600v-150h-807v1434h799z" />
    <glyph glyph-name="F" unicode="F" horiz-adv-x="1028" 
d="M969 1434v-150h-600q-34 0 -52 6l-4 -2q6 -18 6 -51v-360q0 -37 -6 -52l4 -4q16 8 52 8h549v-149h-549q-40 0 -52 6l-4 -4q6 -15 6 -49v-633h-157v1434h807z" />
    <glyph glyph-name="G" unicode="G" horiz-adv-x="1626" 
d="M842 1464q302 0 542 -190l-104 -135q-203 166 -444 166q-170 0 -304 -77t-207 -212t-73 -305q0 -255 164.5 -418.5t425.5 -163.5q111 0 204.5 32t155.5 84t106 118.5t64 133t21 130.5l-2 4q-38 -17 -140 -17h-407v150h717v-59q0 -109 -27 -213.5t-85 -199.5
t-141.5 -166.5t-204.5 -114t-265 -42.5q-217 0 -389 92t-270.5 262t-98.5 388q0 219 95.5 390.5t269 267t397.5 95.5z" />
    <glyph glyph-name="H" unicode="H" horiz-adv-x="1439" 
d="M1278 1434v-1434h-158v641q0 34 6 49l-4 4q-14 -6 -51 -6h-702q-40 0 -52 6l-4 -4q6 -15 6 -49v-641h-157v1434h157v-549q0 -34 -6 -49l4 -5q14 7 52 7h702q35 0 51 -7l4 5q-6 15 -6 49v549h158z" />
    <glyph glyph-name="I" unicode="I" horiz-adv-x="481" 
d="M319 1434v-1434h-157v1434h157z" />
    <glyph glyph-name="J" unicode="J" horiz-adv-x="585" 
d="M424 1434v-1115q0 -170 -69.5 -249.5t-217.5 -79.5q-33 0 -86 6v149q31 -2 72 -2q73 0 108 39t35 131v1121h158z" />
    <glyph glyph-name="K" unicode="K" horiz-adv-x="1220" 
d="M1137 1434l-516 -547q-90 -93 -134 -121v-6q11 -7 21 -14t17 -13t19 -17.5t18.5 -18t24 -25.5t27.5 -29l596 -643h-219l-680 741l-6 -2q14 -85 14 -241v-498h-157v1434h157v-410q0 -157 -14 -242l6 -2l611 654h215z" />
    <glyph glyph-name="L" unicode="L" horiz-adv-x="1005" 
d="M319 1434v-1235q0 -34 -6 -52l4 -2q21 7 52 7h612v-152h-819v1434h157z" />
    <glyph glyph-name="M" unicode="M" horiz-adv-x="1775" 
d="M881 -20l-349 870q-51 123 -65 229h-8q-4 -116 -35 -231l-231 -848h-164l403 1458h21l389 -981q26 -64 43 -180h8q11 95 41 180l389 981h23l401 -1458h-164l-229 848q-35 122 -35 231h-8q-13 -94 -66 -229l-350 -870h-14z" />
    <glyph glyph-name="N" unicode="N" horiz-adv-x="1474" 
d="M178 1454l875 -977q86 -97 112 -162l6 2q-16 84 -16 258v859h158v-1454h-19l-872 976q-88 99 -113 162l-8 -2q18 -94 18 -256v-860h-157v1454h16z" />
    <glyph glyph-name="O" unicode="O" horiz-adv-x="1654" 
d="M827 1464q214 0 385 -95.5t267 -266.5t96 -385t-96 -385t-267 -267t-385 -96t-385 96t-266.5 267t-95.5 385q0 160 56 299t154.5 237.5t237.5 154.5t299 56zM827 1305q-124 0 -231 -44t-182.5 -121.5t-118.5 -186.5t-43 -236t43 -236t118.5 -186.5t182.5 -121.5t231 -44
q253 0 415.5 165.5t162.5 422.5t-162.5 422.5t-415.5 165.5z" />
    <glyph glyph-name="P" unicode="P" horiz-adv-x="1093" 
d="M612 1434q199 0 317 -107t118 -289q0 -181 -115 -287t-309 -106h-254q-34 0 -52 6l-4 -2q6 -18 6 -51v-598h-157v1434h450zM317 1290l-4 -2q6 -18 6 -51v-393q0 -35 -6 -53l4 -3q21 7 52 7h243q127 0 197 65t70 178q0 115 -70 180.5t-197 65.5h-243q-34 0 -52 6z" />
    <glyph glyph-name="Q" unicode="Q" horiz-adv-x="1650" 
d="M829 -8q-211 0 -382 94t-269 263t-98 380q0 212 95 380t265.5 261.5t386.5 93.5q217 0 387 -93.5t263.5 -259.5t93.5 -376q0 -277 -205 -465q-119 -122 -305 -172l2 -8q212 43 317 43h170v-141h-721zM829 156q248 0 409 162t161 415q0 254 -156.5 413t-415.5 159
q-258 0 -416.5 -160.5t-158.5 -415.5q0 -251 163 -412t414 -161z" />
    <glyph glyph-name="R" unicode="R" horiz-adv-x="1202" 
d="M625 1434q194 0 306.5 -102.5t112.5 -280.5q0 -110 -52.5 -196t-136.5 -130.5t-181 -44.5q-34 0 -72 10v-8q54 -20 115 -94l461 -588h-205l-522 672h-82q-42 0 -52 6l-4 -4q6 -18 6 -51v-623h-157v1434h463zM317 1290l-4 -2q6 -18 6 -51v-367q0 -36 -6 -51l4 -4
q16 8 52 8h258q118 0 184 60.5t66 169.5q0 106 -65.5 168.5t-184.5 62.5h-258q-34 0 -52 6z" />
    <glyph glyph-name="S" unicode="S" horiz-adv-x="1007" 
d="M524 1464q177 0 365 -90l-74 -151q-152 82 -293 82q-104 0 -159.5 -43t-55.5 -121q0 -61 34.5 -111t117.5 -110l235 -175q129 -94 185.5 -183.5t56.5 -207.5q0 -182 -120 -283.5t-324 -101.5q-123 0 -241.5 35.5t-211.5 95.5l76 148q191 -119 377 -119q131 0 203.5 59
t72.5 156q0 71 -42.5 132t-141.5 134l-234 178q-110 82 -161.5 163t-51.5 184q0 154 102.5 241.5t284.5 87.5z" />
    <glyph glyph-name="T" unicode="T" horiz-adv-x="1054" 
d="M1034 1434v-152h-379q-33 0 -51 6l-4 -2q6 -18 6 -51v-1235h-157v1235q0 33 6 51l-4 2q-18 -6 -52 -6h-379v152h1014z" />
    <glyph glyph-name="U" unicode="U" horiz-adv-x="1392" 
d="M1247 1434v-904q0 -259 -148.5 -409t-402.5 -150q-253 0 -402 150t-149 409v904h164v-893q0 -192 103.5 -301t283.5 -109t283.5 109t103.5 301v893h164z" />
    <glyph glyph-name="V" unicode="V" horiz-adv-x="1269" 
d="M1262 1434l-619 -1459h-16l-619 1459h187l366 -916q52 -135 70 -250h8q18 115 70 250l366 916h187z" />
    <glyph glyph-name="W" unicode="W" horiz-adv-x="1939" 
d="M981 1458l307 -872q35 -97 49 -148.5t25 -122.5h8q9 67 23 120t47 147l289 852h182l-537 -1459h-16l-342 945q-33 88 -43 182h-8q-6 -91 -41 -182l-342 -945h-17l-536 1459h182l289 -852q55 -157 69 -267h9q11 72 24.5 124t48.5 147l307 872h23z" />
    <glyph glyph-name="X" unicode="X" horiz-adv-x="1243" 
d="M1161 1434l-348 -541q-70 -102 -96 -131v-4q43 -52 121 -172l381 -586h-191l-321 502q-70 110 -82 153h-9q-10 -45 -79 -153l-322 -502h-190l381 586q84 128 118 172v4q-34 41 -94 131l-348 541h188l258 -406q78 -120 88 -162h9q13 44 90 162l258 406h188z" />
    <glyph glyph-name="Y" unicode="Y" horiz-adv-x="1126" 
d="M1108 1434l-467 -873v-561h-158v561l-465 873h191l266 -533q48 -96 62 -131t24 -86h4q10 51 24 86t62 131l267 533h190z" />
    <glyph glyph-name="Z" unicode="Z" horiz-adv-x="1189" 
d="M1145 1434l2 -7l-852 -1294l4 -6q23 17 57 23t101 6h696l-80 -156h-1040l-4 8l856 1295l-4 4q-56 -29 -176 -29h-592l77 156h955z" />
    <glyph glyph-name="bracketleft" unicode="[" horiz-adv-x="679" 
d="M651 1530v-123h-235q-49 0 -70 8l-2 -2q10 -20 10 -63v-1616q0 -44 -10 -64l2 -2q21 8 70 8h235v-125h-438v1979h438z" />
    <glyph glyph-name="backslash" unicode="\" horiz-adv-x="1167" 
d="M164 1546l942 -1665l-100 -55l-945 1663z" />
    <glyph glyph-name="bracketright" unicode="]" horiz-adv-x="679" 
d="M29 1530h438v-1979h-438v125h235q49 0 70 -8l2 2q-10 27 -10 64v1616q0 36 10 63l-2 2q-21 -8 -70 -8h-235v123z" />
    <glyph glyph-name="asciicircum" unicode="^" 
d="M690 1464l299 -659h-127l-248 553l-247 -553h-127l299 659h151z" />
    <glyph glyph-name="underscore" unicode="_" horiz-adv-x="1107" 
d="M1079 -31v-121h-1050v121h1050z" />
    <glyph glyph-name="grave" unicode="`" horiz-adv-x="573" 
d="M279 1448l192 -307l-2 -8h-107l-260 309l2 6h175z" />
    <glyph glyph-name="a" unicode="a" horiz-adv-x="1032" 
d="M514 977q199 0 293 -91.5t94 -285.5v-600h-147q0 82 20 170l-8 2q-49 -98 -138.5 -150.5t-205.5 -52.5q-159 0 -257.5 93t-98.5 243q0 153 97.5 243.5t262.5 90.5q116 0 205.5 -49t132.5 -135l6 2q-9 35 -12 149q-3 117 -65 173.5t-187 56.5q-128 0 -299 -54l-41 138
q180 57 348 57zM469 512q-110 0 -178 -58t-68 -153q0 -93 67.5 -149t176.5 -56q117 0 194.5 59t77.5 148q0 90 -77 149.5t-193 59.5z" />
    <glyph glyph-name="b" unicode="b" horiz-adv-x="1214" 
d="M672 -31q-137 0 -238 65.5t-153 188.5l-9 -2q17 -72 17 -221h-144v1464h148v-508q0 -159 -17 -231l7 -4q51 124 151.5 190t237.5 66q206 0 336.5 -140.5t130.5 -363.5t-130.5 -363.5t-336.5 -140.5zM649 111q154 0 244 98t90 264t-91.5 264.5t-246.5 98.5
q-158 0 -259 -101.5t-101 -261.5q0 -161 101.5 -261.5t262.5 -100.5z" />
    <glyph glyph-name="c" unicode="c" horiz-adv-x="970" 
d="M588 -31q-228 0 -371 140t-143 364t143 364t371 140q174 0 323 -94l-71 -127q-124 78 -256 78q-155 0 -255 -101.5t-100 -259.5q0 -157 100 -258.5t255 -101.5q134 0 256 77l71 -127q-149 -94 -323 -94z" />
    <glyph glyph-name="d" unicode="d" horiz-adv-x="1214" 
d="M543 -31q-206 0 -336.5 140.5t-130.5 363.5t130.5 363.5t336.5 140.5q137 0 237.5 -66t151.5 -190l6 4q-16 68 -16 231v508h147v-1464h-143q0 153 16 221l-8 2q-52 -123 -153 -188.5t-238 -65.5zM565 111q162 0 263.5 100.5t101.5 261.5q0 160 -101.5 261.5t-259.5 101.5
q-155 0 -246.5 -98.5t-91.5 -264.5t90 -264t244 -98z" />
    <glyph glyph-name="e" unicode="e" horiz-adv-x="1083" 
d="M557 977q207 0 329 -134t122 -364v-30h-682q-76 0 -103 12l-4 -2l6 -21q9 -154 100.5 -240.5t243.5 -86.5q96 0 172 38.5t150 126.5l94 -96q-163 -211 -420 -211q-221 0 -356 137.5t-135 364.5q0 230 131.5 368t351.5 138zM553 840q-138 0 -225.5 -77t-100.5 -212l2 -2
q32 16 99 16h403q84 0 119 -14l2 2q-11 137 -89 212t-210 75z" />
    <glyph glyph-name="f" unicode="f" horiz-adv-x="663" 
d="M604 1452v-139h-16q-99 0 -150 -52.5t-51 -177.5v-86q-5 -50 -10 -61l6 -2q17 12 72 12h147v-139h-147q-55 0 -72 12l-6 -2q10 -34 10 -86v-731h-147v731q0 59 8 86l-2 2q-19 -12 -74 -12h-121v139h121q55 0 74 -12l2 2q-2 7 -8 59v78q0 103 28.5 179.5t77.5 118.5
t107 61.5t125 19.5h26z" />
    <glyph glyph-name="g" unicode="g" horiz-adv-x="1198" 
d="M541 977q137 0 237.5 -65.5t151.5 -188.5l6 2q-16 60 -16 221h147v-921q0 -230 -129 -347.5t-381 -117.5q-241 0 -416 110l74 133q168 -100 346 -100q170 0 266.5 81t96.5 226v45q0 108 16 166l-8 2q-55 -123 -155 -187.5t-234 -64.5q-208 0 -338.5 139t-130.5 363
q0 223 130 363.5t337 140.5zM567 836q-155 0 -246.5 -98.5t-91.5 -264.5q0 -167 91.5 -264.5t246.5 -97.5q159 0 260 101.5t101 260.5q0 160 -100.5 261.5t-260.5 101.5z" />
    <glyph glyph-name="h" unicode="h" horiz-adv-x="1128" 
d="M293 1464v-538q0 -133 -19 -230l9 -2q95 283 366 283q167 0 257.5 -99t90.5 -282v-596h-147v563q0 131 -63 202t-181 71q-148 0 -230.5 -105t-82.5 -293v-438h-148v1464h148z" />
    <glyph glyph-name="i" unicode="i" horiz-adv-x="440" 
d="M303 1434v-269h-168v269h168zM293 946v-946h-148v946h148z" />
    <glyph glyph-name="j" unicode="j" horiz-adv-x="440" 
d="M303 1434v-269h-168v269h168zM293 946v-1042q0 -344 -324 -344h-16v145h18q174 0 174 199v1042h148z" />
    <glyph glyph-name="k" unicode="k" horiz-adv-x="960" 
d="M293 1464v-725q0 -134 -17 -209l7 -2l405 418h205l-363 -350q-65 -65 -100 -80l2 -6q39 -20 100 -78l420 -432h-202l-467 489l-7 -4q17 -72 17 -206v-279h-148v1464h148z" />
    <glyph glyph-name="l" unicode="l" horiz-adv-x="440" 
d="M293 1464v-1464h-148v1464h148z" />
    <glyph glyph-name="m" unicode="m" horiz-adv-x="1665" 
d="M141 0v946h148q0 -129 -21 -229l8 -4q73 264 322 264q120 0 194 -64t97 -188h8q26 119 111 185.5t211 66.5q151 0 233 -96t82 -273v-608h-148v567q0 269 -223 269q-126 0 -190 -89.5t-64 -261.5v-485h-143v567q0 269 -223 269q-124 0 -189 -89.5t-65 -261.5v-485h-148z
" />
    <glyph glyph-name="n" unicode="n" horiz-adv-x="1124" 
d="M643 977q169 0 259.5 -99t90.5 -282v-596h-147v563q0 131 -63 202t-181 71q-148 0 -230.5 -105t-82.5 -293v-438h-148v946h148q0 -175 -21 -264l8 -2q91 297 367 297z" />
    <glyph glyph-name="o" unicode="o" horiz-adv-x="1173" 
d="M586 977q224 0 368 -142t144 -362q0 -219 -144 -361.5t-368 -142.5q-223 0 -367.5 143t-144.5 361q0 220 144.5 362t367.5 142zM586 831q-157 0 -257 -99.5t-100 -258.5q0 -158 100 -258t257 -100t256.5 100t99.5 258q0 159 -99.5 258.5t-256.5 99.5z" />
    <glyph glyph-name="p" unicode="p" horiz-adv-x="1208" 
d="M668 977q206 0 336.5 -140.5t130.5 -363.5t-130.5 -363.5t-336.5 -140.5q-136 0 -237 65.5t-155 188.5l-8 -2q21 -79 21 -201v-430h-148v1356h144q0 -158 -15 -225l9 -2q53 125 153 191.5t236 66.5zM641 836q-158 0 -259 -101.5t-101 -261.5q0 -161 101.5 -261.5
t262.5 -100.5q154 0 244 98t90 264t-91.5 264.5t-246.5 98.5z" />
    <glyph glyph-name="q" unicode="q" horiz-adv-x="1210" 
d="M543 977q135 0 234.5 -66.5t152.5 -191.5l8 2q-14 63 -14 225h143v-1356h-147v430q0 125 20 201l-8 2q-54 -123 -154 -188.5t-235 -65.5q-207 0 -338 140.5t-131 363.5t131 363.5t338 140.5zM567 836q-155 0 -246.5 -98.5t-91.5 -264.5t91 -264t245 -98
q160 0 261.5 100.5t101.5 261.5q0 160 -100.5 261.5t-260.5 101.5z" />
    <glyph glyph-name="r" unicode="r" horiz-adv-x="688" 
d="M602 975q32 0 55 -2v-170q-50 6 -73 6q-142 0 -218.5 -108.5t-76.5 -309.5v-391h-148v946h148q0 -157 -23 -291l10 -4q67 324 326 324z" />
    <glyph glyph-name="s" unicode="s" horiz-adv-x="847" 
d="M438 -31q-217 0 -393 111l70 131q159 -102 327 -102q92 0 140.5 32.5t48.5 94.5q0 43 -29.5 76t-97.5 65l-176 82q-107 51 -157 115t-50 151q0 119 85.5 185.5t237.5 66.5q158 0 322 -74l-64 -131q-141 66 -260 66q-80 0 -123 -27.5t-43 -81.5q0 -44 31.5 -77.5
t104.5 -67.5l174 -80q107 -51 154.5 -113t47.5 -151q0 -128 -92.5 -199.5t-257.5 -71.5z" />
    <glyph glyph-name="t" unicode="t" horiz-adv-x="630" 
d="M385 1452v-430q0 -57 -8 -86l4 -2q19 12 72 12h122v-139h-122q-53 0 -72 12l-4 -2q8 -27 8 -86v-731h-147v731q0 52 10 86l-4 2q-19 -12 -74 -12h-115v139h115q55 0 74 -12l4 2q-10 36 -10 86v321l139 109h8z" />
    <glyph glyph-name="u" unicode="u" horiz-adv-x="1075" 
d="M944 946v-946h-147q0 158 22 248l-8 4q-88 -283 -350 -283q-161 0 -250.5 105t-89.5 295v577h151v-555q0 -135 63 -207.5t177 -72.5q134 0 209.5 105t75.5 292v438h147z" />
    <glyph glyph-name="v" unicode="v" horiz-adv-x="976" 
d="M956 946l-448 -960h-39l-449 960h175l217 -502q6 -14 18 -44t15.5 -38.5t11 -29t10 -29t7.5 -24.5t7.5 -29.5t5.5 -30.5h5q10 56 22.5 92.5t52.5 132.5l215 502h174z" />
    <glyph glyph-name="w" unicode="w" horiz-adv-x="1447" 
d="M406 -14l-386 960h168l189 -516q24 -64 33 -98t12 -78h8q6 43 17.5 78.5t39.5 101.5l220 529h34l220 -529q28 -66 39.5 -101.5t17.5 -78.5h8q4 67 43 176l191 516h167l-385 -960h-34l-236 557q-38 90 -45 155h-8q-3 -40 -11.5 -69.5t-31.5 -85.5l-236 -557h-34z" />
    <glyph glyph-name="x" unicode="x" horiz-adv-x="978" 
d="M20 0l320 430q2 3 13 17t15.5 19.5t13 13.5t15.5 12v6q-23 14 -57 63l-281 385h177l180 -246q58 -80 71 -135h7q10 54 69 135l182 246h177l-283 -385q-35 -51 -55 -63v-6q6 -4 14 -11.5t13 -14l15 -19.5t13 -17l319 -430h-176l-219 291q-57 77 -69 129h-7
q-16 -57 -69 -129l-221 -291h-177z" />
    <glyph glyph-name="y" unicode="y" horiz-adv-x="978" 
d="M958 946l-583 -1358h-154l205 478l-406 880h170l248 -567q29 -67 41 -105.5t15 -87.5h8q8 77 51 179l246 581h159z" />
    <glyph glyph-name="z" unicode="z" horiz-adv-x="925" 
d="M25 0l-7 10l635 817l-2 7q-40 -20 -78 -25.5t-122 -5.5h-377l88 143h737l4 -8l-629 -819l5 -4q34 18 71.5 23t124.5 5h426l-90 -143h-786z" />
    <glyph glyph-name="braceleft" unicode="{" horiz-adv-x="776" 
d="M205 559q144 -13 209 -86t65 -215v-348q0 -121 54 -173t174 -52h41v-134h-60q-350 0 -350 353v364q0 108 -60 159.5t-198 57.5v158q139 6 198.5 56.5t59.5 158.5v320q0 180 86 266t264 86h60v-131h-41q-120 0 -174 -53t-54 -175v-303q0 -142 -65 -215t-209 -86v-8z" />
    <glyph glyph-name="bar" unicode="|" horiz-adv-x="593" 
d="M233 -440v1929h125v-1929h-125z" />
    <glyph glyph-name="braceright" unicode="}" horiz-adv-x="776" 
d="M571 559v8q-144 13 -209 86t-65 215v303q0 122 -53 175t-174 53h-41v131h59q178 0 264 -86t86 -266v-320q0 -108 59.5 -158.5t198.5 -56.5v-158q-138 -6 -198 -57.5t-60 -159.5v-364q0 -179 -86.5 -266t-263.5 -87h-59v134h41q121 0 174 51.5t53 173.5v348q0 142 65 215
t209 86z" />
    <glyph glyph-name="asciitilde" unicode="~" 
d="M389 745q65 0 130 -21.5t109.5 -48t103.5 -48t114 -21.5q67 0 120 27.5t117 81.5l76 -107q-159 -137 -319 -137q-65 0 -130 21.5t-109.5 48t-103.5 48t-114 21.5q-67 0 -121 -27t-117 -81l-75 106q162 137 319 137z" />
    <glyph glyph-name="exclamdown" unicode="&#xa1;" horiz-adv-x="616" 
d="M207 997h203v-215h-203v215zM256 575h104l39 -1011h-182z" />
    <glyph glyph-name="cent" unicode="&#xa2;" horiz-adv-x="1005" 
d="M571 -135v41q0 58 9 74l-2 2q-20 -14 -72 -2q-183 28 -294.5 163.5t-111.5 331.5q0 197 114.5 332t305.5 164q44 7 60 -6l2 2q-11 22 -11 71v45h62v-45q0 -53 -8 -71l2 -2q24 15 57 8q148 -19 252 -96l-74 -125q-84 59 -184 73q-37 5 -51 21l-2 -2q8 -18 8 -80v-574
q0 -68 -10 -86l2 -2q6 5 15.5 8.5t16.5 5.5t17.5 4t13.5 3q96 20 174 72l74 -125q-50 -37 -115.5 -63t-124.5 -32q-53 -4 -69 7l-2 -2q8 -12 8 -74v-41h-62zM578 100l2 2q-9 38 -9 88v574q0 61 11 80h-2q-25 -14 -66 -23q-122 -32 -191 -125t-69 -221q0 -130 70 -225.5
t190 -124.5q56 -15 64 -25z" />
    <glyph glyph-name="sterling" unicode="&#xa3;" horiz-adv-x="1110" 
d="M709 -29q-74 0 -176.5 38t-147.5 38q-62 0 -170 -57l-78 125q109 64 172.5 152.5t63.5 191.5q0 60 -21 113.5t-76 154.5h-186v61h109q41 0 59 -12l2 2q-18 18 -35 56q-39 90 -39 198q0 172 115.5 276.5t310.5 104.5q199 0 365 -115l-80 -129q-138 99 -287 99
q-122 0 -195 -67t-73 -175q0 -92 76 -238h426v-61h-332q-48 0 -76 12v-2q40 -63 65 -136.5t25 -137.5q0 -65 -28 -122.5t-64 -95t-94 -83.5l4 -6q46 20 100 20q50 0 123.5 -30.5t130.5 -30.5q134 0 260 133l82 -125q-152 -152 -331 -152z" />
    <glyph glyph-name="currency" unicode="&#xa4;" 
d="M975 983q117 -130 117 -319q0 -190 -117 -320l117 -119l-41 -39l-117 117q-131 -115 -320 -115q-187 0 -321 115l-117 -117l-39 41l117 117q-117 130 -117 320q0 189 117 319l-117 117l41 41l117 -117q131 115 319 115q189 0 320 -115l117 117l41 -41zM614 322
q151 0 244.5 95t93.5 247t-93.5 247t-244.5 95t-244.5 -95t-93.5 -247t93.5 -247t244.5 -95z" />
    <glyph glyph-name="yen" unicode="&#xa5;" horiz-adv-x="1122" 
d="M489 0v481h-376v62h319q24 0 51 -8l2 2q-12 11 -28 32l-41 88h-303v62h231q26 0 51 -8l2 2q-12 11 -28 39l-310 630h172l273 -600q42 -91 53 -157h8q11 66 53 157l273 600h172l-309 -630q-15 -25 -29 -39l2 -2q25 8 51 8h232v-62h-303l-41 -88q-14 -19 -29 -32l2 -2
q27 8 51 8h320v-62h-377v-481h-144z" />
    <glyph glyph-name="brokenbar" unicode="&#xa6;" horiz-adv-x="593" 
d="M233 686v803h125v-803h-125zM358 373v-813h-125v813h125z" />
    <glyph glyph-name="section" unicode="&#xa7;" horiz-adv-x="1099" 
d="M797 229q129 -93 129 -243q0 -140 -100.5 -225t-286.5 -85q-221 0 -422 134l82 127q177 -119 348 -119q113 0 171 45t58 119q0 51 -29 91t-76.5 65t-108 50.5t-123.5 46.5t-123.5 53t-108 69.5t-76.5 98t-29 136.5q0 205 201 319q-129 90 -129 244q0 138 100.5 223.5
t286.5 85.5q221 0 422 -135l-82 -125q-182 119 -348 119q-113 0 -172 -46t-59 -120q0 -45 23 -81.5t62 -61.5t90 -46.5t107 -42t111.5 -42t106.5 -52t90 -67.5t62 -92t23 -123q0 -207 -200 -320zM252 606q0 -44 19 -80.5t46.5 -61.5t74.5 -50t85.5 -40t98.5 -38t96 -39
q31 16 58.5 36t56 48.5t45 67.5t16.5 83t-19 81.5t-46.5 62.5t-74.5 50t-85.5 40t-98.5 38.5t-96 39.5q-176 -95 -176 -238z" />
    <glyph glyph-name="dieresis" unicode="&#xa8;" horiz-adv-x="698" 
d="M252 1434v-248h-150v248h150zM596 1434v-248h-150v248h150z" />
    <glyph glyph-name="copyright" unicode="&#xa9;" horiz-adv-x="1712" 
d="M856 -31q-156 0 -294 57t-237 155.5t-156.5 237.5t-57.5 298t57.5 298t156.5 237.5t237 155t294 56.5q209 0 380 -96.5t268.5 -267.5t97.5 -383q0 -159 -57.5 -298t-156.5 -237.5t-237 -155.5t-295 -57zM856 59q183 0 331.5 84.5t233 235t84.5 338.5t-84.5 338.5
t-233 234.5t-331.5 84q-137 0 -257 -49.5t-206 -136t-136 -208.5t-50 -263q0 -187 85 -338t233.5 -235.5t330.5 -84.5zM862 260q-205 0 -338 131t-133 334t133 334t338 131q175 0 312 -100l-62 -105q-121 80 -254 80q-151 0 -242.5 -93t-91.5 -247t91.5 -247t242.5 -93
q130 0 254 82l62 -107q-137 -100 -312 -100z" />
    <glyph glyph-name="ordfeminine" unicode="&#xaa;" horiz-adv-x="796" 
d="M336 692q-109 0 -177.5 61t-68.5 162t69.5 160.5t184.5 59.5q167 0 234 -136l4 5q-9 46 -9 102q0 141 -165 141q-67 0 -207 -35l-27 111q145 37 248 37q144 0 214.5 -61.5t70.5 -196.5v-389h-138q0 63 17 127l-6 2q-30 -68 -93.5 -109t-150.5 -41zM387 801
q69 0 114.5 33.5t45.5 87.5t-46 87t-114 33q-70 0 -109.5 -33t-39.5 -89q0 -55 39.5 -87t109.5 -32z" />
    <glyph glyph-name="guillemotleft" unicode="&#xab;" horiz-adv-x="851" 
d="M508 858v-8l-174 -234q-62 -85 -85.5 -112.5t-41.5 -40.5v-4q18 -12 41 -40t86 -114l174 -233v-9h-162l-297 398l297 397h162zM823 858v-8l-174 -234q-62 -85 -85.5 -112.5t-41.5 -40.5v-4q18 -12 41 -40t86 -114l174 -233v-9h-161l-297 398l297 397h161z" />
    <glyph glyph-name="logicalnot" unicode="&#xac;" 
d="M145 885h938v-82v-461h-86v461h-852v82z" />
    <glyph glyph-name="uni00AD" unicode="&#xad;" horiz-adv-x="776" 
d="M674 627v-146h-574v146h574z" />
    <glyph glyph-name="registered" unicode="&#xae;" horiz-adv-x="1089" 
d="M545 1464q205 0 338 -134t133 -343q0 -206 -133.5 -340.5t-337.5 -134.5t-337.5 134.5t-133.5 340.5q0 209 133 343t338 134zM545 1389q-170 0 -280.5 -113t-110.5 -289q0 -174 111.5 -285.5t279.5 -111.5q169 0 280 112t111 285q0 176 -110.5 289t-280.5 113zM582 1270
q72 0 116.5 -40.5t44.5 -111.5q0 -66 -43.5 -107.5t-113.5 -41.5v-4q21 -7 43 -35l135 -174v-8h-92l-166 219h-43v-219h-78v522h197zM573 1196h-110v-156h110q89 0 89 78q0 39 -24 58.5t-65 19.5z" />
    <glyph glyph-name="macron" unicode="&#xaf;" horiz-adv-x="782" 
d="M680 1364v-113h-578v113h578z" />
    <glyph glyph-name="degree" unicode="&#xb0;" horiz-adv-x="739" 
d="M371 1413q121 0 199.5 -77.5t78.5 -202.5q0 -124 -78.5 -201.5t-199.5 -77.5q-122 0 -201.5 77.5t-79.5 201.5q0 125 79 202.5t202 77.5zM371 1335q-86 0 -142.5 -55.5t-56.5 -146.5q0 -88 56.5 -144.5t142.5 -56.5q85 0 141.5 56t56.5 145q0 91 -56 146.5t-142 55.5z
" />
    <glyph glyph-name="plusminus" unicode="&#xb1;" 
d="M657 1069v-289h447v-82h-447v-288h-86v288h-446v82h446v289h86zM1104 317v-81h-979v81h979z" />
    <glyph glyph-name="uni00B2" unicode="&#xb2;" horiz-adv-x="798" 
d="M37 713l-4 8l418 469q100 115 100 201q0 61 -42.5 96t-109.5 35q-104 0 -235 -99l-72 107q159 117 324 117q128 0 201 -65t73 -179q0 -72 -33 -139.5t-104 -145.5l-188 -207q-52 -56 -93 -86v-2q47 13 117 13h332l2 -2l-74 -121h-612z" />
    <glyph glyph-name="uni00B3" unicode="&#xb3;" horiz-adv-x="786" 
d="M369 694q-162 0 -299 62l47 127q135 -64 245 -64q226 0 226 162q0 84 -75.5 123t-252.5 39v121q124 0 197 35.5t73 101.5q0 58 -42 89.5t-117 31.5q-105 0 -240 -66l-51 115q160 76 313 76q133 0 206 -59.5t73 -160.5q0 -63 -35.5 -114t-101.5 -78q-24 -11 -86 -16v-7
q36 0 86 -10q186 -49 186 -227q0 -132 -90.5 -206.5t-261.5 -74.5z" />
    <glyph glyph-name="acute" unicode="&#xb4;" horiz-adv-x="573" 
d="M469 1448l2 -6l-260 -309h-107l-2 8l191 307h176z" />
    <glyph glyph-name="uni00B5" unicode="&#xb5;" horiz-adv-x="1075" 
d="M797 946h147v-946h-147q0 158 22 248l-8 4q-88 -283 -350 -283q-119 0 -201 60v-439h-139v965v391h151v-555q0 -135 63 -207.5t177 -72.5q134 0 209.5 105t75.5 292v438z" />
    <glyph glyph-name="paragraph" unicode="&#xb6;" horiz-adv-x="1226" 
d="M1124 1434v-117h-120v-1534h-123v1534h-258v-1534h-123v852q-171 0 -284.5 111.5t-113.5 295.5q0 179 118.5 285.5t299.5 106.5h604z" />
    <glyph glyph-name="periodcentered" unicode="&#xb7;" horiz-adv-x="409" 
d="M102 731v215h205v-215h-205z" />
    <glyph glyph-name="cedilla" unicode="&#xb8;" horiz-adv-x="495" 
d="M262 41l-45 -121q176 -42 176 -145q0 -31 -17 -61t-39 -51t-63.5 -46t-68.5 -38t-76 -36l-27 56q32 18 46 26t37.5 22.5t34.5 23.5t23.5 21.5t17.5 23.5t5 22q0 33 -36.5 53.5t-112.5 36.5l76 213h69z" />
    <glyph glyph-name="uni00B9" unicode="&#xb9;" horiz-adv-x="561" 
d="M274 713v573q0 63 13 103l-4 4q-21 -21 -52 -37l-133 -66v129l183 119l24 88h103v-913h-134z" />
    <glyph glyph-name="ordmasculine" unicode="&#xba;" horiz-adv-x="882" 
d="M442 1360q153 0 252 -92t99 -242t-99 -242t-252 -92t-252.5 92t-99.5 242t99.5 242t252.5 92zM442 1237q-92 0 -153.5 -57.5t-61.5 -153.5t61.5 -153.5t153.5 -57.5q91 0 153 58t62 153t-62 153t-153 58z" />
    <glyph glyph-name="guillemotright" unicode="&#xbb;" horiz-adv-x="851" 
d="M29 858h161l297 -397l-297 -398h-161v9l174 233q63 86 86 114t41 40v4q-18 13 -41.5 40.5t-85.5 112.5l-174 234v8zM342 858h164l297 -397l-297 -398h-164v9l174 233q63 86 86 114t41 40v4q-18 13 -41.5 40.5t-85.5 112.5l-174 234v8z" />
    <glyph glyph-name="onequarter" unicode="&#xbc;" horiz-adv-x="1417" 
d="M256 592v522q0 54 12 84l-4 4q-13 -16 -45 -31l-131 -65v90l172 100l19 86h65v-790h-88zM190 0l809 1382h93l-809 -1382h-93zM1133 0v117q0 23 6 35l-2 2q-24 -4 -33 -4h-402v69l424 572h95v-525q0 -19 -4 -35l2 -2q12 4 26 4h101l-33 -83h-68q-14 0 -26 4l-2 -2
q4 -16 4 -31v-121h-88zM811 227q15 6 61 6h218q26 0 47 -6l4 2q-6 18 -6 45v316q0 68 4 88l-2 2q-6 -13 -45 -68l-248 -340q-21 -27 -35 -41z" />
    <glyph glyph-name="onehalf" unicode="&#xbd;" horiz-adv-x="1439" 
d="M256 592v522q0 54 12 84l-4 4q-13 -16 -45 -31l-131 -65v90l172 100l19 86h65v-790h-88zM190 0l809 1382h93l-809 -1382h-93zM807 0l-6 8l332 395q98 112 98 197q0 58 -38 89.5t-101 31.5q-91 0 -213 -74l-41 76q137 86 260 86q105 0 166 -54t61 -147q0 -65 -31.5 -125.5
t-97.5 -138.5l-166 -197q-43 -50 -82 -73l2 -4q35 14 99 14h301l2 -4l-49 -80h-496z" />
    <glyph glyph-name="threequarters" unicode="&#xbe;" horiz-adv-x="1622" 
d="M346 573q-136 0 -240 52l35 84q99 -47 201 -47q92 0 143.5 38t51.5 115q0 79 -65.5 117.5t-217.5 38.5v84q116 0 181 37t65 104q0 58 -39.5 87.5t-112.5 29.5q-92 0 -201 -58l-38 78q132 68 251 68q113 0 173.5 -51.5t60.5 -139.5q0 -79 -52.5 -130.5t-146.5 -57.5v-6
q111 -2 173.5 -53.5t62.5 -149.5q0 -113 -74 -176.5t-211 -63.5zM395 0l809 1382h92l-809 -1382h-92zM1337 0v117q0 23 6 35l-2 2q-24 -4 -32 -4h-402v69l424 572h94v-525q0 -19 -4 -35l2 -2q12 4 27 4h100l-32 -83h-68q-15 0 -27 4l-2 -2q4 -16 4 -31v-121h-88zM1016 227
q15 6 61 6h217q26 0 47 -6l5 2q-7 21 -7 45v316q0 68 4 88l-2 2q-6 -13 -45 -68l-247 -340q-21 -27 -35 -41z" />
    <glyph glyph-name="questiondown" unicode="&#xbf;" horiz-adv-x="706" 
d="M442 1024v-215h-204v215h204zM344 -440q-147 0 -231 73t-84 195q0 144 127 254l112 102q41 38 60.5 70.5t19.5 71.5q0 55 -35 94t-114 90l82 121q45 -28 76 -50.5t69 -60.5t58 -86.5t20 -105.5q0 -129 -117 -228l-111 -98q-47 -42 -70.5 -78t-23.5 -80q0 -67 48 -104
t124 -37q124 0 279 104l65 -124q-177 -123 -354 -123z" />
    <glyph glyph-name="Agrave" unicode="&#xc0;" horiz-adv-x="1386" 
d="M565 1747l183 -221l-3 -4h-106l-252 219l2 6h176zM25 0l659 1464h16l660 -1464h-176l-185 424h-612l-186 -424h-176zM430 555q36 4 115 4h295q78 0 114 -4l2 2q-29 42 -63 119l-143 340q-48 119 -54 170h-8q-7 -64 -53 -170l-143 -340q-30 -73 -62 -119v-2z" />
    <glyph glyph-name="Aacute" unicode="&#xc1;" horiz-adv-x="1386" 
d="M995 1747l2 -6l-252 -219h-106l-2 4l182 221h176zM25 0l659 1464h16l660 -1464h-176l-185 424h-612l-186 -424h-176zM430 555q36 4 115 4h295q78 0 114 -4l2 2q-29 42 -63 119l-143 340q-48 119 -54 170h-8q-7 -64 -53 -170l-143 -340q-30 -73 -62 -119v-2z" />
    <glyph glyph-name="Acircumflex" unicode="&#xc2;" horiz-adv-x="1386" 
d="M371 1522v8l237 237h168l236 -237v-8h-144l-80 75q-46 44 -65 68.5t-29 54.5h-6q-10 -30 -29 -54.5t-65 -68.5l-80 -75h-143zM25 0l659 1464h16l660 -1464h-176l-185 424h-612l-186 -424h-176zM430 555q36 4 115 4h295q78 0 114 -4l2 2q-29 42 -63 119l-143 340
q-48 119 -54 170h-8q-7 -64 -53 -170l-143 -340q-30 -73 -62 -119v-2z" />
    <glyph glyph-name="Atilde" unicode="&#xc3;" horiz-adv-x="1386" 
d="M428 1540l-72 23q58 184 201 184q57 0 174 -46t160 -46q36 0 60 20.5t44 61.5l70 -23q-58 -184 -199 -184q-57 0 -174 45t-160 45q-38 0 -61 -19.5t-43 -60.5zM25 0l659 1464h16l660 -1464h-176l-185 424h-612l-186 -424h-176zM430 555q36 4 115 4h295q78 0 114 -4l2 2
q-29 42 -63 119l-143 340q-48 119 -54 170h-8q-7 -64 -53 -170l-143 -340q-30 -73 -62 -119v-2z" />
    <glyph glyph-name="Adieresis" unicode="&#xc4;" horiz-adv-x="1386" 
d="M449 1747h149v-225h-149v225zM786 1747h150v-225h-150v225zM25 0l659 1464h16l660 -1464h-176l-185 424h-612l-186 -424h-176zM430 555q36 4 115 4h295q78 0 114 -4l2 2q-29 42 -63 119l-143 340q-48 119 -54 170h-8q-7 -64 -53 -170l-143 -340q-30 -73 -62 -119v-2z" />
    <glyph glyph-name="Aring" unicode="&#xc5;" horiz-adv-x="1386" 
d="M729 1401l631 -1401h-176l-185 424h-612l-186 -424h-176l630 1401q-84 12 -137 72.5t-53 146.5q0 97 64.5 160t162.5 63t163 -63t65 -160q0 -86 -53 -146.5t-138 -72.5zM551 1620q0 -61 39.5 -100t101.5 -39t100.5 38.5t38.5 100.5q0 63 -38.5 102t-100.5 39t-101.5 -39
t-39.5 -102zM954 555l2 2q-29 42 -63 119l-143 340q-48 119 -54 170h-8q-7 -64 -53 -170l-143 -340q-30 -73 -62 -119v-2q36 4 115 4h295q78 0 114 -4z" />
    <glyph glyph-name="AE" unicode="&#xc6;" horiz-adv-x="1865" 
d="M1237 150h541v-150h-738v375q0 33 7 51l-5 4q-12 -6 -51 -6h-499l-279 -424h-188l956 1434h788v-150h-532q-39 0 -51 6l-4 -4q6 -15 6 -51v-328q0 -34 -6 -49l4 -4q12 6 51 6h479v-149h-479q-33 0 -51 6l-4 -2q6 -18 6 -53v-463q0 -37 -6 -52l4 -4q14 7 51 7zM1047 557
q-7 17 -7 49v568q0 70 11 137h-4q-23 -66 -68 -135l-350 -539q-36 -58 -76 -84l2 -4q35 10 107 10h329q39 0 51 -6z" />
    <glyph glyph-name="Ccedilla" unicode="&#xc7;" horiz-adv-x="1415" 
d="M1346 131q-211 -156 -478 -162l-18 -49q176 -42 176 -145q0 -31 -17 -61t-39 -51t-63.5 -46t-68.5 -38t-76 -36l-27 56q32 18 46 26t37.5 22.5t34.5 23.5t23.5 21.5t17.5 23.5t5 22q0 33 -36.5 53.5t-112.5 36.5l51 141q-324 15 -522.5 220.5t-198.5 527.5q0 333 212 540
t554 207q282 0 500 -161l-97 -138q-189 140 -409 140q-261 0 -424.5 -164t-163.5 -424t163.5 -424t424.5 -164q221 0 409 139z" />
    <glyph glyph-name="Egrave" unicode="&#xc8;" horiz-adv-x="1050" 
d="M463 1747l182 -221l-2 -4h-106l-252 219l2 6h176zM961 1434v-150h-592q-34 0 -52 6l-4 -2q6 -18 6 -51v-330q0 -34 -6 -49l4 -4q12 6 52 6h526v-147h-526q-40 0 -52 6l-4 -4q6 -15 6 -51v-467q0 -34 -6 -52l4 -2q21 7 52 7h600v-150h-807v1434h799z" />
    <glyph glyph-name="Eacute" unicode="&#xc9;" horiz-adv-x="1050" 
d="M893 1747l2 -6l-252 -219h-106l-2 4l182 221h176zM961 1434v-150h-592q-34 0 -52 6l-4 -2q6 -18 6 -51v-330q0 -34 -6 -49l4 -4q12 6 52 6h526v-147h-526q-40 0 -52 6l-4 -4q6 -15 6 -51v-467q0 -34 -6 -52l4 -2q21 7 52 7h600v-150h-807v1434h799z" />
    <glyph glyph-name="Ecircumflex" unicode="&#xca;" horiz-adv-x="1050" 
d="M268 1522v8l238 237h168l235 -237v-8h-143l-80 75q-46 44 -65 68.5t-29 54.5h-6q-10 -30 -29 -54.5t-65 -68.5l-80 -75h-144zM961 1434v-150h-592q-34 0 -52 6l-4 -2q6 -18 6 -51v-330q0 -34 -6 -49l4 -4q12 6 52 6h526v-147h-526q-40 0 -52 6l-4 -4q6 -15 6 -51v-467
q0 -34 -6 -52l4 -2q21 7 52 7h600v-150h-807v1434h799z" />
    <glyph glyph-name="Edieresis" unicode="&#xcb;" horiz-adv-x="1050" 
d="M346 1747h150v-225h-150v225zM684 1747h150v-225h-150v225zM961 1434v-150h-592q-34 0 -52 6l-4 -2q6 -18 6 -51v-330q0 -34 -6 -49l4 -4q12 6 52 6h526v-147h-526q-40 0 -52 6l-4 -4q6 -15 6 -51v-467q0 -34 -6 -52l4 -2q21 7 52 7h600v-150h-807v1434h799z" />
    <glyph glyph-name="Igrave" unicode="&#xcc;" horiz-adv-x="481" 
d="M115 1747l182 -221l-2 -4h-107l-251 219l2 6h176zM319 1434v-1434h-157v1434h157z" />
    <glyph glyph-name="Iacute" unicode="&#xcd;" horiz-adv-x="481" 
d="M545 1747l2 -6l-252 -219h-107l-2 4l183 221h176zM319 1434v-1434h-157v1434h157z" />
    <glyph glyph-name="Icircumflex" unicode="&#xce;" horiz-adv-x="481" 
d="M-80 1522v8l238 237h168l235 -237v-8h-143l-80 75q-46 44 -65 68.5t-29 54.5h-6q-10 -30 -29 -54t-66 -69l-80 -75h-143zM319 1434v-1434h-157v1434h157z" />
    <glyph glyph-name="Idieresis" unicode="&#xcf;" horiz-adv-x="481" 
d="M-2 1747h149v-225h-149v225zM336 1747h149v-225h-149v225zM319 1434v-1434h-157v1434h157z" />
    <glyph glyph-name="Eth" unicode="&#xd0;" horiz-adv-x="1468" 
d="M668 1434q153 0 284 -50t226 -141t148.5 -226.5t53.5 -299.5t-53.5 -299.5t-148.5 -226.5t-226 -141t-284 -50h-447v612q0 34 6 52l-2 2q-25 -7 -53 -7h-164v136h164q28 0 53 -7l2 3q-6 18 -6 51v592h447zM659 147q118 0 218 37.5t174.5 108t116.5 179.5t42 245
q0 135 -42 243.5t-116.5 179t-174.5 107.5t-218 37h-231q-30 0 -51 6l-4 -2q6 -18 6 -51v-395q0 -33 -6 -51l4 -3q24 7 51 7h373v-136h-373q-26 0 -51 7l-4 -2q6 -18 6 -52v-417q0 -35 -6 -50l4 -4q14 6 51 6h231z" />
    <glyph glyph-name="Ntilde" unicode="&#xd1;" horiz-adv-x="1474" 
d="M494 1540l-72 23q58 184 201 184q57 0 173.5 -46t159.5 -46q65 0 105 82l69 -23q-12 -37 -26 -66t-37 -57.5t-57.5 -44.5t-77.5 -16q-57 0 -174 45t-160 45q-38 0 -61 -19.5t-43 -60.5zM178 1454l875 -977q86 -97 112 -162l6 2q-16 84 -16 258v859h158v-1454h-19
l-872 976q-88 99 -113 162l-8 -2q18 -94 18 -256v-860h-157v1454h16z" />
    <glyph glyph-name="Ograve" unicode="&#xd2;" horiz-adv-x="1654" 
d="M700 1747l183 -221l-2 -4h-107l-252 219l2 6h176zM827 1464q214 0 385 -95.5t267 -266.5t96 -385t-96 -385t-267 -267t-385 -96t-385 96t-266.5 267t-95.5 385q0 160 56 299t154.5 237.5t237.5 154.5t299 56zM827 1305q-124 0 -231 -44t-182.5 -121.5t-118.5 -186.5
t-43 -236t43 -236t118.5 -186.5t182.5 -121.5t231 -44q253 0 415.5 165.5t162.5 422.5t-162.5 422.5t-415.5 165.5z" />
    <glyph glyph-name="Oacute" unicode="&#xd3;" horiz-adv-x="1654" 
d="M1130 1747l3 -6l-252 -219h-107l-2 4l182 221h176zM827 1464q214 0 385 -95.5t267 -266.5t96 -385t-96 -385t-267 -267t-385 -96t-385 96t-266.5 267t-95.5 385q0 160 56 299t154.5 237.5t237.5 154.5t299 56zM827 1305q-124 0 -231 -44t-182.5 -121.5t-118.5 -186.5
t-43 -236t43 -236t118.5 -186.5t182.5 -121.5t231 -44q253 0 415.5 165.5t162.5 422.5t-162.5 422.5t-415.5 165.5z" />
    <glyph glyph-name="Ocircumflex" unicode="&#xd4;" horiz-adv-x="1654" 
d="M506 1522v8l237 237h168l236 -237v-8h-143l-80 75q-47 45 -66 69t-29 54h-6q-10 -30 -29 -54.5t-65 -68.5l-80 -75h-143zM827 1464q214 0 385 -95.5t267 -266.5t96 -385t-96 -385t-267 -267t-385 -96t-385 96t-266.5 267t-95.5 385q0 160 56 299t154.5 237.5t237.5 154.5
t299 56zM827 1305q-124 0 -231 -44t-182.5 -121.5t-118.5 -186.5t-43 -236t43 -236t118.5 -186.5t182.5 -121.5t231 -44q253 0 415.5 165.5t162.5 422.5t-162.5 422.5t-415.5 165.5z" />
    <glyph glyph-name="Otilde" unicode="&#xd5;" horiz-adv-x="1654" 
d="M563 1540l-71 23q58 184 200 184q57 0 174 -46t160 -46q36 0 60 20.5t44 61.5l70 -23q-58 -184 -199 -184q-57 0 -173.5 45t-159.5 45q-38 0 -61.5 -19.5t-43.5 -60.5zM827 1464q214 0 385 -95.5t267 -266.5t96 -385t-96 -385t-267 -267t-385 -96t-385 96t-266.5 267
t-95.5 385q0 160 56 299t154.5 237.5t237.5 154.5t299 56zM827 1305q-124 0 -231 -44t-182.5 -121.5t-118.5 -186.5t-43 -236t43 -236t118.5 -186.5t182.5 -121.5t231 -44q253 0 415.5 165.5t162.5 422.5t-162.5 422.5t-415.5 165.5z" />
    <glyph glyph-name="Odieresis" unicode="&#xd6;" horiz-adv-x="1654" 
d="M584 1747h149v-225h-149v225zM922 1747h149v-225h-149v225zM827 1464q214 0 385 -95.5t267 -266.5t96 -385t-96 -385t-267 -267t-385 -96t-385 96t-266.5 267t-95.5 385q0 160 56 299t154.5 237.5t237.5 154.5t299 56zM827 1305q-124 0 -231 -44t-182.5 -121.5
t-118.5 -186.5t-43 -236t43 -236t118.5 -186.5t182.5 -121.5t231 -44q253 0 415.5 165.5t162.5 422.5t-162.5 422.5t-415.5 165.5z" />
    <glyph glyph-name="multiply" unicode="&#xd7;" 
d="M991 1047l60 -60l-377 -377l377 -377l-60 -59l-377 377l-376 -377l-60 59l377 377l-377 377l60 60l376 -377z" />
    <glyph glyph-name="Oslash" unicode="&#xd8;" horiz-adv-x="1654" 
d="M1292 1315q134 -101 208.5 -255.5t74.5 -342.5q0 -214 -96 -385t-267 -267t-385 -96q-227 0 -409 111l-78 -109l-55 37l77 111q-134 99 -208 254.5t-74 343.5q0 160 56 299t154.5 237.5t237.5 154.5t299 56q228 0 412 -110l76 108l55 -37zM252 717q0 -144 54.5 -264
t152.5 -199l684 965q-138 86 -316 86q-124 0 -231 -44t-182.5 -121.5t-118.5 -186.5t-43 -236zM827 129q253 0 415.5 165.5t162.5 422.5q0 144 -54.5 264t-152.5 199l-686 -965q141 -86 315 -86z" />
    <glyph glyph-name="Ugrave" unicode="&#xd9;" horiz-adv-x="1392" 
d="M569 1747l183 -221l-2 -4h-107l-252 219l2 6h176zM1247 1434v-904q0 -259 -148.5 -409t-402.5 -150q-253 0 -402 150t-149 409v904h164v-893q0 -192 103.5 -301t283.5 -109t283.5 109t103.5 301v893h164z" />
    <glyph glyph-name="Uacute" unicode="&#xda;" horiz-adv-x="1392" 
d="M999 1747l2 -6l-251 -219h-107l-2 4l182 221h176zM1247 1434v-904q0 -259 -148.5 -409t-402.5 -150q-253 0 -402 150t-149 409v904h164v-893q0 -192 103.5 -301t283.5 -109t283.5 109t103.5 301v893h164z" />
    <glyph glyph-name="Ucircumflex" unicode="&#xdb;" horiz-adv-x="1392" 
d="M375 1522v8l237 237h168l236 -237v-8h-144l-79 75q-47 45 -66 69t-29 54h-6q-10 -30 -29 -54.5t-65 -68.5l-80 -75h-143zM1247 1434v-904q0 -259 -148.5 -409t-402.5 -150q-253 0 -402 150t-149 409v904h164v-893q0 -192 103.5 -301t283.5 -109t283.5 109t103.5 301v893
h164z" />
    <glyph glyph-name="Udieresis" unicode="&#xdc;" horiz-adv-x="1392" 
d="M453 1747h149v-225h-149v225zM791 1747h149v-225h-149v225zM1247 1434v-904q0 -259 -148.5 -409t-402.5 -150q-253 0 -402 150t-149 409v904h164v-893q0 -192 103.5 -301t283.5 -109t283.5 109t103.5 301v893h164z" />
    <glyph glyph-name="Yacute" unicode="&#xdd;" horiz-adv-x="1126" 
d="M866 1747l2 -6l-252 -219h-106l-2 4l182 221h176zM1108 1434l-467 -873v-561h-158v561l-465 873h191l266 -533q48 -96 62 -131t24 -86h4q10 51 24 86t62 131l267 533h190z" />
    <glyph glyph-name="Thorn" unicode="&#xde;" horiz-adv-x="1093" 
d="M319 1434v-256q0 -38 -4 -50l2 -2q10 4 45 4h244q204 0 322.5 -106.5t118.5 -286.5t-118.5 -286.5t-322.5 -106.5h-244q-35 0 -45 4l-2 -2q4 -12 4 -49v-297h-157v1434h157zM317 987l-2 -4q4 -10 4 -47v-397q0 -37 -4 -47l2 -5q17 7 45 7h242q127 0 200 63t73 180
t-73.5 180.5t-199.5 63.5h-242q-30 0 -45 6z" />
    <glyph glyph-name="germandbls" unicode="&#xdf;" horiz-adv-x="1128" 
d="M633 809q194 -3 308 -101.5t114 -283.5q0 -212 -138 -323t-393 -111h-116v141h102q193 0 292 69.5t99 225.5q0 165 -114.5 236t-340.5 71v135q154 0 240 61t86 179q0 102 -62 157.5t-165 55.5q-112 0 -182 -67.5t-70 -202.5v-1317h-148v1308q0 190 104.5 306t295.5 116
q184 0 281.5 -95.5t97.5 -242.5q0 -124 -73 -206.5t-218 -102.5v-8z" />
    <glyph glyph-name="agrave" unicode="&#xe0;" horiz-adv-x="1032" 
d="M381 1448l192 -307l-2 -8h-106l-260 309l2 6h174zM514 977q199 0 293 -91.5t94 -285.5v-600h-147q0 82 20 170l-8 2q-49 -98 -138.5 -150.5t-205.5 -52.5q-159 0 -257.5 93t-98.5 243q0 153 97.5 243.5t262.5 90.5q116 0 205.5 -49t132.5 -135l6 2q-9 35 -12 149
q-3 117 -65 173.5t-187 56.5q-128 0 -299 -54l-41 138q180 57 348 57zM469 512q-110 0 -178 -58t-68 -153q0 -93 67.5 -149t176.5 -56q117 0 194.5 59t77.5 148q0 90 -77 149.5t-193 59.5z" />
    <glyph glyph-name="aacute" unicode="&#xe1;" horiz-adv-x="1032" 
d="M838 1448l2 -6l-260 -309h-107l-2 8l191 307h176zM514 977q199 0 293 -91.5t94 -285.5v-600h-147q0 82 20 170l-8 2q-49 -98 -138.5 -150.5t-205.5 -52.5q-159 0 -257.5 93t-98.5 243q0 153 97.5 243.5t262.5 90.5q116 0 205.5 -49t132.5 -135l6 2q-9 35 -12 149
q-3 117 -65 173.5t-187 56.5q-128 0 -299 -54l-41 138q180 57 348 57zM469 512q-110 0 -178 -58t-68 -153q0 -93 67.5 -149t176.5 -56q117 0 194.5 59t77.5 148q0 90 -77 149.5t-193 59.5z" />
    <glyph glyph-name="acircumflex" unicode="&#xe2;" horiz-adv-x="1032" 
d="M602 1448l225 -311v-4h-135l-96 135q-41 60 -53 81t-19 48h-4q-7 -28 -19.5 -49.5t-51.5 -79.5l-97 -135h-135v4l225 311h160zM514 977q199 0 293 -91.5t94 -285.5v-600h-147q0 82 20 170l-8 2q-49 -98 -138.5 -150.5t-205.5 -52.5q-159 0 -257.5 93t-98.5 243
q0 153 97.5 243.5t262.5 90.5q116 0 205.5 -49t132.5 -135l6 2q-9 35 -12 149q-3 117 -65 173.5t-187 56.5q-128 0 -299 -54l-41 138q180 57 348 57zM469 512q-110 0 -178 -58t-68 -153q0 -93 67.5 -149t176.5 -56q117 0 194.5 59t77.5 148q0 90 -77 149.5t-193 59.5z" />
    <glyph glyph-name="atilde" unicode="&#xe3;" horiz-adv-x="1032" 
d="M377 1421q51 0 113.5 -27t118.5 -54t89 -27q68 0 109 100l74 -24q-54 -193 -197 -193q-39 0 -87.5 17t-85.5 37.5t-78 37.5t-68 17q-68 0 -109 -101l-74 25q50 192 195 192zM514 977q199 0 293 -91.5t94 -285.5v-600h-147q0 82 20 170l-8 2q-49 -98 -138.5 -150.5
t-205.5 -52.5q-159 0 -257.5 93t-98.5 243q0 153 97.5 243.5t262.5 90.5q116 0 205.5 -49t132.5 -135l6 2q-9 35 -12 149q-3 117 -65 173.5t-187 56.5q-128 0 -299 -54l-41 138q180 57 348 57zM469 512q-110 0 -178 -58t-68 -153q0 -93 67.5 -149t176.5 -56q117 0 194.5 59
t77.5 148q0 90 -77 149.5t-193 59.5z" />
    <glyph glyph-name="adieresis" unicode="&#xe4;" horiz-adv-x="1032" 
d="M426 1434v-248h-150v248h150zM770 1434v-248h-149v248h149zM514 977q199 0 293 -91.5t94 -285.5v-600h-147q0 82 20 170l-8 2q-49 -98 -138.5 -150.5t-205.5 -52.5q-159 0 -257.5 93t-98.5 243q0 153 97.5 243.5t262.5 90.5q116 0 205.5 -49t132.5 -135l6 2
q-9 35 -12 149q-3 117 -65 173.5t-187 56.5q-128 0 -299 -54l-41 138q180 57 348 57zM469 512q-110 0 -178 -58t-68 -153q0 -93 67.5 -149t176.5 -56q117 0 194.5 59t77.5 148q0 90 -77 149.5t-193 59.5z" />
    <glyph glyph-name="aring" unicode="&#xe5;" horiz-adv-x="1032" 
d="M522 1530q106 0 175 -68t69 -172t-69 -171.5t-175 -67.5t-174.5 67.5t-68.5 171.5t68.5 172t174.5 68zM522 1450q-72 0 -116 -44.5t-44 -115.5t44 -115.5t116 -44.5t116 44.5t44 115.5t-44 115.5t-116 44.5zM514 977q199 0 293 -91.5t94 -285.5v-600h-147q0 82 20 170
l-8 2q-49 -98 -138.5 -150.5t-205.5 -52.5q-159 0 -257.5 93t-98.5 243q0 153 97.5 243.5t262.5 90.5q116 0 205.5 -49t132.5 -135l6 2q-9 35 -12 149q-3 117 -65 173.5t-187 56.5q-128 0 -299 -54l-41 138q180 57 348 57zM469 512q-110 0 -178 -58t-68 -153
q0 -93 67.5 -149t176.5 -56q117 0 194.5 59t77.5 148q0 90 -77 149.5t-193 59.5z" />
    <glyph glyph-name="ae" unicode="&#xe6;" horiz-adv-x="1759" 
d="M436 -31q-164 0 -267 93t-103 247q0 149 98.5 239.5t259.5 90.5q113 0 204 -47.5t136 -136.5l6 2q-11 47 -14 151q-3 118 -66 173t-184 55q-128 0 -299 -54l-41 138q183 57 346 57q155 0 235 -59t101 -177h4q45 109 145.5 172.5t237.5 63.5q217 0 334 -138t117 -360v-30
h-685q-67 0 -100 10l-2 -4l2 -13q12 -156 103 -243.5t241 -87.5q105 0 177.5 41t144.5 124l94 -96q-161 -211 -414 -211q-165 0 -275 80.5t-145 210.5h-6q-26 -134 -130 -212.5t-255 -78.5zM907 549q32 16 97 16h403q83 0 121 -14l2 2q-12 135 -90 211t-213 76
q-133 0 -221 -76t-103 -213zM469 96q114 0 192 58.5t78 148.5q0 91 -78.5 150t-193.5 59q-113 0 -178.5 -58.5t-65.5 -150.5t66 -149.5t180 -57.5z" />
    <glyph glyph-name="ccedilla" unicode="&#xe7;" horiz-adv-x="970" 
d="M911 63q-140 -91 -305 -94l-18 -49q176 -42 176 -145q0 -31 -17 -61t-39 -51t-63.5 -46t-68.5 -38t-76 -36l-27 56q32 18 46 26t37.5 22.5t34.5 23.5t23.5 21.5t17.5 23.5t5 22q0 33 -37 53.5t-113 36.5l52 143q-208 15 -336.5 153t-128.5 349q0 224 143 364t371 140
q174 0 323 -94l-71 -127q-124 78 -256 78q-155 0 -255 -101.5t-100 -259.5q0 -157 100 -258.5t255 -101.5q134 0 256 77z" />
    <glyph glyph-name="egrave" unicode="&#xe8;" horiz-adv-x="1083" 
d="M420 1448l192 -307l-2 -8h-106l-260 309l2 6h174zM557 977q207 0 329 -134t122 -364v-30h-682q-76 0 -103 12l-4 -2l6 -21q9 -154 100.5 -240.5t243.5 -86.5q96 0 172 38.5t150 126.5l94 -96q-163 -211 -420 -211q-221 0 -356 137.5t-135 364.5q0 230 131.5 368
t351.5 138zM553 840q-138 0 -225.5 -77t-100.5 -212l2 -2q32 16 99 16h403q84 0 119 -14l2 2q-11 137 -89 212t-210 75z" />
    <glyph glyph-name="eacute" unicode="&#xe9;" horiz-adv-x="1083" 
d="M877 1448l2 -6l-261 -309h-106l-2 8l190 307h177zM557 977q207 0 329 -134t122 -364v-30h-682q-76 0 -103 12l-4 -2l6 -21q9 -154 100.5 -240.5t243.5 -86.5q96 0 172 38.5t150 126.5l94 -96q-163 -211 -420 -211q-221 0 -356 137.5t-135 364.5q0 230 131.5 368
t351.5 138zM553 840q-138 0 -225.5 -77t-100.5 -212l2 -2q32 16 99 16h403q84 0 119 -14l2 2q-11 137 -89 212t-210 75z" />
    <glyph glyph-name="ecircumflex" unicode="&#xea;" horiz-adv-x="1083" 
d="M641 1448l225 -311v-4h-135l-96 135q-41 60 -53 81t-19 48h-4q-7 -27 -19 -48t-53 -81l-96 -135h-135v4l225 311h160zM557 977q207 0 329 -134t122 -364v-30h-682q-76 0 -103 12l-4 -2l6 -21q9 -154 100.5 -240.5t243.5 -86.5q96 0 172 38.5t150 126.5l94 -96
q-163 -211 -420 -211q-221 0 -356 137.5t-135 364.5q0 230 131.5 368t351.5 138zM553 840q-138 0 -225.5 -77t-100.5 -212l2 -2q32 16 99 16h403q84 0 119 -14l2 2q-11 137 -89 212t-210 75z" />
    <glyph glyph-name="edieresis" unicode="&#xeb;" horiz-adv-x="1083" 
d="M465 1434v-248h-150v248h150zM809 1434v-248h-150v248h150zM557 977q207 0 329 -134t122 -364v-30h-682q-76 0 -103 12l-4 -2l6 -21q9 -154 100.5 -240.5t243.5 -86.5q96 0 172 38.5t150 126.5l94 -96q-163 -211 -420 -211q-221 0 -356 137.5t-135 364.5q0 230 131.5 368
t351.5 138zM553 840q-138 0 -225.5 -77t-100.5 -212l2 -2q32 16 99 16h403q84 0 119 -14l2 2q-11 137 -89 212t-210 75z" />
    <glyph glyph-name="igrave" unicode="&#xec;" horiz-adv-x="440" 
d="M4 1448h160l106 -307l-2 -8h-98l-168 309zM293 946v-946h-148v946h148z" />
    <glyph glyph-name="iacute" unicode="&#xed;" horiz-adv-x="440" 
d="M442 1448l2 -6l-170 -309h-96l-2 8l105 307h161zM293 946v-946h-148v946h148z" />
    <glyph glyph-name="icircumflex" unicode="&#xee;" horiz-adv-x="440" 
d="M291 1448l166 -311v-4h-119l-70 135q-38 74 -47 121h-4q-7 -46 -45 -121l-70 -135h-118v4l166 311h141zM293 946v-946h-148v946h148z" />
    <glyph glyph-name="idieresis" unicode="&#xef;" horiz-adv-x="440" 
d="M164 1434v-248h-150v248h150zM426 1434v-248h-150v248h150zM293 946v-946h-148v946h148z" />
    <glyph glyph-name="eth" unicode="&#xf0;" horiz-adv-x="1196" 
d="M774 1315q322 -198 322 -686q0 -166 -39 -293.5t-110 -207t-166 -119.5t-210 -40q-227 0 -366 142.5t-139 367.5q0 221 135.5 358.5t349.5 137.5q172 0 282 -93.5t140 -256.5h8q-14 152 -35 233q-68 247 -280 367l-197 -166l-59 63l170 144q-124 49 -304 65l21 127
q237 -25 393 -98l178 151l58 -65zM578 111q156 0 252 97.5t96 260.5q0 167 -98.5 267t-260.5 100q-159 0 -253.5 -97.5t-94.5 -259.5q0 -167 99.5 -267.5t259.5 -100.5z" />
    <glyph glyph-name="ntilde" unicode="&#xf1;" horiz-adv-x="1124" 
d="M436 1421q51 0 114 -27t119 -54t89 -27q67 0 108 100l74 -24q-54 -193 -197 -193q-39 0 -87.5 17t-85.5 37.5t-78 37.5t-68 17q-68 0 -109 -101l-73 25q50 192 194 192zM643 977q169 0 259.5 -99t90.5 -282v-596h-147v563q0 131 -63 202t-181 71q-148 0 -230.5 -105
t-82.5 -293v-438h-148v946h148q0 -175 -21 -264l8 -2q91 297 367 297z" />
    <glyph glyph-name="ograve" unicode="&#xf2;" horiz-adv-x="1173" 
d="M444 1448l193 -307l-2 -8h-107l-260 309l2 6h174zM586 977q224 0 368 -142t144 -362q0 -219 -144 -361.5t-368 -142.5q-223 0 -367.5 143t-144.5 361q0 220 144.5 362t367.5 142zM586 831q-157 0 -257 -99.5t-100 -258.5q0 -158 100 -258t257 -100t256.5 100t99.5 258
q0 159 -99.5 258.5t-256.5 99.5z" />
    <glyph glyph-name="oacute" unicode="&#xf3;" horiz-adv-x="1173" 
d="M901 1448l2 -6l-260 -309h-106l-2 8l190 307h176zM586 977q224 0 368 -142t144 -362q0 -219 -144 -361.5t-368 -142.5q-223 0 -367.5 143t-144.5 361q0 220 144.5 362t367.5 142zM586 831q-157 0 -257 -99.5t-100 -258.5q0 -158 100 -258t257 -100t256.5 100t99.5 258
q0 159 -99.5 258.5t-256.5 99.5z" />
    <glyph glyph-name="ocircumflex" unicode="&#xf4;" horiz-adv-x="1173" 
d="M666 1448l225 -311v-4h-135l-97 135q-39 58 -51.5 79.5t-19.5 49.5h-4q-7 -27 -19 -48t-53 -81l-96 -135h-135v4l225 311h160zM586 977q224 0 368 -142t144 -362q0 -219 -144 -361.5t-368 -142.5q-223 0 -367.5 143t-144.5 361q0 220 144.5 362t367.5 142zM586 831
q-157 0 -257 -99.5t-100 -258.5q0 -158 100 -258t257 -100t256.5 100t99.5 258q0 159 -99.5 258.5t-256.5 99.5z" />
    <glyph glyph-name="otilde" unicode="&#xf5;" horiz-adv-x="1173" 
d="M442 1421q51 0 114 -27t119 -54t89 -27q67 0 108 100l74 -24q-54 -193 -196 -193q-50 0 -112.5 27t-118.5 54.5t-89 27.5q-67 0 -108 -101l-74 25q50 192 194 192zM586 977q224 0 368 -142t144 -362q0 -219 -144 -361.5t-368 -142.5q-223 0 -367.5 143t-144.5 361
q0 220 144.5 362t367.5 142zM586 831q-157 0 -257 -99.5t-100 -258.5q0 -158 100 -258t257 -100t256.5 100t99.5 258q0 159 -99.5 258.5t-256.5 99.5z" />
    <glyph glyph-name="odieresis" unicode="&#xf6;" horiz-adv-x="1173" 
d="M489 1434v-248h-149v248h149zM834 1434v-248h-150v248h150zM586 977q224 0 368 -142t144 -362q0 -219 -144 -361.5t-368 -142.5q-223 0 -367.5 143t-144.5 361q0 220 144.5 362t367.5 142zM586 831q-157 0 -257 -99.5t-100 -258.5q0 -158 100 -258t257 -100t256.5 100
t99.5 258q0 159 -99.5 258.5t-256.5 99.5z" />
    <glyph glyph-name="divide" unicode="&#xf7;" 
d="M686 1004v-160h-143v160h143zM1145 651v-80h-1061v80h1061zM686 379v-162h-143v162h143z" />
    <glyph glyph-name="oslash" unicode="&#xf8;" horiz-adv-x="1173" 
d="M948 840q150 -144 150 -367q0 -219 -144 -361.5t-368 -142.5q-180 0 -314 97l-84 -95l-51 43l84 97q-147 144 -147 362q0 220 144.5 362t367.5 142q178 0 309 -92l80 92l53 -45zM229 473q0 -148 90 -248l478 545q-85 61 -211 61q-157 0 -257 -99.5t-100 -258.5zM586 115
q157 0 256.5 100t99.5 258q0 154 -94 254l-477 -547q89 -65 215 -65z" />
    <glyph glyph-name="ugrave" unicode="&#xf9;" horiz-adv-x="1075" 
d="M393 1448l193 -307l-2 -8h-107l-260 309l2 6h174zM944 946v-946h-147q0 158 22 248l-8 4q-88 -283 -350 -283q-161 0 -250.5 105t-89.5 295v577h151v-555q0 -135 63 -207.5t177 -72.5q134 0 209.5 105t75.5 292v438h147z" />
    <glyph glyph-name="uacute" unicode="&#xfa;" horiz-adv-x="1075" 
d="M850 1448l2 -6l-260 -309h-107l-2 8l191 307h176zM944 946v-946h-147q0 158 22 248l-8 4q-88 -283 -350 -283q-161 0 -250.5 105t-89.5 295v577h151v-555q0 -135 63 -207.5t177 -72.5q134 0 209.5 105t75.5 292v438h147z" />
    <glyph glyph-name="ucircumflex" unicode="&#xfb;" horiz-adv-x="1075" 
d="M614 1448l226 -311v-4h-135l-97 135q-39 58 -51.5 79.5t-19.5 49.5h-5q-7 -28 -19.5 -49.5t-51.5 -79.5l-96 -135h-136v4l226 311h159zM944 946v-946h-147q0 158 22 248l-8 4q-88 -283 -350 -283q-161 0 -250.5 105t-89.5 295v577h151v-555q0 -135 63 -207.5t177 -72.5
q134 0 209.5 105t75.5 292v438h147z" />
    <glyph glyph-name="udieresis" unicode="&#xfc;" horiz-adv-x="1075" 
d="M438 1434v-248h-149v248h149zM782 1434v-248h-149v248h149zM944 946v-946h-147q0 158 22 248l-8 4q-88 -283 -350 -283q-161 0 -250.5 105t-89.5 295v577h151v-555q0 -135 63 -207.5t177 -72.5q134 0 209.5 105t75.5 292v438h147z" />
    <glyph glyph-name="yacute" unicode="&#xfd;" horiz-adv-x="978" 
d="M809 1448l2 -6l-260 -309h-107l-2 8l191 307h176zM958 946l-583 -1358h-154l205 478l-406 880h170l248 -567q29 -67 41 -105.5t15 -87.5h8q8 77 51 179l246 581h159z" />
    <glyph glyph-name="thorn" unicode="&#xfe;" horiz-adv-x="1212" 
d="M145 -410v1844h148v-490q0 -131 -17 -205l7 -4q55 111 155.5 176.5t237.5 65.5q198 0 330.5 -138t132.5 -368q0 -115 -36.5 -210t-100 -158.5t-148.5 -98.5t-182 -35q-265 0 -389 232l-7 -2q17 -86 17 -217v-392h-148zM651 111q149 0 241.5 96.5t92.5 263.5
q0 169 -93 267t-245 98q-162 0 -261 -103t-99 -262q0 -155 99.5 -257.5t264.5 -102.5z" />
    <glyph glyph-name="ydieresis" unicode="&#xff;" horiz-adv-x="978" 
d="M397 1434v-248h-149v248h149zM741 1434v-248h-149v248h149zM958 946l-583 -1358h-154l205 478l-406 880h170l248 -567q29 -67 41 -105.5t15 -87.5h8q8 77 51 179l246 581h159z" />
    <glyph glyph-name="Amacron" unicode="&#x100;" horiz-adv-x="1386" 
d="M401 1677h582v-106h-582v106zM25 0l659 1464h16l660 -1464h-176l-185 424h-612l-186 -424h-176zM430 555q36 4 115 4h295q78 0 114 -4l2 2q-29 42 -63 119l-143 340q-48 119 -54 170h-8q-7 -64 -53 -170l-143 -340q-30 -73 -62 -119v-2z" />
    <glyph glyph-name="amacron" unicode="&#x101;" horiz-adv-x="1032" 
d="M811 1364v-113h-578v113h578zM514 977q199 0 293 -91.5t94 -285.5v-600h-147q0 82 20 170l-8 2q-49 -98 -138.5 -150.5t-205.5 -52.5q-159 0 -257.5 93t-98.5 243q0 153 97.5 243.5t262.5 90.5q116 0 205.5 -49t132.5 -135l6 2q-9 35 -12 149q-3 117 -65 173.5t-187 56.5
q-128 0 -299 -54l-41 138q180 57 348 57zM469 512q-110 0 -178 -58t-68 -153q0 -93 67.5 -149t176.5 -56q117 0 194.5 59t77.5 148q0 90 -77 149.5t-193 59.5z" />
    <glyph glyph-name="Abreve" unicode="&#x102;" horiz-adv-x="1386" 
d="M973 1747q-3 -105 -80 -165t-201 -60q-123 0 -200 60.5t-80 164.5h112q6 -56 50 -87.5t118 -31.5q75 0 119.5 31.5t50.5 87.5h111zM25 0l659 1464h16l660 -1464h-176l-185 424h-612l-186 -424h-176zM430 555q36 4 115 4h295q78 0 114 -4l2 2q-29 42 -63 119l-143 340
q-48 119 -54 170h-8q-7 -64 -53 -170l-143 -340q-30 -73 -62 -119v-2z" />
    <glyph glyph-name="abreve" unicode="&#x103;" horiz-adv-x="1032" 
d="M803 1440q0 -137 -77.5 -215t-203.5 -78q-124 0 -202 78t-78 215h110q3 -92 47.5 -139.5t122.5 -47.5t123.5 47.5t48.5 139.5h109zM514 977q199 0 293 -91.5t94 -285.5v-600h-147q0 82 20 170l-8 2q-49 -98 -138.5 -150.5t-205.5 -52.5q-159 0 -257.5 93t-98.5 243
q0 153 97.5 243.5t262.5 90.5q116 0 205.5 -49t132.5 -135l6 2q-9 35 -12 149q-3 117 -65 173.5t-187 56.5q-128 0 -299 -54l-41 138q180 57 348 57zM469 512q-110 0 -178 -58t-68 -153q0 -93 67.5 -149t176.5 -56q117 0 194.5 59t77.5 148q0 90 -77 149.5t-193 59.5z" />
    <glyph glyph-name="Aogonek" unicode="&#x104;" horiz-adv-x="1386" 
d="M1155 -283q45 0 92 13l21 -92q-77 -25 -133 -25q-77 0 -129 37.5t-52 105.5q0 69 53 134t162 143l-170 391h-612l-186 -424h-176l659 1464h16l660 -1464h-117q-91 -70 -134.5 -122t-43.5 -95q0 -66 90 -66zM954 555l2 2q-29 42 -63 119l-143 340q-48 119 -54 170h-8
q-7 -64 -53 -170l-143 -340q-30 -73 -62 -119v-2q36 4 115 4h295q78 0 114 -4z" />
    <glyph glyph-name="aogonek" unicode="&#x105;" horiz-adv-x="1032" 
d="M807 0q-91 -70 -134.5 -122t-43.5 -95q0 -66 90 -66q45 0 92 13l20 -92q-77 -25 -133 -25q-77 0 -128.5 37.5t-51.5 105.5q0 71 58 139.5t178 153.5q2 46 20 121l-8 2q-49 -98 -138.5 -150.5t-205.5 -52.5q-159 0 -257.5 93t-98.5 243q0 153 97.5 243.5t262.5 90.5
q116 0 205.5 -49t132.5 -135l6 2q-9 35 -12 149q-3 117 -65 173.5t-187 56.5q-128 0 -299 -54l-41 138q180 57 348 57q199 0 293 -91.5t94 -285.5v-600h-94zM467 96q117 0 194.5 59t77.5 148q0 90 -77 149.5t-193 59.5q-110 0 -178 -58t-68 -153q0 -93 67.5 -149t176.5 -56z
" />
    <glyph glyph-name="Cacute" unicode="&#x106;" horiz-adv-x="1415" 
d="M1122 1747l2 -6l-252 -219h-106l-2 4l182 221h176zM846 -31q-342 0 -554 207.5t-212 540.5t212 540t554 207q282 0 500 -161l-97 -138q-189 140 -409 140q-261 0 -424.5 -164t-163.5 -424t163.5 -424t424.5 -164q221 0 409 139l97 -137q-219 -162 -500 -162z" />
    <glyph glyph-name="cacute" unicode="&#x107;" horiz-adv-x="970" 
d="M877 1448l2 -6l-261 -309h-106l-2 8l190 307h177zM588 -31q-228 0 -371 140t-143 364t143 364t371 140q174 0 323 -94l-71 -127q-124 78 -256 78q-155 0 -255 -101.5t-100 -259.5q0 -157 100 -258.5t255 -101.5q134 0 256 77l71 -127q-149 -94 -323 -94z" />
    <glyph glyph-name="Ccircumflex" unicode="&#x108;" horiz-adv-x="1415" 
d="M498 1522v8l237 237h168l236 -237v-8h-144l-80 75q-46 44 -65 68.5t-29 54.5h-6q-10 -30 -29 -54.5t-65 -68.5l-80 -75h-143zM846 -31q-342 0 -554 207.5t-212 540.5t212 540t554 207q282 0 500 -161l-97 -138q-189 140 -409 140q-261 0 -424.5 -164t-163.5 -424
t163.5 -424t424.5 -164q221 0 409 139l97 -137q-219 -162 -500 -162z" />
    <glyph glyph-name="ccircumflex" unicode="&#x109;" horiz-adv-x="970" 
d="M641 1448l225 -311v-4h-135l-96 135q-41 60 -53 81t-19 48h-4q-7 -27 -19 -48t-53 -81l-96 -135h-135v4l225 311h160zM588 -31q-228 0 -371 140t-143 364t143 364t371 140q174 0 323 -94l-71 -127q-124 78 -256 78q-155 0 -255 -101.5t-100 -259.5q0 -157 100 -258.5
t255 -101.5q134 0 256 77l71 -127q-149 -94 -323 -94z" />
    <glyph glyph-name="Cdotaccent" unicode="&#x10a;" horiz-adv-x="1415" 
d="M895 1747v-225h-156v225h156zM846 -31q-342 0 -554 207.5t-212 540.5t212 540t554 207q282 0 500 -161l-97 -138q-189 140 -409 140q-261 0 -424.5 -164t-163.5 -424t163.5 -424t424.5 -164q221 0 409 139l97 -137q-219 -162 -500 -162z" />
    <glyph glyph-name="cdotaccent" unicode="&#x10b;" horiz-adv-x="970" 
d="M645 1434v-269h-168v269h168zM588 -31q-228 0 -371 140t-143 364t143 364t371 140q174 0 323 -94l-71 -127q-124 78 -256 78q-155 0 -255 -101.5t-100 -259.5q0 -157 100 -258.5t255 -101.5q134 0 256 77l71 -127q-149 -94 -323 -94z" />
    <glyph glyph-name="Ccaron" unicode="&#x10c;" horiz-adv-x="1415" 
d="M1139 1767v-8l-236 -237h-168l-237 237v8h143l80 -75q46 -44 65 -68.5t29 -54.5h6q10 29 28.5 52.5t65.5 70.5l80 75h144zM846 -31q-342 0 -554 207.5t-212 540.5t212 540t554 207q282 0 500 -161l-97 -138q-189 140 -409 140q-261 0 -424.5 -164t-163.5 -424t163.5 -424
t424.5 -164q221 0 409 139l97 -137q-219 -162 -500 -162z" />
    <glyph glyph-name="ccaron" unicode="&#x10d;" horiz-adv-x="970" 
d="M481 1133l-239 311v4h141l104 -135q29 -39 38 -51.5t18.5 -31t15.5 -38.5h6q2 9 4.5 16t7 15.5t6.5 13.5t10 16.5t11.5 15.5t15.5 20.5t17 23.5l102 135h142v-4l-240 -311h-160zM588 -31q-228 0 -371 140t-143 364t143 364t371 140q174 0 323 -94l-71 -127
q-124 78 -256 78q-155 0 -255 -101.5t-100 -259.5q0 -157 100 -258.5t255 -101.5q134 0 256 77l71 -127q-149 -94 -323 -94z" />
    <glyph glyph-name="Dcaron" unicode="&#x10e;" horiz-adv-x="1413" 
d="M913 1767v-8l-235 -237h-168l-238 237v8h144l80 -75q46 -44 65 -68.5t29 -54.5h6q10 29 28.5 52.5t65.5 70.5l80 75h143zM602 1434q331 0 531 -196.5t200 -520.5t-200 -520.5t-531 -196.5h-440v1434h440zM317 1290l-4 -2q6 -18 6 -51v-1040q0 -34 -6 -52l4 -2q21 7 52 7
h235q258 0 407.5 152t149.5 415q0 262 -150 414.5t-407 152.5h-235q-34 0 -52 6z" />
    <glyph glyph-name="dcaron" unicode="&#x10f;" horiz-adv-x="1392" 
d="M1235 1495h160l-138 -397h-83zM543 -31q-206 0 -336.5 140.5t-130.5 363.5t130.5 363.5t336.5 140.5q137 0 237.5 -66t151.5 -190l6 4q-16 68 -16 231v508h147v-1464h-143q0 153 16 221l-8 2q-52 -123 -153 -188.5t-238 -65.5zM565 111q162 0 263.5 100.5t101.5 261.5
q0 160 -101.5 261.5t-259.5 101.5q-155 0 -246.5 -98.5t-91.5 -264.5t90 -264t244 -98z" />
    <glyph glyph-name="Dcroat" unicode="&#x110;" horiz-adv-x="1468" 
d="M668 1434q153 0 284 -50t226 -141t148.5 -226.5t53.5 -299.5t-53.5 -299.5t-148.5 -226.5t-226 -141t-284 -50h-447v612q0 34 6 52l-2 2q-25 -7 -53 -7h-164v136h164q28 0 53 -7l2 3q-6 18 -6 51v592h447zM659 147q118 0 218 37.5t174.5 108t116.5 179.5t42 245
q0 135 -42 243.5t-116.5 179t-174.5 107.5t-218 37h-231q-30 0 -51 6l-4 -2q6 -18 6 -51v-395q0 -33 -6 -51l4 -3q24 7 51 7h373v-136h-373q-26 0 -51 7l-4 -2q6 -18 6 -52v-417q0 -35 -6 -50l4 -4q14 6 51 6h231z" />
    <glyph glyph-name="dcroat" unicode="&#x111;" horiz-adv-x="1204" 
d="M1114 1268h84v-97h-84q-39 0 -57 9l-2 -2q10 -20 10 -54v-1124h-143q0 142 16 221l-8 2q-56 -130 -158.5 -192t-232.5 -62q-96 0 -180.5 35t-148 98.5t-100 159.5t-36.5 211q0 229 133 366.5t332 137.5q135 0 236 -65t153 -191l8 4q-18 83 -18 231v168q0 34 10 54l-2 2
q-18 -9 -56 -9h-286v97h286q40 0 56 -8l2 2q-10 20 -10 55v147h147v-147q0 -35 -10 -55l2 -2q16 8 57 8zM561 111q166 0 265.5 102.5t99.5 259.5q0 158 -99.5 260.5t-261.5 102.5q-151 0 -244.5 -97.5t-93.5 -265.5q0 -169 92 -265.5t242 -96.5z" />
    <glyph glyph-name="Emacron" unicode="&#x112;" horiz-adv-x="1050" 
d="M299 1677h582v-106h-582v106zM961 1434v-150h-592q-34 0 -52 6l-4 -2q6 -18 6 -51v-330q0 -34 -6 -49l4 -4q12 6 52 6h526v-147h-526q-40 0 -52 6l-4 -4q6 -15 6 -51v-467q0 -34 -6 -52l4 -2q21 7 52 7h600v-150h-807v1434h799z" />
    <glyph glyph-name="emacron" unicode="&#x113;" horiz-adv-x="1083" 
d="M850 1364v-113h-578v113h578zM557 977q207 0 329 -134t122 -364v-30h-682q-76 0 -103 12l-4 -2l6 -21q9 -154 100.5 -240.5t243.5 -86.5q96 0 172 38.5t150 126.5l94 -96q-163 -211 -420 -211q-221 0 -356 137.5t-135 364.5q0 230 131.5 368t351.5 138zM553 840
q-138 0 -225.5 -77t-100.5 -212l2 -2q32 16 99 16h403q84 0 119 -14l2 2q-11 137 -89 212t-210 75z" />
    <glyph glyph-name="Ebreve" unicode="&#x114;" horiz-adv-x="1050" 
d="M870 1747q-3 -105 -79.5 -165t-200.5 -60q-123 0 -200.5 60.5t-80.5 164.5h113q6 -56 50 -87.5t118 -31.5q75 0 119.5 31.5t50.5 87.5h110zM961 1434v-150h-592q-34 0 -52 6l-4 -2q6 -18 6 -51v-330q0 -34 -6 -49l4 -4q12 6 52 6h526v-147h-526q-40 0 -52 6l-4 -4
q6 -15 6 -51v-467q0 -34 -6 -52l4 -2q21 7 52 7h600v-150h-807v1434h799z" />
    <glyph glyph-name="ebreve" unicode="&#x115;" horiz-adv-x="1083" 
d="M842 1440q0 -137 -77.5 -215t-203.5 -78q-124 0 -202 78t-78 215h110q3 -92 47.5 -139.5t122.5 -47.5t123.5 47.5t48.5 139.5h109zM557 977q207 0 329 -134t122 -364v-30h-682q-76 0 -103 12l-4 -2l6 -21q9 -154 100.5 -240.5t243.5 -86.5q96 0 172 38.5t150 126.5
l94 -96q-163 -211 -420 -211q-221 0 -356 137.5t-135 364.5q0 230 131.5 368t351.5 138zM553 840q-138 0 -225.5 -77t-100.5 -212l2 -2q32 16 99 16h403q84 0 119 -14l2 2q-11 137 -89 212t-210 75z" />
    <glyph glyph-name="Edotaccent" unicode="&#x116;" horiz-adv-x="1050" 
d="M668 1747v-225h-156v225h156zM961 1434v-150h-592q-34 0 -52 6l-4 -2q6 -18 6 -51v-330q0 -34 -6 -49l4 -4q12 6 52 6h526v-147h-526q-40 0 -52 6l-4 -4q6 -15 6 -51v-467q0 -34 -6 -52l4 -2q21 7 52 7h600v-150h-807v1434h799z" />
    <glyph glyph-name="edotaccent" unicode="&#x117;" horiz-adv-x="1083" 
d="M645 1434v-269h-168v269h168zM557 977q207 0 329 -134t122 -364v-30h-682q-76 0 -103 12l-4 -2l6 -21q9 -154 100.5 -240.5t243.5 -86.5q96 0 172 38.5t150 126.5l94 -96q-163 -211 -420 -211q-221 0 -356 137.5t-135 364.5q0 230 131.5 368t351.5 138zM553 840
q-138 0 -225.5 -77t-100.5 -212l2 -2q32 16 99 16h403q84 0 119 -14l2 2q-11 137 -89 212t-210 75z" />
    <glyph glyph-name="Eogonek" unicode="&#x118;" horiz-adv-x="1050" 
d="M934 0q-91 -70 -134.5 -122t-43.5 -95q0 -66 90 -66q45 0 92 13l20 -92q-77 -25 -133 -25q-77 0 -128.5 37.5t-51.5 105.5q0 61 42.5 119.5t127.5 124.5h-653v1434h799v-150h-592q-34 0 -52 6l-4 -2q6 -18 6 -51v-330q0 -34 -6 -49l4 -4q12 6 52 6h526v-147h-526
q-40 0 -52 6l-4 -4q6 -15 6 -51v-467q0 -34 -6 -52l4 -2q21 7 52 7h600v-150h-35z" />
    <glyph glyph-name="eogonek" unicode="&#x119;" horiz-adv-x="1083" 
d="M326 449q-76 0 -103 12l-4 -2l6 -21q9 -154 100.5 -240.5t243.5 -86.5q96 0 172 38.5t150 126.5l94 -96q-82 -108 -190 -160l2 -2q-104 -78 -153.5 -133.5t-49.5 -101.5q0 -66 90 -66q45 0 92 13l21 -92q-77 -25 -133 -25q-77 0 -129 37.5t-52 105.5q0 55 33.5 105.5
t101.5 109.5q-18 -2 -53 -2q-221 0 -356 137.5t-135 364.5q0 230 131.5 368t351.5 138q207 0 329 -134t122 -364v-30h-682zM553 840q-138 0 -225.5 -77t-100.5 -212l2 -2q32 16 99 16h403q84 0 119 -14l2 2q-11 137 -89 212t-210 75z" />
    <glyph glyph-name="Ecaron" unicode="&#x11a;" horiz-adv-x="1050" 
d="M909 1767v-8l-235 -237h-168l-238 237v8h144l80 -75q46 -44 65 -68.5t29 -54.5h6q10 29 28.5 52.5t65.5 70.5l80 75h143zM961 1434v-150h-592q-34 0 -52 6l-4 -2q6 -18 6 -51v-330q0 -34 -6 -49l4 -4q12 6 52 6h526v-147h-526q-40 0 -52 6l-4 -4q6 -15 6 -51v-467
q0 -34 -6 -52l4 -2q21 7 52 7h600v-150h-807v1434h799z" />
    <glyph glyph-name="ecaron" unicode="&#x11b;" horiz-adv-x="1083" 
d="M481 1133l-239 311v4h141l104 -135q29 -39 38 -51.5t18.5 -31t15.5 -38.5h6q2 9 4.5 16t7 15.5t6.5 13.5t10 16.5t11.5 15.5t15.5 20.5t17 23.5l102 135h142v-4l-240 -311h-160zM557 977q207 0 329 -134t122 -364v-30h-682q-76 0 -103 12l-4 -2l6 -21
q9 -154 100.5 -240.5t243.5 -86.5q96 0 172 38.5t150 126.5l94 -96q-163 -211 -420 -211q-221 0 -356 137.5t-135 364.5q0 230 131.5 368t351.5 138zM553 840q-138 0 -225.5 -77t-100.5 -212l2 -2q32 16 99 16h403q84 0 119 -14l2 2q-11 137 -89 212t-210 75z" />
    <glyph glyph-name="Gcircumflex" unicode="&#x11c;" horiz-adv-x="1626" 
d="M516 1522v8l238 237h168l235 -237v-8h-143l-80 75q-46 44 -65 68.5t-29 54.5h-6q-10 -30 -29 -54t-66 -69l-80 -75h-143zM842 1464q302 0 542 -190l-104 -135q-203 166 -444 166q-170 0 -304 -77t-207 -212t-73 -305q0 -255 164.5 -418.5t425.5 -163.5q111 0 204.5 32
t155.5 84t106 118.5t64 133t21 130.5l-2 4q-38 -17 -140 -17h-407v150h717v-59q0 -109 -27 -213.5t-85 -199.5t-141.5 -166.5t-204.5 -114t-265 -42.5q-217 0 -389 92t-270.5 262t-98.5 388q0 219 95.5 390.5t269 267t397.5 95.5z" />
    <glyph glyph-name="gcircumflex" unicode="&#x11d;" horiz-adv-x="1198" 
d="M647 1448l225 -311v-4h-135l-96 135q-41 60 -53 81t-19 48h-4q-7 -28 -19.5 -49.5t-51.5 -79.5l-97 -135h-135v4l225 311h160zM541 977q137 0 237.5 -65.5t151.5 -188.5l6 2q-16 60 -16 221h147v-921q0 -230 -129 -347.5t-381 -117.5q-241 0 -416 110l74 133
q168 -100 346 -100q170 0 266.5 81t96.5 226v45q0 108 16 166l-8 2q-55 -123 -155 -187.5t-234 -64.5q-208 0 -338.5 139t-130.5 363q0 223 130 363.5t337 140.5zM567 836q-155 0 -246.5 -98.5t-91.5 -264.5q0 -167 91.5 -264.5t246.5 -97.5q159 0 260 101.5t101 260.5
q0 160 -100.5 261.5t-260.5 101.5z" />
    <glyph glyph-name="Gbreve" unicode="&#x11e;" horiz-adv-x="1626" 
d="M1118 1747q-3 -105 -79.5 -165t-200.5 -60q-123 0 -200.5 60.5t-80.5 164.5h113q6 -56 50 -87.5t118 -31.5q75 0 119.5 31.5t50.5 87.5h110zM842 1464q302 0 542 -190l-104 -135q-203 166 -444 166q-170 0 -304 -77t-207 -212t-73 -305q0 -255 164.5 -418.5t425.5 -163.5
q111 0 204.5 32t155.5 84t106 118.5t64 133t21 130.5l-2 4q-38 -17 -140 -17h-407v150h717v-59q0 -109 -27 -213.5t-85 -199.5t-141.5 -166.5t-204.5 -114t-265 -42.5q-217 0 -389 92t-270.5 262t-98.5 388q0 219 95.5 390.5t269 267t397.5 95.5z" />
    <glyph glyph-name="gbreve" unicode="&#x11f;" horiz-adv-x="1198" 
d="M848 1440q0 -137 -77.5 -215t-203.5 -78q-124 0 -202 78t-78 215h110q3 -92 47.5 -139.5t122.5 -47.5t123.5 47.5t48.5 139.5h109zM541 977q137 0 237.5 -65.5t151.5 -188.5l6 2q-16 60 -16 221h147v-921q0 -230 -129 -347.5t-381 -117.5q-241 0 -416 110l74 133
q168 -100 346 -100q170 0 266.5 81t96.5 226v45q0 108 16 166l-8 2q-55 -123 -155 -187.5t-234 -64.5q-208 0 -338.5 139t-130.5 363q0 223 130 363.5t337 140.5zM567 836q-155 0 -246.5 -98.5t-91.5 -264.5q0 -167 91.5 -264.5t246.5 -97.5q159 0 260 101.5t101 260.5
q0 160 -100.5 261.5t-260.5 101.5z" />
    <glyph glyph-name="Gdotaccent" unicode="&#x120;" horiz-adv-x="1626" 
d="M915 1747v-225h-155v225h155zM842 1464q302 0 542 -190l-104 -135q-203 166 -444 166q-170 0 -304 -77t-207 -212t-73 -305q0 -255 164.5 -418.5t425.5 -163.5q111 0 204.5 32t155.5 84t106 118.5t64 133t21 130.5l-2 4q-38 -17 -140 -17h-407v150h717v-59
q0 -109 -27 -213.5t-85 -199.5t-141.5 -166.5t-204.5 -114t-265 -42.5q-217 0 -389 92t-270.5 262t-98.5 388q0 219 95.5 390.5t269 267t397.5 95.5z" />
    <glyph glyph-name="gdotaccent" unicode="&#x121;" horiz-adv-x="1198" 
d="M651 1434v-269h-168v269h168zM541 977q137 0 237.5 -65.5t151.5 -188.5l6 2q-16 60 -16 221h147v-921q0 -230 -129 -347.5t-381 -117.5q-241 0 -416 110l74 133q168 -100 346 -100q170 0 266.5 81t96.5 226v45q0 108 16 166l-8 2q-55 -123 -155 -187.5t-234 -64.5
q-208 0 -338.5 139t-130.5 363q0 223 130 363.5t337 140.5zM567 836q-155 0 -246.5 -98.5t-91.5 -264.5q0 -167 91.5 -264.5t246.5 -97.5q159 0 260 101.5t101 260.5q0 160 -100.5 261.5t-260.5 101.5z" />
    <glyph glyph-name="Gcommaaccent" unicode="&#x122;" horiz-adv-x="1626" 
d="M842 1464q302 0 542 -190l-104 -135q-203 166 -444 166q-170 0 -304 -77t-207 -212t-73 -305q0 -255 164.5 -418.5t425.5 -163.5q111 0 204.5 32t155.5 84t106 118.5t64 133t21 130.5l-2 4q-38 -17 -140 -17h-407v150h717v-59q0 -109 -27 -213.5t-85 -199.5
t-141.5 -166.5t-204.5 -114t-265 -42.5q-217 0 -389 92t-270.5 262t-98.5 388q0 219 95.5 390.5t269 267t397.5 95.5zM932 -104l-144 -336h-86l72 336h158z" />
    <glyph glyph-name="gcommaaccent" unicode="&#x123;" horiz-adv-x="1198" 
d="M651 1133h-164l158 323h86zM541 977q137 0 237.5 -65.5t151.5 -188.5l6 2q-16 60 -16 221h147v-921q0 -230 -129 -347.5t-381 -117.5q-241 0 -416 110l74 133q168 -100 346 -100q170 0 266.5 81t96.5 226v45q0 108 16 166l-8 2q-55 -123 -155 -187.5t-234 -64.5
q-208 0 -338.5 139t-130.5 363q0 223 130 363.5t337 140.5zM567 836q-155 0 -246.5 -98.5t-91.5 -264.5q0 -167 91.5 -264.5t246.5 -97.5q159 0 260 101.5t101 260.5q0 160 -100.5 261.5t-260.5 101.5z" />
    <glyph glyph-name="Hcircumflex" unicode="&#x124;" horiz-adv-x="1439" 
d="M397 1522v8l238 237h168l235 -237v-8h-143l-80 75q-46 44 -65 68.5t-29 54.5h-6q-10 -30 -29 -54.5t-65 -68.5l-80 -75h-144zM1278 1434v-1434h-158v641q0 34 6 49l-4 4q-14 -6 -51 -6h-702q-40 0 -52 6l-4 -4q6 -15 6 -49v-641h-157v1434h157v-549q0 -34 -6 -49l4 -5
q14 7 52 7h702q35 0 51 -7l4 5q-6 15 -6 49v549h158z" />
    <glyph glyph-name="hcircumflex" unicode="&#x125;" horiz-adv-x="1128" 
d="M-100 1522v8l237 237h168l236 -237v-8h-144l-80 75q-46 44 -65 68.5t-29 54.5h-6q-10 -30 -29 -54.5t-65 -68.5l-80 -75h-143zM293 1464v-538q0 -133 -19 -230l9 -2q95 283 366 283q167 0 257.5 -99t90.5 -282v-596h-147v563q0 131 -63 202t-181 71q-148 0 -230.5 -105
t-82.5 -293v-438h-148v1464h148z" />
    <glyph glyph-name="Hbar" unicode="&#x126;" horiz-adv-x="1419" 
d="M152 0v1012q0 31 6 49l-4 2q-20 -4 -45 -4h-109v133h109q30 0 45 -6l4 4q-6 15 -6 47v197h155v-197q0 -37 -4 -47l2 -4q15 6 45 6h719q30 0 45 -6l2 4q-4 10 -4 47v197h156v-197q0 -32 -6 -47l4 -4q15 6 43 6h110v-133h-110q-23 0 -43 4l-4 -2q6 -18 6 -49v-1012h-156
v643q0 37 4 49l-2 2q-10 -4 -47 -4h-715q-37 0 -47 4l-2 -2q4 -12 4 -49v-643h-155zM305 831q17 7 47 7h715q29 0 47 -7l2 5q-4 10 -4 47v129q0 37 4 49l-2 2q-20 -4 -45 -4h-719q-25 0 -45 4l-2 -2q4 -12 4 -49v-129q0 -37 -4 -47z" />
    <glyph glyph-name="hbar" unicode="&#x127;" horiz-adv-x="1130" 
d="M651 977q160 0 254 -95t94 -286v-596h-147v555q0 144 -66 212.5t-178 68.5q-139 0 -226 -99.5t-87 -298.5v-438h-148v1124q0 32 11 54l-2 2q-18 -9 -56 -9h-94v97h94q40 0 56 -8l2 2q-11 22 -11 55v147h148v-147q0 -35 -10 -55l2 -2q16 8 57 8h277v-97h-277q-39 0 -57 9
l-2 -2q10 -20 10 -54v-198q0 -135 -19 -230l9 -2q93 283 366 283z" />
    <glyph glyph-name="Itilde" unicode="&#x128;" horiz-adv-x="481" 
d="M-23 1540l-71 23q58 184 200 184q57 0 174 -46t160 -46q65 0 105 82l69 -23q-12 -37 -26 -66t-37 -57.5t-57.5 -44.5t-77.5 -16q-57 0 -174 45t-160 45q-38 0 -61.5 -19.5t-43.5 -60.5zM319 1434v-1434h-157v1434h157z" />
    <glyph glyph-name="itilde" unicode="&#x129;" horiz-adv-x="440" 
d="M109 1421q47 0 94 -27t86.5 -54t66.5 -27q56 0 90 100l74 -24q-45 -193 -172 -193q-37 0 -75 17t-64.5 37.5t-56.5 37.5t-52 17q-53 0 -88 -101l-73 25q45 192 170 192zM293 946v-946h-148v946h148z" />
    <glyph glyph-name="Imacron" unicode="&#x12a;" horiz-adv-x="481" 
d="M-51 1677h581v-106h-581v106zM319 1434v-1434h-157v1434h157z" />
    <glyph glyph-name="imacron" unicode="&#x12b;" horiz-adv-x="440" 
d="M426 1364v-113h-414v113h414zM293 946v-946h-148v946h148z" />
    <glyph glyph-name="Ibreve" unicode="&#x12c;" horiz-adv-x="481" 
d="M522 1747q-3 -105 -79.5 -165t-200.5 -60q-123 0 -200.5 60.5t-80.5 164.5h113q6 -56 50 -87.5t118 -31.5q75 0 119.5 31.5t50.5 87.5h110zM319 1434v-1434h-157v1434h157z" />
    <glyph glyph-name="ibreve" unicode="&#x12d;" horiz-adv-x="440" 
d="M451 1440q0 -136 -57 -214.5t-175 -78.5t-174.5 78.5t-56.5 214.5h110q2 -96 26 -143.5t95 -47.5q70 0 94.5 48t26.5 143h111zM293 946v-946h-148v946h148z" />
    <glyph glyph-name="Iogonek" unicode="&#x12e;" horiz-adv-x="481" 
d="M250 0q-91 -70 -134.5 -122t-43.5 -95q0 -66 90 -66q45 0 92 13l20 -92q-77 -25 -133 -25q-77 0 -128.5 37.5t-51.5 105.5q0 66 50 129t151 138v1411h157v-1434h-69z" />
    <glyph glyph-name="iogonek" unicode="&#x12f;" horiz-adv-x="440" 
d="M135 1434h168v-269h-168v269zM145 39v907h148v-946h-82q-91 -70 -134.5 -122t-43.5 -95q0 -66 90 -66q45 0 92 13l21 -92q-77 -25 -134 -25q-77 0 -128.5 37.5t-51.5 105.5q0 70 55 136.5t168 146.5z" />
    <glyph glyph-name="Idotaccent" unicode="&#x130;" horiz-adv-x="481" 
d="M319 1747v-225h-155v225h155zM319 1434v-1434h-157v1434h157z" />
    <glyph glyph-name="dotlessi" unicode="&#x131;" horiz-adv-x="440" 
d="M293 946v-946h-148v946h148z" />
    <glyph glyph-name="IJ" unicode="&#x132;" horiz-adv-x="1067" 
d="M319 1434v-1434h-157v1434h157zM905 1434v-1115q0 -170 -69.5 -249.5t-217.5 -79.5q-34 0 -86 6v149q31 -2 72 -2q73 0 108.5 39t35.5 131v1121h157z" />
    <glyph glyph-name="ij" unicode="&#x133;" horiz-adv-x="880" 
d="M303 1434v-269h-168v269h168zM743 1434v-269h-168v269h168zM293 946v-946h-148v946h148zM733 946v-1042q0 -344 -323 -344h-17v145h19q174 0 174 199v1042h147z" />
    <glyph glyph-name="Jcircumflex" unicode="&#x134;" horiz-adv-x="585" 
d="M23 1522v8l237 237h168l236 -237v-8h-144l-80 75q-46 44 -65 68.5t-29 54.5h-6q-10 -30 -29 -54.5t-65 -68.5l-80 -75h-143zM424 1434v-1115q0 -170 -69.5 -249.5t-217.5 -79.5q-33 0 -86 6v149q31 -2 72 -2q73 0 108 39t35 131v1121h158z" />
    <glyph glyph-name="jcircumflex" unicode="&#x135;" horiz-adv-x="440" 
d="M291 1448l166 -311v-4h-119l-70 135q-38 74 -47 121h-4q-7 -46 -45 -121l-70 -135h-118v4l166 311h141zM293 946v-1042q0 -344 -324 -344h-16v145h18q174 0 174 199v1042h148z" />
    <glyph glyph-name="Kcommaaccent" unicode="&#x136;" horiz-adv-x="1220" 
d="M1137 1434l-516 -547q-90 -93 -134 -121v-6q11 -7 21 -14t17 -13t19 -17.5t18.5 -18t24 -25.5t27.5 -29l596 -643h-219l-680 741l-6 -2q14 -85 14 -241v-498h-157v1434h157v-410q0 -157 -14 -242l6 -2l611 654h215zM727 -104l-143 -336h-86l71 336h158z" />
    <glyph glyph-name="kcommaaccent" unicode="&#x137;" horiz-adv-x="960" 
d="M293 1464v-725q0 -134 -17 -209l7 -2l405 418h205l-363 -350q-65 -65 -100 -80l2 -6q39 -20 100 -78l420 -432h-202l-467 489l-7 -4q17 -72 17 -206v-279h-148v1464h148zM569 -104l-143 -336h-86l72 336h157z" />
    <glyph glyph-name="kgreenlandic" unicode="&#x138;" horiz-adv-x="958" 
d="M145 0v946h148v-207q0 -131 -17 -209l7 -2l391 418h198l-344 -350q-65 -65 -92 -80l2 -6q32 -16 92 -76l418 -434h-205l-460 489l-7 -4q17 -72 17 -206v-279h-148z" />
    <glyph glyph-name="Lacute" unicode="&#x139;" horiz-adv-x="1005" 
d="M545 1747l2 -6l-252 -219h-107l-2 4l183 221h176zM319 1434v-1235q0 -34 -6 -52l4 -2q21 7 52 7h612v-152h-819v1434h157z" />
    <glyph glyph-name="lacute" unicode="&#x13a;" horiz-adv-x="440" 
d="M522 1747l2 -6l-252 -219h-106l-2 4l182 221h176zM293 1464v-1464h-148v1464h148z" />
    <glyph glyph-name="Lcommaaccent" unicode="&#x13b;" horiz-adv-x="1005" 
d="M319 1434v-1235q0 -34 -6 -52l4 -2q21 7 52 7h612v-152h-819v1434h157zM653 -104l-143 -336h-86l72 336h157z" />
    <glyph glyph-name="lcommaaccent" unicode="&#x13c;" horiz-adv-x="440" 
d="M293 1464v-1464h-148v1464h148zM299 -104l-143 -336h-86l71 336h158z" />
    <glyph glyph-name="Lcaron" unicode="&#x13d;" horiz-adv-x="1005" 
d="M655 1495h160l-137 -479h-84zM319 1434v-1235q0 -34 -6 -52l4 -2q21 7 52 7h612v-152h-819v1434h157z" />
    <glyph glyph-name="lcaron" unicode="&#x13e;" horiz-adv-x="628" 
d="M471 1495h160l-137 -397h-84zM293 1464v-1464h-148v1464h148z" />
    <glyph glyph-name="Ldot" unicode="&#x13f;" horiz-adv-x="1005" 
d="M319 1434v-1235q0 -34 -6 -52l4 -2q21 7 52 7h612v-152h-819v1434h157zM653 739v215h205v-215h-205z" />
    <glyph glyph-name="ldot" unicode="&#x140;" horiz-adv-x="610" 
d="M293 1464v-1464h-148v1464h148zM391 731v215h205v-215h-205z" />
    <glyph glyph-name="Lslash" unicode="&#x141;" horiz-adv-x="1001" 
d="M160 0v528q0 70 12 95l-4 2q-30 -34 -80 -58l-100 -51v115l172 88v715h157v-557q0 -58 -18 -95l4 -2q22 25 84 58l305 155v-114l-375 -193v-487q0 -34 -6 -52l4 -2q17 7 52 7h610v-152h-817z" />
    <glyph glyph-name="lslash" unicode="&#x142;" horiz-adv-x="516" 
d="M178 0v627q0 54 19 90l-4 2q-17 -22 -62 -45l-115 -62v115l162 86v651h148v-489q0 -67 -19 -109l2 -2q16 19 27.5 27.5t38.5 23.5l125 66v-115l-174 -92v-774h-148z" />
    <glyph glyph-name="Nacute" unicode="&#x143;" horiz-adv-x="1474" 
d="M1061 1747l2 -6l-252 -219h-106l-3 4l183 221h176zM178 1454l875 -977q86 -97 112 -162l6 2q-16 84 -16 258v859h158v-1454h-19l-872 976q-88 99 -113 162l-8 -2q18 -94 18 -256v-860h-157v1454h16z" />
    <glyph glyph-name="nacute" unicode="&#x144;" horiz-adv-x="1124" 
d="M895 1448l2 -6l-260 -309h-107l-2 8l191 307h176zM643 977q169 0 259.5 -99t90.5 -282v-596h-147v563q0 131 -63 202t-181 71q-148 0 -230.5 -105t-82.5 -293v-438h-148v946h148q0 -175 -21 -264l8 -2q91 297 367 297z" />
    <glyph glyph-name="Ncommaaccent" unicode="&#x145;" horiz-adv-x="1474" 
d="M178 1454l875 -977q86 -97 112 -162l6 2q-16 84 -16 258v859h158v-1454h-19l-872 976q-88 99 -113 162l-8 -2q18 -94 18 -256v-860h-157v1454h16zM844 -104l-144 -336h-86l72 336h158z" />
    <glyph glyph-name="ncommaaccent" unicode="&#x146;" horiz-adv-x="1124" 
d="M643 977q169 0 259.5 -99t90.5 -282v-596h-147v563q0 131 -63 202t-181 71q-148 0 -230.5 -105t-82.5 -293v-438h-148v946h148q0 -175 -21 -264l8 -2q91 297 367 297zM659 -104l-143 -336h-86l72 336h157z" />
    <glyph glyph-name="Ncaron" unicode="&#x147;" horiz-adv-x="1474" 
d="M1077 1767v-8l-235 -237h-168l-238 237v8h144l79 -75q47 -45 66 -69t29 -54h6q10 29 28.5 52.5t65.5 70.5l80 75h143zM178 1454l875 -977q86 -97 112 -162l6 2q-16 84 -16 258v859h158v-1454h-19l-872 976q-88 99 -113 162l-8 -2q18 -94 18 -256v-860h-157v1454h16z" />
    <glyph glyph-name="ncaron" unicode="&#x148;" horiz-adv-x="1124" 
d="M500 1133l-240 311v4h141l105 -135q29 -39 38 -51.5t18.5 -31t15.5 -38.5h6q2 6 3.5 12t3 10.5t5 10.5t5 9.5t6 11t6.5 10.5t9 12t9.5 12.5t11 15.5t12.5 17l103 135h141v-4l-240 -311h-159zM643 977q169 0 259.5 -99t90.5 -282v-596h-147v563q0 131 -63 202t-181 71
q-148 0 -230.5 -105t-82.5 -293v-438h-148v946h148q0 -175 -21 -264l8 -2q91 297 367 297z" />
    <glyph glyph-name="napostrophe" unicode="&#x149;" horiz-adv-x="1124" 
d="M55 1495h160l-137 -479h-84zM643 977q169 0 259.5 -99t90.5 -282v-596h-147v563q0 131 -63 202t-181 71q-148 0 -230.5 -105t-82.5 -293v-438h-148v946h148q0 -175 -21 -264l8 -2q91 297 367 297z" />
    <glyph glyph-name="Eng" unicode="&#x14a;" horiz-adv-x="1474" 
d="M1313 1434v-1454h-2v-62q0 -328 -322 -328h-108v152h110q79 0 120.5 41t41.5 135v221l-731 817q-88 99 -113 162l-8 -2q18 -94 18 -256v-860h-157v1454h16l875 -977q86 -97 112 -162l6 2q-16 84 -16 258v859h158z" />
    <glyph glyph-name="eng" unicode="&#x14b;" horiz-adv-x="1124" 
d="M993 -94q0 -155 -76.5 -235.5t-214.5 -80.5h-108v144h108q71 0 107.5 44.5t36.5 127.5v94v563q0 131 -63 202t-181 71q-148 0 -230.5 -105t-82.5 -293v-438h-148v946h148q0 -175 -21 -264l8 -2q91 297 367 297q169 0 259.5 -99t90.5 -282v-690z" />
    <glyph glyph-name="Omacron" unicode="&#x14c;" horiz-adv-x="1654" 
d="M537 1677h581v-106h-581v106zM827 1464q214 0 385 -95.5t267 -266.5t96 -385t-96 -385t-267 -267t-385 -96t-385 96t-266.5 267t-95.5 385q0 160 56 299t154.5 237.5t237.5 154.5t299 56zM827 1305q-124 0 -231 -44t-182.5 -121.5t-118.5 -186.5t-43 -236t43 -236
t118.5 -186.5t182.5 -121.5t231 -44q253 0 415.5 165.5t162.5 422.5t-162.5 422.5t-415.5 165.5z" />
    <glyph glyph-name="omacron" unicode="&#x14d;" horiz-adv-x="1173" 
d="M877 1364v-113h-578v113h578zM586 977q224 0 368 -142t144 -362q0 -219 -144 -361.5t-368 -142.5q-223 0 -367.5 143t-144.5 361q0 220 144.5 362t367.5 142zM586 831q-157 0 -257 -99.5t-100 -258.5q0 -158 100 -258t257 -100t256.5 100t99.5 258q0 159 -99.5 258.5
t-256.5 99.5z" />
    <glyph glyph-name="Obreve" unicode="&#x14e;" horiz-adv-x="1654" 
d="M1108 1747q-3 -105 -80 -165t-201 -60q-123 0 -200 60.5t-80 164.5h112q6 -56 50 -87.5t118 -31.5q75 0 119.5 31.5t50.5 87.5h111zM827 1464q214 0 385 -95.5t267 -266.5t96 -385t-96 -385t-267 -267t-385 -96t-385 96t-266.5 267t-95.5 385q0 160 56 299t154.5 237.5
t237.5 154.5t299 56zM827 1305q-124 0 -231 -44t-182.5 -121.5t-118.5 -186.5t-43 -236t43 -236t118.5 -186.5t182.5 -121.5t231 -44q253 0 415.5 165.5t162.5 422.5t-162.5 422.5t-415.5 165.5z" />
    <glyph glyph-name="obreve" unicode="&#x14f;" horiz-adv-x="1173" 
d="M866 1440q0 -137 -77 -215t-203 -78q-124 0 -202.5 78.5t-78.5 214.5h111q3 -92 47.5 -139.5t122.5 -47.5t123.5 47.5t48.5 139.5h108zM586 977q224 0 368 -142t144 -362q0 -219 -144 -361.5t-368 -142.5q-223 0 -367.5 143t-144.5 361q0 220 144.5 362t367.5 142z
M586 831q-157 0 -257 -99.5t-100 -258.5q0 -158 100 -258t257 -100t256.5 100t99.5 258q0 159 -99.5 258.5t-256.5 99.5z" />
    <glyph glyph-name="Ohungarumlaut" unicode="&#x150;" horiz-adv-x="1654" 
d="M991 1747l2 -6l-205 -219h-108v4l192 221h119zM891 1526l192 221h119l2 -6l-203 -219h-108zM827 1464q214 0 385 -95.5t267 -266.5t96 -385t-96 -385t-267 -267t-385 -96t-385 96t-266.5 267t-95.5 385q0 160 56 299t154.5 237.5t237.5 154.5t299 56zM827 1305
q-124 0 -231 -44t-182.5 -121.5t-118.5 -186.5t-43 -236t43 -236t118.5 -186.5t182.5 -121.5t231 -44q253 0 415.5 165.5t162.5 422.5t-162.5 422.5t-415.5 165.5z" />
    <glyph glyph-name="ohungarumlaut" unicode="&#x151;" horiz-adv-x="1173" 
d="M389 1133l-2 4l227 311h125l2 -4l-237 -311h-115zM649 1133l-2 4l225 311h127l2 -4l-239 -311h-113zM586 977q224 0 368 -142t144 -362q0 -219 -144 -361.5t-368 -142.5q-223 0 -367.5 143t-144.5 361q0 220 144.5 362t367.5 142zM586 831q-157 0 -257 -99.5t-100 -258.5
q0 -158 100 -258t257 -100t256.5 100t99.5 258q0 159 -99.5 258.5t-256.5 99.5z" />
    <glyph glyph-name="OE" unicode="&#x152;" horiz-adv-x="2310" 
d="M815 -31q-155 0 -291 55.5t-233.5 153t-154 237.5t-56.5 302t56.5 302t154 237t233.5 152.5t291 55.5q400 0 594 -307l4 2q-6 33 -6 101v174h799v-150h-592q-32 0 -53 6l-2 -2q6 -18 6 -51v-330q0 -33 -6 -51l2 -2q21 6 53 6h524v-149h-524q-32 0 -53 6l-2 -2
q6 -18 6 -51v-467q0 -34 -6 -52l2 -2q25 7 53 7h600v-150h-807v164q0 76 6 115l-4 2q-197 -312 -594 -312zM827 131q166 0 299 76.5t207 210.5t74 299q0 255 -163.5 420.5t-416.5 165.5q-252 0 -413.5 -165.5t-161.5 -420.5t161.5 -420.5t413.5 -165.5z" />
    <glyph glyph-name="oe" unicode="&#x153;" horiz-adv-x="1945" 
d="M584 -31q-223 0 -366.5 141t-143.5 363t142.5 363t367.5 141q306 0 420 -266h8q48 130 148.5 198t250.5 68q113 0 202 -38.5t144.5 -107t84 -158t28.5 -194.5v-30h-680q-74 0 -103 10l-4 -2l7 -19q9 -156 102 -242.5t246 -86.5q57 0 105 13t86 38.5t64.5 51t59.5 64.5
l94 -96q-72 -96 -170.5 -153.5t-244.5 -57.5q-157 0 -264.5 70t-157.5 201h-9q-54 -133 -160 -202t-257 -69zM1092 549q32 14 98 14h403q91 0 119 -14l4 4q-15 141 -96 216t-213 75q-79 0 -144 -28t-113.5 -96t-59.5 -169zM580 115q150 0 250 99t100 259t-100 259t-250 99
q-149 0 -250 -99t-101 -259t101 -259t250 -99z" />
    <glyph glyph-name="Racute" unicode="&#x154;" horiz-adv-x="1202" 
d="M850 1747l2 -6l-252 -219h-106l-2 4l182 221h176zM625 1434q194 0 306.5 -102.5t112.5 -280.5q0 -110 -52.5 -196t-136.5 -130.5t-181 -44.5q-34 0 -72 10v-8q54 -20 115 -94l461 -588h-205l-522 672h-82q-42 0 -52 6l-4 -4q6 -18 6 -51v-623h-157v1434h463zM317 1290
l-4 -2q6 -18 6 -51v-367q0 -36 -6 -51l4 -4q16 8 52 8h258q118 0 184 60.5t66 169.5q0 106 -65.5 168.5t-184.5 62.5h-258q-34 0 -52 6z" />
    <glyph glyph-name="racute" unicode="&#x155;" horiz-adv-x="688" 
d="M696 1448l2 -6l-260 -309h-106l-2 8l190 307h176zM602 975q32 0 55 -2v-170q-50 6 -73 6q-142 0 -218.5 -108.5t-76.5 -309.5v-391h-148v946h148q0 -157 -23 -291l10 -4q67 324 326 324z" />
    <glyph glyph-name="Rcommaaccent" unicode="&#x156;" horiz-adv-x="1202" 
d="M625 1434q194 0 306.5 -102.5t112.5 -280.5q0 -110 -52.5 -196t-136.5 -130.5t-181 -44.5q-34 0 -72 10v-8q54 -20 115 -94l461 -588h-205l-522 672h-82q-42 0 -52 6l-4 -4q6 -18 6 -51v-623h-157v1434h463zM317 1290l-4 -2q6 -18 6 -51v-367q0 -36 -6 -51l4 -4
q16 8 52 8h258q118 0 184 60.5t66 169.5q0 106 -65.5 168.5t-184.5 62.5h-258q-34 0 -52 6zM731 -104l-143 -336h-86l71 336h158z" />
    <glyph glyph-name="rcommaaccent" unicode="&#x157;" horiz-adv-x="688" 
d="M602 975q32 0 55 -2v-170q-50 6 -73 6q-142 0 -218.5 -108.5t-76.5 -309.5v-391h-148v946h148q0 -157 -23 -291l10 -4q67 324 326 324zM295 -104l-143 -336h-86l71 336h158z" />
    <glyph glyph-name="Rcaron" unicode="&#x158;" horiz-adv-x="1202" 
d="M866 1767v-8l-235 -237h-168l-238 237v8h144l80 -75q46 -44 65 -68.5t29 -54.5h6q10 29 28.5 52.5t65.5 70.5l80 75h143zM625 1434q194 0 306.5 -102.5t112.5 -280.5q0 -110 -52.5 -196t-136.5 -130.5t-181 -44.5q-34 0 -72 10v-8q54 -20 115 -94l461 -588h-205l-522 672
h-82q-42 0 -52 6l-4 -4q6 -18 6 -51v-623h-157v1434h463zM317 1290l-4 -2q6 -18 6 -51v-367q0 -36 -6 -51l4 -4q16 8 52 8h258q118 0 184 60.5t66 169.5q0 106 -65.5 168.5t-184.5 62.5h-258q-34 0 -52 6z" />
    <glyph glyph-name="rcaron" unicode="&#x159;" horiz-adv-x="688" 
d="M301 1133l-240 311v4h142l104 -135q29 -39 38 -51.5t18.5 -31t15.5 -38.5h6q2 9 4.5 16t7 15.5t6.5 13.5t10 16.5t11.5 15.5t15.5 20.5t17 23.5l102 135h141v-4l-239 -311h-160zM602 975q32 0 55 -2v-170q-50 6 -73 6q-142 0 -218.5 -108.5t-76.5 -309.5v-391h-148v946
h148q0 -157 -23 -291l10 -4q67 324 326 324z" />
    <glyph glyph-name="Sacute" unicode="&#x15a;" horiz-adv-x="1007" 
d="M838 1747l2 -6l-252 -219h-107l-2 4l183 221h176zM524 1464q177 0 365 -90l-74 -151q-152 82 -293 82q-104 0 -159.5 -43t-55.5 -121q0 -61 34.5 -111t117.5 -110l235 -175q129 -94 185.5 -183.5t56.5 -207.5q0 -182 -120 -283.5t-324 -101.5q-123 0 -241.5 35.5
t-211.5 95.5l76 148q191 -119 377 -119q131 0 203.5 59t72.5 156q0 71 -42.5 132t-141.5 134l-234 178q-110 82 -161.5 163t-51.5 184q0 154 102.5 241.5t284.5 87.5z" />
    <glyph glyph-name="sacute" unicode="&#x15b;" horiz-adv-x="847" 
d="M756 1448l2 -6l-260 -309h-107l-2 8l191 307h176zM438 -31q-217 0 -393 111l70 131q159 -102 327 -102q92 0 140.5 32.5t48.5 94.5q0 43 -29.5 76t-97.5 65l-176 82q-107 51 -157 115t-50 151q0 119 85.5 185.5t237.5 66.5q158 0 322 -74l-64 -131q-141 66 -260 66
q-80 0 -123 -27.5t-43 -81.5q0 -44 31.5 -77.5t104.5 -67.5l174 -80q107 -51 154.5 -113t47.5 -151q0 -128 -92.5 -199.5t-257.5 -71.5z" />
    <glyph glyph-name="Scircumflex" unicode="&#x15c;" horiz-adv-x="1007" 
d="M213 1522v8l238 237h167l236 -237v-8h-143l-80 75q-46 44 -65 68.5t-29 54.5h-7q-10 -30 -29 -54.5t-65 -68.5l-80 -75h-143zM524 1464q177 0 365 -90l-74 -151q-152 82 -293 82q-104 0 -159.5 -43t-55.5 -121q0 -61 34.5 -111t117.5 -110l235 -175q129 -94 185.5 -183.5
t56.5 -207.5q0 -182 -120 -283.5t-324 -101.5q-123 0 -241.5 35.5t-211.5 95.5l76 148q191 -119 377 -119q131 0 203.5 59t72.5 156q0 71 -42.5 132t-141.5 134l-234 178q-110 82 -161.5 163t-51.5 184q0 154 102.5 241.5t284.5 87.5z" />
    <glyph glyph-name="scircumflex" unicode="&#x15d;" horiz-adv-x="847" 
d="M520 1448l225 -311v-4h-135l-96 135q-41 60 -53 81t-19 48h-4q-7 -28 -19.5 -49.5t-51.5 -79.5l-97 -135h-135v4l225 311h160zM438 -31q-217 0 -393 111l70 131q159 -102 327 -102q92 0 140.5 32.5t48.5 94.5q0 43 -29.5 76t-97.5 65l-176 82q-107 51 -157 115t-50 151
q0 119 85.5 185.5t237.5 66.5q158 0 322 -74l-64 -131q-141 66 -260 66q-80 0 -123 -27.5t-43 -81.5q0 -44 31.5 -77.5t104.5 -67.5l174 -80q107 -51 154.5 -113t47.5 -151q0 -128 -92.5 -199.5t-257.5 -71.5z" />
    <glyph glyph-name="Scedilla" unicode="&#x15e;" horiz-adv-x="1007" 
d="M936 354q0 -173 -109 -273.5t-297 -109.5l-18 -51q176 -42 176 -145q0 -31 -17 -61t-39 -51t-63.5 -46t-68.5 -38t-76 -36l-27 56q32 18 46 26t37.5 22.5t34.5 23.5t23.5 21.5t17.5 23.5t5 22q0 33 -36.5 53.5t-112.5 36.5l51 141q-116 4 -227 39.5t-197 91.5l76 148
q191 -119 377 -119q131 0 203.5 59t72.5 156q0 71 -42.5 132t-141.5 134l-234 178q-110 82 -161.5 163t-51.5 184q0 154 102.5 241.5t284.5 87.5q177 0 365 -90l-74 -151q-152 82 -293 82q-104 0 -159.5 -43t-55.5 -121q0 -61 34.5 -111t117.5 -110l235 -175
q129 -94 185.5 -183.5t56.5 -207.5z" />
    <glyph glyph-name="scedilla" unicode="&#x15f;" horiz-adv-x="847" 
d="M788 240q0 -122 -85 -193.5t-238 -77.5l-19 -49q177 -42 177 -145q0 -23 -9 -44.5t-21.5 -39t-36 -36t-42 -31t-51 -30t-51.5 -26.5t-54 -25l-26 56q32 18 46 26t37.5 22.5t34.5 23.5t23.5 21.5t17.5 23.5t5 22q0 33 -37 53.5t-113 36.5l51 143q-197 9 -352 109l70 131
q159 -102 327 -102q92 0 140.5 32.5t48.5 94.5q0 43 -29.5 76t-97.5 65l-176 82q-107 51 -157 115t-50 151q0 119 85.5 185.5t237.5 66.5q158 0 322 -74l-64 -131q-141 66 -260 66q-80 0 -123 -27.5t-43 -81.5q0 -44 31.5 -77.5t104.5 -67.5l174 -80q107 -51 154.5 -113
t47.5 -151z" />
    <glyph glyph-name="Scaron" unicode="&#x160;" horiz-adv-x="1007" 
d="M854 1767v-8l-236 -237h-167l-238 237v8h143l80 -75q46 -44 65 -68.5t29 -54.5h7q10 29 28.5 52.5t65.5 70.5l80 75h143zM524 1464q177 0 365 -90l-74 -151q-152 82 -293 82q-104 0 -159.5 -43t-55.5 -121q0 -61 34.5 -111t117.5 -110l235 -175q129 -94 185.5 -183.5
t56.5 -207.5q0 -182 -120 -283.5t-324 -101.5q-123 0 -241.5 35.5t-211.5 95.5l76 148q191 -119 377 -119q131 0 203.5 59t72.5 156q0 71 -42.5 132t-141.5 134l-234 178q-110 82 -161.5 163t-51.5 184q0 154 102.5 241.5t284.5 87.5z" />
    <glyph glyph-name="scaron" unicode="&#x161;" horiz-adv-x="847" 
d="M360 1133l-239 311v4h141l105 -135q37 -50 50 -71t21 -50h6q2 9 4.5 16t7 15.5t6.5 13.5t10 16.5t11.5 15.5t15.5 20.5t17 23.5l102 135h142v-4l-240 -311h-160zM438 -31q-217 0 -393 111l70 131q159 -102 327 -102q92 0 140.5 32.5t48.5 94.5q0 43 -29.5 76t-97.5 65
l-176 82q-107 51 -157 115t-50 151q0 119 85.5 185.5t237.5 66.5q158 0 322 -74l-64 -131q-141 66 -260 66q-80 0 -123 -27.5t-43 -81.5q0 -44 31.5 -77.5t104.5 -67.5l174 -80q107 -51 154.5 -113t47.5 -151q0 -128 -92.5 -199.5t-257.5 -71.5z" />
    <glyph glyph-name="uni0162" unicode="&#x162;" horiz-adv-x="1054" 
d="M655 1282q-33 0 -51 6l-4 -2q6 -18 6 -51v-1235h-43l-31 -80q177 -42 177 -145q0 -23 -9 -44.5t-21.5 -39t-36 -36t-42 -31t-51 -30t-51.5 -26.5t-54 -25l-26 56q32 18 46 26t37.5 22.5t34.5 23.5t23.5 21.5t17.5 23.5t5 22q0 33 -37 53.5t-113 36.5l62 172h-45v1235
q0 33 6 51l-4 2q-18 -6 -52 -6h-379v152h1014v-152h-379z" />
    <glyph glyph-name="uni0163" unicode="&#x163;" horiz-adv-x="630" 
d="M453 807q-53 0 -72 12l-4 -2q8 -27 8 -86v-731h-37l-31 -80q177 -42 177 -145q0 -23 -9 -44.5t-21.5 -39t-36 -36t-42 -31t-51 -30t-51.5 -26.5t-54 -25l-26 56q32 18 46 26t37.5 22.5t34.5 23.5t23.5 21.5t17.5 23.5t5 22q0 33 -37 53.5t-113 36.5l62 172h-41v731
q0 52 10 86l-4 2q-19 -12 -74 -12h-115v139h115q55 0 74 -12l4 2q-10 36 -10 86v321l139 109h8v-430q0 -57 -8 -86l4 -2q19 12 72 12h122v-139h-122z" />
    <glyph glyph-name="Tcaron" unicode="&#x164;" horiz-adv-x="1054" 
d="M848 1767v-8l-236 -237h-168l-237 237v8h143l80 -75q46 -44 65 -68.5t29 -54.5h6q10 29 28.5 52t66.5 71l80 75h143zM1034 1434v-152h-379q-33 0 -51 6l-4 -2q6 -18 6 -51v-1235h-157v1235q0 33 6 51l-4 2q-18 -6 -52 -6h-379v152h1014z" />
    <glyph glyph-name="tcaron" unicode="&#x165;" horiz-adv-x="784" 
d="M606 1495h160l-137 -397h-84zM385 1452v-430q0 -57 -8 -86l4 -2q19 12 72 12h122v-139h-122q-53 0 -72 12l-4 -2q8 -27 8 -86v-731h-147v731q0 52 10 86l-4 2q-19 -12 -74 -12h-115v139h115q55 0 74 -12l4 2q-10 36 -10 86v321l139 109h8z" />
    <glyph glyph-name="Tbar" unicode="&#x166;" horiz-adv-x="1054" 
d="M653 1284q-30 0 -51 6l-4 -2q6 -18 6 -51v-246q0 -37 -4 -47l4 -4q12 6 45 6h248v-135h-248q-29 0 -45 4l-4 -2q4 -10 4 -49v-764h-153v764q0 39 4 49l-4 2q-16 -4 -45 -4h-246v135h246q33 0 45 -6l4 4q-4 10 -4 47v246q0 33 6 51l-4 2q-21 -6 -52 -6h-381v150h1014v-150
h-381z" />
    <glyph glyph-name="tbar" unicode="&#x167;" horiz-adv-x="630" 
d="M238 0v489q0 34 6 52l-4 2q-15 -6 -45 -6h-125v96h125q35 0 45 -4l4 2q-6 18 -6 55v68q0 34 10 63l-4 2q-19 -12 -74 -12h-115v139h115q55 0 74 -12l4 2q-10 36 -10 86v321l139 109h8v-430q0 -57 -8 -86l4 -2q19 12 72 12h122v-139h-122q-53 0 -72 12l-4 -2q8 -33 8 -63
v-68q0 -43 -4 -55l2 -2q12 4 49 4h135v-96h-135q-34 0 -49 6l-2 -2q4 -12 4 -52v-489h-147z" />
    <glyph glyph-name="Utilde" unicode="&#x168;" horiz-adv-x="1392" 
d="M432 1540l-72 23q58 184 201 184q57 0 174 -46t160 -46q36 0 60 20.5t44 61.5l70 -23q-58 -184 -199 -184q-57 0 -173.5 45t-159.5 45q-38 0 -61.5 -19.5t-43.5 -60.5zM1247 1434v-904q0 -259 -148.5 -409t-402.5 -150q-253 0 -402 150t-149 409v904h164v-893
q0 -192 103.5 -301t283.5 -109t283.5 109t103.5 301v893h164z" />
    <glyph glyph-name="utilde" unicode="&#x169;" horiz-adv-x="1075" 
d="M391 1421q51 0 114 -27t119 -54t89 -27q67 0 108 100l74 -24q-54 -193 -197 -193q-39 0 -87.5 17t-85.5 37.5t-78 37.5t-68 17q-68 0 -109 -101l-73 25q50 192 194 192zM944 946v-946h-147q0 158 22 248l-8 4q-88 -283 -350 -283q-161 0 -250.5 105t-89.5 295v577h151
v-555q0 -135 63 -207.5t177 -72.5q134 0 209.5 105t75.5 292v438h147z" />
    <glyph glyph-name="Umacron" unicode="&#x16a;" horiz-adv-x="1392" 
d="M406 1677h581v-106h-581v106zM1247 1434v-904q0 -259 -148.5 -409t-402.5 -150q-253 0 -402 150t-149 409v904h164v-893q0 -192 103.5 -301t283.5 -109t283.5 109t103.5 301v893h164z" />
    <glyph glyph-name="umacron" unicode="&#x16b;" horiz-adv-x="1075" 
d="M825 1364v-113h-577v113h577zM944 946v-946h-147q0 158 22 248l-8 4q-88 -283 -350 -283q-161 0 -250.5 105t-89.5 295v577h151v-555q0 -135 63 -207.5t177 -72.5q134 0 209.5 105t75.5 292v438h147z" />
    <glyph glyph-name="Ubreve" unicode="&#x16c;" horiz-adv-x="1392" 
d="M977 1747q-3 -105 -80 -165t-201 -60q-123 0 -200 60.5t-80 164.5h112q6 -56 50 -87.5t118 -31.5q75 0 119.5 31.5t50.5 87.5h111zM1247 1434v-904q0 -259 -148.5 -409t-402.5 -150q-253 0 -402 150t-149 409v904h164v-893q0 -192 103.5 -301t283.5 -109t283.5 109
t103.5 301v893h164z" />
    <glyph glyph-name="ubreve" unicode="&#x16d;" horiz-adv-x="1075" 
d="M815 1440q0 -137 -77 -215t-203 -78q-125 0 -203 78.5t-78 214.5h111q3 -92 47.5 -139.5t122.5 -47.5t123.5 47.5t48.5 139.5h108zM944 946v-946h-147q0 158 22 248l-8 4q-88 -283 -350 -283q-161 0 -250.5 105t-89.5 295v577h151v-555q0 -135 63 -207.5t177 -72.5
q134 0 209.5 105t75.5 292v438h147z" />
    <glyph glyph-name="Uring" unicode="&#x16e;" horiz-adv-x="1392" 
d="M696 1399q-98 0 -162.5 63t-64.5 158q0 97 64.5 160t162.5 63t163 -63t65 -160q0 -95 -65 -158t-163 -63zM696 1481q62 0 101 39t39 100q0 63 -39 102t-101 39t-101.5 -39t-39.5 -102q0 -61 39.5 -100t101.5 -39zM1247 1434v-904q0 -259 -148.5 -409t-402.5 -150
q-253 0 -402 150t-149 409v904h164v-893q0 -192 103.5 -301t283.5 -109t283.5 109t103.5 301v893h164z" />
    <glyph glyph-name="uring" unicode="&#x16f;" horiz-adv-x="1075" 
d="M535 1530q106 0 174.5 -68t68.5 -172t-68.5 -171.5t-174.5 -67.5t-175 67.5t-69 171.5t69 172t175 68zM535 1450q-72 0 -116 -44.5t-44 -115.5t44 -115.5t116 -44.5t115.5 44.5t43.5 115.5t-43.5 115.5t-115.5 44.5zM944 946v-946h-147q0 158 22 248l-8 4
q-88 -283 -350 -283q-161 0 -250.5 105t-89.5 295v577h151v-555q0 -135 63 -207.5t177 -72.5q134 0 209.5 105t75.5 292v438h147z" />
    <glyph glyph-name="Uhungarumlaut" unicode="&#x170;" horiz-adv-x="1392" 
d="M860 1747l2 -6l-205 -219h-108v4l192 221h119zM760 1526l192 221h119l2 -6l-203 -219h-108zM1247 1434v-904q0 -259 -148.5 -409t-402.5 -150q-253 0 -402 150t-149 409v904h164v-893q0 -192 103.5 -301t283.5 -109t283.5 109t103.5 301v893h164z" />
    <glyph glyph-name="uhungarumlaut" unicode="&#x171;" horiz-adv-x="1075" 
d="M338 1133l-2 4l227 311h125l2 -4l-237 -311h-115zM598 1133l-2 4l225 311h127l2 -4l-239 -311h-113zM944 946v-946h-147q0 158 22 248l-8 4q-88 -283 -350 -283q-161 0 -250.5 105t-89.5 295v577h151v-555q0 -135 63 -207.5t177 -72.5q134 0 209.5 105t75.5 292v438h147z
" />
    <glyph glyph-name="Uogonek" unicode="&#x172;" horiz-adv-x="1392" 
d="M1083 1434h164v-904q0 -187 -79.5 -319.5t-223.5 -194.5q-103 -77 -152 -132t-49 -101q0 -34 25 -50t66 -16q45 0 92 13l20 -92q-77 -25 -133 -25q-77 0 -128.5 37.5t-51.5 105.5q0 102 137 217q-23 -2 -74 -2q-253 0 -402 150t-149 409v904h164v-893q0 -192 103.5 -301
t283.5 -109t283.5 109t103.5 301v893z" />
    <glyph glyph-name="uogonek" unicode="&#x173;" horiz-adv-x="1075" 
d="M866 0q-91 -70 -134.5 -122t-43.5 -95q0 -66 90 -66q45 0 92 13l21 -92q-77 -25 -133 -25q-77 0 -128.5 37.5t-51.5 105.5q0 69 54.5 135.5t166.5 145.5q0 126 20 211l-8 4q-88 -283 -350 -283q-161 0 -250.5 105t-89.5 295v577h151v-555q0 -135 63 -207.5t177 -72.5
q134 0 209.5 105t75.5 292v438h147v-946h-78z" />
    <glyph glyph-name="Wcircumflex" unicode="&#x174;" horiz-adv-x="1939" 
d="M647 1522v8l238 237h168l235 -237v-8h-143l-80 75q-46 44 -65 68.5t-29 54.5h-6q-10 -30 -29 -54t-66 -69l-79 -75h-144zM981 1458l307 -872q35 -97 49 -148.5t25 -122.5h8q9 67 23 120t47 147l289 852h182l-537 -1459h-16l-342 945q-33 88 -43 182h-8q-6 -91 -41 -182
l-342 -945h-17l-536 1459h182l289 -852q55 -157 69 -267h9q11 72 24.5 124t48.5 147l307 872h23z" />
    <glyph glyph-name="wcircumflex" unicode="&#x175;" horiz-adv-x="1447" 
d="M803 1448l225 -311v-4h-135l-96 135q-41 60 -53 81t-19 48h-4q-7 -27 -19 -48t-53 -81l-96 -135h-135v4l225 311h160zM406 -14l-386 960h168l189 -516q24 -64 33 -98t12 -78h8q6 43 17.5 78.5t39.5 101.5l220 529h34l220 -529q28 -66 39.5 -101.5t17.5 -78.5h8
q4 67 43 176l191 516h167l-385 -960h-34l-236 557q-38 90 -45 155h-8q-3 -40 -11.5 -69.5t-31.5 -85.5l-236 -557h-34z" />
    <glyph glyph-name="Ycircumflex" unicode="&#x176;" horiz-adv-x="1126" 
d="M242 1522v8l237 237h168l236 -237v-8h-144l-80 75q-46 44 -65 68.5t-29 54.5h-6q-10 -30 -29 -54.5t-65 -68.5l-80 -75h-143zM1108 1434l-467 -873v-561h-158v561l-465 873h191l266 -533q48 -96 62 -131t24 -86h4q10 51 24 86t62 131l267 533h190z" />
    <glyph glyph-name="ycircumflex" unicode="&#x177;" horiz-adv-x="978" 
d="M575 1448l226 -311v-4h-135l-97 135q-39 58 -51.5 79.5t-19.5 49.5h-4q-7 -27 -19 -48t-53 -81l-96 -135h-136v4l226 311h159zM958 946l-583 -1358h-154l205 478l-406 880h170l248 -567q29 -67 41 -105.5t15 -87.5h8q8 77 51 179l246 581h159z" />
    <glyph glyph-name="Ydieresis" unicode="&#x178;" horiz-adv-x="1126" 
d="M319 1747h150v-225h-150v225zM657 1747h150v-225h-150v225zM1108 1434l-467 -873v-561h-158v561l-465 873h191l266 -533q48 -96 62 -131t24 -86h4q10 51 24 86t62 131l267 533h190z" />
    <glyph glyph-name="Zacute" unicode="&#x179;" horiz-adv-x="1189" 
d="M942 1747l2 -6l-252 -219h-106l-2 4l182 221h176zM1145 1434l2 -7l-852 -1294l4 -6q23 17 57 23t101 6h696l-80 -156h-1040l-4 8l856 1295l-4 4q-56 -29 -176 -29h-592l77 156h955z" />
    <glyph glyph-name="zacute" unicode="&#x17a;" horiz-adv-x="925" 
d="M829 1448l2 -6l-260 -309h-106l-2 8l190 307h176zM25 0l-7 10l635 817l-2 7q-40 -20 -78 -25.5t-122 -5.5h-377l88 143h737l4 -8l-629 -819l5 -4q34 18 71.5 23t124.5 5h426l-90 -143h-786z" />
    <glyph glyph-name="Zdotaccent" unicode="&#x17b;" horiz-adv-x="1189" 
d="M717 1747v-225h-156v225h156zM1145 1434l2 -7l-852 -1294l4 -6q23 17 57 23t101 6h696l-80 -156h-1040l-4 8l856 1295l-4 4q-56 -29 -176 -29h-592l77 156h955z" />
    <glyph glyph-name="zdotaccent" unicode="&#x17c;" horiz-adv-x="925" 
d="M598 1434v-269h-168v269h168zM25 0l-7 10l635 817l-2 7q-40 -20 -78 -25.5t-122 -5.5h-377l88 143h737l4 -8l-629 -819l5 -4q34 18 71.5 23t124.5 5h426l-90 -143h-786z" />
    <glyph glyph-name="Zcaron" unicode="&#x17d;" horiz-adv-x="1189" 
d="M958 1767v-8l-235 -237h-168l-238 237v8h144l80 -75q46 -44 65 -68.5t29 -54.5h6q10 29 28.5 52.5t65.5 70.5l80 75h143zM1145 1434l2 -7l-852 -1294l4 -6q23 17 57 23t101 6h696l-80 -156h-1040l-4 8l856 1295l-4 4q-56 -29 -176 -29h-592l77 156h955z" />
    <glyph glyph-name="zcaron" unicode="&#x17e;" horiz-adv-x="925" 
d="M434 1133l-239 311v4h141l104 -135q29 -39 38 -51.5t18.5 -31t15.5 -38.5h6q2 9 4.5 16t7 15.5t6.5 13.5t10 16.5t11.5 15.5t15.5 20.5t17 23.5l102 135h142v-4l-240 -311h-160zM25 0l-7 10l635 817l-2 7q-40 -20 -78 -25.5t-122 -5.5h-377l88 143h737l4 -8l-629 -819
l5 -4q34 18 71.5 23t124.5 5h426l-90 -143h-786z" />
    <glyph glyph-name="florin" unicode="&#x192;" horiz-adv-x="792" 
d="M653 1401q35 0 90 -6v-135q-70 4 -86 4q-196 0 -196 -215v-50q0 -33 -6 -57l2 -2q21 6 59 6h223v-61h-223q-41 0 -59 6l-2 -2q6 -37 6 -80v-866q0 -185 -81 -270t-220 -85q-44 0 -111 6v134q41 -4 109 -4q157 0 157 200v885q0 30 4 80l-2 2q-15 -6 -59 -6h-182v61h182
q44 0 59 -6l2 2q-4 32 -4 53v33q0 373 338 373z" />
    <glyph glyph-name="AEacute" unicode="&#x1fc;" horiz-adv-x="1865" 
d="M1427 1522h-106l-2 4l182 221h176l2 -6zM1237 150h541v-150h-738v375q0 33 7 51l-5 4q-12 -6 -51 -6h-499l-279 -424h-188l956 1434h788v-150h-532q-39 0 -51 6l-4 -4q6 -15 6 -51v-328q0 -34 -6 -49l4 -4q12 6 51 6h479v-149h-479q-33 0 -51 6l-4 -2q6 -18 6 -53v-463
q0 -37 -6 -52l4 -4q14 7 51 7zM1047 557q-7 17 -7 49v568q0 70 11 137h-4q-23 -66 -68 -135l-350 -539q-36 -58 -76 -84l2 -4q35 10 107 10h329q39 0 51 -6z" />
    <glyph glyph-name="aeacute" unicode="&#x1fd;" horiz-adv-x="1759" 
d="M1208 1448l2 -6l-260 -309h-106l-2 8l190 307h176zM436 -31q-164 0 -267 93t-103 247q0 149 98.5 239.5t259.5 90.5q113 0 204 -47.5t136 -136.5l6 2q-11 47 -14 151q-3 118 -66 173t-184 55q-128 0 -299 -54l-41 138q183 57 346 57q155 0 235 -59t101 -177h4
q45 109 145.5 172.5t237.5 63.5q217 0 334 -138t117 -360v-30h-685q-67 0 -100 10l-2 -4l2 -13q12 -156 103 -243.5t241 -87.5q105 0 177.5 41t144.5 124l94 -96q-161 -211 -414 -211q-165 0 -275 80.5t-145 210.5h-6q-26 -134 -130 -212.5t-255 -78.5zM907 549q32 16 97 16
h403q83 0 121 -14l2 2q-12 135 -90 211t-213 76q-133 0 -221 -76t-103 -213zM469 96q114 0 192 58.5t78 148.5q0 91 -78.5 150t-193.5 59q-113 0 -178.5 -58.5t-65.5 -150.5t66 -149.5t180 -57.5z" />
    <glyph glyph-name="Oslashacute" unicode="&#x1fe;" horiz-adv-x="1654" 
d="M881 1522h-107l-2 4l182 221h176l3 -6zM1292 1315q134 -101 208.5 -255.5t74.5 -342.5q0 -214 -96 -385t-267 -267t-385 -96q-227 0 -409 111l-78 -109l-55 37l77 111q-134 99 -208 254.5t-74 343.5q0 160 56 299t154.5 237.5t237.5 154.5t299 56q228 0 412 -110l76 108
l55 -37zM252 717q0 -144 54.5 -264t152.5 -199l684 965q-138 86 -316 86q-124 0 -231 -44t-182.5 -121.5t-118.5 -186.5t-43 -236zM827 129q253 0 415.5 165.5t162.5 422.5q0 144 -54.5 264t-152.5 199l-686 -965q141 -86 315 -86z" />
    <glyph glyph-name="oslashacute" unicode="&#x1ff;" horiz-adv-x="1173" 
d="M643 1133h-106l-2 8l190 307h176l2 -6zM948 840q150 -144 150 -367q0 -219 -144 -361.5t-368 -142.5q-180 0 -314 97l-84 -95l-51 43l84 97q-147 144 -147 362q0 220 144.5 362t367.5 142q178 0 309 -92l80 92l53 -45zM229 473q0 -148 90 -248l478 545q-85 61 -211 61
q-157 0 -257 -99.5t-100 -258.5zM586 115q157 0 256.5 100t99.5 258q0 154 -94 254l-477 -547q89 -65 215 -65z" />
    <glyph glyph-name="Scommaaccent" unicode="&#x218;" horiz-adv-x="1007" 
d="M524 1464q177 0 365 -90l-74 -151q-152 82 -293 82q-104 0 -159.5 -43t-55.5 -121q0 -61 34.5 -111t117.5 -110l235 -175q129 -94 185.5 -183.5t56.5 -207.5q0 -182 -120 -283.5t-324 -101.5q-123 0 -241.5 35.5t-211.5 95.5l76 148q191 -119 377 -119q131 0 203.5 59
t72.5 156q0 71 -42.5 132t-141.5 134l-234 178q-110 82 -161.5 163t-51.5 184q0 154 102.5 241.5t284.5 87.5zM586 -104l-144 -336h-86l72 336h158z" />
    <glyph glyph-name="scommaaccent" unicode="&#x219;" horiz-adv-x="847" 
d="M438 -31q-217 0 -393 111l70 131q159 -102 327 -102q92 0 140.5 32.5t48.5 94.5q0 43 -29.5 76t-97.5 65l-176 82q-107 51 -157 115t-50 151q0 119 85.5 185.5t237.5 66.5q158 0 322 -74l-64 -131q-141 66 -260 66q-80 0 -123 -27.5t-43 -81.5q0 -44 31.5 -77.5
t104.5 -67.5l174 -80q107 -51 154.5 -113t47.5 -151q0 -128 -92.5 -199.5t-257.5 -71.5zM520 -104l-143 -336h-86l71 336h158z" />
    <glyph glyph-name="uni021A" unicode="&#x21a;" horiz-adv-x="1054" 
d="M1034 1434v-152h-379q-33 0 -51 6l-4 -2q6 -18 6 -51v-1235h-157v1235q0 33 6 51l-4 2q-18 -6 -52 -6h-379v152h1014zM606 -104l-143 -336h-86l72 336h157z" />
    <glyph glyph-name="uni021B" unicode="&#x21b;" horiz-adv-x="630" 
d="M385 1452v-430q0 -57 -8 -86l4 -2q19 12 72 12h122v-139h-122q-53 0 -72 12l-4 -2q8 -27 8 -86v-731h-147v731q0 52 10 86l-4 2q-19 -12 -74 -12h-115v139h115q55 0 74 -12l4 2q-10 36 -10 86v321l139 109h8zM391 -104l-143 -336h-86l71 336h158z" />
    <glyph glyph-name="uni0237" unicode="&#x237;" horiz-adv-x="440" 
d="M293 946v-1042q0 -344 -324 -344h-16v145h18q174 0 174 199v1042h148z" />
    <glyph glyph-name="uni02BC" unicode="&#x2bc;" horiz-adv-x="364" 
d="M141 1495h160l-137 -479h-84z" />
    <glyph glyph-name="circumflex" unicode="&#x2c6;" horiz-adv-x="815" 
d="M487 1448l226 -311v-4h-135l-97 135q-39 58 -51.5 79.5t-19.5 49.5h-4q-7 -27 -19 -48t-53 -81l-96 -135h-136v4l226 311h159z" />
    <glyph glyph-name="caron" unicode="&#x2c7;" horiz-adv-x="843" 
d="M342 1133l-240 311v4h142l104 -135q29 -39 38 -51.5t18.5 -31t15.5 -38.5h6q2 9 4.5 16t7 15.5t6.5 13.5t10 16.5t11.5 15.5t15.5 20.5t17 23.5l102 135h141v-4l-239 -311h-160z" />
    <glyph glyph-name="breve" unicode="&#x2d8;" horiz-adv-x="765" 
d="M664 1440q0 -137 -77.5 -215t-203.5 -78q-125 0 -203 78.5t-78 214.5h111q3 -92 47.5 -139.5t122.5 -47.5t123.5 47.5t48.5 139.5h109z" />
    <glyph glyph-name="dotaccent" unicode="&#x2d9;" horiz-adv-x="372" 
d="M270 1434v-269h-168v269h168z" />
    <glyph glyph-name="ring" unicode="&#x2da;" horiz-adv-x="692" 
d="M346 1530q106 0 175 -68t69 -172t-69 -171.5t-175 -67.5t-175 67.5t-69 171.5t69 172t175 68zM346 1450q-72 0 -116 -44.5t-44 -115.5t44 -115.5t116 -44.5t116 44.5t44 115.5t-44 115.5t-116 44.5z" />
    <glyph glyph-name="ogonek" unicode="&#x2db;" horiz-adv-x="524" 
d="M348 57l68 -37q-104 -78 -153.5 -133.5t-49.5 -101.5q0 -66 90 -66q45 0 92 13l21 -92q-77 -25 -133 -25q-77 0 -129 37.5t-52 105.5q0 73 60 142t186 157z" />
    <glyph glyph-name="tilde" unicode="&#x2dc;" horiz-adv-x="903" 
d="M297 1421q51 0 113.5 -27t118.5 -54t89 -27q68 0 109 100l74 -24q-54 -193 -197 -193q-39 0 -87.5 17t-85.5 37.5t-78 37.5t-68 17q-68 0 -109 -101l-74 25q50 192 195 192z" />
    <glyph glyph-name="hungarumlaut" unicode="&#x2dd;" horiz-adv-x="819" 
d="M104 1133l-2 4l228 311h125l2 -4l-238 -311h-115zM365 1133l-3 4l226 311h127l2 -4l-240 -311h-112z" />
    <glyph glyph-name="gravecomb" unicode="&#x300;" horiz-adv-x="0" 
d="M-295 1448l193 -307l-2 -8h-107l-260 309l2 6h174z" />
    <glyph glyph-name="acutecomb" unicode="&#x301;" horiz-adv-x="0" 
d="M-104 1448l2 -6l-260 -309h-107l-2 8l190 307h177z" />
    <glyph glyph-name="uni0302" unicode="&#x302;" horiz-adv-x="0" 
d="M-328 1448l226 -311v-4h-136l-96 135q-41 60 -53 81t-19 48h-4q-7 -28 -19.5 -49.5t-51.5 -79.5l-97 -135h-135v4l226 311h159z" />
    <glyph glyph-name="tildecomb" unicode="&#x303;" horiz-adv-x="0" 
d="M-606 1421q51 0 113.5 -27t118.5 -54t89 -27q68 0 109 100l74 -24q-54 -193 -197 -193q-39 0 -87.5 17t-85.5 37.5t-78 37.5t-68 17q-68 0 -109 -101l-74 25q50 192 195 192z" />
    <glyph glyph-name="uni0304" unicode="&#x304;" horiz-adv-x="0" 
d="M-102 1364v-113h-578v113h578z" />
    <glyph glyph-name="uni0306" unicode="&#x306;" horiz-adv-x="0" 
d="M-102 1440q0 -137 -77.5 -215t-203.5 -78q-125 0 -203 78.5t-78 214.5h111q3 -92 47.5 -139.5t122.5 -47.5t123.5 47.5t48.5 139.5h109z" />
    <glyph glyph-name="uni0307" unicode="&#x307;" horiz-adv-x="0" 
d="M-102 1434v-269h-168v269h168z" />
    <glyph glyph-name="uni0308" unicode="&#x308;" horiz-adv-x="0" 
d="M-446 1434v-248h-150v248h150zM-102 1434v-248h-150v248h150z" />
    <glyph glyph-name="uni030A" unicode="&#x30a;" horiz-adv-x="0" 
d="M-346 1530q106 0 175 -68t69 -172t-69 -171.5t-175 -67.5t-175 67.5t-69 171.5t69 172t175 68zM-346 1450q-72 0 -116 -44.5t-44 -115.5t44 -115.5t116 -44.5t116 44.5t44 115.5t-44 115.5t-116 44.5z" />
    <glyph glyph-name="uni030B" unicode="&#x30b;" horiz-adv-x="0" 
d="M-715 1133l-2 4l228 311h124l3 -4l-238 -311h-115zM-455 1133l-2 4l226 311h127l2 -4l-240 -311h-113z" />
    <glyph glyph-name="uni030C" unicode="&#x30c;" horiz-adv-x="0" 
d="M-502 1133l-239 311v4h141l104 -135q29 -39 38 -51.5t18.5 -31t15.5 -38.5h6q2 9 4.5 16t7 15.5t6.5 13.5t10 16.5t11.5 15.5t15.5 20.5t17 23.5l102 135h142v-4l-240 -311h-160z" />
    <glyph glyph-name="uni0326" unicode="&#x326;" horiz-adv-x="0" 
d="M-102 -104l-144 -336h-86l72 336h158z" />
    <glyph glyph-name="uni0327" unicode="&#x327;" horiz-adv-x="0" 
d="M-233 41l-46 -121q177 -42 177 -145q0 -23 -9 -44.5t-21.5 -39t-36 -36t-42 -31t-51 -30t-51.5 -26.5t-54 -25l-26 56q32 18 46 26t37.5 22.5t34.5 23.5t23.5 21.5t17.5 23.5t5 22q0 33 -37 53.5t-113 36.5l76 213h70z" />
    <glyph glyph-name="uni0328" unicode="&#x328;" horiz-adv-x="0" 
d="M-176 57l67 -37q-104 -78 -153 -133.5t-49 -101.5q0 -66 90 -66q45 0 92 13l20 -92q-77 -25 -133 -25q-77 0 -128.5 37.5t-51.5 105.5q0 73 60 142t186 157z" />
    <glyph glyph-name="uni0394" unicode="&#x394;" horiz-adv-x="1286" 
d="M715 1434l530 -1434h-1204l530 1434h144zM643 1245l-416 -1169h830z" />
    <glyph glyph-name="uni03A9" unicode="&#x3a9;" horiz-adv-x="1587" 
d="M795 1464q159 0 292.5 -50.5t225.5 -140t143 -216.5t51 -277q0 -249 -149.5 -423t-401.5 -232v-6q74 14 164 14h350v-133h-593v227q220 41 349.5 189t129.5 356q0 247 -152 398t-409 151q-258 0 -410 -151t-152 -398q0 -208 129.5 -356t350.5 -189v-227h-596v133h352
q84 0 164 -14v6q-254 58 -403.5 232t-149.5 423q0 200 88.5 355.5t251.5 242t375 86.5z" />
    <glyph glyph-name="pi" unicode="&#x3c0;" horiz-adv-x="1239" 
d="M1178 977v-137h-226v-840h-143v840h-324l-196 -840h-144l197 840q-165 0 -281 -41v137q115 41 285 41h832z" />
    <glyph glyph-name="uni0401" unicode="&#x401;" horiz-adv-x="1050" 
d="M346 1747h150v-225h-150v225zM684 1747h150v-225h-150v225zM961 1434v-150h-592q-34 0 -52 6l-4 -2q6 -18 6 -51v-330q0 -34 -6 -49l4 -4q12 6 52 6h526v-147h-526q-40 0 -52 6l-4 -4q6 -15 6 -51v-467q0 -34 -6 -52l4 -2q21 7 52 7h600v-150h-807v1434h799z" />
    <glyph glyph-name="uni0402" unicode="&#x402;" horiz-adv-x="1425" 
d="M991 856q389 0 389 -385v-96q0 -375 -372 -375h-162v150h139q131 -1 184.5 53t53.5 176v90q0 122 -63 177.5t-183 55.5q-193 0 -449 -75v-627h-157v1237q0 33 6 51l-4 2q-18 -6 -51 -6h-302v150h1059v-150h-501q-33 0 -54 6l-2 -2q6 -18 6 -51v-383q0 -56 -10 -76l2 -2
q236 80 471 80z" />
    <glyph glyph-name="uni0403" unicode="&#x403;" horiz-adv-x="987" 
d="M864 1747l2 -6l-252 -219h-106l-2 4l182 221h176zM967 1434v-150h-598q-34 0 -52 6l-4 -2q6 -18 6 -51v-1237h-157v1434h805z" />
    <glyph glyph-name="uni0404" unicode="&#x404;" horiz-adv-x="1404" 
d="M811 -31q-332 0 -531.5 203t-199.5 545t199.5 544.5t531.5 202.5q293 0 526 -155l-82 -140q-201 136 -450 136q-217 0 -361.5 -123t-181.5 -340q-6 -35 -12 -51l2 -5q21 7 59 7h666v-152h-666q-41 0 -59 6l-2 -2q7 -22 12 -53q37 -217 181.5 -340t361.5 -123
q251 0 450 135l82 -139q-234 -156 -526 -156z" />
    <glyph glyph-name="uni0405" unicode="&#x405;" horiz-adv-x="1007" 
d="M524 1464q177 0 365 -90l-74 -151q-152 82 -293 82q-104 0 -159.5 -43t-55.5 -121q0 -61 34.5 -111t117.5 -110l235 -175q129 -94 185.5 -183.5t56.5 -207.5q0 -182 -120 -283.5t-324 -101.5q-123 0 -241.5 35.5t-211.5 95.5l76 148q191 -119 377 -119q131 0 203.5 59
t72.5 156q0 71 -42.5 132t-141.5 134l-234 178q-110 82 -161.5 163t-51.5 184q0 154 102.5 241.5t284.5 87.5z" />
    <glyph glyph-name="uni0406" unicode="&#x406;" horiz-adv-x="481" 
d="M319 1434v-1434h-157v1434h157z" />
    <glyph glyph-name="uni0407" unicode="&#x407;" horiz-adv-x="481" 
d="M-2 1747h149v-225h-149v225zM336 1747h149v-225h-149v225zM319 1434v-1434h-157v1434h157z" />
    <glyph glyph-name="uni0408" unicode="&#x408;" horiz-adv-x="585" 
d="M424 1434v-1115q0 -170 -69.5 -249.5t-217.5 -79.5q-33 0 -86 6v149q31 -2 72 -2q73 0 108 39t35 131v1121h158z" />
    <glyph glyph-name="uni0409" unicode="&#x409;" horiz-adv-x="2138" 
d="M1642 838q212 0 335.5 -114t123.5 -306t-123 -305t-336 -113h-493v999v238q0 33 6 51l-4 2q-18 -6 -51 -6h-598q-32 0 -53 6l-3 -2q7 -21 7 -51v-918q0 -169 -69 -249t-218 -80q-42 0 -115 6v149q43 -4 101 -4q75 0 109 39t34 131v1123h1012v-549q0 -30 -7 -51l3 -3
q25 7 53 7h286zM1630 150q146 0 223.5 71t77.5 197t-78.5 198t-222.5 72h-274q-32 0 -53 6l-3 -2q7 -21 7 -51v-444q0 -31 -7 -52l3 -2q25 7 53 7h274z" />
    <glyph glyph-name="uni040A" unicode="&#x40a;" horiz-adv-x="2076" 
d="M162 0v1434h157v-549q0 -33 -6 -51l4 -3q21 7 52 7h669q31 0 52 -7l4 3q-7 21 -7 51v549h158v-549q0 -33 -6 -51l2 -3q25 7 53 7h287q212 0 335.5 -114t123.5 -306t-123 -305t-336 -113h-494v641q0 30 7 51l-4 2q-18 -6 -52 -6h-669q-34 0 -52 6l-4 -2q6 -18 6 -51v-641
h-157zM1241 143q25 7 53 7h275q146 0 223.5 71t77.5 197t-78.5 198t-222.5 72h-275q-32 0 -53 6l-2 -2q6 -18 6 -51v-444q0 -34 -6 -52z" />
    <glyph glyph-name="uni040B" unicode="&#x40b;" horiz-adv-x="1413" 
d="M971 856q397 0 397 -434v-422h-158v420q0 148 -65 215t-189 67q-103 0 -202.5 -17t-237.5 -58v-627h-158v1237q0 30 7 51l-5 2q-18 -6 -51 -6h-289v150h1014v-150h-469q-32 0 -53 6l-2 -2q6 -18 6 -51v-383q0 -56 -10 -76l4 -2q229 80 461 80z" />
    <glyph glyph-name="uni040C" unicode="&#x40c;" horiz-adv-x="1249" 
d="M922 1747l2 -6l-252 -219h-107l-2 4l182 221h177zM1083 -8q-109 0 -172.5 51t-89.5 166l-67 287q-22 101 -75 144.5t-153 43.5h-151q-48 0 -64 4l-2 -2q10 -29 10 -84v-602h-157v1434h157v-539q0 -51 -10 -80l2 -2q15 6 64 6h151q100 0 154 45.5t84 159.5l65 229
q53 189 271 189q56 0 96 -6v-150q-34 6 -59 6q-71 0 -110 -24.5t-56 -81.5l-60 -215q-32 -119 -93.5 -164.5t-188.5 -50.5v-6q127 -5 189.5 -49t86.5 -156l62 -269q17 -75 52.5 -105t100.5 -30q9 0 84 6v-149q-62 -6 -121 -6z" />
    <glyph glyph-name="uni040E" unicode="&#x40e;" horiz-adv-x="1257" 
d="M911 1767q-1 -130 -76 -204t-202 -74t-202.5 74t-76.5 204h109q0 -86 44 -133t126 -47t126 47t44 133h108zM332 -14q-72 0 -158 12l2 152q74 -15 154 -15q72 0 128.5 47t108.5 174l-549 1078h189l360 -732q50 -102 62.5 -134.5t21.5 -82.5h6q8 62 20.5 104.5t47.5 119.5
l336 725h178l-524 -1127q-74 -179 -166 -250t-217 -71z" />
    <glyph glyph-name="uni040F" unicode="&#x40f;" horiz-adv-x="1439" 
d="M645 -287v240q0 33 6 51l-4 2q-21 -6 -51 -6h-434v1434h157v-1237q0 -34 -6 -52l4 -2q21 7 52 7h702q27 0 51 -7l4 2q-6 18 -6 52v1237h158v-1434h-434q-33 0 -51 6l-5 -2q7 -21 7 -51v-240h-150z" />
    <glyph glyph-name="uni0410" unicode="&#x410;" horiz-adv-x="1386" 
d="M25 0l659 1464h16l660 -1464h-176l-185 424h-612l-186 -424h-176zM430 555q36 4 115 4h295q78 0 114 -4l2 2q-29 42 -63 119l-143 340q-48 119 -54 170h-8q-7 -64 -53 -170l-143 -340q-30 -73 -62 -119v-2z" />
    <glyph glyph-name="uni0411" unicode="&#x411;" horiz-adv-x="1239" 
d="M682 838q202 0 326.5 -111.5t124.5 -308.5q0 -196 -124.5 -307t-326.5 -111h-520v1047v387h897v-150h-690q-34 0 -52 6l-4 -2q6 -18 6 -51v-352q0 -33 -6 -51l4 -3q21 7 52 7h313zM659 150q151 0 229.5 70.5t78.5 197.5q0 126 -78.5 198t-229.5 72h-290q-34 0 -52 6
l-4 -2q6 -18 6 -51v-444q0 -34 -6 -52l4 -2q21 7 52 7h290z" />
    <glyph glyph-name="uni0412" unicode="&#x412;" horiz-adv-x="1269" 
d="M162 0v1434h514q185 0 292 -95.5t107 -259.5q0 -208 -180 -286q-53 -22 -117 -27v-8q58 0 119 -15q129 -31 197.5 -121t68.5 -227q0 -183 -121.5 -289t-332.5 -106h-547zM317 813q18 6 52 6h249q138 0 215.5 64.5t77.5 179.5q0 107 -66.5 164t-191.5 57h-284q-34 0 -52 6
l-4 -2q6 -18 6 -51v-371q0 -33 -6 -51zM317 143q21 7 52 7h317q311 0 311 253q0 134 -85.5 202.5t-252.5 68.5h-290q-34 0 -52 6l-4 -2q6 -18 6 -51v-430q0 -34 -6 -52z" />
    <glyph glyph-name="uni0413" unicode="&#x413;" horiz-adv-x="987" 
d="M967 1434v-150h-598q-34 0 -52 6l-4 -2q6 -18 6 -51v-1237h-157v1434h805z" />
    <glyph glyph-name="uni0414" unicode="&#x414;" horiz-adv-x="1372" 
d="M18 -287v426h109q36 0 49 -8l4 4q4 33 17 55q186 375 186 908v336h774v-1246q0 -35 -6 -53l4 -2q18 6 53 6h90v-426h-151v230q0 38 8 51l-4 4q-16 -8 -53 -8h-879q-37 0 -53 8l-2 -4q6 -15 6 -51v-230h-152zM336 131q19 8 55 8h559q33 0 54 -6l2 2q-7 21 -7 53v1049
q0 30 7 51l-2 2q-21 -6 -54 -6h-360q-32 0 -53 6l-2 -2q6 -18 6 -51v-152q0 -272 -54 -528t-153 -422z" />
    <glyph glyph-name="uni0415" unicode="&#x415;" horiz-adv-x="1050" 
d="M961 1434v-150h-592q-34 0 -52 6l-4 -2q6 -18 6 -51v-330q0 -34 -6 -49l4 -4q12 6 52 6h526v-147h-526q-40 0 -52 6l-4 -4q6 -15 6 -51v-467q0 -34 -6 -52l4 -2q21 7 52 7h600v-150h-807v1434h799z" />
    <glyph glyph-name="uni0416" unicode="&#x416;" horiz-adv-x="1851" 
d="M147 -6q-47 0 -94 6v156q50 -4 70 -4q63 0 102 30t56 97l69 290q25 104 77.5 143t168.5 44v8q-125 5 -185 49t-92 158l-59 213q-17 56 -56 80t-106 24q-17 0 -57 -4v150q58 6 94 6q110 0 172 -42.5t92 -144.5l74 -249q26 -93 83.5 -135t152.5 -42h84q48 0 63 -6l2 2
q-10 42 -10 82v529h156v-529q0 -36 -11 -82l2 -2q15 6 64 6h84q95 0 151.5 41.5t85.5 135.5l74 249q27 102 89.5 144.5t174.5 42.5q34 0 92 -6v-150q-36 4 -57 4q-68 0 -106.5 -24t-53.5 -80l-61 -213q-32 -114 -92 -158t-185 -49v-8q117 -5 169 -44t77 -143l70 -290
q18 -68 57 -97.5t103 -29.5q17 0 67 4v-156q-44 -6 -92 -6q-121 0 -186 49t-93 164l-75 319q-22 85 -72 124.5t-137 39.5h-84q-44 0 -64 4l-2 -2q11 -49 11 -86v-606h-156v606q0 41 10 86l-2 2q-20 -4 -63 -4h-84q-87 0 -137 -39.5t-70 -124.5l-78 -319q-28 -115 -92.5 -164
t-184.5 -49z" />
    <glyph glyph-name="uni0417" unicode="&#x417;" horiz-adv-x="1171" 
d="M551 -31q-282 0 -483 117l73 145q197 -108 416 -108q165 0 253.5 67t88.5 205q0 148 -102 217.5t-308 69.5h-198v152h196q175 0 267 64t92 189q0 107 -71.5 165.5t-213.5 58.5q-199 0 -405 -99l-60 146q227 106 479 106q441 0 441 -352q0 -246 -238 -319
q-77 -22 -151 -25v-6q87 0 151 -12q289 -59 289 -365q0 -202 -129 -309t-387 -107z" />
    <glyph glyph-name="uni0418" unicode="&#x418;" horiz-adv-x="1474" 
d="M1294 1454h19v-1454h-158v872q0 172 16 256l-6 2q-26 -66 -112 -159l-875 -991h-16v1454h157v-871q0 -163 -18 -258l8 -2q28 70 113 162z" />
    <glyph glyph-name="uni0419" unicode="&#x419;" horiz-adv-x="1474" 
d="M1053 1767q-1 -130 -76.5 -204t-202.5 -74t-202 74t-76 204h108q0 -86 44 -133t126 -47t126 47t44 133h109zM1294 1454h19v-1454h-158v872q0 172 16 256l-6 2q-26 -66 -112 -159l-875 -991h-16v1454h157v-871q0 -163 -18 -258l8 -2q28 70 113 162z" />
    <glyph glyph-name="uni041A" unicode="&#x41a;" horiz-adv-x="1249" 
d="M1083 -8q-109 0 -172.5 51t-89.5 166l-67 287q-22 101 -75 144.5t-153 43.5h-151q-48 0 -64 4l-2 -2q10 -29 10 -84v-602h-157v1434h157v-539q0 -51 -10 -80l2 -2q15 6 64 6h151q100 0 154 45.5t84 159.5l65 229q53 189 271 189q56 0 96 -6v-150q-34 6 -59 6
q-71 0 -110 -24.5t-56 -81.5l-60 -215q-32 -119 -93.5 -164.5t-188.5 -50.5v-6q127 -5 189.5 -49t86.5 -156l62 -269q17 -75 52.5 -105t100.5 -30q9 0 84 6v-149q-62 -6 -121 -6z" />
    <glyph glyph-name="uni041B" unicode="&#x41b;" horiz-adv-x="1501" 
d="M1339 1434v-1434h-157v1237q0 33 6 51l-4 2q-21 -6 -51 -6h-631q-32 0 -53 6l-3 -2q7 -21 7 -51v-918q0 -169 -69 -249t-218 -80q-42 0 -115 6v149q43 -4 101 -4q75 0 109 39t34 131v1123h1044z" />
    <glyph glyph-name="uni041C" unicode="&#x41c;" horiz-adv-x="1775" 
d="M881 -20l-349 870q-51 123 -65 229h-8q-4 -116 -35 -231l-231 -848h-164l403 1458h21l389 -981q26 -64 43 -180h8q11 95 41 180l389 981h23l401 -1458h-164l-229 848q-35 122 -35 231h-8q-13 -94 -66 -229l-350 -870h-14z" />
    <glyph glyph-name="uni041D" unicode="&#x41d;" horiz-adv-x="1439" 
d="M1278 1434v-1434h-158v641q0 34 6 49l-4 4q-14 -6 -51 -6h-702q-40 0 -52 6l-4 -4q6 -15 6 -49v-641h-157v1434h157v-549q0 -34 -6 -49l4 -5q14 7 52 7h702q35 0 51 -7l4 5q-6 15 -6 49v549h158z" />
    <glyph glyph-name="uni041E" unicode="&#x41e;" horiz-adv-x="1654" 
d="M827 1464q214 0 385 -95.5t267 -266.5t96 -385t-96 -385t-267 -267t-385 -96t-385 96t-266.5 267t-95.5 385q0 160 56 299t154.5 237.5t237.5 154.5t299 56zM827 1305q-124 0 -231 -44t-182.5 -121.5t-118.5 -186.5t-43 -236t43 -236t118.5 -186.5t182.5 -121.5t231 -44
q253 0 415.5 165.5t162.5 422.5t-162.5 422.5t-415.5 165.5z" />
    <glyph glyph-name="uni041F" unicode="&#x41f;" horiz-adv-x="1431" 
d="M1270 1434v-1434h-158v1237q0 33 6 51l-4 2q-21 -6 -51 -6h-694q-34 0 -52 6l-4 -2q6 -18 6 -51v-1237h-157v1434h1108z" />
    <glyph glyph-name="uni0420" unicode="&#x420;" horiz-adv-x="1093" 
d="M612 1434q199 0 317 -107t118 -289q0 -181 -115 -287t-309 -106h-254q-34 0 -52 6l-4 -2q6 -18 6 -51v-598h-157v1434h450zM317 1290l-4 -2q6 -18 6 -51v-393q0 -35 -6 -53l4 -3q21 7 52 7h243q127 0 197 65t70 178q0 115 -70 180.5t-197 65.5h-243q-34 0 -52 6z" />
    <glyph glyph-name="uni0421" unicode="&#x421;" horiz-adv-x="1415" 
d="M846 -31q-342 0 -554 207.5t-212 540.5t212 540t554 207q282 0 500 -161l-97 -138q-189 140 -409 140q-261 0 -424.5 -164t-163.5 -424t163.5 -424t424.5 -164q221 0 409 139l97 -137q-219 -162 -500 -162z" />
    <glyph glyph-name="uni0422" unicode="&#x422;" horiz-adv-x="1054" 
d="M1034 1434v-152h-379q-33 0 -51 6l-4 -2q6 -18 6 -51v-1235h-157v1235q0 33 6 51l-4 2q-18 -6 -52 -6h-379v152h1014z" />
    <glyph glyph-name="uni0423" unicode="&#x423;" horiz-adv-x="1257" 
d="M332 -14q-72 0 -158 12l2 152q74 -15 154 -15q72 0 128.5 47t108.5 174l-549 1078h189l360 -732q50 -102 62.5 -134.5t21.5 -82.5h6q8 62 20.5 104.5t47.5 119.5l336 725h178l-524 -1127q-74 -179 -166 -250t-217 -71z" />
    <glyph glyph-name="uni0424" unicode="&#x424;" horiz-adv-x="1718" 
d="M782 -82v96q0 32 9 56l-3 2q-14 -4 -71 -4q-130 0 -246 46t-203 129t-137.5 206t-50.5 268t50.5 268t137.5 206t203 129t246 46q57 0 71 -4l3 2q-9 21 -9 55v97h154v-97q0 -36 -8 -55l2 -2q14 4 71 4q130 0 246 -46t203 -129t137.5 -206t50.5 -268t-50.5 -268
t-137.5 -206t-203 -129t-246 -46q-57 0 -71 4l-2 -2q8 -21 8 -56v-96h-154zM795 211l4 2q-8 21 -8 57v893q0 37 8 58l-4 2q-2 0 -66 -4q-208 -3 -342.5 -136.5t-134.5 -365.5t134.5 -365.5t342.5 -136.5q64 -4 66 -4zM924 211q3 1 67 4q208 3 342.5 136.5t134.5 365.5
t-134.5 365.5t-342.5 136.5q-64 3 -67 4l-2 -2q8 -21 8 -58v-893q0 -36 -8 -57z" />
    <glyph glyph-name="uni0425" unicode="&#x425;" horiz-adv-x="1243" 
d="M1161 1434l-348 -541q-70 -102 -96 -131v-4q43 -52 121 -172l381 -586h-191l-321 502q-70 110 -82 153h-9q-10 -45 -79 -153l-322 -502h-190l381 586q84 128 118 172v4q-34 41 -94 131l-348 541h188l258 -406q78 -120 88 -162h9q13 44 90 162l258 406h188z" />
    <glyph glyph-name="uni0426" unicode="&#x426;" horiz-adv-x="1468" 
d="M1243 -285v238q0 33 6 51l-2 2q-18 -6 -53 -6h-1032v1434h157v-1237q0 -34 -6 -52l2 -2q25 7 54 7h665q32 0 53 -7l5 2q-9 27 -9 52v1237h158v-1237q0 -34 -6 -52l2 -2q21 7 53 7h103v-435h-150z" />
    <glyph glyph-name="uni0427" unicode="&#x427;" horiz-adv-x="1216" 
d="M897 0v571q0 56 10 76l-4 4q-233 -80 -461 -80q-399 0 -399 435v428h158v-426q0 -285 256 -285q99 0 198.5 17.5t241.5 58.5v635h158v-1434h-158z" />
    <glyph glyph-name="uni0428" unicode="&#x428;" horiz-adv-x="2064" 
d="M162 0v1434h157v-1237q0 -34 -6 -52l2 -2q25 7 54 7h536q29 0 53 -7l3 2q-7 21 -7 52v1237h158v-1237q0 -28 -8 -52l4 -2q21 7 53 7h535q28 0 53 -7l4 2q-8 24 -8 52v1237h158v-1434h-1741z" />
    <glyph glyph-name="uni0429" unicode="&#x429;" horiz-adv-x="2129" 
d="M1952 150h104v-435h-149v238q0 33 6 51l-2 2q-21 -6 -53 -6h-1696v1434h157v-1237q0 -34 -6 -52l2 -2q25 7 54 7h536q29 0 53 -7l3 2q-7 21 -7 52v1237h158v-1237q0 -28 -8 -52l4 -2q21 7 53 7h535q28 0 53 -7l4 2q-8 24 -8 52v1237h158v-1237q0 -25 -9 -52l4 -2
q24 7 54 7z" />
    <glyph glyph-name="uni042A" unicode="&#x42a;" horiz-adv-x="1411" 
d="M915 838q212 0 335.5 -114t123.5 -306t-123 -305t-336 -113h-514v1237q0 30 7 51l-2 2q-21 -6 -54 -6h-332v150h539v-549q0 -33 -6 -51l2 -3q25 7 53 7h307zM901 150q147 0 225 71t78 197t-78.5 198t-224.5 72h-293q-32 0 -53 6l-2 -2q6 -18 6 -51v-444q0 -34 -6 -52
l2 -2q25 7 53 7h293z" />
    <glyph glyph-name="uni042B" unicode="&#x42b;" horiz-adv-x="1566" 
d="M678 838q211 0 334 -114t123 -306q0 -191 -123 -304.5t-334 -113.5h-516v993v441h157v-549q0 -33 -6 -51l4 -3q21 7 52 7h309zM1245 1434h158v-1434h-158v1434zM664 150q147 0 225 71t78 197t-78.5 198t-224.5 72h-295q-34 0 -52 6l-4 -2q6 -18 6 -51v-444q0 -34 -6 -52
l4 -2q21 7 52 7h295z" />
    <glyph glyph-name="uni042C" unicode="&#x42c;" horiz-adv-x="1171" 
d="M678 838q211 0 334 -114t123 -306q0 -191 -123 -304.5t-334 -113.5h-516v993v441h157v-549q0 -33 -6 -51l4 -3q21 7 52 7h309zM664 150q147 0 225 71t78 197t-78.5 198t-224.5 72h-295q-34 0 -52 6l-4 -2q6 -18 6 -51v-444q0 -34 -6 -52l4 -2q21 7 52 7h295z" />
    <glyph glyph-name="uni042D" unicode="&#x42d;" horiz-adv-x="1404" 
d="M594 -31q-289 0 -526 156l82 139q202 -135 450 -135q217 0 362.5 123.5t180.5 339.5q5 36 14 53l-4 2q-18 -6 -59 -6h-666v152h666q38 0 59 -7l4 5q-8 13 -14 51q-35 216 -180.5 339.5t-362.5 123.5q-246 0 -450 -136l-82 140q236 155 526 155q332 0 531.5 -202.5
t199.5 -544.5t-199.5 -545t-531.5 -203z" />
    <glyph glyph-name="uni042E" unicode="&#x42e;" horiz-adv-x="2086" 
d="M1260 1462q160 0 299 -56t237.5 -154.5t154.5 -237.5t56 -299q0 -214 -95.5 -385t-266.5 -267t-385 -96q-203 0 -367.5 86.5t-263.5 240.5t-115 351h-145q-33 0 -52 8l-2 -4q4 -10 4 -51v-598h-157v1434h157v-590q0 -41 -4 -53l2 -3q24 7 52 7h147q13 146 74 270
t158 211.5t229 136.5t283 49zM1260 127q253 0 415 165t162 423q0 257 -162 422.5t-415 165.5q-166 0 -297.5 -75t-205 -209.5t-73.5 -303.5q0 -258 162 -423t414 -165z" />
    <glyph glyph-name="uni042F" unicode="&#x42f;" 
d="M578 1434h487v-1434h-158v623q0 33 6 51l-2 4q-12 -6 -51 -6h-108l-523 -672h-206l460 588q61 73 115 94v8q-38 -10 -70 -10q-158 0 -264 107t-106 264q0 177 112.5 280t307.5 103zM911 1290q-21 -6 -53 -6h-283q-114 0 -181.5 -58.5t-67.5 -172.5q0 -113 67.5 -171.5
t181.5 -58.5h283q34 0 53 -8l2 4q-6 15 -6 51v367q0 33 6 51z" />
    <glyph glyph-name="uni0430" unicode="&#x430;" horiz-adv-x="1032" 
d="M514 977q199 0 293 -91.5t94 -285.5v-600h-147q0 82 20 170l-8 2q-49 -98 -138.5 -150.5t-205.5 -52.5q-159 0 -257.5 93t-98.5 243q0 153 97.5 243.5t262.5 90.5q116 0 205.5 -49t132.5 -135l6 2q-9 35 -12 149q-3 117 -65 173.5t-187 56.5q-128 0 -299 -54l-41 138
q180 57 348 57zM469 512q-110 0 -178 -58t-68 -153q0 -93 67.5 -149t176.5 -56q117 0 194.5 59t77.5 148q0 90 -77 149.5t-193 59.5z" />
    <glyph glyph-name="uni0431" unicode="&#x431;" horiz-adv-x="1187" 
d="M602 -31q-247 0 -387.5 160.5t-140.5 466.5q0 460 262 610q53 31 123.5 54.5t180 50t116.5 28.5q111 32 114 105h148q0 -93 -44.5 -146t-144.5 -79q-32 -9 -123 -30t-167 -43.5t-123 -47.5q-203 -109 -217 -494h8q28 175 146 267t290 92q213 2 342 -130.5t129 -353.5
q0 -227 -140.5 -368.5t-371.5 -141.5zM606 115q155 0 253.5 98.5t98.5 259.5q0 162 -100.5 258t-253.5 96q-155 0 -258.5 -98t-103.5 -256q0 -162 102.5 -260t261.5 -98z" />
    <glyph glyph-name="uni0432" unicode="&#x432;" horiz-adv-x="991" 
d="M778 471q137 -43 137 -211q0 -121 -82.5 -190.5t-216.5 -69.5h-475v631v315h471q133 0 206 -61t73 -172q0 -139 -111 -193q-50 -23 -123 -26v-9q60 0 121 -14zM279 817q10 -23 10 -55v-170q0 -35 -10 -55l2 -2q19 8 57 8h211q89 0 134.5 38.5t45.5 102.5q0 127 -160 127
h-231q-38 0 -57 8zM588 135q166 0 166 146q0 143 -183 143h-233q-40 0 -57 10l-2 -2q10 -20 10 -55v-195q0 -26 -10 -53l2 -2q19 8 57 8h250z" />
    <glyph glyph-name="uni0433" unicode="&#x433;" horiz-adv-x="757" 
d="M141 0v946h607v-137h-410q-41 0 -57 8l-2 -2q10 -20 10 -53v-762h-148z" />
    <glyph glyph-name="uni0434" unicode="&#x434;" horiz-adv-x="1087" 
d="M29 -287v422h73q36 0 48 -8l2 2q-3 22 12 51q70 130 107.5 265t37.5 307v194h619v-764q0 -33 -10 -53l2 -2q14 8 57 8h57v-422h-137v238q0 26 10 53l-2 2q-19 -8 -57 -8h-633q-38 0 -57 8l-2 -2q10 -20 10 -53v-238h-137zM291 127q16 8 59 8h389q44 0 58 -8l2 2
q-11 22 -11 53v584q0 31 11 53l-2 2q-14 -8 -58 -8h-239q-46 0 -58 8l-2 -2q11 -29 11 -53v-74q0 -149 -49 -316.5t-113 -246.5z" />
    <glyph glyph-name="uni0435" unicode="&#x435;" horiz-adv-x="1083" 
d="M557 977q207 0 329 -134t122 -364v-30h-682q-76 0 -103 12l-4 -2l6 -21q9 -154 100.5 -240.5t243.5 -86.5q96 0 172 38.5t150 126.5l94 -96q-163 -211 -420 -211q-221 0 -356 137.5t-135 364.5q0 230 131.5 368t351.5 138zM553 840q-138 0 -225.5 -77t-100.5 -212l2 -2
q32 16 99 16h403q84 0 119 -14l2 2q-11 137 -89 212t-210 75z" />
    <glyph glyph-name="uni0436" unicode="&#x436;" horiz-adv-x="1382" 
d="M37 -6v131h59q45 0 69 19.5t38 64.5l45 158q20 65 65 93.5t131 31.5v6q-84 3 -131.5 32.5t-70.5 96.5l-43 112q-18 45 -41.5 63.5t-67.5 18.5h-51v131h86q133 0 176 -106l68 -164q26 -74 58.5 -100.5t96.5 -26.5h41q44 0 64 -4l2 2q-10 31 -10 82v311h141v-311
q0 -40 -10 -82l2 -2q20 4 63 4h39q64 0 97 26.5t61 100.5l65 164q46 106 176 106h88v-131h-53q-43 0 -66.5 -18.5t-41.5 -63.5l-41 -112q-24 -68 -71.5 -97t-131.5 -32v-6q86 -3 131 -31.5t64 -93.5l47 -158q14 -46 37 -65t69 -19h60v-131h-101q-78 0 -122.5 33.5
t-65.5 101.5l-49 170q-20 72 -55 102.5t-97 30.5h-39q-43 0 -63 4l-2 -2q10 -42 10 -86v-348h-141v348q0 55 10 86l-2 2q-20 -4 -64 -4h-41q-61 0 -96 -30.5t-55 -102.5l-49 -170q-38 -135 -187 -135h-100z" />
    <glyph glyph-name="uni0437" unicode="&#x437;" horiz-adv-x="911" 
d="M432 -31q-217 0 -391 94l63 130q163 -87 338 -87q121 0 183.5 37.5t62.5 124.5q0 88 -57 128t-185 40h-122v133h116q197 0 197 140q0 129 -205 129q-153 0 -315 -76l-56 131q197 84 381 84q168 0 259.5 -62t91.5 -180q0 -100 -64 -158t-186 -67v-8q295 -13 295 -248
q0 -138 -104.5 -211.5t-301.5 -73.5z" />
    <glyph glyph-name="uni0438" unicode="&#x438;" horiz-adv-x="1103" 
d="M141 -16v962h148v-452q0 -138 -10 -240l6 -2q28 61 106 145l531 566h41v-963h-148v453q0 137 10 239l-6 2q-31 -67 -106 -145l-531 -565h-41z" />
    <glyph glyph-name="uni0439" unicode="&#x439;" horiz-adv-x="1103" 
d="M854 1337q0 -137 -77.5 -215t-203.5 -78q-124 0 -202 78t-78 215h110q3 -92 47.5 -139t122.5 -47t123.5 47t48.5 139h109zM141 -16v962h148v-452q0 -138 -10 -240l6 -2q28 61 106 145l531 566h41v-963h-148v453q0 137 10 239l-6 2q-31 -67 -106 -145l-531 -565h-41z" />
    <glyph glyph-name="uni043A" unicode="&#x43a;" horiz-adv-x="976" 
d="M840 -6q-80 0 -125 33t-66 102l-49 170q-19 72 -53 102.5t-96 30.5h-107q-43 0 -63 4l-2 -2q10 -31 10 -86v-348h-148v946h148v-311q0 -51 -10 -82l2 -2q20 4 63 4h107q64 0 95.5 26.5t59.5 100.5l66 164q23 56 65.5 81t112.5 25h88v-135h-51q-43 0 -67.5 -17.5
t-41.5 -60.5l-43 -112q-26 -71 -71.5 -99t-131.5 -30v-6q90 -3 133.5 -30.5t63.5 -94.5l45 -158q14 -45 36.5 -62.5t70.5 -17.5h59v-135h-100z" />
    <glyph glyph-name="uni043B" unicode="&#x43b;" horiz-adv-x="1075" 
d="M944 946v-946h-147v762q0 26 10 53l-2 2q-16 -8 -57 -8h-328q-39 0 -58 8l-2 -2q11 -22 11 -53v-483q0 -142 -67 -213.5t-195 -71.5h-84v135h84q59 0 87.5 37t28.5 119v661h719z" />
    <glyph glyph-name="uni043C" unicode="&#x43c;" horiz-adv-x="1335" 
d="M649 -14l-207 487q-51 121 -61 182h-8q-5 -78 -41 -184l-152 -471h-160l328 961h33l237 -562q38 -92 46 -145h6q11 58 47 145l235 562h35l328 -961h-160l-151 471q-39 115 -41 184h-9q-16 -74 -61 -182l-207 -487h-37z" />
    <glyph glyph-name="uni043D" unicode="&#x43d;" horiz-adv-x="1128" 
d="M840 946h147v-946h-147v391q0 39 8 55l-2 3q-22 -11 -55 -11h-453q-35 0 -57 11l-2 -3q10 -20 10 -55v-391h-148v946h148v-323q0 -34 -10 -54l2 -2q16 8 57 8h453q39 0 55 -8l2 2q-8 16 -8 54v323z" />
    <glyph glyph-name="uni043E" unicode="&#x43e;" horiz-adv-x="1173" 
d="M586 977q224 0 368 -142t144 -362q0 -219 -144 -361.5t-368 -142.5q-223 0 -367.5 143t-144.5 361q0 220 144.5 362t367.5 142zM586 831q-157 0 -257 -99.5t-100 -258.5q0 -158 100 -258t257 -100t256.5 100t99.5 258q0 159 -99.5 258.5t-256.5 99.5z" />
    <glyph glyph-name="uni043F" unicode="&#x43f;" horiz-adv-x="1075" 
d="M944 946v-946h-147v762q0 33 10 53l-2 2q-16 -8 -57 -8h-420q-42 0 -58 8l-2 -2q11 -22 11 -53v-762h-148v946h813z" />
    <glyph glyph-name="uni0440" unicode="&#x440;" horiz-adv-x="1208" 
d="M668 977q206 0 336.5 -140.5t130.5 -363.5t-130.5 -363.5t-336.5 -140.5q-136 0 -237 65.5t-155 188.5l-8 -2q21 -79 21 -201v-430h-148v1356h144q0 -158 -15 -225l9 -2q53 125 153 191.5t236 66.5zM641 836q-158 0 -259 -101.5t-101 -261.5q0 -161 101.5 -261.5
t262.5 -100.5q154 0 244 98t90 264t-91.5 264.5t-246.5 98.5z" />
    <glyph glyph-name="uni0441" unicode="&#x441;" horiz-adv-x="970" 
d="M588 -31q-228 0 -371 140t-143 364t143 364t371 140q174 0 323 -94l-71 -127q-124 78 -256 78q-155 0 -255 -101.5t-100 -259.5q0 -157 100 -258.5t255 -101.5q134 0 256 77l71 -127q-149 -94 -323 -94z" />
    <glyph glyph-name="uni0442" unicode="&#x442;" horiz-adv-x="915" 
d="M10 946h895v-137h-325q-42 0 -58 8l-2 -2q10 -20 10 -53v-762h-145v762q0 33 10 53l-2 2q-16 -8 -57 -8h-326v137z" />
    <glyph glyph-name="uni0443" unicode="&#x443;" horiz-adv-x="978" 
d="M958 946l-583 -1358h-154l205 478l-406 880h170l248 -567q29 -67 41 -105.5t15 -87.5h8q8 77 51 179l246 581h159z" />
    <glyph glyph-name="uni0444" unicode="&#x444;" horiz-adv-x="1728" 
d="M795 -416v441q0 118 14 206l-6 2q-85 -264 -328 -264q-182 0 -286.5 136t-104.5 368t104.5 368t286.5 136q243 0 328 -262h6q-14 88 -14 207v489h139v-489q0 -134 -14 -207h6q85 262 327 262q182 0 287 -136.5t105 -367.5t-105 -367.5t-287 -136.5q-242 0 -327 264l-6 -2
q14 -73 14 -206v-441h-139zM514 109q131 0 209 101t78 263t-78.5 263.5t-208.5 101.5t-201 -98t-73 -267q2 -169 73 -266.5t201 -97.5zM1217 109q130 0 201 98t71 266q0 169 -71 267t-201 98q-132 0 -209.5 -101.5t-77.5 -263.5t77.5 -263t209.5 -101z" />
    <glyph glyph-name="uni0445" unicode="&#x445;" horiz-adv-x="978" 
d="M20 0l320 430q2 3 13 17t15.5 19.5t13 13.5t15.5 12v6q-23 14 -57 63l-281 385h177l180 -246q58 -80 71 -135h7q10 54 69 135l182 246h177l-283 -385q-35 -51 -55 -63v-6q6 -4 14 -11.5t13 -14l15 -19.5t13 -17l319 -430h-176l-219 291q-57 77 -69 129h-7
q-16 -57 -69 -129l-221 -291h-177z" />
    <glyph glyph-name="uni0446" unicode="&#x446;" horiz-adv-x="1089" 
d="M899 -287v240q0 33 10 53l-2 2q-16 -8 -57 -8h-709v946h148v-762q0 -33 -10 -53l2 -2q16 8 57 8h389q41 0 57 -8l2 2q-10 20 -10 53v762h148v-762q0 -31 -11 -53l2 -2q16 8 58 8h61v-424h-135z" />
    <glyph glyph-name="uni0447" unicode="&#x447;" horiz-adv-x="937" 
d="M659 946h148v-676v-270h-148v338q0 64 11 84l-4 2q-166 -66 -310 -66q-166 0 -248.5 78.5t-82.5 243.5v266h147v-254q0 -104 51 -148t156 -44q118 0 280 61v385z" />
    <glyph glyph-name="uni0448" unicode="&#x448;" horiz-adv-x="1638" 
d="M1350 946h147v-946h-1356v946h148v-762q0 -33 -10 -53l2 -2q16 8 57 8h358q42 0 58 -8l2 2q-11 22 -11 53v762h148v-762q0 -33 -10 -53l2 -2q16 8 57 8h358q42 0 58 -8l2 2q-10 20 -10 53v762z" />
    <glyph glyph-name="uni0449" unicode="&#x449;" horiz-adv-x="1662" 
d="M1473 -287v240q0 33 10 53l-2 2q-16 -8 -58 -8h-1282v946h148v-762q0 -33 -10 -53l2 -2q16 8 57 8h358q42 0 58 -8l2 2q-11 22 -11 53v762h148v-762q0 -33 -10 -53l2 -2q16 8 57 8h358q42 0 58 -8l2 2q-10 20 -10 53v762h147v-762q0 -33 -10 -53l2 -2q16 8 57 8h62v-424
h-135z" />
    <glyph glyph-name="uni044A" unicode="&#x44a;" horiz-adv-x="1122" 
d="M748 600q153 0 243 -80.5t90 -218.5q0 -136 -92.5 -218.5t-243.5 -82.5h-421v690v72q0 33 10 53l-2 2q-19 -8 -58 -8h-264v137h459v-299q0 -34 -8 -55l2 -2q17 10 55 10h230zM737 137q90 0 139.5 43.5t49.5 118.5q0 76 -49.5 120t-139.5 44h-219q-36 0 -55 8l-2 -2
q8 -21 8 -55v-230q0 -33 -10 -53l2 -2q19 8 57 8h219z" />
    <glyph glyph-name="uni044B" unicode="&#x44b;" horiz-adv-x="1261" 
d="M563 600q148 0 236 -80.5t88 -218.5q0 -136 -89.5 -218.5t-236.5 -82.5h-420v690v256h148v-299q0 -35 -10 -55l2 -2q17 10 57 10h225zM973 946h145v-946h-145v946zM553 137q85 0 131.5 43.5t46.5 118.5q0 76 -46.5 120t-131.5 44h-215q-38 0 -57 8l-2 -2q10 -20 10 -55
v-230q0 -26 -10 -53l2 -2q19 8 57 8h215z" />
    <glyph glyph-name="uni044C" unicode="&#x44c;" horiz-adv-x="927" 
d="M563 600q148 0 236 -80.5t88 -218.5q0 -136 -89.5 -218.5t-236.5 -82.5h-420v690v256h148v-299q0 -35 -10 -55l2 -2q17 10 57 10h225zM553 137q85 0 131.5 43.5t46.5 118.5q0 76 -46.5 120t-131.5 44h-215q-38 0 -57 8l-2 -2q10 -20 10 -55v-230q0 -26 -10 -53l2 -2
q19 8 57 8h215z" />
    <glyph glyph-name="uni044D" unicode="&#x44d;" horiz-adv-x="978" 
d="M412 -31q-202 0 -353 97l68 127q136 -80 281 -80q123 0 206 67t107 174q14 54 20 64l-2 2q-16 -10 -53 -10h-379v127h379q35 0 53 -11l2 2q-9 16 -20 64q-26 108 -109 175t-204 67q-145 0 -281 -80l-68 127q150 96 353 96q221 0 352 -138.5t131 -365.5t-131 -365.5
t-352 -138.5z" />
    <glyph glyph-name="uni044E" unicode="&#x44e;" horiz-adv-x="1525" 
d="M940 977q224 0 368 -142t144 -362q0 -219 -144 -361.5t-368 -142.5q-204 0 -344.5 122t-163.5 315h-100q-36 0 -56 10l-2 -2q11 -22 11 -56v-358h-144v946h144v-356q0 -33 -11 -55l2 -3q22 11 56 11h100q23 193 164 313.5t344 120.5zM940 115q157 0 256.5 100t99.5 258
q0 159 -99.5 258.5t-256.5 99.5t-256.5 -99.5t-99.5 -258.5q0 -158 99.5 -258t256.5 -100z" />
    <glyph glyph-name="uni044F" unicode="&#x44f;" horiz-adv-x="987" 
d="M846 946v-647v-299h-148v328q0 31 9 55l-2 2q-16 -8 -56 -8h-96l-340 -377h-182v6l268 291l19 19l19 19t16 15t21.5 17t22.5 14v4q-35 -7 -59 -4q-103 11 -172.5 85.5t-69.5 192.5q0 137 88 212t236 75h426zM707 500q-9 24 -9 55v211q0 31 11 53l-2 2q-14 -8 -58 -8h-213
q-89 0 -136.5 -40t-47.5 -114q0 -72 46 -112.5t128 -40.5h223q40 0 56 -8z" />
    <glyph glyph-name="uni0451" unicode="&#x451;" horiz-adv-x="1083" 
d="M489 1323v-248h-143v248h143zM778 1323v-248h-145v248h145zM557 977q207 0 329 -134t122 -364v-30h-682q-76 0 -103 12l-4 -2l6 -21q9 -154 100.5 -240.5t243.5 -86.5q96 0 172 38.5t150 126.5l94 -96q-163 -211 -420 -211q-221 0 -356 137.5t-135 364.5q0 230 131.5 368
t351.5 138zM553 840q-138 0 -225.5 -77t-100.5 -212l2 -2q32 16 99 16h403q84 0 119 -14l2 2q-11 137 -89 212t-210 75z" />
    <glyph glyph-name="uni0452" unicode="&#x452;" horiz-adv-x="1130" 
d="M999 -94q0 -155 -76 -235.5t-214 -80.5h-109v144h109q71 0 107 44.5t36 127.5v94v555q0 144 -66 212.5t-178 68.5q-139 0 -226 -99.5t-87 -298.5v-438h-148v1124q0 32 11 54l-2 2q-18 -9 -56 -9h-94v97h94q40 0 56 -8l2 2q-11 22 -11 55v147h148v-147q0 -35 -10 -55l2 -2
q16 8 57 8h277v-97h-277q-39 0 -57 9l-2 -2q10 -20 10 -54v-198q0 -135 -19 -230l9 -2q93 283 366 283q160 0 254 -95t94 -286v-690z" />
    <glyph glyph-name="uni0453" unicode="&#x453;" horiz-adv-x="757" 
d="M782 1346v-7l-270 -309h-106l-3 8l191 308h188zM141 0v946h607v-137h-410q-41 0 -57 8l-2 -2q10 -20 10 -53v-762h-148z" />
    <glyph glyph-name="uni0454" unicode="&#x454;" horiz-adv-x="978" 
d="M567 -31q-221 0 -352 138.5t-131 365.5t131 365.5t352 138.5q203 0 353 -96l-68 -127q-136 80 -281 80q-121 0 -204 -67t-109 -175q-11 -48 -20 -64l2 -2q18 11 53 11h379v-127h-379q-37 0 -53 10l-2 -2q6 -10 20 -64q24 -107 107 -174t206 -67q145 0 281 80l68 -127
q-151 -97 -353 -97z" />
    <glyph glyph-name="uni0455" unicode="&#x455;" horiz-adv-x="847" 
d="M438 -31q-217 0 -393 111l70 131q159 -102 327 -102q92 0 140.5 32.5t48.5 94.5q0 43 -29.5 76t-97.5 65l-176 82q-107 51 -157 115t-50 151q0 119 85.5 185.5t237.5 66.5q158 0 322 -74l-64 -131q-141 66 -260 66q-80 0 -123 -27.5t-43 -81.5q0 -44 31.5 -77.5
t104.5 -67.5l174 -80q107 -51 154.5 -113t47.5 -151q0 -128 -92.5 -199.5t-257.5 -71.5z" />
    <glyph glyph-name="uni0456" unicode="&#x456;" horiz-adv-x="440" 
d="M303 1434v-269h-168v269h168zM293 946v-946h-148v946h148z" />
    <glyph glyph-name="uni0457" unicode="&#x457;" horiz-adv-x="440" 
d="M147 1323v-248h-143v248h143zM436 1323v-248h-145v248h145zM293 946v-946h-148v946h148z" />
    <glyph glyph-name="uni0458" unicode="&#x458;" horiz-adv-x="440" 
d="M303 1434v-269h-168v269h168zM293 946v-1042q0 -344 -324 -344h-16v145h18q174 0 174 199v1042h148z" />
    <glyph glyph-name="uni0459" unicode="&#x459;" horiz-adv-x="1579" 
d="M1210 600q148 0 236 -80.5t88 -218.5q0 -136 -89.5 -218.5t-236.5 -82.5h-399v762q0 26 10 53l-2 2q-19 -8 -57 -8h-336q-38 0 -57 8l-2 -2q10 -27 10 -53v-117h2v-366q0 -141 -67.5 -213t-196.5 -72h-88v135h88q59 0 87.5 37t28.5 119v360h-2v301h729v-299
q0 -35 -10 -55l2 -2q18 10 58 10h204zM1200 137q85 0 131.5 43.5t46.5 118.5q0 76 -46.5 120t-131.5 44h-194q-39 0 -58 8l-2 -2q10 -20 10 -55v-230q0 -26 -10 -53l2 -2q19 8 58 8h194z" />
    <glyph glyph-name="uni045A" unicode="&#x45a;" horiz-adv-x="1558" 
d="M141 0v946h148v-299q0 -35 -10 -55l2 -2q17 10 57 10h401q41 0 56 -10l2 2q-9 24 -9 55v299h148v-299q0 -28 -10 -55l2 -2q17 10 55 10h205q148 0 235.5 -80.5t87.5 -218.5q0 -136 -89 -218.5t-234 -82.5h-400v414q0 31 9 55l-2 2q-16 -8 -56 -8h-401q-38 0 -57 8l-2 -2
q10 -20 10 -55v-414h-148zM928 131q12 8 57 8h193q85 0 131.5 43t46.5 117q0 76 -46.5 120t-131.5 44h-195q-36 0 -55 8l-2 -2q10 -27 10 -55v-228q0 -26 -10 -53z" />
    <glyph glyph-name="uni045B" unicode="&#x45b;" horiz-adv-x="1130" 
d="M651 977q160 0 254 -95t94 -286v-596h-147v555q0 144 -66 212.5t-178 68.5q-139 0 -226 -99.5t-87 -298.5v-438h-148v1124q0 32 11 54l-2 2q-18 -9 -56 -9h-94v97h94q40 0 56 -8l2 2q-11 22 -11 55v147h148v-147q0 -35 -10 -55l2 -2q16 8 57 8h277v-97h-277q-39 0 -57 9
l-2 -2q10 -20 10 -54v-198q0 -135 -19 -230l9 -2q93 283 366 283z" />
    <glyph glyph-name="uni045C" unicode="&#x45c;" horiz-adv-x="976" 
d="M838 1346v-7l-271 -309h-106l-2 8l190 308h189zM840 -6q-80 0 -125 33t-66 102l-49 170q-19 72 -53 102.5t-96 30.5h-107q-43 0 -63 4l-2 -2q10 -31 10 -86v-348h-148v946h148v-311q0 -51 -10 -82l2 -2q20 4 63 4h107q64 0 95.5 26.5t59.5 100.5l66 164q23 56 65.5 81
t112.5 25h88v-135h-51q-43 0 -67.5 -17.5t-41.5 -60.5l-43 -112q-26 -71 -71.5 -99t-131.5 -30v-6q90 -3 133.5 -30.5t63.5 -94.5l45 -158q14 -45 36.5 -62.5t70.5 -17.5h59v-135h-100z" />
    <glyph glyph-name="uni045E" unicode="&#x45e;" horiz-adv-x="978" 
d="M776 1337q0 -137 -77 -215t-203 -78q-124 0 -202.5 78t-78.5 215h111q3 -92 47.5 -139t122.5 -47t123.5 47t48.5 139h108zM958 946l-583 -1358h-154l205 478l-406 880h170l248 -567q29 -67 41 -105.5t15 -87.5h8q8 77 51 179l246 581h159z" />
    <glyph glyph-name="uni045F" unicode="&#x45f;" horiz-adv-x="1097" 
d="M479 -287v240q0 33 10 53l-2 2q-16 -8 -57 -8h-289v946h148v-762q0 -33 -10 -53l2 -2q16 8 57 8h420q41 0 57 -8l2 2q-10 20 -10 53v762h147v-946h-288q-42 0 -58 8l-2 -2q10 -20 10 -53v-240h-137z" />
    <glyph glyph-name="uni0462" unicode="&#x462;" horiz-adv-x="1280" 
d="M786 838q211 0 334 -114t123 -306q0 -191 -123 -304.5t-334 -113.5h-516v991q0 36 6 51l-4 5q-18 -9 -51 -9h-221v148h221q33 0 51 -6l4 2q-6 18 -6 51v201h158v-201q0 -33 -6 -51l2 -2q21 6 53 6h385v-148h-385q-32 0 -53 9l-2 -5q6 -15 6 -51v-106q0 -33 -6 -51l2 -3
q24 7 53 7h309zM772 150q146 0 223.5 71t77.5 197t-78.5 198t-222.5 72h-295q-32 0 -53 6l-2 -2q6 -18 6 -51v-444q0 -34 -6 -52l2 -2q24 7 53 7h295z" />
    <glyph glyph-name="uni0463" unicode="&#x463;" horiz-adv-x="970" 
d="M602 600q148 0 236 -80.5t88 -218.5q0 -136 -90.5 -218.5t-235.5 -82.5h-420v690v88q0 35 8 56l-2 2q-16 -11 -55 -11h-125v121h125q39 0 55 -8l2 2q-8 21 -8 53v471h148v-471q0 -31 -11 -53l2 -2q19 8 56 8h327v-121h-327q-37 0 -56 11l-2 -2q11 -22 11 -56v-131
q0 -33 -11 -55l2 -2q17 10 56 10h227zM590 137q85 0 131.5 43.5t46.5 118.5q0 76 -46.5 120t-131.5 44h-215q-37 0 -56 8l-2 -2q11 -22 11 -55v-230q0 -24 -11 -53l2 -2q19 8 58 8h213z" />
    <glyph glyph-name="uni0472" unicode="&#x472;" horiz-adv-x="1654" 
d="M827 1464q214 0 384.5 -95t267 -266t96.5 -386t-96.5 -386t-267 -266.5t-384.5 -95.5q-213 0 -383.5 95.5t-267 266.5t-96.5 386q0 161 56.5 300t155.5 237t237.5 154t297.5 56zM258 836q-4 -36 -16 -54l4 -4q18 6 57 6h1049q39 0 57 -6l4 4q-12 22 -16 49
q-15 98 -60.5 183t-117 150.5t-173 103t-219.5 37.5q-123 0 -227.5 -41.5t-173.5 -110t-111.5 -150t-56.5 -167.5zM1397 600q4 29 16 51l-4 4q-18 -6 -57 -6h-1049q-39 0 -57 6l-4 -4q11 -17 16 -49q15 -98 61 -183t117.5 -150t173 -102.5t219.5 -37.5q122 0 226 41.5
t173 110t112 150.5t57 169z" />
    <glyph glyph-name="uni0473" unicode="&#x473;" horiz-adv-x="1167" 
d="M584 977q223 0 366.5 -142t143.5 -362t-143.5 -362t-366.5 -142q-222 0 -366 142.5t-144 361.5t144 361.5t366 142.5zM936 508l4 2q-17 151 -112 236t-244 85t-244.5 -85t-112.5 -236l4 -2q28 14 103 14h500q77 0 102 -14zM584 115q149 0 244 85t112 236l-4 2
q-25 -14 -102 -14h-500q-75 0 -103 14l-4 -2q17 -151 112.5 -236t244.5 -85z" />
    <glyph glyph-name="uni0474" unicode="&#x474;" horiz-adv-x="1312" 
d="M1225 1458q30 0 100 -4v-147q-54 4 -72 4q-62 0 -98.5 -34t-71.5 -126l-458 -1176h-19l-598 1459h191l340 -899q48 -124 69 -250h8q17 103 72 250l252 686q49 130 114 183.5t171 53.5z" />
    <glyph glyph-name="uni0475" unicode="&#x475;" horiz-adv-x="997" 
d="M963 965h24v-146h-18q-51 0 -81.5 -19t-53.5 -69l-336 -745h-41l-437 960h175l204 -500q5 -11 16 -38.5l14 -35l11 -27.5t11 -29.5t8 -26.5t8.5 -32t7.5 -34h6q13 63 26.5 103t40.5 104q5 11 7 16l152 353q41 97 95.5 131.5t160.5 34.5z" />
    <glyph glyph-name="uni048E" unicode="&#x48e;" horiz-adv-x="1093" 
d="M1047 1038q0 -117 -50.5 -205.5t-142.5 -136.5l139 -192l-63 -47l-152 211q-77 -23 -155 -23h-254q-34 0 -52 6l-4 -2q6 -18 6 -51v-598h-157v1434h450q199 0 317 -107t118 -289zM612 795q40 0 70 6l-129 178l63 45l144 -199q119 59 119 213q0 115 -70 180.5t-197 65.5
h-243q-34 0 -52 6l-4 -2q6 -18 6 -51v-393q0 -35 -6 -53l4 -3q21 7 52 7h243z" />
    <glyph glyph-name="uni048F" unicode="&#x48f;" horiz-adv-x="1208" 
d="M1135 473q0 -138 -53 -248.5t-148 -175.5l119 -145l-56 -47l-127 155q-90 -43 -202 -43q-136 0 -237 65.5t-155 188.5l-8 -2q21 -79 21 -201v-430h-148v1356h144q0 -158 -15 -225l9 -2q53 125 153 191.5t236 66.5q206 0 336.5 -140.5t130.5 -363.5zM645 111q62 0 127 20
l-137 168l55 45l148 -178q68 45 104.5 123.5t36.5 183.5q0 166 -91.5 264.5t-246.5 98.5q-158 0 -259 -101.5t-101 -261.5q0 -161 101.5 -261.5t262.5 -100.5z" />
    <glyph glyph-name="uni0490" unicode="&#x490;" horiz-adv-x="997" 
d="M827 1720h150v-436h-608q-34 0 -52 6l-4 -2q6 -18 6 -51v-1237h-157v1434h616q30 0 51 -7l5 3q-7 21 -7 51v239z" />
    <glyph glyph-name="uni0491" unicode="&#x491;" horiz-adv-x="806" 
d="M629 1231h147v-422h-438q-41 0 -57 8l-2 -2q10 -20 10 -53v-762h-148v946h439q41 0 57 -8l2 2q-10 20 -10 53v238z" />
    <glyph glyph-name="uni0492" unicode="&#x492;" horiz-adv-x="1079" 
d="M461 1284q-33 0 -51 6l-4 -2q6 -18 6 -51v-385q0 -34 -6 -49l4 -4q12 6 51 6h432v-148h-432q-37 0 -51 7l-4 -5q6 -15 6 -49v-610h-158v610q0 34 6 49l-2 5q-16 -7 -53 -7h-185v148h185q39 0 53 -6l2 4q-6 15 -6 49v582h805v-150h-598z" />
    <glyph glyph-name="uni0493" unicode="&#x493;" horiz-adv-x="821" 
d="M401 809q-41 0 -57 8l-2 -2q10 -20 10 -53v-193q0 -39 -8 -55l2 -2q16 8 55 8h304v-137h-304q-35 0 -55 10l-2 -2q8 -16 8 -55v-336h-145v336q0 39 8 55l-2 2q-20 -10 -55 -10h-103v137h103q39 0 55 -8l2 2q-8 16 -8 55v377h604v-137h-410z" />
    <glyph glyph-name="uni0494" unicode="&#x494;" horiz-adv-x="1218" 
d="M764 856q191 0 286 -94.5t95 -290.5v-487q0 -189 -91.5 -291.5t-273.5 -102.5h-127v150h119q114 0 164.5 62.5t50.5 185.5v481q0 124 -59.5 178.5t-177.5 54.5q-101 0 -198.5 -17t-232.5 -58v-627h-157v1434h829v-150h-622q-34 0 -52 6l-4 -2q6 -18 6 -51v-383
q0 -56 -10 -76l4 -2q229 80 451 80z" />
    <glyph glyph-name="uni0495" unicode="&#x495;" horiz-adv-x="958" 
d="M457 -410v140h102q96 0 143.5 45.5t47.5 148.5v301q0 104 -46 148.5t-143 44.5q-113 0 -272 -60v-358h-148v946h645v-137h-448q-38 0 -57 8l-2 -2q10 -27 10 -53v-180q0 -62 -10 -84l2 -2q162 63 303 63q158 0 235.5 -77.5t77.5 -243.5v-320q0 -164 -80 -246t-246 -82
h-114z" />
    <glyph glyph-name="uni0496" unicode="&#x496;" horiz-adv-x="1957" 
d="M1798 104h117v-391h-152v283q-18 -2 -57 -2q-121 0 -186 49t-93 164l-75 319q-22 85 -72 124.5t-137 39.5h-84q-44 0 -64 4l-2 -2q11 -49 11 -86v-606h-156v606q0 41 10 86l-2 2q-20 -4 -63 -4h-84q-87 0 -137 -39.5t-70 -124.5l-78 -319q-28 -115 -92.5 -164t-184.5 -49
q-47 0 -94 6v156q50 -4 70 -4q63 0 102 30t56 97l69 290q25 104 77.5 143t168.5 44v8q-125 5 -185 49t-92 158l-59 213q-17 56 -56 80t-106 24q-17 0 -57 -4v150q58 6 94 6q110 0 172 -42.5t92 -144.5l74 -249q26 -93 83.5 -135t152.5 -42h84q48 0 63 -6l2 2q-10 42 -10 82
v529h156v-529q0 -36 -11 -82l2 -2q15 6 64 6h84q95 0 151.5 41.5t85.5 135.5l74 249q27 102 89.5 144.5t174.5 42.5q34 0 92 -6v-150q-36 4 -57 4q-68 0 -106.5 -24t-53.5 -80l-61 -213q-32 -114 -92 -158t-185 -49v-8q117 -5 169 -44t77 -143l70 -290q18 -68 57 -97.5
t103 -29.5q17 0 67 4v-52z" />
    <glyph glyph-name="uni0497" unicode="&#x497;" horiz-adv-x="1476" 
d="M1346 88h96v-375h-135v281h-62q-78 0 -122.5 33.5t-65.5 101.5l-49 170q-20 72 -55 102.5t-97 30.5h-39q-43 0 -63 4l-2 -2q10 -42 10 -86v-348h-141v348q0 55 10 86l-2 2q-20 -4 -64 -4h-41q-61 0 -96 -30.5t-55 -102.5l-49 -170q-38 -135 -187 -135h-100v131h59
q45 0 69 19.5t38 64.5l45 158q20 65 65 93.5t131 31.5v6q-84 3 -131.5 32.5t-70.5 96.5l-43 112q-18 45 -41.5 63.5t-67.5 18.5h-51v131h86q133 0 176 -106l68 -164q26 -74 58.5 -100.5t96.5 -26.5h41q44 0 64 -4l2 2q-10 31 -10 82v311h141v-311q0 -40 -10 -82l2 -2
q20 4 63 4h39q64 0 97 26.5t61 100.5l65 164q46 106 176 106h88v-131h-53q-43 0 -66.5 -18.5t-41.5 -63.5l-41 -112q-24 -68 -71.5 -97t-131.5 -32v-6q86 -3 131 -31.5t64 -93.5l47 -158q14 -46 37 -65t69 -19h60v-37z" />
    <glyph glyph-name="uni0498" unicode="&#x498;" horiz-adv-x="1171" 
d="M1067 385q0 -189 -113 -295t-338 -119l-18 -51q176 -42 176 -145q0 -31 -17 -61t-39 -51t-63.5 -46t-68.5 -38t-76 -36l-27 56q32 18 46 26t37.5 22.5t34.5 23.5t23.5 21.5t17.5 23.5t5 22q0 33 -36.5 53.5t-112.5 36.5l51 141q-283 0 -481 117l73 145q197 -108 416 -108
q165 0 253.5 67t88.5 205q0 148 -102 217.5t-308 69.5h-198v152h196q175 0 267 64t92 189q0 107 -71.5 165.5t-213.5 58.5q-199 0 -405 -99l-60 146q227 106 479 106q441 0 441 -352q0 -246 -238 -319q-77 -22 -151 -25v-6q87 0 151 -12q289 -59 289 -365z" />
    <glyph glyph-name="uni0499" unicode="&#x499;" horiz-adv-x="911" 
d="M838 254q0 -128 -90.5 -201t-260.5 -82l-18 -51q176 -42 176 -145q0 -31 -17 -61t-39 -51t-63.5 -46t-68.5 -38t-76 -36l-27 56q32 18 46 26t37.5 22.5t34.5 23.5t23.5 21.5t17.5 23.5t5 22q0 33 -36.5 53.5t-112.5 36.5l51 141q-213 3 -379 94l63 130q163 -87 338 -87
q121 0 183.5 37.5t62.5 124.5q0 88 -57 128t-185 40h-122v133h116q197 0 197 140q0 129 -205 129q-153 0 -315 -76l-56 131q197 84 381 84q168 0 259.5 -62t91.5 -180q0 -100 -64 -158t-186 -67v-8q295 -13 295 -248z" />
    <glyph glyph-name="uni049A" unicode="&#x49a;" horiz-adv-x="1343" 
d="M1204 104h96v-391h-149v281q-20 -2 -68 -2q-109 0 -172.5 51t-89.5 166l-67 287q-22 101 -75 144.5t-153 43.5h-151q-48 0 -64 4l-2 -2q10 -29 10 -84v-602h-157v1434h157v-539q0 -51 -10 -80l2 -2q15 6 64 6h151q100 0 154 45.5t84 159.5l65 229q53 189 271 189
q56 0 96 -6v-150q-34 6 -59 6q-71 0 -110 -24.5t-56 -81.5l-60 -215q-32 -119 -93.5 -164.5t-188.5 -50.5v-6q127 -5 189.5 -49t86.5 -156l62 -269q17 -75 52.5 -105t100.5 -30q9 0 84 6v-43z" />
    <glyph glyph-name="uni049B" unicode="&#x49b;" horiz-adv-x="1067" 
d="M940 88h94v-375h-135v281h-59q-80 0 -125 33t-66 102l-49 170q-19 72 -53 102.5t-96 30.5h-107q-43 0 -63 4l-2 -2q10 -31 10 -86v-348h-148v946h148v-311q0 -51 -10 -82l2 -2q20 4 63 4h107q64 0 95.5 26.5t59.5 100.5l66 164q23 56 65.5 81t112.5 25h88v-135h-51
q-43 0 -67.5 -17.5t-41.5 -60.5l-43 -112q-26 -71 -71.5 -99t-131.5 -30v-6q90 -3 133.5 -30.5t63.5 -94.5l45 -158q14 -45 36.5 -62.5t70.5 -17.5h59v-41z" />
    <glyph glyph-name="uni049C" unicode="&#x49c;" horiz-adv-x="1249" 
d="M1120 141q9 0 84 6v-149q-62 -6 -121 -6q-109 0 -172.5 51t-89.5 166l-67 287q-22 101 -74 143.5t-152 44.5v-305h-86v305h-67q-48 0 -64 4l-2 -2q10 -29 10 -84v-602h-157v1434h157v-539q0 -51 -10 -80l2 -2q15 6 64 6h67v311h86v-311q98 0 152 45.5t84 159.5l65 229
q53 189 271 189q56 0 96 -6v-150q-34 6 -59 6q-71 0 -110 -24.5t-56 -81.5l-60 -215q-32 -119 -93.5 -164.5t-188.5 -50.5v-6q127 -5 189.5 -49t86.5 -156l62 -269q17 -75 52.5 -105t100.5 -30z" />
    <glyph glyph-name="uni049D" unicode="&#x49d;" horiz-adv-x="976" 
d="M881 129h59v-135h-100q-80 0 -125 33t-66 102l-49 170q-19 72 -53 102.5t-96 30.5h-13v-248h-59v248h-35q-43 0 -63 4l-2 -2q10 -31 10 -86v-348h-148v946h148v-311q0 -51 -10 -82l2 -2q20 4 63 4h35v242h59v-242h13q64 0 95.5 26.5t59.5 100.5l66 164q23 56 65.5 81
t112.5 25h88v-135h-51q-43 0 -67.5 -17.5t-41.5 -60.5l-43 -112q-26 -71 -71.5 -99t-131.5 -30v-6q90 -3 133.5 -30.5t63.5 -94.5l45 -158q14 -45 36.5 -62.5t70.5 -17.5z" />
    <glyph glyph-name="uni049E" unicode="&#x49e;" horiz-adv-x="1378" 
d="M1249 141q13 0 82 6v-149q-49 -6 -129 -6q-209 0 -260 217l-65 287q-23 97 -75 138.5t-147 41.5h-151q-52 0 -64 6l-2 -4q11 -42 11 -84v-594h-158v1024q0 34 6 49l-4 4q-12 -6 -51 -6h-222v135h222q35 0 51 -8l4 4q-6 15 -6 51v181h158v-181q0 -33 -7 -51l2 -4
q19 8 54 8h262v-135h-262q-40 0 -54 6l-2 -4q7 -17 7 -49v-123q0 -38 -11 -80l2 -2q30 6 64 6h151q94 0 147.5 45.5t84.5 153.5l65 229q27 98 97 143.5t186 45.5q47 0 90 -6v-150q-34 6 -61 6q-70 0 -109.5 -25t-54.5 -81l-60 -215q-32 -119 -94.5 -164.5t-189.5 -50.5v-4
q128 -6 190 -51t86 -156l62 -269q18 -75 53.5 -105t101.5 -30z" />
    <glyph glyph-name="uni049F" unicode="&#x49f;" horiz-adv-x="1024" 
d="M928 129h59v-135h-100q-80 0 -125 33t-66 102l-49 170q-19 72 -53 102.5t-96 30.5h-107q-43 0 -63 4l-2 -2q10 -31 10 -86v-348h-148v946v178q0 32 11 54l-2 2q-18 -9 -56 -9h-135v97h135q40 0 56 -8l2 2q-11 22 -11 55v147h148v-147q0 -35 -10 -55l2 -2q16 8 57 8h317
v-97h-317q-39 0 -57 9l-2 -2q10 -20 10 -54v-178v-311q0 -51 -10 -82l2 -2q20 4 63 4h107q64 0 95.5 26.5t59.5 100.5l66 164q23 56 65.5 81t112.5 25h88v-135h-51q-43 0 -67.5 -17.5t-41.5 -60.5l-43 -112q-26 -71 -71 -99t-131 -30v-6q90 -3 132.5 -30.5t61.5 -94.5
l47 -158q14 -45 36.5 -62.5t70.5 -17.5z" />
    <glyph glyph-name="uni04A0" unicode="&#x4a0;" horiz-adv-x="1488" 
d="M1360 141q13 0 82 6v-149q-56 -6 -123 -6q-109 0 -171.5 51t-88.5 166l-68 287q-23 96 -76 138t-151 42h-150q-51 0 -63 6l-2 -4q10 -38 10 -84v-594h-158v1237q0 30 7 51l-2 2q-21 -6 -54 -6h-332v150h539v-533q0 -42 -10 -80l2 -2q30 6 63 6h150q96 0 151.5 45.5
t85.5 153.5l66 229q27 99 95.5 144t183.5 45q46 0 90 -6v-150q-35 6 -62 6q-70 0 -109.5 -25t-54.5 -81l-61 -215q-32 -119 -94 -164.5t-189 -50.5v-4q128 -6 190.5 -51t86.5 -156l61 -269q18 -75 54 -105t102 -30z" />
    <glyph glyph-name="uni04A1" unicode="&#x4a1;" horiz-adv-x="1146" 
d="M1051 129h59v-135h-100q-78 0 -121 32.5t-64 102.5l-49 170q-20 68 -56 97.5t-99 29.5h-107q-43 0 -63 4l-2 -2q10 -31 10 -86v-342h-148v762q0 24 11 53l-3 2q-16 -8 -57 -8h-252v137h449v-305q0 -51 -10 -82l2 -2q20 4 63 4h107q65 0 99 25.5t62 95.5l66 164
q42 106 174 106h86v-135h-51q-41 0 -64.5 -17.5t-38.5 -60.5l-43 -112q-27 -71 -73.5 -99t-135.5 -30v-6q92 -3 137 -30t66 -95l45 -158q12 -45 34 -62.5t67 -17.5z" />
    <glyph glyph-name="uni04A2" unicode="&#x4a2;" horiz-adv-x="1417" 
d="M1278 104h96v-391h-149v287h-105v641q0 34 6 49l-4 4q-14 -6 -51 -6h-702q-40 0 -52 6l-4 -4q6 -15 6 -49v-641h-157v1434h157v-549q0 -34 -6 -49l4 -5q14 7 52 7h702q35 0 51 -7l4 5q-6 15 -6 49v549h158v-1330z" />
    <glyph glyph-name="uni04A3" unicode="&#x4a3;" horiz-adv-x="1114" 
d="M987 88h94v-375h-135v287h-106v391q0 39 8 55l-2 3q-22 -11 -55 -11h-453q-35 0 -57 11l-2 -3q10 -20 10 -55v-391h-148v946h148v-323q0 -34 -10 -54l2 -2q16 8 57 8h453q39 0 55 -8l2 2q-8 16 -8 54v323h147v-858z" />
    <glyph glyph-name="uni04A4" unicode="&#x4a4;" horiz-adv-x="1830" 
d="M1087 1434h723v-152h-516q-33 0 -51 6l-4 -2q6 -18 6 -51v-1235h-158v641q0 31 7 49l-2 4q-14 -6 -54 -6h-669q-40 0 -52 6l-4 -4q6 -15 6 -49v-641h-157v1434h157v-549q0 -34 -6 -49l4 -5q14 7 52 7h669q38 0 54 -7l2 5q-7 18 -7 49v549z" />
    <glyph glyph-name="uni04A5" unicode="&#x4a5;" horiz-adv-x="1357" 
d="M801 946h547v-137h-353q-41 0 -57 8l-2 -2q10 -20 10 -53v-762h-145v391q0 39 8 55l-2 3q-22 -11 -55 -11h-414q-35 0 -57 11l-2 -3q10 -20 10 -55v-391h-148v946h148v-323q0 -34 -10 -54l2 -2q16 8 57 8h414q39 0 55 -8l2 2q-8 16 -8 54v323z" />
    <glyph glyph-name="uni04A6" unicode="&#x4a6;" horiz-adv-x="2156" 
d="M1724 872q390 0 390 -385v-112q0 -375 -373 -375h-162v150h139q131 -1 184.5 53t53.5 176v106q0 238 -246 238q-104 0 -205.5 -17t-244.5 -59v-647h-158v1237q0 33 6 51l-2 2q-21 -6 -53 -6h-684q-34 0 -52 6l-4 -2q6 -18 6 -51v-1237h-157v1434h1098v-562q0 -51 -9 -75
l2 -4q233 79 471 79z" />
    <glyph glyph-name="uni04A7" unicode="&#x4a7;" horiz-adv-x="1607" 
d="M1249 584q157 0 235.5 -78.5t78.5 -243.5v-344q0 -164 -80 -246t-246 -82h-117v140h105q95 0 142.5 45.5t47.5 148.5v326q0 103 -46 147.5t-142 44.5q-129 0 -273 -61v-381h-147v657v105q0 26 10 53l-2 2q-19 -8 -57 -8h-420q-38 0 -57 8l-2 -2q10 -27 10 -53v-762h-148
v946h813v-342q0 -59 -10 -84l2 -2q158 66 303 66z" />
    <glyph glyph-name="uni04A8" unicode="&#x4a8;" horiz-adv-x="1591" 
d="M791 -31q-312 0 -501.5 205.5t-189.5 544.5q0 341 195 543t524 202q137 0 236 -37l-49 -151q-99 29 -189 29q-246 0 -395.5 -163.5t-149.5 -430.5q0 -269 146.5 -435.5t382.5 -166.5q34 0 78 5t57 5v4q-40 11 -80 51q-80 78 -124 199t-44 260q0 221 104.5 348t286.5 127
q174 0 274.5 -121.5t100.5 -333.5q0 -151 -52 -278t-149 -213q-24 -28 -69 -43v-4q15 0 46.5 -5.5t61.5 -5.5q105 0 217 64l64 -129q-137 -70 -275 -70q-80 0 -140 18.5t-75 47.5h-4q-106 -66 -288 -66zM1055 154h4q15 21 63 59q181 146 181 420q0 152 -59 234.5t-165 82.5
q-108 0 -168.5 -85t-60.5 -240q0 -250 162 -406q33 -35 43 -65z" />
    <glyph glyph-name="uni04A9" unicode="&#x4a9;" horiz-adv-x="1150" 
d="M561 -31q-221 0 -354 132.5t-133 369.5t138.5 371.5t383.5 134.5q98 0 190 -25l-36 -135q-74 21 -150 21q-173 0 -272 -97.5t-99 -269.5q0 -149 75 -245.5t204 -116.5q30 -9 86 -9v4q-35 13 -59 50q-72 93 -72 229q0 145 80 228t217 83q139 0 213 -80t74 -219
q0 -155 -105 -266q-27 -27 -59 -39l2 -4q15 2 67 2q67 5 138 43l47 -113q-107 -49 -209 -49q-122 0 -160 45h-4q-92 -45 -203 -45zM719 123l4 -2q90 38 139 107t49 157q0 80 -39.5 131t-111.5 51q-70 0 -112 -49.5t-42 -144.5q0 -125 76 -201q35 -35 37 -49z" />
    <glyph glyph-name="uni04AA" unicode="&#x4aa;" horiz-adv-x="1415" 
d="M1346 131q-211 -156 -478 -162l-18 -49q176 -42 176 -145q0 -31 -17 -61t-39 -51t-63.5 -46t-68.5 -38t-76 -36l-27 56q32 18 46 26t37.5 22.5t34.5 23.5t23.5 21.5t17.5 23.5t5 22q0 33 -36.5 53.5t-112.5 36.5l51 141q-324 15 -522.5 220.5t-198.5 527.5q0 333 212 540
t554 207q282 0 500 -161l-97 -138q-189 140 -409 140q-261 0 -424.5 -164t-163.5 -424t163.5 -424t424.5 -164q221 0 409 139z" />
    <glyph glyph-name="uni04AB" unicode="&#x4ab;" horiz-adv-x="970" 
d="M911 63q-140 -91 -305 -94l-18 -49q176 -42 176 -145q0 -31 -17 -61t-39 -51t-63.5 -46t-68.5 -38t-76 -36l-27 56q32 18 46 26t37.5 22.5t34.5 23.5t23.5 21.5t17.5 23.5t5 22q0 33 -37 53.5t-113 36.5l52 143q-208 15 -336.5 153t-128.5 349q0 224 143 364t371 140
q174 0 323 -94l-71 -127q-124 78 -256 78q-155 0 -255 -101.5t-100 -259.5q0 -157 100 -258.5t255 -101.5q134 0 256 77z" />
    <glyph glyph-name="uni04AC" unicode="&#x4ac;" horiz-adv-x="1054" 
d="M655 1282q-33 0 -51 6l-4 -2q6 -18 6 -51v-1131h109v-391h-152v287h-114v1235q0 33 6 51l-4 2q-18 -6 -52 -6h-379v152h1014v-152h-379z" />
    <glyph glyph-name="uni04AD" unicode="&#x4ad;" horiz-adv-x="915" 
d="M580 809q-42 0 -58 8l-2 -2q10 -20 10 -53v-674h101v-375h-135v287h-111v762q0 33 10 53l-2 2q-16 -8 -57 -8h-326v137h895v-137h-325z" />
    <glyph glyph-name="uni04AE" unicode="&#x4ae;" horiz-adv-x="1126" 
d="M1108 1434l-467 -873v-561h-158v561l-465 873h191l266 -533q48 -96 62 -131t24 -86h4q10 51 24 86t62 131l267 533h190z" />
    <glyph glyph-name="uni04AF" unicode="&#x4af;" horiz-adv-x="976" 
d="M956 946l-389 -835v-521h-147v502l-400 854h175l217 -502q6 -14 18 -44t15.5 -38.5t11 -29t10 -29t7.5 -24.5t7.5 -29.5t5.5 -30.5h5q10 56 22.5 92.5t52.5 132.5l215 502h174z" />
    <glyph glyph-name="uni04B0" unicode="&#x4b0;" horiz-adv-x="1126" 
d="M645 555q21 6 51 6h236v-135h-242q-30 0 -51 6l-4 -2q6 -18 6 -51v-379h-158v379q0 33 6 51l-2 2q-21 -6 -53 -6h-239v135h233q32 0 53 -6l2 2l-465 877h189l268 -533q40 -80 56 -121t28 -96h8q12 55 28 96t56 121l269 533h188l-467 -877z" />
    <glyph glyph-name="uni04B1" unicode="&#x4b1;" horiz-adv-x="1017" 
d="M582 94q20 10 55 10h229v-137h-235q-36 0 -56 10l-2 -2q11 -22 11 -55v-330h-148v330q0 39 8 55l-2 2q-20 -10 -55 -10h-235v137h229q35 0 55 -10l2 2l-397 850h174l217 -502q8 -19 21 -51t17 -43t12 -31.5t11 -32.5t7.5 -29.5t7.5 -37.5h4q7 39 17 72t19 55.5t40 97.5
l215 502h174l-397 -850z" />
    <glyph glyph-name="uni04B2" unicode="&#x4b2;" horiz-adv-x="1310" 
d="M1151 104h117v-391h-152v287h-88l-321 502q-70 110 -82 153h-9q-10 -45 -79 -153l-322 -502h-190l381 586q84 128 118 172v4q-34 41 -94 131l-348 541h188l258 -406q78 -120 88 -162h9q13 44 90 162l258 406h188l-348 -541q-70 -102 -96 -131v-4q43 -52 121 -172z" />
    <glyph glyph-name="uni04B3" unicode="&#x4b3;" horiz-adv-x="1026" 
d="M893 88h100v-375h-135v287h-76l-219 291q-57 77 -69 129h-7q-16 -57 -69 -129l-221 -291h-177l320 430q2 3 13 17t15.5 19.5t13 13.5t15.5 12v6q-23 14 -57 63l-281 385h177l180 -246q58 -80 71 -135h7q10 54 69 135l182 246h177l-283 -385q-35 -51 -55 -63v-6
q6 -4 14 -11.5t13 -14l15 -19.5t13 -17z" />
    <glyph glyph-name="uni04B4" unicode="&#x4b4;" horiz-adv-x="1724" 
d="M1546 150h105v-435h-152v238q0 33 6 51l-2 2q-18 -6 -53 -6h-961v1237q0 30 7 51l-4 2q-18 -6 -52 -6h-420v150h1031v-150h-355q-33 0 -51 6l-4 -2q6 -18 6 -51v-1040q0 -28 -8 -52l4 -2q25 7 53 7h594q32 0 53 -7l5 2q-9 27 -9 52v1237h158v-1237q0 -34 -6 -52l2 -2
q21 7 53 7z" />
    <glyph glyph-name="uni04B5" unicode="&#x4b5;" horiz-adv-x="1218" 
d="M1114 137h51v-424h-137v240q0 33 10 53l-2 2q-16 -8 -57 -8h-670v762q0 33 10 53l-2 2q-16 -8 -57 -8h-250v137h725v-137h-229q-41 0 -57 8l-3 -2q11 -22 11 -53v-578q0 -31 -11 -53l3 -2q16 8 57 8h362q42 0 58 -8l2 2q-10 20 -10 53v762h147v-762q0 -33 -10 -53l2 -2
q16 8 57 8z" />
    <glyph glyph-name="uni04B6" unicode="&#x4b6;" horiz-adv-x="1206" 
d="M1055 104h108v-391h-151v287h-115v571q0 56 10 76l-4 4q-233 -80 -461 -80q-399 0 -399 435v428h158v-426q0 -285 256 -285q99 0 198.5 17.5t241.5 58.5v635h158v-1330z" />
    <glyph glyph-name="uni04B7" unicode="&#x4b7;" horiz-adv-x="940" 
d="M807 88h98v-375h-135v287h-111v338q0 64 11 84l-4 2q-166 -66 -310 -66q-166 0 -248.5 78.5t-82.5 243.5v266h147v-254q0 -104 51 -148t156 -44q118 0 280 61v385h148v-676v-182z" />
    <glyph glyph-name="uni04B8" unicode="&#x4b8;" horiz-adv-x="1216" 
d="M897 1434h158v-1434h-158v571q0 56 10 76l-4 4q-139 -50 -311 -71v-250h-84v243q-23 -2 -66 -2q-399 0 -399 435v428h158v-426q0 -285 256 -285q8 0 25.5 1t25.5 1v354h84v-348q108 12 305 68v635z" />
    <glyph glyph-name="uni04B9" unicode="&#x4b9;" horiz-adv-x="937" 
d="M659 946h148v-676v-270h-148v338q0 64 11 84l-4 2q-109 -45 -215 -57v-177h-62v170q-5 0 -16 -1t-17 -1q-166 0 -248.5 78.5t-82.5 243.5v266h147v-254q0 -104 51 -148t156 -44q8 0 10 2v221h62v-217q94 12 208 55v385z" />
    <glyph glyph-name="uni04BA" unicode="&#x4ba;" horiz-adv-x="1216" 
d="M319 1434v-572q0 -56 -10 -76l4 -4q233 80 461 80q400 0 400 -434v-428h-158v426q0 285 -256 285q-99 0 -198 -17.5t-243 -58.5v-635h-157v1434h157z" />
    <glyph glyph-name="uni04BB" unicode="&#x4bb;" horiz-adv-x="1128" 
d="M293 1464v-538q0 -133 -19 -230l9 -2q95 283 366 283q167 0 257.5 -99t90.5 -282v-596h-147v563q0 131 -63 202t-181 71q-148 0 -230.5 -105t-82.5 -293v-438h-148v1464h148z" />
    <glyph glyph-name="uni04BC" unicode="&#x4bc;" horiz-adv-x="1841" 
d="M1077 -31q-291 0 -482.5 160t-242.5 442q-8 40 -2 70l-4 2q-18 -10 -67 -10q-123 0 -188.5 69t-65.5 201q0 65 20 146h158q-23 -73 -23 -136q2 -67 30 -99t91 -32q35 0 47 -6l4 2q-7 38 0 80q37 272 231.5 439t493.5 167q327 0 505.5 -201t178.5 -546v-84h-1171
q-47 0 -80 12l-2 -4q7 -15 18 -66q34 -205 180.5 -325.5t370.5 -120.5q277 0 482 201l100 -129q-239 -232 -582 -232zM514 776q31 8 88 8h891q75 0 102 -10l4 4q-9 20 -20 76q-25 211 -157 331t-353 120q-224 0 -363 -122.5t-176 -324.5q-1 -4 -4 -19t-7 -30t-9 -29z" />
    <glyph glyph-name="uni04BD" unicode="&#x4bd;" horiz-adv-x="1280" 
d="M762 -31q-212 0 -343 122.5t-143 328.5q-3 21 3 37l-5 2q-20 -10 -63 -10q-201 0 -201 221q0 49 19 108h121q-19 -55 -19 -104q0 -59 20 -84t72 -25q42 0 58 -8l4 2q-2 12 2 39q37 177 161 278t302 101q112 0 199.5 -37.5t143 -105t84.5 -157.5t29 -198v-30h-682
q-72 0 -102 12l-4 -2l6 -21q9 -154 99.5 -240.5t240.5 -86.5q107 0 179.5 41t143.5 124l97 -96q-166 -211 -422 -211zM428 549q32 16 98 16h404q91 0 119 -14l4 2q-12 136 -90.5 211.5t-214.5 75.5q-133 0 -221 -76t-103 -213z" />
    <glyph glyph-name="uni04BE" unicode="&#x4be;" horiz-adv-x="1841" 
d="M590 633q-47 0 -80 12l-2 -4q7 -15 18 -66q34 -205 180.5 -325.5t370.5 -120.5q277 0 482 201l100 -129q-128 -124 -281 -181q-104 -78 -153 -133.5t-49 -101.5q0 -66 90 -66q45 0 92 13l20 -92q-77 -25 -133 -25q-77 0 -128.5 37.5t-51.5 105.5q0 105 139 219
q-52 -8 -127 -8q-291 0 -482.5 160t-242.5 442q-8 40 -2 70l-4 2q-18 -10 -67 -10q-123 0 -188.5 69t-65.5 201q0 65 20 146h158q-23 -73 -23 -136q2 -67 30 -99t91 -32q35 0 47 -6l4 2q-7 38 0 80q37 272 231.5 439t493.5 167q327 0 505.5 -201t178.5 -546v-84h-1171z
M530 858q-1 -4 -4 -19t-7 -30t-9 -29l4 -4q31 8 88 8h891q75 0 102 -10l4 4q-9 20 -20 76q-25 211 -157 331t-353 120q-224 0 -363 -122.5t-176 -324.5z" />
    <glyph glyph-name="uni04BF" unicode="&#x4bf;" horiz-adv-x="1280" 
d="M524 449q-72 0 -102 12l-4 -2l6 -21q9 -154 99.5 -240.5t240.5 -86.5q107 0 179.5 41t143.5 124l97 -96q-84 -109 -193 -162h2q-104 -78 -153 -133.5t-49 -101.5q0 -66 90 -66q45 0 92 13l20 -92q-77 -25 -133 -25q-77 0 -128.5 37.5t-51.5 105.5q0 55 33.5 105.5
t101.5 109.5q-16 -2 -53 -2q-212 0 -343 122.5t-143 328.5q-3 21 3 37l-5 2q-20 -10 -63 -10q-201 0 -201 221q0 49 19 108h121q-19 -55 -19 -104q0 -59 20 -84t72 -25q42 0 58 -8l4 2q-2 12 2 39q37 177 161 278t302 101q112 0 199.5 -37.5t143 -105t84.5 -157.5t29 -198
v-30h-682zM748 840q-133 0 -221 -76t-103 -213l4 -2q32 16 98 16h404q91 0 119 -14l4 2q-12 136 -90.5 211.5t-214.5 75.5z" />
    <glyph glyph-name="uni04C0" unicode="&#x4c0;" horiz-adv-x="481" 
d="M319 1434v-1434h-157v1434h157z" />
    <glyph glyph-name="uni04C1" unicode="&#x4c1;" horiz-adv-x="1851" 
d="M1204 1767q-1 -130 -76 -204t-202 -74t-202.5 74t-76.5 204h109q0 -86 44 -133t126 -47t126 47t44 133h108zM147 -6q-47 0 -94 6v156q50 -4 70 -4q63 0 102 30t56 97l69 290q25 104 77.5 143t168.5 44v8q-125 5 -185 49t-92 158l-59 213q-17 56 -56 80t-106 24
q-17 0 -57 -4v150q58 6 94 6q110 0 172 -42.5t92 -144.5l74 -249q26 -93 83.5 -135t152.5 -42h84q48 0 63 -6l2 2q-10 42 -10 82v529h156v-529q0 -36 -11 -82l2 -2q15 6 64 6h84q95 0 151.5 41.5t85.5 135.5l74 249q27 102 89.5 144.5t174.5 42.5q34 0 92 -6v-150
q-36 4 -57 4q-68 0 -106.5 -24t-53.5 -80l-61 -213q-32 -114 -92 -158t-185 -49v-8q117 -5 169 -44t77 -143l70 -290q18 -68 57 -97.5t103 -29.5q17 0 67 4v-156q-44 -6 -92 -6q-121 0 -186 49t-93 164l-75 319q-22 85 -72 124.5t-137 39.5h-84q-44 0 -64 4l-2 -2
q11 -49 11 -86v-606h-156v606q0 41 10 86l-2 2q-20 -4 -63 -4h-84q-87 0 -137 -39.5t-70 -124.5l-78 -319q-28 -115 -92.5 -164t-184.5 -49z" />
    <glyph glyph-name="uni04C2" unicode="&#x4c2;" horiz-adv-x="1382" 
d="M971 1337q0 -137 -77.5 -215t-203.5 -78q-124 0 -202 78t-78 215h110q3 -92 47.5 -139t122.5 -47t123.5 47t48.5 139h109zM37 -6v131h59q45 0 69 19.5t38 64.5l45 158q20 65 65 93.5t131 31.5v6q-84 3 -131.5 32.5t-70.5 96.5l-43 112q-18 45 -41.5 63.5t-67.5 18.5h-51
v131h86q133 0 176 -106l68 -164q26 -74 58.5 -100.5t96.5 -26.5h41q44 0 64 -4l2 2q-10 31 -10 82v311h141v-311q0 -40 -10 -82l2 -2q20 4 63 4h39q64 0 97 26.5t61 100.5l65 164q46 106 176 106h88v-131h-53q-43 0 -66.5 -18.5t-41.5 -63.5l-41 -112q-24 -68 -71.5 -97
t-131.5 -32v-6q86 -3 131 -31.5t64 -93.5l47 -158q14 -46 37 -65t69 -19h60v-131h-101q-78 0 -122.5 33.5t-65.5 101.5l-49 170q-20 72 -55 102.5t-97 30.5h-39q-43 0 -63 4l-2 -2q10 -42 10 -86v-348h-141v348q0 55 10 86l-2 2q-20 -4 -64 -4h-41q-61 0 -96 -30.5
t-55 -102.5l-49 -170q-38 -135 -187 -135h-100z" />
    <glyph glyph-name="uni04C3" unicode="&#x4c3;" horiz-adv-x="1251" 
d="M893 971q-25 -95 -85 -144t-181 -67v-4q272 -3 400 -103t128 -327v-342q0 -188 -92 -291t-275 -103h-126v150h118q114 0 165.5 63t51.5 185v338q0 85 -28 147.5t-77.5 102t-129.5 63.5t-171.5 34t-215.5 11q-48 0 -64 4l-2 -2q10 -29 10 -84v-602h-157v1434h157v-541
q0 -53 -10 -82l2 -2q15 6 64 6h135q95 0 148 47t83 162l66 229q50 189 276 189q57 0 97 -6v-150q-35 6 -62 6q-71 0 -110 -25t-54 -81z" />
    <glyph glyph-name="uni04C4" unicode="&#x4c4;" horiz-adv-x="962" 
d="M727 627q-27 -71 -73 -98t-134 -29v-6q193 0 289 -76.5t96 -251.5v-248q0 -164 -79.5 -246t-245.5 -82h-117v140h102q97 0 145 45.5t48 148.5v250q0 253 -299 256l-115 2q-43 0 -63 4l-2 -2q10 -31 10 -86v-348h-148v946h148v-311q0 -51 -10 -82l2 -2q20 4 63 4h94
q66 0 99.5 26.5t62.5 100.5l66 164q44 106 174 106h86v-135h-52q-42 0 -66.5 -18.5t-39.5 -59.5z" />
    <glyph glyph-name="uni04C5" unicode="&#x4c5;" horiz-adv-x="1507" 
d="M1339 137h123l-139 -424h-129l88 287h-100v1237q0 33 6 51l-4 2q-21 -6 -51 -6h-631q-32 0 -53 6l-3 -2q7 -21 7 -51v-918q0 -169 -69 -249t-218 -80q-42 0 -115 6v149q43 -4 101 -4q75 0 109 39t34 131v1123h1044v-1297z" />
    <glyph glyph-name="uni04C6" unicode="&#x4c6;" horiz-adv-x="1095" 
d="M944 137h121l-139 -424h-129l88 287h-88v762q0 26 10 53l-2 2q-16 -8 -57 -8h-328q-39 0 -58 8l-2 -2q11 -22 11 -53v-483q0 -142 -67 -213.5t-195 -71.5h-84v135h84q59 0 87.5 37t28.5 119v661h719v-809z" />
    <glyph glyph-name="uni04C7" unicode="&#x4c7;" horiz-adv-x="1439" 
d="M1120 1434h158v-1434h-2v-82q0 -328 -322 -328h-108v152h110q79 0 120.5 41t41.5 135v320l2 -2v405q0 34 6 49l-4 4q-14 -6 -51 -6h-702q-40 0 -52 6l-4 -4q6 -15 6 -49v-641h-157v1434h157v-549q0 -34 -6 -49l4 -5q14 7 52 7h702q35 0 51 -7l4 5q-6 15 -6 49v549z" />
    <glyph glyph-name="uni04C8" unicode="&#x4c8;" horiz-adv-x="1128" 
d="M840 946h147v-946h-2v-94q0 -155 -76.5 -235.5t-214.5 -80.5h-108v144h108q71 0 107.5 44.5t36.5 127.5v94h2v391q0 39 8 55l-2 3q-22 -11 -55 -11h-453q-35 0 -57 11l-2 -3q10 -20 10 -55v-391h-148v946h148v-323q0 -34 -10 -54l2 -2q16 8 57 8h453q39 0 55 -8l2 2
q-8 16 -8 54v323z" />
    <glyph glyph-name="uni04C9" unicode="&#x4c9;" horiz-adv-x="1445" 
d="M1278 137h123l-139 -424h-129l88 287h-101v641q0 34 6 49l-4 4q-14 -6 -51 -6h-702q-40 0 -52 6l-4 -4q6 -15 6 -49v-641h-157v1434h157v-549q0 -34 -6 -49l4 -5q14 7 52 7h702q35 0 51 -7l4 5q-6 15 -6 49v549h158v-1297z" />
    <glyph glyph-name="uni04CA" unicode="&#x4ca;" horiz-adv-x="1146" 
d="M987 137h123l-137 -424h-131l88 287h-90v391q0 39 8 55l-2 3q-22 -11 -55 -11h-453q-35 0 -57 11l-2 -3q10 -20 10 -55v-391h-148v946h148v-323q0 -34 -10 -54l2 -2q16 8 57 8h453q39 0 55 -8l2 2q-8 16 -8 54v323h147v-809z" />
    <glyph glyph-name="uni04CB" unicode="&#x4cb;" horiz-adv-x="1216" 
d="M1055 1434v-1434h-127v-287h-152v391h121v467q0 56 10 76l-4 4q-233 -80 -461 -80q-399 0 -399 435v428h158v-426q0 -285 256 -285q99 0 198.5 17.5t241.5 58.5v635h158z" />
    <glyph glyph-name="uni04CC" unicode="&#x4cc;" horiz-adv-x="942" 
d="M659 946h148v-676v-270h-113v-287h-135v375h100v250q0 64 11 84l-4 2q-166 -66 -310 -66q-166 0 -248.5 78.5t-82.5 243.5v266h147v-254q0 -104 51 -148t156 -44q118 0 280 61v385z" />
    <glyph glyph-name="uni04CD" unicode="&#x4cd;" horiz-adv-x="1849" 
d="M1710 137h129l-137 -424h-131l88 287h-76l-229 848q-35 122 -35 231h-8q-13 -94 -66 -229l-350 -870h-14l-349 870q-51 123 -65 229h-8q-4 -116 -35 -231l-231 -848h-164l403 1458h21l389 -981q26 -64 43 -180h8q11 95 41 180l389 981h23z" />
    <glyph glyph-name="uni04CE" unicode="&#x4ce;" horiz-adv-x="1388" 
d="M1268 137h110l-137 -424h-131l88 287h-43l-151 471q-39 115 -41 184h-9q-16 -74 -61 -182l-207 -487h-37l-207 487q-51 121 -61 182h-8q-5 -78 -41 -184l-152 -471h-160l328 961h33l237 -562q38 -92 46 -145h6q11 58 47 145l235 562h35z" />
    <glyph glyph-name="uni04CF" unicode="&#x4cf;" horiz-adv-x="440" 
d="M293 946v-946h-148v946h148z" />
    <glyph glyph-name="uni04D0" unicode="&#x4d0;" horiz-adv-x="1386" 
d="M971 1767q-1 -130 -76.5 -204t-202.5 -74t-202 74t-76 204h108q0 -86 44 -133t126 -47t126 47t44 133h109zM25 0l659 1464h16l660 -1464h-176l-185 424h-612l-186 -424h-176zM430 555q36 4 115 4h295q78 0 114 -4l2 2q-29 42 -63 119l-143 340q-48 119 -54 170h-8
q-7 -64 -53 -170l-143 -340q-30 -73 -62 -119v-2z" />
    <glyph glyph-name="uni04D1" unicode="&#x4d1;" horiz-adv-x="1032" 
d="M803 1337q0 -137 -77.5 -215t-203.5 -78q-124 0 -202 78t-78 215h110q3 -92 47.5 -139t122.5 -47t123.5 47t48.5 139h109zM514 977q199 0 293 -91.5t94 -285.5v-600h-147q0 82 20 170l-8 2q-49 -98 -138.5 -150.5t-205.5 -52.5q-159 0 -257.5 93t-98.5 243
q0 153 97.5 243.5t262.5 90.5q116 0 205.5 -49t132.5 -135l6 2q-9 35 -12 149q-3 117 -65 173.5t-187 56.5q-128 0 -299 -54l-41 138q180 57 348 57zM469 512q-110 0 -178 -58t-68 -153q0 -93 67.5 -149t176.5 -56q117 0 194.5 59t77.5 148q0 90 -77 149.5t-193 59.5z" />
    <glyph glyph-name="uni04D2" unicode="&#x4d2;" horiz-adv-x="1386" 
d="M449 1747h149v-225h-149v225zM786 1747h150v-225h-150v225zM25 0l659 1464h16l660 -1464h-176l-185 424h-612l-186 -424h-176zM430 555q36 4 115 4h295q78 0 114 -4l2 2q-29 42 -63 119l-143 340q-48 119 -54 170h-8q-7 -64 -53 -170l-143 -340q-30 -73 -62 -119v-2z" />
    <glyph glyph-name="uni04D3" unicode="&#x4d3;" horiz-adv-x="1032" 
d="M451 1323v-248h-144v248h144zM739 1323v-248h-145v248h145zM514 977q199 0 293 -91.5t94 -285.5v-600h-147q0 82 20 170l-8 2q-49 -98 -138.5 -150.5t-205.5 -52.5q-159 0 -257.5 93t-98.5 243q0 153 97.5 243.5t262.5 90.5q116 0 205.5 -49t132.5 -135l6 2
q-9 35 -12 149q-3 117 -65 173.5t-187 56.5q-128 0 -299 -54l-41 138q180 57 348 57zM469 512q-110 0 -178 -58t-68 -153q0 -93 67.5 -149t176.5 -56q117 0 194.5 59t77.5 148q0 90 -77 149.5t-193 59.5z" />
    <glyph glyph-name="uni04D4" unicode="&#x4d4;" horiz-adv-x="1865" 
d="M1237 150h541v-150h-738v375q0 33 7 51l-5 4q-12 -6 -51 -6h-499l-279 -424h-188l956 1434h788v-150h-532q-39 0 -51 6l-4 -4q6 -15 6 -51v-328q0 -34 -6 -49l4 -4q12 6 51 6h479v-149h-479q-33 0 -51 6l-4 -2q6 -18 6 -53v-463q0 -37 -6 -52l4 -4q14 7 51 7zM1047 557
q-7 17 -7 49v568q0 70 11 137h-4q-23 -66 -68 -135l-350 -539q-36 -58 -76 -84l2 -4q35 10 107 10h329q39 0 51 -6z" />
    <glyph glyph-name="uni04D5" unicode="&#x4d5;" horiz-adv-x="1759" 
d="M436 -31q-164 0 -267 93t-103 247q0 149 98.5 239.5t259.5 90.5q113 0 204 -47.5t136 -136.5l6 2q-11 47 -14 151q-3 118 -66 173t-184 55q-128 0 -299 -54l-41 138q183 57 346 57q155 0 235 -59t101 -177h4q45 109 145.5 172.5t237.5 63.5q217 0 334 -138t117 -360v-30
h-685q-67 0 -100 10l-2 -4l2 -13q12 -156 103 -243.5t241 -87.5q105 0 177.5 41t144.5 124l94 -96q-161 -211 -414 -211q-165 0 -275 80.5t-145 210.5h-6q-26 -134 -130 -212.5t-255 -78.5zM907 549q32 16 97 16h403q83 0 121 -14l2 2q-12 135 -90 211t-213 76
q-133 0 -221 -76t-103 -213zM469 96q114 0 192 58.5t78 148.5q0 91 -78.5 150t-193.5 59q-113 0 -178.5 -58.5t-65.5 -150.5t66 -149.5t180 -57.5z" />
    <glyph glyph-name="uni04D6" unicode="&#x4d6;" horiz-adv-x="1050" 
d="M868 1767q-1 -130 -76 -204t-202 -74t-202.5 74t-76.5 204h109q0 -86 44 -133t126 -47t126 47t44 133h108zM961 1434v-150h-592q-34 0 -52 6l-4 -2q6 -18 6 -51v-330q0 -34 -6 -49l4 -4q12 6 52 6h526v-147h-526q-40 0 -52 6l-4 -4q6 -15 6 -51v-467q0 -34 -6 -52l4 -2
q21 7 52 7h600v-150h-807v1434h799z" />
    <glyph glyph-name="uni04D7" unicode="&#x4d7;" horiz-adv-x="1083" 
d="M842 1337q0 -137 -77.5 -215t-203.5 -78q-124 0 -202 78t-78 215h110q3 -92 47.5 -139t122.5 -47t123.5 47t48.5 139h109zM557 977q207 0 329 -134t122 -364v-30h-682q-76 0 -103 12l-4 -2l6 -21q9 -154 100.5 -240.5t243.5 -86.5q96 0 172 38.5t150 126.5l94 -96
q-163 -211 -420 -211q-221 0 -356 137.5t-135 364.5q0 230 131.5 368t351.5 138zM553 840q-138 0 -225.5 -77t-100.5 -212l2 -2q32 16 99 16h403q84 0 119 -14l2 2q-11 137 -89 212t-210 75z" />
    <glyph glyph-name="uni04D8" unicode="&#x4d8;" horiz-adv-x="1583" 
d="M774 1464q163 0 297.5 -51t229.5 -145.5t147.5 -235t52.5 -313.5q0 -223 -81.5 -391t-245.5 -263.5t-392 -95.5q-334 0 -518 199.5t-184 548.5v84h1177q43 0 78 -13l2 5q-9 25 -18 65q-28 203 -176 325t-377 122q-283 0 -490 -187l-98 131q116 101 268.5 158t327.5 57z
M1337 659q-25 -8 -88 -8h-909q-77 0 -100 8l-4 -4q15 -35 18 -75q27 -211 166 -331t371 -120q226 0 358 120t172 326q3 27 20 80z" />
    <glyph glyph-name="uni04D9" unicode="&#x4d9;" horiz-adv-x="1083" 
d="M526 -31q-207 0 -328.5 134t-121.5 364v31h682q73 0 102 -13l4 2l-6 21q-9 154 -100.5 241t-243.5 87q-96 0 -171 -38.5t-150 -127.5l-95 96q163 211 420 211q222 0 357 -137.5t135 -364.5q0 -230 -132 -368t-352 -138zM530 106q138 0 225.5 77t100.5 212l-2 2
q-32 -16 -98 -16h-404q-84 0 -119 14l-2 -2q11 -137 89 -212t210 -75z" />
    <glyph glyph-name="uni04DA" unicode="&#x4da;" horiz-adv-x="1583" 
d="M541 1747h149v-225h-149v225zM879 1747h149v-225h-149v225zM774 1464q163 0 297.5 -51t229.5 -145.5t147.5 -235t52.5 -313.5q0 -223 -81.5 -391t-245.5 -263.5t-392 -95.5q-334 0 -518 199.5t-184 548.5v84h1177q43 0 78 -13l2 5q-9 25 -18 65q-28 203 -176 325
t-377 122q-283 0 -490 -187l-98 131q116 101 268.5 158t327.5 57zM1337 659q-25 -8 -88 -8h-909q-77 0 -100 8l-4 -4q15 -35 18 -75q27 -211 166 -331t371 -120q226 0 358 120t172 326q3 27 20 80z" />
    <glyph glyph-name="uni04DB" unicode="&#x4db;" horiz-adv-x="1083" 
d="M463 1323v-248h-144v248h144zM752 1323v-248h-146v248h146zM526 -31q-207 0 -328.5 134t-121.5 364v31h682q73 0 102 -13l4 2l-6 21q-9 154 -100.5 241t-243.5 87q-96 0 -171 -38.5t-150 -127.5l-95 96q163 211 420 211q222 0 357 -137.5t135 -364.5q0 -230 -132 -368
t-352 -138zM530 106q138 0 225.5 77t100.5 212l-2 2q-32 -16 -98 -16h-404q-84 0 -119 14l-2 -2q11 -137 89 -212t210 -75z" />
    <glyph glyph-name="uni04DC" unicode="&#x4dc;" horiz-adv-x="1851" 
d="M682 1747h149v-225h-149v225zM1020 1747h149v-225h-149v225zM147 -6q-47 0 -94 6v156q50 -4 70 -4q63 0 102 30t56 97l69 290q25 104 77.5 143t168.5 44v8q-125 5 -185 49t-92 158l-59 213q-17 56 -56 80t-106 24q-17 0 -57 -4v150q58 6 94 6q110 0 172 -42.5t92 -144.5
l74 -249q26 -93 83.5 -135t152.5 -42h84q48 0 63 -6l2 2q-10 42 -10 82v529h156v-529q0 -36 -11 -82l2 -2q15 6 64 6h84q95 0 151.5 41.5t85.5 135.5l74 249q27 102 89.5 144.5t174.5 42.5q34 0 92 -6v-150q-36 4 -57 4q-68 0 -106.5 -24t-53.5 -80l-61 -213
q-32 -114 -92 -158t-185 -49v-8q117 -5 169 -44t77 -143l70 -290q18 -68 57 -97.5t103 -29.5q17 0 67 4v-156q-44 -6 -92 -6q-121 0 -186 49t-93 164l-75 319q-22 85 -72 124.5t-137 39.5h-84q-44 0 -64 4l-2 -2q11 -49 11 -86v-606h-156v606q0 41 10 86l-2 2q-20 -4 -63 -4
h-84q-87 0 -137 -39.5t-70 -124.5l-78 -319q-28 -115 -92.5 -164t-184.5 -49z" />
    <glyph glyph-name="uni04DD" unicode="&#x4dd;" horiz-adv-x="1382" 
d="M618 1323v-248h-143v248h143zM907 1323v-248h-145v248h145zM37 -6v131h59q45 0 69 19.5t38 64.5l45 158q20 65 65 93.5t131 31.5v6q-84 3 -131.5 32.5t-70.5 96.5l-43 112q-18 45 -41.5 63.5t-67.5 18.5h-51v131h86q133 0 176 -106l68 -164q26 -74 58.5 -100.5
t96.5 -26.5h41q44 0 64 -4l2 2q-10 31 -10 82v311h141v-311q0 -40 -10 -82l2 -2q20 4 63 4h39q64 0 97 26.5t61 100.5l65 164q46 106 176 106h88v-131h-53q-43 0 -66.5 -18.5t-41.5 -63.5l-41 -112q-24 -68 -71.5 -97t-131.5 -32v-6q86 -3 131 -31.5t64 -93.5l47 -158
q14 -46 37 -65t69 -19h60v-131h-101q-78 0 -122.5 33.5t-65.5 101.5l-49 170q-20 72 -55 102.5t-97 30.5h-39q-43 0 -63 4l-2 -2q10 -42 10 -86v-348h-141v348q0 55 10 86l-2 2q-20 -4 -64 -4h-41q-61 0 -96 -30.5t-55 -102.5l-49 -170q-38 -135 -187 -135h-100z" />
    <glyph glyph-name="uni04DE" unicode="&#x4de;" horiz-adv-x="1171" 
d="M336 1747h149v-225h-149v225zM674 1747h149v-225h-149v225zM551 -31q-282 0 -483 117l73 145q197 -108 416 -108q165 0 253.5 67t88.5 205q0 148 -102 217.5t-308 69.5h-198v152h196q175 0 267 64t92 189q0 107 -71.5 165.5t-213.5 58.5q-199 0 -405 -99l-60 146
q227 106 479 106q441 0 441 -352q0 -246 -238 -319q-77 -22 -151 -25v-6q87 0 151 -12q289 -59 289 -365q0 -202 -129 -309t-387 -107z" />
    <glyph glyph-name="uni04DF" unicode="&#x4df;" horiz-adv-x="911" 
d="M373 1323v-248h-144v248h144zM662 1323v-248h-146v248h146zM432 -31q-217 0 -391 94l63 130q163 -87 338 -87q121 0 183.5 37.5t62.5 124.5q0 88 -57 128t-185 40h-122v133h116q197 0 197 140q0 129 -205 129q-153 0 -315 -76l-56 131q197 84 381 84q168 0 259.5 -62
t91.5 -180q0 -100 -64 -158t-186 -67v-8q295 -13 295 -248q0 -138 -104.5 -211.5t-301.5 -73.5z" />
    <glyph glyph-name="uni04E0" unicode="&#x4e0;" horiz-adv-x="1146" 
d="M524 -31q-279 0 -491 133l71 152q209 -127 420 -127q169 0 258.5 73.5t89.5 217.5q0 154 -107 219t-333 65h-129v132l475 462l-4 4q-60 -18 -143 -18h-506v152h860v-148l-504 -469l4 -6q47 16 109 16q207 0 327.5 -105.5t120.5 -307.5q0 -213 -128 -329t-390 -116z" />
    <glyph glyph-name="uni04E1" unicode="&#x4e1;" horiz-adv-x="899" 
d="M403 -440q-245 0 -456 118l65 138q207 -115 398 -115q150 0 231.5 73t81.5 208q0 276 -352 276h-187v127l451 436l-4 4q-59 -20 -144 -20h-446v141h768v-147l-463 -434l4 -5q63 17 107 17q189 0 305.5 -103.5t116.5 -293.5q0 -194 -125.5 -307t-350.5 -113z" />
    <glyph glyph-name="uni04E2" unicode="&#x4e2;" horiz-adv-x="1474" 
d="M481 1677h582v-106h-582v106zM1294 1454h19v-1454h-158v872q0 172 16 256l-6 2q-26 -66 -112 -159l-875 -991h-16v1454h157v-871q0 -163 -18 -258l8 -2q28 70 113 162z" />
    <glyph glyph-name="uni04E3" unicode="&#x4e3;" horiz-adv-x="1103" 
d="M862 1364v-113h-577v113h577zM141 -16v962h148v-452q0 -138 -10 -240l6 -2q28 61 106 145l531 566h41v-963h-148v453q0 137 10 239l-6 2q-31 -67 -106 -145l-531 -565h-41z" />
    <glyph glyph-name="uni04E4" unicode="&#x4e4;" horiz-adv-x="1474" 
d="M528 1747h150v-225h-150v225zM866 1747h150v-225h-150v225zM1294 1454h19v-1454h-158v872q0 172 16 256l-6 2q-26 -66 -112 -159l-875 -991h-16v1454h157v-871q0 -163 -18 -258l8 -2q28 70 113 162z" />
    <glyph glyph-name="uni04E5" unicode="&#x4e5;" horiz-adv-x="1103" 
d="M500 1323v-248h-144v248h144zM788 1323v-248h-145v248h145zM141 -16v962h148v-452q0 -138 -10 -240l6 -2q28 61 106 145l531 566h41v-963h-148v453q0 137 10 239l-6 2q-31 -67 -106 -145l-531 -565h-41z" />
    <glyph glyph-name="uni04E6" unicode="&#x4e6;" horiz-adv-x="1654" 
d="M584 1747h149v-225h-149v225zM922 1747h149v-225h-149v225zM827 1464q214 0 385 -95.5t267 -266.5t96 -385t-96 -385t-267 -267t-385 -96t-385 96t-266.5 267t-95.5 385q0 160 56 299t154.5 237.5t237.5 154.5t299 56zM827 1305q-124 0 -231 -44t-182.5 -121.5
t-118.5 -186.5t-43 -236t43 -236t118.5 -186.5t182.5 -121.5t231 -44q253 0 415.5 165.5t162.5 422.5t-162.5 422.5t-415.5 165.5z" />
    <glyph glyph-name="uni04E7" unicode="&#x4e7;" horiz-adv-x="1173" 
d="M514 1323v-248h-143v248h143zM803 1323v-248h-146v248h146zM586 977q224 0 368 -142t144 -362q0 -219 -144 -361.5t-368 -142.5q-223 0 -367.5 143t-144.5 361q0 220 144.5 362t367.5 142zM586 831q-157 0 -257 -99.5t-100 -258.5q0 -158 100 -258t257 -100t256.5 100
t99.5 258q0 159 -99.5 258.5t-256.5 99.5z" />
    <glyph glyph-name="uni04E8" unicode="&#x4e8;" horiz-adv-x="1654" 
d="M827 1464q214 0 384.5 -95t267 -266t96.5 -386t-96.5 -386t-267 -266.5t-384.5 -95.5q-213 0 -383.5 95.5t-267 266.5t-96.5 386q0 161 56.5 300t155.5 237t237.5 154t297.5 56zM258 836q-4 -36 -16 -54l4 -4q18 6 57 6h1049q39 0 57 -6l4 4q-12 22 -16 49
q-15 98 -60.5 183t-117 150.5t-173 103t-219.5 37.5q-123 0 -227.5 -41.5t-173.5 -110t-111.5 -150t-56.5 -167.5zM1397 600q4 29 16 51l-4 4q-18 -6 -57 -6h-1049q-39 0 -57 6l-4 -4q11 -17 16 -49q15 -98 61 -183t117.5 -150t173 -102.5t219.5 -37.5q122 0 226 41.5
t173 110t112 150.5t57 169z" />
    <glyph glyph-name="uni04E9" unicode="&#x4e9;" horiz-adv-x="1167" 
d="M584 977q223 0 366.5 -142t143.5 -362t-143.5 -362t-366.5 -142q-222 0 -366 142.5t-144 361.5t144 361.5t366 142.5zM936 508l4 2q-17 151 -112 236t-244 85t-244.5 -85t-112.5 -236l4 -2q28 14 103 14h500q77 0 102 -14zM584 115q149 0 244 85t112 236l-4 2
q-25 -14 -102 -14h-500q-75 0 -103 14l-4 -2q17 -151 112.5 -236t244.5 -85z" />
    <glyph glyph-name="uni04EA" unicode="&#x4ea;" horiz-adv-x="1654" 
d="M733 1747v-225h-149v225h149zM1071 1747v-225h-149v225h149zM827 1464q214 0 384.5 -95t267 -266t96.5 -386t-96.5 -386t-267 -266.5t-384.5 -95.5q-213 0 -383.5 95.5t-267 266.5t-96.5 386q0 161 56.5 300t155.5 237t237.5 154t297.5 56zM258 836q-4 -36 -16 -54l4 -4
q18 6 57 6h1049q39 0 57 -6l4 4q-12 22 -16 49q-15 98 -60.5 183t-117 150.5t-173 103t-219.5 37.5q-123 0 -227.5 -41.5t-173.5 -110t-111.5 -150t-56.5 -167.5zM1397 600q4 29 16 51l-4 4q-18 -6 -57 -6h-1049q-39 0 -57 6l-4 -4q11 -17 16 -49q15 -98 61 -183t117.5 -150
t173 -102.5t219.5 -37.5q122 0 226 41.5t173 110t112 150.5t57 169z" />
    <glyph glyph-name="uni04EB" unicode="&#x4eb;" horiz-adv-x="1167" 
d="M508 1323v-248h-143v248h143zM797 1323v-248h-146v248h146zM584 977q223 0 366.5 -142t143.5 -362t-143.5 -362t-366.5 -142q-222 0 -366 142.5t-144 361.5t144 361.5t366 142.5zM936 508l4 2q-17 151 -112 236t-244 85t-244.5 -85t-112.5 -236l4 -2q28 14 103 14h500
q77 0 102 -14zM584 115q149 0 244 85t112 236l-4 2q-25 -14 -102 -14h-500q-75 0 -103 14l-4 -2q17 -151 112.5 -236t244.5 -85z" />
    <glyph glyph-name="uni04EC" unicode="&#x4ec;" horiz-adv-x="1404" 
d="M362 1747h150v-225h-150v225zM700 1747h150v-225h-150v225zM594 -31q-292 0 -526 156l82 139q199 -135 450 -135q217 0 361.5 123t181.5 340q5 31 12 53l-2 2q-18 -6 -59 -6h-666v152h666q38 0 59 -7l2 5q-6 16 -12 51q-37 217 -181.5 340t-361.5 123q-249 0 -450 -136
l-82 140q232 155 526 155q332 0 531.5 -202.5t199.5 -544.5t-199.5 -545t-531.5 -203z" />
    <glyph glyph-name="uni04ED" unicode="&#x4ed;" horiz-adv-x="978" 
d="M397 1323v-248h-143v248h143zM686 1323v-248h-145v248h145zM412 -31q-202 0 -353 97l68 127q136 -80 281 -80q123 0 206 67t107 174q14 54 20 64l-2 2q-16 -10 -53 -10h-379v127h379q35 0 53 -11l2 2q-9 16 -20 64q-26 108 -109 175t-204 67q-145 0 -281 -80l-68 127
q150 96 353 96q221 0 352 -138.5t131 -365.5t-131 -365.5t-352 -138.5z" />
    <glyph glyph-name="uni04EE" unicode="&#x4ee;" horiz-adv-x="1257" 
d="M342 1677h582v-106h-582v106zM332 -14q-72 0 -158 12l2 152q74 -15 154 -15q72 0 128.5 47t108.5 174l-549 1078h189l360 -732q50 -102 62.5 -134.5t21.5 -82.5h6q8 62 20.5 104.5t47.5 119.5l336 725h178l-524 -1127q-74 -179 -166 -250t-217 -71z" />
    <glyph glyph-name="uni04EF" unicode="&#x4ef;" horiz-adv-x="978" 
d="M784 1241v-113h-577v113h577zM958 946l-583 -1358h-154l205 478l-406 880h170l248 -567q29 -67 41 -105.5t15 -87.5h8q8 77 51 179l246 581h159z" />
    <glyph glyph-name="uni04F0" unicode="&#x4f0;" horiz-adv-x="1257" 
d="M389 1747h150v-225h-150v225zM727 1747h150v-225h-150v225zM332 -14q-72 0 -158 12l2 152q74 -15 154 -15q72 0 128.5 47t108.5 174l-549 1078h189l360 -732q50 -102 62.5 -134.5t21.5 -82.5h6q8 62 20.5 104.5t47.5 119.5l336 725h178l-524 -1127q-74 -179 -166 -250
t-217 -71z" />
    <glyph glyph-name="uni04F1" unicode="&#x4f1;" horiz-adv-x="978" 
d="M422 1323v-248h-143v248h143zM711 1323v-248h-146v248h146zM958 946l-583 -1358h-154l205 478l-406 880h170l248 -567q29 -67 41 -105.5t15 -87.5h8q8 77 51 179l246 581h159z" />
    <glyph glyph-name="uni04F2" unicode="&#x4f2;" horiz-adv-x="1257" 
d="M797 1747l2 -6l-205 -219h-109v4l193 221h119zM696 1526l193 221h119l2 -6l-203 -219h-109zM332 -14q-72 0 -158 12l2 152q74 -15 154 -15q72 0 128.5 47t108.5 174l-549 1078h189l360 -732q50 -102 62.5 -134.5t21.5 -82.5h6q8 62 20.5 104.5t47.5 119.5l336 725h178
l-524 -1127q-74 -179 -166 -250t-217 -71z" />
    <glyph glyph-name="uni04F3" unicode="&#x4f3;" horiz-adv-x="978" 
d="M324 1030l-2 4l227 312h125l2 -5l-238 -311h-114zM543 1030l-2 4l225 312h127l2 -5l-240 -311h-112zM958 946l-583 -1358h-154l205 478l-406 880h170l248 -567q29 -67 41 -105.5t15 -87.5h8q8 77 51 179l246 581h159z" />
    <glyph glyph-name="uni04F4" unicode="&#x4f4;" horiz-adv-x="1216" 
d="M334 1747h149v-225h-149v225zM672 1747h149v-225h-149v225zM897 0v571q0 56 10 76l-4 4q-233 -80 -461 -80q-399 0 -399 435v428h158v-426q0 -285 256 -285q99 0 198.5 17.5t241.5 58.5v635h158v-1434h-158z" />
    <glyph glyph-name="uni04F5" unicode="&#x4f5;" horiz-adv-x="937" 
d="M344 1323v-248h-143v248h143zM633 1323v-248h-146v248h146zM659 946h148v-676v-270h-148v338q0 64 11 84l-4 2q-166 -66 -310 -66q-166 0 -248.5 78.5t-82.5 243.5v266h147v-254q0 -104 51 -148t156 -44q118 0 280 61v385z" />
    <glyph glyph-name="uni04F8" unicode="&#x4f8;" horiz-adv-x="1566" 
d="M709 1747v-225h-150v225h150zM1047 1747v-225h-150v225h150zM678 838q211 0 334 -114t123 -306q0 -191 -123 -304.5t-334 -113.5h-516v993v441h157v-549q0 -33 -6 -51l4 -3q21 7 52 7h309zM1245 1434h158v-1434h-158v1434zM664 150q147 0 225 71t78 197t-78.5 198
t-224.5 72h-295q-34 0 -52 6l-4 -2q6 -18 6 -51v-444q0 -34 -6 -52l4 -2q21 7 52 7h295z" />
    <glyph glyph-name="uni04F9" unicode="&#x4f9;" horiz-adv-x="1261" 
d="M563 1323v-248h-143v248h143zM852 1323v-248h-145v248h145zM563 600q148 0 236 -80.5t88 -218.5q0 -136 -89.5 -218.5t-236.5 -82.5h-420v690v256h148v-299q0 -35 -10 -55l2 -2q17 10 57 10h225zM973 946h145v-946h-145v946zM553 137q85 0 131.5 43.5t46.5 118.5
q0 76 -46.5 120t-131.5 44h-215q-38 0 -57 8l-2 -2q10 -20 10 -55v-230q0 -26 -10 -53l2 -2q19 8 57 8h215z" />
    <glyph glyph-name="uni04FC" unicode="&#x4fc;" horiz-adv-x="1234" 
d="M1047 262q86 -134 124.5 -221.5t38.5 -179.5q0 -131 -83.5 -201t-241.5 -70h-88v152h88q80 0 123 33.5t43 99.5q0 63 -32 125t-136 223l-158 246q-85 122 -100 182h-9q-14 -45 -100 -182l-301 -469h-190l358 551q114 176 141 203v6q-18 23 -34.5 45.5t-27.5 39.5
t-36.5 57.5t-46.5 72.5l-297 459h190l244 -383q5 -8 16 -25.5t15.5 -25.5t13.5 -23t13.5 -23t11.5 -20t10.5 -19.5t8 -16.5t7 -16.5l4.5 -13.5h9q10 38 100 183l244 383h190l-299 -461q-126 -194 -143 -213v-6q35 -42 139 -203z" />
    <glyph glyph-name="uni04FD" unicode="&#x4fd;" horiz-adv-x="980" 
d="M616 -410v140h95q65 0 95 28.5t30 89.5q0 54 -27 103t-102 149l-146 191q-42 58 -69 129h-5q-8 -20 -15.5 -37t-17 -32.5t-14 -22t-14.5 -20.5l-10 -15l-219 -293h-177l322 430q36 51 55 62v6q-20 12 -55 63l-283 385h177l180 -246q49 -69 71 -135h5q19 63 71 135
l180 246h177l-281 -385q-36 -48 -57 -63v-6q23 -11 55 -62l223 -307q60 -82 90.5 -149t30.5 -138q0 -124 -72 -185t-198 -61h-95z" />
    <glyph glyph-name="uni0510" unicode="&#x510;" horiz-adv-x="1173" 
d="M621 -31q-257 0 -387 107t-130 309q0 155 75.5 245.5t213.5 119.5q64 12 154 12v6q-73 2 -154 25q-235 73 -235 319q0 352 440 352q250 0 477 -106l-59 -146q-203 99 -404 99q-142 0 -214 -58.5t-72 -165.5q0 -125 91.5 -189t266.5 -64h197v-152h-199q-206 0 -308 -69.5
t-102 -217.5q0 -138 89 -205t253 -67q219 0 416 108l74 -145q-198 -117 -483 -117z" />
    <glyph glyph-name="uni0511" unicode="&#x511;" horiz-adv-x="913" 
d="M479 -31q-196 0 -300.5 73.5t-104.5 211.5q0 235 295 248v8q-122 9 -186 67t-64 158q0 118 91 180t259 62q186 0 383 -84l-55 -131q-166 76 -318 76q-205 0 -205 -129q0 -140 199 -140h115v-133h-123q-128 0 -185 -40t-57 -128q0 -87 63 -124.5t185 -37.5q171 0 338 87
l61 -130q-174 -94 -391 -94z" />
    <glyph glyph-name="uni0512" unicode="&#x512;" horiz-adv-x="1501" 
d="M1339 1434v-1434h-2v-82q0 -328 -321 -328h-109v152h111q79 0 120.5 41t41.5 135v320l2 -2v1001q0 33 6 51l-4 2q-21 -6 -51 -6h-631q-32 0 -53 6l-3 -2q7 -21 7 -51v-918q0 -169 -69 -249t-218 -80q-42 0 -115 6v149q43 -4 101 -4q75 0 109 39t34 131v1123h1044z" />
    <glyph glyph-name="uni0513" unicode="&#x513;" horiz-adv-x="1075" 
d="M944 946v-946v-94q0 -155 -76.5 -235.5t-214.5 -80.5h-108v144h108q71 0 107.5 44.5t36.5 127.5v94v762q0 26 10 53l-2 2q-16 -8 -57 -8h-328q-39 0 -58 8l-2 -2q11 -22 11 -53v-483q0 -142 -67 -213.5t-195 -71.5h-84v135h84q59 0 87.5 37t28.5 119v661h719z" />
    <glyph glyph-name="uni051C" unicode="&#x51c;" horiz-adv-x="1939" 
d="M981 1458l307 -872q35 -97 49 -148.5t25 -122.5h8q9 67 23 120t47 147l289 852h182l-537 -1459h-16l-342 945q-33 88 -43 182h-8q-6 -91 -41 -182l-342 -945h-17l-536 1459h182l289 -852q55 -157 69 -267h9q11 72 24.5 124t48.5 147l307 872h23z" />
    <glyph glyph-name="uni051D" unicode="&#x51d;" horiz-adv-x="1447" 
d="M406 -14l-386 960h168l189 -516q24 -64 33 -98t12 -78h8q6 43 17.5 78.5t39.5 101.5l220 529h34l220 -529q28 -66 39.5 -101.5t17.5 -78.5h8q4 67 43 176l191 516h167l-385 -960h-34l-236 557q-38 90 -45 155h-8q-3 -40 -11.5 -69.5t-31.5 -85.5l-236 -557h-34z" />
    <glyph glyph-name="uni0524" unicode="&#x524;" horiz-adv-x="1415" 
d="M1270 104h100v-391h-149v287h-109v1237q0 33 6 51l-4 2q-21 -6 -51 -6h-694q-34 0 -52 6l-4 -2q6 -18 6 -51v-1237h-157v1434h1108v-1330z" />
    <glyph glyph-name="uni0525" unicode="&#x525;" horiz-adv-x="1062" 
d="M954 88h76v-375h-137v287h-86v762q0 33 10 53l-2 2q-16 -8 -57 -8h-420q-41 0 -57 8l-2 -2q10 -20 10 -53v-762h-148v946h813v-858z" />
    <glyph glyph-name="uni0526" unicode="&#x526;" horiz-adv-x="1327" 
d="M1174 104h108v-391h-149v287h-117v426q0 285 -256 285q-99 0 -198 -17.5t-243 -58.5v-635h-157v1434h157v-572q0 -56 -10 -76l4 -4q233 80 461 80q400 0 400 -434v-324z" />
    <glyph glyph-name="uni0527" unicode="&#x527;" horiz-adv-x="1130" 
d="M997 88h101v-375h-135v287h-113v563q0 131 -63 202t-181 71q-148 0 -230.5 -105t-82.5 -293v-438h-148v1464h148v-538q0 -133 -19 -230l9 -2q95 283 366 283q167 0 257.5 -99t90.5 -282v-508z" />
    <glyph glyph-name="uni0E3F" unicode="&#xe3f;" horiz-adv-x="1112" 
d="M508 -178v131q0 36 6 51l-2 2q-21 -6 -51 -6h-299v1382h299q30 0 51 -6l2 2q-6 15 -6 52v131h61v-131q0 -38 -6 -50l2 -4q9 6 27 6q167 -5 265.5 -100t98.5 -258q0 -138 -77 -227.5t-211 -98.5v-4q163 -6 251.5 -95.5t88.5 -238.5q0 -165 -116 -262.5t-302 -97.5
q-16 0 -25 6l-2 -4q6 -12 6 -49v-131h-61zM303 752q14 6 64 6h82q49 0 63 -6l2 4q-6 15 -6 49v393q0 36 6 51l-2 4q-14 -6 -51 -6h-107q-37 0 -51 6l-2 -4q6 -15 6 -51v-393q0 -34 -6 -49zM565 752q112 9 172 77t60 181q0 111 -57.5 173t-172.5 68l-4 -2q6 -16 6 -51v-391
q0 -35 -8 -51zM303 129q14 6 51 6h107q37 0 51 -6l2 4q-6 15 -6 51v394q0 34 6 49l-2 4q-18 -8 -63 -8h-82q-46 0 -64 8l-2 -4q6 -15 6 -49v-394q0 -36 -6 -51zM565 131q140 1 211.5 64t71.5 184q0 113 -72.5 180.5t-210.5 71.5l-4 -4q8 -19 8 -49v-394q0 -37 -6 -51z" />
    </font>
</defs>
</svg>
