<?xml version="1.0" standalone="no"?>
<!DOCTYPE svg PUBLIC "-//W3C//DTD SVG 1.1//EN" "http://www.w3.org/Graphics/SVG/1.1/DTD/svg11.dtd" >
<svg xmlns="http://www.w3.org/2000/svg" xmlns:xlink="http://www.w3.org/1999/xlink" version="1.1">
<metadata>
Created by FontForge 20170731 at Sat Jul 23 01:52:09 2022
 By Aleksey,,,
Copyright (c) 2015 by Reto Moser. All rights reserved.
</metadata>
<defs>
<font id="GTEestiProText-BookItalic" horiz-adv-x="1228" >
  <font-face 
    font-family="GT Eesti Pro Text Book"
    font-weight="300"
    font-style="italic"
    font-stretch="normal"
    units-per-em="2048"
    panose-1="0 0 4 0 0 0 0 0 0 0"
    ascent="1536"
    descent="-512"
    x-height="946"
    cap-height="1434"
    bbox="-657 -516 2386 1855"
    underline-thickness="102"
    underline-position="-307"
    slope="-11"
    unicode-range="U+0020-FB02"
  />
<missing-glyph horiz-adv-x="1609" 
d="M852 -31q-213 0 -384 96.5t-267.5 267.5t-96.5 384q0 214 96.5 385t267.5 266.5t384 95.5q160 0 299 -56t237.5 -154.5t154.5 -237.5t56 -299q0 -213 -95.5 -384t-266.5 -267.5t-385 -96.5zM852 20q199 0 359 91t250.5 253t90.5 363l-104 133l-143 -61l-140 184l-161 -90
l-152 242l-152 -242l-161 90l-140 -184l-143 61l-104 -133q0 -201 90.5 -363t250.5 -253t359 -91zM641 651q-31 0 -51.5 20.5t-20.5 51.5t20.5 51.5t51.5 20.5t51.5 -20.5t20.5 -51.5t-20.5 -51.5t-51.5 -20.5zM1061 651q-31 0 -51.5 20.5t-20.5 51.5t20.5 51.5t51.5 20.5
t51.5 -20.5t20.5 -51.5t-20.5 -51.5t-51.5 -20.5zM766 522l74 207q3 17 22 10q6 -2 9.5 -8.5t0.5 -13.5l-57 -160h70q7 0 12.5 -5.5t5.5 -12.5q0 -6 -5.5 -11.5t-12.5 -5.5h-119zM449 350q-61 0 -101.5 40t-40.5 102q0 61 40 101t102 40q61 0 101 -39.5t40 -101.5t-40 -102
t-101 -40zM1253 350q-61 0 -101 40t-40 102t40 101.5t101 39.5q62 0 102 -40t40 -101q0 -62 -40.5 -102t-101.5 -40zM852 395q-96 0 -127 -61q-6 -12 -18 -12q-17 0 -17 18q0 35 50 63.5t112 28.5t112 -28.5t50 -63.5q0 -18 -17 -18q-12 0 -18 12q-31 61 -127 61z" />
    <glyph glyph-name="fi" unicode="fi" horiz-adv-x="1112" 
d="M797 1452l-29 -162h-16q-97 0 -153.5 -52t-78.5 -161l-14 -78q-13 -50 -21 -63l4 -4q22 14 80 14h129l-32 -164h-127q-61 0 -76 15l-6 -4q2 -26 -11 -99l-133 -694h-174l133 694q7 45 29 99l-2 4q-25 -15 -84 -15h-102l30 164h103q58 0 78 -14l4 4q-3 19 4 61l20 113
q32 167 130 254.5t253 87.5h62zM1171 1434l-51 -269h-196l53 269h194zM1067 946l-184 -946h-174l184 946h174z" />
    <glyph glyph-name="fl" unicode="fl" horiz-adv-x="1118" 
d="M1169 1464l-284 -1464h-174l284 1464h174zM797 1452l-29 -162h-16q-97 0 -153.5 -52t-78.5 -161l-14 -78q-13 -50 -21 -63l4 -4q22 14 80 14h129l-32 -164h-127q-61 0 -76 15l-6 -4q2 -26 -11 -99l-133 -694h-174l133 694q7 45 29 99l-2 4q-25 -15 -84 -15h-102l30 164
h103q58 0 78 -14l4 4q-3 19 4 61l20 113q32 167 130 254.5t253 87.5h62z" />
    <glyph glyph-name="f_f" unicode="ff" horiz-adv-x="1329" 
d="M797 1452l-29 -162h-16q-97 0 -153.5 -52t-78.5 -161l-14 -78q-13 -50 -21 -63l4 -4q22 14 80 14h129l-32 -164h-127q-61 0 -76 15l-6 -4q2 -26 -11 -99l-133 -694h-174l133 694q7 45 29 99l-2 4q-25 -15 -84 -15h-102l30 164h103q58 0 78 -14l4 4q-3 19 4 61l20 113
q32 167 130 254.5t253 87.5h62zM1460 1452l-28 -162h-17q-97 0 -153 -52t-78 -161l-15 -78q-14 -53 -20 -63l4 -4q22 14 80 14h129l-33 -164h-127q-61 0 -76 15l-6 -4q2 -30 -10 -99l-133 -694h-174l133 694q7 45 29 99l-2 4q-25 -15 -84 -15h-103l31 164h102q58 0 78 -14
l4 4q-3 19 4 61l21 113q32 167 130 254.5t253 87.5h61z" />
    <glyph glyph-name="f_f_i" unicode="ffi" horiz-adv-x="1777" 
d="M797 1452l-29 -162h-16q-97 0 -153.5 -52t-78.5 -161l-14 -78q-13 -50 -21 -63l4 -4q22 14 80 14h129l-32 -164h-127q-61 0 -76 15l-6 -4q2 -26 -11 -99l-133 -694h-174l133 694q7 45 29 99l-2 4q-25 -15 -84 -15h-102l30 164h103q58 0 78 -14l4 4q-3 19 4 61l20 113
q32 167 130 254.5t253 87.5h62zM1460 1452l-28 -162h-17q-97 0 -153 -52t-78 -161l-15 -78q-14 -53 -20 -63l4 -4q22 14 80 14h129l-33 -164h-127q-61 0 -76 15l-6 -4q2 -30 -10 -99l-133 -694h-174l133 694q7 45 29 99l-2 4q-25 -15 -84 -15h-103l31 164h102q58 0 78 -14
l4 4q-3 19 4 61l21 113q32 167 130 254.5t253 87.5h61zM1837 1434l-51 -269h-197l53 269h195zM1733 946l-185 -946h-174l185 946h174z" />
    <glyph glyph-name="f_f_l" unicode="ffl" horiz-adv-x="1781" 
d="M1835 1464l-285 -1464h-174l285 1464h174zM797 1452l-29 -162h-16q-97 0 -153.5 -52t-78.5 -161l-14 -78q-13 -50 -21 -63l4 -4q22 14 80 14h129l-32 -164h-127q-61 0 -76 15l-6 -4q2 -26 -11 -99l-133 -694h-174l133 694q7 45 29 99l-2 4q-25 -15 -84 -15h-102l30 164
h103q58 0 78 -14l4 4q-3 19 4 61l20 113q32 167 130 254.5t253 87.5h62zM1460 1452l-28 -162h-17q-97 0 -153 -52t-78 -161l-15 -78q-14 -53 -20 -63l4 -4q22 14 80 14h129l-33 -164h-127q-61 0 -76 15l-6 -4q2 -30 -10 -99l-133 -694h-174l133 694q7 45 29 99l-2 4
q-25 -15 -84 -15h-103l31 164h102q58 0 78 -14l4 4q-3 19 4 61l21 113q32 167 130 254.5t253 87.5h61z" />
    <glyph glyph-name=".notdef" horiz-adv-x="1609" 
d="M852 -31q-213 0 -384 96.5t-267.5 267.5t-96.5 384q0 214 96.5 385t267.5 266.5t384 95.5q160 0 299 -56t237.5 -154.5t154.5 -237.5t56 -299q0 -213 -95.5 -384t-266.5 -267.5t-385 -96.5zM852 20q199 0 359 91t250.5 253t90.5 363l-104 133l-143 -61l-140 184l-161 -90
l-152 242l-152 -242l-161 90l-140 -184l-143 61l-104 -133q0 -201 90.5 -363t250.5 -253t359 -91zM641 651q-31 0 -51.5 20.5t-20.5 51.5t20.5 51.5t51.5 20.5t51.5 -20.5t20.5 -51.5t-20.5 -51.5t-51.5 -20.5zM1061 651q-31 0 -51.5 20.5t-20.5 51.5t20.5 51.5t51.5 20.5
t51.5 -20.5t20.5 -51.5t-20.5 -51.5t-51.5 -20.5zM766 522l74 207q3 17 22 10q6 -2 9.5 -8.5t0.5 -13.5l-57 -160h70q7 0 12.5 -5.5t5.5 -12.5q0 -6 -5.5 -11.5t-12.5 -5.5h-119zM449 350q-61 0 -101.5 40t-40.5 102q0 61 40 101t102 40q61 0 101 -39.5t40 -101.5t-40 -102
t-101 -40zM1253 350q-61 0 -101 40t-40 102t40 101.5t101 39.5q62 0 102 -40t40 -101q0 -62 -40.5 -102t-101.5 -40zM852 395q-96 0 -127 -61q-6 -12 -18 -12q-17 0 -17 18q0 35 50 63.5t112 28.5t112 -28.5t50 -63.5q0 -18 -17 -18q-12 0 -18 12q-31 61 -127 61z" />
    <glyph glyph-name=".null" horiz-adv-x="0" 
 />
    <glyph glyph-name="nonmarkingreturn" horiz-adv-x="682" 
 />
    <glyph glyph-name="NULL" horiz-adv-x="8" 
 />
    <glyph glyph-name="NULL" horiz-adv-x="8" 
 />
    <glyph glyph-name="space" unicode=" " horiz-adv-x="622" 
 />
    <glyph glyph-name="exclam" unicode="!" horiz-adv-x="649" 
d="M616 1434l-241 -1006h-121l149 1006h213zM127 0l45 233h219l-47 -233h-217z" />
    <glyph glyph-name="quotedbl" unicode="&#x22;" horiz-adv-x="598" 
d="M457 1464l-144 -518h-71l57 518h158zM682 1464l-141 -518h-74l59 518h156z" />
    <glyph glyph-name="numbersign" unicode="#" 
d="M1247 936h-252l-147 -385h252l-19 -90h-266l-174 -461h-98l174 461h-303l-174 -461h-99l174 461h-247l18 90h262l148 385h-263l19 90h276l154 408h98l-153 -408h303l153 408h99l-154 -408h238zM750 551l145 385h-301l-145 -385h301z" />
    <glyph glyph-name="dollar" unicode="$" horiz-adv-x="1085" 
d="M399 -168l19 88q12 50 16 57l-4 3q-22 -6 -49 2q-217 42 -369 180l107 145q134 -114 295 -153q34 -8 49 -15l4 2q-2 21 4 58l88 450l-119 96q-176 136 -176 324q0 147 107.5 245.5t296.5 98.5q26 0 41 -6l2 2q-2 14 4 43l18 98h62l-19 -98q-8 -37 -14 -47l2 -2q9 1 41 -4
q133 -28 272 -113l-100 -156q-115 71 -205 95q-32 11 -39 18l-4 -2q2 -22 -4 -59l-72 -365l127 -100q103 -81 149 -169t46 -192q0 -186 -121 -287.5t-324 -101.5q-29 0 -43 6l-6 -2q5 -20 -2 -53l-18 -86h-62zM602 846l2 2q0 30 6 70l54 266q4 22 14 61l-2 2q-6 -4 -17 -4
q-104 0 -157 -50t-53 -124q0 -54 33.5 -100t95.5 -92q13 -9 24 -31zM520 135q8 2 25.5 4t19.5 2q107 6 166.5 60.5t59.5 146.5q0 62 -35 117t-111 115q-26 18 -35 38l-2 -2q0 -19 -8 -69l-68 -348q-9 -45 -14 -60z" />
    <glyph glyph-name="percent" unicode="%" horiz-adv-x="1615" 
d="M532 793q-131 0 -218 76t-87 212q0 95 43 177t126.5 134t189.5 52q131 0 219 -76t88 -213q0 -94 -43 -176t-127 -134t-191 -52zM274 0l1008 1382h109l-1008 -1382h-109zM539 897q61 0 109.5 24.5t77 63t43.5 82t15 86.5q0 87 -56.5 136.5t-145.5 49.5q-61 0 -110 -24.5
t-78 -63t-44.5 -82t-15.5 -86.5q0 -87 57.5 -136.5t147.5 -49.5zM1124 -10q-131 0 -218 76t-87 213q0 94 42.5 176t126 134t190.5 52q131 0 218 -76.5t87 -212.5q0 -95 -43 -177t-126.5 -133.5t-189.5 -51.5zM1128 94q61 0 110 24.5t78 63t44.5 82t15.5 86.5q0 87 -57.5 137
t-147.5 50q-61 0 -109.5 -24.5t-77 -63t-43.5 -82t-15 -86.5q0 -87 56.5 -137t145.5 -50z" />
    <glyph glyph-name="ampersand" unicode="&#x26;" horiz-adv-x="1380" 
d="M1063 1382l61 -153l-2 -6h-420q-60 0 -98 14l-2 -4l424 -832h2q4 15 37 60q102 132 164 237l151 -82q-122 -208 -217 -311q-22 -28 -57 -49v-2l131 -250l-2 -4h-207l-70 143h-2q-20 -60 -150.5 -117t-250.5 -57q-209 0 -337 119t-128 311q0 173 105.5 297t306.5 187
q61 15 65 14l2 2l-250 479l3 4h741zM635 766h-2q-7 -18 -55 -31q-154 -52 -225.5 -129t-71.5 -190q0 -124 78.5 -199.5t207.5 -75.5q62 0 122.5 22.5t139.5 74.5q41 24 62 24l2 2z" />
    <glyph glyph-name="quotesingle" unicode="'" horiz-adv-x="387" 
d="M473 1464l-143 -518h-88l57 518h174z" />
    <glyph glyph-name="parenleft" unicode="(" horiz-adv-x="690" 
d="M715 1573l123 -111q-94 -97 -167.5 -186t-143.5 -199.5t-116 -221t-74 -243.5t-28 -274q0 -197 47.5 -380.5t124.5 -322.5l-141 -71q-199 370 -199 774q0 129 21.5 253.5t54.5 224.5t84.5 201t98 173.5t110.5 152t106 125.5t99 105z" />
    <glyph glyph-name="parenright" unicode=")" horiz-adv-x="690" 
d="M14 -436l-125 110q94 96 168 185.5t144.5 200t116.5 221.5t74 244t28 274q0 196 -48.5 379t-125.5 323l141 72q201 -364 201 -774q0 -128 -22 -253t-54.5 -224.5t-84.5 -201.5t-98 -173.5t-110.5 -152t-105.5 -125.5t-99 -105z" />
    <glyph glyph-name="asterisk" unicode="*" horiz-adv-x="845" 
d="M406 784l-115 84l190 219l-282 68l43 133l268 -112l-25 288h142l-25 -288l266 112l45 -133l-282 -68l188 -219l-112 -82l-150 248z" />
    <glyph glyph-name="plus" unicode="+" 
d="M686 1108v-457h455v-82h-455v-458h-90v458h-455v82h455v457h90z" />
    <glyph glyph-name="comma" unicode="," horiz-adv-x="503" 
d="M-49 -342l180 547h207l-289 -547h-98z" />
    <glyph glyph-name="hyphen" unicode="-" horiz-adv-x="792" 
d="M727 635l-33 -168h-598l31 168h600z" />
    <glyph glyph-name="period" unicode="." horiz-adv-x="448" 
d="M23 0l45 233h219l-45 -233h-219z" />
    <glyph glyph-name="slash" unicode="/" horiz-adv-x="1163" 
d="M47 -186l-100 67l1251 1673l102 -69z" />
    <glyph glyph-name="zero" unicode="0" horiz-adv-x="1191" 
d="M559 -31q-207 0 -319.5 136.5t-112.5 388.5q0 261 75 470.5t211 329t308 119.5q207 0 318.5 -136t111.5 -388q0 -261 -74.5 -470.5t-210 -329.5t-307.5 -120zM561 137q119 0 212.5 99.5t144.5 272t51 386.5q0 165 -66 257.5t-184 92.5q-119 0 -213 -99.5t-145.5 -272.5
t-51.5 -386q0 -164 67 -257t185 -93z" />
    <glyph glyph-name="one" unicode="1" horiz-adv-x="698" 
d="M674 1382l-268 -1382h-177l174 891q18 94 50 176l-4 4q-32 -35 -87 -61l-198 -97l35 181l293 176l53 112h129z" />
    <glyph glyph-name="two" unicode="2" horiz-adv-x="1015" 
d="M668 1413q182 0 283.5 -83t101.5 -238q0 -106 -56 -201t-204 -248l-340 -340q-119 -116 -174 -149v-4q111 18 213 18h397l2 -4l-125 -164h-842l-2 8l729 727q113 113 163 190t50 152q0 80 -54.5 123t-143.5 43q-160 0 -359 -110l-74 151q242 129 435 129z" />
    <glyph glyph-name="three" unicode="3" horiz-adv-x="1024" 
d="M610 1413q180 0 275.5 -78.5t95.5 -226.5q0 -121 -71.5 -204t-204.5 -122q-81 -13 -93 -14l-2 -8q37 0 82 -10q110 -27 174 -113t64 -217q0 -206 -146 -328.5t-401 -122.5q-236 0 -422 111l86 156q89 -52 166 -74.5t168 -22.5q174 0 268 73.5t94 209.5q0 132 -94.5 194
t-292.5 62l31 158q183 0 293.5 64.5t110.5 178.5q0 80 -54 123t-147 43q-151 0 -320 -88l-71 152q213 104 411 104z" />
    <glyph glyph-name="four" unicode="4" horiz-adv-x="1132" 
d="M1057 1382l-174 -895q-7 -33 -15 -47l4 -4q8 4 37 4h189l-88 -168h-131q-23 0 -37 7l-4 -5q0 -10 -7 -45l-43 -229h-167l43 227q9 44 10 47v5q-21 -7 -41 -7h-637l27 148l874 962h160zM840 1128q-43 -80 -119 -161l-369 -398q-96 -108 -137 -137l4 -4q37 12 178 12h262
q33 0 43 -4l3 2q0 5 8 51l90 457q19 109 43 180z" />
    <glyph glyph-name="five" unicode="5" horiz-adv-x="954" 
d="M1106 1382l-100 -174h-369q-43 0 -51 2l-4 -2q-9 -35 -35 -92l-74 -149q-31 -56 -57 -82l2 -4q50 12 88 12q184 0 293.5 -109.5t109.5 -304.5q0 -232 -146 -371t-405 -139q-237 0 -419 119l94 158q169 -109 338 -109t261.5 93.5t92.5 240.5q0 266 -311 266
q-96 0 -236 -28l-6 6l330 667h604z" />
    <glyph glyph-name="six" unicode="6" horiz-adv-x="1107" 
d="M522 -31q-214 0 -340.5 116.5t-126.5 320.5q0 151 80 293.5t291 357.5l344 350h240l-418 -401q-130 -125 -221 -248l4 -4q127 147 291 147q167 0 276 -117.5t109 -304.5q0 -225 -149 -367.5t-380 -142.5zM520 139q151 0 247.5 92.5t96.5 241.5q0 125 -75 192.5t-199 69.5
q-151 2 -252.5 -94t-101.5 -242q0 -119 76.5 -189.5t207.5 -70.5z" />
    <glyph glyph-name="seven" unicode="7" horiz-adv-x="890" 
d="M1059 1382l2 -4l-856 -1378h-195l668 1047q15 25 36 58.5t29 46.5t19 30.5t17.5 25.5t13.5 15l-5 4q-47 -13 -163 -13h-463l102 168h795z" />
    <glyph glyph-name="eight" unicode="8" horiz-adv-x="1124" 
d="M504 -31q-205 0 -325 99t-120 268q0 160 105 269t282 140v5q-213 61 -213 272q0 172 133.5 281.5t344.5 109.5q190 0 299.5 -90t109.5 -244q0 -136 -87 -227.5t-238 -114.5v-4q114 -22 174.5 -100.5t60.5 -204.5q0 -201 -144 -330t-382 -129zM641 817q130 0 211.5 68
t81.5 174q0 91 -60 140.5t-169 49.5q-128 0 -209.5 -67t-81.5 -174q0 -91 60 -141t167 -50zM516 133q157 0 245.5 81.5t88.5 215.5q0 227 -252 227q-154 0 -252 -84t-98 -217q0 -107 69.5 -165t198.5 -58z" />
    <glyph glyph-name="nine" unicode="9" horiz-adv-x="1071" 
d="M184 0l437 430q129 124 202 213l-6 4q-145 -160 -313 -160q-159 0 -267 120.5t-108 295.5q0 142 66.5 258.5t186.5 184t269 67.5q207 0 334 -119t127 -327q0 -152 -71 -282.5t-257 -313.5l-381 -371h-219zM582 653q150 0 252 94t102 238q0 120 -77.5 189t-209.5 69
q-150 0 -243 -94t-93 -240q0 -119 71.5 -187.5t197.5 -68.5z" />
    <glyph glyph-name="colon" unicode=":" horiz-adv-x="454" 
d="M166 713l45 233h219l-45 -233h-219zM25 0l45 233h219l-45 -233h-219z" />
    <glyph glyph-name="semicolon" unicode=";" horiz-adv-x="503" 
d="M203 713l45 233h219l-45 -233h-219zM-49 -342l180 547h207l-289 -547h-98z" />
    <glyph glyph-name="less" unicode="&#x3c;" 
d="M1057 1061v-100l-801 -349l801 -346v-100l-910 401v92z" />
    <glyph glyph-name="equal" unicode="=" 
d="M1159 842v-86h-1036v86h1036zM1161 467l-2 -84h-1036l2 84h1036z" />
    <glyph glyph-name="greater" unicode="&#x3e;" 
d="M227 1061l910 -402v-92l-910 -401v100l801 346l-801 349v100z" />
    <glyph glyph-name="question" unicode="?" horiz-adv-x="796" 
d="M582 1464q140 0 214 -60.5t74 -174.5q0 -83 -38.5 -149t-129.5 -136l-129 -100q-62 -51 -86 -86t-24 -74q0 -38 25 -73t85 -81l-116 -133q-174 121 -174 281q0 72 37 134t120 128l125 98q68 54 93.5 89t25.5 75q0 45 -32.5 70.5t-90.5 25.5q-110 0 -295 -98l-69 156
q120 58 208.5 83t176.5 25zM154 0l45 233h219l-47 -233h-217z" />
    <glyph glyph-name="at" unicode="@" horiz-adv-x="1984" 
d="M946 -307q-245 0 -431.5 98t-288 278t-101.5 416q0 269 121.5 481t339.5 329.5t495 117.5q237 0 421 -89t286 -251t102 -371q0 -162 -58.5 -297t-159.5 -212.5t-222 -77.5q-95 0 -151.5 45t-61.5 125h-6q-50 -88 -129 -134.5t-180 -46.5q-146 0 -238 82t-92 211
q0 141 101.5 232.5t256.5 91.5q111 0 190.5 -46t116.5 -132l7 2l6 59q10 75 10 115q0 135 -193 135q-112 0 -288 -43l-35 137q192 49 338 49q163 0 241 -64t78 -198q0 -45 -14 -133l-39 -215q-6 -27 -6 -41q0 -47 26.5 -72.5t75.5 -25.5q114 0 195.5 133.5t81.5 320.5
q0 258 -182 416t-478 158q-233 0 -417 -100t-287 -279.5t-103 -407.5q0 -301 185.5 -480t498.5 -179q222 0 414 86l35 -131q-226 -92 -461 -92zM954 233q102 0 178 58.5t76 136.5q0 71 -63.5 116.5t-163.5 45.5t-160.5 -53.5t-60.5 -139.5q0 -75 52.5 -119.5t141.5 -44.5z
" />
    <glyph glyph-name="A" unicode="A" horiz-adv-x="1406" 
d="M-70 0l957 1464h18l387 -1464h-190l-103 401h-593l-250 -401h-226zM494 555q40 4 114 4h248q71 0 117 -4v2q-24 40 -41 117l-64 297q-24 107 -18 166h-10q-16 -58 -82 -166l-180 -297q-50 -81 -86 -117z" />
    <glyph glyph-name="B" unicode="B" horiz-adv-x="1280" 
d="M66 0l278 1434h498q165 0 265.5 -87t100.5 -233q0 -121 -63.5 -209t-181.5 -129q-60 -20 -127 -24l-2 -9q53 0 122 -14q99 -25 153 -103t54 -198q0 -198 -143 -313t-389 -115h-565zM410 821q18 6 53 6h252q135 0 214 64.5t79 173.5q0 96 -62.5 145.5t-185.5 49.5h-215
q-33 0 -49 8l-7 -4q2 -7 -4 -54l-63 -336q-10 -41 -16 -51zM281 166q19 8 53 8h301q161 0 247.5 66.5t86.5 189.5q0 227 -293 227h-248q-31 0 -49 9l-6 -4q3 -13 -4 -52l-74 -387q-7 -35 -16 -53z" />
    <glyph glyph-name="C" unicode="C" horiz-adv-x="1415" 
d="M795 -31q-306 0 -488 181.5t-182 484.5q0 238 109 427.5t303.5 295.5t439.5 106q283 0 485 -164l-114 -155q-183 133 -394 133q-178 0 -322 -82.5t-226 -228.5t-82 -326q0 -225 130 -355t355 -130q100 0 189.5 29t189.5 94l100 -156q-234 -154 -493 -154z" />
    <glyph glyph-name="D" unicode="D" horiz-adv-x="1429" 
d="M66 0l278 1434h432q287 0 456 -169t169 -456q0 -183 -64 -334t-180 -255.5t-284 -162t-371 -57.5h-436zM281 166q19 8 53 8h217q288 0 470.5 177.5t182.5 457.5q0 211 -118.5 331t-325.5 120h-215q-33 0 -49 8l-7 -4q3 -19 -4 -52l-190 -991q-9 -39 -16 -51z" />
    <glyph glyph-name="E" unicode="E" horiz-adv-x="1054" 
d="M1151 1434l-33 -174h-573q-33 0 -49 8l-7 -4q4 -20 -4 -54l-55 -292q-6 -36 -16 -52l4 -4q16 8 53 8h504l-33 -174h-506q-30 0 -51 9l-4 -5q2 -12 -4 -53l-82 -424q-11 -44 -16 -53l2 -4q21 8 53 8h581l-34 -174h-815l278 1434h807z" />
    <glyph glyph-name="F" unicode="F" horiz-adv-x="1024" 
d="M1159 1434l-33 -174h-581q-33 0 -49 8l-7 -4q4 -20 -4 -54l-61 -321q-6 -34 -16 -51l2 -4q21 8 53 8h532l-34 -174h-531q-33 0 -49 8l-4 -4q3 -13 -4 -51l-121 -621h-186l278 1434h815z" />
    <glyph glyph-name="G" unicode="G" horiz-adv-x="1642" 
d="M829 -29q-323 0 -512.5 183t-189.5 493q0 234 108.5 420.5t300.5 290.5t433 104q337 0 577 -211l-141 -145q-94 82 -212 126t-245 44q-180 0 -322 -81t-221 -223.5t-79 -320.5q0 -232 135.5 -362.5t374.5 -130.5q228 0 378 124.5t189 340.5l-4 4q-59 -25 -144 -25h-370
l35 174h712l-14 -88q-60 -342 -264.5 -529.5t-524.5 -187.5z" />
    <glyph glyph-name="H" unicode="H" horiz-adv-x="1449" 
d="M1479 1434l-279 -1434h-188l121 625q6 34 16 51l-2 4q-21 -8 -55 -8h-658q-36 0 -49 8l-4 -4q3 -13 -4 -51l-123 -625h-188l278 1434h188l-104 -537q-5 -33 -16 -51l4 -4q19 8 53 8h659q31 0 50 -8l4 4q-2 12 4 51l104 537h189z" />
    <glyph glyph-name="I" unicode="I" horiz-adv-x="503" 
d="M532 1434l-278 -1434h-188l278 1434h188z" />
    <glyph glyph-name="J" unicode="J" horiz-adv-x="602" 
d="M629 1434l-217 -1127q-34 -172 -117.5 -244.5t-247.5 -72.5q-29 0 -88 6l35 174q20 -2 74 -2q69 0 106.5 37t54.5 125l215 1104h185z" />
    <glyph glyph-name="K" unicode="K" horiz-adv-x="1243" 
d="M1356 1434l-594 -543q-37 -33 -178 -148l-2 -4q14 -11 32 -31t29 -34.5t33 -45.5t29 -40l423 -588h-231l-512 735l-6 -2q-3 -89 -33 -239l-94 -494h-186l278 1434h186l-79 -408q-32 -162 -62 -238l4 -4l697 650h266z" />
    <glyph glyph-name="L" unicode="L" horiz-adv-x="1003" 
d="M530 1434l-235 -1211q-5 -31 -16 -49l4 -4q14 6 51 6h590l-35 -176h-823l278 1434h186z" />
    <glyph glyph-name="M" unicode="M" horiz-adv-x="1800" 
d="M805 -18l-182 813q-6 24 -10 45.5t-6.5 41.5t-4 33.5t-2 31.5t-0.5 26v26.5v24.5h-6q-1 -3 -9 -33t-12.5 -45t-13.5 -44t-20.5 -55.5t-24.5 -53.5l-375 -793h-209l701 1456h24l201 -944q14 -64 8 -174h8q29 97 74 174l559 944h29l152 -1456h-179l-82 793q-12 120 9 231
h-7q-4 -9 -17.5 -42.5t-21.5 -52t-28 -56t-45 -78.5l-492 -813h-18z" />
    <glyph glyph-name="N" unicode="N" horiz-adv-x="1492" 
d="M367 1454l690 -940q60 -81 82 -162l6 2q-3 85 31 258l161 822h185l-283 -1454h-18l-689 940q-61 82 -83 161l-7 -2q3 -88 -30 -256l-160 -823h-186l282 1454h19z" />
    <glyph glyph-name="O" unicode="O" horiz-adv-x="1701" 
d="M836 -31q-320 0 -514.5 186.5t-194.5 493.5q0 173 63.5 324.5t173.5 259t265 169.5t332 62q321 0 514.5 -186t193.5 -494q0 -231 -107.5 -417.5t-298.5 -292t-427 -105.5zM842 154q137 0 254 47.5t199 132t128.5 204t46.5 259.5q0 215 -143 349t-373 134
q-182 0 -325.5 -81.5t-223 -228.5t-79.5 -333q0 -215 143.5 -349t372.5 -134z" />
    <glyph glyph-name="P" unicode="P" horiz-adv-x="1114" 
d="M760 1434q192 0 301.5 -99t109.5 -272q0 -197 -133.5 -313.5t-359.5 -116.5h-254q-33 0 -49 8l-6 -4q3 -10 -4 -51l-113 -586h-186l278 1434h416zM496 1268l-7 -4q2 -7 -4 -54l-67 -354q-6 -35 -17 -53l2 -2q21 6 54 6h223q138 0 215.5 66.5t77.5 183.5q0 96 -59 149.5
t-166 53.5h-203q-33 0 -49 8z" />
    <glyph glyph-name="Q" unicode="Q" horiz-adv-x="1677" 
d="M811 -10q-307 0 -494.5 184.5t-187.5 484.5q0 228 105.5 412.5t292.5 288.5t419 104q314 0 504 -178t190 -473q0 -259 -139 -428t-430 -266v-8q203 45 338 45h143l-30 -166h-711zM829 176q176 0 316 80.5t218.5 225t78.5 327.5q0 211 -139 341t-363 130q-268 0 -440 -177
t-172 -454q0 -211 138.5 -342t362.5 -131z" />
    <glyph glyph-name="R" unicode="R" horiz-adv-x="1202" 
d="M750 1434q202 0 314 -96.5t112 -262.5q0 -183 -125.5 -294t-329.5 -111q-27 0 -76 8l-2 -2q42 -26 69.5 -54.5t55.5 -74.5l326 -547h-222l-389 657h-57q-33 0 -47 7l-6 -5q3 -24 -4 -53l-117 -606h-186l278 1434h406zM496 1268l-7 -4q2 -7 -4 -54l-61 -329
q-10 -40 -16 -52l2 -2q24 7 53 7h246q123 0 193.5 61t70.5 168q0 95 -57.5 146t-163.5 51h-207q-33 0 -49 8z" />
    <glyph glyph-name="S" unicode="S" horiz-adv-x="1038" 
d="M494 -31q-142 0 -278.5 53.5t-238.5 149.5l115 156q196 -174 404 -174q117 0 181 54.5t64 151.5q0 60 -32.5 114.5t-104.5 117.5l-209 182q-170 145 -170 336q0 160 110.5 257t295.5 97q196 0 409 -139l-106 -166q-169 121 -309 121q-93 0 -147 -47t-54 -123
q0 -98 123 -203l203 -172q101 -88 146.5 -175t45.5 -193q0 -185 -119 -291.5t-329 -106.5z" />
    <glyph glyph-name="T" unicode="T" horiz-adv-x="1058" 
d="M1225 1434l-33 -177h-367q-37 0 -51 7l-4 -4q4 -18 -2 -50l-236 -1210h-186l236 1210q7 38 14 50l-2 4q-16 -7 -53 -7h-367l33 177h1018z" />
    <glyph glyph-name="U" unicode="U" horiz-adv-x="1402" 
d="M637 -31q-235 0 -364.5 118.5t-129.5 336.5q0 83 17 164l168 846h192l-170 -879q-12 -61 -12 -102q0 -138 83 -214.5t234 -76.5q172 0 283.5 101t148.5 292l173 879h192l-174 -889q-54 -282 -217 -429t-424 -147z" />
    <glyph glyph-name="V" unicode="V" horiz-adv-x="1292" 
d="M1475 1434l-914 -1454h-22l-349 1454h205l185 -861q17 -75 20.5 -142.5t-0.5 -119.5h8q55 146 125 262l516 861h226z" />
    <glyph glyph-name="W" unicode="W" horiz-adv-x="1939" 
d="M475 -23l-266 1457h197l124 -795q19 -132 19 -266h8q55 141 125 268l457 815h22l142 -813q22 -133 22 -268h8q58 154 121 266l434 793h215l-831 -1457h-21l-159 889q-16 85 -7 178h-8q-20 -88 -73 -178l-508 -889h-21z" />
    <glyph glyph-name="X" unicode="X" horiz-adv-x="1273" 
d="M1397 1434l-406 -473q-139 -168 -190 -213l-2 -7q39 -68 102 -202l258 -539h-211l-203 446q-46 97 -61 181h-6q-25 -56 -131 -181l-371 -446h-246l478 563q4 5 35 41t42 48t34.5 38t39.5 42t29 28l2 8q-7 9 -14 20.5t-12.5 22t-16 31.5t-17 35t-22.5 49t-27 57l-217 451
h213l168 -375q5 -11 13.5 -31t12 -27.5t9.5 -22t8 -19.5t6 -15.5t5 -16t3.5 -14t4 -16t2.5 -16.5h6q20 42 129 176l315 377h238z" />
    <glyph glyph-name="Y" unicode="Y" horiz-adv-x="1136" 
d="M1309 1434l-631 -867l-111 -567h-184l109 567l-291 867h200l150 -496q27 -91 35.5 -132.5t9.5 -98.5h10q24 57 48.5 99t84.5 132l340 496h230z" />
    <glyph glyph-name="Z" unicode="Z" horiz-adv-x="1220" 
d="M1335 1434l2 -9l-1063 -1273l2 -7q28 18 71.5 25.5t137.5 7.5h645l-126 -178h-1065l-5 8l1061 1274l-2 6q-64 -33 -209 -33h-520l125 179h946z" />
    <glyph glyph-name="bracketleft" unicode="[" horiz-adv-x="692" 
d="M877 1532l-29 -141h-230q-50 0 -71 8l-2 -2q7 -29 -2 -70l-305 -1573q-10 -46 -25 -69l2 -2q16 8 76 8h229l-28 -142h-459l385 1983h459z" />
    <glyph glyph-name="backslash" unicode="\" horiz-adv-x="1202" 
d="M887 -199l-623 1719l137 53l623 -1718z" />
    <glyph glyph-name="bracketright" unicode="]" horiz-adv-x="690" 
d="M-160 -451l29 142h229q52 0 72 -10l2 2q-4 36 2 69l307 1573q8 46 25 72l-2 2q-22 -10 -78 -10h-227l28 143h459l-387 -1983h-459z" />
    <glyph glyph-name="asciicircum" unicode="^" 
d="M764 1464l297 -659h-146l-237 536l-238 -536h-145l297 659h172z" />
    <glyph glyph-name="underscore" unicode="_" horiz-adv-x="1099" 
d="M-100 -172l26 141h1051l-27 -141h-1050z" />
    <glyph glyph-name="grave" unicode="`" horiz-adv-x="614" 
d="M506 1448l135 -309l-4 -6h-121l-225 309l2 6h213z" />
    <glyph glyph-name="a" unicode="a" horiz-adv-x="1040" 
d="M379 -29q-152 0 -247 88.5t-95 229.5q0 159 103 252.5t280 93.5q124 0 213 -55.5t129 -153.5l6 2q-10 41 6 135q12 82 12 101q0 151 -204 151q-134 0 -303 -41l-33 160q194 41 356 41q172 0 261 -72t89 -211q0 -46 -12 -110l-111 -582h-174q14 87 52 152l-9 4
q-62 -95 -139 -140t-180 -45zM438 115q112 0 190.5 56t78.5 136q0 78 -72.5 130t-179.5 52q-109 0 -171.5 -53t-62.5 -145q0 -82 58 -129t159 -47z" />
    <glyph glyph-name="b" unicode="b" horiz-adv-x="1210" 
d="M621 -31q-140 0 -235.5 66t-129.5 186l-8 -2q0 -67 -31 -219h-170l285 1464h174l-96 -501q-28 -124 -58 -207l6 -2q53 104 151.5 163.5t219.5 59.5q184 0 299 -126t115 -327q0 -238 -149 -396.5t-373 -158.5zM590 133q160 0 266.5 111.5t106.5 279.5q0 134 -77.5 211.5
t-211.5 77.5q-161 0 -269 -113t-108 -280q0 -133 79 -210t214 -77z" />
    <glyph glyph-name="c" unicode="c" horiz-adv-x="1005" 
d="M559 -31q-221 0 -354 129.5t-133 343.5q0 236 154.5 385.5t400.5 149.5q205 0 377 -123l-101 -141q-131 98 -287 98q-157 0 -258.5 -102t-101.5 -260q0 -140 85.5 -227t221.5 -87q122 0 248 72l72 -148q-161 -90 -324 -90z" />
    <glyph glyph-name="d" unicode="d" horiz-adv-x="1210" 
d="M481 -31q-184 0 -298.5 126t-114.5 327q0 156 67.5 283.5t187 199.5t265.5 72q141 0 236.5 -66.5t127.5 -187.5l9 2q-3 67 28 221l101 518h174l-285 -1464h-168q22 113 49 199l-6 2q-51 -108 -150 -170t-223 -62zM537 133q161 0 268.5 112.5t107.5 280.5q0 134 -78 210.5
t-214 76.5q-166 0 -269.5 -109t-103.5 -282q0 -133 78.5 -211t210.5 -78z" />
    <glyph glyph-name="e" unicode="e" horiz-adv-x="1105" 
d="M530 -31q-217 0 -339.5 118t-122.5 327q0 246 156.5 404.5t398.5 158.5q196 0 310 -104t114 -283q0 -54 -21 -148h-674q-83 0 -110 15l-4 -4l2 -17v-39q0 -125 76 -194.5t214 -69.5q95 0 174.5 36t167.5 118l107 -125q-111 -103 -215 -148t-234 -45zM260 557q30 18 94 18
h414q78 0 102 -16l4 2v25q0 115 -68 177t-196 62q-130 0 -223.5 -70.5t-128.5 -195.5z" />
    <glyph glyph-name="f" unicode="f" horiz-adv-x="663" 
d="M797 1452l-29 -162h-16q-97 0 -153.5 -52t-78.5 -161l-14 -78q-13 -50 -21 -63l4 -4q22 14 80 14h129l-32 -164h-127q-61 0 -76 15l-6 -4q2 -26 -11 -99l-133 -694h-174l133 694q7 45 29 99l-2 4q-25 -15 -84 -15h-102l30 164h103q58 0 78 -14l4 4q-3 19 4 61l20 113
q32 167 130 254.5t253 87.5h62z" />
    <glyph glyph-name="g" unicode="g" horiz-adv-x="1198" 
d="M444 -440q-279 0 -460 139l112 149q167 -122 357 -122q297 0 356 280q19 90 27 120.5t24 72.5l-4 2q-53 -109 -152 -170.5t-223 -61.5q-183 0 -298 126t-115 327q0 238 149 396.5t373 158.5q140 0 234.5 -65.5t129.5 -186.5l9 2q-5 69 26 219h172l-182 -944
q-41 -224 -173.5 -333t-361.5 -109zM539 133q160 0 268 113t108 280q0 134 -78 210.5t-216 76.5q-160 0 -265.5 -111t-105.5 -280q0 -132 78 -210.5t211 -78.5z" />
    <glyph glyph-name="h" unicode="h" horiz-adv-x="1122" 
d="M506 1464l-103 -526q-29 -137 -61 -215l8 -2q66 132 157 194t220 62q148 0 224.5 -78t76.5 -227q0 -64 -18 -162l-101 -510h-174l99 514q12 42 12 102q0 98 -52.5 150.5t-150.5 52.5q-262 0 -336 -373l-86 -446h-174l285 1464h174z" />
    <glyph glyph-name="i" unicode="i" horiz-adv-x="448" 
d="M508 1434l-51 -269h-197l53 269h195zM403 946l-184 -946h-174l184 946h174z" />
    <glyph glyph-name="j" unicode="j" horiz-adv-x="448" 
d="M508 1434l-51 -269h-197l53 269h195zM403 946l-204 -1052q-33 -175 -133 -254.5t-265 -79.5h-30l32 170h17q93 0 142.5 45t70.5 155l196 1016h174z" />
    <glyph glyph-name="k" unicode="k" horiz-adv-x="960" 
d="M506 1464l-144 -737q-25 -130 -55 -197l6 -2l451 418h242l-418 -368q-73 -64 -111 -80v-6q38 -24 78 -74l309 -418h-217l-342 485l-6 -4q2 -55 -23 -194l-55 -287h-174l285 1464h174z" />
    <glyph glyph-name="l" unicode="l" horiz-adv-x="452" 
d="M506 1464l-285 -1464h-174l285 1464h174z" />
    <glyph glyph-name="m" unicode="m" horiz-adv-x="1658" 
d="M45 0l184 946h174q-27 -135 -63 -217l6 -4q62 129 144 190.5t196 61.5q117 0 184.5 -61.5t77.5 -178.5h8q50 117 135 178.5t197 61.5q133 0 205 -78t72 -221q0 -70 -15 -141l-108 -537h-172l102 530q10 64 10 99q0 89 -44.5 135.5t-129.5 46.5q-113 0 -182.5 -81
t-103.5 -251l-93 -479h-170l105 530q10 41 10 97q0 90 -44 137t-128 47q-227 0 -291 -342l-92 -469h-174z" />
    <glyph glyph-name="n" unicode="n" horiz-adv-x="1120" 
d="M45 0l184 946h174l-6 -31q-19 -118 -59 -206l8 -2q64 139 156 204.5t223 65.5q148 0 224.5 -78t76.5 -227q0 -64 -18 -162l-103 -510h-172l98 514q13 46 13 102q0 98 -52.5 150.5t-152.5 52.5q-260 0 -334 -373l-86 -446h-174z" />
    <glyph glyph-name="o" unicode="o" horiz-adv-x="1161" 
d="M530 -31q-214 0 -339 120.5t-125 326.5q0 241 161 401t404 160q214 0 338.5 -120.5t124.5 -326.5q0 -159 -73 -287.5t-202 -201t-289 -72.5zM547 139q158 0 262 109t104 274q0 133 -79.5 209t-219.5 76q-159 0 -263.5 -109t-104.5 -274q0 -134 80 -209.5t221 -75.5z" />
    <glyph glyph-name="p" unicode="p" horiz-adv-x="1210" 
d="M-35 -410l264 1356h174q-26 -126 -51 -188l6 -4q53 104 151.5 163.5t219.5 59.5q184 0 299 -126t115 -327q0 -156 -67.5 -283.5t-187 -199.5t-265.5 -72q-141 0 -237 66t-130 186l-8 -2q0 -68 -29 -219l-80 -410h-174zM590 133q160 0 266.5 111.5t106.5 279.5
q0 134 -77.5 211.5t-211.5 77.5q-161 0 -269 -112t-108 -281q0 -133 79 -210t214 -77z" />
    <glyph glyph-name="q" unicode="q" horiz-adv-x="1189" 
d="M725 -410l86 412q17 95 49 197l-6 2q-51 -108 -150 -170t-223 -62q-184 0 -298.5 126t-114.5 327q0 238 149 396.5t373 158.5q138 0 233.5 -66t130.5 -186l9 2q-5 62 26 219h174l-264 -1356h-174zM537 133q161 0 268.5 112t107.5 281q0 135 -77 211t-215 76
q-160 0 -266.5 -111.5t-106.5 -279.5q0 -133 78.5 -211t210.5 -78z" />
    <glyph glyph-name="r" unicode="r" horiz-adv-x="702" 
d="M45 0l184 946h174q-31 -159 -75 -268l10 -2q62 159 152.5 229t234.5 70q29 0 43 -2l-39 -199q-35 4 -78 4q-134 0 -227 -98.5t-127 -276.5l-78 -403h-174z" />
    <glyph glyph-name="s" unicode="s" horiz-adv-x="819" 
d="M78 262q152 -131 305 -131q69 0 108 30t39 81q0 34 -19.5 62t-68.5 63l-127 90q-157 113 -157 258q0 121 80 191.5t217 70.5q173 0 333 -109l-88 -141q-134 88 -235 88q-61 0 -95 -27t-34 -77q0 -36 21 -64.5t83 -71.5l115 -77q83 -61 119.5 -121t36.5 -137
q0 -130 -85 -200.5t-241 -70.5q-235 0 -410 158z" />
    <glyph glyph-name="t" unicode="t" horiz-adv-x="636" 
d="M592 1452l-82 -420q-15 -69 -27 -96l4 -4q25 14 80 14h109l-31 -164h-108q-59 0 -74 15l-8 -4q2 -29 -9 -99l-135 -694h-174l135 694q9 59 27 99l-4 4q-23 -15 -82 -15h-98l30 164h99q58 0 78 -14l4 4q0 50 10 96l57 297l187 123h12z" />
    <glyph glyph-name="u" unicode="u" horiz-adv-x="1077" 
d="M1042 946l-184 -946h-172q26 134 64 219l-9 2q-71 -132 -155 -192t-199 -60q-142 0 -220.5 82t-76.5 228q0 62 14 145l105 522h174l-102 -516q-11 -68 -11 -98q-1 -95 48 -146t143 -51q123 0 205 94t116 271l88 446h172z" />
    <glyph glyph-name="v" unicode="v" horiz-adv-x="980" 
d="M371 -12l-265 958h193l104 -454q1 -6 7 -30.5t7 -29t5 -24t5 -25t3.5 -21.5t2.5 -24t1 -22t1 -26.5t-1 -27.5h8q22 62 44.5 105t74.5 125l283 454h213l-635 -958h-51z" />
    <glyph glyph-name="w" unicode="w" horiz-adv-x="1458" 
d="M317 -12l-200 958h184l80 -473q17 -87 14 -154h8q28 63 89 156l299 488h45l112 -488q23 -103 27 -156h6q24 67 72 154l266 473h205l-574 -958h-43l-125 518q-19 84 -14 147h-8q-16 -56 -72 -147l-326 -518h-45z" />
    <glyph glyph-name="x" unicode="x" horiz-adv-x="968" 
d="M1010 946l-363 -397q-4 -4 -18 -19.5t-25 -25.5t-22 -15l-2 -6q17 -8 43 -59l233 -424h-186l-146 283q-3 6 -9 18.5t-8.5 18.5t-7 17t-7 18.5t-4.5 17.5t-3 20h-4q-11 -30 -29 -54t-55 -63l-254 -276h-215l412 449q42 48 68 61l2 6q-7 4 -13.5 11t-9.5 12t-10.5 18.5
t-9.5 17.5l-201 371h184l119 -223q34 -65 37 -123h4q17 38 33.5 60.5t50.5 60.5l203 225h213z" />
    <glyph glyph-name="y" unicode="y" horiz-adv-x="985" 
d="M1063 946l-842 -1358h-198l307 494l-224 864h193l115 -491q32 -145 24 -246l8 2q26 84 74 166l346 569h197z" />
    <glyph glyph-name="z" unicode="z" horiz-adv-x="927" 
d="M-72 0l-4 10l744 799l-4 6q-44 -22 -82.5 -28.5t-118.5 -6.5h-326l135 166h727l2 -8l-751 -801l4 -4q38 21 80 27t135 6h379l-135 -166h-785z" />
    <glyph glyph-name="braceleft" unicode="{" horiz-adv-x="790" 
d="M518 -451q-137 0 -217 69.5t-80 207.5q0 54 12 115l64 321q6 34 6 60q0 74 -54 109t-171 40l35 184q138 6 208.5 55t90.5 154l61 312q38 188 142 272t288 84h66l-29 -152h-39q-123 0 -182.5 -51t-81.5 -164l-57 -284q-29 -145 -111 -223t-236 -91v-8q122 -10 179 -62.5
t57 -150.5q0 -44 -12 -100l-64 -332q-6 -37 -6 -68q0 -71 42.5 -108t141.5 -37h43l-28 -152h-68z" />
    <glyph glyph-name="bar" unicode="|" horiz-adv-x="598" 
d="M45 -457l379 1946h145l-379 -1946h-145z" />
    <glyph glyph-name="braceright" unicode="}" horiz-adv-x="790" 
d="M297 1532q139 0 219 -69.5t80 -209.5q0 -49 -12 -114l-64 -322q-6 -30 -6 -57q0 -75 54 -110t171 -40l-34 -184q-138 -6 -209 -55.5t-93 -153.5l-59 -311q-38 -188 -142 -272.5t-288 -84.5h-68l29 150h41q123 0 182.5 51t81.5 164l58 287q29 145 110.5 222.5t235.5 90.5
v8q-122 10 -179 62.5t-57 150.5q0 45 12 101l64 329q6 37 6 70q0 71 -42.5 108t-141.5 37h-43l28 152h66z" />
    <glyph glyph-name="asciitilde" unicode="~" 
d="M420 750q53 0 103.5 -14t90 -34t78 -40t83 -34t89.5 -14q67 0 119 27t113 80l86 -121q-157 -141 -324 -141q-65 0 -128.5 21t-106 45.5t-99 45.5t-110.5 21q-68 0 -120 -26.5t-114 -78.5l-86 119q166 144 326 144z" />
    <glyph glyph-name="exclamdown" unicode="&#xa1;" horiz-adv-x="649" 
d="M530 989l-45 -233h-219l47 233h217zM41 -444l242 1005h120l-149 -1005h-213z" />
    <glyph glyph-name="cent" unicode="&#xa2;" horiz-adv-x="1005" 
d="M426 -135l8 51q10 47 23 68l-2 4q-35 -5 -78 10q-142 44 -223.5 162.5t-81.5 281.5q0 141 57 256t170 189t266 88q44 5 78 -6l4 2q-3 23 6 61l9 51h61l-10 -55q-8 -36 -19 -57l2 -4q24 4 54 0q140 -26 254 -113l-101 -143q-89 65 -178 84q-36 8 -59 18l-2 -2
q2 -16 -5 -55l-108 -555q-10 -46 -19 -66l3 -2q8 2 57 6q100 5 219 70l74 -150q-153 -90 -324 -90q-37 0 -57 8l-2 -2q2 -27 -6 -59l-9 -51h-61zM479 141l4 2q0 29 9 64l106 553q4 23 16 53l-2 2q-11 -4 -41.5 -9t-31.5 -5q-132 -24 -207.5 -124t-75.5 -228q0 -97 42.5 -169
t115.5 -108q12 -7 36 -17.5t29 -13.5z" />
    <glyph glyph-name="sterling" unicode="&#xa3;" horiz-adv-x="1132" 
d="M623 -29q-73 0 -176 37t-148 37q-28 0 -61.5 -9t-54 -17.5t-66.5 -28.5l-62 143q62 31 114.5 67.5t100.5 85t75.5 110t27.5 128.5q0 14 -1.5 28.5t-2.5 25t-5.5 27.5t-6 23.5t-8.5 26.5t-8 22.5t-10 26.5l-9 23h-181l13 61h100q30 0 53 -10l2 2q-15 16 -24 41
q-27 83 -27 166q0 85 28.5 160.5t84.5 135.5t146.5 95t205.5 35q218 0 401 -149l-108 -144q-151 123 -299 123q-130 0 -202.5 -75.5t-72.5 -182.5q0 -71 50 -197h389l-13 -61h-309q-33 0 -55 10l-2 -2q15 -17 24 -45q29 -92 29 -158q0 -39 -8 -73.5t-26 -64.5t-34 -52
t-47 -48t-48 -39t-53.5 -38.5t-49.5 -34.5l2 -6q56 23 104 23q56 0 125 -32t121 -32q125 0 256 131l82 -135q-182 -160 -356 -160z" />
    <glyph glyph-name="currency" unicode="&#xa4;" 
d="M1128 662q0 -191 -118 -318l116 -119l-43 -39l-114 117q-134 -115 -322 -115q-187 0 -321 115l-117 -117l-37 41l115 115q-121 134 -121 324q0 188 121 319l-115 115l41 41l115 -115q132 113 319 113q188 0 322 -115l116 117l41 -41l-116 -115q118 -134 118 -323z
M647 344q143 0 230.5 90t87.5 228q0 140 -88 230.5t-228 90.5q-141 0 -230 -89.5t-89 -227.5q0 -140 89 -231t228 -91z" />
    <glyph glyph-name="yen" unicode="&#xa5;" horiz-adv-x="1150" 
d="M399 0l93 479h-371l12 62h297q35 0 62 -6l2 4q-13 25 -21 49l-20 67h-297l12 62h209q34 0 61 -6l4 4q-14 27 -26 63l-176 604h190l145 -585q21 -91 21 -152h6q18 52 78 152l375 585h211l-420 -614q-19 -31 -41 -51l2 -4q25 4 59 4h213l-12 -62h-295l-51 -71
q-3 -4 -9.5 -12.5t-13 -16.5t-14.5 -16l2 -2q27 4 59 4h299l-12 -62h-370l-93 -479h-170z" />
    <glyph glyph-name="brokenbar" unicode="&#xa6;" horiz-adv-x="598" 
d="M266 684l158 805h145l-155 -805h-148zM352 373l-162 -830h-145l162 830h145z" />
    <glyph glyph-name="section" unicode="&#xa7;" horiz-adv-x="1064" 
d="M463 1137q0 -50 30 -88.5t78 -65t105.5 -52t115.5 -56.5t106 -70t78 -102t30 -144q0 -68 -21 -123.5t-60 -96t-84 -69t-104 -53.5q82 -82 82 -211q0 -146 -101.5 -239t-301.5 -93q-223 0 -406 115l103 150q145 -99 305 -99q106 0 164.5 44t58.5 116q0 50 -30 88.5t-78 65
t-105.5 52t-115.5 57t-106 70.5t-78 102.5t-30 144.5q0 68 21 123.5t60 96t84 69t104 53.5q-82 82 -82 211q0 70 24 129t71.5 104.5t126.5 71.5t181 26q225 0 406 -114l-103 -150q-143 98 -305 98q-107 0 -165 -43.5t-58 -117.5zM618 303q207 89 207 244q0 40 -15.5 73.5
t-37.5 56.5t-60 46.5t-69.5 38t-79.5 36.5t-78 38q-206 -89 -206 -244q0 -40 15.5 -73.5t37.5 -56.5t59.5 -46.5t69 -38t79.5 -36.5t78 -38z" />
    <glyph glyph-name="dieresis" unicode="&#xa8;" horiz-adv-x="724" 
d="M455 1434l-49 -250h-166l49 250h166zM809 1434l-49 -250h-168l49 250h168z" />
    <glyph glyph-name="copyright" unicode="&#xa9;" horiz-adv-x="1738" 
d="M918 1464q155 0 293.5 -57t239 -155t159.5 -238t59 -299q0 -158 -58.5 -297t-159 -237t-239.5 -155t-294 -57q-207 0 -379 96.5t-272.5 269t-100.5 384.5q0 158 59 296.5t159.5 237t239.5 155t294 56.5zM918 1362q-133 0 -251.5 -48.5t-205 -132.5t-137 -204.5
t-50.5 -257.5q0 -139 51 -260t137.5 -205.5t205 -133t250.5 -48.5q133 0 251.5 48.5t204.5 133t136.5 205t50.5 256.5q0 185 -86.5 334t-233 231t-323.5 82zM924 1192q174 0 311 -100l-66 -117q-124 82 -249 82q-147 0 -237.5 -91.5t-90.5 -236.5q0 -151 91 -243.5
t237 -92.5q125 0 249 82l66 -115q-143 -98 -311 -98q-206 0 -340.5 132.5t-134.5 334.5q0 198 134.5 330.5t340.5 132.5z" />
    <glyph glyph-name="ordfeminine" unicode="&#xaa;" horiz-adv-x="813" 
d="M416 692q-111 0 -175.5 58.5t-64.5 154.5q0 104 75 167t193 63q86 0 149 -34.5t89 -96.5l6 2q0 16 8 57q4 46 4 61q0 53 -32 79t-107 26q-69 0 -205 -31l-22 127q155 35 268 35q121 0 184.5 -47.5t63.5 -161.5q0 -56 -14 -127l-62 -311h-158q16 77 43 129l-4 4
q-43 -76 -98.5 -115t-140.5 -39zM479 815q65 0 109.5 34t44.5 83q0 43 -37 70.5t-98 27.5q-65 0 -105.5 -32t-40.5 -83q0 -45 34 -72.5t93 -27.5z" />
    <glyph glyph-name="guillemotleft" unicode="&#xab;" horiz-adv-x="874" 
d="M606 856l-2 -8l-233 -252q-81 -87 -108.5 -113t-47.5 -37v-8q3 -2 5.5 -4t5 -4.5t5.5 -7l6 -9t7.5 -12t8 -14t10.5 -18.5t12.5 -22.5t15.5 -27.5t18 -32l123 -215l-2 -9h-168l-219 396l375 397h188zM924 856l-2 -8l-234 -252q-81 -87 -108.5 -113t-47.5 -37v-8
q16 -11 75 -116q13 -22 20 -35l123 -215l-2 -9h-168l-220 396l375 397h189z" />
    <glyph glyph-name="logicalnot" unicode="&#xac;" 
d="M174 885h936v-86v-457h-82v457h-854v86z" />
    <glyph glyph-name="uni00AD" unicode="&#xad;" horiz-adv-x="792" 
d="M727 635l-33 -168h-598l31 168h600z" />
    <glyph glyph-name="registered" unicode="&#xae;" horiz-adv-x="1177" 
d="M690 1464q203 0 339 -136.5t136 -340.5q0 -203 -136.5 -339t-338.5 -136q-204 0 -340.5 136t-136.5 341q0 203 136.5 339t340.5 136zM690 1380q-164 0 -275.5 -111.5t-111.5 -279.5q0 -169 111.5 -280t275.5 -111q162 0 273.5 111.5t111.5 277.5q0 169 -112 281t-273 112
zM727 1270q68 0 114 -42.5t46 -107.5q0 -63 -45 -108t-109 -45v-4q28 -14 53 -45l140 -158v-10h-105l-180 215h-33v-215h-84v520h203zM721 1190h-111v-146h113q33 0 53.5 20.5t20.5 51.5q0 32 -22 53t-54 21z" />
    <glyph glyph-name="macron" unicode="&#xaf;" horiz-adv-x="792" 
d="M864 1368l-24 -127h-588l27 127h585z" />
    <glyph glyph-name="degree" unicode="&#xb0;" horiz-adv-x="741" 
d="M502 1413q120 0 200 -79t80 -204q0 -120 -80 -198t-200 -78q-124 0 -204.5 78.5t-80.5 202.5q0 121 80 199.5t205 78.5zM502 1327q-84 0 -140.5 -54t-56.5 -138q0 -86 57 -140.5t138 -54.5q83 0 138.5 54.5t55.5 138.5q0 86 -55.5 140t-136.5 54z" />
    <glyph glyph-name="plusminus" unicode="&#xb1;" 
d="M664 1069v-287h444l2 -86h-444v-286h-88v286h-445l-2 86h444v287h89zM1110 313l-2 -82h-977l2 82h977z" />
    <glyph glyph-name="uni00B2" unicode="&#xb2;" horiz-adv-x="823" 
d="M80 713l-4 10l508 471q67 64 104 112.5t37 94.5q0 45 -34 71.5t-87 26.5q-103 0 -250 -96l-78 121q178 123 349 123q126 0 196 -59t70 -161q0 -79 -43.5 -147t-147.5 -168l-198 -186q-35 -35 -103 -82l2 -2q54 14 158 14h260l2 -10l-112 -133h-629z" />
    <glyph glyph-name="uni00B3" unicode="&#xb3;" horiz-adv-x="804" 
d="M463 694q-80 0 -164 16t-139 48l67 145q118 -59 236 -59q102 0 157.5 40.5t55.5 108.5t-62.5 101.5t-203.5 33.5l26 140q123 0 194.5 35.5t71.5 103.5q0 49 -36 71.5t-91 22.5q-87 0 -227 -55l-55 135q162 66 307 66q133 0 203.5 -57t70.5 -152q0 -78 -45 -127t-131 -78
q-54 -16 -80 -19v-4q52 -4 74 -12q65 -19 104.5 -73.5t39.5 -135.5q0 -57 -21 -108.5t-64 -94t-117 -67.5t-171 -25z" />
    <glyph glyph-name="acute" unicode="&#xb4;" horiz-adv-x="614" 
d="M700 1448v-6l-346 -309h-121l-2 6l252 309h217z" />
    <glyph glyph-name="uni00B5" unicode="&#xb5;" horiz-adv-x="1077" 
d="M870 946h172l-184 -946h-172q26 134 64 219l-9 2q-71 -132 -155 -192t-199 -60q-116 0 -190 56l-84 -435h-166l147 756q1 15 10 78l105 522h174l-102 -516q-11 -68 -11 -98q-1 -95 48 -146t143 -51q123 0 205 94t116 271z" />
    <glyph glyph-name="paragraph" unicode="&#xb6;" horiz-adv-x="1251" 
d="M1335 1434l-28 -134h-119l-295 -1517h-143l294 1517h-233l-293 -1517h-143l166 852q-146 0 -237 102t-91 262q0 199 139.5 317t364.5 118h618z" />
    <glyph glyph-name="periodcentered" unicode="&#xb7;" horiz-adv-x="423" 
d="M150 713l45 233h219l-47 -233h-217z" />
    <glyph glyph-name="cedilla" unicode="&#xb8;" horiz-adv-x="507" 
d="M186 49l-69 -123q70 -21 111.5 -51t41.5 -80q0 -29 -12.5 -56t-41 -51.5t-53 -42t-70 -40t-70 -33t-74.5 -31.5l-17 60q49 24 73.5 37.5t54.5 32.5t42.5 35.5t12.5 33.5q0 53 -131 82l127 227h75z" />
    <glyph glyph-name="uni00B9" unicode="&#xb9;" horiz-adv-x="575" 
d="M313 713l107 549q9 48 31 98l-2 4q-22 -22 -58 -37l-145 -65l30 153l205 121l43 90h121l-178 -913h-154z" />
    <glyph glyph-name="ordmasculine" unicode="&#xba;" horiz-adv-x="892" 
d="M524 692q-149 0 -239 80.5t-90 220.5q0 156 107.5 261.5t283.5 105.5q149 0 238 -80.5t89 -220.5q0 -156 -107 -261.5t-282 -105.5zM528 831q103 0 166.5 65t63.5 157q0 81 -48.5 124.5t-129.5 43.5q-103 0 -165.5 -64.5t-62.5 -157.5q0 -81 48 -124.5t128 -43.5z" />
    <glyph glyph-name="guillemotright" unicode="&#xbb;" horiz-adv-x="870" 
d="M-55 63l2 9l235 252q74 82 104 109.5t52 39.5v8q-13 8 -27 31t-69 121l-123 215l2 8h168l219 -395l-373 -398h-190zM260 63l2 9l236 252q75 83 104 110.5t51 38.5v8q-13 8 -27 31t-69 121l-123 215l2 8h170l217 -395l-372 -398h-191z" />
    <glyph glyph-name="onequarter" unicode="&#xbc;" horiz-adv-x="1404" 
d="M92 0l1008 1382h108l-1009 -1382h-107zM268 592l101 514q9 47 28 78l-4 2q-11 -11 -49 -29l-143 -65l18 98l191 102l36 90h72l-153 -790h-97zM1018 0l22 111q4 24 11 36l-2 3q-13 -5 -35 -5h-402l15 76l532 570h109l-103 -521q-6 -28 -12 -39h2q20 5 29 5h104l-55 -91
h-66q-18 0 -28 5l-2 -3q4 -14 0 -32l-23 -115h-96zM748 229q17 7 59 7h209q26 0 51 -7l4 2q-3 16 2 48l57 294q12 69 25 107l-2 2q-18 -33 -61 -78l-308 -334q-24 -27 -39 -37z" />
    <glyph glyph-name="onehalf" unicode="&#xbd;" horiz-adv-x="1386" 
d="M92 0l1008 1382h108l-1009 -1382h-107zM268 592l101 514q9 47 28 78l-4 2q-11 -11 -49 -29l-143 -65l18 98l191 102l36 90h72l-153 -790h-97zM643 0l-4 10l408 391q69 67 106 119t37 101q0 46 -31.5 70t-85.5 24q-97 0 -215 -64l-39 84q138 74 260 74q100 0 157.5 -47
t57.5 -133q0 -32 -9.5 -62.5t-19.5 -51.5t-40 -56.5t-47.5 -53.5t-65.5 -67l-192 -191q-24 -23 -91 -67l2 -2q23 10 132 10h260l-70 -88h-510z" />
    <glyph glyph-name="threequarters" unicode="&#xbe;" horiz-adv-x="1626" 
d="M403 573q-138 0 -251 58l49 92q116 -55 209 -55q99 0 150.5 40t51.5 111q0 144 -243 144l18 94q123 0 193.5 39t70.5 110q0 99 -141 99q-88 0 -201 -48l-37 86q137 58 250 58q112 0 174 -50t62 -137q0 -91 -67.5 -140.5t-178.5 -57.5v-4q91 -2 147 -47.5t56 -143.5
q0 -109 -75 -178.5t-237 -69.5zM313 0l1008 1382h109l-1010 -1382h-107zM1239 0l23 111q4 27 10 36l-2 3q-12 -5 -35 -5h-401l14 76l532 570h109l-103 -521q-6 -28 -12 -39h2q20 5 29 5h104l-55 -91h-65q-19 0 -29 5l-2 -3q4 -14 0 -32l-23 -115h-96zM969 229q17 7 59 7h209
q27 0 51 -7l4 2q-3 16 2 48l58 294q13 74 24 107l-2 2q-18 -33 -61 -78l-307 -334q-24 -27 -39 -37z" />
    <glyph glyph-name="questiondown" unicode="&#xbf;" horiz-adv-x="718" 
d="M641 989l-45 -233h-219l47 233h217zM213 -475q-140 0 -214.5 60t-74.5 175q0 83 39 148t131 137l127 100q62 49 86.5 84.5t24.5 75.5q0 39 -25 74t-86 80l119 133q172 -122 172 -281q0 -72 -37.5 -134t-120.5 -130l-125 -98q-67 -52 -92.5 -87t-25.5 -75q0 -46 32 -71
t90 -25q110 0 295 98l70 -158q-120 -57 -208.5 -81.5t-176.5 -24.5z" />
    <glyph glyph-name="Agrave" unicode="&#xc0;" horiz-adv-x="1406" 
d="M834 1747l137 -221l-4 -4h-119l-217 219l4 6h199zM-70 0l957 1464h18l387 -1464h-190l-103 401h-593l-250 -401h-226zM494 555q40 4 114 4h248q71 0 117 -4v2q-24 40 -41 117l-64 297q-24 107 -18 166h-10q-16 -58 -82 -166l-180 -297q-50 -81 -86 -117z" />
    <glyph glyph-name="Aacute" unicode="&#xc1;" horiz-adv-x="1406" 
d="M1268 1747v-6l-301 -219h-119l-2 4l223 221h199zM-70 0l957 1464h18l387 -1464h-190l-103 401h-593l-250 -401h-226zM494 555q40 4 114 4h248q71 0 117 -4v2q-24 40 -41 117l-64 297q-24 107 -18 166h-10q-16 -58 -82 -166l-180 -297q-50 -81 -86 -117z" />
    <glyph glyph-name="Acircumflex" unicode="&#xc2;" horiz-adv-x="1406" 
d="M578 1522l2 8l278 237h191l188 -237l-2 -8h-152l-53 59q-41 47 -56 73t-16 60h-6q-15 -35 -41 -62.5t-84 -70.5l-77 -59h-172zM-70 0l957 1464h18l387 -1464h-190l-103 401h-593l-250 -401h-226zM494 555q40 4 114 4h248q71 0 117 -4v2q-24 40 -41 117l-64 297
q-24 107 -18 166h-10q-16 -58 -82 -166l-180 -297q-50 -81 -86 -117z" />
    <glyph glyph-name="Atilde" unicode="&#xc3;" horiz-adv-x="1406" 
d="M1087 1526q-53 0 -111 23.5t-109 47t-87 23.5q-66 0 -125 -86l-71 22q83 205 231 205q53 0 111.5 -23.5t109.5 -47t86 -23.5q66 0 125 86l72 -22q-83 -205 -232 -205zM-70 0l957 1464h18l387 -1464h-190l-103 401h-593l-250 -401h-226zM494 555q40 4 114 4h248
q71 0 117 -4v2q-24 40 -41 117l-64 297q-24 107 -18 166h-10q-16 -58 -82 -166l-180 -297q-50 -81 -86 -117z" />
    <glyph glyph-name="Adieresis" unicode="&#xc4;" horiz-adv-x="1406" 
d="M690 1749h166l-45 -227h-166zM1034 1749h168l-43 -227h-168zM-70 0l957 1464h18l387 -1464h-190l-103 401h-593l-250 -401h-226zM494 555q40 4 114 4h248q71 0 117 -4v2q-24 40 -41 117l-64 297q-24 107 -18 166h-10q-16 -58 -82 -166l-180 -297q-50 -81 -86 -117z" />
    <glyph glyph-name="Aring" unicode="&#xc5;" horiz-adv-x="1406" 
d="M928 1378l364 -1378h-190l-103 401h-593l-250 -401h-226l904 1380q-77 15 -118.5 70.5t-41.5 136.5q0 113 76.5 190.5t197.5 77.5q102 0 158.5 -57.5t56.5 -150.5q0 -104 -65 -180t-170 -89zM766 1591q0 -59 34.5 -93t96.5 -34q81 0 126.5 53.5t45.5 124.5
q0 58 -33.5 91.5t-95.5 33.5q-82 0 -128 -53.5t-46 -122.5zM973 555v2q-24 40 -41 117l-64 297q-24 107 -18 166h-10q-16 -58 -82 -166l-180 -297q-50 -81 -86 -117l2 -2q40 4 114 4h248q71 0 117 -4z" />
    <glyph glyph-name="AE" unicode="&#xc6;" horiz-adv-x="1808" 
d="M1419 1257q-31 0 -49 9l-6 -4q4 -19 -4 -52l-55 -292q-6 -33 -17 -52l2 -4q19 8 53 8h461l-35 -176h-460q-30 0 -49 8l-5 -4q2 -12 -4 -51l-82 -424q-5 -33 -16 -51l2 -4q19 8 53 8h518l-32 -176h-744l68 352q6 34 16 54l-2 2q-28 -7 -53 -7h-485l-338 -401h-226
l1225 1434h809l-35 -177h-510zM1010 559q34 0 49 -6l6 2q-2 14 4 51l102 529q13 63 41 149h-4q-47 -85 -98 -147l-420 -496q-29 -36 -47.5 -54.5t-48.5 -35.5l2 -2q37 10 106 10h308z" />
    <glyph glyph-name="Ccedilla" unicode="&#xc7;" horiz-adv-x="1415" 
d="M954 1278q-178 0 -322 -82.5t-226 -228.5t-82 -326q0 -225 130 -355t355 -130q100 0 189.5 29t189.5 94l100 -156q-234 -154 -493 -154h-23l-24 -43q70 -21 111.5 -51t41.5 -80q0 -29 -12.5 -56t-41 -51.5t-53 -42t-70 -40t-70 -33t-74.5 -31.5l-17 60q64 32 95.5 49.5
t59 42.5t27.5 47q0 53 -131 82l86 151q-266 29 -420.5 206t-154.5 456q0 238 109 427.5t303.5 295.5t439.5 106q283 0 485 -164l-114 -155q-183 133 -394 133z" />
    <glyph glyph-name="Egrave" unicode="&#xc8;" horiz-adv-x="1054" 
d="M723 1747l137 -221l-4 -4h-119l-217 219l4 6h199zM1151 1434l-33 -174h-573q-33 0 -49 8l-7 -4q4 -20 -4 -54l-55 -292q-6 -36 -16 -52l4 -4q16 8 53 8h504l-33 -174h-506q-30 0 -51 9l-4 -5q2 -12 -4 -53l-82 -424q-11 -44 -16 -53l2 -4q21 8 53 8h581l-34 -174h-815
l278 1434h807z" />
    <glyph glyph-name="Eacute" unicode="&#xc9;" horiz-adv-x="1054" 
d="M1157 1747v-6l-301 -219h-119l-2 4l223 221h199zM1151 1434l-33 -174h-573q-33 0 -49 8l-7 -4q4 -20 -4 -54l-55 -292q-6 -36 -16 -52l4 -4q16 8 53 8h504l-33 -174h-506q-30 0 -51 9l-4 -5q2 -12 -4 -53l-82 -424q-11 -44 -16 -53l2 -4q21 8 53 8h581l-34 -174h-815
l278 1434h807z" />
    <glyph glyph-name="Ecircumflex" unicode="&#xca;" horiz-adv-x="1054" 
d="M465 1522l2 8l278 237h191l188 -237l-2 -8h-151l-53 59q-41 47 -56 73t-16 60h-6q-15 -35 -41 -62.5t-84 -70.5l-78 -59h-172zM1151 1434l-33 -174h-573q-33 0 -49 8l-7 -4q4 -20 -4 -54l-55 -292q-6 -36 -16 -52l4 -4q16 8 53 8h504l-33 -174h-506q-30 0 -51 9l-4 -5
q2 -12 -4 -53l-82 -424q-11 -44 -16 -53l2 -4q21 8 53 8h581l-34 -174h-815l278 1434h807z" />
    <glyph glyph-name="Edieresis" unicode="&#xcb;" horiz-adv-x="1054" 
d="M578 1749h165l-45 -227h-166zM922 1749h168l-43 -227h-168zM1151 1434l-33 -174h-573q-33 0 -49 8l-7 -4q4 -20 -4 -54l-55 -292q-6 -36 -16 -52l4 -4q16 8 53 8h504l-33 -174h-506q-30 0 -51 9l-4 -5q2 -12 -4 -53l-82 -424q-11 -44 -16 -53l2 -4q21 8 53 8h581
l-34 -174h-815l278 1434h807z" />
    <glyph glyph-name="Igrave" unicode="&#xcc;" horiz-adv-x="503" 
d="M381 1747l137 -221l-4 -4h-119l-217 219l4 6h199zM532 1434l-278 -1434h-188l278 1434h188z" />
    <glyph glyph-name="Iacute" unicode="&#xcd;" horiz-adv-x="503" 
d="M817 1747v-6l-301 -219h-119l-2 4l223 221h199zM532 1434l-278 -1434h-188l278 1434h188z" />
    <glyph glyph-name="Icircumflex" unicode="&#xce;" horiz-adv-x="503" 
d="M125 1522l2 8l279 237h190l188 -237l-2 -8h-151l-53 59q-41 47 -56 73t-16 60h-6q-15 -35 -41 -62.5t-84 -70.5l-78 -59h-172zM532 1434l-278 -1434h-188l278 1434h188z" />
    <glyph glyph-name="Idieresis" unicode="&#xcf;" horiz-adv-x="503" 
d="M238 1749h165l-45 -227h-165zM582 1749h168l-43 -227h-168zM532 1434l-278 -1434h-188l278 1434h188z" />
    <glyph glyph-name="Eth" unicode="&#xd0;" horiz-adv-x="1519" 
d="M866 1434q287 0 456 -167.5t169 -459.5q0 -241 -110.5 -424t-314.5 -283t-474 -100h-436l116 604q6 32 15 51l-2 2q-21 -6 -54 -6h-196l33 166h196q33 0 49 -8l6 4q-2 9 5 51l110 570h432zM641 174q183 0 330.5 76t235 221.5t87.5 335.5q0 217 -120.5 335t-323.5 118
h-215q-33 0 -49 8l-6 -4q4 -19 -5 -52l-38 -200l-29 -148q-5 -33 -16 -51l2 -4q21 8 53 8h344l-33 -166h-342q-33 0 -51 6l-4 -2q2 -10 -2 -51l-74 -383q-5 -33 -16 -51l2 -4q19 8 53 8h217z" />
    <glyph glyph-name="Ntilde" unicode="&#xd1;" horiz-adv-x="1492" 
d="M1114 1526q-53 0 -111 23.5t-109 47t-87 23.5q-66 0 -125 -86l-72 22q83 205 232 205q53 0 111.5 -23.5t109.5 -47t86 -23.5q66 0 125 86l72 -22q-83 -205 -232 -205zM367 1454l690 -940q60 -81 82 -162l6 2q-3 85 31 258l161 822h185l-283 -1454h-18l-689 940
q-61 82 -83 161l-7 -2q3 -88 -30 -256l-160 -823h-186l282 1454h19z" />
    <glyph glyph-name="Ograve" unicode="&#xd2;" horiz-adv-x="1701" 
d="M913 1747l138 -221l-4 -4h-119l-217 219l4 6h198zM836 -31q-320 0 -514.5 186.5t-194.5 493.5q0 173 63.5 324.5t173.5 259t265 169.5t332 62q321 0 514.5 -186t193.5 -494q0 -231 -107.5 -417.5t-298.5 -292t-427 -105.5zM842 154q137 0 254 47.5t199 132t128.5 204
t46.5 259.5q0 215 -143 349t-373 134q-182 0 -325.5 -81.5t-223 -228.5t-79.5 -333q0 -215 143.5 -349t372.5 -134z" />
    <glyph glyph-name="Oacute" unicode="&#xd3;" horiz-adv-x="1701" 
d="M1350 1747v-6l-301 -219h-119l-2 4l223 221h199zM836 -31q-320 0 -514.5 186.5t-194.5 493.5q0 173 63.5 324.5t173.5 259t265 169.5t332 62q321 0 514.5 -186t193.5 -494q0 -231 -107.5 -417.5t-298.5 -292t-427 -105.5zM842 154q137 0 254 47.5t199 132t128.5 204
t46.5 259.5q0 215 -143 349t-373 134q-182 0 -325.5 -81.5t-223 -228.5t-79.5 -333q0 -215 143.5 -349t372.5 -134z" />
    <glyph glyph-name="Ocircumflex" unicode="&#xd4;" horiz-adv-x="1701" 
d="M657 1522l2 8l279 237h190l189 -237l-2 -8h-152l-53 59q-41 47 -56 73t-16 60h-6q-15 -35 -41 -62.5t-84 -70.5l-78 -59h-172zM836 -31q-320 0 -514.5 186.5t-194.5 493.5q0 173 63.5 324.5t173.5 259t265 169.5t332 62q321 0 514.5 -186t193.5 -494
q0 -231 -107.5 -417.5t-298.5 -292t-427 -105.5zM842 154q137 0 254 47.5t199 132t128.5 204t46.5 259.5q0 215 -143 349t-373 134q-182 0 -325.5 -81.5t-223 -228.5t-79.5 -333q0 -215 143.5 -349t372.5 -134z" />
    <glyph glyph-name="Otilde" unicode="&#xd5;" horiz-adv-x="1701" 
d="M1169 1526q-53 0 -111 23.5t-109 47t-87 23.5q-66 0 -125 -86l-71 22q83 205 231 205q53 0 111.5 -23.5t109.5 -47t86 -23.5q66 0 125 86l72 -22q-83 -205 -232 -205zM836 -31q-320 0 -514.5 186.5t-194.5 493.5q0 173 63.5 324.5t173.5 259t265 169.5t332 62
q321 0 514.5 -186t193.5 -494q0 -231 -107.5 -417.5t-298.5 -292t-427 -105.5zM842 154q137 0 254 47.5t199 132t128.5 204t46.5 259.5q0 215 -143 349t-373 134q-182 0 -325.5 -81.5t-223 -228.5t-79.5 -333q0 -215 143.5 -349t372.5 -134z" />
    <glyph glyph-name="Odieresis" unicode="&#xd6;" horiz-adv-x="1701" 
d="M770 1749h166l-45 -227h-166zM1114 1749h168l-43 -227h-168zM836 -31q-320 0 -514.5 186.5t-194.5 493.5q0 173 63.5 324.5t173.5 259t265 169.5t332 62q321 0 514.5 -186t193.5 -494q0 -231 -107.5 -417.5t-298.5 -292t-427 -105.5zM842 154q137 0 254 47.5t199 132
t128.5 204t46.5 259.5q0 215 -143 349t-373 134q-182 0 -325.5 -81.5t-223 -228.5t-79.5 -333q0 -215 143.5 -349t372.5 -134z" />
    <glyph glyph-name="multiply" unicode="&#xd7;" 
d="M1014 1049l63 -66l-375 -373l375 -374l-61 -62l-375 375l-375 -377l-63 66l372 374l-370 373l59 64l377 -377z" />
    <glyph glyph-name="Oslash" unicode="&#xd8;" horiz-adv-x="1701" 
d="M1475 1278q194 -185 194 -494q0 -231 -107.5 -417.5t-298.5 -292t-427 -105.5q-265 0 -445 129l-123 -135l-57 49l123 133q-100 90 -153.5 219t-53.5 285q0 173 63.5 324.5t173.5 259t265 169.5t332 62q274 0 458 -139l125 137l58 -47zM326 637q0 -214 141 -346l819 889
q-140 100 -332 100q-182 0 -325.5 -81.5t-223 -228.5t-79.5 -333zM842 154q137 0 254 47.5t199 132t128.5 204t46.5 259.5q0 204 -129 336l-815 -889q133 -90 316 -90z" />
    <glyph glyph-name="Ugrave" unicode="&#xd9;" horiz-adv-x="1402" 
d="M821 1747l137 -221l-4 -4h-118l-218 219l5 6h198zM637 -31q-235 0 -364.5 118.5t-129.5 336.5q0 83 17 164l168 846h192l-170 -879q-12 -61 -12 -102q0 -138 83 -214.5t234 -76.5q172 0 283.5 101t148.5 292l173 879h192l-174 -889q-54 -282 -217 -429t-424 -147z" />
    <glyph glyph-name="Uacute" unicode="&#xda;" horiz-adv-x="1402" 
d="M1255 1747v-6l-301 -219h-118l-2 4l223 221h198zM637 -31q-235 0 -364.5 118.5t-129.5 336.5q0 83 17 164l168 846h192l-170 -879q-12 -61 -12 -102q0 -138 83 -214.5t234 -76.5q172 0 283.5 101t148.5 292l173 879h192l-174 -889q-54 -282 -217 -429t-424 -147z" />
    <glyph glyph-name="Ucircumflex" unicode="&#xdb;" horiz-adv-x="1402" 
d="M565 1522l2 8l279 237h190l189 -237l-2 -8h-152l-53 59q-41 47 -56 73t-16 60h-6q-15 -35 -41 -62.5t-84 -70.5l-78 -59h-172zM637 -31q-235 0 -364.5 118.5t-129.5 336.5q0 83 17 164l168 846h192l-170 -879q-12 -61 -12 -102q0 -138 83 -214.5t234 -76.5
q172 0 283.5 101t148.5 292l173 879h192l-174 -889q-54 -282 -217 -429t-424 -147z" />
    <glyph glyph-name="Udieresis" unicode="&#xdc;" horiz-adv-x="1402" 
d="M678 1749h166l-45 -227h-166zM1022 1749h168l-43 -227h-168zM637 -31q-235 0 -364.5 118.5t-129.5 336.5q0 83 17 164l168 846h192l-170 -879q-12 -61 -12 -102q0 -138 83 -214.5t234 -76.5q172 0 283.5 101t148.5 292l173 879h192l-174 -889q-54 -282 -217 -429
t-424 -147z" />
    <glyph glyph-name="Yacute" unicode="&#xdd;" horiz-adv-x="1136" 
d="M1120 1747v-6l-301 -219h-119l-2 4l224 221h198zM1309 1434l-631 -867l-111 -567h-184l109 567l-291 867h200l150 -496q27 -91 35.5 -132.5t9.5 -98.5h10q24 57 48.5 99t84.5 132l340 496h230z" />
    <glyph glyph-name="Thorn" unicode="&#xde;" horiz-adv-x="1132" 
d="M66 0l278 1434h186l-51 -256q-7 -38 -16 -54l2 -4q21 8 53 8h184q190 0 300 -97.5t110 -272.5q0 -188 -129.5 -309t-361.5 -121h-256q-36 0 -52 8l-4 -4q3 -11 -4 -51l-53 -281h-186zM344 496q24 6 53 6h226q148 0 220 70.5t72 177.5q0 100 -60.5 152t-164.5 52h-205
q-34 0 -49 9l-6 -5q2 -11 -4 -53l-68 -354q-6 -27 -16 -53z" />
    <glyph glyph-name="germandbls" unicode="&#xdf;" horiz-adv-x="1148" 
d="M717 805q171 -7 261.5 -97.5t90.5 -250.5q0 -219 -153 -343t-424 -124h-156l33 168h108q207 0 308.5 71.5t101.5 219.5q0 140 -91.5 204t-293.5 64l30 157q168 0 262.5 66.5t94.5 183.5q0 82 -51.5 127t-143.5 45q-112 0 -177.5 -60.5t-90.5 -188.5l-256 -1313h-174
l264 1353q34 178 153 277.5t296 99.5q166 0 266 -86t100 -229q0 -138 -93.5 -227t-262.5 -111z" />
    <glyph glyph-name="agrave" unicode="&#xe0;" horiz-adv-x="1040" 
d="M565 1448l135 -309l-4 -6h-121l-225 309l2 6h213zM379 -29q-152 0 -247 88.5t-95 229.5q0 159 103 252.5t280 93.5q124 0 213 -55.5t129 -153.5l6 2q-10 41 6 135q12 82 12 101q0 151 -204 151q-134 0 -303 -41l-33 160q194 41 356 41q172 0 261 -72t89 -211
q0 -46 -12 -110l-111 -582h-174q14 87 52 152l-9 4q-62 -95 -139 -140t-180 -45zM438 115q112 0 190.5 56t78.5 136q0 78 -72.5 130t-179.5 52q-109 0 -171.5 -53t-62.5 -145q0 -82 58 -129t159 -47z" />
    <glyph glyph-name="aacute" unicode="&#xe1;" horiz-adv-x="1040" 
d="M1051 1448v-6l-346 -309h-121l-2 6l252 309h217zM379 -29q-152 0 -247 88.5t-95 229.5q0 159 103 252.5t280 93.5q124 0 213 -55.5t129 -153.5l6 2q-10 41 6 135q12 82 12 101q0 151 -204 151q-134 0 -303 -41l-33 160q194 41 356 41q172 0 261 -72t89 -211
q0 -46 -12 -110l-111 -582h-174q14 87 52 152l-9 4q-62 -95 -139 -140t-180 -45zM438 115q112 0 190.5 56t78.5 136q0 78 -72.5 130t-179.5 52q-109 0 -171.5 -53t-62.5 -145q0 -82 58 -129t159 -47z" />
    <glyph glyph-name="acircumflex" unicode="&#xe2;" horiz-adv-x="1040" 
d="M778 1448l178 -311v-4h-141l-70 118q-33 53 -43.5 76t-11.5 51h-6q-13 -28 -32.5 -51.5t-71.5 -75.5l-119 -118h-162v4l301 311h178zM379 -29q-152 0 -247 88.5t-95 229.5q0 159 103 252.5t280 93.5q124 0 213 -55.5t129 -153.5l6 2q-10 41 6 135q12 82 12 101
q0 151 -204 151q-134 0 -303 -41l-33 160q194 41 356 41q172 0 261 -72t89 -211q0 -46 -12 -110l-111 -582h-174q14 87 52 152l-9 4q-62 -95 -139 -140t-180 -45zM438 115q112 0 190.5 56t78.5 136q0 78 -72.5 130t-179.5 52q-109 0 -171.5 -53t-62.5 -145q0 -82 58 -129
t159 -47z" />
    <glyph glyph-name="atilde" unicode="&#xe3;" horiz-adv-x="1040" 
d="M807 1186q-54 0 -112.5 26.5t-109 53t-85.5 26.5q-66 0 -125 -90l-74 21q85 213 234 213q53 0 111 -27t109 -54.5t87 -27.5q64 0 123 92l71 -22q-17 -42 -35 -75t-45.5 -66.5t-65.5 -51.5t-83 -18zM379 -29q-152 0 -247 88.5t-95 229.5q0 159 103 252.5t280 93.5
q124 0 213 -55.5t129 -153.5l6 2q-10 41 6 135q12 82 12 101q0 151 -204 151q-134 0 -303 -41l-33 160q194 41 356 41q172 0 261 -72t89 -211q0 -46 -12 -110l-111 -582h-174q14 87 52 152l-9 4q-62 -95 -139 -140t-180 -45zM438 115q112 0 190.5 56t78.5 136
q0 78 -72.5 130t-179.5 52q-109 0 -171.5 -53t-62.5 -145q0 -82 58 -129t159 -47z" />
    <glyph glyph-name="adieresis" unicode="&#xe4;" horiz-adv-x="1040" 
d="M606 1434l-49 -250h-166l49 250h166zM961 1434l-50 -250h-168l50 250h168zM379 -29q-152 0 -247 88.5t-95 229.5q0 159 103 252.5t280 93.5q124 0 213 -55.5t129 -153.5l6 2q-10 41 6 135q12 82 12 101q0 151 -204 151q-134 0 -303 -41l-33 160q194 41 356 41
q172 0 261 -72t89 -211q0 -46 -12 -110l-111 -582h-174q14 87 52 152l-9 4q-62 -95 -139 -140t-180 -45zM438 115q112 0 190.5 56t78.5 136q0 78 -72.5 130t-179.5 52q-109 0 -171.5 -53t-62.5 -145q0 -82 58 -129t159 -47z" />
    <glyph glyph-name="aring" unicode="&#xe5;" horiz-adv-x="1040" 
d="M674 1530q104 0 167.5 -62t63.5 -161q0 -105 -70.5 -180.5t-187.5 -75.5q-103 0 -166 62t-63 161q0 105 70.5 180.5t185.5 75.5zM672 1442q-78 0 -119 -49.5t-41 -116.5q0 -64 37 -100.5t102 -36.5q78 0 119 49.5t41 116.5q0 63 -37.5 100t-101.5 37zM379 -29
q-152 0 -247 88.5t-95 229.5q0 159 103 252.5t280 93.5q124 0 213 -55.5t129 -153.5l6 2q-10 41 6 135q12 82 12 101q0 151 -204 151q-134 0 -303 -41l-33 160q194 41 356 41q172 0 261 -72t89 -211q0 -46 -12 -110l-111 -582h-174q14 87 52 152l-9 4q-62 -95 -139 -140
t-180 -45zM438 115q112 0 190.5 56t78.5 136q0 78 -72.5 130t-179.5 52q-109 0 -171.5 -53t-62.5 -145q0 -82 58 -129t159 -47z" />
    <glyph glyph-name="ae" unicode="&#xe6;" horiz-adv-x="1775" 
d="M1214 -31q-153 0 -250.5 62.5t-134.5 179.5h-4q-130 -240 -417 -240q-173 0 -271 88t-98 236q0 147 99.5 243.5t277.5 96.5q262 0 346 -207l6 2q-8 45 6 133q14 68 14 103q0 66 -47 107.5t-155 41.5q-106 0 -307 -41l-33 160q189 41 358 41q138 0 213.5 -47.5
t93.5 -155.5h7q61 96 160.5 150.5t230.5 54.5q192 0 298.5 -107t106.5 -280q0 -56 -18 -148h-647q-84 0 -109 15l-6 -4l4 -17q-2 -12 -2 -39q0 -120 69.5 -192t208.5 -72q101 0 175.5 39t154.5 115l105 -125q-96 -93 -195 -143t-240 -50zM958 557q30 18 95 18h385
q81 0 100 -16l6 2q-2 8 -2 25q0 116 -64.5 177.5t-185.5 61.5q-76 0 -137 -23.5t-99.5 -64t-62 -84t-37.5 -94.5zM438 115q110 0 190.5 55.5t80.5 136.5q0 77 -72.5 129.5t-183.5 52.5q-116 0 -173 -57.5t-57 -138.5q0 -85 59 -131.5t156 -46.5z" />
    <glyph glyph-name="ccedilla" unicode="&#xe7;" horiz-adv-x="1005" 
d="M616 811q-157 0 -258.5 -102t-101.5 -260q0 -140 85.5 -227t221.5 -87q122 0 248 72l72 -148q-153 -87 -310 -90l-24 -43q70 -21 111.5 -51t41.5 -80q0 -29 -12.5 -56t-41 -51.5t-53 -42t-70 -40t-70 -33t-74.5 -31.5l-16 60q64 32 95.5 49.5t59 42.5t27.5 47
q0 53 -131 82l84 149q-196 19 -312 145.5t-116 325.5q0 236 154.5 385.5t400.5 149.5q205 0 377 -123l-101 -141q-131 98 -287 98z" />
    <glyph glyph-name="egrave" unicode="&#xe8;" horiz-adv-x="1105" 
d="M600 1448l135 -309l-4 -6h-121l-225 309l2 6h213zM530 -31q-217 0 -339.5 118t-122.5 327q0 246 156.5 404.5t398.5 158.5q196 0 310 -104t114 -283q0 -54 -21 -148h-674q-83 0 -110 15l-4 -4l2 -17v-39q0 -125 76 -194.5t214 -69.5q95 0 174.5 36t167.5 118l107 -125
q-111 -103 -215 -148t-234 -45zM260 557q30 18 94 18h414q78 0 102 -16l4 2v25q0 115 -68 177t-196 62q-130 0 -223.5 -70.5t-128.5 -195.5z" />
    <glyph glyph-name="eacute" unicode="&#xe9;" horiz-adv-x="1105" 
d="M1087 1448v-6l-346 -309h-120l-3 6l252 309h217zM530 -31q-217 0 -339.5 118t-122.5 327q0 246 156.5 404.5t398.5 158.5q196 0 310 -104t114 -283q0 -54 -21 -148h-674q-83 0 -110 15l-4 -4l2 -17v-39q0 -125 76 -194.5t214 -69.5q95 0 174.5 36t167.5 118l107 -125
q-111 -103 -215 -148t-234 -45zM260 557q30 18 94 18h414q78 0 102 -16l4 2v25q0 115 -68 177t-196 62q-130 0 -223.5 -70.5t-128.5 -195.5z" />
    <glyph glyph-name="ecircumflex" unicode="&#xea;" horiz-adv-x="1105" 
d="M813 1448l178 -311v-4h-141l-70 118q-33 53 -43.5 76t-11.5 51h-6q-13 -28 -32.5 -51t-72.5 -76l-118 -118h-162v4l301 311h178zM530 -31q-217 0 -339.5 118t-122.5 327q0 246 156.5 404.5t398.5 158.5q196 0 310 -104t114 -283q0 -54 -21 -148h-674q-83 0 -110 15l-4 -4
l2 -17v-39q0 -125 76 -194.5t214 -69.5q95 0 174.5 36t167.5 118l107 -125q-111 -103 -215 -148t-234 -45zM260 557q30 18 94 18h414q78 0 102 -16l4 2v25q0 115 -68 177t-196 62q-130 0 -223.5 -70.5t-128.5 -195.5z" />
    <glyph glyph-name="edieresis" unicode="&#xeb;" horiz-adv-x="1105" 
d="M641 1434l-49 -250h-166l49 250h166zM995 1434l-49 -250h-168l49 250h168zM530 -31q-217 0 -339.5 118t-122.5 327q0 246 156.5 404.5t398.5 158.5q196 0 310 -104t114 -283q0 -54 -21 -148h-674q-83 0 -110 15l-4 -4l2 -17v-39q0 -125 76 -194.5t214 -69.5
q95 0 174.5 36t167.5 118l107 -125q-111 -103 -215 -148t-234 -45zM260 557q30 18 94 18h414q78 0 102 -16l4 2v25q0 115 -68 177t-196 62q-130 0 -223.5 -70.5t-128.5 -195.5z" />
    <glyph glyph-name="igrave" unicode="&#xec;" horiz-adv-x="448" 
d="M328 1448l73 -309l-4 -6h-131l-102 309l2 6h162zM403 946l-184 -946h-174l184 946h174z" />
    <glyph glyph-name="iacute" unicode="&#xed;" horiz-adv-x="448" 
d="M641 1448v-6l-209 -309h-145l-2 6l174 309h182zM403 946l-184 -946h-174l184 946h174z" />
    <glyph glyph-name="icircumflex" unicode="&#xee;" horiz-adv-x="448" 
d="M487 1448l76 -311v-4h-121l-24 118q-20 111 -21 127h-4q-17 -47 -69 -127l-74 -118h-144v4l205 311h176zM403 946l-184 -946h-174l184 946h174z" />
    <glyph glyph-name="idieresis" unicode="&#xef;" horiz-adv-x="448" 
d="M354 1434l-49 -250h-166l49 250h166zM616 1434l-47 -250h-170l50 250h167zM403 946l-184 -946h-174l184 946h174z" />
    <glyph glyph-name="eth" unicode="&#xf0;" horiz-adv-x="1257" 
d="M954 1305q109 -80 162 -212.5t53 -332.5q0 -159 -32 -290.5t-89 -223t-134.5 -155t-167.5 -93t-191 -29.5q-222 0 -352.5 133t-130.5 342q0 145 63 265.5t184.5 193t278.5 72.5q189 0 296.5 -104.5t121.5 -270.5h8q6 135 -2 234q-26 261 -203 374l-229 -164l-51 72
l192 137q-110 45 -272 60l28 145q238 -27 387 -102l216 153l49 -71zM575 135q89 0 159.5 32t112 85.5t62.5 117.5t21 134q0 149 -88.5 228t-233.5 79q-91 0 -161 -32t-111 -85t-61.5 -116t-20.5 -132q0 -149 88 -230t233 -81z" />
    <glyph glyph-name="ntilde" unicode="&#xf1;" horiz-adv-x="1120" 
d="M874 1186q-54 0 -112.5 26.5t-109 53t-85.5 26.5q-66 0 -125 -90l-73 21q85 213 233 213q53 0 111 -27t109 -54.5t87 -27.5q64 0 123 92l72 -22q-17 -42 -35.5 -75t-46 -66t-65.5 -51.5t-83 -18.5zM45 0l184 946h174l-6 -31q-19 -118 -59 -206l8 -2q64 139 156 204.5
t223 65.5q148 0 224.5 -78t76.5 -227q0 -64 -18 -162l-103 -510h-172l98 514q13 46 13 102q0 98 -52.5 150.5t-152.5 52.5q-260 0 -334 -373l-86 -446h-174z" />
    <glyph glyph-name="ograve" unicode="&#xf2;" horiz-adv-x="1161" 
d="M604 1448l135 -309l-4 -6h-121l-225 309l2 6h213zM530 -31q-214 0 -339 120.5t-125 326.5q0 241 161 401t404 160q214 0 338.5 -120.5t124.5 -326.5q0 -159 -73 -287.5t-202 -201t-289 -72.5zM547 139q158 0 262 109t104 274q0 133 -79.5 209t-219.5 76
q-159 0 -263.5 -109t-104.5 -274q0 -134 80 -209.5t221 -75.5z" />
    <glyph glyph-name="oacute" unicode="&#xf3;" horiz-adv-x="1161" 
d="M1090 1448v-6l-347 -309h-120l-2 6l251 309h218zM530 -31q-214 0 -339 120.5t-125 326.5q0 241 161 401t404 160q214 0 338.5 -120.5t124.5 -326.5q0 -159 -73 -287.5t-202 -201t-289 -72.5zM547 139q158 0 262 109t104 274q0 133 -79.5 209t-219.5 76
q-159 0 -263.5 -109t-104.5 -274q0 -134 80 -209.5t221 -75.5z" />
    <glyph glyph-name="ocircumflex" unicode="&#xf4;" horiz-adv-x="1161" 
d="M817 1448l178 -311v-4h-141l-70 118q-33 53 -43.5 76t-11.5 51h-6q-13 -28 -32.5 -51t-72.5 -76l-118 -118h-162v4l301 311h178zM530 -31q-214 0 -339 120.5t-125 326.5q0 241 161 401t404 160q214 0 338.5 -120.5t124.5 -326.5q0 -159 -73 -287.5t-202 -201t-289 -72.5z
M547 139q158 0 262 109t104 274q0 133 -79.5 209t-219.5 76q-159 0 -263.5 -109t-104.5 -274q0 -134 80 -209.5t221 -75.5z" />
    <glyph glyph-name="otilde" unicode="&#xf5;" horiz-adv-x="1161" 
d="M846 1186q-54 0 -112.5 26.5t-109 53t-85.5 26.5q-66 0 -125 -90l-74 21q85 213 233 213q42 0 88.5 -17t79.5 -37.5t72 -37.5t68 -17q64 0 123 92l71 -22q-17 -42 -35 -75t-45.5 -66.5t-65.5 -51.5t-83 -18zM530 -31q-214 0 -339 120.5t-125 326.5q0 241 161 401t404 160
q214 0 338.5 -120.5t124.5 -326.5q0 -159 -73 -287.5t-202 -201t-289 -72.5zM547 139q158 0 262 109t104 274q0 133 -79.5 209t-219.5 76q-159 0 -263.5 -109t-104.5 -274q0 -134 80 -209.5t221 -75.5z" />
    <glyph glyph-name="odieresis" unicode="&#xf6;" horiz-adv-x="1161" 
d="M645 1434l-49 -250h-166l49 250h166zM999 1434l-49 -250h-168l49 250h168zM530 -31q-214 0 -339 120.5t-125 326.5q0 241 161 401t404 160q214 0 338.5 -120.5t124.5 -326.5q0 -159 -73 -287.5t-202 -201t-289 -72.5zM547 139q158 0 262 109t104 274q0 133 -79.5 209
t-219.5 76q-159 0 -263.5 -109t-104.5 -274q0 -134 80 -209.5t221 -75.5z" />
    <glyph glyph-name="divide" unicode="&#xf7;" 
d="M715 1010v-166h-146v166h146zM1171 653v-84h-1060v84h1060zM715 377v-166h-146v166h146z" />
    <glyph glyph-name="oslash" unicode="&#xf8;" horiz-adv-x="1161" 
d="M1118 930l-117 -109q93 -117 93 -291q0 -159 -73 -287.5t-202 -201t-289 -72.5q-200 0 -325 109l-113 -107l-47 45l115 109q-94 114 -94 291q0 241 161 401t404 160q200 0 325 -109l115 109zM246 424q0 -100 49 -174l526 493q-80 64 -207 64q-159 0 -263.5 -109
t-104.5 -274zM913 522q0 104 -47 172l-526 -491q80 -64 207 -64q158 0 262 109t104 274z" />
    <glyph glyph-name="ugrave" unicode="&#xf9;" horiz-adv-x="1077" 
d="M573 1448l136 -309l-4 -6h-121l-226 309l2 6h213zM1042 946l-184 -946h-172q26 134 64 219l-9 2q-71 -132 -155 -192t-199 -60q-142 0 -220.5 82t-76.5 228q0 62 14 145l105 522h174l-102 -516q-11 -68 -11 -98q-1 -95 48 -146t143 -51q123 0 205 94t116 271l88 446h172z
" />
    <glyph glyph-name="uacute" unicode="&#xfa;" horiz-adv-x="1077" 
d="M1061 1448v-6l-346 -309h-121l-2 6l252 309h217zM1042 946l-184 -946h-172q26 134 64 219l-9 2q-71 -132 -155 -192t-199 -60q-142 0 -220.5 82t-76.5 228q0 62 14 145l105 522h174l-102 -516q-11 -68 -11 -98q-1 -95 48 -146t143 -51q123 0 205 94t116 271l88 446h172z
" />
    <glyph glyph-name="ucircumflex" unicode="&#xfb;" horiz-adv-x="1077" 
d="M786 1448l179 -311v-4h-142l-69 118q-34 54 -44.5 76.5t-11.5 50.5h-6q-13 -28 -32.5 -51.5t-71.5 -75.5l-119 -118h-162v4l301 311h178zM1042 946l-184 -946h-172q26 134 64 219l-9 2q-71 -132 -155 -192t-199 -60q-142 0 -220.5 82t-76.5 228q0 62 14 145l105 522h174
l-102 -516q-11 -68 -11 -98q-1 -95 48 -146t143 -51q123 0 205 94t116 271l88 446h172z" />
    <glyph glyph-name="udieresis" unicode="&#xfc;" horiz-adv-x="1077" 
d="M614 1434l-49 -250h-166l50 250h165zM969 1434l-49 -250h-168l49 250h168zM1042 946l-184 -946h-172q26 134 64 219l-9 2q-71 -132 -155 -192t-199 -60q-142 0 -220.5 82t-76.5 228q0 62 14 145l105 522h174l-102 -516q-11 -68 -11 -98q-1 -95 48 -146t143 -51
q123 0 205 94t116 271l88 446h172z" />
    <glyph glyph-name="yacute" unicode="&#xfd;" horiz-adv-x="985" 
d="M1018 1448v-6l-346 -309h-121l-2 6l252 309h217zM1063 946l-842 -1358h-198l307 494l-224 864h193l115 -491q32 -145 24 -246l8 2q26 84 74 166l346 569h197z" />
    <glyph glyph-name="thorn" unicode="&#xfe;" horiz-adv-x="1212" 
d="M-33 -410l361 1844h174l-96 -488q-22 -114 -52 -188l6 -4q54 109 154 166t217 57q178 0 296 -123t118 -330q0 -114 -38.5 -216t-106 -177t-165 -118.5t-210.5 -43.5q-138 0 -235 65t-132 187l-8 -2q0 -78 -29 -219l-80 -410h-174zM594 133q115 0 201.5 57.5t128 145
t41.5 188.5q0 132 -77 210.5t-212 78.5q-114 0 -202 -57t-131.5 -145.5t-43.5 -190.5q0 -130 77.5 -208.5t217.5 -78.5z" />
    <glyph glyph-name="ydieresis" unicode="&#xff;" horiz-adv-x="985" 
d="M573 1434l-49 -250h-166l50 250h165zM928 1434l-49 -250h-168l49 250h168zM1063 946l-842 -1358h-198l307 494l-224 864h193l115 -491q32 -145 24 -246l8 2q26 84 74 166l346 569h197z" />
    <glyph glyph-name="Amacron" unicode="&#x100;" horiz-adv-x="1406" 
d="M643 1683h590l-25 -120h-590zM-70 0l957 1464h18l387 -1464h-190l-103 401h-593l-250 -401h-226zM494 555q40 4 114 4h248q71 0 117 -4v2q-24 40 -41 117l-64 297q-24 107 -18 166h-10q-16 -58 -82 -166l-180 -297q-50 -81 -86 -117z" />
    <glyph glyph-name="amacron" unicode="&#x101;" horiz-adv-x="1040" 
d="M981 1368l-25 -127h-587l26 127h586zM379 -29q-152 0 -247 88.5t-95 229.5q0 159 103 252.5t280 93.5q124 0 213 -55.5t129 -153.5l6 2q-10 41 6 135q12 82 12 101q0 151 -204 151q-134 0 -303 -41l-33 160q194 41 356 41q172 0 261 -72t89 -211q0 -46 -12 -110
l-111 -582h-174q14 87 52 152l-9 4q-62 -95 -139 -140t-180 -45zM438 115q112 0 190.5 56t78.5 136q0 78 -72.5 130t-179.5 52q-109 0 -171.5 -53t-62.5 -145q0 -82 58 -129t159 -47z" />
    <glyph glyph-name="Abreve" unicode="&#x102;" horiz-adv-x="1406" 
d="M913 1518q-117 0 -180 53.5t-63 150.5q0 19 2 31h127v-22q0 -45 33 -69t96 -24q136 0 178 115h129q-28 -110 -113.5 -172.5t-208.5 -62.5zM-70 0l957 1464h18l387 -1464h-190l-103 401h-593l-250 -401h-226zM494 555q40 4 114 4h248q71 0 117 -4v2q-24 40 -41 117
l-64 297q-24 107 -18 166h-10q-16 -58 -82 -166l-180 -297q-50 -81 -86 -117z" />
    <glyph glyph-name="abreve" unicode="&#x103;" horiz-adv-x="1040" 
d="M655 1147q-116 0 -182.5 58t-66.5 167q0 33 8 72h118q-4 -36 -4 -51q0 -131 134 -131q155 0 194 182h121q-26 -146 -108.5 -221.5t-213.5 -75.5zM379 -29q-152 0 -247 88.5t-95 229.5q0 159 103 252.5t280 93.5q124 0 213 -55.5t129 -153.5l6 2q-10 41 6 135
q12 82 12 101q0 151 -204 151q-134 0 -303 -41l-33 160q194 41 356 41q172 0 261 -72t89 -211q0 -46 -12 -110l-111 -582h-174q14 87 52 152l-9 4q-62 -95 -139 -140t-180 -45zM438 115q112 0 190.5 56t78.5 136q0 78 -72.5 130t-179.5 52q-109 0 -171.5 -53t-62.5 -145
q0 -82 58 -129t159 -47z" />
    <glyph glyph-name="Aogonek" unicode="&#x104;" horiz-adv-x="1406" 
d="M1012 -272q46 0 92 12l8 -100q-83 -27 -145 -27q-71 0 -112.5 33.5t-41.5 91.5q0 76 65.5 142.5t213.5 160.5l-93 360h-593l-250 -401h-226l957 1464h18l387 -1464h-139q-111 -78 -161 -128.5t-50 -92.5q0 -51 70 -51zM973 555v2q-24 40 -41 117l-64 297q-24 107 -18 166
h-10q-16 -58 -82 -166l-180 -297q-50 -81 -86 -117l2 -2q40 4 114 4h248q71 0 117 -4z" />
    <glyph glyph-name="aogonek" unicode="&#x105;" horiz-adv-x="1040" 
d="M602 975q172 0 261 -72t89 -211q0 -46 -12 -110l-111 -582h-108q-111 -78 -161 -128.5t-50 -92.5q0 -51 70 -51q46 0 92 12l8 -100q-83 -27 -145 -27q-71 0 -112.5 33.5t-41.5 91.5q0 77 67 144.5t216 160.5q12 52 43 109l-9 4q-62 -95 -139 -140t-180 -45
q-152 0 -247 88.5t-95 229.5q0 159 103 252.5t280 93.5q124 0 213 -55.5t129 -153.5l6 2q-10 41 6 135q12 82 12 101q0 151 -204 151q-134 0 -303 -41l-33 160q194 41 356 41zM438 115q112 0 190.5 56t78.5 136q0 78 -72.5 130t-179.5 52q-109 0 -171.5 -53t-62.5 -145
q0 -82 58 -129t159 -47z" />
    <glyph glyph-name="Cacute" unicode="&#x106;" horiz-adv-x="1415" 
d="M1348 1747v-6l-301 -219h-119l-2 4l223 221h199zM795 -31q-306 0 -488 181.5t-182 484.5q0 238 109 427.5t303.5 295.5t439.5 106q283 0 485 -164l-114 -155q-183 133 -394 133q-178 0 -322 -82.5t-226 -228.5t-82 -326q0 -225 130 -355t355 -130q100 0 189.5 29
t189.5 94l100 -156q-234 -154 -493 -154z" />
    <glyph glyph-name="cacute" unicode="&#x107;" horiz-adv-x="1005" 
d="M1055 1448v-6l-346 -309h-121l-2 6l252 309h217zM559 -31q-221 0 -354 129.5t-133 343.5q0 236 154.5 385.5t400.5 149.5q205 0 377 -123l-101 -141q-131 98 -287 98q-157 0 -258.5 -102t-101.5 -260q0 -140 85.5 -227t221.5 -87q122 0 248 72l72 -148q-161 -90 -324 -90
z" />
    <glyph glyph-name="Ccircumflex" unicode="&#x108;" horiz-adv-x="1415" 
d="M657 1522l2 8l279 237h190l189 -237l-2 -8h-152l-53 59q-41 47 -56 73t-16 60h-6q-15 -35 -41 -62.5t-84 -70.5l-78 -59h-172zM795 -31q-306 0 -488 181.5t-182 484.5q0 238 109 427.5t303.5 295.5t439.5 106q283 0 485 -164l-114 -155q-183 133 -394 133
q-178 0 -322 -82.5t-226 -228.5t-82 -326q0 -225 130 -355t355 -130q100 0 189.5 29t189.5 94l100 -156q-234 -154 -493 -154z" />
    <glyph glyph-name="ccircumflex" unicode="&#x109;" horiz-adv-x="1005" 
d="M780 1448l178 -311v-4h-141l-69 118q-34 54 -44.5 76.5t-11.5 50.5h-6q-13 -28 -32.5 -51.5t-71.5 -75.5l-119 -118h-162v4l301 311h178zM559 -31q-221 0 -354 129.5t-133 343.5q0 236 154.5 385.5t400.5 149.5q205 0 377 -123l-101 -141q-131 98 -287 98
q-157 0 -258.5 -102t-101.5 -260q0 -140 85.5 -227t221.5 -87q122 0 248 72l72 -148q-161 -90 -324 -90z" />
    <glyph glyph-name="Cdotaccent" unicode="&#x10a;" horiz-adv-x="1415" 
d="M1120 1751l-45 -231h-178l45 231h178zM795 -31q-306 0 -488 181.5t-182 484.5q0 238 109 427.5t303.5 295.5t439.5 106q283 0 485 -164l-114 -155q-183 133 -394 133q-178 0 -322 -82.5t-226 -228.5t-82 -326q0 -225 130 -355t355 -130q100 0 189.5 29t189.5 94l100 -156
q-234 -154 -493 -154z" />
    <glyph glyph-name="cdotaccent" unicode="&#x10b;" horiz-adv-x="1005" 
d="M809 1434l-51 -269h-197l53 269h195zM559 -31q-221 0 -354 129.5t-133 343.5q0 236 154.5 385.5t400.5 149.5q205 0 377 -123l-101 -141q-131 98 -287 98q-157 0 -258.5 -102t-101.5 -260q0 -140 85.5 -227t221.5 -87q122 0 248 72l72 -148q-161 -90 -324 -90z" />
    <glyph glyph-name="Ccaron" unicode="&#x10c;" horiz-adv-x="1415" 
d="M1364 1767l-2 -8l-281 -237h-190l-186 237l2 8h151l55 -59q41 -44 56 -70.5t16 -62.5h6q14 35 38.5 60.5t84.5 72.5l76 59h174zM795 -31q-306 0 -488 181.5t-182 484.5q0 238 109 427.5t303.5 295.5t439.5 106q283 0 485 -164l-114 -155q-183 133 -394 133
q-178 0 -322 -82.5t-226 -228.5t-82 -326q0 -225 130 -355t355 -130q100 0 189.5 29t189.5 94l100 -156q-234 -154 -493 -154z" />
    <glyph glyph-name="ccaron" unicode="&#x10d;" horiz-adv-x="1005" 
d="M553 1122l-176 310v6h139l72 -119q32 -53 42 -76t11 -51h8q8 19 22 38t28 33.5t55 55.5l116 119h164l-2 -6l-299 -310h-180zM559 -31q-221 0 -354 129.5t-133 343.5q0 236 154.5 385.5t400.5 149.5q205 0 377 -123l-101 -141q-131 98 -287 98q-157 0 -258.5 -102
t-101.5 -260q0 -140 85.5 -227t221.5 -87q122 0 248 72l72 -148q-161 -90 -324 -90z" />
    <glyph glyph-name="Dcaron" unicode="&#x10e;" horiz-adv-x="1429" 
d="M1165 1767l-2 -8l-280 -237h-191l-186 237l2 8h151l56 -59q41 -44 55.5 -70.5t15.5 -62.5h7q15 36 39 61.5t83 71.5l76 59h174zM66 0l278 1434h432q287 0 456 -169t169 -456q0 -183 -64 -334t-180 -255.5t-284 -162t-371 -57.5h-436zM281 166q19 8 53 8h217
q288 0 470.5 177.5t182.5 457.5q0 211 -118.5 331t-325.5 120h-215q-33 0 -49 8l-7 -4q3 -19 -4 -52l-190 -991q-9 -39 -16 -51z" />
    <glyph glyph-name="dcaron" unicode="&#x10f;" horiz-adv-x="1402" 
d="M1436 1495h172l-238 -405h-84zM481 -31q-184 0 -298.5 126t-114.5 327q0 156 67.5 283.5t187 199.5t265.5 72q141 0 236.5 -66.5t127.5 -187.5l9 2q-3 67 28 221l101 518h174l-285 -1464h-168q22 113 49 199l-6 2q-51 -108 -150 -170t-223 -62zM537 133
q161 0 268.5 112.5t107.5 280.5q0 134 -78 210.5t-214 76.5q-166 0 -269.5 -109t-103.5 -282q0 -133 78.5 -211t210.5 -78z" />
    <glyph glyph-name="Dcroat" unicode="&#x110;" horiz-adv-x="1386" 
d="M866 1434q287 0 456 -167.5t169 -459.5q0 -241 -110.5 -424t-314.5 -283t-474 -100h-436l116 604q6 32 15 51l-2 2q-21 -6 -54 -6h-196l33 166h196q33 0 49 -8l6 4q-2 9 5 51l110 570h432zM641 174q183 0 330.5 76t235 221.5t87.5 335.5q0 217 -120.5 335t-323.5 118
h-215q-33 0 -49 8l-6 -4q4 -19 -5 -52l-38 -200l-29 -148q-5 -33 -16 -51l2 -4q21 8 53 8h344l-33 -166h-342q-33 0 -51 6l-4 -2q2 -10 -2 -51l-74 -383q-5 -33 -16 -51l2 -4q19 8 53 8h217z" />
    <glyph glyph-name="dcroat" unicode="&#x111;" horiz-adv-x="1214" 
d="M1276 1276h84l-21 -109h-86q-35 0 -53 9l-2 -2q5 -20 -2 -56l-16 -88l-201 -1030h-168q18 105 49 199l-6 2q-52 -110 -151.5 -171t-221.5 -61q-182 0 -297.5 125.5t-115.5 327.5q0 236 148 395.5t372 159.5q140 0 235 -66.5t131 -185.5l9 2q-5 60 26 219l17 84l18 88
q6 40 18 56v2q-24 -9 -59 -9h-272l22 109h273q37 0 53 -8l4 2q-6 20 0 53l29 141h174l-29 -141q-7 -33 -20 -53l2 -2q19 8 57 8zM537 133q162 0 269 112.5t107 280.5q0 133 -77 210t-215 77q-168 0 -270.5 -110t-102.5 -281q0 -133 78.5 -211t210.5 -78z" />
    <glyph glyph-name="Emacron" unicode="&#x112;" horiz-adv-x="1054" 
d="M532 1683h590l-24 -120h-590zM1151 1434l-33 -174h-573q-33 0 -49 8l-7 -4q4 -20 -4 -54l-55 -292q-6 -36 -16 -52l4 -4q16 8 53 8h504l-33 -174h-506q-30 0 -51 9l-4 -5q2 -12 -4 -53l-82 -424q-11 -44 -16 -53l2 -4q21 8 53 8h581l-34 -174h-815l278 1434h807z" />
    <glyph glyph-name="emacron" unicode="&#x113;" horiz-adv-x="1105" 
d="M1018 1368l-25 -127h-587l26 127h586zM530 -31q-217 0 -339.5 118t-122.5 327q0 246 156.5 404.5t398.5 158.5q196 0 310 -104t114 -283q0 -54 -21 -148h-674q-83 0 -110 15l-4 -4l2 -17v-39q0 -125 76 -194.5t214 -69.5q95 0 174.5 36t167.5 118l107 -125
q-111 -103 -215 -148t-234 -45zM260 557q30 18 94 18h414q78 0 102 -16l4 2v25q0 115 -68 177t-196 62q-130 0 -223.5 -70.5t-128.5 -195.5z" />
    <glyph glyph-name="Ebreve" unicode="&#x114;" horiz-adv-x="1054" 
d="M801 1518q-115 0 -178.5 53.5t-63.5 150.5v31h129q0 -4 -1 -11.5t-1 -10.5q0 -44 34 -68.5t97 -24.5q136 0 178 115h127q-26 -110 -112 -172.5t-209 -62.5zM1151 1434l-33 -174h-573q-33 0 -49 8l-7 -4q4 -20 -4 -54l-55 -292q-6 -36 -16 -52l4 -4q16 8 53 8h504
l-33 -174h-506q-30 0 -51 9l-4 -5q2 -12 -4 -53l-82 -424q-11 -44 -16 -53l2 -4q21 8 53 8h581l-34 -174h-815l278 1434h807z" />
    <glyph glyph-name="ebreve" unicode="&#x115;" horiz-adv-x="1105" 
d="M690 1147q-116 0 -183 58.5t-67 166.5q0 28 9 72h118q-4 -36 -4 -51q0 -131 133 -131q73 0 124 45t71 137h121q-26 -146 -108.5 -221.5t-213.5 -75.5zM530 -31q-217 0 -339.5 118t-122.5 327q0 246 156.5 404.5t398.5 158.5q196 0 310 -104t114 -283q0 -54 -21 -148h-674
q-83 0 -110 15l-4 -4l2 -17v-39q0 -125 76 -194.5t214 -69.5q95 0 174.5 36t167.5 118l107 -125q-111 -103 -215 -148t-234 -45zM260 557q30 18 94 18h414q78 0 102 -16l4 2v25q0 115 -68 177t-196 62q-130 0 -223.5 -70.5t-128.5 -195.5z" />
    <glyph glyph-name="Edotaccent" unicode="&#x116;" horiz-adv-x="1054" 
d="M930 1751l-45 -231h-178l45 231h178zM1151 1434l-33 -174h-573q-33 0 -49 8l-7 -4q4 -20 -4 -54l-55 -292q-6 -36 -16 -52l4 -4q16 8 53 8h504l-33 -174h-506q-30 0 -51 9l-4 -5q2 -12 -4 -53l-82 -424q-11 -44 -16 -53l2 -4q21 8 53 8h581l-34 -174h-815l278 1434h807z
" />
    <glyph glyph-name="edotaccent" unicode="&#x117;" horiz-adv-x="1105" 
d="M842 1434l-51 -269h-197l53 269h195zM530 -31q-217 0 -339.5 118t-122.5 327q0 246 156.5 404.5t398.5 158.5q196 0 310 -104t114 -283q0 -54 -21 -148h-674q-83 0 -110 15l-4 -4l2 -17v-39q0 -125 76 -194.5t214 -69.5q95 0 174.5 36t167.5 118l107 -125
q-111 -103 -215 -148t-234 -45zM260 557q30 18 94 18h414q78 0 102 -16l4 2v25q0 115 -68 177t-196 62q-130 0 -223.5 -70.5t-128.5 -195.5z" />
    <glyph glyph-name="Eogonek" unicode="&#x118;" horiz-adv-x="1054" 
d="M545 1260q-33 0 -49 8l-7 -4q4 -20 -4 -54l-55 -292q-6 -36 -16 -52l4 -4q16 8 53 8h504l-33 -174h-506q-30 0 -51 9l-4 -5q2 -12 -4 -53l-82 -424q-11 -44 -16 -53l2 -4q21 8 53 8h581l-34 -174h-99q-111 -78 -161 -128.5t-50 -92.5q0 -51 70 -51q45 0 92 12l8 -100
q-83 -27 -145 -27q-71 0 -112.5 33.5t-41.5 91.5q0 67 53 127.5t164 134.5h-593l278 1434h807l-33 -174h-573z" />
    <glyph glyph-name="eogonek" unicode="&#x119;" horiz-adv-x="1105" 
d="M352 442q-83 0 -110 15l-4 -4l2 -17v-39q0 -125 76 -194.5t214 -69.5q95 0 174.5 36t167.5 118l107 -125q-120 -114 -242 -160q-112 -77 -163.5 -128.5t-51.5 -94.5q0 -51 70 -51q46 0 92 12l8 -100q-83 -27 -145 -27q-71 0 -112.5 33.5t-41.5 91.5q0 61 42.5 115.5
t129.5 115.5h-35q-217 0 -339.5 118t-122.5 327q0 246 156.5 404.5t398.5 158.5q196 0 310 -104t114 -283q0 -54 -21 -148h-674zM610 825q-130 0 -223.5 -70.5t-128.5 -195.5l2 -2q30 18 94 18h414q78 0 102 -16l4 2v25q0 115 -68 177t-196 62z" />
    <glyph glyph-name="Ecaron" unicode="&#x11a;" horiz-adv-x="1054" 
d="M1171 1767l-2 -8l-280 -237h-191l-186 237l2 8h152l55 -59q41 -44 56 -70.5t16 -62.5h6q14 35 38.5 60.5t84.5 72.5l75 59h174zM1151 1434l-33 -174h-573q-33 0 -49 8l-7 -4q4 -20 -4 -54l-55 -292q-6 -36 -16 -52l4 -4q16 8 53 8h504l-33 -174h-506q-30 0 -51 9l-4 -5
q2 -12 -4 -53l-82 -424q-11 -44 -16 -53l2 -4q21 8 53 8h581l-34 -174h-815l278 1434h807z" />
    <glyph glyph-name="ecaron" unicode="&#x11b;" horiz-adv-x="1105" 
d="M586 1122l-176 310v6h139l72 -119q32 -53 42 -76t11 -51h8q11 27 30 49.5t74 77.5l117 119h164l-2 -6l-299 -310h-180zM530 -31q-217 0 -339.5 118t-122.5 327q0 246 156.5 404.5t398.5 158.5q196 0 310 -104t114 -283q0 -54 -21 -148h-674q-83 0 -110 15l-4 -4l2 -17
v-39q0 -125 76 -194.5t214 -69.5q95 0 174.5 36t167.5 118l107 -125q-111 -103 -215 -148t-234 -45zM260 557q30 18 94 18h414q78 0 102 -16l4 2v25q0 115 -68 177t-196 62q-130 0 -223.5 -70.5t-128.5 -195.5z" />
    <glyph glyph-name="Gcircumflex" unicode="&#x11c;" horiz-adv-x="1642" 
d="M666 1522l2 8l278 237h191l188 -237l-2 -8h-152l-53 59q-40 47 -55 73t-16 60h-7q-15 -35 -41 -62.5t-84 -70.5l-77 -59h-172zM829 -29q-323 0 -512.5 183t-189.5 493q0 234 108.5 420.5t300.5 290.5t433 104q337 0 577 -211l-141 -145q-94 82 -212 126t-245 44
q-180 0 -322 -81t-221 -223.5t-79 -320.5q0 -232 135.5 -362.5t374.5 -130.5q228 0 378 124.5t189 340.5l-4 4q-59 -25 -144 -25h-370l35 174h712l-14 -88q-60 -342 -264.5 -529.5t-524.5 -187.5z" />
    <glyph glyph-name="gcircumflex" unicode="&#x11d;" horiz-adv-x="1198" 
d="M817 1448l178 -311v-4h-141l-70 118q-33 53 -43.5 76t-11.5 51h-6q-13 -28 -32.5 -51t-72.5 -76l-118 -118h-162v4l301 311h178zM444 -440q-279 0 -460 139l112 149q167 -122 357 -122q297 0 356 280q19 90 27 120.5t24 72.5l-4 2q-53 -109 -152 -170.5t-223 -61.5
q-183 0 -298 126t-115 327q0 238 149 396.5t373 158.5q140 0 234.5 -65.5t129.5 -186.5l9 2q-5 69 26 219h172l-182 -944q-41 -224 -173.5 -333t-361.5 -109zM539 133q160 0 268 113t108 280q0 134 -78 210.5t-216 76.5q-160 0 -265.5 -111t-105.5 -280q0 -132 78 -210.5
t211 -78.5z" />
    <glyph glyph-name="Gbreve" unicode="&#x11e;" horiz-adv-x="1642" 
d="M1001 1518q-115 0 -178 53.5t-63 150.5v31h129q0 -4 -1 -11.5t-1 -10.5q0 -44 34 -68.5t97 -24.5q136 0 178 115h127q-26 -110 -112.5 -172.5t-209.5 -62.5zM829 -29q-323 0 -512.5 183t-189.5 493q0 234 108.5 420.5t300.5 290.5t433 104q337 0 577 -211l-141 -145
q-94 82 -212 126t-245 44q-180 0 -322 -81t-221 -223.5t-79 -320.5q0 -232 135.5 -362.5t374.5 -130.5q228 0 378 124.5t189 340.5l-4 4q-59 -25 -144 -25h-370l35 174h712l-14 -88q-60 -342 -264.5 -529.5t-524.5 -187.5z" />
    <glyph glyph-name="gbreve" unicode="&#x11f;" horiz-adv-x="1198" 
d="M692 1147q-116 0 -183 58.5t-67 166.5q0 28 9 72h118q-4 -36 -4 -51q0 -131 133 -131q73 0 124 45t71 137h121q-26 -146 -108.5 -221.5t-213.5 -75.5zM444 -440q-279 0 -460 139l112 149q167 -122 357 -122q297 0 356 280q19 90 27 120.5t24 72.5l-4 2
q-53 -109 -152 -170.5t-223 -61.5q-183 0 -298 126t-115 327q0 238 149 396.5t373 158.5q140 0 234.5 -65.5t129.5 -186.5l9 2q-5 69 26 219h172l-182 -944q-41 -224 -173.5 -333t-361.5 -109zM539 133q160 0 268 113t108 280q0 134 -78 210.5t-216 76.5q-160 0 -265.5 -111
t-105.5 -280q0 -132 78 -210.5t211 -78.5z" />
    <glyph glyph-name="Gdotaccent" unicode="&#x120;" horiz-adv-x="1642" 
d="M1130 1751l-45 -231h-178l45 231h178zM829 -29q-323 0 -512.5 183t-189.5 493q0 234 108.5 420.5t300.5 290.5t433 104q337 0 577 -211l-141 -145q-94 82 -212 126t-245 44q-180 0 -322 -81t-221 -223.5t-79 -320.5q0 -232 135.5 -362.5t374.5 -130.5q228 0 378 124.5
t189 340.5l-4 4q-59 -25 -144 -25h-370l35 174h712l-14 -88q-60 -342 -264.5 -529.5t-524.5 -187.5z" />
    <glyph glyph-name="gdotaccent" unicode="&#x121;" horiz-adv-x="1198" 
d="M844 1434l-51 -269h-197l53 269h195zM444 -440q-279 0 -460 139l112 149q167 -122 357 -122q297 0 356 280q19 90 27 120.5t24 72.5l-4 2q-53 -109 -152 -170.5t-223 -61.5q-183 0 -298 126t-115 327q0 238 149 396.5t373 158.5q140 0 234.5 -65.5t129.5 -186.5l9 2
q-5 69 26 219h172l-182 -944q-41 -224 -173.5 -333t-361.5 -109zM539 133q160 0 268 113t108 280q0 134 -78 210.5t-216 76.5q-160 0 -265.5 -111t-105.5 -280q0 -132 78 -210.5t211 -78.5z" />
    <glyph glyph-name="Gcommaaccent" unicode="&#x122;" horiz-adv-x="1642" 
d="M829 -29q-323 0 -512.5 183t-189.5 493q0 234 108.5 420.5t300.5 290.5t433 104q337 0 577 -211l-141 -145q-94 82 -212 126t-245 44q-180 0 -322 -81t-221 -223.5t-79 -320.5q0 -232 135.5 -362.5t374.5 -130.5q228 0 378 124.5t189 340.5l-4 4q-59 -25 -144 -25h-370
l35 174h712l-14 -88q-60 -342 -264.5 -529.5t-524.5 -187.5zM858 -104l-219 -336h-96l135 336h180z" />
    <glyph glyph-name="gcommaaccent" unicode="&#x123;" horiz-adv-x="1185" 
d="M784 1133h-186l229 325h95zM444 -440q-279 0 -460 139l112 149q167 -122 357 -122q297 0 356 280q19 90 27 120.5t24 72.5l-4 2q-53 -109 -152 -170.5t-223 -61.5q-183 0 -298 126t-115 327q0 238 149 396.5t373 158.5q140 0 234.5 -65.5t129.5 -186.5l9 2q-5 69 26 219
h172l-182 -944q-41 -224 -173.5 -333t-361.5 -109zM539 133q160 0 268 113t108 280q0 134 -78 210.5t-216 76.5q-160 0 -265.5 -111t-105.5 -280q0 -132 78 -210.5t211 -78.5z" />
    <glyph glyph-name="Hcircumflex" unicode="&#x124;" horiz-adv-x="1443" 
d="M598 1522l2 8l279 237h190l188 -237l-2 -8h-151l-53 59q-41 47 -56 73t-16 60h-6q-15 -35 -41 -62t-84 -71l-78 -59h-172zM1479 1434l-279 -1434h-188l121 625q6 34 16 51l-2 4q-21 -8 -55 -8h-658q-36 0 -49 8l-4 -4q3 -13 -4 -51l-123 -625h-188l278 1434h188
l-104 -537q-5 -33 -16 -51l4 -4q19 8 53 8h659q31 0 50 -8l4 4q-2 12 4 51l104 537h189z" />
    <glyph glyph-name="hcircumflex" unicode="&#x125;" horiz-adv-x="1122" 
d="M102 1522l2 8l279 237h190l189 -237l-2 -8h-152l-53 59q-41 47 -56 73t-16 60h-6q-15 -35 -41 -62.5t-84 -70.5l-78 -59h-172zM506 1464l-103 -526q-29 -137 -61 -215l8 -2q66 132 157 194t220 62q148 0 224.5 -78t76.5 -227q0 -64 -18 -162l-101 -510h-174l99 514
q12 42 12 102q0 98 -52.5 150.5t-150.5 52.5q-262 0 -336 -373l-86 -446h-174l285 1464h174z" />
    <glyph glyph-name="Hbar" unicode="&#x126;" horiz-adv-x="1449" 
d="M55 0l197 1008q7 35 14 49l-4 2q-16 -4 -41 -4h-102l28 159h103q29 0 41 -6l6 4q-3 17 2 48l35 174h182l-35 -174q-7 -39 -12 -48l2 -4q15 6 43 6h688q29 0 41 -6l4 4q-2 12 4 48l35 174h182l-34 -174q-6 -37 -13 -48l2 -4q15 6 41 6h105l-31 -159h-102q-25 0 -41 4
l-4 -2q2 -13 -5 -49l-196 -1008h-182l122 629q5 29 15 49l-4 2q-10 -4 -45 -4h-684q-35 0 -43 4l-4 -2q2 -10 -5 -49l-122 -629h-183zM401 842q12 6 43 6h684q31 0 43 -6l5 4q-1 5 6 47l22 115q6 32 15 49l-5 2q-20 -4 -43 -4h-686q-23 0 -43 4l-4 -2q3 -16 -4 -49l-22 -115
q-6 -35 -15 -47z" />
    <glyph glyph-name="hbar" unicode="&#x127;" horiz-adv-x="1124" 
d="M729 977q149 0 226 -78t77 -227q0 -64 -18 -162l-103 -510h-174l101 514q12 52 12 102q0 98 -53.5 150.5t-151.5 52.5q-260 0 -334 -373l-86 -446h-174l185 946l32 172q8 38 21 56l-2 2q-20 -9 -58 -9h-84l21 109h84q41 0 55 -8l2 2q-6 25 0 53l29 141h174l-29 -141
q-8 -37 -20 -53l2 -2q18 8 59 8h273l-23 -109h-272q-38 0 -54 9l-2 -2q5 -20 -2 -56l-32 -172l-7 -31q-19 -121 -61 -206l8 -2q66 139 158 204.5t221 65.5z" />
    <glyph glyph-name="Itilde" unicode="&#x128;" horiz-adv-x="503" 
d="M637 1526q-53 0 -111 23.5t-109 47t-87 23.5q-66 0 -125 -86l-72 22q83 205 232 205q53 0 111.5 -23.5t109.5 -47t86 -23.5q66 0 125 86l71 -22q-83 -205 -231 -205zM532 1434l-278 -1434h-188l278 1434h188z" />
    <glyph glyph-name="itilde" unicode="&#x129;" horiz-adv-x="448" 
d="M295 1436q33 0 68 -17t59.5 -37.5t52 -37.5t47.5 -17q25 0 44.5 21.5t43.5 68.5l70 -24q-78 -207 -199 -207q-42 0 -85.5 27t-80.5 54t-61 27q-44 0 -88 -90l-72 23q34 93 84.5 151t116.5 58zM403 946l-184 -946h-174l184 946h174z" />
    <glyph glyph-name="Imacron" unicode="&#x12a;" horiz-adv-x="503" 
d="M193 1683h589l-24 -120h-590zM532 1434l-278 -1434h-188l278 1434h188z" />
    <glyph glyph-name="imacron" unicode="&#x12b;" horiz-adv-x="448" 
d="M600 1364l-27 -125h-421l24 125h424zM403 946l-184 -946h-174l184 946h174z" />
    <glyph glyph-name="Ibreve" unicode="&#x12c;" horiz-adv-x="503" 
d="M461 1518q-115 0 -178.5 53.5t-63.5 150.5v31h129q0 -4 -1 -11.5t-1 -10.5q0 -44 34 -68.5t97 -24.5q136 0 178 115h127q-26 -110 -112 -172.5t-209 -62.5zM532 1434l-278 -1434h-188l278 1434h188z" />
    <glyph glyph-name="ibreve" unicode="&#x12d;" horiz-adv-x="448" 
d="M362 1147q-97 0 -148.5 58t-51.5 159q0 36 6 80h119q-4 -50 -4 -66q0 -116 86 -116q52 0 82 42.5t43 139.5h120q-38 -297 -252 -297zM403 946l-184 -946h-174l184 946h174z" />
    <glyph glyph-name="Iogonek" unicode="&#x12e;" horiz-adv-x="503" 
d="M164 0q-111 -78 -161 -128.5t-50 -92.5q0 -51 70 -51q45 0 92 12l8 -100q-83 -27 -146 -27q-71 0 -112 33.5t-41 91.5q0 71 59.5 135.5t186.5 144.5l274 1416h188l-278 -1434h-90z" />
    <glyph glyph-name="iogonek" unicode="&#x12f;" horiz-adv-x="448" 
d="M313 1434h195l-51 -269h-197zM53 41l176 905h174l-184 -946h-104q-111 -77 -161 -127.5t-50 -93.5q0 -51 69 -51q46 0 93 12l8 -100q-83 -27 -146 -27q-71 0 -112 33.5t-41 91.5q0 77 65.5 143.5t212.5 159.5z" />
    <glyph glyph-name="Idotaccent" unicode="&#x130;" horiz-adv-x="503" 
d="M590 1751l-45 -231h-178l45 231h178zM532 1434l-278 -1434h-188l278 1434h188z" />
    <glyph glyph-name="dotlessi" unicode="&#x131;" horiz-adv-x="448" 
d="M403 946l-184 -946h-174l184 946h174z" />
    <glyph glyph-name="IJ" unicode="&#x132;" horiz-adv-x="1105" 
d="M532 1434l-278 -1434h-188l278 1434h188zM1133 1434l-218 -1127q-34 -173 -117.5 -245t-246.5 -72q-29 0 -88 6l35 174q20 -2 73 -2q69 0 107 37t55 125l215 1104h185z" />
    <glyph glyph-name="ij" unicode="&#x133;" horiz-adv-x="897" 
d="M508 1434l-51 -269h-197l53 269h195zM956 1434l-51 -269h-196l53 269h194zM403 946l-184 -946h-174l184 946h174zM852 946l-205 -1052q-33 -175 -132.5 -254.5t-264.5 -79.5h-31l33 170h16q93 0 142.5 45t70.5 155l197 1016h174z" />
    <glyph glyph-name="Jcircumflex" unicode="&#x134;" horiz-adv-x="602" 
d="M221 1522l2 8l279 237h190l189 -237l-2 -8h-152l-53 59q-41 47 -56 73t-16 60h-6q-15 -35 -41 -62.5t-84 -70.5l-78 -59h-172zM629 1434l-217 -1127q-34 -172 -117.5 -244.5t-247.5 -72.5q-29 0 -88 6l35 174q20 -2 74 -2q69 0 106.5 37t54.5 125l215 1104h185z" />
    <glyph glyph-name="jcircumflex" unicode="&#x135;" horiz-adv-x="448" 
d="M487 1448l76 -311v-4h-121l-24 118q-20 111 -21 127h-4q-17 -47 -69 -127l-74 -118h-144v4l205 311h176zM403 946l-204 -1052q-33 -175 -133 -254.5t-265 -79.5h-30l32 170h17q93 0 142.5 45t70.5 155l196 1016h174z" />
    <glyph glyph-name="Kcommaaccent" unicode="&#x136;" horiz-adv-x="1243" 
d="M1356 1434l-594 -543q-37 -33 -178 -148l-2 -4q14 -11 32 -31t29 -34.5t33 -45.5t29 -40l423 -588h-231l-512 735l-6 -2q-3 -89 -33 -239l-94 -494h-186l278 1434h186l-79 -408q-32 -162 -62 -238l4 -4l697 650h266zM606 -104l-219 -336h-96l135 336h180z" />
    <glyph glyph-name="kcommaaccent" unicode="&#x137;" horiz-adv-x="960" 
d="M506 1464l-144 -737q-25 -130 -55 -197l6 -2l451 418h242l-418 -368q-73 -64 -111 -80v-6q38 -24 78 -74l309 -418h-217l-342 485l-6 -4q2 -55 -23 -194l-55 -287h-174l285 1464h174zM520 -104l-219 -336h-96l135 336h180z" />
    <glyph glyph-name="kgreenlandic" unicode="&#x138;" horiz-adv-x="960" 
d="M47 0l184 946h175l-44 -219q-25 -130 -55 -197l6 -2l451 418h242l-422 -368q-73 -64 -111 -80v-6q38 -21 78 -74l313 -418h-217l-342 485l-6 -4q2 -55 -23 -194l-55 -287h-174z" />
    <glyph glyph-name="Lacute" unicode="&#x139;" horiz-adv-x="1003" 
d="M831 1747v-6l-301 -219h-118l-2 4l223 221h198zM530 1434l-235 -1211q-5 -31 -16 -49l4 -4q14 6 51 6h590l-35 -176h-823l278 1434h186z" />
    <glyph glyph-name="lacute" unicode="&#x13a;" horiz-adv-x="448" 
d="M788 1747v-6l-301 -219h-118l-2 4l223 221h198zM506 1464l-285 -1464h-174l285 1464h174z" />
    <glyph glyph-name="Lcommaaccent" unicode="&#x13b;" horiz-adv-x="1003" 
d="M530 1434l-235 -1211q-5 -31 -16 -49l4 -4q14 6 51 6h590l-35 -176h-823l278 1434h186zM553 -104l-219 -336h-96l135 336h180z" />
    <glyph glyph-name="lcommaaccent" unicode="&#x13c;" horiz-adv-x="452" 
d="M506 1464l-285 -1464h-174l285 1464h174zM211 -104l-219 -336h-96l135 336h180z" />
    <glyph glyph-name="Lcaron" unicode="&#x13d;" horiz-adv-x="1003" 
d="M881 1495h174l-238 -463h-84zM530 1434l-235 -1211q-5 -31 -16 -49l4 -4q14 6 51 6h590l-35 -176h-823l278 1434h186z" />
    <glyph glyph-name="lcaron" unicode="&#x13e;" horiz-adv-x="630" 
d="M662 1495h174l-238 -405h-84zM506 1464l-285 -1464h-174l285 1464h174z" />
    <glyph glyph-name="Ldot" unicode="&#x13f;" horiz-adv-x="1003" 
d="M530 1434l-235 -1211q-5 -31 -16 -49l4 -4q14 6 51 6h590l-35 -176h-823l278 1434h186zM668 713l45 233h219l-45 -233h-219z" />
    <glyph glyph-name="ldot" unicode="&#x140;" horiz-adv-x="667" 
d="M506 1464l-285 -1464h-174l285 1464h174zM479 713l45 233h219l-45 -233h-219z" />
    <glyph glyph-name="Lslash" unicode="&#x141;" horiz-adv-x="1003" 
d="M66 0l110 569q4 28 27 64l-4 4q-23 -26 -62 -41l-123 -47l27 137l170 66l133 682h186l-108 -555q-8 -42 -33 -70l4 -4q39 33 70 43l352 137l-27 -137l-403 -156l-90 -469q-8 -37 -16 -49l4 -4q12 6 51 6h590l-35 -176h-823z" />
    <glyph glyph-name="lslash" unicode="&#x142;" horiz-adv-x="546" 
d="M94 0l115 594q12 64 37 100l-4 2q-29 -29 -90 -59l-109 -53l27 137l182 88l127 655h174l-96 -487q-8 -38 -14 -54t-25 -42l4 -2q29 25 96 59l109 51l-27 -137l-184 -88l-148 -764h-174z" />
    <glyph glyph-name="Nacute" unicode="&#x143;" horiz-adv-x="1492" 
d="M1294 1747v-6l-301 -219h-119l-2 4l224 221h198zM367 1454l690 -940q60 -81 82 -162l6 2q-3 85 31 258l161 822h185l-283 -1454h-18l-689 940q-61 82 -83 161l-7 -2q3 -88 -30 -256l-160 -823h-186l282 1454h19z" />
    <glyph glyph-name="nacute" unicode="&#x144;" horiz-adv-x="1120" 
d="M1120 1448v-6l-346 -309h-121l-2 6l252 309h217zM45 0l184 946h174l-6 -31q-19 -118 -59 -206l8 -2q64 139 156 204.5t223 65.5q148 0 224.5 -78t76.5 -227q0 -64 -18 -162l-103 -510h-172l98 514q13 46 13 102q0 98 -52.5 150.5t-152.5 52.5q-260 0 -334 -373l-86 -446
h-174z" />
    <glyph glyph-name="Ncommaaccent" unicode="&#x145;" horiz-adv-x="1492" 
d="M367 1454l690 -940q60 -81 82 -162l6 2q-3 85 31 258l161 822h185l-283 -1454h-18l-689 940q-61 82 -83 161l-7 -2q3 -88 -30 -256l-160 -823h-186l282 1454h19zM776 -104l-219 -336h-96l135 336h180z" />
    <glyph glyph-name="ncommaaccent" unicode="&#x146;" horiz-adv-x="1120" 
d="M45 0l184 946h174l-6 -31q-19 -118 -59 -206l8 -2q64 139 156 204.5t223 65.5q148 0 224.5 -78t76.5 -227q0 -64 -18 -162l-103 -510h-172l98 514q13 46 13 102q0 98 -52.5 150.5t-152.5 52.5q-260 0 -334 -373l-86 -446h-174zM549 -104l-219 -336h-97l136 336h180z" />
    <glyph glyph-name="Ncaron" unicode="&#x147;" horiz-adv-x="1492" 
d="M1311 1767l-2 -8l-281 -237h-190l-187 237l2 8h152l55 -59q41 -44 56 -70.5t16 -62.5h6q14 35 38.5 60.5t84.5 72.5l76 59h174zM367 1454l690 -940q60 -81 82 -162l6 2q-3 85 31 258l161 822h185l-283 -1454h-18l-689 940q-61 82 -83 161l-7 -2q3 -88 -30 -256l-160 -823
h-186l282 1454h19z" />
    <glyph glyph-name="ncaron" unicode="&#x148;" horiz-adv-x="1120" 
d="M618 1122l-176 310v6h140l71 -119q33 -55 43 -77.5t11 -49.5h8q11 27 30 49.5t74 77.5l117 119h164l-2 -6l-299 -310h-181zM45 0l184 946h174l-6 -31q-19 -118 -59 -206l8 -2q64 139 156 204.5t223 65.5q148 0 224.5 -78t76.5 -227q0 -64 -18 -162l-103 -510h-172l98 514
q13 46 13 102q0 98 -52.5 150.5t-152.5 52.5q-260 0 -334 -373l-86 -446h-174z" />
    <glyph glyph-name="napostrophe" unicode="&#x149;" horiz-adv-x="1120" 
d="M225 1495h174l-237 -463h-84zM45 0l184 946h174l-6 -31q-19 -118 -59 -206l8 -2q64 139 156 204.5t223 65.5q148 0 224.5 -78t76.5 -227q0 -64 -18 -162l-103 -510h-172l98 514q13 46 13 102q0 98 -52.5 150.5t-152.5 52.5q-260 0 -334 -373l-86 -446h-174z" />
    <glyph glyph-name="Eng" unicode="&#x14a;" horiz-adv-x="1492" 
d="M1522 1434l-283 -1454h-8l-4 -17q-40 -207 -137 -290t-267 -83h-94l37 189h94q147 0 187 186l38 201l-553 754q-61 82 -83 161l-7 -2q3 -88 -30 -256l-160 -823h-186l282 1454h19l690 -940q60 -81 82 -162l6 2q-3 85 31 258l161 822h185z" />
    <glyph glyph-name="eng" unicode="&#x14b;" horiz-adv-x="1120" 
d="M725 977q148 0 224.5 -78t76.5 -227q0 -64 -18 -162l-103 -510l-24 -135q-29 -152 -112.5 -215.5t-215.5 -63.5h-104l30 158h80q67 0 101.5 32t48.5 105l24 119l98 514q13 46 13 102q0 98 -52.5 150.5t-152.5 52.5q-260 0 -334 -373l-86 -446h-174l184 946h174l-6 -31
q-19 -118 -59 -206l8 -2q64 139 156 204.5t223 65.5z" />
    <glyph glyph-name="Omacron" unicode="&#x14c;" horiz-adv-x="1701" 
d="M723 1683h590l-25 -120h-590zM836 -31q-320 0 -514.5 186.5t-194.5 493.5q0 173 63.5 324.5t173.5 259t265 169.5t332 62q321 0 514.5 -186t193.5 -494q0 -231 -107.5 -417.5t-298.5 -292t-427 -105.5zM842 154q137 0 254 47.5t199 132t128.5 204t46.5 259.5
q0 215 -143 349t-373 134q-182 0 -325.5 -81.5t-223 -228.5t-79.5 -333q0 -215 143.5 -349t372.5 -134z" />
    <glyph glyph-name="omacron" unicode="&#x14d;" horiz-adv-x="1161" 
d="M1020 1368l-25 -127h-587l26 127h586zM530 -31q-214 0 -339 120.5t-125 326.5q0 241 161 401t404 160q214 0 338.5 -120.5t124.5 -326.5q0 -159 -73 -287.5t-202 -201t-289 -72.5zM547 139q158 0 262 109t104 274q0 133 -79.5 209t-219.5 76q-159 0 -263.5 -109
t-104.5 -274q0 -134 80 -209.5t221 -75.5z" />
    <glyph glyph-name="Obreve" unicode="&#x14e;" horiz-adv-x="1701" 
d="M993 1518q-115 0 -178 53.5t-63 150.5v31h129q0 -4 -1 -11.5t-1 -10.5q0 -44 34 -68.5t97 -24.5q136 0 178 115h127q-26 -110 -112.5 -172.5t-209.5 -62.5zM836 -31q-320 0 -514.5 186.5t-194.5 493.5q0 173 63.5 324.5t173.5 259t265 169.5t332 62q321 0 514.5 -186
t193.5 -494q0 -231 -107.5 -417.5t-298.5 -292t-427 -105.5zM842 154q137 0 254 47.5t199 132t128.5 204t46.5 259.5q0 215 -143 349t-373 134q-182 0 -325.5 -81.5t-223 -228.5t-79.5 -333q0 -215 143.5 -349t372.5 -134z" />
    <glyph glyph-name="obreve" unicode="&#x14f;" horiz-adv-x="1161" 
d="M694 1147q-116 0 -183 58.5t-67 166.5q0 28 9 72h118q-4 -36 -4 -51q0 -131 133 -131q73 0 124 45t71 137h121q-26 -146 -108.5 -221.5t-213.5 -75.5zM530 -31q-214 0 -339 120.5t-125 326.5q0 241 161 401t404 160q214 0 338.5 -120.5t124.5 -326.5q0 -159 -73 -287.5
t-202 -201t-289 -72.5zM547 139q158 0 262 109t104 274q0 133 -79.5 209t-219.5 76q-159 0 -263.5 -109t-104.5 -274q0 -134 80 -209.5t221 -75.5z" />
    <glyph glyph-name="Ohungarumlaut" unicode="&#x150;" horiz-adv-x="1701" 
d="M1188 1747l2 -6l-248 -219h-125v4l236 221h135zM1049 1526l235 221h135l2 -6l-250 -219h-120zM836 -31q-320 0 -514.5 186.5t-194.5 493.5q0 173 63.5 324.5t173.5 259t265 169.5t332 62q321 0 514.5 -186t193.5 -494q0 -231 -107.5 -417.5t-298.5 -292t-427 -105.5z
M842 154q137 0 254 47.5t199 132t128.5 204t46.5 259.5q0 215 -143 349t-373 134q-182 0 -325.5 -81.5t-223 -228.5t-79.5 -333q0 -215 143.5 -349t372.5 -134z" />
    <glyph glyph-name="ohungarumlaut" unicode="&#x151;" horiz-adv-x="1161" 
d="M502 1133l-2 4l288 311h146v-4l-299 -311h-133zM743 1133l-2 4l287 311h146v-4l-300 -311h-131zM530 -31q-214 0 -339 120.5t-125 326.5q0 241 161 401t404 160q214 0 338.5 -120.5t124.5 -326.5q0 -159 -73 -287.5t-202 -201t-289 -72.5zM547 139q158 0 262 109t104 274
q0 133 -79.5 209t-219.5 76q-159 0 -263.5 -109t-104.5 -274q0 -134 80 -209.5t221 -75.5z" />
    <glyph glyph-name="OE" unicode="&#x152;" horiz-adv-x="2289" 
d="M823 -31q-318 0 -507 186.5t-189 493.5q0 133 38 255.5t111.5 224t175 177t236 117t287.5 41.5q101 0 185.5 -20t141 -49.5t104 -73.5t74.5 -82.5t52 -85.5l4 2q-2 31 10 100l35 179h805l-35 -174h-569q-35 0 -51 8l-5 -4q4 -20 -4 -54l-57 -292q-6 -35 -16 -52l4 -4
q19 8 53 8h506l-33 -174h-504q-32 0 -53 9l-2 -5q2 -12 -4 -53l-84 -424q-8 -39 -16 -53l2 -4q21 8 53 8h577l-32 -174h-813l18 96q11 63 31 107l-2 2q-175 -236 -527 -236zM831 158q143 0 263.5 48.5t202 133t126.5 199t45 245.5q0 237 -141.5 366.5t-372.5 129.5
q-144 0 -264 -53.5t-198.5 -142.5t-122 -203t-43.5 -238q0 -224 136 -354.5t369 -130.5z" />
    <glyph glyph-name="oe" unicode="&#x153;" horiz-adv-x="1939" 
d="M530 -31q-213 0 -338.5 119.5t-125.5 325.5q0 158 72 286.5t201 202.5t288 74q143 0 251.5 -60.5t149.5 -166.5h4q62 108 173 167.5t255 59.5q196 0 307 -105t111 -282q0 -58 -20 -148h-664q-84 0 -111 15l-6 -4l4 -17q-2 -12 -2 -39q0 -125 76.5 -194.5t212.5 -69.5
q96 0 174.5 37t163.5 117l106 -125q-105 -100 -208 -146.5t-236 -46.5q-145 0 -242.5 57t-154.5 175h-4q-157 -232 -437 -232zM1102 557q30 18 94 18h403q82 0 103 -16l6 2q-2 8 -2 25q0 115 -67.5 177t-194.5 62q-133 0 -221 -72t-123 -194zM545 139q161 0 264.5 110
t103.5 273q0 133 -79.5 209t-217.5 76q-162 0 -266 -110t-104 -273q0 -133 80.5 -209t218.5 -76z" />
    <glyph glyph-name="Racute" unicode="&#x154;" horiz-adv-x="1202" 
d="M1098 1747v-6l-301 -219h-119l-2 4l223 221h199zM750 1434q202 0 314 -96.5t112 -262.5q0 -183 -125.5 -294t-329.5 -111q-27 0 -76 8l-2 -2q42 -26 69.5 -54.5t55.5 -74.5l326 -547h-222l-389 657h-57q-33 0 -47 7l-6 -5q3 -24 -4 -53l-117 -606h-186l278 1434h406z
M496 1268l-7 -4q2 -7 -4 -54l-61 -329q-10 -40 -16 -52l2 -2q24 7 53 7h246q123 0 193.5 61t70.5 168q0 95 -57.5 146t-163.5 51h-207q-33 0 -49 8z" />
    <glyph glyph-name="racute" unicode="&#x155;" horiz-adv-x="702" 
d="M903 1448v-6l-346 -309h-121l-2 6l252 309h217zM45 0l184 946h174q-31 -159 -75 -268l10 -2q62 159 152.5 229t234.5 70q29 0 43 -2l-39 -199q-35 4 -78 4q-134 0 -227 -98.5t-127 -276.5l-78 -403h-174z" />
    <glyph glyph-name="Rcommaaccent" unicode="&#x156;" horiz-adv-x="1202" 
d="M750 1434q202 0 314 -96.5t112 -262.5q0 -183 -125.5 -294t-329.5 -111q-27 0 -76 8l-2 -2q42 -26 69.5 -54.5t55.5 -74.5l326 -547h-222l-389 657h-57q-33 0 -47 7l-6 -5q3 -24 -4 -53l-117 -606h-186l278 1434h406zM496 1268l-7 -4q2 -7 -4 -54l-61 -329
q-10 -40 -16 -52l2 -2q24 7 53 7h246q123 0 193.5 61t70.5 168q0 95 -57.5 146t-163.5 51h-207q-33 0 -49 8zM643 -104l-219 -336h-96l135 336h180z" />
    <glyph glyph-name="rcommaaccent" unicode="&#x157;" horiz-adv-x="702" 
d="M45 0l184 946h174q-31 -159 -75 -268l10 -2q62 159 152.5 229t234.5 70q29 0 43 -2l-39 -199q-35 4 -78 4q-134 0 -227 -98.5t-127 -276.5l-78 -403h-174zM223 -104l-219 -336h-96l135 336h180z" />
    <glyph glyph-name="Rcaron" unicode="&#x158;" horiz-adv-x="1202" 
d="M1112 1767l-2 -8l-281 -237h-190l-186 237l2 8h151l56 -59q41 -44 55.5 -70.5t15.5 -62.5h6q14 35 38.5 60.5t84.5 72.5l76 59h174zM750 1434q202 0 314 -96.5t112 -262.5q0 -183 -125.5 -294t-329.5 -111q-27 0 -76 8l-2 -2q42 -26 69.5 -54.5t55.5 -74.5l326 -547h-222
l-389 657h-57q-33 0 -47 7l-6 -5q3 -24 -4 -53l-117 -606h-186l278 1434h406zM496 1268l-7 -4q2 -7 -4 -54l-61 -329q-10 -40 -16 -52l2 -2q24 7 53 7h246q123 0 193.5 61t70.5 168q0 95 -57.5 146t-163.5 51h-207q-33 0 -49 8z" />
    <glyph glyph-name="rcaron" unicode="&#x159;" horiz-adv-x="702" 
d="M403 1122l-176 310v6h140l71 -119q33 -55 43 -77.5t11 -49.5h8q11 27 30 49.5t74 77.5l117 119h164l-2 -6l-299 -310h-181zM45 0l184 946h174q-31 -159 -75 -268l10 -2q62 159 152.5 229t234.5 70q29 0 43 -2l-39 -199q-35 4 -78 4q-134 0 -227 -98.5t-127 -276.5
l-78 -403h-174z" />
    <glyph glyph-name="Sacute" unicode="&#x15a;" horiz-adv-x="1038" 
d="M1016 1747v-6l-301 -219h-119l-2 4l223 221h199zM494 -31q-142 0 -278.5 53.5t-238.5 149.5l115 156q196 -174 404 -174q117 0 181 54.5t64 151.5q0 60 -32.5 114.5t-104.5 117.5l-209 182q-170 145 -170 336q0 160 110.5 257t295.5 97q196 0 409 -139l-106 -166
q-169 121 -309 121q-93 0 -147 -47t-54 -123q0 -98 123 -203l203 -172q101 -88 146.5 -175t45.5 -193q0 -185 -119 -291.5t-329 -106.5z" />
    <glyph glyph-name="sacute" unicode="&#x15b;" horiz-adv-x="819" 
d="M952 1448v-6l-346 -309h-121l-2 6l252 309h217zM78 262q152 -131 305 -131q69 0 108 30t39 81q0 34 -19.5 62t-68.5 63l-127 90q-157 113 -157 258q0 121 80 191.5t217 70.5q173 0 333 -109l-88 -141q-134 88 -235 88q-61 0 -95 -27t-34 -77q0 -36 21 -64.5t83 -71.5
l115 -77q83 -61 119.5 -121t36.5 -137q0 -130 -85 -200.5t-241 -70.5q-235 0 -410 158z" />
    <glyph glyph-name="Scircumflex" unicode="&#x15c;" horiz-adv-x="1038" 
d="M324 1522l2 8l278 237h191l188 -237l-2 -8h-152l-53 59q-40 47 -55 73t-16 60h-7q-15 -35 -41 -62.5t-84 -70.5l-77 -59h-172zM494 -31q-142 0 -278.5 53.5t-238.5 149.5l115 156q196 -174 404 -174q117 0 181 54.5t64 151.5q0 60 -32.5 114.5t-104.5 117.5l-209 182
q-170 145 -170 336q0 160 110.5 257t295.5 97q196 0 409 -139l-106 -166q-169 121 -309 121q-93 0 -147 -47t-54 -123q0 -98 123 -203l203 -172q101 -88 146.5 -175t45.5 -193q0 -185 -119 -291.5t-329 -106.5z" />
    <glyph glyph-name="scircumflex" unicode="&#x15d;" horiz-adv-x="819" 
d="M680 1448l178 -311v-4h-141l-70 118q-33 53 -43.5 76t-11.5 51h-6q-13 -28 -32.5 -51t-72.5 -76l-119 -118h-161v4l301 311h178zM78 262q152 -131 305 -131q69 0 108 30t39 81q0 34 -19.5 62t-68.5 63l-127 90q-157 113 -157 258q0 121 80 191.5t217 70.5q173 0 333 -109
l-88 -141q-134 88 -235 88q-61 0 -95 -27t-34 -77q0 -36 21 -64.5t83 -71.5l115 -77q83 -61 119.5 -121t36.5 -137q0 -130 -85 -200.5t-241 -70.5q-235 0 -410 158z" />
    <glyph glyph-name="Scedilla" unicode="&#x15e;" horiz-adv-x="1038" 
d="M750 735q101 -88 146.5 -175t45.5 -193q0 -180 -113.5 -286t-314.5 -112l-25 -43q71 -21 112.5 -51t41.5 -80q0 -29 -12.5 -56t-41 -51.5t-53 -42t-70 -40t-70 -33t-74.5 -31.5l-17 60q64 32 95.5 49.5t59 42.5t27.5 47q0 53 -131 82l84 149q-129 9 -249 61t-214 140
l115 156q196 -174 404 -174q117 0 181 54.5t64 151.5q0 60 -32.5 114.5t-104.5 117.5l-209 182q-170 145 -170 336q0 160 110.5 257t295.5 97q196 0 409 -139l-106 -166q-169 121 -309 121q-93 0 -147 -47t-54 -123q0 -98 123 -203z" />
    <glyph glyph-name="scedilla" unicode="&#x15f;" horiz-adv-x="819" 
d="M555 498q83 -61 119.5 -121t36.5 -137q0 -127 -82.5 -197.5t-233.5 -73.5l-24 -43q70 -21 111.5 -51t41.5 -80q0 -29 -12.5 -56t-41 -51.5t-53 -42t-70 -40t-70 -33t-74.5 -31.5l-17 60q49 24 73.5 37.5t54.5 32.5t42.5 35.5t12.5 33.5q0 53 -131 82l84 151
q-199 19 -347 154l103 135q152 -131 305 -131q69 0 108 30t39 81q0 34 -19.5 62t-68.5 63l-127 90q-157 113 -157 258q0 121 80 191.5t217 70.5q173 0 333 -109l-88 -141q-134 88 -235 88q-61 0 -95 -27t-34 -77q0 -36 21 -64.5t83 -71.5z" />
    <glyph glyph-name="Scaron" unicode="&#x160;" horiz-adv-x="1038" 
d="M1030 1767l-2 -8l-280 -237h-191l-186 237l2 8h151l56 -59q41 -44 55.5 -70.5t15.5 -62.5h6q14 35 38.5 60.5t84.5 72.5l76 59h174zM494 -31q-142 0 -278.5 53.5t-238.5 149.5l115 156q196 -174 404 -174q117 0 181 54.5t64 151.5q0 60 -32.5 114.5t-104.5 117.5
l-209 182q-170 145 -170 336q0 160 110.5 257t295.5 97q196 0 409 -139l-106 -166q-169 121 -309 121q-93 0 -147 -47t-54 -123q0 -98 123 -203l203 -172q101 -88 146.5 -175t45.5 -193q0 -185 -119 -291.5t-329 -106.5z" />
    <glyph glyph-name="scaron" unicode="&#x161;" horiz-adv-x="819" 
d="M451 1122l-177 310v6h140l71 -119q33 -55 43 -77.5t11 -49.5h8q11 27 30 49.5t74 77.5l117 119h164l-2 -6l-299 -310h-180zM78 262q152 -131 305 -131q69 0 108 30t39 81q0 34 -19.5 62t-68.5 63l-127 90q-157 113 -157 258q0 121 80 191.5t217 70.5q173 0 333 -109
l-88 -141q-134 88 -235 88q-61 0 -95 -27t-34 -77q0 -36 21 -64.5t83 -71.5l115 -77q83 -61 119.5 -121t36.5 -137q0 -130 -85 -200.5t-241 -70.5q-235 0 -410 158z" />
    <glyph glyph-name="uni0162" unicode="&#x162;" horiz-adv-x="1058" 
d="M207 1434h1018l-33 -177h-367q-37 0 -51 7l-4 -4q4 -18 -2 -50l-236 -1210h-53l-41 -74q71 -21 112.5 -51t41.5 -80q0 -25 -11.5 -49.5t-26.5 -43t-45.5 -40t-51.5 -34.5t-62.5 -32.5t-61 -28t-63.5 -26.5l-16 60q64 32 95.5 49.5t59 42.5t27.5 47q0 53 -131 82l101 178
h-60l236 1210q7 38 14 50l-2 4q-16 -7 -53 -7h-367z" />
    <glyph glyph-name="uni0163" unicode="&#x163;" horiz-adv-x="636" 
d="M567 946h109l-31 -164h-108q-59 0 -74 15l-8 -4q2 -29 -9 -99l-135 -694h-47l-41 -74q71 -21 112.5 -51t41.5 -80q0 -25 -11.5 -49.5t-26.5 -43t-45.5 -40t-51.5 -34.5t-62.5 -32.5t-61 -28t-63.5 -26.5l-16 60q64 32 95.5 49.5t59 42.5t27.5 47q0 53 -131 82l100 178
h-53l135 694q9 59 27 99l-4 4q-23 -15 -82 -15h-98l30 164h99q58 0 78 -14l4 4q0 50 10 96l57 297l187 123h12l-82 -420q-15 -69 -27 -96l4 -4q25 14 80 14z" />
    <glyph glyph-name="Tcaron" unicode="&#x164;" horiz-adv-x="1058" 
d="M1110 1767l-2 -8l-281 -237h-190l-186 237l2 8h151l55 -59q41 -44 56 -70.5t16 -62.5h6q14 35 38.5 60.5t84.5 72.5l76 59h174zM1225 1434l-33 -177h-367q-37 0 -51 7l-4 -4q4 -18 -2 -50l-236 -1210h-186l236 1210q7 38 14 50l-2 4q-16 -7 -53 -7h-367l33 177h1018z" />
    <glyph glyph-name="tcaron" unicode="&#x165;" horiz-adv-x="796" 
d="M809 1495h172l-238 -405h-84zM592 1452l-82 -420q-15 -69 -27 -96l4 -4q25 14 80 14h109l-31 -164h-108q-59 0 -74 15l-8 -4q2 -29 -9 -99l-135 -694h-174l135 694q9 59 27 99l-4 4q-23 -15 -82 -15h-98l30 164h99q58 0 78 -14l4 4q0 50 10 96l57 297l187 123h12z" />
    <glyph glyph-name="Tbar" unicode="&#x166;" horiz-adv-x="1069" 
d="M827 1260q-33 0 -49 8l-6 -4q4 -19 -2 -52l-43 -221q-7 -36 -14 -47l2 -4q15 6 43 6h248l-33 -162h-246q-25 0 -41 4l-4 -2q2 -12 -4 -49l-146 -737h-182l146 737q6 34 12 49l-2 2q-20 -4 -43 -4h-246l31 162h246q29 0 41 -6l6 4q-3 14 4 47l43 221q7 40 14 52l-2 4
q-19 -8 -53 -8h-373l33 174h1028l-35 -174h-373z" />
    <glyph glyph-name="tbar" unicode="&#x167;" horiz-adv-x="636" 
d="M393 1317l197 141h2l-84 -426q-8 -48 -27 -96l6 -4q25 14 80 14h109l-35 -164h-106q-53 0 -74 13l-8 -4q2 -39 -4 -64l-9 -41q-11 -57 -16 -65l2 -5q21 7 47 7h131l-22 -111h-129q-34 0 -45 8l-5 -4q2 -13 -4 -51l-90 -465h-172l90 465q5 31 15 51l-2 4q-16 -8 -47 -8
h-119l22 111h119q27 0 41 -7l4 5q-3 13 10 65l9 41q12 46 18 64l-2 4q-26 -13 -82 -13h-98l32 164h99q54 0 76 -14l4 4q0 40 12 96z" />
    <glyph glyph-name="Utilde" unicode="&#x168;" horiz-adv-x="1402" 
d="M1075 1526q-53 0 -111 23.5t-109 47t-87 23.5q-66 0 -125 -86l-72 22q83 205 232 205q53 0 111.5 -23.5t109.5 -47t86 -23.5q66 0 125 86l72 -22q-83 -205 -232 -205zM637 -31q-235 0 -364.5 118.5t-129.5 336.5q0 83 17 164l168 846h192l-170 -879q-12 -61 -12 -102
q0 -138 83 -214.5t234 -76.5q172 0 283.5 101t148.5 292l173 879h192l-174 -889q-54 -282 -217 -429t-424 -147z" />
    <glyph glyph-name="utilde" unicode="&#x169;" horiz-adv-x="1077" 
d="M815 1186q-54 0 -112.5 26.5t-109 53t-85.5 26.5q-66 0 -125 -90l-74 21q85 213 234 213q53 0 111 -27t109 -54.5t87 -27.5q64 0 123 92l71 -22q-17 -42 -35 -75t-45.5 -66.5t-65.5 -51.5t-83 -18zM1042 946l-184 -946h-172q26 134 64 219l-9 2q-71 -132 -155 -192
t-199 -60q-142 0 -220.5 82t-76.5 228q0 62 14 145l105 522h174l-102 -516q-11 -68 -11 -98q-1 -95 48 -146t143 -51q123 0 205 94t116 271l88 446h172z" />
    <glyph glyph-name="Umacron" unicode="&#x16a;" horiz-adv-x="1402" 
d="M631 1683h590l-25 -120h-590zM637 -31q-235 0 -364.5 118.5t-129.5 336.5q0 83 17 164l168 846h192l-170 -879q-12 -61 -12 -102q0 -138 83 -214.5t234 -76.5q172 0 283.5 101t148.5 292l173 879h192l-174 -889q-54 -282 -217 -429t-424 -147z" />
    <glyph glyph-name="umacron" unicode="&#x16b;" horiz-adv-x="1077" 
d="M991 1368l-24 -127h-588l27 127h585zM1042 946l-184 -946h-172q26 134 64 219l-9 2q-71 -132 -155 -192t-199 -60q-142 0 -220.5 82t-76.5 228q0 62 14 145l105 522h174l-102 -516q-11 -68 -11 -98q-1 -95 48 -146t143 -51q123 0 205 94t116 271l88 446h172z" />
    <glyph glyph-name="Ubreve" unicode="&#x16c;" horiz-adv-x="1402" 
d="M899 1518q-115 0 -178.5 53.5t-63.5 150.5v31h129q0 -4 -1 -11.5t-1 -10.5q0 -44 34 -68.5t97 -24.5q137 0 179 115h127q-26 -110 -112.5 -172.5t-209.5 -62.5zM637 -31q-235 0 -364.5 118.5t-129.5 336.5q0 83 17 164l168 846h192l-170 -879q-12 -61 -12 -102
q0 -138 83 -214.5t234 -76.5q172 0 283.5 101t148.5 292l173 879h192l-174 -889q-54 -282 -217 -429t-424 -147z" />
    <glyph glyph-name="ubreve" unicode="&#x16d;" horiz-adv-x="1077" 
d="M664 1147q-116 0 -183 58.5t-67 166.5q0 33 8 72h119q-4 -36 -4 -51q0 -131 133 -131q155 0 194 182h121q-26 -146 -108 -221.5t-213 -75.5zM1042 946l-184 -946h-172q26 134 64 219l-9 2q-71 -132 -155 -192t-199 -60q-142 0 -220.5 82t-76.5 228q0 62 14 145l105 522
h174l-102 -516q-11 -68 -11 -98q-1 -95 48 -146t143 -51q123 0 205 94t116 271l88 446h172z" />
    <glyph glyph-name="Uring" unicode="&#x16e;" horiz-adv-x="1402" 
d="M874 1376q-102 0 -157 58t-55 153q0 113 76.5 190.5t197.5 77.5q102 0 158.5 -57.5t56.5 -150.5q0 -114 -78 -192.5t-199 -78.5zM885 1464q81 0 126.5 53.5t45.5 124.5q0 58 -33.5 91.5t-95.5 33.5q-82 0 -128 -53.5t-46 -122.5q0 -59 34.5 -93t96.5 -34zM637 -31
q-235 0 -364.5 118.5t-129.5 336.5q0 83 17 164l168 846h192l-170 -879q-12 -61 -12 -102q0 -138 83 -214.5t234 -76.5q172 0 283.5 101t148.5 292l173 879h192l-174 -889q-54 -282 -217 -429t-424 -147z" />
    <glyph glyph-name="uring" unicode="&#x16f;" horiz-adv-x="1077" 
d="M684 1530q104 0 167.5 -62t63.5 -161q0 -105 -70.5 -180.5t-187.5 -75.5q-103 0 -166 62t-63 161q0 105 70.5 180.5t185.5 75.5zM682 1442q-78 0 -119 -49.5t-41 -116.5q0 -63 37 -100t103 -37q78 0 118.5 49.5t40.5 116.5q0 63 -37.5 100t-101.5 37zM1042 946l-184 -946
h-172q26 134 64 219l-9 2q-71 -132 -155 -192t-199 -60q-142 0 -220.5 82t-76.5 228q0 62 14 145l105 522h174l-102 -516q-11 -68 -11 -98q-1 -95 48 -146t143 -51q123 0 205 94t116 271l88 446h172z" />
    <glyph glyph-name="Uhungarumlaut" unicode="&#x170;" horiz-adv-x="1402" 
d="M1096 1747l2 -6l-248 -219h-125v4l236 221h135zM956 1526l236 221h135l2 -6l-250 -219h-121zM637 -31q-235 0 -364.5 118.5t-129.5 336.5q0 83 17 164l168 846h192l-170 -879q-12 -61 -12 -102q0 -138 83 -214.5t234 -76.5q172 0 283.5 101t148.5 292l173 879h192
l-174 -889q-54 -282 -217 -429t-424 -147z" />
    <glyph glyph-name="uhungarumlaut" unicode="&#x171;" horiz-adv-x="1077" 
d="M471 1133l-2 4l289 311h145v-4l-299 -311h-133zM713 1133l-2 4l286 311h146v-4l-299 -311h-131zM1042 946l-184 -946h-172q26 134 64 219l-9 2q-71 -132 -155 -192t-199 -60q-142 0 -220.5 82t-76.5 228q0 62 14 145l105 522h174l-102 -516q-11 -68 -11 -98
q-1 -95 48 -146t143 -51q123 0 205 94t116 271l88 446h172z" />
    <glyph glyph-name="Uogonek" unicode="&#x172;" horiz-adv-x="1402" 
d="M1260 1434h192l-174 -889q-54 -282 -217 -429t-424 -147h-6q-87 -63 -126.5 -106.5t-39.5 -81.5q0 -51 70 -51q45 0 92 12l8 -100q-83 -27 -146 -27q-71 0 -112 33.5t-41 91.5q0 62 44.5 118t135.5 119q-181 29 -277 144t-96 303q0 83 17 164l168 846h192l-170 -879
q-12 -61 -12 -102q0 -138 83 -214.5t234 -76.5q172 0 283.5 101t148.5 292z" />
    <glyph glyph-name="uogonek" unicode="&#x173;" horiz-adv-x="1077" 
d="M762 0q-111 -78 -161 -128.5t-50 -92.5q0 -51 70 -51q45 0 92 12l8 -100q-83 -27 -146 -27q-71 0 -112 33.5t-41 91.5q0 75 64.5 141.5t205.5 155.5q26 111 58 184l-9 2q-71 -132 -155 -192t-199 -60q-142 0 -220.5 82t-76.5 228q0 62 14 145l105 522h174l-102 -516
q-11 -68 -11 -98q-1 -95 48 -146t143 -51q123 0 205 94t116 271l88 446h172l-184 -946h-96z" />
    <glyph glyph-name="Wcircumflex" unicode="&#x174;" horiz-adv-x="1939" 
d="M834 1522l2 8l278 237h191l188 -237l-2 -8h-152l-53 59q-41 47 -56 73t-16 60h-6q-15 -35 -41 -62.5t-84 -70.5l-77 -59h-172zM475 -23l-266 1457h197l124 -795q19 -132 19 -266h8q55 141 125 268l457 815h22l142 -813q22 -133 22 -268h8q58 154 121 266l434 793h215
l-831 -1457h-21l-159 889q-16 85 -7 178h-8q-20 -88 -73 -178l-508 -889h-21z" />
    <glyph glyph-name="wcircumflex" unicode="&#x175;" horiz-adv-x="1458" 
d="M975 1448l178 -311v-4h-141l-70 118q-33 53 -43.5 76t-11.5 51h-6q-13 -28 -32.5 -51t-72.5 -76l-119 -118h-161v4l301 311h178zM317 -12l-200 958h184l80 -473q17 -87 14 -154h8q28 63 89 156l299 488h45l112 -488q23 -103 27 -156h6q24 67 72 154l266 473h205
l-574 -958h-43l-125 518q-19 84 -14 147h-8q-16 -56 -72 -147l-326 -518h-45z" />
    <glyph glyph-name="Ycircumflex" unicode="&#x176;" horiz-adv-x="1136" 
d="M428 1522l2 8l279 237h190l188 -237l-2 -8h-151l-53 59q-41 47 -56 73t-16 60h-6q-15 -35 -41 -62.5t-84 -70.5l-78 -59h-172zM1309 1434l-631 -867l-111 -567h-184l109 567l-291 867h200l150 -496q27 -91 35.5 -132.5t9.5 -98.5h10q24 57 48.5 99t84.5 132l340 496h230z
" />
    <glyph glyph-name="ycircumflex" unicode="&#x177;" horiz-adv-x="985" 
d="M745 1448l179 -311v-4h-142l-69 118q-34 54 -44.5 76.5t-11.5 50.5h-6q-13 -28 -32.5 -51.5t-71.5 -75.5l-119 -118h-162v4l301 311h178zM1063 946l-842 -1358h-198l307 494l-224 864h193l115 -491q32 -145 24 -246l8 2q26 84 74 166l346 569h197z" />
    <glyph glyph-name="Ydieresis" unicode="&#x178;" horiz-adv-x="1136" 
d="M541 1749h166l-45 -227h-166zM885 1749h168l-43 -227h-168zM1309 1434l-631 -867l-111 -567h-184l109 567l-291 867h200l150 -496q27 -91 35.5 -132.5t9.5 -98.5h10q24 57 48.5 99t84.5 132l340 496h230z" />
    <glyph glyph-name="Zacute" unicode="&#x179;" horiz-adv-x="1220" 
d="M1200 1747v-6l-301 -219h-119l-2 4l223 221h199zM1335 1434l2 -9l-1063 -1273l2 -7q28 18 71.5 25.5t137.5 7.5h645l-126 -178h-1065l-5 8l1061 1274l-2 6q-64 -33 -209 -33h-520l125 179h946z" />
    <glyph glyph-name="zacute" unicode="&#x17a;" horiz-adv-x="927" 
d="M1071 1448v-6l-346 -309h-121l-2 6l252 309h217zM-72 0l-4 10l744 799l-4 6q-44 -22 -82.5 -28.5t-118.5 -6.5h-326l135 166h727l2 -8l-751 -801l4 -4q38 21 80 27t135 6h379l-135 -166h-785z" />
    <glyph glyph-name="Zdotaccent" unicode="&#x17b;" horiz-adv-x="1220" 
d="M973 1751l-45 -231h-178l45 231h178zM1335 1434l2 -9l-1063 -1273l2 -7q28 18 71.5 25.5t137.5 7.5h645l-126 -178h-1065l-5 8l1061 1274l-2 6q-64 -33 -209 -33h-520l125 179h946z" />
    <glyph glyph-name="zdotaccent" unicode="&#x17c;" horiz-adv-x="927" 
d="M825 1434l-51 -269h-196l53 269h194zM-72 0l-4 10l744 799l-4 6q-44 -22 -82.5 -28.5t-118.5 -6.5h-326l135 166h727l2 -8l-751 -801l4 -4q38 21 80 27t135 6h379l-135 -166h-785z" />
    <glyph glyph-name="Zcaron" unicode="&#x17d;" horiz-adv-x="1220" 
d="M1214 1767l-2 -8l-280 -237h-191l-186 237l2 8h152l55 -59q41 -44 56 -70.5t16 -62.5h6q14 35 38.5 60.5t84.5 72.5l75 59h174zM1335 1434l2 -9l-1063 -1273l2 -7q28 18 71.5 25.5t137.5 7.5h645l-126 -178h-1065l-5 8l1061 1274l-2 6q-64 -33 -209 -33h-520l125 179h946
z" />
    <glyph glyph-name="zcaron" unicode="&#x17e;" horiz-adv-x="927" 
d="M571 1122l-176 310v6h140l71 -119q32 -53 42 -76t11 -51h9q11 27 30 49.5t74 77.5l117 119h164l-2 -6l-299 -310h-181zM-72 0l-4 10l744 799l-4 6q-44 -22 -82.5 -28.5t-118.5 -6.5h-326l135 166h727l2 -8l-751 -801l4 -4q38 21 80 27t135 6h379l-135 -166h-785z" />
    <glyph glyph-name="florin" unicode="&#x192;" horiz-adv-x="827" 
d="M848 1399q49 0 92 -6l-33 -158q-47 6 -82 6q-193 0 -229 -203l-6 -37q-3 -10 -17 -59l2 -2q18 6 62 6h209l-12 -61h-209q-24 0 -60 6l-2 -2q-2 -19 -14 -92l-174 -901q-60 -308 -350 -308q-47 0 -129 9l30 153q49 -4 103 -4q72 0 116.5 43t65.5 148l166 860q19 83 22 92
l-2 2q-30 -6 -63 -6h-170l12 61h170q47 0 62 -6l2 2q0 7 6 55l14 64q38 181 144 259.5t274 78.5z" />
    <glyph glyph-name="AEacute" unicode="&#x1fc;" horiz-adv-x="1808" 
d="M1565 1522h-119l-2 4l223 221h199v-6zM1419 1257q-31 0 -49 9l-6 -4q4 -19 -4 -52l-55 -292q-6 -33 -17 -52l2 -4q19 8 53 8h461l-35 -176h-460q-30 0 -49 8l-5 -4q2 -12 -4 -51l-82 -424q-5 -33 -16 -51l2 -4q19 8 53 8h518l-32 -176h-744l68 352q6 34 16 54l-2 2
q-28 -7 -53 -7h-485l-338 -401h-226l1225 1434h809l-35 -177h-510zM1010 559q34 0 49 -6l6 2q-2 14 4 51l102 529q13 63 41 149h-4q-47 -85 -98 -147l-420 -496q-29 -36 -47.5 -54.5t-48.5 -35.5l2 -2q37 10 106 10h308z" />
    <glyph glyph-name="aeacute" unicode="&#x1fd;" horiz-adv-x="1775" 
d="M1411 1448v-6l-346 -309h-121l-2 6l252 309h217zM1214 -31q-153 0 -250.5 62.5t-134.5 179.5h-4q-130 -240 -417 -240q-173 0 -271 88t-98 236q0 147 99.5 243.5t277.5 96.5q262 0 346 -207l6 2q-8 45 6 133q14 68 14 103q0 66 -47 107.5t-155 41.5q-106 0 -307 -41
l-33 160q189 41 358 41q138 0 213.5 -47.5t93.5 -155.5h7q61 96 160.5 150.5t230.5 54.5q192 0 298.5 -107t106.5 -280q0 -56 -18 -148h-647q-84 0 -109 15l-6 -4l4 -17q-2 -12 -2 -39q0 -120 69.5 -192t208.5 -72q101 0 175.5 39t154.5 115l105 -125q-96 -93 -195 -143
t-240 -50zM958 557q30 18 95 18h385q81 0 100 -16l6 2q-2 8 -2 25q0 116 -64.5 177.5t-185.5 61.5q-76 0 -137 -23.5t-99.5 -64t-62 -84t-37.5 -94.5zM438 115q110 0 190.5 55.5t80.5 136.5q0 77 -72.5 129.5t-183.5 52.5q-116 0 -173 -57.5t-57 -138.5q0 -85 59 -131.5
t156 -46.5z" />
    <glyph glyph-name="Oslashacute" unicode="&#x1fe;" horiz-adv-x="1638" 
d="M1079 1522h-121l-2 4l224 221h198v-6zM1475 1278q194 -185 194 -494q0 -231 -107.5 -417.5t-298.5 -292t-427 -105.5q-265 0 -445 129l-123 -135l-57 49l123 133q-100 90 -153.5 219t-53.5 285q0 173 63.5 324.5t173.5 259t265 169.5t332 62q274 0 458 -139l125 137
l58 -47zM326 637q0 -214 141 -346l819 889q-140 100 -332 100q-182 0 -325.5 -81.5t-223 -228.5t-79.5 -333zM842 154q137 0 254 47.5t199 132t128.5 204t46.5 259.5q0 204 -129 336l-815 -889q133 -90 316 -90z" />
    <glyph glyph-name="oslashacute" unicode="&#x1ff;" horiz-adv-x="1161" 
d="M764 1133h-121l-2 6l252 309h217v-6zM1118 930l-117 -109q93 -117 93 -291q0 -159 -73 -287.5t-202 -201t-289 -72.5q-200 0 -325 109l-113 -107l-47 45l115 109q-94 114 -94 291q0 241 161 401t404 160q200 0 325 -109l115 109zM246 424q0 -100 49 -174l526 493
q-80 64 -207 64q-159 0 -263.5 -109t-104.5 -274zM913 522q0 104 -47 172l-526 -491q80 -64 207 -64q158 0 262 109t104 274z" />
    <glyph glyph-name="Scommaaccent" unicode="&#x218;" horiz-adv-x="1038" 
d="M494 -31q-142 0 -278.5 53.5t-238.5 149.5l115 156q196 -174 404 -174q117 0 181 54.5t64 151.5q0 60 -32.5 114.5t-104.5 117.5l-209 182q-170 145 -170 336q0 160 110.5 257t295.5 97q196 0 409 -139l-106 -166q-169 121 -309 121q-93 0 -147 -47t-54 -123
q0 -98 123 -203l203 -172q101 -88 146.5 -175t45.5 -193q0 -185 -119 -291.5t-329 -106.5zM565 -104l-219 -336h-96l135 336h180z" />
    <glyph glyph-name="scommaaccent" unicode="&#x219;" horiz-adv-x="819" 
d="M78 262q152 -131 305 -131q69 0 108 30t39 81q0 34 -19.5 62t-68.5 63l-127 90q-157 113 -157 258q0 121 80 191.5t217 70.5q173 0 333 -109l-88 -141q-134 88 -235 88q-61 0 -95 -27t-34 -77q0 -36 21 -64.5t83 -71.5l115 -77q83 -61 119.5 -121t36.5 -137
q0 -130 -85 -200.5t-241 -70.5q-235 0 -410 158zM446 -104l-219 -336h-96l135 336h180z" />
    <glyph glyph-name="uni021A" unicode="&#x21a;" horiz-adv-x="1058" 
d="M1225 1434l-33 -177h-367q-37 0 -51 7l-4 -4q4 -18 -2 -50l-236 -1210h-186l236 1210q7 38 14 50l-2 4q-16 -7 -53 -7h-367l33 177h1018zM516 -104l-219 -336h-96l135 336h180z" />
    <glyph glyph-name="uni021B" unicode="&#x21b;" horiz-adv-x="636" 
d="M592 1452l-82 -420q-15 -69 -27 -96l4 -4q25 14 80 14h109l-31 -164h-108q-59 0 -74 15l-8 -4q2 -29 -9 -99l-135 -694h-174l135 694q9 59 27 99l-4 4q-23 -15 -82 -15h-98l30 164h99q58 0 78 -14l4 4q0 50 10 96l57 297l187 123h12zM299 -104l-219 -336h-96l135 336h180
z" />
    <glyph glyph-name="uni0237" unicode="&#x237;" horiz-adv-x="448" 
d="M403 946l-204 -1052q-33 -175 -133 -254.5t-265 -79.5h-30l32 170h17q93 0 142.5 45t70.5 155l196 1016h174z" />
    <glyph glyph-name="uni02BC" unicode="&#x2bc;" horiz-adv-x="374" 
d="M334 1495h174l-238 -463h-84z" />
    <glyph glyph-name="circumflex" unicode="&#x2c6;" horiz-adv-x="862" 
d="M711 1448l178 -311v-4h-141l-70 118q-33 53 -43.5 76t-11.5 51h-7q-13 -28 -32.5 -51.5t-71.5 -75.5l-119 -118h-162v4l301 311h179z" />
    <glyph glyph-name="caron" unicode="&#x2c7;" horiz-adv-x="864" 
d="M467 1122l-176 310v6h139l72 -119q32 -53 42 -76t11 -51h8q8 19 22 38t28 33.5t55 55.5l116 119h164l-2 -6l-299 -310h-180z" />
    <glyph glyph-name="breve" unicode="&#x2d8;" horiz-adv-x="768" 
d="M532 1147q-116 0 -182.5 58t-66.5 167q0 33 8 72h119q-4 -36 -4 -51q0 -131 133 -131q155 0 194 182h121q-26 -146 -108.5 -221.5t-213.5 -75.5z" />
    <glyph glyph-name="dotaccent" unicode="&#x2d9;" horiz-adv-x="401" 
d="M485 1434l-51 -269h-196l53 269h194z" />
    <glyph glyph-name="ring" unicode="&#x2da;" horiz-adv-x="694" 
d="M518 1530q104 0 168 -62t64 -161q0 -105 -70.5 -180.5t-187.5 -75.5q-104 0 -167 62t-63 161q0 105 70.5 180.5t185.5 75.5zM516 1442q-78 0 -119 -49.5t-41 -116.5q0 -63 37 -100t103 -37q78 0 118.5 49.5t40.5 116.5q0 63 -37.5 100t-101.5 37z" />
    <glyph glyph-name="ogonek" unicode="&#x2db;" horiz-adv-x="528" 
d="M117 -385q-71 0 -112.5 33.5t-41.5 91.5q0 79 71.5 148.5t231.5 168.5l64 -37q-128 -88 -183 -141t-55 -98q0 -51 70 -51q46 0 92 12l8 -100q-83 -27 -145 -27z" />
    <glyph glyph-name="tilde" unicode="&#x2dc;" horiz-adv-x="905" 
d="M754 1186q-54 0 -113 26.5t-109.5 53t-85.5 26.5q-65 0 -124 -90l-74 21q85 213 233 213q53 0 111 -27t109 -54.5t87 -27.5q64 0 123 92l72 -22q-17 -42 -35 -75t-45.5 -66.5t-65.5 -51.5t-83 -18z" />
    <glyph glyph-name="hungarumlaut" unicode="&#x2dd;" horiz-adv-x="819" 
d="M233 1133l-2 4l289 311h146v-4l-299 -311h-134zM475 1133l-2 4l287 311h145v-4l-299 -311h-131z" />
    <glyph glyph-name="gravecomb" unicode="&#x300;" horiz-adv-x="0" 
d="M-109 1448l136 -309l-4 -6h-121l-226 309l2 6h213z" />
    <glyph glyph-name="acutecomb" unicode="&#x301;" horiz-adv-x="0" 
d="M86 1448v-6l-346 -309h-121l-2 6l252 309h217z" />
    <glyph glyph-name="uni0302" unicode="&#x302;" horiz-adv-x="0" 
d="M-152 1448l179 -311v-4h-142l-69 118q-34 54 -44.5 76.5t-11.5 50.5h-6q-13 -28 -32.5 -51.5t-71.5 -75.5l-119 -118h-162v4l301 311h178z" />
    <glyph glyph-name="tildecomb" unicode="&#x303;" horiz-adv-x="0" 
d="M-152 1186q-54 0 -112.5 26.5t-109 53t-85.5 26.5q-66 0 -125 -90l-73 21q85 213 233 213q53 0 111 -27t109 -54.5t87 -27.5q64 0 123 92l72 -22q-17 -42 -35.5 -75t-46 -66t-65.5 -51.5t-83 -18.5z" />
    <glyph glyph-name="uni0304" unicode="&#x304;" horiz-adv-x="0" 
d="M72 1368l-25 -127h-588l27 127h586z" />
    <glyph glyph-name="uni0306" unicode="&#x306;" horiz-adv-x="0" 
d="M-236 1147q-116 0 -182.5 58t-66.5 167q0 33 8 72h119q-4 -36 -4 -51q0 -131 133 -131q155 0 194 182h121q-26 -146 -108.5 -221.5t-213.5 -75.5z" />
    <glyph glyph-name="uni0307" unicode="&#x307;" horiz-adv-x="0" 
d="M84 1434l-51 -269h-197l53 269h195z" />
    <glyph glyph-name="uni0308" unicode="&#x308;" horiz-adv-x="0" 
d="M-270 1434l-49 -250h-166l49 250h166zM84 1434l-49 -250h-168l49 250h168z" />
    <glyph glyph-name="uni030A" unicode="&#x30a;" horiz-adv-x="0" 
d="M-176 1530q104 0 167.5 -62t63.5 -161q0 -105 -70.5 -180.5t-187.5 -75.5q-103 0 -166 62t-63 161q0 105 70.5 180.5t185.5 75.5zM-178 1442q-78 0 -119 -49.5t-41 -116.5q0 -64 37 -100.5t102 -36.5q78 0 119 49.5t41 116.5q0 63 -37.5 100t-101.5 37z" />
    <glyph glyph-name="uni030B" unicode="&#x30b;" horiz-adv-x="0" 
d="M-586 1133l-2 4l289 311h145v-4l-299 -311h-133zM-344 1133l-2 4l287 311h145v-4l-299 -311h-131z" />
    <glyph glyph-name="uni030C" unicode="&#x30c;" horiz-adv-x="0" 
d="M-387 1122l-176 310v6h139l72 -119q32 -53 42 -76t11 -51h8q8 19 22 38t28 33.5t55 55.5l116 119h164l-2 -6l-299 -310h-180z" />
    <glyph glyph-name="uni0326" unicode="&#x326;" horiz-adv-x="0" 
d="M-215 -104l-219 -336h-96l135 336h180z" />
    <glyph glyph-name="uni0327" unicode="&#x327;" horiz-adv-x="0" 
d="M-322 49l-69 -123q70 -21 111.5 -51t41.5 -80q0 -29 -12.5 -56t-41 -51.5t-53 -42t-70 -40t-70 -33t-74.5 -31.5l-16 60q64 32 95.5 49.5t59 42.5t27.5 47q0 53 -131 82l127 227h75z" />
    <glyph glyph-name="uni0328" unicode="&#x328;" horiz-adv-x="0" 
d="M-412 -385q-71 0 -112 33.5t-41 91.5q0 79 71.5 148.5t231.5 168.5l63 -37q-127 -88 -182 -141t-55 -98q0 -51 69 -51q47 0 93 12l8 -100q-83 -27 -146 -27z" />
    <glyph glyph-name="uni0394" unicode="&#x394;" horiz-adv-x="1241" 
d="M682 1434l520 -1434h-1204l520 1434h164zM600 1204l-387 -1116h772z" />
    <glyph glyph-name="uni03A9" unicode="&#x3a9;" horiz-adv-x="1597" 
d="M803 1464q159 0 293 -51.5t226 -142t143 -215t51 -267.5q0 -127 -43 -237.5t-118 -190.5t-171.5 -134.5t-208.5 -80.5v-6q99 15 174 15h326v-154h-592l2 248q203 43 325.5 189t122.5 345q0 229 -143.5 372.5t-386.5 143.5q-244 0 -388.5 -142t-144.5 -363
q0 -208 123.5 -355t327.5 -190l-2 -248h-590l2 154h326q89 0 172 -15l2 6q-112 26 -208.5 81.5t-171.5 136t-118 193.5t-43 243q0 139 50.5 260.5t141 211t225.5 141.5t296 52z" />
    <glyph glyph-name="pi" unicode="&#x3c0;" 
d="M1272 977l-33 -160h-221l-158 -817h-168l158 817h-293l-354 -817h-166l350 817q-154 -3 -272 -41l30 160q125 41 293 41h834z" />
    <glyph glyph-name="uni0401" unicode="&#x401;" horiz-adv-x="1054" 
d="M578 1749h165l-45 -227h-166zM922 1749h168l-43 -227h-168zM1151 1434l-33 -174h-573q-33 0 -49 8l-7 -4q4 -20 -4 -54l-55 -292q-6 -36 -16 -52l4 -4q16 8 53 8h504l-33 -174h-506q-30 0 -51 9l-4 -5q2 -12 -4 -53l-82 -424q-11 -44 -16 -53l2 -4q21 8 53 8h581
l-34 -174h-815l278 1434h807z" />
    <glyph glyph-name="uni0402" unicode="&#x402;" horiz-adv-x="1470" 
d="M1073 864q164 0 252 -66.5t88 -217.5q0 -45 -10 -117l-8 -41l-9 -43q-32 -182 -139.5 -280.5t-294.5 -98.5h-178l33 174h129q113 0 177 48t89 165l8 35l9 39q8 50 8 67q0 160 -205 160q-166 0 -442 -74l-119 -614h-187l207 1065h2l29 147q6 39 14 52l-2 4q-19 -8 -53 -8
h-297l33 174h1038l-33 -174h-458q-33 0 -49 8l-7 -4q4 -19 -2 -52l-28 -147l-37 -191q-11 -56 -29 -83l4 -5q234 78 467 78z" />
    <glyph glyph-name="uni0403" unicode="&#x403;" horiz-adv-x="985" 
d="M1124 1747v-6l-301 -219h-121v4l224 221h198zM66 0l278 1434h807l-33 -177h-573q-35 0 -51 7l-5 -4q3 -13 -4 -50l-233 -1210h-186z" />
    <glyph glyph-name="uni0404" unicode="&#x404;" horiz-adv-x="1415" 
d="M975 1464q282 0 489 -164l-116 -155q-177 133 -396 133q-217 0 -375.5 -112t-224.5 -310q-11 -32 -26 -53l2 -4q21 6 61 6h574l-35 -176h-549q-42 0 -60 6l-4 -4q5 -25 7 -45q12 -208 144.5 -319t344.5 -111q110 0 198 31.5t179 91.5l100 -156q-234 -154 -493 -154
q-308 0 -489 181.5t-181 486.5q0 175 62.5 328t173.5 263t270 173t344 63z" />
    <glyph glyph-name="uni0405" unicode="&#x405;" horiz-adv-x="1038" 
d="M494 -31q-142 0 -278.5 53.5t-238.5 149.5l115 156q196 -174 404 -174q117 0 181 54.5t64 151.5q0 60 -32.5 114.5t-104.5 117.5l-209 182q-170 145 -170 336q0 160 110.5 257t295.5 97q196 0 409 -139l-106 -166q-169 121 -309 121q-93 0 -147 -47t-54 -123
q0 -98 123 -203l203 -172q101 -88 146.5 -175t45.5 -193q0 -185 -119 -291.5t-329 -106.5z" />
    <glyph glyph-name="uni0406" unicode="&#x406;" horiz-adv-x="503" 
d="M532 1434l-278 -1434h-188l278 1434h188z" />
    <glyph glyph-name="uni0407" unicode="&#x407;" horiz-adv-x="503" 
d="M238 1749h165l-45 -227h-165zM582 1749h168l-43 -227h-168zM532 1434l-278 -1434h-188l278 1434h188z" />
    <glyph glyph-name="uni0408" unicode="&#x408;" horiz-adv-x="602" 
d="M629 1434l-217 -1127q-34 -172 -117.5 -244.5t-247.5 -72.5q-29 0 -88 6l35 174q20 -2 74 -2q69 0 106.5 37t54.5 125l215 1104h185z" />
    <glyph glyph-name="uni0409" unicode="&#x409;" horiz-adv-x="2195" 
d="M1700 850q208 0 326 -100.5t118 -288.5q0 -146 -72 -252t-191.5 -157.5t-272.5 -51.5h-521l193 993l45 219q7 40 14 52l-2 4q-21 -8 -53 -8h-598q-33 0 -49 8l-6 -4q4 -19 -2 -52l-64 -323l-112 -578q-33 -172 -116 -246.5t-249 -74.5q-69 0 -129 8l35 176q43 -6 115 -6
q67 0 105 35.5t56 126.5l111 559l104 545h1065l-86 -441l-16 -96q-8 -35 -16 -49l4 -4q12 6 51 6h213zM1616 174q159 0 245.5 76.5t86.5 204.5q0 108 -65.5 164.5t-194.5 56.5h-236q-33 0 -49 8l-6 -4q3 -17 -2 -51l-78 -406q-3 -25 -17 -53l5 -4q16 8 51 8h260z" />
    <glyph glyph-name="uni040A" unicode="&#x40a;" horiz-adv-x="2111" 
d="M66 0l278 1434h186l-104 -535q-5 -29 -16 -51l4 -2q21 6 51 6h663q33 0 54 -6l2 2q-2 14 4 51l104 535h185l-103 -535q-5 -29 -16 -51l4 -2q18 6 51 6h203q209 0 326.5 -101t117.5 -290q0 -146 -71.5 -252t-191 -157.5t-273.5 -51.5h-510l121 629q6 36 14 49l-2 4
q-14 -6 -53 -6h-662q-39 0 -51 6l-4 -4q3 -17 -2 -49l-123 -629h-186zM1229 166q19 8 53 8h250q159 0 246.5 76.5t87.5 204.5q0 108 -66.5 165.5t-195.5 57.5h-224q-35 0 -51 8l-4 -4q3 -17 -2 -51l-80 -408q-6 -36 -16 -53z" />
    <glyph glyph-name="uni040B" unicode="&#x40b;" horiz-adv-x="1521" 
d="M1010 944q368 0 368 -321q0 -80 -20 -177l-86 -446h-187l97 487q8 47 8 91q0 100 -55 141t-158 41q-160 0 -377 -72l-135 -688h-186l208 1065l27 145q8 40 14 50l-2 4q-14 -7 -53 -7h-299l33 177h1018l-33 -177h-434q-35 0 -49 7l-7 -4q4 -18 -2 -50l-28 -145l-23 -117
q-8 -58 -26 -84l2 -4q218 84 385 84z" />
    <glyph glyph-name="uni040C" unicode="&#x40c;" horiz-adv-x="1255" 
d="M1174 1747v-6l-302 -219h-118l-2 4l223 221h199zM1024 -8q-47 0 -86.5 11.5t-75 38.5t-57 77.5t-25.5 122.5l-14 256q-4 88 -53.5 129t-147.5 41h-129q-47 0 -63 4l-2 -2q3 -37 -6 -84l-113 -586h-186l278 1434h186l-100 -510q-7 -36 -27 -82l3 -2q24 6 65 6h133
q92 0 151 37.5t97 122.5l111 243q47 105 125 148t194 43q42 0 100 -6l-32 -177q-50 5 -62 5q-124 0 -166 -93l-86 -196q-49 -116 -121.5 -159.5t-209.5 -51.5v-4q130 -6 180.5 -61.5t56.5 -178.5l12 -219q4 -70 36 -95.5t97 -25.5q24 0 74 4l-35 -182q-49 -8 -102 -8z" />
    <glyph glyph-name="uni040E" unicode="&#x40e;" horiz-adv-x="1271" 
d="M1106 1767q-54 -282 -313 -282q-119 0 -182.5 55.5t-63.5 157.5q0 32 6 69h119q-8 -36 -8 -57q0 -56 34.5 -86.5t102.5 -30.5q82 0 124 45t58 129h123zM221 -16q-93 0 -182 24l47 176q77 -24 141 -24q86 0 156.5 47t142.5 164l-325 1063h209l198 -697q21 -74 27.5 -98
t12 -57t5.5 -66l6 2q23 70 41.5 110.5t67.5 114.5l451 691h223l-731 -1121q-78 -123 -142 -190.5t-148.5 -103t-199.5 -35.5z" />
    <glyph glyph-name="uni040F" unicode="&#x40f;" horiz-adv-x="1449" 
d="M489 -287l48 240q7 39 14 51l-2 4q-19 -8 -53 -8h-430l278 1434h186l-235 -1215q-5 -29 -16 -51l2 -2q24 6 53 6h665q32 0 50 -6l6 2q-2 14 4 51l233 1215h187l-279 -1434h-430q-35 0 -51 8l-4 -4q4 -18 -2 -51l-47 -240h-177z" />
    <glyph glyph-name="uni0410" unicode="&#x410;" horiz-adv-x="1406" 
d="M-70 0l957 1464h18l387 -1464h-190l-103 401h-593l-250 -401h-226zM494 555q40 4 114 4h248q71 0 117 -4v2q-24 40 -41 117l-64 297q-24 107 -18 166h-10q-16 -58 -82 -166l-180 -297q-50 -81 -86 -117z" />
    <glyph glyph-name="uni0411" unicode="&#x411;" horiz-adv-x="1255" 
d="M545 1257q-35 0 -49 7l-7 -4q4 -19 -4 -52l-36 -186l-23 -125q-8 -35 -16 -49l4 -4q14 6 51 6h233q210 0 327.5 -100.5t117.5 -288.5q0 -146 -71.5 -252t-191.5 -157.5t-274 -51.5h-540l278 1434h901l-35 -177h-665zM432 676q-35 0 -51 8l-4 -4q3 -17 -2 -51l-80 -406
q-4 -34 -16 -53l4 -4q19 8 51 8h280q159 0 246.5 76.5t87.5 204.5q0 108 -66 164.5t-196 56.5h-254z" />
    <glyph glyph-name="uni0412" unicode="&#x412;" horiz-adv-x="1280" 
d="M66 0l278 1434h498q165 0 265.5 -87t100.5 -233q0 -121 -63.5 -209t-181.5 -129q-60 -20 -127 -24l-2 -9q53 0 122 -14q99 -25 153 -103t54 -198q0 -198 -143 -313t-389 -115h-565zM410 821q18 6 53 6h252q135 0 214 64.5t79 173.5q0 96 -62.5 145.5t-185.5 49.5h-215
q-33 0 -49 8l-7 -4q2 -7 -4 -54l-63 -336q-10 -41 -16 -51zM281 166q19 8 53 8h301q161 0 247.5 66.5t86.5 189.5q0 227 -293 227h-248q-31 0 -49 9l-6 -4q3 -13 -4 -52l-74 -387q-7 -35 -16 -53z" />
    <glyph glyph-name="uni0413" unicode="&#x413;" horiz-adv-x="985" 
d="M66 0l278 1434h807l-33 -177h-573q-35 0 -51 7l-5 -4q3 -13 -4 -50l-233 -1210h-186z" />
    <glyph glyph-name="uni0414" unicode="&#x414;" horiz-adv-x="1398" 
d="M-133 -287l88 449h100q27 0 51 -8l5 2q5 27 24 55q167 234 257.5 441t150.5 505l55 277h772l-237 -1225q-6 -32 -17 -51l4 -4q21 8 56 8h98l-88 -449h-176l45 226q7 39 16 53l-2 2q-21 -6 -55 -6h-869q-33 0 -51 6l-4 -2q3 -15 -4 -53l-43 -226h-176zM311 152
q20 10 58 10h522q33 0 49 -8l4 4q-3 13 4 51l193 1001q11 46 16 54l-2 4q-19 -8 -53 -8h-303q-33 0 -49 8l-7 -4q4 -20 -4 -54l-16 -84q-53 -269 -161 -523t-255 -447z" />
    <glyph glyph-name="uni0415" unicode="&#x415;" horiz-adv-x="1054" 
d="M1151 1434l-33 -174h-573q-33 0 -49 8l-7 -4q4 -20 -4 -54l-55 -292q-6 -36 -16 -52l4 -4q16 8 53 8h504l-33 -174h-506q-30 0 -51 9l-4 -5q2 -12 -4 -53l-82 -424q-11 -44 -16 -53l2 -4q21 8 53 8h581l-34 -174h-815l278 1434h807z" />
    <glyph glyph-name="uni0416" unicode="&#x416;" horiz-adv-x="1859" 
d="M1898 1440q48 0 109 -6l-33 -174q-40 4 -57 4q-119 0 -162 -95l-90 -196q-52 -116 -124.5 -159.5t-207.5 -51.5v-4q113 -6 158 -52.5t51 -179.5l12 -221q6 -127 129 -127q20 0 70 4l-37 -182q-47 -8 -98 -8q-235 0 -242 276l-10 246q-3 89 -43.5 126.5t-136.5 37.5h-70
q-47 0 -63 4l-2 -2q3 -33 -7 -84l-114 -596h-185l117 596q8 46 27 84l-2 2q-16 -4 -62 -4h-86q-80 0 -134.5 -38.5t-90.5 -125.5l-129 -303q-47 -114 -126 -166.5t-204 -52.5q-47 0 -96 8l35 182q50 -4 61 -4q65 0 106 29t66 90l115 264q44 107 104 149t191 48v4
q-126 8 -175.5 52.5t-58.5 164.5l-16 190q-6 55 -41 76t-92 21q-24 0 -64 -4l35 172q53 6 94 6q112 0 167 -44.5t65 -148.5l22 -241q9 -86 56.5 -127t140.5 -41h86q31 0 59 -7l3 3q-3 35 6 81l100 519h184l-100 -519q-5 -31 -27 -81l2 -3q28 7 66 7h82q90 0 150 41t100 127
l112 243q45 105 120 148t185 43z" />
    <glyph glyph-name="uni0417" unicode="&#x417;" horiz-adv-x="1300" 
d="M567 -31q-291 0 -514 125l101 172q199 -108 424 -108q183 0 269.5 71.5t86.5 194.5q0 121 -78 180.5t-209 59.5h-211l35 182h209q143 0 240.5 68t97.5 188q0 93 -66 134.5t-196 41.5q-207 0 -418 -78l-59 176q260 88 489 88q218 0 332 -88t114 -252q0 -131 -71 -212.5
t-225 -127.5q-63 -19 -162 -26l-2 -4q84 0 145 -15q109 -25 169 -107t60 -208q0 -66 -16 -127.5t-57 -122.5t-102.5 -105.5t-161 -72t-224.5 -27.5z" />
    <glyph glyph-name="uni0418" unicode="&#x418;" horiz-adv-x="1492" 
d="M1509 1454h17l-283 -1454h-184l155 807q32 165 70 258l-6 2q-49 -76 -145 -162l-1053 -925h-19l283 1454h186l-157 -807q-34 -174 -68 -258l6 -2q49 76 144 161z" />
    <glyph glyph-name="uni0419" unicode="&#x419;" horiz-adv-x="1492" 
d="M1280 1767q-54 -282 -313 -282q-119 0 -182.5 55.5t-63.5 157.5q0 32 6 69h119q-8 -36 -8 -57q0 -56 34.5 -86.5t102.5 -30.5q82 0 124 45t58 129h123zM1509 1454h17l-283 -1454h-184l155 807q32 165 70 258l-6 2q-49 -76 -145 -162l-1053 -925h-19l283 1454h186
l-157 -807q-34 -174 -68 -258l6 -2q49 76 144 161z" />
    <glyph glyph-name="uni041A" unicode="&#x41a;" horiz-adv-x="1255" 
d="M1024 -8q-47 0 -86.5 11.5t-75 38.5t-57 77.5t-25.5 122.5l-14 256q-4 88 -53.5 129t-147.5 41h-129q-47 0 -63 4l-2 -2q3 -37 -6 -84l-113 -586h-186l278 1434h186l-100 -510q-7 -36 -27 -82l3 -2q24 6 65 6h133q92 0 151 37.5t97 122.5l111 243q47 105 125 148t194 43
q42 0 100 -6l-32 -177q-50 5 -62 5q-124 0 -166 -93l-86 -196q-49 -116 -121.5 -159.5t-209.5 -51.5v-4q130 -6 180.5 -61.5t56.5 -178.5l12 -219q4 -70 36 -95.5t97 -25.5q24 0 74 4l-35 -182q-49 -8 -102 -8z" />
    <glyph glyph-name="uni041B" unicode="&#x41b;" horiz-adv-x="1523" 
d="M1550 1434l-108 -570l-170 -864h-185l236 1212q7 40 14 52v4q-21 -8 -55 -8h-596q-33 0 -49 8l-6 -4q4 -19 -2 -52l-64 -323l-112 -578q-33 -172 -116 -246.5t-249 -74.5q-64 0 -129 8l35 176q45 -6 115 -6q67 0 105 35.5t56 126.5l111 559l104 545h1065z" />
    <glyph glyph-name="uni041C" unicode="&#x41c;" horiz-adv-x="1800" 
d="M805 -18l-182 813q-6 24 -10 45.5t-6.5 41.5t-4 33.5t-2 31.5t-0.5 26v26.5v24.5h-6q-1 -3 -9 -33t-12.5 -45t-13.5 -44t-20.5 -55.5t-24.5 -53.5l-375 -793h-209l701 1456h24l201 -944q14 -64 8 -174h8q29 97 74 174l559 944h29l152 -1456h-179l-82 793q-12 120 9 231
h-7q-4 -9 -17.5 -42.5t-21.5 -52t-28 -56t-45 -78.5l-492 -813h-18z" />
    <glyph glyph-name="uni041D" unicode="&#x41d;" horiz-adv-x="1449" 
d="M1479 1434l-279 -1434h-188l121 625q6 34 16 51l-2 4q-21 -8 -55 -8h-658q-36 0 -49 8l-4 -4q3 -13 -4 -51l-123 -625h-188l278 1434h188l-104 -537q-5 -33 -16 -51l4 -4q19 8 53 8h659q31 0 50 -8l4 4q-2 12 4 51l104 537h189z" />
    <glyph glyph-name="uni041E" unicode="&#x41e;" horiz-adv-x="1689" 
d="M836 -31q-320 0 -514.5 186.5t-194.5 493.5q0 173 63.5 324.5t173.5 259t265 169.5t332 62q321 0 514.5 -186t193.5 -494q0 -231 -107.5 -417.5t-298.5 -292t-427 -105.5zM842 154q137 0 254 47.5t199 132t128.5 204t46.5 259.5q0 215 -143 349t-373 134
q-182 0 -325.5 -81.5t-223 -228.5t-79.5 -333q0 -215 143.5 -349t372.5 -134z" />
    <glyph glyph-name="uni041F" unicode="&#x41f;" horiz-adv-x="1427" 
d="M66 0l278 1434h1112l-278 -1434h-185l234 1212q6 36 16 52l-2 4q-19 -8 -53 -8h-643q-33 0 -49 8l-7 -4q3 -13 -4 -52l-233 -1212h-186z" />
    <glyph glyph-name="uni0420" unicode="&#x420;" horiz-adv-x="1114" 
d="M760 1434q192 0 301.5 -99t109.5 -272q0 -197 -133.5 -313.5t-359.5 -116.5h-254q-33 0 -49 8l-6 -4q3 -10 -4 -51l-113 -586h-186l278 1434h416zM496 1268l-7 -4q2 -7 -4 -54l-67 -354q-6 -35 -17 -53l2 -2q21 6 54 6h223q138 0 215.5 66.5t77.5 183.5q0 96 -59 149.5
t-166 53.5h-203q-33 0 -49 8z" />
    <glyph glyph-name="uni0421" unicode="&#x421;" horiz-adv-x="1415" 
d="M795 -31q-306 0 -488 181.5t-182 484.5q0 238 109 427.5t303.5 295.5t439.5 106q283 0 485 -164l-114 -155q-183 133 -394 133q-178 0 -322 -82.5t-226 -228.5t-82 -326q0 -225 130 -355t355 -130q100 0 189.5 29t189.5 94l100 -156q-234 -154 -493 -154z" />
    <glyph glyph-name="uni0422" unicode="&#x422;" horiz-adv-x="1058" 
d="M1225 1434l-33 -177h-367q-37 0 -51 7l-4 -4q4 -18 -2 -50l-236 -1210h-186l236 1210q7 38 14 50l-2 4q-16 -7 -53 -7h-367l33 177h1018z" />
    <glyph glyph-name="uni0423" unicode="&#x423;" horiz-adv-x="1271" 
d="M221 -16q-93 0 -182 24l47 176q77 -24 141 -24q86 0 156.5 47t142.5 164l-325 1063h209l198 -697q21 -74 27.5 -98t12 -57t5.5 -66l6 2q23 70 41.5 110.5t67.5 114.5l451 691h223l-731 -1121q-78 -123 -142 -190.5t-148.5 -103t-199.5 -35.5z" />
    <glyph glyph-name="uni0424" unicode="&#x424;" horiz-adv-x="1759" 
d="M698 -20l11 59q7 37 20 59l-2 2q-15 -6 -72 -6q-75 0 -148 21t-141.5 67t-121 111.5t-84 163t-31.5 213.5q0 208 93.5 360t263.5 230.5t399 78.5q52 0 73 -6l5 2q-4 31 2 60l10 59h180l-10 -59q-8 -39 -23 -60l2 -2q15 6 74 6q79 0 153.5 -21.5t142 -67.5t118 -113
t80.5 -164.5t30 -214.5q0 -313 -202 -488.5t-551 -175.5q-52 0 -76 6l-2 -2q4 -31 -2 -59l-10 -59h-181zM770 264l4 2q-4 30 2 60l142 782q8 38 20 59l-2 2q-24 -4 -66 -4q-140 -1 -246 -39t-170 -104.5t-96 -153.5t-32 -192q0 -89 23 -160t60.5 -116.5t88 -76t102.5 -43
t107 -12.5q49 0 63 -4zM918 264q20 4 65 4q140 1 246.5 38.5t171.5 103.5t97 152t32 190q0 108 -31 190t-85 129.5t-120.5 70.5t-144.5 23q-52 0 -66 4l-2 -2q3 -22 -2 -59l-143 -782q-4 -31 -21 -60z" />
    <glyph glyph-name="uni0425" unicode="&#x425;" horiz-adv-x="1265" 
d="M1397 1434l-406 -473q-139 -168 -190 -213l-2 -7q39 -68 102 -202l258 -539h-211l-203 446q-46 97 -61 181h-6q-25 -56 -131 -181l-371 -446h-246l478 563q4 5 35 41t42 48t34.5 38t39.5 42t29 28l2 8q-7 9 -14 20.5t-12.5 22t-16 31.5t-17 35t-22.5 49t-27 57l-217 451
h213l168 -375q5 -11 13.5 -31t12 -27.5t9.5 -22t8 -19.5t6 -15.5t5 -16t3.5 -14t4 -16t2.5 -16.5h6q20 42 129 176l315 377h238z" />
    <glyph glyph-name="uni0426" unicode="&#x426;" horiz-adv-x="1435" 
d="M1047 -283l45 236q6 34 16 51l-2 4q-19 -8 -55 -8h-985l278 1434h186l-235 -1213q-5 -27 -19 -51l5 -4q19 8 53 8h581q35 0 54 -8l4 4q-4 18 2 51l235 1213h185l-236 -1213q-6 -34 -16 -51l2 -4q16 8 53 8h113l-88 -457h-176z" />
    <glyph glyph-name="uni0427" unicode="&#x427;" horiz-adv-x="1232" 
d="M799 0l104 545q9 54 27 84l-2 4q-212 -78 -422 -78q-180 0 -280.5 77t-100.5 242q0 54 25 191l73 369h187l-76 -381q-17 -87 -17 -129q0 -59 17 -97.5t50 -58t69.5 -26.5t87.5 -7q153 0 413 74l123 625h185l-279 -1434h-184z" />
    <glyph glyph-name="uni0428" unicode="&#x428;" horiz-adv-x="2043" 
d="M66 0l278 1434h186l-235 -1213q-5 -27 -19 -51l5 -4q19 8 53 8h487q34 0 53 -8l3 4q-3 13 4 51l233 1213h186l-235 -1213q-5 -30 -18 -51l4 -4q16 8 53 8h485q34 0 53 -8l5 4q-4 18 2 51l233 1213h186l-276 -1434h-1726z" />
    <glyph glyph-name="uni0429" unicode="&#x429;" horiz-adv-x="2109" 
d="M1872 174h113l-89 -457h-174l45 236q6 32 17 51l-2 4q-19 -8 -56 -8h-1660l278 1434h184l-233 -1213q-5 -27 -19 -51l5 -4q19 8 53 8h485q37 0 53 -8l5 4q-4 18 2 51l235 1213h184l-233 -1213q-5 -30 -18 -51l4 -4q16 8 53 8h485q34 0 53 -8l3 4q-3 13 4 51l233 1213h186
l-235 -1213q-5 -30 -18 -51l4 -4q19 8 53 8z" />
    <glyph glyph-name="uni042A" unicode="&#x42a;" horiz-adv-x="1443" 
d="M946 850q210 0 327.5 -100.5t117.5 -288.5q0 -146 -71.5 -252t-191.5 -157.5t-274 -51.5h-539l193 993l41 219q6 36 16 52l-2 4q-19 -8 -55 -8h-334l33 174h569l-84 -441l-16 -96q-7 -33 -17 -49l3 -4q14 6 53 6h231zM862 174q160 0 247 76.5t87 204.5q0 108 -66 164.5
t-194 56.5h-256q-35 0 -51 8l-4 -4q3 -17 -2 -51l-80 -406q-4 -32 -17 -53l4 -4q19 8 52 8h280z" />
    <glyph glyph-name="uni042B" unicode="&#x42b;" horiz-adv-x="1601" 
d="M700 850q209 0 327 -100.5t118 -288.5q0 -146 -72 -252t-192 -157.5t-273 -51.5h-540l192 993l86 441h184l-86 -441h2l-18 -96q-8 -35 -16 -49l4 -4q12 6 51 6h233zM1442 1434h188l-278 -1434h-189zM616 174q159 0 245.5 76.5t86.5 204.5q0 108 -65.5 164.5t-194.5 56.5
h-256q-33 0 -49 8l-6 -4q5 -23 -2 -51l-78 -406q-3 -28 -16 -53l4 -4q16 8 51 8h280z" />
    <glyph glyph-name="uni042C" unicode="&#x42c;" horiz-adv-x="1196" 
d="M700 850q209 0 327 -100.5t118 -288.5q0 -146 -72 -252t-192 -157.5t-273 -51.5h-540l192 993l86 441h184l-86 -441h2l-18 -96q-8 -35 -16 -49l4 -4q12 6 51 6h233zM616 174q159 0 245.5 76.5t86.5 204.5q0 108 -65.5 164.5t-194.5 56.5h-256q-33 0 -49 8l-6 -4
q5 -23 -2 -51l-78 -406q-3 -28 -16 -53l4 -4q16 8 51 8h280z" />
    <glyph glyph-name="uni042D" unicode="&#x42d;" horiz-adv-x="1417" 
d="M537 -31q-285 0 -488 164l115 156q181 -133 397 -133q217 0 375.5 112t224.5 310q5 18 25 53l-2 4q-21 -6 -62 -6h-573l35 176h551q39 0 57 -6l4 4q-1 6 -2 21.5t-2 23.5q-13 208 -146.5 319t-343.5 111q-112 0 -199 -31t-179 -92l-101 156q233 153 496 153
q307 0 487 -181t180 -486q0 -176 -62.5 -329t-173 -263t-269.5 -173t-344 -63z" />
    <glyph glyph-name="uni042E" unicode="&#x42e;" horiz-adv-x="2144" 
d="M1403 1460q320 0 514 -186.5t194 -493.5q0 -231 -107.5 -417.5t-298.5 -292t-427 -105.5q-317 0 -510.5 183t-198.5 485h-145q-33 0 -49 8l-6 -4q2 -12 -4 -51l-113 -586h-186l278 1434h186l-112 -576q-6 -37 -17 -51l5 -4q19 8 51 8h127q56 289 280.5 469t538.5 180z
M1284 152q182 0 325.5 81t223.5 227.5t80 332.5q0 216 -143.5 349.5t-374.5 133.5q-182 0 -325.5 -81t-223.5 -227.5t-80 -332.5q0 -216 143.5 -349.5t374.5 -133.5z" />
    <glyph glyph-name="uni042F" unicode="&#x42f;" horiz-adv-x="1220" 
d="M-70 0l531 547q74 79 176 129l-2 2q-46 -8 -70 -8q-30 0 -65.5 10t-77.5 35t-75.5 62.5t-56 99t-22.5 137.5q0 187 128.5 303.5t353.5 116.5h499l-278 -1434h-187l119 606q5 34 17 53l-2 5q-16 -7 -50 -7h-53l-641 -657h-244zM948 827l4 2q-2 15 4 52l64 329q3 14 16 54
l-2 4q-21 -8 -53 -8h-233q-139 0 -212 -62.5t-73 -171.5q0 -192 256 -192h178q30 0 51 -7z" />
    <glyph glyph-name="uni0430" unicode="&#x430;" horiz-adv-x="1040" 
d="M379 -29q-152 0 -247 88.5t-95 229.5q0 159 103 252.5t280 93.5q124 0 213 -55.5t129 -153.5l6 2q-10 41 6 135q12 82 12 101q0 151 -204 151q-134 0 -303 -41l-33 160q194 41 356 41q172 0 261 -72t89 -211q0 -46 -12 -110l-111 -582h-174q14 87 52 152l-9 4
q-62 -95 -139 -140t-180 -45zM438 115q112 0 190.5 56t78.5 136q0 78 -72.5 130t-179.5 52q-109 0 -171.5 -53t-62.5 -145q0 -82 58 -129t159 -47z" />
    <glyph glyph-name="uni0431" unicode="&#x431;" horiz-adv-x="1236" 
d="M598 -31q-73 0 -140 17.5t-130 58.5t-109 101.5t-74 153t-28 206.5q0 122 22.5 234.5t68 214t124 179.5t182.5 119q39 16 91 30t112.5 25t99.5 17.5t95 14.5l57 8q107 21 123 102h174q-30 -195 -228 -238q-32 -7 -123.5 -21t-178.5 -32.5t-148 -42.5q-288 -112 -314 -500
h5q28 92 75.5 161t108 109t126.5 59.5t140 19.5q193 0 316.5 -113.5t123.5 -316.5q0 -112 -38.5 -213.5t-109.5 -180.5t-180.5 -125.5t-242.5 -46.5zM623 139q90 0 161.5 32t114 86t64.5 119t22 136q0 146 -80.5 218.5t-212.5 72.5q-169 0 -277 -108t-108 -263
q0 -142 89.5 -217.5t226.5 -75.5z" />
    <glyph glyph-name="uni0432" unicode="&#x432;" horiz-adv-x="1052" 
d="M823 475q60 -23 90.5 -73t30.5 -117q0 -127 -105 -206t-284 -79h-510l61 317l66 334l57 295h488q118 0 192 -52t74 -167q0 -149 -147 -203q-59 -22 -129 -24v-6q64 -2 116 -19zM346 651l-10 -45q-7 -36 -19 -55l2 -2q20 10 58 10h241q83 0 124.5 35t41.5 92
q0 102 -137 102h-225q-39 0 -57 9l-3 -2q8 -20 0 -54zM573 158q91 0 136 39t45 102q0 65 -46 94t-122 29h-236q-38 0 -55 10l-2 -2q6 -24 0 -55l-10 -58h-2l-21 -112q-11 -39 -20 -53l2 -2q16 8 57 8h274z" />
    <glyph glyph-name="uni0433" unicode="&#x433;" horiz-adv-x="757" 
d="M45 0l184 946h611l-33 -162h-387q-39 0 -55 9l-3 -2q6 -25 0 -54l-143 -737h-174z" />
    <glyph glyph-name="uni0434" unicode="&#x434;" horiz-adv-x="1107" 
d="M-106 -287l83 434h78q35 0 47 -8l2 2q0 19 23 52q91 125 147.5 240.5t87.5 275.5l46 237h634l-145 -751q-8 -34 -20 -54l2 -2q16 8 57 8h61l-84 -434h-159l47 238q8 37 20 53l-2 2q-18 -8 -59 -8h-600q-42 0 -56 8l-2 -2q6 -25 0 -53l-47 -238h-161zM268 139q20 8 64 8
h342q41 0 57 -8l2 2q-8 20 0 54l107 550q9 39 20 54l-2 2q-18 -8 -59 -8h-205q-41 0 -55 8l-2 -2q6 -25 0 -54l-11 -47q-32 -164 -103.5 -321.5t-154.5 -235.5v-2z" />
    <glyph glyph-name="uni0435" unicode="&#x435;" horiz-adv-x="1105" 
d="M530 -31q-217 0 -339.5 118t-122.5 327q0 246 156.5 404.5t398.5 158.5q196 0 310 -104t114 -283q0 -54 -21 -148h-674q-83 0 -110 15l-4 -4l2 -17v-39q0 -125 76 -194.5t214 -69.5q95 0 174.5 36t167.5 118l107 -125q-111 -103 -215 -148t-234 -45zM260 557q30 18 94 18
h414q78 0 102 -16l4 2v25q0 115 -68 177t-196 62q-130 0 -223.5 -70.5t-128.5 -195.5z" />
    <glyph glyph-name="uni0436" unicode="&#x436;" horiz-adv-x="1439" 
d="M1382 952h93l-31 -151h-47q-46 0 -73.5 -17t-53.5 -63l-58 -100q-33 -63 -85.5 -91.5t-133.5 -33.5l-2 -4q88 -3 131 -30.5t49 -94.5l15 -146q4 -44 22 -60t58 -16h55l-29 -151h-108q-131 0 -146 135l-16 164q-8 69 -39 100t-98 31h-33q-48 0 -64 4l-2 -2q3 -37 -6 -86
l-65 -340h-86h-84l67 340q5 28 27 86l-2 2q-16 -4 -64 -4h-32q-57 0 -97 -31.5t-73 -99.5l-84 -170q-30 -61 -86 -95t-129 -34h-109l31 151h55q45 0 71.5 16.5t49.5 59.5l70 146q32 66 82 94t135 31l2 4q-84 5 -125 32.5t-51 92.5l-21 100q-8 45 -27 62.5t-63 17.5h-49
l31 151h92q123 0 145 -102l37 -166q15 -67 39.5 -94t91.5 -27h35q45 0 61 -4l2 2q-3 32 7 82l65 303h88h82l-61 -303q-8 -43 -27 -82l2 -2q16 4 66 4h32q56 0 85 25.5t71 95.5l100 166q63 102 215 102z" />
    <glyph glyph-name="uni0437" unicode="&#x437;" horiz-adv-x="921" 
d="M375 -31q-221 0 -393 88l75 152q169 -80 336 -80q246 0 246 160q0 139 -209 139h-192l28 141h193q97 0 153 37.5t56 102.5q0 106 -168 106q-145 0 -322 -67l-51 151q202 78 397 78q164 0 249 -58t85 -167q0 -34 -8 -64t-29.5 -62t-55 -55.5t-89 -40.5t-127.5 -22v-4
q262 -13 262 -225q0 -63 -24 -117t-73.5 -98.5t-136.5 -69.5t-202 -25z" />
    <glyph glyph-name="uni0438" unicode="&#x438;" horiz-adv-x="1099" 
d="M43 -14l186 960h174l-75 -389q-31 -148 -58 -238l4 -2q57 76 138 144l594 500h51l-187 -961h-174l76 389q34 164 57 238l-4 2q-49 -71 -137 -144l-594 -499h-51z" />
    <glyph glyph-name="uni0439" unicode="&#x439;" horiz-adv-x="1099" 
d="M682 1024q-116 0 -183 58.5t-67 166.5q0 33 8 72h119q-4 -36 -4 -51q0 -131 133 -131q73 0 124 45t71 137h121q-26 -146 -108.5 -221.5t-213.5 -75.5zM43 -14l186 960h174l-75 -389q-31 -148 -58 -238l4 -2q57 76 138 144l594 500h51l-187 -961h-174l76 389
q34 164 57 238l-4 2q-49 -71 -137 -144l-594 -499h-51z" />
    <glyph glyph-name="uni043A" unicode="&#x43a;" horiz-adv-x="1009" 
d="M766 -6q-64 0 -109 32t-51 103l-14 164q-6 65 -37 94t-102 29h-99q-49 0 -61 4l-4 -2q3 -37 -6 -86l-64 -332h-174l184 946h174l-57 -295q-8 -44 -27 -82l3 -2q16 4 63 4h98q54 0 81.5 22t68.5 91l98 166q65 102 221 102h92l-30 -155h-47q-40 0 -67.5 -17t-51.5 -59
l-57 -100q-38 -66 -86.5 -94t-141.5 -31l-2 -4q95 -6 135.5 -38.5t48.5 -103.5l13 -129q3 -41 22 -56t58 -15h55l-31 -156h-96z" />
    <glyph glyph-name="uni043B" unicode="&#x43b;" horiz-adv-x="1120" 
d="M1073 946l-184 -946h-172l141 737q7 32 21 54l-2 2q-18 -9 -58 -9h-336q-39 0 -57 9l-2 -2q8 -20 0 -54l-21 -112l-73 -379q-50 -252 -305 -252h-95l31 158h62q61 0 94 37t51 116l61 320l62 321h782z" />
    <glyph glyph-name="uni043C" unicode="&#x43c;" horiz-adv-x="1318" 
d="M553 -12l-104 438q-29 121 -31 168h-6q-13 -55 -74 -170l-219 -424h-197l504 958h45l135 -528q17 -80 19 -125h6q19 46 65 125l324 528h43l147 -958h-170l-59 426q-15 100 -10 168h-6q-6 -16 -14.5 -33t-16.5 -30.5t-28 -45t-36 -57.5l-272 -440h-45z" />
    <glyph glyph-name="uni043D" unicode="&#x43d;" horiz-adv-x="1126" 
d="M907 946h174l-184 -946h-174l74 379q8 37 20 53l-2 2q-18 -8 -57 -8h-408q-39 0 -53 8l-2 -2q5 -21 -2 -53l-74 -379h-174l184 946h174l-61 -315q-6 -31 -20 -53l2 -3q18 9 57 9h405q40 0 58 -9l2 3q-7 18 0 53z" />
    <glyph glyph-name="uni043E" unicode="&#x43e;" horiz-adv-x="1161" 
d="M530 -31q-214 0 -339 120.5t-125 326.5q0 241 161 401t404 160q214 0 338.5 -120.5t124.5 -326.5q0 -159 -73 -287.5t-202 -201t-289 -72.5zM547 139q158 0 262 109t104 274q0 133 -79.5 209t-219.5 76q-159 0 -263.5 -109t-104.5 -274q0 -134 80 -209.5t221 -75.5z" />
    <glyph glyph-name="uni043F" unicode="&#x43f;" horiz-adv-x="1083" 
d="M1049 946l-185 -946h-174l144 737q9 39 20 54l-2 2q-20 -9 -59 -9h-383q-40 0 -56 9l-2 -2q6 -25 0 -54l-143 -737h-174l184 946h830z" />
    <glyph glyph-name="uni0440" unicode="&#x440;" horiz-adv-x="1210" 
d="M-35 -410l264 1356h174q-26 -126 -51 -188l6 -4q53 104 151.5 163.5t219.5 59.5q184 0 299 -126t115 -327q0 -156 -67.5 -283.5t-187 -199.5t-265.5 -72q-141 0 -237 66t-130 186l-8 -2q0 -68 -29 -219l-80 -410h-174zM590 133q160 0 266.5 111.5t106.5 279.5
q0 134 -77.5 211.5t-211.5 77.5q-161 0 -269 -112t-108 -281q0 -133 79 -210t214 -77z" />
    <glyph glyph-name="uni0441" unicode="&#x441;" horiz-adv-x="1005" 
d="M559 -31q-221 0 -354 129.5t-133 343.5q0 236 154.5 385.5t400.5 149.5q205 0 377 -123l-101 -141q-131 98 -287 98q-157 0 -258.5 -102t-101.5 -260q0 -140 85.5 -227t221.5 -87q122 0 248 72l72 -148q-161 -90 -324 -90z" />
    <glyph glyph-name="uni0442" unicode="&#x442;" horiz-adv-x="915" 
d="M997 946l-30 -162h-312q-39 0 -55 9l-2 -2q6 -25 0 -54l-14 -69l-131 -668h-174l131 668l14 69q9 39 20 54l-2 2q-20 -9 -59 -9h-311l30 162h895z" />
    <glyph glyph-name="uni0443" unicode="&#x443;" horiz-adv-x="985" 
d="M1063 946l-842 -1358h-198l307 494l-224 864h193l115 -491q32 -145 24 -246l8 2q26 84 74 166l346 569h197z" />
    <glyph glyph-name="uni0444" unicode="&#x444;" horiz-adv-x="1728" 
d="M612 -410l84 422q23 126 56 201l-9 2q-51 -124 -136.5 -185t-194.5 -61q-152 0 -242 115t-90 322q0 158 52.5 286.5t156 206.5t239.5 78q120 0 203.5 -63t110.5 -187l8 2q-2 70 22 205l95 489h161l-94 -489q-22 -120 -55 -201l6 -2q111 246 332 246q155 0 244.5 -115
t89.5 -319q0 -117 -31.5 -221.5t-88.5 -183t-142.5 -124t-188.5 -45.5q-118 0 -200 61.5t-113 188.5l-6 -2q0 -75 -23 -205l-84 -422h-162zM487 133q75 0 136 36t99 95t58 130t19 145q-2 124 -64 199t-174 75q-75 0 -133.5 -35.5t-93 -94.5t-52 -130t-16.5 -147
q0 -127 56 -200t165 -73zM1169 133q75 0 134 36t94 96t52.5 131t16.5 147q-2 127 -57 198.5t-162 71.5q-99 0 -173.5 -62t-108.5 -152.5t-33 -190.5q2 -124 64 -199.5t173 -75.5z" />
    <glyph glyph-name="uni0445" unicode="&#x445;" horiz-adv-x="968" 
d="M1010 946l-363 -397q-4 -4 -18 -19.5t-25 -25.5t-22 -15l-2 -6q17 -8 43 -59l233 -424h-186l-146 283q-3 6 -9 18.5t-8.5 18.5t-7 17t-7 18.5t-4.5 17.5t-3 20h-4q-11 -30 -29 -54t-55 -63l-254 -276h-215l412 449q42 48 68 61l2 6q-7 4 -13.5 11t-9.5 12t-10.5 18.5
t-9.5 17.5l-201 371h184l119 -223q34 -65 37 -123h4q17 38 33.5 60.5t50.5 60.5l203 225h213z" />
    <glyph glyph-name="uni0446" unicode="&#x446;" horiz-adv-x="1128" 
d="M774 -287l47 240q8 36 21 53l-2 2q-18 -8 -60 -8h-735l184 946h174l-143 -737q-8 -37 -20 -53l2 -2q18 8 59 8h379q41 0 55 -8l2 2q-6 25 0 53l146 737h174l-146 -737q-8 -37 -20 -53l2 -2q18 8 59 8h70l-88 -449h-160z" />
    <glyph glyph-name="uni0447" unicode="&#x447;" horiz-adv-x="974" 
d="M756 946h174l-58 -291l-77 -407l-50 -248h-174l50 248h2l12 71q13 70 29 93l-2 2q-169 -60 -312 -60q-138 0 -213.5 54t-75.5 178q0 43 13 110l49 250h174l-45 -229q-8 -62 -8 -76q0 -65 36.5 -94t108.5 -29q120 0 295 55l14 82z" />
    <glyph glyph-name="uni0448" unicode="&#x448;" horiz-adv-x="1634" 
d="M1415 946h174l-184 -946h-1360l184 946h174l-143 -737q-8 -37 -20 -53l2 -2q18 8 59 8h320q41 0 55 -8l2 2q-6 25 0 53l145 737h174l-145 -737q-8 -36 -21 -53l3 -2q18 8 59 8h321q42 0 56 -8l2 2q-6 25 0 53z" />
    <glyph glyph-name="uni0449" unicode="&#x449;" horiz-adv-x="1662" 
d="M1309 -287l47 240q8 37 20 53l-2 2q-18 -8 -59 -8h-1270l184 946h174l-143 -737q-8 -37 -20 -53l2 -2q18 8 59 8h320q41 0 55 -8l2 2q-6 25 0 53l145 737h174l-145 -737q-8 -36 -21 -53l3 -2q18 8 59 8h321q42 0 56 -8l2 2q-6 25 0 53l143 737h174l-143 -737
q-8 -36 -21 -53l2 -2q18 8 60 8h67l-88 -449h-157z" />
    <glyph glyph-name="uni044A" unicode="&#x44a;" horiz-adv-x="1134" 
d="M758 606q132 0 220.5 -69t88.5 -205q0 -149 -106 -240.5t-279 -91.5h-432l65 332l70 360l10 45q8 37 21 54l-2 2q-20 -9 -60 -9h-284l32 162h506l-49 -254l-8 -39q-3 -28 -21 -53l2 -2q18 8 58 8h168zM692 160q92 0 141.5 42.5t49.5 114.5q0 129 -160 129h-162
q-39 0 -57 9l-2 -2q8 -20 0 -54l-13 -67l-24 -125q-7 -30 -21 -53l2 -2q16 8 58 8h188z" />
    <glyph glyph-name="uni044B" unicode="&#x44b;" horiz-adv-x="1290" 
d="M553 606q132 0 220.5 -69t88.5 -205q0 -149 -106 -240.5t-279 -91.5h-432l66 332l118 614h174l-49 -254l-8 -39q-3 -30 -20 -53l2 -2q18 8 57 8h168zM1071 946h174l-184 -946h-174zM487 160q92 0 141.5 42.5t49.5 114.5q0 129 -160 129h-162q-39 0 -57 9l-2 -2
q8 -20 0 -54l-12 -67l-25 -125q-7 -33 -20 -53l2 -2q16 8 57 8h188z" />
    <glyph glyph-name="uni044C" unicode="&#x44c;" horiz-adv-x="929" 
d="M553 606q132 0 220.5 -69t88.5 -205q0 -149 -106 -240.5t-279 -91.5h-432l66 332l118 614h174l-49 -254l-8 -39q-3 -30 -20 -53l2 -2q18 8 57 8h168zM487 160q92 0 141.5 42.5t49.5 114.5q0 129 -160 129h-162q-39 0 -57 9l-2 -2q8 -20 0 -54l-12 -67l-25 -125
q-7 -33 -20 -53l2 -2q16 8 57 8h188z" />
    <glyph glyph-name="uni044D" unicode="&#x44d;" horiz-adv-x="1009" 
d="M379 -31q-213 0 -377 123l102 141q129 -98 285 -98q121 0 207.5 56t124.5 151q14 37 35 64v2q-28 -11 -58 -11h-368v152h372q34 0 52 -10l4 2q-9 19 -21 67q-25 91 -105 147t-186 56q-121 0 -249 -72l-74 148q156 90 328 90q217 0 347 -129t130 -344q0 -151 -65.5 -272
t-191.5 -192t-292 -71z" />
    <glyph glyph-name="uni044E" unicode="&#x44e;" horiz-adv-x="1523" 
d="M993 977q215 0 340 -120.5t125 -326.5q0 -241 -161 -401t-404 -160q-207 0 -332 115t-131 311h-92q-41 0 -55 8l-2 -2q6 -25 0 -53l-68 -348h-168l184 946h166l-65 -344q-7 -37 -21 -55l2 -2q23 10 58 10h77q43 188 193 305t354 117zM909 139q159 0 264 109t105 274
q0 134 -80 209.5t-221 75.5q-158 0 -262.5 -109.5t-104.5 -273.5q0 -133 79.5 -209t219.5 -76z" />
    <glyph glyph-name="uni044F" unicode="&#x44f;" horiz-adv-x="997" 
d="M950 946l-59 -315l-68 -338l-57 -293h-172l55 293l6 24q8 36 21 54l-2 2q-21 -8 -60 -8h-49l-393 -365h-233l2 8l299 275q3 3 13 12t13.5 12t12.5 10.5t13.5 11t13.5 10t16 10.5t16.5 9.5t19.5 10.5v6q-22 -6 -51 -2q-78 9 -133 88t-55 180q0 140 99 222.5t267 82.5h465z
M715 631h2l20 108q9 37 21 54l-2 2q-21 -9 -60 -9h-207q-84 0 -131 -37.5t-47 -103.5q0 -125 162 -125h172q35 0 55 -10l2 2q-6 23 0 55z" />
    <glyph glyph-name="uni0451" unicode="&#x451;" horiz-adv-x="1105" 
d="M635 1307l-45 -242h-168l47 242h166zM969 1307l-47 -242h-166l45 242h168zM530 -31q-217 0 -339.5 118t-122.5 327q0 246 156.5 404.5t398.5 158.5q196 0 310 -104t114 -283q0 -54 -21 -148h-674q-83 0 -110 15l-4 -4l2 -17v-39q0 -125 76 -194.5t214 -69.5
q95 0 174.5 36t167.5 118l107 -125q-111 -103 -215 -148t-234 -45zM260 557q30 18 94 18h414q78 0 102 -16l4 2v25q0 115 -68 177t-196 62q-130 0 -223.5 -70.5t-128.5 -195.5z" />
    <glyph glyph-name="uni0452" unicode="&#x452;" horiz-adv-x="1124" 
d="M729 977q149 0 226 -78t77 -227q0 -64 -18 -162l-103 -510l-24 -135q-29 -152 -112.5 -215.5t-215.5 -63.5h-104l30 158h80q67 0 101.5 32t48.5 105l24 119h-2l101 514q12 52 12 102q0 98 -53.5 150.5t-151.5 52.5q-260 0 -334 -373l-86 -446h-174l185 946l32 172
q8 38 21 56l-2 2q-20 -9 -58 -9h-84l21 109h84q41 0 55 -8l2 2q-6 25 0 53l29 141h174l-29 -141q-8 -37 -20 -53l2 -2q18 8 59 8h273l-23 -109h-272q-38 0 -54 9l-2 -2q5 -20 -2 -56l-32 -172l-7 -31q-19 -121 -61 -206l8 -2q66 139 158 204.5t221 65.5z" />
    <glyph glyph-name="uni0453" unicode="&#x453;" horiz-adv-x="757" 
d="M965 1346l-344 -316h-140l256 316h228zM45 0l184 946h611l-33 -162h-387q-39 0 -55 9l-3 -2q6 -25 0 -54l-143 -737h-174z" />
    <glyph glyph-name="uni0454" unicode="&#x454;" horiz-adv-x="999" 
d="M621 977q212 0 376 -123l-102 -141q-129 98 -285 98q-121 0 -207 -56t-124 -151q-13 -35 -35 -63v-2q25 10 57 10h369v-152h-373q-32 0 -51 11l-4 -2q5 -12 20 -68q25 -91 105 -147t186 -56q121 0 252 72l72 -148q-153 -90 -328 -90q-217 0 -347 129t-130 344
q0 151 65.5 272t191.5 192t292 71z" />
    <glyph glyph-name="uni0455" unicode="&#x455;" horiz-adv-x="819" 
d="M78 262q152 -131 305 -131q69 0 108 30t39 81q0 34 -19.5 62t-68.5 63l-127 90q-157 113 -157 258q0 121 80 191.5t217 70.5q173 0 333 -109l-88 -141q-134 88 -235 88q-61 0 -95 -27t-34 -77q0 -36 21 -64.5t83 -71.5l115 -77q83 -61 119.5 -121t36.5 -137
q0 -130 -85 -200.5t-241 -70.5q-235 0 -410 158z" />
    <glyph glyph-name="uni0456" unicode="&#x456;" horiz-adv-x="448" 
d="M508 1434l-51 -269h-197l53 269h195zM403 946l-184 -946h-174l184 946h174z" />
    <glyph glyph-name="uni0457" unicode="&#x457;" horiz-adv-x="448" 
d="M301 1307l-45 -242h-168l47 242h166zM635 1307l-47 -242h-166l45 242h168zM403 946l-184 -946h-174l184 946h174z" />
    <glyph glyph-name="uni0458" unicode="&#x458;" horiz-adv-x="448" 
d="M508 1434l-51 -269h-197l53 269h195zM403 946l-204 -1052q-33 -175 -133 -254.5t-265 -79.5h-30l32 170h17q93 0 142.5 45t70.5 155l196 1016h174z" />
    <glyph glyph-name="uni0459" unicode="&#x459;" horiz-adv-x="1599" 
d="M1225 606q131 0 219 -69t88 -205q0 -149 -106 -240.5t-279 -91.5h-430l143 737q7 32 21 54l-2 2q-18 -9 -58 -9h-338q-39 0 -57 9l-2 -2q8 -20 0 -54l-23 -112h2l-73 -379q-46 -252 -305 -252h-95l31 158h62q61 0 94 37t51 116l61 320l62 321h782l-55 -293
q-3 -24 -21 -53v-2q18 8 60 8h168zM1157 160q92 0 142.5 42.5t50.5 114.5q0 129 -162 129h-162q-39 0 -55 9l-2 -2q5 -21 -2 -54l-37 -192q-7 -30 -21 -53l2 -2q16 8 58 8h188z" />
    <glyph glyph-name="uni045A" unicode="&#x45a;" horiz-adv-x="1603" 
d="M1227 606q132 0 220.5 -69t88.5 -205q0 -149 -106 -240.5t-279 -91.5h-430l78 401q8 34 20 54v2q-18 -8 -59 -8h-404q-41 0 -55 8l-4 -2q8 -20 0 -54l-78 -401h-174l184 946h174l-57 -293q-7 -36 -20 -53l2 -2q18 8 57 8h406q39 0 53 -8l4 2q-6 15 2 53l55 293h172
l-55 -293q-6 -29 -21 -53v-2q18 8 58 8h168zM1161 160q92 0 141.5 42.5t49.5 114.5q0 129 -160 129h-162q-39 0 -57 9l-2 -2q8 -20 0 -54l-37 -192q-7 -30 -21 -53l2 -2q16 8 58 8h188z" />
    <glyph glyph-name="uni045B" unicode="&#x45b;" horiz-adv-x="1124" 
d="M729 977q149 0 226 -78t77 -227q0 -64 -18 -162l-103 -510h-174l101 514q12 52 12 102q0 98 -53.5 150.5t-151.5 52.5q-260 0 -334 -373l-86 -446h-174l185 946l32 172q8 38 21 56l-2 2q-20 -9 -58 -9h-84l21 109h84q41 0 55 -8l2 2q-6 25 0 53l29 141h174l-29 -141
q-8 -37 -20 -53l2 -2q18 8 59 8h273l-23 -109h-272q-38 0 -54 9l-2 -2q5 -20 -2 -56l-32 -172l-7 -31q-19 -121 -61 -206l8 -2q66 139 158 204.5t221 65.5z" />
    <glyph glyph-name="uni045C" unicode="&#x45c;" horiz-adv-x="1009" 
d="M1022 1346l-344 -316h-139l256 316h227zM766 -6q-64 0 -109 32t-51 103l-14 164q-6 65 -37 94t-102 29h-99q-49 0 -61 4l-4 -2q3 -37 -6 -86l-64 -332h-174l184 946h174l-57 -295q-8 -44 -27 -82l3 -2q16 4 63 4h98q54 0 81.5 22t68.5 91l98 166q65 102 221 102h92
l-30 -155h-47q-40 0 -67.5 -17t-51.5 -59l-57 -100q-38 -66 -86.5 -94t-141.5 -31l-2 -4q95 -6 135.5 -38.5t48.5 -103.5l13 -129q3 -41 22 -56t58 -15h55l-31 -156h-96z" />
    <glyph glyph-name="uni045E" unicode="&#x45e;" horiz-adv-x="985" 
d="M598 1024q-116 0 -183 58.5t-67 166.5q0 33 8 72h119q-4 -36 -4 -51q0 -131 133 -131q73 0 124 45t71 137h121q-26 -146 -108.5 -221.5t-213.5 -75.5zM1063 946l-842 -1358h-198l307 494l-224 864h193l115 -491q32 -145 24 -246l8 2q26 84 74 166l346 569h197z" />
    <glyph glyph-name="uni045F" unicode="&#x45f;" horiz-adv-x="1103" 
d="M326 -287l47 240q8 37 20 53l-2 2q-18 -8 -59 -8h-287l184 946h174l-143 -737q-8 -37 -20 -53l2 -2q18 8 59 8h383q41 0 55 -8l2 2q-6 25 0 53l144 737h174l-185 -946h-286q-42 0 -56 8l-2 -2q6 -25 0 -53l-47 -240h-157z" />
    <glyph glyph-name="uni0462" unicode="&#x462;" horiz-adv-x="1327" 
d="M199 0l194 1008q6 35 15 51l-2 4q-21 -8 -54 -8h-217l31 162h217q27 0 51 -7l4 2q-2 15 4 52l33 170h184l-32 -170q-5 -28 -17 -52l4 -2q24 7 52 7h374l-30 -162h-375q-33 0 -49 8l-6 -4q3 -17 -2 -51l-21 -111q-4 -30 -16 -49l4 -4q14 6 51 6h233q210 0 327.5 -100.5
t117.5 -288.5q0 -146 -71.5 -252t-191.5 -157.5t-274 -51.5h-538zM414 166q19 8 51 8h280q159 0 246.5 76.5t87.5 204.5q0 108 -66 164.5t-196 56.5h-254q-33 0 -49 8l-6 -4q3 -17 -2 -51l-80 -406q-4 -34 -16 -53z" />
    <glyph glyph-name="uni0463" unicode="&#x463;" horiz-adv-x="978" 
d="M604 606q132 0 220.5 -69t88.5 -205q0 -149 -106 -240.5t-281 -91.5h-430l148 756q7 36 20 53l-2 2q-18 -8 -59 -8h-129l28 143h129q42 0 56 -8l2 2q-6 25 0 53l92 471h174l-92 -471q-8 -36 -21 -53l2 -2q18 8 60 8h289l-29 -143h-289q-41 0 -55 8l-2 -2q6 -25 0 -53
l-21 -103q-8 -36 -20 -53v-2q18 8 59 8h168zM539 160q91 0 140.5 42.5t49.5 114.5q0 129 -160 129h-163q-38 0 -56 9l-2 -2q6 -17 -2 -54l-37 -192q-7 -33 -20 -53l2 -2q16 8 57 8h191z" />
    <glyph glyph-name="uni0472" unicode="&#x472;" horiz-adv-x="1701" 
d="M958 1464q320 0 515.5 -185t195.5 -495q0 -168 -61 -317.5t-168.5 -259.5t-264 -174t-337.5 -64q-210 0 -371 82.5t-250.5 237.5t-89.5 360q0 168 61 317.5t168.5 259.5t264 174t337.5 64zM1423 797q33 0 60 -9l4 5q-2 6 -8 61q-12 190 -160 308t-377 118
q-224 0 -377.5 -115.5t-218.5 -316.5q-9 -30 -29 -55l2 -5q30 9 62 9h1042zM1450 586q13 32 31 55l-4 4q-24 -8 -62 -8h-1042q-34 0 -58 8l-4 -4q3 -14 8 -61q12 -190 159 -308t376 -118q224 0 378.5 116.5t217.5 315.5z" />
    <glyph glyph-name="uni0473" unicode="&#x473;" horiz-adv-x="1161" 
d="M631 977q208 0 335.5 -117.5t127.5 -329.5q0 -153 -69 -280t-199.5 -204t-295.5 -77q-208 0 -336 117.5t-128 329.5q0 153 69.5 280.5t199.5 204t296 76.5zM920 516v29q-7 130 -91.5 200t-214.5 70q-145 0 -239.5 -85.5t-122.5 -213.5l2 -4q33 16 119 16h426
q90 0 114 -16zM547 131q145 0 239.5 85.5t122.5 213.5l-2 4q-33 -16 -119 -16h-428q-91 0 -112 16l-6 -4v-29q7 -130 90.5 -200t214.5 -70z" />
    <glyph glyph-name="uni0474" unicode="&#x474;" horiz-adv-x="1343" 
d="M516 -20l-326 1454h199l166 -840q28 -146 25 -242h8q39 95 121 242l344 612q39 68 70 109.5t75.5 78t102.5 52.5t137 16q42 0 92 -6l-33 -170q-29 2 -74 2q-61 0 -103.5 -36t-100.5 -134l-680 -1138h-23z" />
    <glyph glyph-name="uni0475" unicode="&#x475;" horiz-adv-x="983" 
d="M1044 965h31l-33 -170h-16q-51 0 -85 -18.5t-60 -59.5l-471 -729h-52l-252 958h193l94 -446q29 -139 31 -230h8q46 112 119 230l186 293q23 37 44.5 62t57.5 53t87.5 42.5t117.5 14.5z" />
    <glyph glyph-name="uni048E" unicode="&#x48e;" horiz-adv-x="1114" 
d="M1171 1063q0 -149 -80 -255t-221 -149l142 -196l-70 -51l-164 229q-44 -8 -100 -8h-254q-33 0 -49 8l-6 -4q3 -10 -4 -51l-113 -586h-186l278 1434h416q192 0 301.5 -99t109.5 -272zM760 813q102 19 157.5 82.5t55.5 161.5q0 96 -59 149.5t-166 53.5h-203q-33 0 -49 8
l-7 -4q2 -7 -4 -54l-67 -354q-6 -35 -17 -53l2 -2q21 6 54 6h202l-98 137l70 51z" />
    <glyph glyph-name="uni048F" unicode="&#x48f;" horiz-adv-x="1210" 
d="M1143 524q0 -156 -66.5 -282t-183.5 -197l113 -137l-60 -51l-125 151q-92 -39 -198 -39q-141 0 -237 66t-130 186l-8 -2q0 -68 -29 -219l-80 -410h-174l264 1356h174q-26 -126 -51 -188l6 -4q53 104 151.5 163.5t219.5 59.5q184 0 299 -126t115 -327zM590 133
q56 0 115 17l-127 157l59 49l143 -174q85 52 134 141t49 201q0 134 -77.5 211.5t-211.5 77.5q-161 0 -269 -112t-108 -281q0 -133 79 -210t214 -77z" />
    <glyph glyph-name="uni0490" unicode="&#x490;" horiz-adv-x="1001" 
d="M1038 1720h185l-90 -460h-588q-32 0 -51 8l-5 -4q3 -13 -4 -52l-233 -1212h-186l278 1434h588q31 0 49 -9l6 5q-3 13 4 51z" />
    <glyph glyph-name="uni0491" unicode="&#x491;" horiz-adv-x="790" 
d="M754 1231h174l-88 -447h-420q-39 0 -55 9l-3 -2q6 -25 0 -54l-143 -737h-174l184 946h420q42 0 56 -8l2 2q-6 25 0 53z" />
    <glyph glyph-name="uni0492" unicode="&#x492;" horiz-adv-x="1091" 
d="M649 1257q-35 0 -51 7l-2 -4q3 -13 -4 -50l-33 -161l-22 -121q-6 -32 -17 -51l4 -5q18 9 51 9h406l-33 -176h-405q-39 0 -51 6l-5 -4q2 -8 -2 -50l-129 -657h-186l129 657q7 38 14 50l-2 4q-14 -6 -53 -6h-190l32 176h191q32 0 53 -9l2 5q-3 13 4 51l25 121l74 385h808
l-34 -177h-574z" />
    <glyph glyph-name="uni0493" unicode="&#x493;" horiz-adv-x="831" 
d="M496 784q-40 0 -56 9l-2 -2q8 -20 0 -54l-28 -141q-7 -37 -21 -55l2 -2q18 8 60 8h245l-30 -162h-250q-40 0 -54 8l-2 -2q5 -20 -2 -51l-65 -340h-174l65 340q7 33 21 51l-2 2q-18 -8 -58 -8h-108l33 162h108q41 0 55 -8l3 2q-6 24 0 55l67 350h610l-30 -162h-387z" />
    <glyph glyph-name="uni0494" unicode="&#x494;" horiz-adv-x="1265" 
d="M844 864q161 0 245.5 -65.5t84.5 -220.5q0 -52 -17 -146l-29 -149l-57 -301q-34 -191 -130 -291.5t-275 -100.5h-170l34 174h127q185 0 230 224l57 295l29 145q10 62 10 94q0 90 -47.5 128t-142.5 38q-162 0 -422 -74l-119 -614h-186l278 1434h840l-35 -174h-604
q-33 0 -49 8l-7 -4q4 -19 -2 -52l-28 -147l-37 -191q-11 -56 -29 -83l4 -5q230 78 447 78z" />
    <glyph glyph-name="uni0495" unicode="&#x495;" horiz-adv-x="976" 
d="M287 -410l32 164h107q88 0 139.5 39t69.5 133l55 279q6 37 6 65q0 63 -36 91t-113 28q-113 0 -262 -53l-66 -336h-174l184 946h658l-33 -162h-434q-39 0 -55 9l-3 -2q6 -25 0 -54l-28 -147q-17 -72 -31 -94l4 -2q158 61 297 61q133 0 201.5 -54.5t68.5 -176.5
q0 -65 -12 -117l-55 -291q-28 -163 -117.5 -244.5t-249.5 -81.5h-153z" />
    <glyph glyph-name="uni0496" unicode="&#x496;" horiz-adv-x="1933" 
d="M1898 1440q48 0 109 -6l-33 -174q-40 4 -57 4q-119 0 -162 -95l-90 -196q-52 -116 -124.5 -159.5t-207.5 -51.5v-4q113 -6 158 -52.5t51 -179.5l12 -221q6 -127 129 -127q20 0 70 4l-12 -59h92l-80 -410h-176l55 281q-6 -2 -14 -2q-235 0 -242 276l-10 246
q-3 89 -43.5 126.5t-136.5 37.5h-70q-47 0 -63 4l-2 -2q3 -33 -7 -84l-114 -596h-185l117 596q8 46 27 84l-2 2q-16 -4 -62 -4h-86q-80 0 -134.5 -38.5t-90.5 -125.5l-129 -303q-47 -114 -126 -166.5t-204 -52.5q-47 0 -96 8l35 182q50 -4 61 -4q65 0 106 29t66 90l115 264
q44 107 104 149t191 48v4q-126 8 -175.5 52.5t-58.5 164.5l-16 190q-6 55 -41 76t-92 21q-24 0 -64 -4l35 172q53 6 94 6q112 0 167 -44.5t65 -148.5l22 -241q9 -86 56.5 -127t140.5 -41h86q31 0 59 -7l3 3q-3 35 6 81l100 519h184l-100 -519q-5 -31 -27 -81l2 -3q28 7 66 7
h82q90 0 150 41t100 127l112 243q45 105 120 148t185 43z" />
    <glyph glyph-name="uni0497" unicode="&#x497;" horiz-adv-x="1542" 
d="M1212 621q-33 -63 -85.5 -91.5t-133.5 -33.5l-2 -4q88 -3 131 -30.5t49 -94.5l15 -146q4 -44 22 -60t58 -16h55l-6 -39h108l-75 -393h-158l55 281h-61q-131 0 -146 135l-16 164q-8 69 -39 100t-98 31h-33q-48 0 -64 4l-2 -2q3 -37 -6 -86l-65 -340h-86h-84l67 340
q5 28 27 86l-2 2q-16 -4 -64 -4h-32q-57 0 -97 -31.5t-73 -99.5l-84 -170q-30 -61 -86 -95t-129 -34h-109l31 151h55q45 0 71.5 16.5t49.5 59.5l70 146q32 66 82 94t135 31l2 4q-84 5 -125 32.5t-51 92.5l-21 100q-8 45 -27 62.5t-63 17.5h-49l31 151h92q123 0 145 -102
l37 -166q15 -67 39.5 -94t91.5 -27h35q45 0 61 -4l2 2q-3 32 7 82l65 303h88h82l-61 -303q-8 -43 -27 -82l2 -2q16 4 66 4h32q56 0 85 25.5t71 95.5l100 166q63 102 215 102h93l-31 -151h-47q-46 0 -73.5 -17t-53.5 -63z" />
    <glyph glyph-name="uni0498" unicode="&#x498;" horiz-adv-x="1300" 
d="M918 784q-63 -19 -162 -26l-2 -4q84 0 145 -15q109 -25 169 -107t60 -208q0 -64 -15.5 -124t-53.5 -119.5t-96 -104t-150.5 -74t-208.5 -33.5l-24 -43q70 -21 111.5 -51t41.5 -80q0 -29 -12.5 -56t-41 -51.5t-53 -42t-70 -40t-70 -33t-74.5 -31.5l-17 60q49 24 73.5 37.5
t54.5 32.5t42.5 35.5t12.5 33.5q0 52 -132 82l82 147q-258 8 -475 125l101 172q199 -108 424 -108q183 0 269.5 71.5t86.5 194.5q0 121 -78 180.5t-209 59.5h-211l35 182h209q143 0 240.5 68t97.5 188q0 93 -66 134.5t-196 41.5q-207 0 -418 -78l-59 176q260 88 489 88
q218 0 332 -88t114 -252q0 -131 -71 -212.5t-225 -127.5z" />
    <glyph glyph-name="uni0499" unicode="&#x499;" horiz-adv-x="921" 
d="M549 504q262 -13 262 -225q0 -127 -95.5 -213.5t-297.5 -96.5l-25 -43q71 -21 112.5 -51t41.5 -80q0 -25 -11.5 -49.5t-26.5 -43t-45.5 -40t-51.5 -34.5t-62.5 -32.5t-61 -28t-63.5 -26.5l-16 60q64 32 95.5 49.5t59 42.5t27.5 47q0 53 -131 82l82 147q-207 8 -360 88
l75 152q169 -80 336 -80q246 0 246 160q0 139 -209 139h-192l28 141h193q97 0 153 37.5t56 102.5q0 106 -168 106q-145 0 -322 -67l-51 151q202 78 397 78q164 0 249 -58t85 -167q0 -34 -8 -64t-29.5 -62t-55 -55.5t-89 -40.5t-127.5 -22v-4z" />
    <glyph glyph-name="uni049A" unicode="&#x49a;" horiz-adv-x="1343" 
d="M1282 1440q42 0 100 -6l-32 -177q-50 5 -62 5q-124 0 -166 -93l-86 -196q-49 -116 -121.5 -159.5t-209.5 -51.5v-4q130 -6 180.5 -61.5t56.5 -178.5l12 -219q4 -70 36 -95.5t97 -25.5q24 0 74 4l-12 -59h92l-80 -410h-176l55 281q-6 -2 -16 -2q-47 0 -86.5 11.5t-75 38.5
t-57 77.5t-25.5 122.5l-14 256q-4 88 -53.5 129t-147.5 41h-129q-47 0 -63 4l-2 -2q3 -37 -6 -84l-113 -586h-186l278 1434h186l-100 -510q-7 -36 -27 -82l3 -2q24 6 65 6h133q92 0 151 37.5t97 122.5l111 243q47 105 125 148t194 43z" />
    <glyph glyph-name="uni049B" unicode="&#x49b;" horiz-adv-x="1114" 
d="M791 621q-38 -66 -86.5 -94t-141.5 -31l-2 -4q95 -6 135.5 -38.5t48.5 -103.5l13 -129q3 -41 22 -56t58 -15h55l-8 -44h110l-75 -393h-158l55 281h-51q-64 0 -109 32t-51 103l-14 164q-6 65 -37 94t-102 29h-99q-49 0 -61 4l-4 -2q3 -37 -6 -86l-64 -332h-174l184 946
h174l-57 -295q-8 -44 -27 -82l3 -2q16 4 63 4h98q54 0 81.5 22t68.5 91l98 166q65 102 221 102h92l-30 -155h-47q-40 0 -67.5 -17t-51.5 -59z" />
    <glyph glyph-name="uni049C" unicode="&#x49c;" horiz-adv-x="1255" 
d="M1282 1440q42 0 100 -6l-32 -177q-50 5 -62 5q-124 0 -166 -93l-86 -196q-49 -116 -121.5 -159.5t-209.5 -51.5v-4q130 -6 180.5 -61.5t56.5 -178.5l12 -219q4 -70 36 -95.5t97 -25.5q24 0 74 4l-35 -182q-49 -8 -102 -8q-47 0 -86.5 11.5t-75 38.5t-57 77.5t-25.5 122.5
l-14 256q-4 86 -51.5 127t-141.5 43l-57 -293h-92l55 293h-43q-47 0 -63 4l-2 -2q3 -37 -6 -84l-113 -586h-186l278 1434h186l-100 -510q-7 -36 -27 -82l3 -2q24 6 65 6h43l57 289h93l-56 -289q90 2 148 39t96 121l111 243q47 105 125 148t194 43z" />
    <glyph glyph-name="uni049D" unicode="&#x49d;" horiz-adv-x="1009" 
d="M952 952h92l-30 -155h-47q-40 0 -67.5 -17t-51.5 -59l-57 -100q-38 -66 -86.5 -94t-141.5 -31l-2 -4q95 -6 135.5 -38.5t48.5 -103.5l13 -129q3 -41 22 -56t58 -15h55l-31 -156h-96q-64 0 -109 32t-51 103l-14 164q-6 65 -37 94t-102 29h-2l-45 -232h-62l45 232h-35
q-49 0 -61 4l-4 -2q3 -37 -6 -86l-64 -332h-174l184 946h174l-57 -295q-8 -44 -27 -82l3 -2q16 4 63 4h35l43 226h61l-43 -226h2q54 0 81.5 22t68.5 91l98 166q65 102 221 102z" />
    <glyph glyph-name="uni049E" unicode="&#x49e;" horiz-adv-x="1386" 
d="M1413 1440q41 0 100 -6l-32 -177q-50 5 -62 5q-124 0 -166 -93l-86 -196q-49 -116 -121.5 -159.5t-209.5 -51.5v-4q130 -6 180.5 -61.5t56.5 -178.5l10 -219q3 -69 35 -95t96 -26q24 0 74 4l-35 -182q-49 -8 -102 -8q-47 0 -86 11.5t-74.5 38.5t-57.5 78t-26 122l-12 256
q-3 89 -52 131.5t-147 42.5h-127q-47 0 -63 4l-2 -2q3 -38 -6 -84l-117 -590h-184l196 1008q6 35 15 51l-2 4q-21 -8 -54 -8h-217l31 162h217q27 0 51 -7l4 2q-2 15 4 52l33 170h184l-32 -170q-5 -28 -17 -52l4 -2q24 7 52 7h241l-30 -162h-242q-33 0 -49 8l-6 -4
q3 -17 -2 -51l-21 -103q-9 -35 -29 -82l2 -2q24 6 66 6h133q93 0 153.5 45t100.5 134l111 243q45 105 124 148t195 43z" />
    <glyph glyph-name="uni049F" unicode="&#x49f;" horiz-adv-x="1015" 
d="M956 952h95l-31 -155h-47q-40 0 -67.5 -17t-51.5 -59l-57 -100q-38 -67 -87 -94.5t-143 -30.5v-4q95 -6 136 -39t49 -103l12 -129q3 -41 22 -56t58 -15h55l-33 -156h-96q-63 0 -107.5 32t-50.5 103l-14 164q-6 65 -37.5 94t-101.5 29h-99q-49 0 -61 4l-4 -2q3 -37 -6 -86
l-64 -332h-174l185 946l32 172q8 38 21 56l-2 2q-20 -9 -58 -9h-84l21 109h86q39 0 53 -8l2 2q-6 25 0 53l29 141h174l-29 -141q-8 -37 -20 -53l2 -2q18 8 59 8h273l-23 -109h-272q-38 0 -54 9l-2 -2q5 -20 -2 -56l-32 -172l-58 -295q-9 -47 -26 -82l2 -2q16 4 63 4h96
q56 0 83.5 22.5t66.5 90.5l100 166q65 102 219 102z" />
    <glyph glyph-name="uni04A0" unicode="&#x4a0;" horiz-adv-x="1503" 
d="M1532 1440q38 0 100 -6l-35 -177q-50 5 -59 5q-124 0 -166 -93l-86 -196q-51 -116 -123.5 -159.5t-208.5 -51.5v-4q130 -6 180.5 -62t55.5 -178l10 -219q3 -69 35.5 -95t97.5 -26q24 0 74 4l-37 -182q-47 -8 -100 -8q-102 0 -170 56.5t-74 193.5l-12 256q-6 174 -199 174
h-129q-47 0 -63 4l-2 -2q3 -35 -7 -84l-114 -590h-187l195 991l45 221q7 40 14 52l-2 4q-19 -8 -53 -8h-338l33 174h571l-86 -443l-18 -86q-8 -35 -29 -82l2 -2q24 6 66 6h133q94 0 154 45t102 134l108 243q47 105 126.5 148t195.5 43z" />
    <glyph glyph-name="uni04A1" unicode="&#x4a1;" horiz-adv-x="1175" 
d="M1118 952h92l-30 -155h-47q-40 0 -66.5 -17t-52.5 -59l-58 -98q-41 -69 -88 -96.5t-139 -30.5v-4q94 -6 135 -39t47 -103l13 -129q3 -41 23 -56t59 -15h53l-31 -156h-96q-64 0 -109 32t-51 103l-14 164q-6 65 -37 94t-103 29h-96q-47 0 -63 4l-2 -2q3 -37 -6 -86
l-66 -332h-174l137 705l8 32q8 37 21 54l-2 2q-20 -9 -60 -9h-245l32 162h467l-47 -241l-10 -54q-8 -44 -27 -82l2 -2q16 4 64 4h98q55 0 83 22.5t67 90.5l100 166q61 102 219 102z" />
    <glyph glyph-name="uni04A2" unicode="&#x4a2;" horiz-adv-x="1417" 
d="M1479 1434l-254 -1311h90l-80 -410h-176l55 287h-102l121 625q6 34 16 51l-2 4q-21 -8 -55 -8h-658q-36 0 -49 8l-4 -4q3 -13 -4 -51l-123 -625h-188l278 1434h188l-104 -537q-5 -33 -16 -51l4 -4q19 8 53 8h659q31 0 50 -8l4 4q-2 12 4 51l104 537h189z" />
    <glyph glyph-name="uni04A3" unicode="&#x4a3;" horiz-adv-x="1148" 
d="M1081 946l-163 -840h112l-76 -393h-157l57 287h-131l74 379q8 37 20 53l-2 2q-18 -8 -57 -8h-408q-39 0 -53 8l-2 -2q5 -21 -2 -53l-74 -379h-174l184 946h174l-61 -315q-6 -31 -20 -53l2 -3q18 9 57 9h405q40 0 58 -9l2 3q-7 18 0 53l61 315h174z" />
    <glyph glyph-name="uni04A4" unicode="&#x4a4;" horiz-adv-x="1839" 
d="M1266 1434h739l-33 -177h-506q-37 0 -51 7l-4 -4q3 -13 -4 -50l-21 -110l-210 -1100h-189l121 625q6 34 16 51l-4 4q-19 -8 -53 -8h-633q-36 0 -49 8l-4 -4q3 -13 -4 -51l-123 -625h-188l278 1434h188l-104 -537q-5 -33 -16 -51l4 -4q19 8 53 8h635q30 0 49 -8l4 4
q-2 12 4 51l39 203z" />
    <glyph glyph-name="uni04A5" unicode="&#x4a5;" horiz-adv-x="1380" 
d="M883 946h579l-30 -162h-359q-39 0 -55 9l-2 -2q6 -25 0 -54l-8 -43l-136 -694h-174l74 379q8 36 21 53l-2 2q-18 -8 -60 -8h-381q-39 0 -53 8l-2 -2q5 -21 -2 -53l-74 -379h-174l184 946h174l-61 -315q-6 -31 -20 -53l2 -3q18 9 57 9h381q39 0 57 -9l2 3q-7 18 0 53
l13 63z" />
    <glyph glyph-name="uni04A6" unicode="&#x4a6;" horiz-adv-x="2187" 
d="M1792 872q164 0 252 -66t88 -216q0 -63 -10 -117l-11 -51l-8 -43q-32 -182 -139.5 -280.5t-294.5 -98.5h-178l33 174h129q114 0 178 48t88 165l8 35l10 47q9 56 9 68q0 84 -52.5 121.5t-152.5 37.5q-172 0 -443 -71l-120 -625h-185l207 1071l27 141q5 31 16 52l-2 4
q-19 -8 -53 -8h-643q-33 0 -49 8l-7 -4q3 -13 -4 -52l-233 -1212h-186l278 1434h1112l-70 -363l-36 -188q-12 -58 -29 -84l4 -4q231 77 467 77z" />
    <glyph glyph-name="uni04A7" unicode="&#x4a7;" horiz-adv-x="1611" 
d="M940 -410l33 164h106q87 0 139 39t70 133l60 301q6 44 6 70q0 68 -35.5 96.5t-112.5 28.5q-102 0 -264 -55l-70 -367h-174l146 737q9 39 20 54l-2 2q-20 -9 -59 -9h-383q-39 0 -55 9l-3 -2q6 -25 0 -54l-143 -737h-174l184 946h828l-64 -325q-14 -70 -30 -93l4 -2
q159 60 299 60q132 0 199 -56t67 -182q0 -62 -14 -131l-58 -301q-30 -163 -118.5 -244.5t-243.5 -81.5h-158z" />
    <glyph glyph-name="uni04A8" unicode="&#x4a8;" horiz-adv-x="1642" 
d="M721 -31q-129 0 -235.5 39.5t-187.5 118t-126 206.5t-45 294q0 134 30.5 255.5t95 228t158 185t228 123.5t295.5 45q160 0 315 -49l-84 -172q-108 33 -237 33q-121 0 -221 -35.5t-169 -96.5t-116.5 -144t-69.5 -177t-22 -196q0 -246 113 -372t311 -126q11 0 37.5 1
t52.5 1t51 -2l2 4q-64 20 -100 76q-92 143 -92 334q0 113 31 213.5t87.5 176.5t144 120.5t193.5 44.5q161 0 258 -99.5t97 -285.5q0 -152 -66 -291t-197 -238q-44 -39 -110 -59l2 -4q47 6 92 6q109 0 229 63l58 -145q-84 -36 -156.5 -56t-159.5 -20q-175 0 -219 60h-6
q-100 -60 -262 -60zM1028 180h4q5 12 14.5 22.5t17 16t21.5 14.5t19 13q107 81 167 201t60 249q0 217 -176 217q-68 0 -120 -31t-82 -84.5t-45 -117.5t-15 -137q0 -176 82 -289q6 -8 18 -21t21 -25t14 -28z" />
    <glyph glyph-name="uni04A9" unicode="&#x4a9;" horiz-adv-x="1193" 
d="M483 -31q-84 0 -156.5 25t-131.5 76t-93 139t-34 203q0 117 36 217.5t105.5 179t183.5 123.5t260 45q141 0 248 -41l-67 -150q-92 29 -177 29q-101 0 -180 -33t-126.5 -90t-72 -129t-24.5 -155q0 -236 201 -281q48 -10 110 -14l2 4q-57 25 -78 57q-45 57 -45 164
q0 149 93.5 253.5t253.5 104.5q120 0 196 -63t76 -189q0 -170 -143 -297q-21 -16 -74 -49v-2q40 0 84 6q38 7 108 41l47 -118q-118 -56 -229 -56q-129 0 -156 49h-4q-104 -49 -213 -49zM715 127l4 2q4 26 53 53q56 35 92.5 98.5t36.5 137.5q0 67 -32.5 99t-86.5 32
q-78 0 -125 -61.5t-47 -155.5q0 -75 28 -120.5t77 -84.5z" />
    <glyph glyph-name="uni04AA" unicode="&#x4aa;" horiz-adv-x="1415" 
d="M954 1278q-178 0 -322 -82.5t-226 -228.5t-82 -326q0 -225 130 -355t355 -130q100 0 189.5 29t189.5 94l100 -156q-234 -154 -493 -154h-23l-24 -43q70 -21 111.5 -51t41.5 -80q0 -29 -12.5 -56t-41 -51.5t-53 -42t-70 -40t-70 -33t-74.5 -31.5l-17 60q64 32 95.5 49.5
t59 42.5t27.5 47q0 53 -131 82l86 151q-266 29 -420.5 206t-154.5 456q0 238 109 427.5t303.5 295.5t439.5 106q283 0 485 -164l-114 -155q-183 133 -394 133z" />
    <glyph glyph-name="uni04AB" unicode="&#x4ab;" horiz-adv-x="1005" 
d="M616 811q-157 0 -258.5 -102t-101.5 -260q0 -140 85.5 -227t221.5 -87q122 0 248 72l72 -148q-153 -87 -310 -90l-24 -43q70 -21 111.5 -51t41.5 -80q0 -29 -12.5 -56t-41 -51.5t-53 -42t-70 -40t-70 -33t-74.5 -31.5l-16 60q64 32 95.5 49.5t59 42.5t27.5 47
q0 53 -131 82l84 149q-196 19 -312 145.5t-116 325.5q0 236 154.5 385.5t400.5 149.5q205 0 377 -123l-101 -141q-131 98 -287 98z" />
    <glyph glyph-name="uni04AC" unicode="&#x4ac;" horiz-adv-x="1058" 
d="M207 1434h1018l-33 -177h-367q-37 0 -51 7l-4 -4q4 -18 -2 -50l-211 -1087h90l-80 -410h-176l55 287h-100l236 1210q7 38 14 50l-2 4q-16 -7 -53 -7h-367z" />
    <glyph glyph-name="uni04AD" unicode="&#x4ad;" horiz-adv-x="915" 
d="M997 946l-30 -162h-312q-39 0 -55 9l-2 -2q6 -25 0 -54l-14 -69l-111 -562h111l-76 -393h-158l58 287h-129l131 668l14 69q9 39 20 54l-2 2q-20 -9 -59 -9h-311l30 162h895z" />
    <glyph glyph-name="uni04AE" unicode="&#x4ae;" horiz-adv-x="1116" 
d="M1298 1434l-630 -867l-111 -567h-184l108 567l-291 867h201l150 -496q27 -91 35.5 -132.5t9.5 -98.5h10q24 57 48.5 99t84.5 132l340 496h229z" />
    <glyph glyph-name="uni04AF" unicode="&#x4af;" horiz-adv-x="980" 
d="M1057 946l-553 -835l-103 -521h-174l105 535l-226 821h193l104 -454q1 -6 7 -30.5t7 -29t5 -24t5 -25t3.5 -21.5t2.5 -24t1 -22t1 -26.5t-1 -27.5h8q22 62 44.5 105t74.5 125l283 454h213z" />
    <glyph glyph-name="uni04B0" unicode="&#x4b0;" horiz-adv-x="1118" 
d="M674 563q16 8 51 8h236l-31 -161h-242q-35 0 -51 8l-4 -4q4 -19 -2 -52l-70 -362h-186l69 362q7 38 15 52l-2 4q-21 -8 -54 -8h-241l28 161h238q32 0 51 -8l4 4l-293 867h205l150 -488q25 -86 33.5 -130t9.5 -103h10q24 59 49.5 103t85.5 130l338 488h227l-628 -867z" />
    <glyph glyph-name="uni04B1" unicode="&#x4b1;" horiz-adv-x="980" 
d="M508 117q18 8 59 8h211l-30 -162h-226q-41 0 -55 8l-2 -2q6 -24 0 -53l-66 -326h-172l64 326q7 36 20 53l-2 2q-18 -8 -59 -8h-219l32 162h211q42 0 56 -8l2 2h2l-228 827h193l104 -454q1 -6 7 -30.5t7 -29t5 -24t5 -25t3.5 -21.5t2.5 -24t1 -22t1 -26.5t-1 -27.5h8
q22 62 44.5 105t74.5 125l283 454h213l-549 -827v-2z" />
    <glyph glyph-name="uni04B2" unicode="&#x4b2;" horiz-adv-x="1316" 
d="M901 539l199 -416h114l-79 -410h-177l56 287h-66l-203 446q-46 97 -61 181h-6q-25 -56 -131 -181l-371 -446h-246l478 563q4 5 35 41t42 48t34.5 38t39.5 42t29 28l2 8q-7 9 -14 20.5t-12.5 22t-16 31.5t-17 35t-22.5 49t-27 57l-217 451h213l168 -375q5 -11 13.5 -31
t12 -27.5t9.5 -22t8 -19.5t6 -15.5t5 -16t3.5 -14t4 -16t2.5 -16.5h6q20 42 129 176l315 377h238l-406 -473q-139 -168 -190 -213l-2 -7q39 -68 102 -202z" />
    <glyph glyph-name="uni04B3" unicode="&#x4b3;" horiz-adv-x="1062" 
d="M623 424l174 -318h147l-76 -393h-157l57 287h-98l-146 283q-3 6 -9 18.5t-8.5 18.5t-7 17t-7 18.5t-4.5 17.5t-3 20h-4q-11 -30 -29 -54t-55 -63l-254 -276h-215l412 449q42 48 68 61l2 6q-7 4 -13.5 11t-9.5 12t-10.5 18.5t-9.5 17.5l-201 371h184l119 -223
q34 -65 37 -123h4q17 38 33.5 60.5t50.5 60.5l203 225h213l-363 -397q-4 -4 -18 -19.5t-25 -25.5t-22 -15l-2 -6q17 -8 43 -59z" />
    <glyph glyph-name="uni04B4" unicode="&#x4b4;" horiz-adv-x="1656" 
d="M1366 166q19 8 55 8h111l-88 -457h-178l45 236q5 30 18 51l-4 4q-16 -8 -55 -8h-936l186 952l51 258q6 35 15 50l-2 4q-16 -7 -54 -7h-356l33 177h977l-35 -177h-336q-35 0 -49 7l-6 -4q4 -18 -2 -50l-51 -258l-142 -731q-5 -30 -18 -51l4 -4q21 8 55 8h533q38 0 51 -8
l4 4q-4 18 2 51l236 1213h184l-234 -1213q-5 -30 -18 -51z" />
    <glyph glyph-name="uni04B5" unicode="&#x4b5;" horiz-adv-x="1206" 
d="M1004 154q18 8 59 8h37l-88 -449h-162l47 240q7 30 21 53v2q-18 -8 -60 -8h-651l125 645l18 92q8 37 21 54l-2 2q-20 -9 -60 -9h-237l30 162h725l-32 -162h-213q-40 0 -56 9l-2 -2q6 -25 0 -54l-18 -92l-86 -436q-8 -36 -21 -53l2 -2q18 8 60 8h330q41 0 55 -8l2 2
q-6 25 0 53l145 737h172l-143 -737q-8 -36 -21 -53z" />
    <glyph glyph-name="uni04B6" unicode="&#x4b6;" horiz-adv-x="1200" 
d="M1262 1434l-254 -1311h92l-80 -410h-176l55 287h-100l104 545q9 54 27 84l-2 4q-212 -78 -422 -78q-180 0 -280.5 77t-100.5 242q0 54 25 191l73 369h187l-76 -381q-17 -87 -17 -129q0 -59 17 -97.5t50 -58t69.5 -26.5t87.5 -7q153 0 413 74l123 625h185z" />
    <glyph glyph-name="uni04B7" unicode="&#x4b7;" horiz-adv-x="974" 
d="M872 655l-77 -407l-29 -142h90l-76 -393h-157l55 287h-107l50 248h2l12 71q13 70 29 93l-2 2q-169 -60 -312 -60q-138 0 -213.5 54t-75.5 178q0 43 13 110l49 250h174l-45 -229q-8 -62 -8 -76q0 -65 36.5 -94t108.5 -29q120 0 295 55l14 82l58 291h174z" />
    <glyph glyph-name="uni04B8" unicode="&#x4b8;" horiz-adv-x="1232" 
d="M1077 1434h185l-279 -1434h-184l104 545q9 54 27 84l-2 4q-154 -55 -307 -72l-52 -270h-94l51 264h-20q-180 0 -280.5 77t-100.5 242q0 54 25 191l73 369h187l-76 -381q-17 -87 -17 -129q0 -59 17 -97.5t50 -58t69.5 -26.5t87.5 -7h20l62 316h94l-60 -308q116 15 297 66z
" />
    <glyph glyph-name="uni04B9" unicode="&#x4b9;" horiz-adv-x="974" 
d="M756 946h174l-58 -291l-77 -407l-50 -248h-174l50 248h2l12 71q13 70 29 93l-2 2q-117 -42 -207 -52l-33 -174h-62l33 166h-43q-138 0 -213.5 54t-75.5 178q0 43 13 110l49 250h174l-45 -229q-8 -62 -8 -76q0 -65 36.5 -94t108.5 -29q6 0 18.5 1t18.5 1l41 211h59
l-39 -205q95 14 197 47l14 82z" />
    <glyph glyph-name="uni04BA" unicode="&#x4ba;" horiz-adv-x="1232" 
d="M530 1434l-104 -545q-12 -56 -29 -84l2 -4q216 78 422 78q180 0 280.5 -77.5t100.5 -242.5q0 -76 -24 -190l-74 -369h-184l75 381q15 77 15 129q0 59 -16.5 97.5t-49.5 57.5t-69.5 26t-88.5 7q-157 0 -413 -73l-121 -625h-186l278 1434h186z" />
    <glyph glyph-name="uni04BB" unicode="&#x4bb;" horiz-adv-x="1122" 
d="M506 1464l-103 -526q-29 -137 -61 -215l8 -2q66 132 157 194t220 62q148 0 224.5 -78t76.5 -227q0 -64 -18 -162l-101 -510h-174l99 514q12 42 12 102q0 98 -52.5 150.5t-150.5 52.5q-262 0 -336 -373l-86 -446h-174l285 1464h174z" />
    <glyph glyph-name="uni04BC" unicode="&#x4bc;" horiz-adv-x="1892" 
d="M1065 -31q-158 0 -287.5 49t-211 130.5t-125.5 183t-46 211.5q0 52 13 86l-5 2q-16 -13 -63 -13q-111 0 -174.5 62t-63.5 174q0 46 19 113h168q-10 -41 -10 -70q0 -53 23.5 -77.5t78.5 -24.5q35 0 47 -7l6 3q0 33 12 79q74 265 287 429.5t508 164.5q186 0 330.5 -66.5
t227.5 -197t83 -307.5q0 -97 -39 -275h-1169q-46 0 -84 15l-2 -4q8 -31 8 -78q0 -164 132.5 -280.5t346.5 -116.5q82 0 157.5 17.5t138.5 49t108.5 61.5t93.5 70l106 -151q-130 -109 -278 -170.5t-336 -61.5zM627 786q39 9 98 9h856q72 0 105 -9l6 5q-2 3 -3 6t-2 8
t-1.5 8.5t-1 12t-0.5 14.5t-0.5 19.5t-0.5 23.5q-1 188 -123.5 292.5t-322.5 104.5q-112 0 -205.5 -29.5t-153.5 -72t-107.5 -101.5t-71.5 -107t-40 -100q-3 -10 -6 -18.5t-4.5 -12.5l-3 -8t-2 -5.5t-1.5 -3.5t-2.5 -4.5l-3 -5t-4.5 -8.5t-7 -13z" />
    <glyph glyph-name="uni04BD" unicode="&#x4bd;" horiz-adv-x="1325" 
d="M752 -31q-216 0 -341.5 116t-125.5 314q0 28 8 52l-4 2q-29 -11 -64 -11q-88 0 -135 44t-47 126q0 60 35 123h135q-33 -59 -33 -102q0 -25 19.5 -41.5t48.5 -16.5q38 0 55 -10l4 2q2 18 10 49q60 168 199 264.5t324 96.5q197 0 310.5 -103.5t113.5 -283.5q0 -54 -21 -148
h-674q-83 0 -110 15l-4 -4l2 -17v-39q0 -126 76.5 -195t216.5 -69q97 0 176 35.5t168 118.5l104 -125q-110 -104 -213.5 -148.5t-232.5 -44.5zM479 557q27 18 94 18h414q79 0 100 -16l7 2q-2 8 -2 25q0 115 -68.5 177t-196.5 62q-131 0 -223 -69.5t-127 -196.5z" />
    <glyph glyph-name="uni04BE" unicode="&#x4be;" horiz-adv-x="1892" 
d="M674 618q-46 0 -84 15l-2 -4q8 -31 8 -78q0 -164 132.5 -280.5t346.5 -116.5q82 0 157.5 17.5t138.5 49t108.5 61.5t93.5 70l106 -151q-162 -139 -344 -193q-118 -82 -169.5 -132.5t-51.5 -94.5q0 -51 72 -51q46 0 90 12l8 -100q-79 -27 -145 -27q-70 0 -112 33.5
t-42 91.5q0 60 43 115t133 118q-62 -4 -96 -4q-158 0 -287.5 49t-211 130.5t-125.5 183t-46 211.5q0 52 13 86l-5 2q-16 -13 -63 -13q-111 0 -174.5 62t-63.5 174q0 46 19 113h168q-10 -41 -10 -70q0 -53 23.5 -77.5t78.5 -24.5q35 0 47 -7l6 3q0 33 12 79q74 265 287 429.5
t508 164.5q186 0 330.5 -66.5t227.5 -197t83 -307.5q0 -97 -39 -275h-1169zM659 870q-3 -10 -6 -18.5t-4.5 -12.5l-3 -8t-2 -5.5t-1.5 -3.5t-2.5 -4.5l-3 -5t-4.5 -8.5t-7 -13l2 -5q39 9 98 9h856q72 0 105 -9l6 5q-2 3 -3 6t-2 8t-1.5 8.5t-1 12t-0.5 14.5t-0.5 19.5
t-0.5 23.5q-1 188 -123.5 292.5t-322.5 104.5q-112 0 -205.5 -29.5t-153.5 -72t-107.5 -101.5t-71.5 -107t-40 -100z" />
    <glyph glyph-name="uni04BF" unicode="&#x4bf;" horiz-adv-x="1325" 
d="M569 442q-83 0 -110 15l-4 -4l2 -17v-39q0 -126 76.5 -195t216.5 -69q97 0 176 35.5t168 118.5l104 -125q-111 -105 -211 -148q-123 -84 -177 -137t-54 -98q0 -51 69 -51q39 0 93 14l8 -102q-83 -27 -148 -27q-69 0 -110 33.5t-41 91.5q0 60 42 115t130 118
q-14 -2 -47 -2q-216 0 -341.5 116t-125.5 314q0 28 8 52l-4 2q-29 -11 -64 -11q-88 0 -135 44t-47 126q0 60 35 123h135q-33 -59 -33 -102q0 -25 19.5 -41.5t48.5 -16.5q38 0 55 -10l4 2q2 18 10 49q60 168 199 264.5t324 96.5q197 0 310.5 -103.5t113.5 -283.5
q0 -54 -21 -148h-674zM827 825q-131 0 -223 -69.5t-127 -196.5l2 -2q27 18 94 18h414q79 0 100 -16l7 2q-2 8 -2 25q0 115 -68.5 177t-196.5 62z" />
    <glyph glyph-name="uni04C0" unicode="&#x4c0;" horiz-adv-x="503" 
d="M532 1434l-278 -1434h-188l278 1434h188z" />
    <glyph glyph-name="uni04C1" unicode="&#x4c1;" horiz-adv-x="1859" 
d="M1126 1485q-119 0 -182 55.5t-63 157.5q0 32 6 69h119q-9 -41 -9 -57q0 -56 35 -86.5t103 -30.5q82 0 124 45t58 129h123q-54 -282 -314 -282zM1898 1440q48 0 109 -6l-33 -174q-40 4 -57 4q-119 0 -162 -95l-90 -196q-52 -116 -124.5 -159.5t-207.5 -51.5v-4
q113 -6 158 -52.5t51 -179.5l12 -221q6 -127 129 -127q20 0 70 4l-37 -182q-47 -8 -98 -8q-235 0 -242 276l-10 246q-3 89 -43.5 126.5t-136.5 37.5h-70q-47 0 -63 4l-2 -2q3 -33 -7 -84l-114 -596h-185l117 596q8 46 27 84l-2 2q-16 -4 -62 -4h-86q-80 0 -134.5 -38.5
t-90.5 -125.5l-129 -303q-47 -114 -126 -166.5t-204 -52.5q-47 0 -96 8l35 182q50 -4 61 -4q65 0 106 29t66 90l115 264q44 107 104 149t191 48v4q-126 8 -175.5 52.5t-58.5 164.5l-16 190q-6 55 -41 76t-92 21q-24 0 -64 -4l35 172q53 6 94 6q112 0 167 -44.5t65 -148.5
l22 -241q9 -86 56.5 -127t140.5 -41h86q31 0 59 -7l3 3q-3 35 6 81l100 519h184l-100 -519q-5 -31 -27 -81l2 -3q28 7 66 7h82q90 0 150 41t100 127l112 243q45 105 120 148t185 43z" />
    <glyph glyph-name="uni04C2" unicode="&#x4c2;" horiz-adv-x="1439" 
d="M829 1024q-116 0 -182.5 58t-66.5 167q0 33 8 72h119q-5 -45 -5 -51q0 -131 134 -131q155 0 194 182h121q-26 -146 -108.5 -221.5t-213.5 -75.5zM1382 952h93l-31 -151h-47q-46 0 -73.5 -17t-53.5 -63l-58 -100q-33 -63 -85.5 -91.5t-133.5 -33.5l-2 -4q88 -3 131 -30.5
t49 -94.5l15 -146q4 -44 22 -60t58 -16h55l-29 -151h-108q-131 0 -146 135l-16 164q-8 69 -39 100t-98 31h-33q-48 0 -64 4l-2 -2q3 -37 -6 -86l-65 -340h-86h-84l67 340q5 28 27 86l-2 2q-16 -4 -64 -4h-32q-57 0 -97 -31.5t-73 -99.5l-84 -170q-30 -61 -86 -95t-129 -34
h-109l31 151h55q45 0 71.5 16.5t49.5 59.5l70 146q32 66 82 94t135 31l2 4q-84 5 -125 32.5t-51 92.5l-21 100q-8 45 -27 62.5t-63 17.5h-49l31 151h92q123 0 145 -102l37 -166q15 -67 39.5 -94t91.5 -27h35q45 0 61 -4l2 2q-3 32 7 82l65 303h88h82l-61 -303
q-8 -43 -27 -82l2 -2q16 4 66 4h32q56 0 85 25.5t71 95.5l100 166q63 102 215 102z" />
    <glyph glyph-name="uni04C3" unicode="&#x4c3;" 
d="M1280 1440q47 0 96 -8l-33 -172q-40 4 -57 4q-67 0 -107 -21.5t-63 -71.5l-90 -198q-42 -97 -114.5 -145.5t-196.5 -65.5v-4q216 -5 328 -78.5t112 -237.5q0 -63 -16 -141l-62 -319q-34 -190 -130.5 -291t-274.5 -101h-170l35 174h127q184 0 229 224l61 313q13 67 13 102
q0 149 -130 208t-401 61q-45 0 -61 4l-2 -2q3 -37 -6 -84l-115 -590h-186l278 1434h186l-104 -533q-10 -51 -25 -80l2 -2q24 6 64 6h131q87 0 146.5 45t111.5 162l98 215q44 101 122.5 147t203.5 46z" />
    <glyph glyph-name="uni04C4" unicode="&#x4c4;" horiz-adv-x="989" 
d="M295 -410l33 164h106q85 0 137.5 39t71.5 133l43 219q10 61 10 97q0 87 -61 131.5t-178 46.5l-101 2q-47 0 -63 4l-2 -2q3 -37 -6 -86l-66 -338h-174l184 946h174l-59 -303q-7 -36 -27 -82l2 -2q16 4 64 4h82q64 0 98.5 26t77.5 95l100 166q63 102 193 102h94l-31 -155
h-49q-40 0 -65.5 -17t-48.5 -59l-58 -100q-38 -66 -91.5 -93t-137.5 -30l-2 -6q159 0 243 -56t84 -180q0 -36 -14 -121l-49 -250q-28 -150 -118 -222.5t-255 -72.5h-141z" />
    <glyph glyph-name="uni04C5" unicode="&#x4c5;" horiz-adv-x="1536" 
d="M1442 864l-142 -719h146l-227 -432h-152l137 287h-117l236 1212q7 40 14 52v4q-21 -8 -55 -8h-596q-33 0 -49 8l-6 -4q4 -19 -2 -52l-64 -323l-112 -578q-33 -172 -116 -246.5t-249 -74.5q-64 0 -129 8l35 176q45 -6 115 -6q67 0 105 35.5t56 126.5l111 559l104 545h1065
z" />
    <glyph glyph-name="uni04C6" unicode="&#x4c6;" horiz-adv-x="1140" 
d="M1073 946l-155 -801h137l-228 -432h-151l137 287h-96l141 737q7 32 21 54l-2 2q-18 -9 -58 -9h-336q-39 0 -57 9l-2 -2q8 -20 0 -54l-21 -112l-73 -379q-50 -252 -305 -252h-95l31 158h62q61 0 94 37t51 116l61 320l62 321h782z" />
    <glyph glyph-name="uni04C7" unicode="&#x4c7;" horiz-adv-x="1449" 
d="M694 -410l37 189h92q144 0 181 186l129 660q5 33 16 51l-2 4q-21 -8 -55 -8h-658q-36 0 -49 8l-4 -4q3 -13 -4 -51l-123 -625h-188l278 1434h188l-104 -537q-6 -34 -16 -51l4 -4q19 8 53 8h659q31 0 50 -8l4 4q-2 12 4 51l104 537h189l-285 -1469q-40 -208 -138 -291.5
t-268 -83.5h-94z" />
    <glyph glyph-name="uni04C8" unicode="&#x4c8;" horiz-adv-x="1126" 
d="M1081 946l-184 -946l-25 -135q-29 -152 -112 -215.5t-215 -63.5h-105l31 158h80q67 0 101 32t48 105l25 119h-2l74 379q8 37 20 53l-2 2q-18 -8 -57 -8h-408q-39 0 -53 8l-2 -2q5 -21 -2 -53l-74 -379h-174l184 946h174l-61 -315q-6 -31 -20 -53l2 -3q18 9 57 9h405
q40 0 58 -9l2 3q-7 18 0 53l61 315h174z" />
    <glyph glyph-name="uni04C9" unicode="&#x4c9;" horiz-adv-x="1456" 
d="M1479 1434l-250 -1289h135l-227 -432h-152l137 287h-110l121 625q6 34 16 51l-2 4q-21 -8 -55 -8h-658q-36 0 -49 8l-4 -4q3 -13 -4 -51l-123 -625h-188l278 1434h188l-104 -537q-5 -33 -16 -51l4 -4q19 8 53 8h659q31 0 50 -8l4 4q-2 12 4 51l104 537h189z" />
    <glyph glyph-name="uni04CA" unicode="&#x4ca;" horiz-adv-x="1148" 
d="M1081 946l-155 -801h135l-227 -432h-152l137 287h-96l74 379q8 37 20 53l-2 2q-18 -8 -57 -8h-408q-39 0 -53 8l-2 -2q5 -21 -2 -53l-74 -379h-174l184 946h174l-61 -315q-6 -31 -20 -53l2 -3q18 9 57 9h405q40 0 58 -9l2 3q-7 18 0 53l61 315h174z" />
    <glyph glyph-name="uni04CB" unicode="&#x4cb;" horiz-adv-x="1232" 
d="M1262 1434l-279 -1434h-129l-55 -287h-174l80 410h116l82 422q9 54 27 84l-2 4q-212 -78 -422 -78q-180 0 -280.5 77t-100.5 242q0 54 25 191l73 369h187l-76 -381q-17 -87 -17 -129q0 -59 17 -97.5t50 -58t69.5 -26.5t87.5 -7q153 0 413 74l123 625h185z" />
    <glyph glyph-name="uni04CC" unicode="&#x4cc;" horiz-adv-x="974" 
d="M756 946h174l-58 -291l-77 -407l-50 -248h-118l-56 -287h-157l78 393h100l29 142h2l12 71q13 70 29 93l-2 2q-169 -60 -312 -60q-138 0 -213.5 54t-75.5 178q0 43 13 110l49 250h174l-45 -229q-8 -62 -8 -76q0 -65 36.5 -94t108.5 -29q120 0 295 55l14 82z" />
    <glyph glyph-name="uni04CD" unicode="&#x4cd;" horiz-adv-x="1875" 
d="M1669 145h133l-227 -432h-152l136 287h-52l-82 793q-12 120 9 231h-7q-4 -9 -17.5 -42.5t-21.5 -52t-28 -56t-45 -78.5l-492 -813h-18l-182 813q-6 24 -10 45.5t-6.5 41.5t-4 33.5t-2 31.5t-0.5 26v26.5v24.5h-6q-1 -3 -9 -33t-12.5 -45t-13.5 -44t-20.5 -55.5
t-24.5 -53.5l-375 -793h-209l701 1456h24l201 -944q14 -64 8 -174h8q29 97 74 174l559 944h29z" />
    <glyph glyph-name="uni04CE" unicode="&#x4ce;" horiz-adv-x="1411" 
d="M1188 145h149l-227 -432h-152l138 287h-56l-59 426q-15 100 -10 168h-6q-6 -16 -14.5 -33t-16.5 -30.5t-28 -45t-36 -57.5l-272 -440h-45l-104 438q-29 121 -31 168h-6q-13 -55 -74 -170l-219 -424h-197l504 958h45l135 -528q17 -80 19 -125h6q19 46 65 125l324 528h43z
" />
    <glyph glyph-name="uni04CF" unicode="&#x4cf;" horiz-adv-x="448" 
d="M403 946l-184 -946h-174l184 946h174z" />
    <glyph glyph-name="uni04D0" unicode="&#x4d0;" horiz-adv-x="1406" 
d="M1214 1767q-54 -282 -313 -282q-119 0 -182.5 55.5t-63.5 157.5q0 25 7 69h118q-8 -36 -8 -57q0 -56 34.5 -86.5t102.5 -30.5q82 0 124.5 45t58.5 129h122zM-70 0l957 1464h18l387 -1464h-190l-103 401h-593l-250 -401h-226zM494 555q40 4 114 4h248q71 0 117 -4v2
q-24 40 -41 117l-64 297q-24 107 -18 166h-10q-16 -58 -82 -166l-180 -297q-50 -81 -86 -117z" />
    <glyph glyph-name="uni04D1" unicode="&#x4d1;" horiz-adv-x="1040" 
d="M631 1024q-116 0 -183 58.5t-67 166.5q0 33 8 72h119q-4 -36 -4 -51q0 -131 133 -131q155 0 194 182h121q-26 -146 -108 -221.5t-213 -75.5zM379 -29q-152 0 -247 88.5t-95 229.5q0 159 103 252.5t280 93.5q124 0 213 -55.5t129 -153.5l6 2q-10 41 6 135q12 82 12 101
q0 151 -204 151q-134 0 -303 -41l-33 160q194 41 356 41q172 0 261 -72t89 -211q0 -46 -12 -110l-111 -582h-174q14 87 52 152l-9 4q-62 -95 -139 -140t-180 -45zM438 115q112 0 190.5 56t78.5 136q0 78 -72.5 130t-179.5 52q-109 0 -171.5 -53t-62.5 -145q0 -82 58 -129
t159 -47z" />
    <glyph glyph-name="uni04D2" unicode="&#x4d2;" horiz-adv-x="1406" 
d="M690 1749h166l-45 -227h-166zM1034 1749h168l-43 -227h-168zM-70 0l957 1464h18l387 -1464h-190l-103 401h-593l-250 -401h-226zM494 555q40 4 114 4h248q71 0 117 -4v2q-24 40 -41 117l-64 297q-24 107 -18 166h-10q-16 -58 -82 -166l-180 -297q-50 -81 -86 -117z" />
    <glyph glyph-name="uni04D3" unicode="&#x4d3;" horiz-adv-x="1040" 
d="M600 1307l-45 -242h-168l47 242h166zM934 1307l-47 -242h-166l45 242h168zM379 -29q-152 0 -247 88.5t-95 229.5q0 159 103 252.5t280 93.5q124 0 213 -55.5t129 -153.5l6 2q-10 41 6 135q12 82 12 101q0 151 -204 151q-134 0 -303 -41l-33 160q194 41 356 41
q172 0 261 -72t89 -211q0 -46 -12 -110l-111 -582h-174q14 87 52 152l-9 4q-62 -95 -139 -140t-180 -45zM438 115q112 0 190.5 56t78.5 136q0 78 -72.5 130t-179.5 52q-109 0 -171.5 -53t-62.5 -145q0 -82 58 -129t159 -47z" />
    <glyph glyph-name="uni04D4" unicode="&#x4d4;" horiz-adv-x="1808" 
d="M1419 1257q-31 0 -49 9l-6 -4q4 -19 -4 -52l-55 -292q-6 -33 -17 -52l2 -4q19 8 53 8h461l-35 -176h-460q-30 0 -49 8l-5 -4q2 -12 -4 -51l-82 -424q-5 -33 -16 -51l2 -4q19 8 53 8h518l-32 -176h-744l68 352q6 34 16 54l-2 2q-28 -7 -53 -7h-485l-338 -401h-226
l1225 1434h809l-35 -177h-510zM1010 559q34 0 49 -6l6 2q-2 14 4 51l102 529q13 63 41 149h-4q-47 -85 -98 -147l-420 -496q-29 -36 -47.5 -54.5t-48.5 -35.5l2 -2q37 10 106 10h308z" />
    <glyph glyph-name="uni04D5" unicode="&#x4d5;" horiz-adv-x="1775" 
d="M1214 -31q-153 0 -250.5 62.5t-134.5 179.5h-4q-130 -240 -417 -240q-173 0 -271 88t-98 236q0 147 99.5 243.5t277.5 96.5q262 0 346 -207l6 2q-8 45 6 133q14 68 14 103q0 66 -47 107.5t-155 41.5q-106 0 -307 -41l-33 160q189 41 358 41q138 0 213.5 -47.5
t93.5 -155.5h7q61 96 160.5 150.5t230.5 54.5q192 0 298.5 -107t106.5 -280q0 -56 -18 -148h-647q-84 0 -109 15l-6 -4l4 -17q-2 -12 -2 -39q0 -120 69.5 -192t208.5 -72q101 0 175.5 39t154.5 115l105 -125q-96 -93 -195 -143t-240 -50zM958 557q30 18 95 18h385
q81 0 100 -16l6 2q-2 8 -2 25q0 116 -64.5 177.5t-185.5 61.5q-76 0 -137 -23.5t-99.5 -64t-62 -84t-37.5 -94.5zM438 115q110 0 190.5 55.5t80.5 136.5q0 77 -72.5 129.5t-183.5 52.5q-116 0 -173 -57.5t-57 -138.5q0 -85 59 -131.5t156 -46.5z" />
    <glyph glyph-name="uni04D6" unicode="&#x4d6;" horiz-adv-x="1054" 
d="M1102 1767q-54 -282 -314 -282q-119 0 -182 55.5t-63 157.5q0 32 6 69h119q-9 -41 -9 -57q0 -56 35 -86.5t103 -30.5q82 0 124 45t58 129h123zM1151 1434l-33 -174h-573q-33 0 -49 8l-7 -4q4 -20 -4 -54l-55 -292q-6 -36 -16 -52l4 -4q16 8 53 8h504l-33 -174h-506
q-30 0 -51 9l-4 -5q2 -12 -4 -53l-82 -424q-11 -44 -16 -53l2 -4q21 8 53 8h581l-34 -174h-815l278 1434h807z" />
    <glyph glyph-name="uni04D7" unicode="&#x4d7;" horiz-adv-x="1105" 
d="M666 1024q-116 0 -183 58.5t-67 166.5q0 33 8 72h119q-4 -36 -4 -51q0 -131 133 -131q155 0 194 182h121q-26 -146 -108 -221.5t-213 -75.5zM530 -31q-217 0 -339.5 118t-122.5 327q0 246 156.5 404.5t398.5 158.5q196 0 310 -104t114 -283q0 -54 -21 -148h-674
q-83 0 -110 15l-4 -4l2 -17v-39q0 -125 76 -194.5t214 -69.5q95 0 174.5 36t167.5 118l107 -125q-111 -103 -215 -148t-234 -45zM260 557q30 18 94 18h414q78 0 102 -16l4 2v25q0 115 -68 177t-196 62q-130 0 -223.5 -70.5t-128.5 -195.5z" />
    <glyph glyph-name="uni04D8" unicode="&#x4d8;" horiz-adv-x="1599" 
d="M909 1464q147 0 267 -40.5t208.5 -119.5t137.5 -202.5t49 -282.5q0 -178 -57.5 -333.5t-161.5 -270t-258.5 -180.5t-339.5 -66q-143 0 -259 36.5t-202.5 109.5t-134 189.5t-47.5 268.5q0 106 36 242h1164q49 0 84 -14l2 4q-8 33 -8 76q0 173 -138 286t-352 113
q-251 0 -483 -190l-101 153q125 102 267.5 161.5t326.5 59.5zM1366 647q-37 -8 -104 -8h-871q-75 0 -102 8l-6 -4q6 -14 6 -88q1 -89 29 -159.5t73.5 -115t107.5 -73.5t125 -41t132 -12q116 0 213.5 32t157 77t106 105.5t67 105.5t33.5 89l5 15q10 33 18 46q7 10 12 19z" />
    <glyph glyph-name="uni04D9" unicode="&#x4d9;" horiz-adv-x="1105" 
d="M575 977q217 0 340 -118t123 -327q0 -246 -157 -404.5t-400 -158.5q-196 0 -309 104t-113 283q0 54 21 148h674q86 0 108 -15l6 5l-4 16q2 14 2 39q0 125 -76.5 194.5t-214.5 69.5q-97 0 -176 -35.5t-168 -118.5l-104 125q109 103 213.5 148t234.5 45zM844 389
q-27 -18 -94 -18h-414q-76 0 -100 16l-7 -2q2 -8 2 -25q0 -115 68.5 -177t196.5 -62q129 0 222 70.5t128 195.5z" />
    <glyph glyph-name="uni04DA" unicode="&#x4da;" horiz-adv-x="1599" 
d="M768 1749h166l-45 -227h-166zM1112 1749h168l-43 -227h-168zM909 1464q147 0 267 -40.5t208.5 -119.5t137.5 -202.5t49 -282.5q0 -178 -57.5 -333.5t-161.5 -270t-258.5 -180.5t-339.5 -66q-143 0 -259 36.5t-202.5 109.5t-134 189.5t-47.5 268.5q0 106 36 242h1164
q49 0 84 -14l2 4q-8 33 -8 76q0 173 -138 286t-352 113q-251 0 -483 -190l-101 153q125 102 267.5 161.5t326.5 59.5zM1366 647q-37 -8 -104 -8h-871q-75 0 -102 8l-6 -4q6 -14 6 -88q1 -89 29 -159.5t73.5 -115t107.5 -73.5t125 -41t132 -12q116 0 213.5 32t157 77
t106 105.5t67 105.5t33.5 89l5 15q10 33 18 46q7 10 12 19z" />
    <glyph glyph-name="uni04DB" unicode="&#x4db;" horiz-adv-x="1105" 
d="M608 1307l-45 -242h-168l47 242h166zM942 1307l-47 -242h-166l45 242h168zM575 977q217 0 340 -118t123 -327q0 -246 -157 -404.5t-400 -158.5q-196 0 -309 104t-113 283q0 54 21 148h674q86 0 108 -15l6 5l-4 16q2 14 2 39q0 125 -76.5 194.5t-214.5 69.5
q-97 0 -176 -35.5t-168 -118.5l-104 125q109 103 213.5 148t234.5 45zM844 389q-27 -18 -94 -18h-414q-76 0 -100 16l-7 -2q2 -8 2 -25q0 -115 68.5 -177t196.5 -62q129 0 222 70.5t128 195.5z" />
    <glyph glyph-name="uni04DC" unicode="&#x4dc;" horiz-adv-x="1859" 
d="M1081 1749l-45 -227h-166l45 227h166zM1427 1749l-43 -227h-167l43 227h167zM1898 1440q48 0 109 -6l-33 -174q-40 4 -57 4q-119 0 -162 -95l-90 -196q-52 -116 -124.5 -159.5t-207.5 -51.5v-4q113 -6 158 -52.5t51 -179.5l12 -221q6 -127 129 -127q20 0 70 4l-37 -182
q-47 -8 -98 -8q-235 0 -242 276l-10 246q-3 89 -43.5 126.5t-136.5 37.5h-70q-47 0 -63 4l-2 -2q3 -33 -7 -84l-114 -596h-185l117 596q8 46 27 84l-2 2q-16 -4 -62 -4h-86q-80 0 -134.5 -38.5t-90.5 -125.5l-129 -303q-47 -114 -126 -166.5t-204 -52.5q-47 0 -96 8l35 182
q50 -4 61 -4q65 0 106 29t66 90l115 264q44 107 104 149t191 48v4q-126 8 -175.5 52.5t-58.5 164.5l-16 190q-6 55 -41 76t-92 21q-24 0 -64 -4l35 172q53 6 94 6q112 0 167 -44.5t65 -148.5l22 -241q9 -86 56.5 -127t140.5 -41h86q31 0 59 -7l3 3q-3 35 6 81l100 519h184
l-100 -519q-5 -31 -27 -81l2 -3q28 7 66 7h82q90 0 150 41t100 127l112 243q45 105 120 148t185 43z" />
    <glyph glyph-name="uni04DD" unicode="&#x4dd;" horiz-adv-x="1439" 
d="M799 1307l-45 -242h-168l47 242h166zM1133 1307l-48 -242h-165l45 242h168zM1382 952h93l-31 -151h-47q-46 0 -73.5 -17t-53.5 -63l-58 -100q-33 -63 -85.5 -91.5t-133.5 -33.5l-2 -4q88 -3 131 -30.5t49 -94.5l15 -146q4 -44 22 -60t58 -16h55l-29 -151h-108
q-131 0 -146 135l-16 164q-8 69 -39 100t-98 31h-33q-48 0 -64 4l-2 -2q3 -37 -6 -86l-65 -340h-86h-84l67 340q5 28 27 86l-2 2q-16 -4 -64 -4h-32q-57 0 -97 -31.5t-73 -99.5l-84 -170q-30 -61 -86 -95t-129 -34h-109l31 151h55q45 0 71.5 16.5t49.5 59.5l70 146
q32 66 82 94t135 31l2 4q-84 5 -125 32.5t-51 92.5l-21 100q-8 45 -27 62.5t-63 17.5h-49l31 151h92q123 0 145 -102l37 -166q15 -67 39.5 -94t91.5 -27h35q45 0 61 -4l2 2q-3 32 7 82l65 303h88h82l-61 -303q-8 -43 -27 -82l2 -2q16 4 66 4h32q56 0 85 25.5t71 95.5
l100 166q63 102 215 102z" />
    <glyph glyph-name="uni04DE" unicode="&#x4de;" horiz-adv-x="1300" 
d="M604 1749h166l-45 -227h-166zM948 1749h168l-43 -227h-168zM567 -31q-291 0 -514 125l101 172q199 -108 424 -108q183 0 269.5 71.5t86.5 194.5q0 121 -78 180.5t-209 59.5h-211l35 182h209q143 0 240.5 68t97.5 188q0 93 -66 134.5t-196 41.5q-207 0 -418 -78l-59 176
q260 88 489 88q218 0 332 -88t114 -252q0 -131 -71 -212.5t-225 -127.5q-63 -19 -162 -26l-2 -4q84 0 145 -15q109 -25 169 -107t60 -208q0 -66 -16 -127.5t-57 -122.5t-102.5 -105.5t-161 -72t-224.5 -27.5z" />
    </font>
</defs>
</svg>
