<?xml version="1.0" standalone="no"?>
<!DOCTYPE svg PUBLIC "-//W3C//DTD SVG 1.1//EN" "http://www.w3.org/Graphics/SVG/1.1/DTD/svg11.dtd" >
<svg xmlns="http://www.w3.org/2000/svg" xmlns:xlink="http://www.w3.org/1999/xlink" version="1.1">
<metadata>
Created by FontForge 20170731 at Sat Jul 23 01:52:11 2022
 By Aleksey,,,
Copyright (c) 2015 by Reto Moser. All rights reserved.
</metadata>
<defs>
<font id="GTEestiProText-Book" horiz-adv-x="1228" >
  <font-face 
    font-family="GT Eesti Pro Text Book"
    font-weight="300"
    font-stretch="normal"
    units-per-em="2048"
    panose-1="0 0 4 0 0 0 0 0 0 0"
    ascent="1536"
    descent="-512"
    x-height="946"
    cap-height="1434"
    bbox="-827 -516 2288 1843"
    underline-thickness="102"
    underline-position="-307"
    unicode-range="U+0020-FB02"
  />
<missing-glyph horiz-adv-x="1576" 
d="M788 -31q-213 0 -384 96.5t-267 267.5t-96 384q0 160 56.5 299t155 237.5t237 154.5t298.5 56q214 0 385 -95.5t267 -266.5t96 -385q0 -213 -96 -384t-267 -267.5t-385 -96.5zM788 20q149 0 279 53.5t223 146.5t146 224.5t53 282.5l-105 133l-143 -61l-139 184l-162 -90
l-152 242l-151 -242l-162 90l-139 -184l-143 61l-105 -133q0 -201 90.5 -363t250.5 -253t359 -91zM578 651q-31 0 -51.5 20.5t-20.5 51.5t20.5 51.5t51.5 20.5t51 -20.5t20 -51.5t-20 -51.5t-51 -20.5zM997 651q-31 0 -51 20.5t-20 51.5t20 51.5t51 20.5t51.5 -20.5
t20.5 -51.5t-20.5 -51.5t-51.5 -20.5zM702 522l74 207q1 7 8.5 10t14.5 0q6 -2 9.5 -8.5t0.5 -13.5l-57 -160h69q8 0 13.5 -5.5t5.5 -12.5q0 -6 -6 -11.5t-13 -5.5h-119zM385 350q-61 0 -101 40t-40 102t40 101.5t101 39.5t101 -39.5t40 -101.5t-40 -102t-101 -40zM1190 350
q-61 0 -101 40t-40 102t39.5 101.5t101.5 39.5t101.5 -39.5t39.5 -101.5t-40 -102t-101 -40zM788 395q-95 0 -126 -61q-6 -12 -19 -12q-16 0 -16 18q0 35 49.5 63.5t111.5 28.5t112 -28.5t50 -63.5q0 -18 -16 -18q-13 0 -19 12q-31 61 -127 61z" />
    <glyph glyph-name="fi" unicode="fi" horiz-adv-x="1114" 
d="M606 1452v-162h-16q-93 0 -141 -49t-48 -164v-78q-5 -54 -8 -63l4 -4q22 14 80 14h127v-164h-127q-60 0 -80 15l-4 -4q8 -31 8 -99v-694h-172v694q0 64 9 99l-5 4q-20 -15 -79 -15h-103v164h103q57 0 79 -14l5 4q-9 24 -9 61v66q0 107 30.5 185.5t82.5 121t110.5 62.5
t125.5 20h28zM987 1434v-269h-196v269h196zM975 946v-946h-174v946h174z" />
    <glyph glyph-name="fl" unicode="fl" horiz-adv-x="1114" 
d="M975 1464v-1464h-174v1464h174zM606 1452v-162h-16q-93 0 -141 -49t-48 -164v-78q-5 -54 -8 -63l4 -4q22 14 80 14h127v-164h-127q-60 0 -80 15l-4 -4q8 -31 8 -99v-694h-172v694q0 64 9 99l-5 4q-20 -15 -79 -15h-103v164h103q57 0 79 -14l5 4q-9 24 -9 61v66
q0 107 30.5 185.5t82.5 121t110.5 62.5t125.5 20h28z" />
    <glyph glyph-name="f_f" unicode="ff" horiz-adv-x="1323" 
d="M606 1452v-162h-16q-93 0 -141 -49t-48 -164v-78q-5 -54 -8 -63l4 -4q22 14 80 14h127v-164h-127q-60 0 -80 15l-4 -4q8 -31 8 -99v-694h-172v694q0 64 9 99l-5 4q-20 -15 -79 -15h-103v164h103q57 0 79 -14l5 4q-9 24 -9 61v66q0 107 30.5 185.5t82.5 121t110.5 62.5
t125.5 20h28zM1268 1452v-162h-17q-93 0 -140.5 -49t-47.5 -164v-78q-5 -54 -8 -63l4 -4q22 14 80 14h127v-164h-127q-60 0 -80 15l-4 -4q8 -31 8 -99v-694h-172v694q0 68 8 99l-4 4q-20 -15 -80 -15h-102v164h102q58 0 80 -14l4 4q-8 21 -8 61v66q0 107 30.5 185.5t82 121
t110.5 62.5t125 20h29z" />
    <glyph glyph-name="f_f_i" unicode="ffi" horiz-adv-x="1775" 
d="M606 1452v-162h-16q-93 0 -141 -49t-48 -164v-78q-5 -54 -8 -63l4 -4q22 14 80 14h127v-164h-127q-60 0 -80 15l-4 -4q8 -31 8 -99v-694h-172v694q0 64 9 99l-5 4q-20 -15 -79 -15h-103v164h103q57 0 79 -14l5 4q-9 24 -9 61v66q0 107 30.5 185.5t82.5 121t110.5 62.5
t125.5 20h28zM1268 1452v-162h-17q-93 0 -140.5 -49t-47.5 -164v-78q-5 -54 -8 -63l4 -4q22 14 80 14h127v-164h-127q-60 0 -80 15l-4 -4q8 -31 8 -99v-694h-172v694q0 68 8 99l-4 4q-20 -15 -80 -15h-102v164h102q58 0 80 -14l4 4q-8 21 -8 61v66q0 107 30.5 185.5t82 121
t110.5 62.5t125 20h29zM1649 1434v-269h-197v269h197zM1636 946v-946h-174v946h174z" />
    <glyph glyph-name="f_f_l" unicode="ffl" horiz-adv-x="1775" 
d="M1636 1464v-1464h-174v1464h174zM606 1452v-162h-16q-93 0 -141 -49t-48 -164v-78q-5 -54 -8 -63l4 -4q22 14 80 14h127v-164h-127q-60 0 -80 15l-4 -4q8 -31 8 -99v-694h-172v694q0 64 9 99l-5 4q-20 -15 -79 -15h-103v164h103q57 0 79 -14l5 4q-9 24 -9 61v66
q0 107 30.5 185.5t82.5 121t110.5 62.5t125.5 20h28zM1268 1452v-162h-17q-93 0 -140.5 -49t-47.5 -164v-78q-5 -54 -8 -63l4 -4q22 14 80 14h127v-164h-127q-60 0 -80 15l-4 -4q8 -31 8 -99v-694h-172v694q0 68 8 99l-4 4q-20 -15 -80 -15h-102v164h102q58 0 80 -14l4 4
q-8 21 -8 61v66q0 107 30.5 185.5t82 121t110.5 62.5t125 20h29z" />
    <glyph glyph-name=".notdef" horiz-adv-x="1576" 
d="M788 -31q-213 0 -384 96.5t-267 267.5t-96 384q0 160 56.5 299t155 237.5t237 154.5t298.5 56q214 0 385 -95.5t267 -266.5t96 -385q0 -213 -96 -384t-267 -267.5t-385 -96.5zM788 20q149 0 279 53.5t223 146.5t146 224.5t53 282.5l-105 133l-143 -61l-139 184l-162 -90
l-152 242l-151 -242l-162 90l-139 -184l-143 61l-105 -133q0 -201 90.5 -363t250.5 -253t359 -91zM578 651q-31 0 -51.5 20.5t-20.5 51.5t20.5 51.5t51.5 20.5t51 -20.5t20 -51.5t-20 -51.5t-51 -20.5zM997 651q-31 0 -51 20.5t-20 51.5t20 51.5t51 20.5t51.5 -20.5
t20.5 -51.5t-20.5 -51.5t-51.5 -20.5zM702 522l74 207q1 7 8.5 10t14.5 0q6 -2 9.5 -8.5t0.5 -13.5l-57 -160h69q8 0 13.5 -5.5t5.5 -12.5q0 -6 -6 -11.5t-13 -5.5h-119zM385 350q-61 0 -101 40t-40 102t40 101.5t101 39.5t101 -39.5t40 -101.5t-40 -102t-101 -40zM1190 350
q-61 0 -101 40t-40 102t39.5 101.5t101.5 39.5t101.5 -39.5t39.5 -101.5t-40 -102t-101 -40zM788 395q-95 0 -126 -61q-6 -12 -19 -12q-16 0 -16 18q0 35 49.5 63.5t111.5 28.5t112 -28.5t50 -63.5q0 -18 -16 -18q-13 0 -19 12q-31 61 -127 61z" />
    <glyph glyph-name=".null" horiz-adv-x="0" 
 />
    <glyph glyph-name="nonmarkingreturn" horiz-adv-x="682" 
 />
    <glyph glyph-name="NULL" horiz-adv-x="8" 
 />
    <glyph glyph-name="NULL" horiz-adv-x="8" 
 />
    <glyph glyph-name="space" unicode=" " horiz-adv-x="624" 
 />
    <glyph glyph-name="exclam" unicode="!" horiz-adv-x="618" 
d="M248 428l-45 1006h213l-47 -1006h-121zM201 0v233h217v-233h-217z" />
    <glyph glyph-name="quotedbl" unicode="&#x22;" horiz-adv-x="598" 
d="M453 1464l-43 -518h-72l-39 484l-41 -484h-72l-43 518h310z" />
    <glyph glyph-name="numbersign" unicode="#" horiz-adv-x="1300" 
d="M1194 936h-254l-70 -385h250v-90h-266l-84 -461h-98l84 461h-303l-84 -461h-99l84 461h-248v90h265l69 385h-260v90h277l73 408h99l-74 -408h303l74 408h98l-74 -408h238v-90zM772 551l70 385h-303l-70 -385h303z" />
    <glyph glyph-name="dollar" unicode="$" horiz-adv-x="1028" 
d="M520 -168v76q0 50 8 74l-2 2q-31 -16 -67 -13q-214 18 -396 125l82 156q168 -91 320 -109q44 -5 59 -18l4 2q-8 21 -8 82v426l-158 115q-104 75 -157 156.5t-53 180.5q0 135 86 219.5t221 100.5q50 7 65 -8l4 2q-8 36 -8 72v77h62v-77q0 -23 -7 -70l5 -4q19 16 59 10
q104 -8 274 -80l-71 -158q-100 44 -203 64q-48 11 -59 20l-5 -2q7 -40 7 -73v-363l129 -92q138 -97 197 -183.5t59 -203.5q0 -151 -88.5 -246t-243.5 -115q-32 -4 -60 9l-2 -2q9 -30 9 -74v-78h-62zM524 846l2 2q-6 52 -6 84v250q0 42 8 73l-4 2q-4 -5 -11.5 -8.5t-14 -5
t-16.5 -3.5t-13 -3q-137 -27 -137 -141q0 -60 31.5 -103t121.5 -106q31 -22 39 -41zM575 127q20 16 56 25q76 18 115.5 63.5t39.5 108.5q0 116 -143 223q-48 36 -68 61h-2q9 -35 9 -82v-315q0 -45 -9 -82z" />
    <glyph glyph-name="percent" unicode="%" horiz-adv-x="1554" 
d="M430 760q-143 0 -235.5 91.5t-92.5 235.5t92.5 235t235.5 91q145 0 238.5 -91t93.5 -235t-93.5 -235.5t-238.5 -91.5zM305 0l809 1382h100l-808 -1382h-101zM432 854q104 0 168 65t64 168q0 104 -64 168t-168 64q-103 0 -167 -64t-64 -168q0 -103 64 -168t167 -65z
M1122 -10q-143 0 -235 90.5t-92 234.5t92 236t235 92t236.5 -92t93.5 -236t-93 -234.5t-237 -90.5zM1124 84q103 0 167.5 63.5t64.5 167.5q0 103 -64.5 168.5t-167.5 65.5t-168 -65.5t-65 -168.5q0 -104 65 -167.5t168 -63.5z" />
    <glyph glyph-name="ampersand" unicode="&#x26;" horiz-adv-x="1359" 
d="M879 1382l92 -153l-2 -6h-445q-46 0 -71 14l-4 -4l585 -827h4q-4 24 19 65q61 101 119 236l157 -64q-75 -193 -155 -311q-29 -40 -54 -43l-2 -6l201 -279l-2 -4h-217l-100 145h-7q-21 -61 -142 -118.5t-271 -57.5q-218 0 -354 126.5t-136 330.5q0 325 312 457q46 15 63 8
l4 4l-346 481l2 6h750zM557 772h-4q-6 -24 -43 -37q-229 -91 -229 -301q0 -130 83.5 -211.5t223.5 -81.5q78 0 140.5 25t129.5 72q35 20 55 18l5 8z" />
    <glyph glyph-name="quotesingle" unicode="'" horiz-adv-x="387" 
d="M281 1464l-43 -518h-88l-44 518h175z" />
    <glyph glyph-name="parenleft" unicode="(" horiz-adv-x="634" 
d="M463 1556l127 -94q-72 -93 -128 -186t-103 -205t-72 -242t-25 -270q0 -501 326 -899l-127 -100q-49 57 -94 122.5t-96.5 163.5t-88.5 201.5t-61.5 238.5t-24.5 273t25 271.5t61 234t89 200t96.5 162.5t95.5 129z" />
    <glyph glyph-name="parenright" unicode=")" horiz-adv-x="634" 
d="M213 1556q52 -66 95.5 -129t96.5 -162.5t89 -200t61 -234t25 -271.5t-24.5 -273t-61.5 -238.5t-88.5 -201.5t-96.5 -163.5t-94 -122.5l-127 100q326 398 326 899q0 140 -25 270t-72 242t-103 205t-128 186z" />
    <glyph glyph-name="asterisk" unicode="*" horiz-adv-x="845" 
d="M272 784l-112 84l188 219l-282 68l43 133l268 -112l-25 288h142l-25 -288l268 112l43 -133l-282 -68l190 -219l-115 -82l-149 248z" />
    <glyph glyph-name="plus" unicode="+" 
d="M662 1108v-455h452v-86h-452v-454h-95v454h-452v86h452v455h95z" />
    <glyph glyph-name="comma" unicode="," horiz-adv-x="479" 
d="M84 -342l76 547h207l-185 -547h-98z" />
    <glyph glyph-name="hyphen" unicode="-" horiz-adv-x="792" 
d="M696 635v-168h-600v168h600z" />
    <glyph glyph-name="period" unicode="." horiz-adv-x="448" 
d="M115 0v233h219v-233h-219z" />
    <glyph glyph-name="slash" unicode="/" horiz-adv-x="1167" 
d="M178 -186l-117 63l926 1673l119 -65z" />
    <glyph glyph-name="zero" unicode="0" horiz-adv-x="1189" 
d="M596 1413q235 0 366.5 -188t131.5 -533t-132 -534t-366 -189q-235 0 -367.5 189t-132.5 534t132 533t368 188zM596 1253q-150 0 -235 -148t-85 -413t85 -414t235 -149q148 0 233.5 149.5t85.5 413.5t-85 412.5t-234 148.5z" />
    <glyph glyph-name="one" unicode="1" horiz-adv-x="694" 
d="M498 1382v-1382h-174v897q0 71 3 101.5t13 76.5l-6 4q-19 -29 -76 -63l-180 -98v176l258 176l33 112h129z" />
    <glyph glyph-name="two" unicode="2" horiz-adv-x="1007" 
d="M522 1413q181 0 286 -95.5t105 -262.5q0 -99 -42.5 -198.5t-133.5 -213.5l-272 -338q-81 -103 -146 -149l5 -4q56 18 165 18h453l2 -4l-94 -166h-834l-4 8l582 727q72 89 105.5 161.5t33.5 143.5q0 99 -60 155t-159 56q-146 0 -334 -143l-90 139q218 166 432 166z" />
    <glyph glyph-name="three" unicode="3" horiz-adv-x="991" 
d="M463 1413q178 0 277.5 -85.5t99.5 -233.5q0 -108 -56 -186t-155 -109q-51 -14 -107 -19v-8q53 0 105 -10q140 -35 215.5 -126t75.5 -237q0 -199 -131.5 -314.5t-366.5 -115.5q-210 0 -391 101l59 161q174 -100 334 -100q149 0 231 71.5t82 203.5q0 142 -103.5 207
t-330.5 65v158q169 0 265 59.5t96 167.5q0 90 -60 141t-164 51q-139 0 -311 -104l-72 145q87 54 194.5 85.5t213.5 31.5z" />
    <glyph glyph-name="four" unicode="4" horiz-adv-x="1132" 
d="M879 1382v-899q0 -34 -5 -49l5 -4q12 6 36 6h189l-55 -164h-131q-23 0 -39 4l-5 -2q5 -12 5 -47v-227h-168v227q0 37 2 47l-2 2q-20 -4 -41 -4h-637v146l688 964h158zM713 1151q-31 -82 -90 -166l-332 -461q-49 -71 -80 -98l4 -4q43 14 113 14h338q28 0 43 -6l4 4
q-4 12 -4 51v529q0 70 10 135z" />
    <glyph glyph-name="five" unicode="5" horiz-adv-x="991" 
d="M965 1382l-66 -174h-371q-41 0 -53 2l-2 -2q0 -26 -16 -92l-45 -149q-13 -47 -41 -82l2 -4q54 12 96 12q216 0 342.5 -118.5t126.5 -319.5q0 -223 -145.5 -354.5t-395.5 -131.5q-215 0 -385 101l62 159q178 -100 336 -100q165 0 256.5 86t91.5 231q0 141 -92 215t-260 74
q-126 0 -228 -30l-6 6l199 671h594z" />
    <glyph glyph-name="six" unicode="6" horiz-adv-x="1077" 
d="M803 1393l-330 -387q-126 -148 -182 -277l8 -2q109 174 301 174q188 0 308 -129.5t120 -329.5q0 -209 -135.5 -341t-349.5 -132q-212 0 -349 136t-137 360q0 145 60.5 285.5t191.5 304.5l273 338h221zM543 735q-138 0 -221.5 -84.5t-83.5 -226.5q0 -134 84 -215.5
t223 -81.5t221 84.5t82 228.5q0 136 -82 215.5t-223 79.5z" />
    <glyph glyph-name="seven" unicode="7" horiz-adv-x="888" 
d="M883 1382l2 -4l-590 -1378h-191l463 1042q14 33 30 70.5t22.5 53t14 30.5t13.5 23l-4 4q-35 -13 -162 -13h-465l72 172h795z" />
    <glyph glyph-name="eight" unicode="8" horiz-adv-x="1093" 
d="M547 -31q-220 0 -344.5 107t-124.5 295q0 146 78 243t215 123v8q-115 23 -183.5 109.5t-68.5 206.5q0 161 116.5 256.5t311.5 95.5t311.5 -95.5t116.5 -256.5q0 -120 -68.5 -206.5t-183.5 -109.5v-8q137 -26 214 -123t77 -243q0 -188 -124.5 -295t-342.5 -107zM547 821
q113 0 180.5 60t67.5 161q0 98 -67.5 155.5t-180.5 57.5q-114 0 -181 -57.5t-67 -155.5q0 -101 67.5 -161t180.5 -60zM547 127q134 0 209 68.5t75 191.5t-76 194.5t-208 71.5t-209.5 -71.5t-77.5 -194.5t76.5 -191.5t210.5 -68.5z" />
    <glyph glyph-name="nine" unicode="9" horiz-adv-x="1044" 
d="M520 1413q213 0 347 -137.5t134 -368.5q0 -145 -52.5 -270t-170.5 -264l-305 -373h-209l354 430q118 145 162 217l-8 4q-117 -164 -305 -164q-185 0 -308.5 131.5t-123.5 325.5q0 207 135 338t350 131zM516 1253q-136 0 -218.5 -83t-82.5 -222q0 -136 81 -216.5
t218 -80.5q140 0 222.5 80.5t82.5 216.5q0 140 -81.5 222.5t-221.5 82.5z" />
    <glyph glyph-name="colon" unicode=":" horiz-adv-x="448" 
d="M115 713v233h219v-233h-219zM115 0v233h219v-233h-219z" />
    <glyph glyph-name="semicolon" unicode=";" horiz-adv-x="485" 
d="M150 713v233h219v-233h-219zM84 -342l76 547h207l-185 -547h-98z" />
    <glyph glyph-name="less" unicode="&#x3c;" 
d="M1071 1063v-102l-803 -349l803 -346v-102l-913 401v94z" />
    <glyph glyph-name="equal" unicode="=" 
d="M1133 846v-90h-1037v90h1037zM1133 469v-88h-1037v88h1037z" />
    <glyph glyph-name="greater" unicode="&#x3e;" 
d="M158 1063l913 -404v-94l-913 -401v102l803 346l-803 349v102z" />
    <glyph glyph-name="question" unicode="?" horiz-adv-x="761" 
d="M379 1464q149 0 233 -73t84 -193q0 -145 -116 -254l-109 -102q-40 -40 -58 -70t-18 -65q0 -49 34 -85.5t110 -82.5l-97 -142q-45 26 -78.5 51t-71.5 63.5t-58.5 88.5t-20.5 107q0 124 119 231l104 98q40 37 61 70t21 72q0 56 -41 88t-108 32q-116 0 -269 -100l-75 148
q180 118 354 118zM272 0v233h217v-233h-217z" />
    <glyph glyph-name="at" unicode="@" horiz-adv-x="1929" 
d="M1004 -307q-187 0 -352 61t-285.5 169.5t-190.5 268.5t-70 349q0 267 111 465t311 302.5t463 104.5q181 0 335 -57t263.5 -159.5t171.5 -250t62 -323.5q0 -236 -92.5 -372t-260.5 -136q-92 0 -153 43t-76 127h-6q-40 -86 -120 -133.5t-191 -47.5q-148 0 -241 86.5
t-93 225.5q0 138 92 221.5t246 83.5q208 0 293 -166l4 4q-9 41 -13 115q-4 93 -60 136.5t-163 43.5t-272 -43l-35 143q176 43 317 43q365 0 365 -327v-283q0 -68 32.5 -103.5t90.5 -35.5q93 0 142.5 96t49.5 266q0 201 -88.5 354.5t-244 234.5t-355.5 81q-220 0 -387 -86.5
t-260.5 -254t-93.5 -396.5q0 -160 58.5 -295.5t159.5 -227t240 -143t298 -51.5q201 0 409 86l51 -125q-243 -94 -462 -94zM973 233q102 0 163.5 50t61.5 129q0 78 -62 128t-163 50t-160 -49.5t-59 -128.5q0 -78 59 -128.5t160 -50.5z" />
    <glyph glyph-name="A" unicode="A" horiz-adv-x="1404" 
d="M23 0l669 1464h21l669 -1464h-206l-179 401h-589l-179 -401h-206zM459 555q36 4 114 4h258q79 0 115 -4l2 2q-28 35 -63 117l-127 299q-45 116 -51 168h-9q-6 -52 -51 -168l-127 -299q-35 -82 -63 -117z" />
    <glyph glyph-name="B" unicode="B" horiz-adv-x="1267" 
d="M158 0v1434h522q184 0 292.5 -97t108.5 -260q0 -102 -46.5 -175.5t-133.5 -108.5q-52 -22 -110 -25v-8q63 -2 112 -15q126 -31 196 -122.5t70 -227.5q0 -181 -121 -288t-327 -107h-563zM340 821q21 6 51 6h232q127 0 197.5 60t70.5 166q0 100 -62.5 153.5t-179.5 53.5
h-258q-35 0 -51 8l-4 -4q6 -15 6 -54v-336q0 -33 -6 -51zM340 166q16 8 51 8h301q283 0 283 236q0 247 -311 247h-273q-30 0 -51 9l-4 -4q6 -15 6 -52v-387q0 -38 -6 -53z" />
    <glyph glyph-name="C" unicode="C" horiz-adv-x="1406" 
d="M842 -31q-225 0 -399.5 94t-270.5 264t-96 390q0 164 56 303.5t156 237t242.5 152t311.5 54.5q290 0 504 -159l-113 -160q-184 131 -397 131q-248 0 -404 -155t-156 -404t156 -404t404 -155q213 0 397 131l113 -160q-216 -160 -504 -160z" />
    <glyph glyph-name="D" unicode="D" horiz-adv-x="1413" 
d="M602 1434q333 0 533 -195.5t200 -521.5t-200 -521.5t-533 -195.5h-444v1434h444zM340 1268l-4 -4q6 -15 6 -52v-991q0 -36 -6 -51l4 -4q16 8 51 8h213q248 0 389.5 145t141.5 398t-142.5 398t-388.5 145h-213q-35 0 -51 8z" />
    <glyph glyph-name="E" unicode="E" horiz-adv-x="1054" 
d="M963 1434v-174h-572q-32 0 -51 8l-4 -4q6 -15 6 -54v-292q0 -37 -6 -52l4 -4q19 8 51 8h506v-174h-506q-30 0 -51 9l-4 -5q6 -15 6 -53v-424q0 -38 -6 -53l4 -4q19 8 51 8h582v-174h-815v1434h805z" />
    <glyph glyph-name="F" unicode="F" horiz-adv-x="1021" 
d="M973 1434v-174h-582q-32 0 -51 8l-4 -4q6 -15 6 -54v-321q0 -36 -6 -51l4 -4q19 8 51 8h531v-174h-531q-32 0 -51 8l-4 -4q6 -15 6 -51v-621h-184v1434h815z" />
    <glyph glyph-name="G" unicode="G" horiz-adv-x="1613" 
d="M838 1464q314 0 544 -192l-122 -154q-187 158 -431 158q-163 0 -289.5 -73t-195 -201t-68.5 -289q0 -244 156.5 -399.5t407.5 -155.5q103 0 190 29t145.5 76t100.5 107.5t61.5 123t20.5 122.5l-2 5q-34 -19 -139 -19h-377v174h716v-67q0 -112 -27.5 -218t-85.5 -201
t-141.5 -166t-204 -113t-263.5 -42q-216 0 -388 91t-271 261t-99 390q0 219 95.5 390.5t269 267t397.5 95.5z" />
    <glyph glyph-name="H" unicode="H" horiz-adv-x="1447" 
d="M1290 1434v-1434h-184v625q0 36 6 51l-4 4q-19 -8 -51 -8h-666q-32 0 -51 8l-4 -4q6 -15 6 -51v-625h-184v1434h184v-537q0 -36 -6 -51l4 -4q19 8 51 8h666q32 0 51 -8l4 4q-6 15 -6 51v537h184z" />
    <glyph glyph-name="I" unicode="I" horiz-adv-x="499" 
d="M342 1434v-1434h-184v1434h184z" />
    <glyph glyph-name="J" unicode="J" horiz-adv-x="600" 
d="M442 1434v-1098q0 -179 -72.5 -262.5t-226.5 -83.5q-39 0 -92 6v174q31 -2 74 -2q68 0 100.5 36t32.5 126v1104h184z" />
    <glyph glyph-name="K" unicode="K" horiz-adv-x="1241" 
d="M1161 1434l-504 -555q-44 -49 -68.5 -71t-53.5 -40v-8q11 -6 20 -12.5t15.5 -11.5t17 -15.5t15.5 -16t21.5 -23t24.5 -26.5l582 -655h-252l-647 735l-4 -2q14 -85 14 -239v-494h-184v1434h184v-408q0 -155 -14 -238l4 -4l577 650h252z" />
    <glyph glyph-name="L" unicode="L" horiz-adv-x="1003" 
d="M342 1434v-1211q0 -34 -6 -49l4 -4q14 6 51 6h590v-176h-823v1434h184z" />
    <glyph glyph-name="M" unicode="M" horiz-adv-x="1787" 
d="M885 -18l-340 815q-56 135 -66 229h-8q-5 -134 -33 -231l-221 -795h-192l413 1456h27l387 -942q27 -74 39 -174h8q9 100 39 174l387 942h25l413 -1456h-190l-221 795q-33 115 -33 231h-8q-14 -106 -68 -229l-340 -815h-18z" />
    <glyph glyph-name="N" unicode="N" horiz-adv-x="1492" 
d="M176 1454l873 -928q81 -81 112 -159l8 2q-20 92 -20 258v807h184v-1454h-16l-875 927q-76 79 -112 160l-6 -2q18 -82 18 -256v-809h-184v1454h18z" />
    <glyph glyph-name="O" unicode="O" horiz-adv-x="1646" 
d="M823 1464q214 0 385 -95.5t267 -266.5t96 -385t-96 -385t-267 -267t-385 -96t-385 96t-266.5 267t-95.5 385q0 160 56 299t154.5 237.5t237.5 154.5t299 56zM823 1276q-240 0 -393.5 -156.5t-153.5 -402.5t153.5 -402.5t393.5 -156.5t393.5 156.5t153.5 402.5
t-153.5 402.5t-393.5 156.5z" />
    <glyph glyph-name="P" unicode="P" horiz-adv-x="1105" 
d="M612 1434q205 0 325 -107.5t120 -294.5q0 -185 -116.5 -292t-313.5 -107h-236q-32 0 -51 8l-4 -4q6 -15 6 -51v-586h-184v1434h454zM340 1268l-4 -4q6 -15 6 -54v-354q0 -35 -6 -53l4 -2q21 6 51 6h223q117 0 180.5 60.5t63.5 164.5q0 106 -63.5 167t-180.5 61h-223
q-35 0 -51 8z" />
    <glyph glyph-name="Q" unicode="Q" horiz-adv-x="1640" 
d="M827 -10q-157 0 -296 55.5t-239 152t-158 234t-58 295.5q0 159 55.5 296t153 234t236.5 152t300 55q164 0 303 -54.5t236 -150.5t151 -231.5t54 -292.5q0 -285 -226 -477q-117 -99 -272 -141l2 -8q82 18 118 25.5t92.5 14.5t106.5 7h164v-166h-723zM827 184
q232 0 384.5 154.5t152.5 394.5q0 242 -147 392.5t-396 150.5q-246 0 -395.5 -151.5t-149.5 -397.5q0 -237 156 -390t395 -153z" />
    <glyph glyph-name="R" unicode="R" horiz-adv-x="1214" 
d="M625 1434q197 0 312.5 -105t115.5 -287q0 -84 -32 -155.5t-84 -118t-117 -72.5t-132 -26q-37 0 -70 10v-8q65 -25 132 -107l446 -565h-240l-514 657h-53q-35 0 -49 7l-4 -5q6 -18 6 -53v-606h-184v1434h467zM340 1268l-4 -4q6 -15 6 -54v-329q0 -34 -6 -52l4 -2
q24 7 51 7h234q110 0 170.5 55t60.5 155q0 98 -59.5 157t-171.5 59h-234q-35 0 -51 8z" />
    <glyph glyph-name="S" unicode="S" horiz-adv-x="1009" 
d="M528 1464q183 0 371 -94l-84 -176q-152 84 -291 84q-95 0 -142.5 -37.5t-47.5 -105.5q0 -56 30 -99.5t103 -99.5l244 -184q122 -90 177.5 -180.5t55.5 -209.5q0 -187 -122 -290t-330 -103q-126 0 -245 36.5t-212 96.5l86 172q197 -116 373 -116q121 0 186 53t65 141
q0 65 -38 121t-127 123l-240 184q-105 81 -156 161.5t-51 184.5q0 156 105 247t290 91z" />
    <glyph glyph-name="T" unicode="T" horiz-adv-x="1058" 
d="M1038 1434v-177h-366q-38 0 -54 7l-2 -4q7 -18 7 -50v-1210h-185v1210q0 35 6 50l-4 4q-16 -7 -51 -7h-369v177h1018z" />
    <glyph glyph-name="U" unicode="U" horiz-adv-x="1394" 
d="M1255 1434v-899q0 -260 -151 -412t-406 -152q-256 0 -407.5 152t-151.5 412v899h193v-891q0 -181 98.5 -282t267.5 -101q168 0 266.5 101t98.5 282v891h192z" />
    <glyph glyph-name="V" unicode="V" horiz-adv-x="1290" 
d="M1284 1434l-629 -1454h-20l-631 1454h217l348 -859q48 -118 72 -260h8q19 129 72 260l348 859h215z" />
    <glyph glyph-name="W" unicode="W" horiz-adv-x="1943" 
d="M985 1456l297 -821q41 -114 54 -159.5t20 -108.5h8q7 64 21 114.5t49 151.5l274 801h211l-549 -1457h-20l-334 893q-33 85 -39 181h-8q-10 -100 -39 -181l-336 -893h-21l-548 1457h213l272 -801q35 -101 49 -151.5t21 -114.5h8q9 65 22.5 112.5t51.5 155.5l299 821h24z
" />
    <glyph glyph-name="X" unicode="X" horiz-adv-x="1263" 
d="M1182 1434l-348 -545q-53 -83 -91 -125v-4q33 -41 113 -162l385 -598h-219l-301 475q-76 122 -84 164h-8q-11 -46 -86 -164l-301 -475h-219l385 598q84 126 112 162v4q-39 44 -90 125l-348 545h217l240 -379q79 -124 90 -170h8q8 44 88 170l240 379h217z" />
    <glyph glyph-name="Y" unicode="Y" horiz-adv-x="1136" 
d="M1122 1434l-463 -867v-567h-184v567l-461 867h222l239 -488q51 -107 65.5 -144t24.5 -89h4q4 19 8.5 35.5l7.5 27.5t13.5 34t15 33t22 47.5t26.5 55.5l239 488h221z" />
    <glyph glyph-name="Z" unicode="Z" horiz-adv-x="1193" 
d="M1153 1434l2 -9l-821 -1269l2 -6q23 17 54 23.5t91 6.5h676l-94 -180h-1032l-6 8l827 1270l-4 6q-48 -31 -168 -31h-569l90 181h952z" />
    <glyph glyph-name="bracketleft" unicode="[" horiz-adv-x="700" 
d="M676 1532v-141h-236q-51 0 -75 8l-3 -2q13 -26 13 -70v-1573q0 -43 -13 -69l3 -2q18 8 75 8h236v-142h-467v1983h467z" />
    <glyph glyph-name="backslash" unicode="\" horiz-adv-x="1163" 
d="M180 1550l922 -1669l-117 -63l-924 1667z" />
    <glyph glyph-name="bracketright" unicode="]" horiz-adv-x="700" 
d="M25 1532h467v-1983h-467v142h237q58 0 74 -8l2 2q-10 20 -10 69v1573q0 50 10 70l-2 2q-21 -8 -74 -8h-237v141z" />
    <glyph glyph-name="asciicircum" unicode="^" 
d="M700 1464l297 -659h-145l-238 536l-237 -536h-146l297 659h172z" />
    <glyph glyph-name="underscore" unicode="_" horiz-adv-x="1099" 
d="M1075 -31v-139h-1050v139h1050z" />
    <glyph glyph-name="grave" unicode="`" horiz-adv-x="598" 
d="M301 1448l195 -309l-2 -6h-121l-271 309l2 6h197z" />
    <glyph glyph-name="a" unicode="a" horiz-adv-x="1030" 
d="M510 977q203 0 298 -92.5t95 -288.5v-596h-176q0 78 25 160l-7 4q-52 -95 -137 -145t-194 -50q-157 0 -254 92t-97 242q0 154 96 244t257 90q110 0 195.5 -45t131.5 -127l7 4q-14 45 -17 141q-9 205 -235 205q-120 0 -285 -53l-49 158q177 57 346 57zM473 492
q-101 0 -163 -53t-62 -138q0 -86 61.5 -136t163.5 -50q105 0 174.5 52.5t69.5 135.5q0 82 -69.5 135.5t-174.5 53.5z" />
    <glyph glyph-name="b" unicode="b" horiz-adv-x="1202" 
d="M672 -31q-129 0 -224.5 61t-146.5 175l-8 -2q14 -63 14 -203h-168v1464h174v-501q0 -149 -18 -220l8 -2q50 114 145 175t224 61q204 0 333.5 -141.5t129.5 -362.5t-129.5 -362.5t-333.5 -141.5zM641 133q144 0 227.5 91.5t83.5 248.5t-83.5 248.5t-229.5 91.5
q-148 0 -241 -94.5t-93 -245.5t93.5 -245.5t242.5 -94.5z" />
    <glyph glyph-name="c" unicode="c" horiz-adv-x="964" 
d="M586 -31q-230 0 -374 140t-144 364t144 364t374 140q178 0 323 -96l-84 -148q-116 76 -245 76q-145 0 -236.5 -94t-91.5 -242t91.5 -242t236.5 -94q129 0 245 76l84 -147q-147 -97 -323 -97z" />
    <glyph glyph-name="d" unicode="d" horiz-adv-x="1204" 
d="M530 -31q-203 0 -332.5 141.5t-129.5 362.5t129.5 362.5t332.5 141.5q129 0 224.5 -61t146.5 -175l8 2q-18 71 -18 220v501h172v-1464h-168q0 140 14 203l-8 2q-51 -114 -146.5 -175t-224.5 -61zM561 133q149 0 243.5 94.5t94.5 245.5q0 150 -94 245t-242 95
q-144 0 -227.5 -91.5t-83.5 -248.5t83.5 -248.5t225.5 -91.5z" />
    <glyph glyph-name="e" unicode="e" horiz-adv-x="1071" 
d="M551 977q209 0 329.5 -134t120.5 -366v-35h-647q-82 0 -112 15l-4 -4l8 -23q12 -140 95.5 -217.5t221.5 -77.5q91 0 162 35.5t143 116.5l109 -113q-163 -205 -416 -205q-223 0 -358 137t-135 363q0 230 131.5 369t351.5 139zM545 819q-125 0 -204.5 -69.5t-92.5 -190.5
l2 -2q41 18 106 18h326q104 0 135 -16l2 2q-9 123 -80.5 190.5t-193.5 67.5z" />
    <glyph glyph-name="f" unicode="f" horiz-adv-x="661" 
d="M606 1452v-162h-16q-93 0 -141 -49t-48 -164v-78q-5 -54 -8 -63l4 -4q22 14 80 14h127v-164h-127q-60 0 -80 15l-4 -4q8 -31 8 -99v-694h-172v694q0 64 9 99l-5 4q-20 -15 -79 -15h-103v164h103q57 0 79 -14l5 4q-9 24 -9 61v66q0 107 30.5 185.5t82.5 121t110.5 62.5
t125.5 20h28z" />
    <glyph glyph-name="g" unicode="g" horiz-adv-x="1189" 
d="M530 977q129 0 223.5 -61t145.5 -175l8 2q-18 55 -18 203h172v-913q0 -235 -128.5 -354t-383.5 -119q-242 0 -416 112l84 156q166 -102 336 -102q155 0 247.5 76t92.5 204v45q0 86 14 152l-8 2q-53 -114 -147.5 -174t-221.5 -60q-204 0 -333 140t-129 362
q0 223 129 363.5t333 140.5zM563 813q-144 0 -227.5 -91.5t-83.5 -248.5q0 -158 83 -249t226 -91q149 0 243.5 94.5t94.5 245.5q0 150 -94 245t-242 95z" />
    <glyph glyph-name="h" unicode="h" horiz-adv-x="1128" 
d="M313 1464v-526q0 -123 -20 -217l8 -2q99 258 358 258q162 0 251 -97t89 -272v-608h-172v563q0 120 -58 184t-167 64q-137 0 -213 -96t-76 -269v-446h-174v1464h174z" />
    <glyph glyph-name="i" unicode="i" horiz-adv-x="452" 
d="M326 1434v-269h-197v269h197zM313 946v-946h-174v946h174z" />
    <glyph glyph-name="j" unicode="j" horiz-adv-x="452" 
d="M326 1434v-269h-197v269h197zM313 946v-1016q0 -189 -90 -279.5t-258 -90.5h-14v170h14q174 0 174 200v1016h174z" />
    <glyph glyph-name="k" unicode="k" horiz-adv-x="980" 
d="M313 1464v-737q0 -129 -16 -197l6 -2l385 418h232l-349 -352q-64 -64 -96 -78l2 -8q29 -12 92 -72l408 -436h-234l-440 485l-6 -4q16 -65 16 -194v-287h-174v1464h174z" />
    <glyph glyph-name="l" unicode="l" horiz-adv-x="452" 
d="M313 1464v-1464h-174v1464h174z" />
    <glyph glyph-name="m" unicode="m" horiz-adv-x="1662" 
d="M137 0v946h174q0 -124 -22 -217l8 -4q40 129 116.5 190.5t198.5 61.5q236 0 289 -240h8q26 114 109 177t205 63q150 0 230.5 -95t80.5 -270v-612h-172v561q0 127 -51 188.5t-156 61.5q-235 0 -235 -332v-479h-168v561q0 128 -50.5 189t-156.5 61q-234 0 -234 -332v-479
h-174z" />
    <glyph glyph-name="n" unicode="n" horiz-adv-x="1126" 
d="M653 977q166 0 255 -96t89 -273v-608h-172v563q0 120 -58 184t-167 64q-137 0 -213 -96t-76 -269v-446h-174v946h174q0 -144 -20 -241l8 -3q95 275 354 275z" />
    <glyph glyph-name="o" unicode="o" horiz-adv-x="1167" 
d="M584 977q224 0 369 -142.5t145 -361.5t-145 -361.5t-369 -142.5t-370 143t-146 361t146 361t370 143zM584 807q-148 0 -240 -92.5t-92 -241.5t92 -241.5t240 -92.5t239.5 92.5t91.5 241.5t-91.5 241.5t-239.5 92.5z" />
    <glyph glyph-name="p" unicode="p" horiz-adv-x="1200" 
d="M670 977q204 0 333.5 -141.5t129.5 -362.5t-129.5 -362.5t-333.5 -141.5q-127 0 -222.5 61t-148.5 175l-8 -2q20 -70 20 -201v-412h-174v1356h168q0 -144 -12 -205l8 -2q53 116 147.5 177t221.5 61zM637 813q-148 0 -241 -94.5t-93 -245.5t93.5 -245.5t242.5 -94.5
q144 0 227.5 91.5t83.5 248.5t-84 248.5t-229 91.5z" />
    <glyph glyph-name="q" unicode="q" horiz-adv-x="1202" 
d="M530 977q129 0 223.5 -61t147.5 -177l8 2q-14 57 -14 205h168v-1356h-172v412q0 128 18 201l-8 2q-53 -115 -148 -175.5t-223 -60.5q-203 0 -332.5 141.5t-129.5 362.5t129.5 362.5t332.5 141.5zM563 813q-144 0 -227.5 -91.5t-83.5 -248.5t83.5 -248.5t225.5 -91.5
q149 0 243.5 94.5t94.5 245.5q0 150 -94 245t-242 95z" />
    <glyph glyph-name="r" unicode="r" horiz-adv-x="702" 
d="M627 975q27 0 45 -2v-199q-35 4 -70 4q-142 0 -216.5 -96.5t-74.5 -278.5v-403h-174v946h174q0 -143 -24 -270l10 -4q70 303 330 303z" />
    <glyph glyph-name="s" unicode="s" horiz-adv-x="847" 
d="M432 -31q-217 0 -389 107l80 153q154 -96 313 -96q170 0 170 109q0 37 -26.5 66.5t-87.5 56.5l-173 84q-104 50 -154 115.5t-50 154.5q0 122 86.5 190t242.5 68q160 0 324 -74l-72 -151q-141 63 -256 63q-141 0 -141 -92q0 -39 28 -69t93 -60l174 -82q104 -49 150.5 -112
t46.5 -152q0 -132 -94.5 -205.5t-264.5 -73.5z" />
    <glyph glyph-name="t" unicode="t" horiz-adv-x="636" 
d="M399 1452v-420q0 -65 -8 -96l6 -4q22 14 78 14h109v-164h-109q-58 0 -78 15l-6 -4q8 -31 8 -99v-694h-172v694q0 64 9 99l-5 4q-20 -15 -79 -15h-99v164h99q57 0 79 -14l5 4q-9 35 -9 96v297l162 123h10z" />
    <glyph glyph-name="u" unicode="u" horiz-adv-x="1073" 
d="M946 946v-946h-170q0 137 21 223l-9 2q-46 -130 -128 -193t-209 -63q-159 0 -246.5 103t-87.5 290v584h178v-555q0 -124 57.5 -190t163.5 -66q123 0 190.5 96t67.5 269v446h172z" />
    <glyph glyph-name="v" unicode="v" horiz-adv-x="989" 
d="M969 946l-449 -958h-49l-451 958h203l195 -461q41 -100 53.5 -136t22.5 -91h4q9 57 21.5 94t53.5 133l193 461h203z" />
    <glyph glyph-name="w" unicode="w" horiz-adv-x="1445" 
d="M408 -12l-388 958h197l172 -473q22 -63 30 -95.5t11 -76.5h8q4 28 12 56t15.5 46.5t30.5 71.5l206 488h43l205 -488q23 -53 30.5 -71.5t15.5 -46.5t12 -56h8q4 62 43 172l172 473h194l-385 -958h-45l-225 518q-39 93 -43 147h-8q-5 -61 -43 -147l-225 -518h-43z" />
    <glyph glyph-name="x" unicode="x" horiz-adv-x="1003" 
d="M20 0l316 430q3 4 13 17l15 19.5t13 14t14 11.5v6q-19 11 -53 59l-279 389h207l156 -219q39 -58 54.5 -87.5t21.5 -61.5h8q6 32 21.5 61.5t54.5 87.5l155 219h205l-276 -389q-34 -48 -56 -59v-6q16 -8 58 -62l315 -430h-207l-196 266q-36 49 -52 79t-22 63h-8
q-12 -59 -74 -142l-199 -266h-205z" />
    <glyph glyph-name="y" unicode="y" horiz-adv-x="997" 
d="M977 946l-580 -1358h-180l205 475l-402 883h199l232 -545q25 -59 36.5 -99t14.5 -91h8q2 72 41 166l237 569h189z" />
    <glyph glyph-name="z" unicode="z" horiz-adv-x="927" 
d="M20 0l-6 10l609 799l-5 4q-40 -21 -77 -27t-117 -6h-354l104 166h733l4 -8l-600 -799l4 -6q36 21 76 27t133 6h385l-104 -166h-785z" />
    <glyph glyph-name="braceleft" unicode="{" horiz-adv-x="788" 
d="M215 559q149 -13 217 -89t68 -224v-332q0 -116 51 -164.5t172 -48.5h41v-152h-68q-360 0 -360 357v356q0 105 -60.5 154t-199.5 55v184q139 6 199.5 55t60.5 154v312q0 180 89 268t271 88h68v-152h-41q-120 0 -171.5 -49t-51.5 -166v-284q0 -149 -68.5 -225t-216.5 -89
v-8z" />
    <glyph glyph-name="bar" unicode="|" horiz-adv-x="608" 
d="M229 -440v1929h148v-1929h-148z" />
    <glyph glyph-name="braceright" unicode="}" horiz-adv-x="788" 
d="M573 559v8q-148 13 -216 89t-68 225v284q0 116 -52 165.5t-171 49.5h-41v152h67q361 0 361 -356v-312q0 -105 60.5 -154t199.5 -55v-184q-139 -6 -199.5 -55t-60.5 -154v-356q0 -357 -361 -357h-67v152h41q120 0 171.5 48.5t51.5 164.5v332q0 149 68 224.5t216 88.5z" />
    <glyph glyph-name="asciitilde" unicode="~" 
d="M395 750q54 0 104.5 -14t90.5 -34t79 -40t83.5 -34t89.5 -14q67 0 117 26.5t112 80.5l88 -121q-160 -141 -323 -141q-66 0 -130 21t-106.5 45.5t-99.5 45.5t-111 21q-68 0 -118 -26t-113 -79l-88 119q166 144 325 144z" />
    <glyph glyph-name="exclamdown" unicode="&#xa1;" horiz-adv-x="618" 
d="M201 989h217v-233h-217v233zM248 561h121l47 -1005h-213z" />
    <glyph glyph-name="cent" unicode="&#xa2;" horiz-adv-x="999" 
d="M571 -135v43q0 58 9 72l-5 2q-15 -12 -65 -5q-185 25 -299.5 163t-114.5 337q0 198 116.5 332.5t311.5 163.5q42 4 56 -8l2 2q-11 19 -11 71v45h62v-45q0 -50 -8 -71l2 -2q24 14 57 8q146 -19 250 -94l-84 -146q-80 54 -174 68q-36 5 -49 18l-2 -2q8 -21 8 -74v-534
q0 -56 -12 -78l2 -2q16 13 59 18q89 16 168 68l84 -147q-46 -34 -114 -60.5t-126 -32.5q-54 -4 -67 7l-2 -2q8 -10 8 -72v-43h-62zM578 127l2 2q-9 38 -9 80v534q0 60 11 74l-2 2q-10 -6 -33 -13t-27 -9q-116 -31 -180 -116t-64 -206q0 -123 65 -211t177 -114q45 -11 60 -23
z" />
    <glyph glyph-name="sterling" unicode="&#xa3;" horiz-adv-x="1107" 
d="M709 -29q-75 0 -178.5 37t-147.5 37q-59 0 -172 -55l-88 145q111 63 173 149t62 185q0 58 -19 109t-71 149h-182v61h102q44 0 62 -12l2 2q-20 20 -39 58q-33 97 -33 192q0 174 118.5 279.5t315.5 105.5q196 0 367 -113l-96 -153q-128 96 -273 96q-113 0 -181.5 -61.5
t-68.5 -161.5q0 -90 74 -232h404v-61h-308q-47 0 -77 12v-2q38 -58 61 -127.5t23 -128.5q0 -85 -46 -152t-141 -143l4 -6q52 19 95 19q52 0 122 -29t123 -29q136 0 254 127l90 -147q-153 -150 -331 -150z" />
    <glyph glyph-name="currency" unicode="&#xa4;" 
d="M975 983q117 -130 117 -319q0 -190 -117 -320l117 -119l-41 -39l-117 117q-127 -115 -320 -115q-187 0 -321 115l-117 -117l-39 41l117 117q-117 130 -117 320q0 189 117 319l-117 117l41 41l117 -117q127 115 319 115q193 0 320 -115l117 117l41 -41zM614 344
q140 0 227 89t87 231t-87 230.5t-227 88.5q-141 0 -228 -89t-87 -230q0 -142 87.5 -231t227.5 -89z" />
    <glyph glyph-name="yen" unicode="&#xa5;" horiz-adv-x="1138" 
d="M483 0v479h-368v62h305q24 0 57 -9l2 3q-22 24 -30 38l-39 82h-295v62h219q28 0 57 -8l2 2q-16 16 -31 41l-307 630h201l260 -585q40 -88 49 -152h8q9 60 50 152l258 585h202l-307 -630q-12 -20 -31 -41l3 -2q27 8 57 8h219v-62h-295l-41 -82q-4 -10 -29 -38l3 -3
q33 9 55 9h307v-62h-371v-479h-170z" />
    <glyph glyph-name="brokenbar" unicode="&#xa6;" horiz-adv-x="608" 
d="M229 684v805h148v-805h-148zM377 373v-813h-148v813h148z" />
    <glyph glyph-name="section" unicode="&#xa7;" horiz-adv-x="1110" 
d="M813 225q115 -93 115 -237q0 -140 -100.5 -226t-288.5 -86q-220 0 -426 136l96 147q172 -117 342 -117q99 0 151 39.5t52 104.5q0 47 -28 84t-74 61.5t-104.5 50t-119.5 47.5t-119.5 55.5t-104.5 72.5t-74 100t-28 137q0 207 195 321q-115 93 -115 236q0 141 100.5 227
t288.5 86q217 0 426 -135l-96 -147q-171 116 -342 116q-100 0 -151.5 -39t-51.5 -104q0 -53 36 -94t93.5 -68.5t127 -53.5t139 -58.5t127 -73.5t93.5 -107.5t36 -152.5q0 -110 -54 -190.5t-141 -131.5zM276 612q0 -42 18 -78t44 -60.5t70.5 -49.5t81.5 -40t94 -39t92 -40
q158 91 158 223q0 42 -18 77.5t-44 60t-71 49.5t-81 40.5t-94 39t-92 39.5q-65 -35 -111.5 -90.5t-46.5 -131.5z" />
    <glyph glyph-name="dieresis" unicode="&#xa8;" horiz-adv-x="722" 
d="M268 1434v-250h-166v250h166zM621 1434v-250h-166v250h166z" />
    <glyph glyph-name="copyright" unicode="&#xa9;" horiz-adv-x="1703" 
d="M852 -31q-157 0 -295 57t-237 156t-156.5 238t-57.5 297q0 211 97.5 382t268.5 268t380 97q157 0 295 -57t237 -155.5t156 -237.5t57 -297t-57 -297t-156 -238t-237 -156t-295 -57zM852 72q180 0 326.5 83t229.5 230.5t83 331.5t-83 331.5t-229.5 230.5t-326.5 83
t-326 -83t-228.5 -230.5t-82.5 -331.5t82.5 -331.5t228.5 -230.5t326 -83zM860 262q-205 0 -339 132t-134 333t134 333t339 132q169 0 309 -100l-67 -123q-128 80 -248 80q-141 0 -228 -88.5t-87 -233.5q0 -146 87 -235t228 -89q120 0 248 80l67 -123q-137 -98 -309 -98z
" />
    <glyph glyph-name="ordfeminine" unicode="&#xaa;" horiz-adv-x="806" 
d="M330 692q-109 0 -176.5 61t-67.5 162q0 100 70 160t184 60q162 0 231 -136l4 5q-10 41 -10 100q0 60 -38.5 93.5t-116.5 33.5q-62 0 -203 -31l-31 125q143 35 252 35q149 0 221 -61.5t72 -198.5v-387h-160q0 68 19 129l-7 4q-32 -72 -93.5 -113t-149.5 -41zM393 815
q62 0 102 29.5t40 79.5t-40 79t-102 29t-98.5 -29.5t-36.5 -78.5q0 -51 36.5 -80t98.5 -29z" />
    <glyph glyph-name="guillemotleft" unicode="&#xab;" horiz-adv-x="884" 
d="M528 858v-8l-174 -234q-62 -85 -85.5 -112.5t-41.5 -40.5v-4q18 -12 41 -40t86 -114l174 -233v-9h-186l-297 398l297 397h186zM858 858v-8l-174 -234q-62 -85 -85.5 -112.5t-41.5 -40.5v-4q18 -12 41 -40t86 -114l174 -233v-9h-186l-297 398l297 397h186z" />
    <glyph glyph-name="logicalnot" unicode="&#xac;" 
d="M145 885h938v-90v-453h-94v453h-844v90z" />
    <glyph glyph-name="uni00AD" unicode="&#xad;" horiz-adv-x="794" 
d="M696 635v-168h-600v168h600z" />
    <glyph glyph-name="registered" unicode="&#xae;" horiz-adv-x="1097" 
d="M551 1464q201 0 336 -136t135 -341q0 -204 -135 -339.5t-336 -135.5q-204 0 -338.5 135.5t-134.5 339.5q0 206 134.5 341.5t338.5 135.5zM551 1380q-165 0 -274 -111.5t-109 -281.5q0 -168 109 -278.5t274 -110.5q163 0 272 111t109 278q0 170 -109 281.5t-272 111.5z
M584 1270q73 0 117 -41t44 -111q0 -68 -41.5 -109.5t-109.5 -41.5v-2q23 -8 45 -39l131 -166v-10h-102l-162 215h-37v-215h-86v520h201zM573 1190h-104v-146h104q39 0 60.5 18.5t21.5 53.5q0 36 -21.5 55t-60.5 19z" />
    <glyph glyph-name="macron" unicode="&#xaf;" horiz-adv-x="790" 
d="M688 1368v-127h-586v127h586z" />
    <glyph glyph-name="degree" unicode="&#xb0;" horiz-adv-x="731" 
d="M367 1413q121 0 199.5 -77.5t78.5 -202.5q0 -124 -78.5 -201.5t-199.5 -77.5q-122 0 -201.5 77.5t-79.5 201.5q0 125 79 202.5t202 77.5zM367 1327q-81 0 -137 -54t-56 -140q0 -85 56 -139t137 -54q83 0 137.5 54t54.5 139q0 87 -54.5 140.5t-137.5 53.5z" />
    <glyph glyph-name="plusminus" unicode="&#xb1;" 
d="M662 1069v-285h442v-90h-442v-284h-95v284h-442v90h442v285h95zM1104 317v-88h-979v88h979z" />
    <glyph glyph-name="uni00B2" unicode="&#xb2;" horiz-adv-x="815" 
d="M33 713l-6 10l415 471q99 114 99 190q0 55 -39 87t-101 32q-104 0 -233 -96l-78 127q166 113 330 113q132 0 207 -65.5t75 -180.5q0 -74 -34 -141.5t-107 -147.5l-170 -188q-41 -45 -86 -80v-4q41 14 107 14h327l2 -2l-84 -139h-624z" />
    <glyph glyph-name="uni00B3" unicode="&#xb3;" horiz-adv-x="804" 
d="M381 694q-75 0 -158.5 16.5t-146.5 45.5l55 145q129 -63 244 -63q211 0 211 145q0 76 -71 110.5t-247 34.5v140q121 0 190.5 32.5t69.5 94.5q0 51 -38.5 79.5t-110.5 28.5q-103 0 -236 -65l-61 135q168 74 321 74q137 0 213 -58.5t76 -161.5q0 -61 -33.5 -112.5
t-99.5 -81.5q-42 -14 -92 -16v-7q46 0 92 -12q182 -48 182 -223q0 -134 -93.5 -207.5t-266.5 -73.5z" />
    <glyph glyph-name="acute" unicode="&#xb4;" horiz-adv-x="598" 
d="M494 1448l2 -6l-271 -309h-121l-2 6l191 309h201z" />
    <glyph glyph-name="uni00B5" unicode="&#xb5;" horiz-adv-x="1073" 
d="M774 946h172v-946h-170q0 137 21 223l-9 2q-46 -130 -128 -193t-209 -63q-102 0 -172 43v-422h-162v973v383h178v-555q0 -124 57.5 -190t163.5 -66q123 0 190.5 96t67.5 269v446z" />
    <glyph glyph-name="paragraph" unicode="&#xb6;" horiz-adv-x="1247" 
d="M1145 1434v-131h-121v-1520h-139v1520h-246v-1520h-139v852q-170 0 -284 113t-114 294q0 177 118.5 284.5t299.5 107.5h625z" />
    <glyph glyph-name="periodcentered" unicode="&#xb7;" horiz-adv-x="423" 
d="M102 713v233h220v-233h-220z" />
    <glyph glyph-name="cedilla" unicode="&#xb8;" horiz-adv-x="505" 
d="M270 49l-45 -123q81 -23 129.5 -57t48.5 -92q0 -32 -18 -62.5t-41.5 -52t-66 -47t-70.5 -39t-76 -35.5l-29 60q103 59 127 80q31 27 31 53q0 55 -149 88l84 227h75z" />
    <glyph glyph-name="uni00B9" unicode="&#xb9;" horiz-adv-x="573" 
d="M266 713v555q0 58 13 98l-5 4q-21 -25 -49 -37l-135 -65v147l184 121l27 90h119v-913h-154z" />
    <glyph glyph-name="ordmasculine" unicode="&#xba;" horiz-adv-x="880" 
d="M440 1360q154 0 254.5 -91.5t100.5 -242.5t-100.5 -242.5t-254.5 -91.5t-254 91.5t-100 242.5t100 242.5t254 91.5zM440 1219q-83 0 -139.5 -52.5t-56.5 -140.5t56.5 -140t139.5 -52t140 52t57 140t-57 140.5t-140 52.5z" />
    <glyph glyph-name="guillemotright" unicode="&#xbb;" horiz-adv-x="882" 
d="M25 858h188l295 -397l-295 -398h-188v9l174 233q63 86 86 114t41 40v4q-18 13 -41.5 40.5t-85.5 112.5l-174 234v8zM354 858h187l297 -397l-297 -398h-187v9l174 233q63 86 86 114t41 40v4q-18 13 -41.5 40.5t-85.5 112.5l-174 234v8z" />
    <glyph glyph-name="onequarter" unicode="&#xbc;" horiz-adv-x="1441" 
d="M246 592v514q0 48 14 76l-4 4q-10 -12 -45 -29l-131 -65v98l170 102l20 90h70v-790h-94zM182 0l809 1382h101l-809 -1382h-101zM1147 0v111q0 26 4 36l-2 3q-13 -5 -35 -5h-401v76l424 570h104v-519q0 -31 -4 -41h2q20 5 29 5h102l-37 -91h-65q-19 0 -29 5l-2 -3
q4 -8 4 -32v-115h-94zM831 229q17 7 60 7h209q26 0 51 -7l4 2q-8 16 -8 48v296q0 74 6 97l-4 2q-4 -9 -8 -16.5t-8.5 -13.5t-13 -17.5t-15.5 -22.5l-242 -334q-22 -28 -33 -37z" />
    <glyph glyph-name="onehalf" unicode="&#xbd;" horiz-adv-x="1452" 
d="M246 592v514q0 48 14 76l-4 4q-10 -12 -45 -29l-131 -65v98l170 102l20 90h70v-790h-94zM182 0l809 1382h101l-809 -1382h-101zM809 0l-6 10l325 391q1 1 16 19.5t19.5 24.5t18 24.5t19 30.5t14 30t11.5 35t3 35q0 54 -36.5 84.5t-96.5 30.5q-95 0 -215 -74l-43 84
q138 84 264 84q105 0 167 -53t62 -146q0 -67 -32 -127.5t-103 -144.5l-158 -191q-37 -43 -77 -67l2 -6q35 14 92 14h305l2 -4l-53 -84h-500z" />
    <glyph glyph-name="threequarters" unicode="&#xbe;" horiz-adv-x="1658" 
d="M350 573q-137 0 -244 52l41 92q100 -49 201 -49q87 0 135.5 37t48.5 110q0 74 -63 111t-215 37v92q118 0 181 36.5t63 102.5q0 54 -38 82.5t-110 28.5q-90 0 -200 -58l-44 86q132 68 256 68q116 0 178 -50.5t62 -142.5q0 -80 -53 -132t-152 -58v-6q238 -6 238 -201
q0 -115 -74 -176.5t-211 -61.5zM399 0l809 1382h101l-809 -1382h-101zM1364 0v111q0 26 4 36l-2 3q-13 -5 -35 -5h-401v76l424 570h104v-519q0 -31 -4 -41h2q20 5 29 5h102l-37 -91h-65q-19 0 -29 5l-2 -3q4 -8 4 -32v-115h-94zM1049 229q17 7 59 7h209q27 0 51 -7l4 2
q-8 16 -8 48v296q0 74 6 97l-4 2q-4 -9 -8 -16.5t-8.5 -13.5t-13 -17.5t-15.5 -22.5l-242 -334q-23 -30 -32 -37z" />
    <glyph glyph-name="questiondown" unicode="&#xbf;" horiz-adv-x="700" 
d="M449 1024v-233h-218v233h218zM342 -440q-149 0 -233 73t-84 193q0 145 116 254l109 102q40 39 58 69.5t18 65.5q0 49 -34 85.5t-108 82.5l95 142q45 -26 78.5 -51t71.5 -63.5t58.5 -88.5t20.5 -107q0 -123 -117 -231l-106 -98q-80 -73 -80 -142q0 -56 40.5 -88t108.5 -32
q118 0 267 100l75 -148q-180 -118 -354 -118z" />
    <glyph glyph-name="Agrave" unicode="&#xc0;" horiz-adv-x="1404" 
d="M584 1747l180 -221l-2 -4h-119l-260 219l2 6h199zM23 0l669 1464h21l669 -1464h-206l-179 401h-589l-179 -401h-206zM459 555q36 4 114 4h258q79 0 115 -4l2 2q-28 35 -63 117l-127 299q-45 116 -51 168h-9q-6 -52 -51 -168l-127 -299q-35 -82 -63 -117z" />
    <glyph glyph-name="Aacute" unicode="&#xc1;" horiz-adv-x="1404" 
d="M1020 1747l2 -6l-258 -219h-121l-2 4l180 221h199zM23 0l669 1464h21l669 -1464h-206l-179 401h-589l-179 -401h-206zM459 555q36 4 114 4h258q79 0 115 -4l2 2q-28 35 -63 117l-127 299q-45 116 -51 168h-9q-6 -52 -51 -168l-127 -299q-35 -82 -63 -117z" />
    <glyph glyph-name="Acircumflex" unicode="&#xc2;" horiz-adv-x="1404" 
d="M373 1522v8l233 237h191l233 -237v-8h-162l-65 65q-51 49 -70 73.5t-28 53.5h-7q-7 -28 -25.5 -51.5t-70.5 -75.5l-67 -65h-162zM23 0l669 1464h21l669 -1464h-206l-179 401h-589l-179 -401h-206zM459 555q36 4 114 4h258q79 0 115 -4l2 2q-28 35 -63 117l-127 299
q-45 116 -51 168h-9q-6 -52 -51 -168l-127 -299q-35 -82 -63 -117z" />
    <glyph glyph-name="Atilde" unicode="&#xc3;" horiz-adv-x="1404" 
d="M434 1530l-76 22q56 195 209 195q55 0 174 -40t164 -40q36 0 59.5 18.5t45.5 57.5l73 -23q-56 -194 -206 -194q-57 0 -175.5 40t-162.5 40q-37 0 -60 -18t-45 -58zM23 0l669 1464h21l669 -1464h-206l-179 401h-589l-179 -401h-206zM459 555q36 4 114 4h258q79 0 115 -4
l2 2q-28 35 -63 117l-127 299q-45 116 -51 168h-9q-6 -52 -51 -168l-127 -299q-35 -82 -63 -117z" />
    <glyph glyph-name="Adieresis" unicode="&#xc4;" horiz-adv-x="1404" 
d="M446 1747h166v-225h-166v225zM793 1747h165v-225h-165v225zM23 0l669 1464h21l669 -1464h-206l-179 401h-589l-179 -401h-206zM459 555q36 4 114 4h258q79 0 115 -4l2 2q-28 35 -63 117l-127 299q-45 116 -51 168h-9q-6 -52 -51 -168l-127 -299q-35 -82 -63 -117z" />
    <glyph glyph-name="Aring" unicode="&#xc5;" horiz-adv-x="1404" 
d="M745 1391l637 -1391h-206l-179 401h-589l-179 -401h-206l636 1391q-85 12 -137.5 73t-52.5 150q0 100 66 164.5t167 64.5t167.5 -64.5t66.5 -164.5q0 -89 -53 -150t-138 -73zM565 1614q0 -60 38 -98.5t99 -38.5t99.5 38.5t38.5 98.5q0 62 -38.5 100.5t-99.5 38.5
t-99 -38.5t-38 -100.5zM946 555l2 2q-28 35 -63 117l-127 299q-45 116 -51 168h-9q-6 -52 -51 -168l-127 -299q-35 -82 -63 -117l2 -2q36 4 114 4h258q79 0 115 -4z" />
    <glyph glyph-name="AE" unicode="&#xc6;" horiz-adv-x="1873" 
d="M1264 176h520v-176h-746v352q0 36 6 54l-2 2q-24 -7 -53 -7h-485l-260 -401h-221l946 1434h807v-177h-512q-33 0 -54 9l-2 -4q6 -15 6 -52v-292q0 -37 -6 -52l2 -4q19 8 54 8h460v-176h-460q-35 0 -54 8l-2 -4q6 -15 6 -51v-424q0 -36 -6 -51l2 -4q19 8 54 8zM1044 555
q-6 18 -6 51v535q0 60 13 149h-2q-27 -74 -72 -147l-322 -502q-18 -27 -25.5 -37.5t-21 -25.5t-30.5 -27l2 -2q35 10 102 10h307q35 0 53 -6z" />
    <glyph glyph-name="Ccedilla" unicode="&#xc7;" horiz-adv-x="1406" 
d="M1346 129q-206 -151 -469 -160l-17 -43q81 -23 129.5 -57t48.5 -92q0 -32 -18 -62.5t-41.5 -52t-66 -47t-70.5 -39t-76 -35.5l-29 60q103 59 127 80q31 27 31 53q0 55 -150 88l56 147q-326 14 -525.5 220t-199.5 528q0 164 56 303.5t156 237t242.5 152t311.5 54.5
q290 0 504 -159l-113 -160q-184 131 -397 131q-248 0 -404 -155t-156 -404t156 -404t404 -155q213 0 397 131z" />
    <glyph glyph-name="Egrave" unicode="&#xc8;" horiz-adv-x="1054" 
d="M469 1747l180 -221l-2 -4h-119l-260 219l2 6h199zM963 1434v-174h-572q-32 0 -51 8l-4 -4q6 -15 6 -54v-292q0 -37 -6 -52l4 -4q19 8 51 8h506v-174h-506q-30 0 -51 9l-4 -5q6 -15 6 -53v-424q0 -38 -6 -53l4 -4q19 8 51 8h582v-174h-815v1434h805z" />
    <glyph glyph-name="Eacute" unicode="&#xc9;" horiz-adv-x="1054" 
d="M903 1747l2 -6l-258 -219h-121l-2 4l181 221h198zM963 1434v-174h-572q-32 0 -51 8l-4 -4q6 -15 6 -54v-292q0 -37 -6 -52l4 -4q19 8 51 8h506v-174h-506q-30 0 -51 9l-4 -5q6 -15 6 -53v-424q0 -38 -6 -53l4 -4q19 8 51 8h582v-174h-815v1434h805z" />
    <glyph glyph-name="Ecircumflex" unicode="&#xca;" horiz-adv-x="1054" 
d="M258 1522v8l234 237h190l233 -237v-8h-161l-66 65q-51 49 -70 73.5t-28 53.5h-6q-7 -28 -25.5 -51t-71.5 -76l-67 -65h-162zM963 1434v-174h-572q-32 0 -51 8l-4 -4q6 -15 6 -54v-292q0 -37 -6 -52l4 -4q19 8 51 8h506v-174h-506q-30 0 -51 9l-4 -5q6 -15 6 -53v-424
q0 -38 -6 -53l4 -4q19 8 51 8h582v-174h-815v1434h805z" />
    <glyph glyph-name="Edieresis" unicode="&#xcb;" horiz-adv-x="1054" 
d="M332 1747h166v-225h-166v225zM678 1747h166v-225h-166v225zM963 1434v-174h-572q-32 0 -51 8l-4 -4q6 -15 6 -54v-292q0 -37 -6 -52l4 -4q19 8 51 8h506v-174h-506q-30 0 -51 9l-4 -5q6 -15 6 -53v-424q0 -38 -6 -53l4 -4q19 8 51 8h582v-174h-815v1434h805z" />
    <glyph glyph-name="Igrave" unicode="&#xcc;" horiz-adv-x="499" 
d="M131 1747l180 -221l-2 -4h-119l-260 219l2 6h199zM342 1434v-1434h-184v1434h184z" />
    <glyph glyph-name="Iacute" unicode="&#xcd;" horiz-adv-x="499" 
d="M567 1747l2 -6l-258 -219h-121l-2 4l181 221h198zM342 1434v-1434h-184v1434h184z" />
    <glyph glyph-name="Icircumflex" unicode="&#xce;" horiz-adv-x="499" 
d="M-80 1522v8l234 237h190l234 -237v-8h-162l-66 65q-51 49 -70 73.5t-28 53.5h-6q-7 -28 -25.5 -51.5t-70.5 -75.5l-68 -65h-162zM342 1434v-1434h-184v1434h184z" />
    <glyph glyph-name="Idieresis" unicode="&#xcf;" horiz-adv-x="499" 
d="M-6 1747h166v-225h-166v225zM340 1747h166v-225h-166v225zM342 1434v-1434h-184v1434h184z" />
    <glyph glyph-name="Eth" unicode="&#xd0;" horiz-adv-x="1460" 
d="M662 1434q154 0 285.5 -50t226.5 -141t148.5 -226.5t53.5 -299.5t-53.5 -299.5t-148.5 -226.5t-226.5 -141t-285.5 -50h-449v604q0 33 6 51l-2 2q-21 -6 -53 -6h-160v154h160q39 0 53 -6l2 4q-6 15 -6 49v582h449zM657 174q151 0 266.5 60.5t184 185t68.5 297.5
q0 258 -144.5 400.5t-374.5 142.5h-211q-32 0 -51 8l-4 -4q6 -15 6 -52v-360q0 -34 -6 -49l4 -4q14 6 51 6h345v-154h-345q-30 0 -51 6l-4 -2q6 -18 6 -51v-383q0 -36 -6 -51l4 -4q19 8 51 8h211z" />
    <glyph glyph-name="Ntilde" unicode="&#xd1;" horiz-adv-x="1492" 
d="M492 1530l-76 22q56 195 209 195q54 0 173 -40t165 -40q36 0 59 18t45 58l74 -23q-56 -194 -207 -194q-57 0 -175.5 40t-162.5 40q-37 0 -59.5 -18t-44.5 -58zM176 1454l873 -928q81 -81 112 -159l8 2q-20 92 -20 258v807h184v-1454h-16l-875 927q-76 79 -112 160l-6 -2
q18 -82 18 -256v-809h-184v1454h18z" />
    <glyph glyph-name="Ograve" unicode="&#xd2;" horiz-adv-x="1646" 
d="M705 1747l180 -221l-2 -4h-119l-260 219l2 6h199zM823 1464q214 0 385 -95.5t267 -266.5t96 -385t-96 -385t-267 -267t-385 -96t-385 96t-266.5 267t-95.5 385q0 160 56 299t154.5 237.5t237.5 154.5t299 56zM823 1276q-240 0 -393.5 -156.5t-153.5 -402.5t153.5 -402.5
t393.5 -156.5t393.5 156.5t153.5 402.5t-153.5 402.5t-393.5 156.5z" />
    <glyph glyph-name="Oacute" unicode="&#xd3;" horiz-adv-x="1646" 
d="M1141 1747l2 -6l-258 -219h-121l-2 4l180 221h199zM823 1464q214 0 385 -95.5t267 -266.5t96 -385t-96 -385t-267 -267t-385 -96t-385 96t-266.5 267t-95.5 385q0 160 56 299t154.5 237.5t237.5 154.5t299 56zM823 1276q-240 0 -393.5 -156.5t-153.5 -402.5t153.5 -402.5
t393.5 -156.5t393.5 156.5t153.5 402.5t-153.5 402.5t-393.5 156.5z" />
    <glyph glyph-name="Ocircumflex" unicode="&#xd4;" horiz-adv-x="1646" 
d="M494 1522v8l233 237h191l233 -237v-8h-162l-65 65q-52 50 -71.5 74t-27.5 53h-6q-7 -28 -25.5 -51.5t-70.5 -75.5l-68 -65h-161zM823 1464q214 0 385 -95.5t267 -266.5t96 -385t-96 -385t-267 -267t-385 -96t-385 96t-266.5 267t-95.5 385q0 160 56 299t154.5 237.5
t237.5 154.5t299 56zM823 1276q-240 0 -393.5 -156.5t-153.5 -402.5t153.5 -402.5t393.5 -156.5t393.5 156.5t153.5 402.5t-153.5 402.5t-393.5 156.5z" />
    <glyph glyph-name="Otilde" unicode="&#xd5;" horiz-adv-x="1646" 
d="M555 1530l-76 22q56 195 209 195q54 0 173 -40t165 -40q36 0 59 18t45 58l74 -23q-56 -194 -207 -194q-57 0 -175.5 40t-162.5 40q-37 0 -59.5 -18t-44.5 -58zM823 1464q214 0 385 -95.5t267 -266.5t96 -385t-96 -385t-267 -267t-385 -96t-385 96t-266.5 267t-95.5 385
q0 160 56 299t154.5 237.5t237.5 154.5t299 56zM823 1276q-240 0 -393.5 -156.5t-153.5 -402.5t153.5 -402.5t393.5 -156.5t393.5 156.5t153.5 402.5t-153.5 402.5t-393.5 156.5z" />
    <glyph glyph-name="Odieresis" unicode="&#xd6;" horiz-adv-x="1646" 
d="M567 1747h166v-225h-166v225zM913 1747h166v-225h-166v225zM823 1464q214 0 385 -95.5t267 -266.5t96 -385t-96 -385t-267 -267t-385 -96t-385 96t-266.5 267t-95.5 385q0 160 56 299t154.5 237.5t237.5 154.5t299 56zM823 1276q-240 0 -393.5 -156.5t-153.5 -402.5
t153.5 -402.5t393.5 -156.5t393.5 156.5t153.5 402.5t-153.5 402.5t-393.5 156.5z" />
    <glyph glyph-name="multiply" unicode="&#xd7;" 
d="M989 1049l64 -64l-373 -375l373 -374l-64 -64l-375 373l-374 -373l-64 64l373 374l-373 375l64 64l374 -373z" />
    <glyph glyph-name="Oslash" unicode="&#xd8;" horiz-adv-x="1646" 
d="M1290 1315q133 -102 207 -256.5t74 -341.5q0 -214 -96 -385t-267 -267t-385 -96q-230 0 -407 111l-78 -109l-57 39l77 109q-134 101 -208 255.5t-74 342.5q0 160 56 299t154.5 237.5t237.5 154.5t299 56q234 0 410 -110l76 108l57 -41zM276 717q0 -136 51.5 -249.5
t143.5 -188.5l649 917q-132 80 -297 80q-240 0 -393.5 -156.5t-153.5 -402.5zM823 158q240 0 393.5 156.5t153.5 402.5q0 137 -50 249.5t-142 188.5l-652 -917q132 -80 297 -80z" />
    <glyph glyph-name="Ugrave" unicode="&#xd9;" horiz-adv-x="1394" 
d="M580 1747l180 -221l-2 -4h-119l-260 219l2 6h199zM1255 1434v-899q0 -260 -151 -412t-406 -152q-256 0 -407.5 152t-151.5 412v899h193v-891q0 -181 98.5 -282t267.5 -101q168 0 266.5 101t98.5 282v891h192z" />
    <glyph glyph-name="Uacute" unicode="&#xda;" horiz-adv-x="1394" 
d="M1014 1747l2 -6l-258 -219h-121l-2 4l180 221h199zM1255 1434v-899q0 -260 -151 -412t-406 -152q-256 0 -407.5 152t-151.5 412v899h193v-891q0 -181 98.5 -282t267.5 -101q168 0 266.5 101t98.5 282v891h192z" />
    <glyph glyph-name="Ucircumflex" unicode="&#xdb;" horiz-adv-x="1394" 
d="M369 1522v8l233 237h191l233 -237v-8h-162l-65 65q-52 50 -71.5 74t-27.5 53h-6q-7 -28 -25.5 -51.5t-70.5 -75.5l-68 -65h-161zM1255 1434v-899q0 -260 -151 -412t-406 -152q-256 0 -407.5 152t-151.5 412v899h193v-891q0 -181 98.5 -282t267.5 -101q168 0 266.5 101
t98.5 282v891h192z" />
    <glyph glyph-name="Udieresis" unicode="&#xdc;" horiz-adv-x="1394" 
d="M442 1747h166v-225h-166v225zM788 1747h166v-225h-166v225zM1255 1434v-899q0 -260 -151 -412t-406 -152q-256 0 -407.5 152t-151.5 412v899h193v-891q0 -181 98.5 -282t267.5 -101q168 0 266.5 101t98.5 282v891h192z" />
    <glyph glyph-name="Yacute" unicode="&#xdd;" horiz-adv-x="1136" 
d="M885 1747l2 -6l-258 -219h-121l-2 4l180 221h199zM1122 1434l-463 -867v-567h-184v567l-461 867h222l239 -488q51 -107 65.5 -144t24.5 -89h4q4 19 8.5 35.5l7.5 27.5t13.5 34t15 33t22 47.5t26.5 55.5l239 488h221z" />
    <glyph glyph-name="Thorn" unicode="&#xde;" horiz-adv-x="1103" 
d="M342 1434v-250q0 -39 -4 -49l4 -5q14 7 41 7h223q207 0 328 -107t121 -293q0 -184 -121 -291.5t-328 -107.5h-223q-29 0 -41 6l-4 -4q4 -10 4 -49v-291h-184v1434h184zM342 969l-4 -4q4 -10 4 -47v-361q0 -37 -4 -47l4 -4q12 6 41 6h219q120 0 188 59t68 166t-68 166.5
t-188 59.5h-219q-29 0 -41 6z" />
    <glyph glyph-name="germandbls" unicode="&#xdf;" horiz-adv-x="1136" 
d="M651 807q195 -5 306.5 -101t111.5 -282q0 -213 -139 -323.5t-393 -110.5h-107v168h90q184 0 276.5 62.5t92.5 205.5q0 65 -19.5 115t-55.5 83t-90.5 54t-120.5 30t-150 9v157q148 0 227.5 56t79.5 168q0 98 -57.5 148t-153.5 50q-106 0 -171 -61.5t-65 -187.5v-1313h-174
v1302q0 191 107 309.5t303 118.5q189 0 290 -95t101 -247q0 -122 -72.5 -206t-216.5 -103v-6z" />
    <glyph glyph-name="agrave" unicode="&#xe0;" horiz-adv-x="1030" 
d="M387 1448l195 -309l-2 -6h-121l-271 309l2 6h197zM510 977q203 0 298 -92.5t95 -288.5v-596h-176q0 78 25 160l-7 4q-52 -95 -137 -145t-194 -50q-157 0 -254 92t-97 242q0 154 96 244t257 90q110 0 195.5 -45t131.5 -127l7 4q-14 45 -17 141q-9 205 -235 205
q-120 0 -285 -53l-49 158q177 57 346 57zM473 492q-101 0 -163 -53t-62 -138q0 -86 61.5 -136t163.5 -50q105 0 174.5 52.5t69.5 135.5q0 82 -69.5 135.5t-174.5 53.5z" />
    <glyph glyph-name="aacute" unicode="&#xe1;" horiz-adv-x="1030" 
d="M850 1448l2 -6l-270 -309h-121l-2 6l190 309h201zM510 977q203 0 298 -92.5t95 -288.5v-596h-176q0 78 25 160l-7 4q-52 -95 -137 -145t-194 -50q-157 0 -254 92t-97 242q0 154 96 244t257 90q110 0 195.5 -45t131.5 -127l7 4q-14 45 -17 141q-9 205 -235 205
q-120 0 -285 -53l-49 158q177 57 346 57zM473 492q-101 0 -163 -53t-62 -138q0 -86 61.5 -136t163.5 -50q105 0 174.5 52.5t69.5 135.5q0 82 -69.5 135.5t-174.5 53.5z" />
    <glyph glyph-name="acircumflex" unicode="&#xe2;" horiz-adv-x="1030" 
d="M610 1448l228 -311v-4h-152l-86 120q-42 60 -55.5 84.5t-22.5 53.5h-4q-7 -29 -20.5 -53t-55.5 -85l-86 -120h-151v4l227 311h178zM510 977q203 0 298 -92.5t95 -288.5v-596h-176q0 78 25 160l-7 4q-52 -95 -137 -145t-194 -50q-157 0 -254 92t-97 242q0 154 96 244
t257 90q110 0 195.5 -45t131.5 -127l7 4q-14 45 -17 141q-9 205 -235 205q-120 0 -285 -53l-49 158q177 57 346 57zM473 492q-101 0 -163 -53t-62 -138q0 -86 61.5 -136t163.5 -50q105 0 174.5 52.5t69.5 135.5q0 82 -69.5 135.5t-174.5 53.5z" />
    <glyph glyph-name="atilde" unicode="&#xe3;" horiz-adv-x="1030" 
d="M379 1425q51 0 112.5 -25.5t116.5 -51t88 -25.5q70 0 109 102l80 -28q-21 -91 -70 -148t-131 -57q-52 0 -114 25.5t-117 51t-88 25.5q-69 0 -109 -100l-80 27q48 204 203 204zM510 977q203 0 298 -92.5t95 -288.5v-596h-176q0 78 25 160l-7 4q-52 -95 -137 -145t-194 -50
q-157 0 -254 92t-97 242q0 154 96 244t257 90q110 0 195.5 -45t131.5 -127l7 4q-14 45 -17 141q-9 205 -235 205q-120 0 -285 -53l-49 158q177 57 346 57zM473 492q-101 0 -163 -53t-62 -138q0 -86 61.5 -136t163.5 -50q105 0 174.5 52.5t69.5 135.5q0 82 -69.5 135.5
t-174.5 53.5z" />
    <glyph glyph-name="adieresis" unicode="&#xe4;" horiz-adv-x="1030" 
d="M428 1434v-250h-166v250h166zM780 1434v-250h-166v250h166zM510 977q203 0 298 -92.5t95 -288.5v-596h-176q0 78 25 160l-7 4q-52 -95 -137 -145t-194 -50q-157 0 -254 92t-97 242q0 154 96 244t257 90q110 0 195.5 -45t131.5 -127l7 4q-14 45 -17 141q-9 205 -235 205
q-120 0 -285 -53l-49 158q177 57 346 57zM473 492q-101 0 -163 -53t-62 -138q0 -86 61.5 -136t163.5 -50q105 0 174.5 52.5t69.5 135.5q0 82 -69.5 135.5t-174.5 53.5z" />
    <glyph glyph-name="aring" unicode="&#xe5;" horiz-adv-x="1030" 
d="M520 1530q106 0 175 -68t69 -172t-69 -171.5t-175 -67.5t-175 67.5t-69 171.5t69 172t175 68zM520 1442q-68 0 -109.5 -42.5t-41.5 -109.5t41.5 -109t109.5 -42t110 42t42 109t-42 109.5t-110 42.5zM510 977q203 0 298 -92.5t95 -288.5v-596h-176q0 78 25 160l-7 4
q-52 -95 -137 -145t-194 -50q-157 0 -254 92t-97 242q0 154 96 244t257 90q110 0 195.5 -45t131.5 -127l7 4q-14 45 -17 141q-9 205 -235 205q-120 0 -285 -53l-49 158q177 57 346 57zM473 492q-101 0 -163 -53t-62 -138q0 -86 61.5 -136t163.5 -50q105 0 174.5 52.5
t69.5 135.5q0 82 -69.5 135.5t-174.5 53.5z" />
    <glyph glyph-name="ae" unicode="&#xe6;" horiz-adv-x="1728" 
d="M430 -31q-162 0 -264.5 93.5t-102.5 246.5q0 148 97.5 238t255.5 90q107 0 192.5 -45t132.5 -127l7 4q-15 51 -15 141q-9 205 -235 205q-119 0 -287 -53l-49 158q189 57 348 57q146 0 223.5 -51t104.5 -158h4q52 99 147 154t221 55q213 0 331 -136.5t118 -363.5v-35h-645
q-71 0 -113 11l-2 -4l2 -13q15 -145 98.5 -223t221.5 -78q95 0 164 36.5t141 115.5l108 -113q-160 -205 -411 -205q-154 0 -262.5 74t-147.5 197h-6q-34 -126 -135 -198.5t-242 -72.5zM907 557q41 18 107 18h325q93 0 136 -16l4 2q-11 122 -83 190t-196 68
q-122 0 -201 -68.5t-94 -191.5zM473 115q104 0 173 53t69 135q0 83 -69 136t-173 53q-103 0 -165 -53.5t-62 -137.5t61.5 -135t165.5 -51z" />
    <glyph glyph-name="ccedilla" unicode="&#xe7;" horiz-adv-x="964" 
d="M909 66q-133 -88 -295 -97l-16 -43q81 -23 129.5 -57t48.5 -92q0 -32 -18 -62.5t-41.5 -52t-66 -47t-70.5 -39t-76 -35.5l-29 60q103 59 127 80q31 27 31 53q0 55 -150 88l56 149q-211 14 -341 152t-130 350q0 224 144 364t374 140q178 0 323 -96l-84 -148
q-116 76 -245 76q-145 0 -236.5 -94t-91.5 -242t91.5 -242t236.5 -94q129 0 245 76z" />
    <glyph glyph-name="egrave" unicode="&#xe8;" horiz-adv-x="1071" 
d="M418 1448l194 -309l-2 -6h-121l-270 309l2 6h197zM551 977q209 0 329.5 -134t120.5 -366v-35h-647q-82 0 -112 15l-4 -4l8 -23q12 -140 95.5 -217.5t221.5 -77.5q91 0 162 35.5t143 116.5l109 -113q-163 -205 -416 -205q-223 0 -358 137t-135 363q0 230 131.5 369
t351.5 139zM545 819q-125 0 -204.5 -69.5t-92.5 -190.5l2 -2q41 18 106 18h326q104 0 135 -16l2 2q-9 123 -80.5 190.5t-193.5 67.5z" />
    <glyph glyph-name="eacute" unicode="&#xe9;" horiz-adv-x="1071" 
d="M883 1448l2 -6l-271 -309h-120l-2 6l190 309h201zM551 977q209 0 329.5 -134t120.5 -366v-35h-647q-82 0 -112 15l-4 -4l8 -23q12 -140 95.5 -217.5t221.5 -77.5q91 0 162 35.5t143 116.5l109 -113q-163 -205 -416 -205q-223 0 -358 137t-135 363q0 230 131.5 369
t351.5 139zM545 819q-125 0 -204.5 -69.5t-92.5 -190.5l2 -2q41 18 106 18h326q104 0 135 -16l2 2q-9 123 -80.5 190.5t-193.5 67.5z" />
    <glyph glyph-name="ecircumflex" unicode="&#xea;" horiz-adv-x="1071" 
d="M643 1448l227 -311v-4h-151l-86 120q-42 60 -55.5 84.5t-22.5 53.5h-4q-7 -29 -20.5 -53t-55.5 -85l-86 -120h-151v4l227 311h178zM551 977q209 0 329.5 -134t120.5 -366v-35h-647q-82 0 -112 15l-4 -4l8 -23q12 -140 95.5 -217.5t221.5 -77.5q91 0 162 35.5t143 116.5
l109 -113q-163 -205 -416 -205q-223 0 -358 137t-135 363q0 230 131.5 369t351.5 139zM545 819q-125 0 -204.5 -69.5t-92.5 -190.5l2 -2q41 18 106 18h326q104 0 135 -16l2 2q-9 123 -80.5 190.5t-193.5 67.5z" />
    <glyph glyph-name="edieresis" unicode="&#xeb;" horiz-adv-x="1071" 
d="M461 1434v-250h-166v250h166zM813 1434v-250h-166v250h166zM551 977q209 0 329.5 -134t120.5 -366v-35h-647q-82 0 -112 15l-4 -4l8 -23q12 -140 95.5 -217.5t221.5 -77.5q91 0 162 35.5t143 116.5l109 -113q-163 -205 -416 -205q-223 0 -358 137t-135 363
q0 230 131.5 369t351.5 139zM545 819q-125 0 -204.5 -69.5t-92.5 -190.5l2 -2q41 18 106 18h326q104 0 135 -16l2 2q-9 123 -80.5 190.5t-193.5 67.5z" />
    <glyph glyph-name="igrave" unicode="&#xec;" horiz-adv-x="452" 
d="M6 1448h182l99 -309l-2 -6h-113l-168 309zM313 946v-946h-174v946h174z" />
    <glyph glyph-name="iacute" unicode="&#xed;" horiz-adv-x="452" 
d="M455 1448l2 -6l-170 -309h-111l-2 6l98 309h183zM313 946v-946h-174v946h174z" />
    <glyph glyph-name="icircumflex" unicode="&#xee;" horiz-adv-x="452" 
d="M307 1448l160 -311v-4h-133l-60 120q-37 76 -45 129h-4q-11 -55 -47 -129l-59 -120h-133v4l161 311h160zM313 946v-946h-174v946h174z" />
    <glyph glyph-name="idieresis" unicode="&#xef;" horiz-adv-x="452" 
d="M174 1434v-250h-166v250h166zM444 1434v-250h-165v250h165zM313 946v-946h-174v946h174z" />
    <glyph glyph-name="eth" unicode="&#xf0;" horiz-adv-x="1187" 
d="M782 1313q157 -100 233.5 -267.5t76.5 -414.5q0 -322 -139.5 -492t-381.5 -170q-228 0 -368 141.5t-140 368.5q0 218 135.5 357t346.5 139q161 0 266.5 -85.5t136.5 -236.5h10q-12 128 -38 217q-67 225 -263 338l-196 -164l-66 72l166 137q-131 48 -291 60l23 149
q236 -24 399 -100l178 147l64 -71zM575 135q147 0 236.5 91.5t89.5 244.5q0 155 -91 247.5t-243 92.5q-148 0 -236.5 -91t-88.5 -243q0 -155 91.5 -248.5t241.5 -93.5z" />
    <glyph glyph-name="ntilde" unicode="&#xf1;" horiz-adv-x="1126" 
d="M438 1425q51 0 113 -25.5t117 -51t88 -25.5q69 0 108 102l80 -28q-21 -91 -70 -148t-131 -57q-52 0 -114 25.5t-117 51t-88 25.5q-69 0 -109 -100l-79 27q48 204 202 204zM653 977q166 0 255 -96t89 -273v-608h-172v563q0 120 -58 184t-167 64q-137 0 -213 -96t-76 -269
v-446h-174v946h174q0 -144 -20 -241l8 -3q95 275 354 275z" />
    <glyph glyph-name="ograve" unicode="&#xf2;" horiz-adv-x="1167" 
d="M449 1448l194 -309l-2 -6h-121l-270 309l2 6h197zM584 977q224 0 369 -142.5t145 -361.5t-145 -361.5t-369 -142.5t-370 143t-146 361t146 361t370 143zM584 807q-148 0 -240 -92.5t-92 -241.5t92 -241.5t240 -92.5t239.5 92.5t91.5 241.5t-91.5 241.5t-239.5 92.5z" />
    <glyph glyph-name="oacute" unicode="&#xf3;" horiz-adv-x="1167" 
d="M913 1448l2 -6l-270 -309h-121l-2 6l191 309h200zM584 977q224 0 369 -142.5t145 -361.5t-145 -361.5t-369 -142.5t-370 143t-146 361t146 361t370 143zM584 807q-148 0 -240 -92.5t-92 -241.5t92 -241.5t240 -92.5t239.5 92.5t91.5 241.5t-91.5 241.5t-239.5 92.5z" />
    <glyph glyph-name="ocircumflex" unicode="&#xf4;" horiz-adv-x="1167" 
d="M672 1448l227 -311v-4h-151l-86 120q-42 60 -55.5 84.5t-22.5 53.5h-4q-7 -29 -20.5 -53t-55.5 -85l-86 -120h-152v4l228 311h178zM584 977q224 0 369 -142.5t145 -361.5t-145 -361.5t-369 -142.5t-370 143t-146 361t146 361t370 143zM584 807q-148 0 -240 -92.5
t-92 -241.5t92 -241.5t240 -92.5t239.5 92.5t91.5 241.5t-91.5 241.5t-239.5 92.5z" />
    <glyph glyph-name="otilde" unicode="&#xf5;" horiz-adv-x="1167" 
d="M442 1425q51 0 113 -25.5t117 -51t88 -25.5q69 0 108 102l80 -28q-48 -205 -200 -205q-52 0 -114.5 25.5t-117.5 51t-88 25.5q-69 0 -109 -100l-79 27q48 204 202 204zM584 977q224 0 369 -142.5t145 -361.5t-145 -361.5t-369 -142.5t-370 143t-146 361t146 361t370 143z
M584 807q-148 0 -240 -92.5t-92 -241.5t92 -241.5t240 -92.5t239.5 92.5t91.5 241.5t-91.5 241.5t-239.5 92.5z" />
    <glyph glyph-name="odieresis" unicode="&#xf6;" horiz-adv-x="1167" 
d="M489 1434v-250h-165v250h165zM842 1434v-250h-166v250h166zM584 977q224 0 369 -142.5t145 -361.5t-145 -361.5t-369 -142.5t-370 143t-146 361t146 361t370 143zM584 807q-148 0 -240 -92.5t-92 -241.5t92 -241.5t240 -92.5t239.5 92.5t91.5 241.5t-91.5 241.5
t-239.5 92.5z" />
    <glyph glyph-name="divide" unicode="&#xf7;" 
d="M692 1010v-166h-155v166h155zM1145 657v-90h-1061v90h1061zM692 379v-168h-155v168h155z" />
    <glyph glyph-name="oslash" unicode="&#xf8;" horiz-adv-x="1167" 
d="M948 838q150 -144 150 -365q0 -219 -145 -361.5t-369 -142.5q-177 0 -314 97l-82 -95l-55 45l82 95q-147 144 -147 362t146 361t370 143q173 0 309 -92l82 92l55 -47zM252 473q0 -140 80 -229l444 508q-80 55 -192 55q-148 0 -240 -92.5t-92 -241.5zM584 139
q148 0 239.5 92.5t91.5 241.5q0 142 -84 232l-444 -508q83 -58 197 -58z" />
    <glyph glyph-name="ugrave" unicode="&#xf9;" horiz-adv-x="1073" 
d="M401 1448l195 -309l-2 -6h-121l-270 309l2 6h196zM946 946v-946h-170q0 137 21 223l-9 2q-46 -130 -128 -193t-209 -63q-159 0 -246.5 103t-87.5 290v584h178v-555q0 -124 57.5 -190t163.5 -66q123 0 190.5 96t67.5 269v446h172z" />
    <glyph glyph-name="uacute" unicode="&#xfa;" horiz-adv-x="1073" 
d="M864 1448l2 -6l-270 -309h-121l-2 6l191 309h200zM946 946v-946h-170q0 137 21 223l-9 2q-46 -130 -128 -193t-209 -63q-159 0 -246.5 103t-87.5 290v584h178v-555q0 -124 57.5 -190t163.5 -66q123 0 190.5 96t67.5 269v446h172z" />
    <glyph glyph-name="ucircumflex" unicode="&#xfb;" horiz-adv-x="1073" 
d="M625 1448l227 -311v-4h-152l-86 120q-63 91 -77 138h-5q-8 -30 -21 -54t-54 -84l-86 -120h-152v4l227 311h179zM946 946v-946h-170q0 137 21 223l-9 2q-46 -130 -128 -193t-209 -63q-159 0 -246.5 103t-87.5 290v584h178v-555q0 -124 57.5 -190t163.5 -66q123 0 190.5 96
t67.5 269v446h172z" />
    <glyph glyph-name="udieresis" unicode="&#xfc;" horiz-adv-x="1073" 
d="M442 1434v-250h-166v250h166zM795 1434v-250h-166v250h166zM946 946v-946h-170q0 137 21 223l-9 2q-46 -130 -128 -193t-209 -63q-159 0 -246.5 103t-87.5 290v584h178v-555q0 -124 57.5 -190t163.5 -66q123 0 190.5 96t67.5 269v446h172z" />
    <glyph glyph-name="yacute" unicode="&#xfd;" horiz-adv-x="997" 
d="M834 1448l2 -6l-271 -309h-121l-2 6l191 309h201zM977 946l-580 -1358h-180l205 475l-402 883h199l232 -545q25 -59 36.5 -99t14.5 -91h8q2 72 41 166l237 569h189z" />
    <glyph glyph-name="thorn" unicode="&#xfe;" horiz-adv-x="1202" 
d="M139 -410v1844h174v-490q0 -117 -18 -186l8 -4q50 100 146 161.5t227 61.5q196 0 326.5 -138.5t130.5 -367.5q0 -228 -132 -365t-329 -137q-116 0 -211 52.5t-156 160.5l-6 -4q14 -85 14 -227v-361h-174zM643 133q140 0 224.5 89.5t84.5 248.5q0 160 -85.5 251t-225.5 91
q-150 0 -242 -96.5t-92 -245.5q0 -145 92 -241.5t244 -96.5z" />
    <glyph glyph-name="ydieresis" unicode="&#xff;" horiz-adv-x="997" 
d="M412 1434v-250h-166v250h166zM764 1434v-250h-166v250h166zM977 946l-580 -1358h-180l205 475l-402 883h199l232 -545q25 -59 36.5 -99t14.5 -91h8q2 72 41 166l237 569h189z" />
    <glyph glyph-name="Amacron" unicode="&#x100;" horiz-adv-x="1404" 
d="M406 1683h589v-120h-589v120zM23 0l669 1464h21l669 -1464h-206l-179 401h-589l-179 -401h-206zM459 555q36 4 114 4h258q79 0 115 -4l2 2q-28 35 -63 117l-127 299q-45 116 -51 168h-9q-6 -52 -51 -168l-127 -299q-35 -82 -63 -117z" />
    <glyph glyph-name="amacron" unicode="&#x101;" horiz-adv-x="1030" 
d="M815 1368v-127h-586v127h586zM510 977q203 0 298 -92.5t95 -288.5v-596h-176q0 78 25 160l-7 4q-52 -95 -137 -145t-194 -50q-157 0 -254 92t-97 242q0 154 96 244t257 90q110 0 195.5 -45t131.5 -127l7 4q-14 45 -17 141q-9 205 -235 205q-120 0 -285 -53l-49 158
q177 57 346 57zM473 492q-101 0 -163 -53t-62 -138q0 -86 61.5 -136t163.5 -50q105 0 174.5 52.5t69.5 135.5q0 82 -69.5 135.5t-174.5 53.5z" />
    <glyph glyph-name="Abreve" unicode="&#x102;" horiz-adv-x="1404" 
d="M983 1747q-4 -105 -81 -165t-200 -60q-124 0 -201 60t-81 165h127q6 -51 46 -78t109 -27q68 0 108 27t46 78h127zM23 0l669 1464h21l669 -1464h-206l-179 401h-589l-179 -401h-206zM459 555q36 4 114 4h258q79 0 115 -4l2 2q-28 35 -63 117l-127 299q-45 116 -51 168h-9
q-6 -52 -51 -168l-127 -299q-35 -82 -63 -117z" />
    <glyph glyph-name="abreve" unicode="&#x103;" horiz-adv-x="1030" 
d="M803 1444q0 -139 -78 -218t-203 -79q-126 0 -204 79t-78 218h125q3 -89 44 -132.5t113 -43.5q71 0 113 44t45 132h123zM510 977q203 0 298 -92.5t95 -288.5v-596h-176q0 78 25 160l-7 4q-52 -95 -137 -145t-194 -50q-157 0 -254 92t-97 242q0 154 96 244t257 90
q110 0 195.5 -45t131.5 -127l7 4q-14 45 -17 141q-9 205 -235 205q-120 0 -285 -53l-49 158q177 57 346 57zM473 492q-101 0 -163 -53t-62 -138q0 -86 61.5 -136t163.5 -50q105 0 174.5 52.5t69.5 135.5q0 82 -69.5 135.5t-174.5 53.5z" />
    <glyph glyph-name="Aogonek" unicode="&#x104;" horiz-adv-x="1404" 
d="M1157 -272q45 0 88 12l27 -100q-75 -27 -139 -27q-78 0 -129.5 38.5t-51.5 106.5q0 69 51.5 132.5t157.5 140.5l-164 370h-589l-179 -401h-206l669 1464h21l669 -1464h-139q-168 -131 -168 -209q0 -63 82 -63zM946 555l2 2q-28 35 -63 117l-127 299q-45 116 -51 168h-9
q-6 -52 -51 -168l-127 -299q-35 -82 -63 -117l2 -2q36 4 114 4h258q79 0 115 -4z" />
    <glyph glyph-name="aogonek" unicode="&#x105;" horiz-adv-x="1030" 
d="M791 0q-168 -131 -168 -209q0 -63 82 -63q45 0 88 12l26 -100q-75 -27 -139 -27q-78 0 -129 38.5t-51 106.5q0 71 56.5 138t172.5 149q2 49 23 115l-7 4q-52 -95 -137 -145t-194 -50q-157 0 -254 92t-97 242q0 154 96 244t257 90q110 0 195.5 -45t131.5 -127l7 4
q-14 45 -17 141q-9 205 -235 205q-120 0 -285 -53l-49 158q177 57 346 57q203 0 298 -92.5t95 -288.5v-596h-112zM473 115q105 0 174.5 52.5t69.5 135.5q0 82 -69.5 135.5t-174.5 53.5q-101 0 -163 -53t-62 -138q0 -86 61.5 -136t163.5 -50z" />
    <glyph glyph-name="Cacute" unicode="&#x106;" horiz-adv-x="1406" 
d="M1130 1747l3 -6l-259 -219h-120l-2 4l180 221h198zM842 -31q-225 0 -399.5 94t-270.5 264t-96 390q0 164 56 303.5t156 237t242.5 152t311.5 54.5q290 0 504 -159l-113 -160q-184 131 -397 131q-248 0 -404 -155t-156 -404t156 -404t404 -155q213 0 397 131l113 -160
q-216 -160 -504 -160z" />
    <glyph glyph-name="cacute" unicode="&#x107;" horiz-adv-x="964" 
d="M883 1448l2 -6l-271 -309h-120l-2 6l190 309h201zM586 -31q-230 0 -374 140t-144 364t144 364t374 140q178 0 323 -96l-84 -148q-116 76 -245 76q-145 0 -236.5 -94t-91.5 -242t91.5 -242t236.5 -94q129 0 245 76l84 -147q-147 -97 -323 -97z" />
    <glyph glyph-name="Ccircumflex" unicode="&#x108;" horiz-adv-x="1406" 
d="M485 1522v8l234 237h190l234 -237v-8h-162l-66 65q-51 49 -70 73.5t-28 53.5h-6q-7 -28 -25.5 -51.5t-70.5 -75.5l-68 -65h-162zM842 -31q-225 0 -399.5 94t-270.5 264t-96 390q0 164 56 303.5t156 237t242.5 152t311.5 54.5q290 0 504 -159l-113 -160q-184 131 -397 131
q-248 0 -404 -155t-156 -404t156 -404t404 -155q213 0 397 131l113 -160q-216 -160 -504 -160z" />
    <glyph glyph-name="ccircumflex" unicode="&#x109;" horiz-adv-x="964" 
d="M643 1448l227 -311v-4h-151l-86 120q-42 60 -55.5 84.5t-22.5 53.5h-4q-7 -29 -20.5 -53t-55.5 -85l-86 -120h-151v4l227 311h178zM586 -31q-230 0 -374 140t-144 364t144 364t374 140q178 0 323 -96l-84 -148q-116 76 -245 76q-145 0 -236.5 -94t-91.5 -242t91.5 -242
t236.5 -94q129 0 245 76l84 -147q-147 -97 -323 -97z" />
    <glyph glyph-name="Cdotaccent" unicode="&#x10a;" horiz-adv-x="1406" 
d="M903 1747v-225h-178v225h178zM842 -31q-225 0 -399.5 94t-270.5 264t-96 390q0 164 56 303.5t156 237t242.5 152t311.5 54.5q290 0 504 -159l-113 -160q-184 131 -397 131q-248 0 -404 -155t-156 -404t156 -404t404 -155q213 0 397 131l113 -160q-216 -160 -504 -160z
" />
    <glyph glyph-name="cdotaccent" unicode="&#x10b;" horiz-adv-x="964" 
d="M653 1434v-269h-196v269h196zM586 -31q-230 0 -374 140t-144 364t144 364t374 140q178 0 323 -96l-84 -148q-116 76 -245 76q-145 0 -236.5 -94t-91.5 -242t91.5 -242t236.5 -94q129 0 245 76l84 -147q-147 -97 -323 -97z" />
    <glyph glyph-name="Ccaron" unicode="&#x10c;" horiz-adv-x="1406" 
d="M1143 1767v-8l-234 -237h-190l-234 237v8h162l68 -65q52 -52 70.5 -75.5t25.5 -51.5h6q8 28 27 51.5t71 75.5l66 65h162zM842 -31q-225 0 -399.5 94t-270.5 264t-96 390q0 164 56 303.5t156 237t242.5 152t311.5 54.5q290 0 504 -159l-113 -160q-184 131 -397 131
q-248 0 -404 -155t-156 -404t156 -404t404 -155q213 0 397 131l113 -160q-216 -160 -504 -160z" />
    <glyph glyph-name="ccaron" unicode="&#x10d;" horiz-adv-x="964" 
d="M465 1133l-240 311v4h160l90 -121q9 -13 25 -35.5t20.5 -29.5t12.5 -20t11.5 -21.5t6.5 -20.5h6q3 12 6.5 20.5t11.5 21.5t12.5 20t20.5 29.5t25 35.5l88 121h162v-4l-240 -311h-178zM586 -31q-230 0 -374 140t-144 364t144 364t374 140q178 0 323 -96l-84 -148
q-116 76 -245 76q-145 0 -236.5 -94t-91.5 -242t91.5 -242t236.5 -94q129 0 245 76l84 -147q-147 -97 -323 -97z" />
    <glyph glyph-name="Dcaron" unicode="&#x10e;" horiz-adv-x="1413" 
d="M915 1767v-8l-233 -237h-190l-234 237v8h162l67 -65q38 -38 52 -53t27 -34.5t18 -39.5h6q8 28 27 51.5t71 75.5l66 65h161zM602 1434q333 0 533 -195.5t200 -521.5t-200 -521.5t-533 -195.5h-444v1434h444zM340 1268l-4 -4q6 -15 6 -52v-991q0 -36 -6 -51l4 -4q16 8 51 8
h213q248 0 389.5 145t141.5 398t-142.5 398t-388.5 145h-213q-35 0 -51 8z" />
    <glyph glyph-name="dcaron" unicode="&#x10f;" horiz-adv-x="1402" 
d="M1229 1495h180l-145 -405h-95zM530 -31q-203 0 -332.5 141.5t-129.5 362.5t129.5 362.5t332.5 141.5q129 0 224.5 -61t146.5 -175l8 2q-18 71 -18 220v501h172v-1464h-168q0 140 14 203l-8 2q-51 -114 -146.5 -175t-224.5 -61zM561 133q149 0 243.5 94.5t94.5 245.5
q0 150 -94 245t-242 95q-144 0 -227.5 -91.5t-83.5 -248.5t83.5 -248.5t225.5 -91.5z" />
    <glyph glyph-name="Dcroat" unicode="&#x110;" horiz-adv-x="1460" 
d="M662 1434q154 0 285.5 -50t226.5 -141t148.5 -226.5t53.5 -299.5t-53.5 -299.5t-148.5 -226.5t-226.5 -141t-285.5 -50h-449v604q0 33 6 51l-2 2q-21 -6 -53 -6h-160v154h160q39 0 53 -6l2 4q-6 15 -6 49v582h449zM657 174q151 0 266.5 60.5t184 185t68.5 297.5
q0 258 -144.5 400.5t-374.5 142.5h-211q-32 0 -51 8l-4 -4q6 -15 6 -52v-360q0 -34 -6 -49l4 -4q14 6 51 6h345v-154h-345q-30 0 -51 6l-4 -2q6 -18 6 -51v-383q0 -36 -6 -51l4 -4q19 8 51 8h211z" />
    <glyph glyph-name="dcroat" unicode="&#x111;" horiz-adv-x="1202" 
d="M1108 1276h86v-109h-86q-37 0 -55 9l-2 -2q10 -20 10 -56v-1118h-168q0 139 14 203l-8 2q-54 -119 -151 -177.5t-220 -58.5q-95 0 -179 35t-146.5 99t-98.5 159.5t-36 210.5t36 210.5t98.5 159.5t146.5 99t179 35q126 0 222.5 -60.5t146.5 -175.5l8 2q-18 80 -18 220v155
q0 36 10 56l-2 2q-18 -9 -57 -9h-273v109h273q41 0 57 -8l2 2q-10 20 -10 53v141h174v-141q0 -33 -10 -53l2 -2q16 8 55 8zM559 133q152 0 244 96t92 244t-91.5 244t-242.5 96q-142 0 -227.5 -90.5t-85.5 -249.5q0 -160 84.5 -250t226.5 -90z" />
    <glyph glyph-name="Emacron" unicode="&#x112;" horiz-adv-x="1054" 
d="M291 1683h590v-120h-590v120zM963 1434v-174h-572q-32 0 -51 8l-4 -4q6 -15 6 -54v-292q0 -37 -6 -52l4 -4q19 8 51 8h506v-174h-506q-30 0 -51 9l-4 -5q6 -15 6 -53v-424q0 -38 -6 -53l4 -4q19 8 51 8h582v-174h-815v1434h805z" />
    <glyph glyph-name="emacron" unicode="&#x113;" horiz-adv-x="1071" 
d="M846 1368v-127h-586v127h586zM551 977q209 0 329.5 -134t120.5 -366v-35h-647q-82 0 -112 15l-4 -4l8 -23q12 -140 95.5 -217.5t221.5 -77.5q91 0 162 35.5t143 116.5l109 -113q-163 -205 -416 -205q-223 0 -358 137t-135 363q0 230 131.5 369t351.5 139zM545 819
q-125 0 -204.5 -69.5t-92.5 -190.5l2 -2q41 18 106 18h326q104 0 135 -16l2 2q-9 123 -80.5 190.5t-193.5 67.5z" />
    <glyph glyph-name="Ebreve" unicode="&#x114;" horiz-adv-x="1054" 
d="M868 1747q-4 -105 -80.5 -165t-199.5 -60q-124 0 -201.5 60t-81.5 165h127q6 -51 46.5 -78t109.5 -27q68 0 107.5 27t45.5 78h127zM963 1434v-174h-572q-32 0 -51 8l-4 -4q6 -15 6 -54v-292q0 -37 -6 -52l4 -4q19 8 51 8h506v-174h-506q-30 0 -51 9l-4 -5q6 -15 6 -53
v-424q0 -38 -6 -53l4 -4q19 8 51 8h582v-174h-815v1434h805z" />
    <glyph glyph-name="ebreve" unicode="&#x115;" horiz-adv-x="1071" 
d="M836 1444q0 -139 -78 -218t-203 -79q-126 0 -204.5 79t-78.5 218h125q3 -89 44 -132.5t114 -43.5q71 0 113 44t45 132h123zM551 977q209 0 329.5 -134t120.5 -366v-35h-647q-82 0 -112 15l-4 -4l8 -23q12 -140 95.5 -217.5t221.5 -77.5q91 0 162 35.5t143 116.5l109 -113
q-163 -205 -416 -205q-223 0 -358 137t-135 363q0 230 131.5 369t351.5 139zM545 819q-125 0 -204.5 -69.5t-92.5 -190.5l2 -2q41 18 106 18h326q104 0 135 -16l2 2q-9 123 -80.5 190.5t-193.5 67.5z" />
    <glyph glyph-name="Edotaccent" unicode="&#x116;" horiz-adv-x="1054" 
d="M676 1747v-225h-178v225h178zM963 1434v-174h-572q-32 0 -51 8l-4 -4q6 -15 6 -54v-292q0 -37 -6 -52l4 -4q19 8 51 8h506v-174h-506q-30 0 -51 9l-4 -5q6 -15 6 -53v-424q0 -38 -6 -53l4 -4q19 8 51 8h582v-174h-815v1434h805z" />
    <glyph glyph-name="edotaccent" unicode="&#x117;" horiz-adv-x="1071" 
d="M651 1434v-269h-196v269h196zM551 977q209 0 329.5 -134t120.5 -366v-35h-647q-82 0 -112 15l-4 -4l8 -23q12 -140 95.5 -217.5t221.5 -77.5q91 0 162 35.5t143 116.5l109 -113q-163 -205 -416 -205q-223 0 -358 137t-135 363q0 230 131.5 369t351.5 139zM545 819
q-125 0 -204.5 -69.5t-92.5 -190.5l2 -2q41 18 106 18h326q104 0 135 -16l2 2q-9 123 -80.5 190.5t-193.5 67.5z" />
    <glyph glyph-name="Eogonek" unicode="&#x118;" horiz-adv-x="1054" 
d="M938 0q-168 -131 -168 -209q0 -63 82 -63q45 0 88 12l27 -100q-75 -27 -140 -27q-78 0 -129 38.5t-51 106.5q0 62 42 119.5t126 122.5h-657v1434h805v-174h-572q-32 0 -51 8l-4 -4q6 -15 6 -54v-292q0 -37 -6 -52l4 -4q19 8 51 8h506v-174h-506q-30 0 -51 9l-4 -5
q6 -15 6 -53v-424q0 -38 -6 -53l4 -4q19 8 51 8h582v-174h-35z" />
    <glyph glyph-name="eogonek" unicode="&#x119;" horiz-adv-x="1071" 
d="M354 442q-82 0 -112 15l-4 -4l8 -23q12 -140 95.5 -217.5t221.5 -77.5q91 0 162 35.5t143 116.5l109 -113q-82 -104 -186 -156q-98 -76 -144.5 -130t-46.5 -97q0 -63 82 -63q44 0 88 12l27 -100q-75 -27 -140 -27q-78 0 -129 38.5t-51 106.5q0 101 131 213q-14 -2 -47 -2
q-223 0 -358 137t-135 363q0 230 131.5 369t351.5 139q209 0 329.5 -134t120.5 -366v-35h-647zM545 819q-125 0 -204.5 -69.5t-92.5 -190.5l2 -2q41 18 106 18h326q104 0 135 -16l2 2q-9 123 -80.5 190.5t-193.5 67.5z" />
    <glyph glyph-name="Ecaron" unicode="&#x11a;" horiz-adv-x="1054" 
d="M915 1767v-8l-233 -237h-190l-234 237v8h162l67 -65q38 -38 52 -53t27 -34.5t18 -39.5h6q8 28 27 51.5t71 75.5l66 65h161zM963 1434v-174h-572q-32 0 -51 8l-4 -4q6 -15 6 -54v-292q0 -37 -6 -52l4 -4q19 8 51 8h506v-174h-506q-30 0 -51 9l-4 -5q6 -15 6 -53v-424
q0 -38 -6 -53l4 -4q19 8 51 8h582v-174h-815v1434h805z" />
    <glyph glyph-name="ecaron" unicode="&#x11b;" horiz-adv-x="1071" 
d="M465 1133l-240 311v4h160l90 -121q9 -13 25 -35.5t20.5 -29.5t12.5 -20t11.5 -21.5t6.5 -20.5h6q3 12 6.5 20.5t11.5 21.5t12.5 20t20.5 29.5t25 35.5l88 121h162v-4l-240 -311h-178zM551 977q209 0 329.5 -134t120.5 -366v-35h-647q-82 0 -112 15l-4 -4l8 -23
q12 -140 95.5 -217.5t221.5 -77.5q91 0 162 35.5t143 116.5l109 -113q-163 -205 -416 -205q-223 0 -358 137t-135 363q0 230 131.5 369t351.5 139zM545 819q-125 0 -204.5 -69.5t-92.5 -190.5l2 -2q41 18 106 18h326q104 0 135 -16l2 2q-9 123 -80.5 190.5t-193.5 67.5z" />
    <glyph glyph-name="Gcircumflex" unicode="&#x11c;" horiz-adv-x="1613" 
d="M500 1522v8l233 237h191l233 -237v-8h-162l-65 65q-52 50 -71.5 74t-27.5 53h-6q-7 -28 -25.5 -51.5t-70.5 -75.5l-67 -65h-162zM838 1464q314 0 544 -192l-122 -154q-187 158 -431 158q-163 0 -289.5 -73t-195 -201t-68.5 -289q0 -244 156.5 -399.5t407.5 -155.5
q103 0 190 29t145.5 76t100.5 107.5t61.5 123t20.5 122.5l-2 5q-34 -19 -139 -19h-377v174h716v-67q0 -112 -27.5 -218t-85.5 -201t-141.5 -166t-204 -113t-263.5 -42q-216 0 -388 91t-271 261t-99 390q0 219 95.5 390.5t269 267t397.5 95.5z" />
    <glyph glyph-name="gcircumflex" unicode="&#x11d;" horiz-adv-x="1189" 
d="M651 1448l228 -311v-4h-152l-86 120q-42 60 -55.5 84.5t-22.5 53.5h-4q-7 -29 -20.5 -53t-55.5 -85l-86 -120h-151v4l227 311h178zM530 977q129 0 223.5 -61t145.5 -175l8 2q-18 55 -18 203h172v-913q0 -235 -128.5 -354t-383.5 -119q-242 0 -416 112l84 156
q166 -102 336 -102q155 0 247.5 76t92.5 204v45q0 86 14 152l-8 2q-53 -114 -147.5 -174t-221.5 -60q-204 0 -333 140t-129 362q0 223 129 363.5t333 140.5zM563 813q-144 0 -227.5 -91.5t-83.5 -248.5q0 -158 83 -249t226 -91q149 0 243.5 94.5t94.5 245.5q0 150 -94 245
t-242 95z" />
    <glyph glyph-name="Gbreve" unicode="&#x11e;" horiz-adv-x="1613" 
d="M1112 1747q-4 -105 -81 -165t-200 -60q-124 0 -201 60t-81 165h127q6 -51 46 -78t109 -27q68 0 108 27t46 78h127zM838 1464q314 0 544 -192l-122 -154q-187 158 -431 158q-163 0 -289.5 -73t-195 -201t-68.5 -289q0 -244 156.5 -399.5t407.5 -155.5q103 0 190 29
t145.5 76t100.5 107.5t61.5 123t20.5 122.5l-2 5q-34 -19 -139 -19h-377v174h716v-67q0 -112 -27.5 -218t-85.5 -201t-141.5 -166t-204 -113t-263.5 -42q-216 0 -388 91t-271 261t-99 390q0 219 95.5 390.5t269 267t397.5 95.5z" />
    <glyph glyph-name="gbreve" unicode="&#x11f;" horiz-adv-x="1189" 
d="M844 1444q0 -139 -78 -218t-203 -79q-126 0 -204 79t-78 218h125q3 -89 44 -132.5t113 -43.5q71 0 113 44t45 132h123zM530 977q129 0 223.5 -61t145.5 -175l8 2q-18 55 -18 203h172v-913q0 -235 -128.5 -354t-383.5 -119q-242 0 -416 112l84 156q166 -102 336 -102
q155 0 247.5 76t92.5 204v45q0 86 14 152l-8 2q-53 -114 -147.5 -174t-221.5 -60q-204 0 -333 140t-129 362q0 223 129 363.5t333 140.5zM563 813q-144 0 -227.5 -91.5t-83.5 -248.5q0 -158 83 -249t226 -91q149 0 243.5 94.5t94.5 245.5q0 150 -94 245t-242 95z" />
    <glyph glyph-name="Gdotaccent" unicode="&#x120;" horiz-adv-x="1613" 
d="M918 1747v-225h-179v225h179zM838 1464q314 0 544 -192l-122 -154q-187 158 -431 158q-163 0 -289.5 -73t-195 -201t-68.5 -289q0 -244 156.5 -399.5t407.5 -155.5q103 0 190 29t145.5 76t100.5 107.5t61.5 123t20.5 122.5l-2 5q-34 -19 -139 -19h-377v174h716v-67
q0 -112 -27.5 -218t-85.5 -201t-141.5 -166t-204 -113t-263.5 -42q-216 0 -388 91t-271 261t-99 390q0 219 95.5 390.5t269 267t397.5 95.5z" />
    <glyph glyph-name="gdotaccent" unicode="&#x121;" horiz-adv-x="1189" 
d="M662 1434v-269h-197v269h197zM530 977q129 0 223.5 -61t145.5 -175l8 2q-18 55 -18 203h172v-913q0 -235 -128.5 -354t-383.5 -119q-242 0 -416 112l84 156q166 -102 336 -102q155 0 247.5 76t92.5 204v45q0 86 14 152l-8 2q-53 -114 -147.5 -174t-221.5 -60
q-204 0 -333 140t-129 362q0 223 129 363.5t333 140.5zM563 813q-144 0 -227.5 -91.5t-83.5 -248.5q0 -158 83 -249t226 -91q149 0 243.5 94.5t94.5 245.5q0 150 -94 245t-242 95z" />
    <glyph glyph-name="Gcommaaccent" unicode="&#x122;" horiz-adv-x="1613" 
d="M838 1464q314 0 544 -192l-122 -154q-187 158 -431 158q-163 0 -289.5 -73t-195 -201t-68.5 -289q0 -244 156.5 -399.5t407.5 -155.5q103 0 190 29t145.5 76t100.5 107.5t61.5 123t20.5 122.5l-2 5q-34 -19 -139 -19h-377v174h716v-67q0 -112 -27.5 -218t-85.5 -201
t-141.5 -166t-204 -113t-263.5 -42q-216 0 -388 91t-271 261t-99 390q0 219 95.5 390.5t269 267t397.5 95.5zM938 -104l-154 -336h-96l70 336h180z" />
    <glyph glyph-name="gcommaaccent" unicode="&#x123;" horiz-adv-x="1189" 
d="M655 1133h-186l166 325h96zM530 977q129 0 223.5 -61t145.5 -175l8 2q-18 55 -18 203h172v-913q0 -235 -128.5 -354t-383.5 -119q-242 0 -416 112l84 156q166 -102 336 -102q155 0 247.5 76t92.5 204v45q0 86 14 152l-8 2q-53 -114 -147.5 -174t-221.5 -60
q-204 0 -333 140t-129 362q0 223 129 363.5t333 140.5zM563 813q-144 0 -227.5 -91.5t-83.5 -248.5q0 -158 83 -249t226 -91q149 0 243.5 94.5t94.5 245.5q0 150 -94 245t-242 95z" />
    <glyph glyph-name="Hcircumflex" unicode="&#x124;" horiz-adv-x="1447" 
d="M395 1522v8l234 237h190l234 -237v-8h-162l-66 65q-51 49 -70 73.5t-28 53.5h-6q-7 -28 -25.5 -51.5t-70.5 -75.5l-68 -65h-162zM1290 1434v-1434h-184v625q0 36 6 51l-4 4q-19 -8 -51 -8h-666q-32 0 -51 8l-4 -4q6 -15 6 -51v-625h-184v1434h184v-537q0 -36 -6 -51l4 -4
q19 8 51 8h666q32 0 51 -8l4 4q-6 15 -6 51v537h184z" />
    <glyph glyph-name="hcircumflex" unicode="&#x125;" horiz-adv-x="1128" 
d="M-102 1522v8l233 237h191l233 -237v-8h-162l-65 65q-52 50 -71.5 74t-27.5 53h-6q-7 -28 -25.5 -51.5t-70.5 -75.5l-68 -65h-161zM313 1464v-526q0 -123 -20 -217l8 -2q99 258 358 258q162 0 251 -97t89 -272v-608h-172v563q0 120 -58 184t-167 64q-137 0 -213 -96
t-76 -269v-446h-174v1464h174z" />
    <glyph glyph-name="Hbar" unicode="&#x126;" horiz-adv-x="1427" 
d="M147 0v1008q0 34 5 49l-2 2q-20 -4 -44 -4h-106v153h106q29 0 44 -6l2 4q-5 13 -5 47v181h183v-181q0 -32 -6 -47l4 -4q15 6 43 6h686q31 0 43 -6l4 4q-4 10 -4 47v181h180v-181q0 -37 -4 -47l4 -4q12 6 39 6h108v-153h-108q-23 0 -39 4l-4 -2q4 -12 4 -49v-1008h-180
v629q0 37 4 49l-4 2q-8 -4 -43 -4h-684q-35 0 -45 4l-4 -2q6 -18 6 -49v-629h-183zM328 842q15 6 45 6h684q31 0 43 -6l4 4q-4 8 -4 47v115q0 37 4 49l-4 2q-16 -4 -43 -4h-686q-23 0 -43 4l-4 -2q6 -18 6 -49v-115q0 -35 -6 -47z" />
    <glyph glyph-name="hbar" unicode="&#x127;" horiz-adv-x="1132" 
d="M666 977q155 0 247.5 -92t92.5 -277v-608h-172v559q0 129 -60.5 190.5t-165.5 61.5q-129 0 -209 -90t-80 -275v-446h-174v1118q0 34 11 56l-2 2q-18 -9 -58 -9h-88v109h88q42 0 58 -8l2 2q-11 22 -11 53v141h174v-141q0 -33 -10 -53l2 -2q16 8 56 8h268v-109h-268
q-38 0 -56 9l-2 -2q10 -20 10 -56v-180q0 -114 -20 -217l8 -2q96 258 359 258z" />
    <glyph glyph-name="Itilde" unicode="&#x128;" horiz-adv-x="499" 
d="M-18 1530l-76 22q56 195 209 195q55 0 174 -40t164 -40q36 0 59 18t45 58l74 -23q-56 -194 -207 -194q-57 0 -175.5 40t-162.5 40q-37 0 -59.5 -18t-44.5 -58zM342 1434v-1434h-184v1434h184z" />
    <glyph glyph-name="itilde" unicode="&#x129;" horiz-adv-x="452" 
d="M117 1425q36 0 74.5 -16t65.5 -35t57 -35t51 -16q53 0 86 102l79 -28q-43 -205 -174 -205q-45 0 -93.5 25.5t-88.5 51t-65 25.5q-54 0 -86 -100l-80 27q16 91 59 147.5t115 56.5zM313 946v-946h-174v946h174z" />
    <glyph glyph-name="Imacron" unicode="&#x12a;" horiz-adv-x="499" 
d="M-45 1683h590v-120h-590v120zM342 1434v-1434h-184v1434h184z" />
    <glyph glyph-name="imacron" unicode="&#x12b;" horiz-adv-x="452" 
d="M438 1368v-127h-422v127h422zM313 946v-946h-174v946h174z" />
    <glyph glyph-name="Ibreve" unicode="&#x12c;" horiz-adv-x="499" 
d="M532 1747q-4 -105 -80.5 -165t-199.5 -60q-124 0 -201.5 60t-81.5 165h127q6 -51 46.5 -78t109.5 -27q68 0 108 27t46 78h126zM342 1434v-1434h-184v1434h184z" />
    <glyph glyph-name="ibreve" unicode="&#x12d;" horiz-adv-x="452" 
d="M463 1444q0 -138 -60 -217.5t-178 -79.5q-117 0 -176 79.5t-59 217.5h125q2 -93 24.5 -137.5t85.5 -44.5q65 0 88 44.5t25 137.5h125zM313 946v-946h-174v946h174z" />
    <glyph glyph-name="Iogonek" unicode="&#x12e;" horiz-adv-x="499" 
d="M256 0q-168 -131 -168 -209q0 -63 82 -63q44 0 88 12l27 -100q-75 -27 -140 -27q-78 0 -129 38.5t-51 106.5q0 66 47.5 127.5t145.5 132.5v1416h184v-1434h-86z" />
    <glyph glyph-name="iogonek" unicode="&#x12f;" horiz-adv-x="452" 
d="M129 1434h197v-269h-197v269zM139 39v907h174v-946h-104q-168 -131 -168 -209q0 -63 82 -63q45 0 88 12l27 -100q-75 -27 -140 -27q-78 0 -129 38.5t-51 106.5q0 71 54.5 136.5t166.5 144.5z" />
    <glyph glyph-name="Idotaccent" unicode="&#x130;" horiz-adv-x="499" 
d="M338 1747v-225h-178v225h178zM342 1434v-1434h-184v1434h184z" />
    <glyph glyph-name="dotlessi" unicode="&#x131;" horiz-adv-x="452" 
d="M313 946v-946h-174v946h174z" />
    <glyph glyph-name="IJ" unicode="&#x132;" horiz-adv-x="1101" 
d="M342 1434v-1434h-184v1434h184zM942 1434v-1098q0 -179 -72.5 -262.5t-226.5 -83.5q-40 0 -92 6v174q31 -2 74 -2q68 0 100.5 36t32.5 126v1104h184z" />
    <glyph glyph-name="ij" unicode="&#x133;" horiz-adv-x="905" 
d="M326 1434v-269h-197v269h197zM778 1434v-269h-196v269h196zM313 946v-946h-174v946h174zM766 946v-1016q0 -189 -90 -279.5t-258 -90.5h-15v170h15q174 0 174 200v1016h174z" />
    <glyph glyph-name="Jcircumflex" unicode="&#x134;" horiz-adv-x="600" 
d="M20 1522v8l234 237h190l234 -237v-8h-162l-65 65q-52 50 -71.5 74t-27.5 53h-6q-7 -28 -25.5 -51.5t-70.5 -75.5l-68 -65h-162zM442 1434v-1098q0 -179 -72.5 -262.5t-226.5 -83.5q-39 0 -92 6v174q31 -2 74 -2q68 0 100.5 36t32.5 126v1104h184z" />
    <glyph glyph-name="jcircumflex" unicode="&#x135;" horiz-adv-x="452" 
d="M307 1448l160 -311v-4h-133l-60 120q-37 76 -45 129h-4q-11 -55 -47 -129l-59 -120h-133v4l161 311h160zM313 946v-1016q0 -189 -90 -279.5t-258 -90.5h-14v170h14q174 0 174 200v1016h174z" />
    <glyph glyph-name="Kcommaaccent" unicode="&#x136;" horiz-adv-x="1241" 
d="M1161 1434l-504 -555q-44 -49 -68.5 -71t-53.5 -40v-8q11 -6 20 -12.5t15.5 -11.5t17 -15.5t15.5 -16t21.5 -23t24.5 -26.5l582 -655h-252l-647 735l-4 -2q14 -85 14 -239v-494h-184v1434h184v-408q0 -155 -14 -238l4 -4l577 650h252zM752 -104l-154 -336h-96l69 336h181
z" />
    <glyph glyph-name="kcommaaccent" unicode="&#x137;" horiz-adv-x="980" 
d="M313 1464v-737q0 -129 -16 -197l6 -2l385 418h232l-349 -352q-64 -64 -96 -78l2 -8q29 -12 92 -72l408 -436h-234l-440 485l-6 -4q16 -65 16 -194v-287h-174v1464h174zM608 -104l-153 -336h-97l70 336h180z" />
    <glyph glyph-name="kgreenlandic" unicode="&#x138;" horiz-adv-x="976" 
d="M139 0v946h174v-219q0 -129 -16 -197l6 -2l365 418h227l-326 -350q-46 -50 -86 -80v-6q42 -26 84 -72l406 -438h-238l-432 485l-6 -4q16 -65 16 -194v-287h-174z" />
    <glyph glyph-name="Lacute" unicode="&#x139;" horiz-adv-x="1003" 
d="M567 1747l2 -6l-258 -219h-121l-2 4l181 221h198zM342 1434v-1211q0 -34 -6 -49l4 -4q14 6 51 6h590v-176h-823v1434h184z" />
    <glyph glyph-name="lacute" unicode="&#x13a;" horiz-adv-x="452" 
d="M543 1747l2 -6l-258 -219h-121l-2 4l180 221h199zM313 1464v-1464h-174v1464h174z" />
    <glyph glyph-name="Lcommaaccent" unicode="&#x13b;" horiz-adv-x="1003" 
d="M342 1434v-1211q0 -34 -6 -49l4 -4q14 6 51 6h590v-176h-823v1434h184zM672 -104l-154 -336h-96l70 336h180z" />
    <glyph glyph-name="lcommaaccent" unicode="&#x13c;" horiz-adv-x="452" 
d="M313 1464v-1464h-174v1464h174zM317 -104l-153 -336h-96l69 336h180z" />
    <glyph glyph-name="Lcaron" unicode="&#x13d;" horiz-adv-x="1003" 
d="M635 1495h182l-145 -487h-97zM342 1434v-1211q0 -34 -6 -49l4 -4q14 6 51 6h590v-176h-823v1434h184z" />
    <glyph glyph-name="lcaron" unicode="&#x13e;" horiz-adv-x="661" 
d="M485 1495h183l-146 -405h-96zM313 1464v-1464h-174v1464h174z" />
    <glyph glyph-name="Ldot" unicode="&#x13f;" horiz-adv-x="1003" 
d="M342 1434v-1211q0 -34 -6 -49l4 -4q14 6 51 6h590v-176h-823v1434h184zM637 723v233h219v-233h-219z" />
    <glyph glyph-name="ldot" unicode="&#x140;" horiz-adv-x="645" 
d="M313 1464v-1464h-174v1464h174zM414 713v233h219v-233h-219z" />
    <glyph glyph-name="Lslash" unicode="&#x141;" horiz-adv-x="1001" 
d="M158 0v514q0 77 10 102l-4 2q-25 -28 -88 -59l-92 -49v133l174 90v701h184v-527q0 -55 -20 -96l4 -2q14 16 30.5 26.5t57.5 30.5l286 150v-135l-358 -185v-473q0 -34 -6 -49l2 -4q14 6 53 6h588v-176h-821z" />
    <glyph glyph-name="lslash" unicode="&#x142;" horiz-adv-x="540" 
d="M176 0v598q0 58 19 98l-2 2q-27 -30 -64 -49l-111 -57v133l158 84v655h174v-469q0 -83 -22 -121l2 -2q34 34 71 54l123 63v-133l-174 -92v-764h-174z" />
    <glyph glyph-name="Nacute" unicode="&#x143;" horiz-adv-x="1492" 
d="M1077 1747l2 -6l-258 -219h-121l-2 4l181 221h198zM176 1454l873 -928q81 -81 112 -159l8 2q-20 92 -20 258v807h184v-1454h-16l-875 927q-76 79 -112 160l-6 -2q18 -82 18 -256v-809h-184v1454h18z" />
    <glyph glyph-name="nacute" unicode="&#x144;" horiz-adv-x="1126" 
d="M909 1448l2 -6l-270 -309h-121l-2 6l191 309h200zM653 977q166 0 255 -96t89 -273v-608h-172v563q0 120 -58 184t-167 64q-137 0 -213 -96t-76 -269v-446h-174v946h174q0 -144 -20 -241l8 -3q95 275 354 275z" />
    <glyph glyph-name="Ncommaaccent" unicode="&#x145;" horiz-adv-x="1492" 
d="M176 1454l873 -928q81 -81 112 -159l8 2q-20 92 -20 258v807h184v-1454h-16l-875 927q-76 79 -112 160l-6 -2q18 -82 18 -256v-809h-184v1454h18zM872 -104l-153 -336h-96l69 336h180z" />
    <glyph glyph-name="ncommaaccent" unicode="&#x146;" horiz-adv-x="1126" 
d="M653 977q166 0 255 -96t89 -273v-608h-172v563q0 120 -58 184t-167 64q-137 0 -213 -96t-76 -269v-446h-174v946h174q0 -144 -20 -241l8 -3q95 275 354 275zM666 -104l-154 -336h-96l69 336h181z" />
    <glyph glyph-name="Ncaron" unicode="&#x147;" horiz-adv-x="1492" 
d="M1087 1767v-8l-233 -237h-190l-234 237v8h162l67 -65q38 -38 52 -53t27 -34.5t18 -39.5h6q8 28 27 51.5t71 75.5l66 65h161zM176 1454l873 -928q81 -81 112 -159l8 2q-20 92 -20 258v807h184v-1454h-16l-875 927q-76 79 -112 160l-6 -2q18 -82 18 -256v-809h-184v1454h18
z" />
    <glyph glyph-name="ncaron" unicode="&#x148;" horiz-adv-x="1126" 
d="M492 1133l-240 311v4h160l90 -121q9 -13 25 -35.5t20.5 -29.5t12.5 -20t11.5 -21.5t6.5 -20.5h6q2 10 6 19t6.5 15t10.5 18.5t12.5 18.5t18 25.5t21.5 30.5l89 121h161v-4l-239 -311h-178zM653 977q166 0 255 -96t89 -273v-608h-172v563q0 120 -58 184t-167 64
q-137 0 -213 -96t-76 -269v-446h-174v946h174q0 -144 -20 -241l8 -3q95 275 354 275z" />
    <glyph glyph-name="napostrophe" unicode="&#x149;" horiz-adv-x="1126" 
d="M35 1495h182l-145 -487h-97zM653 977q166 0 255 -96t89 -273v-608h-172v563q0 120 -58 184t-167 64q-137 0 -213 -96t-76 -269v-446h-174v946h174q0 -144 -20 -241l8 -3q95 275 354 275z" />
    <glyph glyph-name="Eng" unicode="&#x14a;" horiz-adv-x="1492" 
d="M1333 1434v-1454v-37q0 -185 -87 -269t-249 -84h-108v177h108q78 0 115 41t37 135v215l-707 749q-76 79 -112 160l-6 -2q18 -82 18 -256v-809h-184v1454h18l873 -928q81 -81 112 -159l8 2q-20 92 -20 258v807h184z" />
    <glyph glyph-name="eng" unicode="&#x14b;" horiz-adv-x="1126" 
d="M997 0h2v-80q0 -162 -81.5 -246t-229.5 -84h-108v170h106q139 0 139 160v80v563q0 120 -58 184t-167 64q-137 0 -213 -96t-76 -269v-446h-174v946h174q0 -144 -20 -241l8 -3q95 275 354 275q166 0 255 -96t89 -273v-608z" />
    <glyph glyph-name="Omacron" unicode="&#x14c;" horiz-adv-x="1646" 
d="M528 1683h590v-120h-590v120zM823 1464q214 0 385 -95.5t267 -266.5t96 -385t-96 -385t-267 -267t-385 -96t-385 96t-266.5 267t-95.5 385q0 160 56 299t154.5 237.5t237.5 154.5t299 56zM823 1276q-240 0 -393.5 -156.5t-153.5 -402.5t153.5 -402.5t393.5 -156.5
t393.5 156.5t153.5 402.5t-153.5 402.5t-393.5 156.5z" />
    <glyph glyph-name="omacron" unicode="&#x14d;" horiz-adv-x="1167" 
d="M877 1368v-127h-586v127h586zM584 977q224 0 369 -142.5t145 -361.5t-145 -361.5t-369 -142.5t-370 143t-146 361t146 361t370 143zM584 807q-148 0 -240 -92.5t-92 -241.5t92 -241.5t240 -92.5t239.5 92.5t91.5 241.5t-91.5 241.5t-239.5 92.5z" />
    <glyph glyph-name="Obreve" unicode="&#x14e;" horiz-adv-x="1646" 
d="M1106 1747q-4 -105 -81 -165t-200 -60q-124 0 -201 60t-81 165h127q6 -51 46 -78t109 -27q68 0 108 27t46 78h127zM823 1464q214 0 385 -95.5t267 -266.5t96 -385t-96 -385t-267 -267t-385 -96t-385 96t-266.5 267t-95.5 385q0 160 56 299t154.5 237.5t237.5 154.5
t299 56zM823 1276q-240 0 -393.5 -156.5t-153.5 -402.5t153.5 -402.5t393.5 -156.5t393.5 156.5t153.5 402.5t-153.5 402.5t-393.5 156.5z" />
    <glyph glyph-name="obreve" unicode="&#x14f;" horiz-adv-x="1167" 
d="M864 1444q0 -139 -77.5 -218t-202.5 -79q-126 0 -204.5 79t-78.5 218h125q3 -89 44 -132.5t114 -43.5q71 0 112.5 44t44.5 132h123zM584 977q224 0 369 -142.5t145 -361.5t-145 -361.5t-369 -142.5t-370 143t-146 361t146 361t370 143zM584 807q-148 0 -240 -92.5
t-92 -241.5t92 -241.5t240 -92.5t239.5 92.5t91.5 241.5t-91.5 241.5t-239.5 92.5z" />
    <glyph glyph-name="Ohungarumlaut" unicode="&#x150;" horiz-adv-x="1646" 
d="M983 1747l2 -6l-207 -219h-123v4l193 221h135zM885 1526l194 221h133l2 -6l-204 -219h-123zM823 1464q214 0 385 -95.5t267 -266.5t96 -385t-96 -385t-267 -267t-385 -96t-385 96t-266.5 267t-95.5 385q0 160 56 299t154.5 237.5t237.5 154.5t299 56zM823 1276
q-240 0 -393.5 -156.5t-153.5 -402.5t153.5 -402.5t393.5 -156.5t393.5 156.5t153.5 402.5t-153.5 402.5t-393.5 156.5z" />
    <glyph glyph-name="ohungarumlaut" unicode="&#x151;" horiz-adv-x="1167" 
d="M367 1133l-2 4l231 311h145l2 -4l-243 -311h-133zM647 1133l-2 4l229 311h146l2 -4l-244 -311h-131zM584 977q224 0 369 -142.5t145 -361.5t-145 -361.5t-369 -142.5t-370 143t-146 361t146 361t370 143zM584 807q-148 0 -240 -92.5t-92 -241.5t92 -241.5t240 -92.5
t239.5 92.5t91.5 241.5t-91.5 241.5t-239.5 92.5z" />
    <glyph glyph-name="OE" unicode="&#x152;" horiz-adv-x="2281" 
d="M807 -31q-154 0 -289.5 55.5t-232.5 153t-153 237.5t-56 302t56 302t153 237t232.5 152.5t289.5 55.5q375 0 569 -268l4 2q-6 33 -6 100v136h805v-174h-571q-35 0 -54 8l-2 -4q7 -18 7 -54v-292q0 -34 -7 -52l2 -4q19 8 54 8h503v-174h-503q-33 0 -54 6l-2 -2
q7 -21 7 -53v-424q0 -35 -7 -53l2 -4q19 8 54 8h579v-174h-813v135q0 72 6 107l-2 2q-202 -275 -571 -275zM823 158q160 0 286 72.5t195.5 200t69.5 286.5q0 245 -154 402t-397 157q-239 0 -393 -157.5t-154 -401.5t154 -401.5t393 -157.5z" />
    <glyph glyph-name="oe" unicode="&#x153;" horiz-adv-x="1906" 
d="M578 -31q-222 0 -366 141t-144 363t143.5 363t368.5 141q288 0 405 -246h8q107 246 387 246q221 0 340 -138t119 -362v-35h-643q-80 0 -113 13l-4 -4l6 -21q12 -144 98 -220.5t228 -76.5q98 0 165 39.5t132 114.5l109 -113q-49 -63 -102.5 -105.5t-134 -71t-177.5 -28.5
q-299 0 -412 254h-8q-119 -254 -405 -254zM1087 555q33 16 107 16h328q105 0 133 -14l4 4q-17 130 -92 196t-193 66q-110 0 -191 -62.5t-100 -201.5zM575 139q138 0 231 92.5t93 241.5t-93 241.5t-231 92.5t-230.5 -92.5t-92.5 -241.5t92.5 -241.5t230.5 -92.5z" />
    <glyph glyph-name="Racute" unicode="&#x154;" horiz-adv-x="1214" 
d="M866 1747l2 -6l-258 -219h-121l-2 4l181 221h198zM625 1434q197 0 312.5 -105t115.5 -287q0 -84 -32 -155.5t-84 -118t-117 -72.5t-132 -26q-37 0 -70 10v-8q65 -25 132 -107l446 -565h-240l-514 657h-53q-35 0 -49 7l-4 -5q6 -18 6 -53v-606h-184v1434h467zM340 1268
l-4 -4q6 -15 6 -54v-329q0 -34 -6 -52l4 -2q24 7 51 7h234q110 0 170.5 55t60.5 155q0 98 -59.5 157t-171.5 59h-234q-35 0 -51 8z" />
    <glyph glyph-name="racute" unicode="&#x155;" horiz-adv-x="702" 
d="M719 1448l2 -6l-270 -309h-121l-2 6l190 309h201zM627 975q27 0 45 -2v-199q-35 4 -70 4q-142 0 -216.5 -96.5t-74.5 -278.5v-403h-174v946h174q0 -143 -24 -270l10 -4q70 303 330 303z" />
    <glyph glyph-name="Rcommaaccent" unicode="&#x156;" horiz-adv-x="1214" 
d="M625 1434q197 0 312.5 -105t115.5 -287q0 -84 -32 -155.5t-84 -118t-117 -72.5t-132 -26q-37 0 -70 10v-8q65 -25 132 -107l446 -565h-240l-514 657h-53q-35 0 -49 7l-4 -5q6 -18 6 -53v-606h-184v1434h467zM340 1268l-4 -4q6 -15 6 -54v-329q0 -34 -6 -52l4 -2
q24 7 51 7h234q110 0 170.5 55t60.5 155q0 98 -59.5 157t-171.5 59h-234q-35 0 -51 8zM748 -104l-154 -336h-96l69 336h181z" />
    <glyph glyph-name="rcommaaccent" unicode="&#x157;" horiz-adv-x="702" 
d="M627 975q27 0 45 -2v-199q-35 4 -70 4q-142 0 -216.5 -96.5t-74.5 -278.5v-403h-174v946h174q0 -143 -24 -270l10 -4q70 303 330 303zM313 -104l-153 -336h-97l70 336h180z" />
    <glyph glyph-name="Rcaron" unicode="&#x158;" horiz-adv-x="1214" 
d="M879 1767v-8l-234 -237h-190l-234 237v8h162l68 -65q52 -52 70.5 -75.5t25.5 -51.5h6q8 28 27 51.5t71 75.5l66 65h162zM625 1434q197 0 312.5 -105t115.5 -287q0 -84 -32 -155.5t-84 -118t-117 -72.5t-132 -26q-37 0 -70 10v-8q65 -25 132 -107l446 -565h-240l-514 657
h-53q-35 0 -49 7l-4 -5q6 -18 6 -53v-606h-184v1434h467zM340 1268l-4 -4q6 -15 6 -54v-329q0 -34 -6 -52l4 -2q24 7 51 7h234q110 0 170.5 55t60.5 155q0 98 -59.5 157t-171.5 59h-234q-35 0 -51 8z" />
    <glyph glyph-name="rcaron" unicode="&#x159;" horiz-adv-x="702" 
d="M299 1133l-240 311v4h160l90 -121q9 -13 25 -35.5t20.5 -29.5t12.5 -20t11.5 -21.5t6.5 -20.5h6q3 12 6.5 20.5t11.5 21.5t12.5 20t20.5 29.5t25 35.5l88 121h162v-4l-240 -311h-178zM627 975q27 0 45 -2v-199q-35 4 -70 4q-142 0 -216.5 -96.5t-74.5 -278.5v-403h-174
v946h174q0 -143 -24 -270l10 -4q70 303 330 303z" />
    <glyph glyph-name="Sacute" unicode="&#x15a;" horiz-adv-x="1009" 
d="M856 1747l2 -6l-258 -219h-121l-2 4l180 221h199zM528 1464q183 0 371 -94l-84 -176q-152 84 -291 84q-95 0 -142.5 -37.5t-47.5 -105.5q0 -56 30 -99.5t103 -99.5l244 -184q122 -90 177.5 -180.5t55.5 -209.5q0 -187 -122 -290t-330 -103q-126 0 -245 36.5t-212 96.5
l86 172q197 -116 373 -116q121 0 186 53t65 141q0 65 -38 121t-127 123l-240 184q-105 81 -156 161.5t-51 184.5q0 156 105 247t290 91z" />
    <glyph glyph-name="sacute" unicode="&#x15b;" horiz-adv-x="847" 
d="M774 1448l2 -6l-270 -309h-121l-2 6l190 309h201zM432 -31q-217 0 -389 107l80 153q154 -96 313 -96q170 0 170 109q0 37 -26.5 66.5t-87.5 56.5l-173 84q-104 50 -154 115.5t-50 154.5q0 122 86.5 190t242.5 68q160 0 324 -74l-72 -151q-141 63 -256 63q-141 0 -141 -92
q0 -39 28 -69t93 -60l174 -82q104 -49 150.5 -112t46.5 -152q0 -132 -94.5 -205.5t-264.5 -73.5z" />
    <glyph glyph-name="Scircumflex" unicode="&#x15c;" horiz-adv-x="1009" 
d="M211 1522v8l233 237h191l233 -237v-8h-161l-66 65q-51 49 -70 73.5t-28 53.5h-6q-7 -28 -25.5 -51t-71.5 -76l-67 -65h-162zM528 1464q183 0 371 -94l-84 -176q-152 84 -291 84q-95 0 -142.5 -37.5t-47.5 -105.5q0 -56 30 -99.5t103 -99.5l244 -184q122 -90 177.5 -180.5
t55.5 -209.5q0 -187 -122 -290t-330 -103q-126 0 -245 36.5t-212 96.5l86 172q197 -116 373 -116q121 0 186 53t65 141q0 65 -38 121t-127 123l-240 184q-105 81 -156 161.5t-51 184.5q0 156 105 247t290 91z" />
    <glyph glyph-name="scircumflex" unicode="&#x15d;" horiz-adv-x="847" 
d="M535 1448l227 -311v-4h-152l-86 120q-42 60 -55.5 84.5t-22.5 53.5h-4q-8 -30 -21 -54t-54 -84l-86 -120h-152v4l227 311h179zM432 -31q-217 0 -389 107l80 153q154 -96 313 -96q170 0 170 109q0 37 -26.5 66.5t-87.5 56.5l-173 84q-104 50 -154 115.5t-50 154.5
q0 122 86.5 190t242.5 68q160 0 324 -74l-72 -151q-141 63 -256 63q-141 0 -141 -92q0 -39 28 -69t93 -60l174 -82q104 -49 150.5 -112t46.5 -152q0 -132 -94.5 -205.5t-264.5 -73.5z" />
    <glyph glyph-name="Scedilla" unicode="&#x15e;" horiz-adv-x="1009" 
d="M944 362q0 -177 -108 -278.5t-295 -112.5l-17 -45q81 -23 129.5 -57t48.5 -92q0 -32 -18 -62.5t-41.5 -52t-66 -47t-70.5 -39t-76 -35.5l-29 60q103 59 127 80q31 27 31 53q0 55 -149 88l55 147q-238 9 -430 133l86 172q197 -116 373 -116q121 0 186 53t65 141
q0 65 -38 121t-127 123l-240 184q-105 81 -156 161.5t-51 184.5q0 156 105 247t290 91q183 0 371 -94l-84 -176q-152 84 -291 84q-95 0 -142.5 -37.5t-47.5 -105.5q0 -56 30 -99.5t103 -99.5l244 -184q122 -90 177.5 -180.5t55.5 -209.5z" />
    <glyph glyph-name="scedilla" unicode="&#x15f;" horiz-adv-x="847" 
d="M791 248q0 -123 -82.5 -195.5t-233.5 -81.5l-16 -45q81 -23 129.5 -57t48.5 -92q0 -32 -18 -62.5t-41.5 -52t-66 -47t-70.5 -39t-76 -35.5l-29 60q103 59 127 80q31 27 31 53q0 55 -150 88l55 147q-195 9 -356 107l80 153q154 -96 313 -96q170 0 170 109q0 37 -26.5 66.5
t-87.5 56.5l-173 84q-104 50 -154 115.5t-50 154.5q0 122 86.5 190t242.5 68q160 0 324 -74l-72 -151q-141 63 -256 63q-141 0 -141 -92q0 -39 28 -69t93 -60l174 -82q104 -49 150.5 -112t46.5 -152z" />
    <glyph glyph-name="Scaron" unicode="&#x160;" horiz-adv-x="1009" 
d="M868 1767v-8l-233 -237h-191l-233 237v8h162l67 -65q38 -38 52 -53t27 -34.5t18 -39.5h6q8 28 27 51.5t71 75.5l66 65h161zM528 1464q183 0 371 -94l-84 -176q-152 84 -291 84q-95 0 -142.5 -37.5t-47.5 -105.5q0 -56 30 -99.5t103 -99.5l244 -184q122 -90 177.5 -180.5
t55.5 -209.5q0 -187 -122 -290t-330 -103q-126 0 -245 36.5t-212 96.5l86 172q197 -116 373 -116q121 0 186 53t65 141q0 65 -38 121t-127 123l-240 184q-105 81 -156 161.5t-51 184.5q0 156 105 247t290 91z" />
    <glyph glyph-name="scaron" unicode="&#x161;" horiz-adv-x="847" 
d="M356 1133l-239 311v4h159l91 -121q8 -11 21.5 -30.5t18 -25.5t12.5 -18.5t10.5 -18.5t6.5 -15t6 -19h7q2 10 6 19t6.5 15t10.5 18.5t12.5 18.5t18 25.5t21.5 30.5l88 121h162v-4l-239 -311h-179zM432 -31q-217 0 -389 107l80 153q154 -96 313 -96q170 0 170 109
q0 37 -26.5 66.5t-87.5 56.5l-173 84q-104 50 -154 115.5t-50 154.5q0 122 86.5 190t242.5 68q160 0 324 -74l-72 -151q-141 63 -256 63q-141 0 -141 -92q0 -39 28 -69t93 -60l174 -82q104 -49 150.5 -112t46.5 -152q0 -132 -94.5 -205.5t-264.5 -73.5z" />
    <glyph glyph-name="uni0162" unicode="&#x162;" horiz-adv-x="1058" 
d="M672 1257q-38 0 -54 7l-2 -4q7 -18 7 -50v-1210h-54l-26 -74q81 -23 129.5 -57t48.5 -92q0 -32 -18 -62.5t-41.5 -52t-66 -47t-70.5 -39t-76 -35.5l-29 60q103 59 127 80q31 27 31 53q0 55 -150 88l66 178h-56v1210q0 35 6 50l-4 4q-16 -7 -51 -7h-369v177h1018v-177
h-366z" />
    <glyph glyph-name="uni0163" unicode="&#x163;" horiz-adv-x="636" 
d="M475 782q-58 0 -78 15l-6 -4q8 -31 8 -99v-694h-47l-26 -74q81 -23 129.5 -57t48.5 -92q0 -32 -18 -62.5t-41.5 -52t-66.5 -47t-70.5 -39t-76.5 -35.5l-28 60q103 59 128 81q28 27 29 52q0 55 -149 88l65 178h-49v694q0 64 9 99l-5 4q-20 -15 -79 -15h-99v164h99
q57 0 79 -14l5 4q-9 35 -9 96v297l162 123h10v-420q0 -65 -8 -96l6 -4q22 14 78 14h109v-164h-109z" />
    <glyph glyph-name="Tcaron" unicode="&#x164;" horiz-adv-x="1058" 
d="M860 1767v-8l-233 -237h-191l-233 237v8h162l67 -65q52 -52 70.5 -75.5t25.5 -51.5h7q8 28 27 51.5t71 75.5l65 65h162zM1038 1434v-177h-366q-38 0 -54 7l-2 -4q7 -18 7 -50v-1210h-185v1210q0 35 6 50l-4 4q-16 -7 -51 -7h-369v177h1018z" />
    <glyph glyph-name="tcaron" unicode="&#x165;" horiz-adv-x="811" 
d="M614 1495h183l-146 -405h-96zM399 1452v-420q0 -65 -8 -96l6 -4q22 14 78 14h109v-164h-109q-58 0 -78 15l-6 -4q8 -31 8 -99v-694h-172v694q0 64 9 99l-5 4q-20 -15 -79 -15h-99v164h99q57 0 79 -14l5 4q-9 35 -9 96v297l162 123h10z" />
    <glyph glyph-name="Tbar" unicode="&#x166;" horiz-adv-x="1058" 
d="M670 1260q-36 0 -52 8l-4 -4q7 -18 7 -52v-221q0 -35 -5 -47l2 -4q15 6 44 6h247v-153h-247q-34 0 -44 4l-2 -2q5 -15 5 -50v-745h-183v745q0 32 6 50l-4 2q-10 -4 -43 -4h-243v153h243q28 0 43 -6l4 4q-6 15 -6 47v221q0 37 6 52l-2 4q-19 -8 -53 -8h-369v174h1018v-174
h-368z" />
    <glyph glyph-name="tbar" unicode="&#x167;" horiz-adv-x="636" 
d="M227 0v465q0 39 4 51l-4 4q-11 -8 -43 -8h-121v111h121q29 0 43 -7l4 5q-4 10 -4 55v51q0 29 9 66l-5 4q-20 -15 -79 -15h-99v164h99q57 0 79 -14l5 4q-9 35 -9 96v297l162 123h10v-420q0 -65 -8 -96l6 -4q22 14 78 14h109v-164h-109q-58 0 -78 15l-6 -4q8 -36 8 -66v-51
q0 -45 -4 -55l4 -5q18 7 45 7h129v-111h-129q-34 0 -45 8l-4 -4q4 -12 4 -51v-465h-172z" />
    <glyph glyph-name="Utilde" unicode="&#x168;" horiz-adv-x="1394" 
d="M430 1530l-76 22q56 195 209 195q55 0 174 -40t164 -40q36 0 59.5 18.5t45.5 57.5l73 -23q-56 -194 -207 -194q-57 0 -175 40t-162 40q-37 0 -60 -18t-45 -58zM1255 1434v-899q0 -260 -151 -412t-406 -152q-256 0 -407.5 152t-151.5 412v899h193v-891q0 -181 98.5 -282
t267.5 -101q168 0 266.5 101t98.5 282v891h192z" />
    <glyph glyph-name="utilde" unicode="&#x169;" horiz-adv-x="1073" 
d="M393 1425q51 0 113 -25.5t117 -51t88 -25.5q69 0 108 102l80 -28q-21 -91 -70 -148t-131 -57q-52 0 -114 25.5t-117 51t-88 25.5q-69 0 -109 -100l-80 27q48 204 203 204zM946 946v-946h-170q0 137 21 223l-9 2q-46 -130 -128 -193t-209 -63q-159 0 -246.5 103t-87.5 290
v584h178v-555q0 -124 57.5 -190t163.5 -66q123 0 190.5 96t67.5 269v446h172z" />
    <glyph glyph-name="Umacron" unicode="&#x16a;" horiz-adv-x="1394" 
d="M401 1683h590v-120h-590v120zM1255 1434v-899q0 -260 -151 -412t-406 -152q-256 0 -407.5 152t-151.5 412v899h193v-891q0 -181 98.5 -282t267.5 -101q168 0 266.5 101t98.5 282v891h192z" />
    <glyph glyph-name="umacron" unicode="&#x16b;" horiz-adv-x="1073" 
d="M827 1368v-127h-585v127h585zM946 946v-946h-170q0 137 21 223l-9 2q-46 -130 -128 -193t-209 -63q-159 0 -246.5 103t-87.5 290v584h178v-555q0 -124 57.5 -190t163.5 -66q123 0 190.5 96t67.5 269v446h172z" />
    <glyph glyph-name="Ubreve" unicode="&#x16c;" horiz-adv-x="1394" 
d="M979 1747q-4 -105 -81 -165t-200 -60q-124 0 -201 60t-81 165h127q6 -51 46 -78t109 -27q68 0 108 27t46 78h127zM1255 1434v-899q0 -260 -151 -412t-406 -152q-256 0 -407.5 152t-151.5 412v899h193v-891q0 -181 98.5 -282t267.5 -101q168 0 266.5 101t98.5 282v891h192
z" />
    <glyph glyph-name="ubreve" unicode="&#x16d;" horiz-adv-x="1073" 
d="M817 1444q0 -139 -77.5 -218t-202.5 -79q-126 0 -204.5 79t-78.5 218h125q3 -89 44 -132.5t114 -43.5q71 0 112.5 44t44.5 132h123zM946 946v-946h-170q0 137 21 223l-9 2q-46 -130 -128 -193t-209 -63q-159 0 -246.5 103t-87.5 290v584h178v-555q0 -124 57.5 -190
t163.5 -66q123 0 190.5 96t67.5 269v446h172z" />
    <glyph glyph-name="Uring" unicode="&#x16e;" horiz-adv-x="1394" 
d="M698 1386q-101 0 -167 64t-66 164t66 164.5t167 64.5t167.5 -64.5t66.5 -164.5q0 -99 -66 -163.5t-168 -64.5zM698 1477q61 0 99.5 38.5t38.5 98.5q0 62 -38.5 100.5t-99.5 38.5t-99 -38.5t-38 -100.5q0 -60 38 -98.5t99 -38.5zM1255 1434v-899q0 -260 -151 -412
t-406 -152q-256 0 -407.5 152t-151.5 412v899h193v-891q0 -181 98.5 -282t267.5 -101q168 0 266.5 101t98.5 282v891h192z" />
    <glyph glyph-name="uring" unicode="&#x16f;" horiz-adv-x="1073" 
d="M535 1530q106 0 174.5 -68t68.5 -172t-68.5 -171.5t-174.5 -67.5t-175 67.5t-69 171.5t69 172t175 68zM535 1442q-68 0 -110 -42.5t-42 -109.5t42 -109t110 -42t109.5 42t41.5 109t-41.5 109.5t-109.5 42.5zM946 946v-946h-170q0 137 21 223l-9 2q-46 -130 -128 -193
t-209 -63q-159 0 -246.5 103t-87.5 290v584h178v-555q0 -124 57.5 -190t163.5 -66q123 0 190.5 96t67.5 269v446h172z" />
    <glyph glyph-name="Uhungarumlaut" unicode="&#x170;" horiz-adv-x="1394" 
d="M856 1747l2 -6l-207 -219h-123v4l193 221h135zM758 1526l194 221h133l2 -6l-204 -219h-123zM1255 1434v-899q0 -260 -151 -412t-406 -152q-256 0 -407.5 152t-151.5 412v899h193v-891q0 -181 98.5 -282t267.5 -101q168 0 266.5 101t98.5 282v891h192z" />
    <glyph glyph-name="uhungarumlaut" unicode="&#x171;" horiz-adv-x="1073" 
d="M319 1133l-2 4l232 311h145l2 -4l-243 -311h-134zM600 1133l-2 4l229 311h146l2 -4l-244 -311h-131zM946 946v-946h-170q0 137 21 223l-9 2q-46 -130 -128 -193t-209 -63q-159 0 -246.5 103t-87.5 290v584h178v-555q0 -124 57.5 -190t163.5 -66q123 0 190.5 96t67.5 269
v446h172z" />
    <glyph glyph-name="Uogonek" unicode="&#x172;" horiz-adv-x="1394" 
d="M1063 1434h192v-899q0 -189 -82 -324t-231 -195q-96 -76 -141 -129t-45 -96q0 -63 82 -63q44 0 88 12l26 -100q-75 -27 -139 -27q-78 0 -129 38.5t-51 106.5q0 102 135 215q-23 -2 -70 -2q-256 0 -407.5 152t-151.5 412v899h193v-891q0 -181 98.5 -282t267.5 -101
q168 0 266.5 101t98.5 282v891z" />
    <glyph glyph-name="uogonek" unicode="&#x173;" horiz-adv-x="1073" 
d="M854 0q-168 -131 -168 -209q0 -63 82 -63q44 0 88 12l27 -100q-75 -27 -140 -27q-78 0 -129 38.5t-51 106.5q0 69 53 134t160 141q3 117 21 190l-9 2q-46 -130 -128 -193t-209 -63q-159 0 -246.5 103t-87.5 290v584h178v-555q0 -124 57.5 -190t163.5 -66q123 0 190.5 96
t67.5 269v446h172v-946h-92z" />
    <glyph glyph-name="Wcircumflex" unicode="&#x174;" horiz-adv-x="1943" 
d="M643 1522v8l234 237h190l233 -237v-8h-161l-66 65q-51 49 -70 73.5t-28 53.5h-6q-7 -28 -25.5 -51t-71.5 -76l-67 -65h-162zM985 1456l297 -821q41 -114 54 -159.5t20 -108.5h8q7 64 21 114.5t49 151.5l274 801h211l-549 -1457h-20l-334 893q-33 85 -39 181h-8
q-10 -100 -39 -181l-336 -893h-21l-548 1457h213l272 -801q35 -101 49 -151.5t21 -114.5h8q9 65 22.5 112.5t51.5 155.5l299 821h24z" />
    <glyph glyph-name="wcircumflex" unicode="&#x175;" horiz-adv-x="1445" 
d="M813 1448l227 -311v-4h-151l-86 120q-42 60 -55.5 84.5t-22.5 53.5h-4q-7 -29 -20.5 -53t-55.5 -85l-86 -120h-151v4l227 311h178zM408 -12l-388 958h197l172 -473q22 -63 30 -95.5t11 -76.5h8q4 28 12 56t15.5 46.5t30.5 71.5l206 488h43l205 -488q23 -53 30.5 -71.5
t15.5 -46.5t12 -56h8q4 62 43 172l172 473h194l-385 -958h-45l-225 518q-39 93 -43 147h-8q-5 -61 -43 -147l-225 -518h-43z" />
    <glyph glyph-name="Ycircumflex" unicode="&#x176;" horiz-adv-x="1136" 
d="M240 1522v8l233 237h191l233 -237v-8h-162l-65 65q-52 50 -71.5 74t-27.5 53h-6q-7 -28 -25.5 -51.5t-70.5 -75.5l-68 -65h-161zM1122 1434l-463 -867v-567h-184v567l-461 867h222l239 -488q51 -107 65.5 -144t24.5 -89h4q4 19 8.5 35.5l7.5 27.5t13.5 34t15 33t22 47.5
t26.5 55.5l239 488h221z" />
    <glyph glyph-name="ycircumflex" unicode="&#x177;" horiz-adv-x="997" 
d="M594 1448l227 -311v-4h-151l-86 120q-42 60 -55.5 84.5t-22.5 53.5h-4q-7 -29 -20.5 -53t-55.5 -85l-86 -120h-152v4l228 311h178zM977 946l-580 -1358h-180l205 475l-402 883h199l232 -545q25 -59 36.5 -99t14.5 -91h8q2 72 41 166l237 569h189z" />
    <glyph glyph-name="Ydieresis" unicode="&#x178;" horiz-adv-x="1136" 
d="M313 1747h166v-225h-166v225zM659 1747h166v-225h-166v225zM1122 1434l-463 -867v-567h-184v567l-461 867h222l239 -488q51 -107 65.5 -144t24.5 -89h4q4 19 8.5 35.5l7.5 27.5t13.5 34t15 33t22 47.5t26.5 55.5l239 488h221z" />
    <glyph glyph-name="Zacute" unicode="&#x179;" horiz-adv-x="1193" 
d="M963 1747l2 -6l-258 -219h-121l-2 4l180 221h199zM1153 1434l2 -9l-821 -1269l2 -6q23 17 54 23.5t91 6.5h676l-94 -180h-1032l-6 8l827 1270l-4 6q-48 -31 -168 -31h-569l90 181h952z" />
    <glyph glyph-name="zacute" unicode="&#x17a;" horiz-adv-x="927" 
d="M852 1448l2 -6l-270 -309h-121l-2 6l190 309h201zM20 0l-6 10l609 799l-5 4q-40 -21 -77 -27t-117 -6h-354l104 166h733l4 -8l-600 -799l4 -6q36 21 76 27t133 6h385l-104 -166h-785z" />
    <glyph glyph-name="Zdotaccent" unicode="&#x17b;" horiz-adv-x="1193" 
d="M733 1747v-225h-178v225h178zM1153 1434l2 -9l-821 -1269l2 -6q23 17 54 23.5t91 6.5h676l-94 -180h-1032l-6 8l827 1270l-4 6q-48 -31 -168 -31h-569l90 181h952z" />
    <glyph glyph-name="zdotaccent" unicode="&#x17c;" horiz-adv-x="927" 
d="M621 1434v-269h-197v269h197zM20 0l-6 10l609 799l-5 4q-40 -21 -77 -27t-117 -6h-354l104 166h733l4 -8l-600 -799l4 -6q36 21 76 27t133 6h385l-104 -166h-785z" />
    <glyph glyph-name="Zcaron" unicode="&#x17d;" horiz-adv-x="1193" 
d="M973 1767v-8l-234 -237h-190l-234 237v8h162l68 -65q52 -52 70.5 -75.5t25.5 -51.5h6q8 28 27 51.5t71 75.5l66 65h162zM1153 1434l2 -9l-821 -1269l2 -6q23 17 54 23.5t91 6.5h676l-94 -180h-1032l-6 8l827 1270l-4 6q-48 -31 -168 -31h-569l90 181h952z" />
    <glyph glyph-name="zcaron" unicode="&#x17e;" horiz-adv-x="927" 
d="M434 1133l-239 311v4h159l90 -121q9 -13 25 -35.5t20.5 -29.5t12.5 -20t11.5 -21.5t6.5 -20.5h6q3 12 6.5 20.5t11.5 21.5t12.5 20t20.5 29.5t25 35.5l88 121h162v-4l-240 -311h-178zM20 0l-6 10l609 799l-5 4q-40 -21 -77 -27t-117 -6h-354l104 166h733l4 -8l-600 -799
l4 -6q36 21 76 27t133 6h385l-104 -166h-785z" />
    <glyph glyph-name="florin" unicode="&#x192;" horiz-adv-x="784" 
d="M647 1399q18 0 92 -4v-160q-49 6 -84 6q-190 0 -190 -203v-37q0 -43 -4 -59l2 -2q24 6 61 6h209v-61h-209q-25 0 -61 6l-2 -2q4 -58 4 -92v-844q0 -365 -311 -365q-39 0 -109 6v156q37 -4 105 -4q145 0 145 191v860q0 49 6 92l-2 2q-36 -6 -61 -6h-170v61h170q43 0 61 -6
l2 2q-6 24 -6 55v21q0 381 352 381z" />
    <glyph glyph-name="AEacute" unicode="&#x1fc;" horiz-adv-x="1873" 
d="M1442 1522h-121l-2 4l180 221h199l2 -6zM1264 176h520v-176h-746v352q0 36 6 54l-2 2q-24 -7 -53 -7h-485l-260 -401h-221l946 1434h807v-177h-512q-33 0 -54 9l-2 -4q6 -15 6 -52v-292q0 -37 -6 -52l2 -4q19 8 54 8h460v-176h-460q-35 0 -54 8l-2 -4q6 -15 6 -51v-424
q0 -36 -6 -51l2 -4q19 8 54 8zM1044 555q-6 18 -6 51v535q0 60 13 149h-2q-27 -74 -72 -147l-322 -502q-18 -27 -25.5 -37.5t-21 -25.5t-30.5 -27l2 -2q35 10 102 10h307q35 0 53 -6z" />
    <glyph glyph-name="aeacute" unicode="&#x1fd;" horiz-adv-x="1728" 
d="M1202 1448l2 -6l-270 -309h-121l-2 6l190 309h201zM430 -31q-162 0 -264.5 93.5t-102.5 246.5q0 148 97.5 238t255.5 90q107 0 192.5 -45t132.5 -127l7 4q-15 51 -15 141q-9 205 -235 205q-119 0 -287 -53l-49 158q189 57 348 57q146 0 223.5 -51t104.5 -158h4
q52 99 147 154t221 55q213 0 331 -136.5t118 -363.5v-35h-645q-71 0 -113 11l-2 -4l2 -13q15 -145 98.5 -223t221.5 -78q95 0 164 36.5t141 115.5l108 -113q-160 -205 -411 -205q-154 0 -262.5 74t-147.5 197h-6q-34 -126 -135 -198.5t-242 -72.5zM907 557q41 18 107 18h325
q93 0 136 -16l4 2q-11 122 -83 190t-196 68q-122 0 -201 -68.5t-94 -191.5zM473 115q104 0 173 53t69 135q0 83 -69 136t-173 53q-103 0 -165 -53.5t-62 -137.5t61.5 -135t165.5 -51z" />
    <glyph glyph-name="Oslashacute" unicode="&#x1fe;" horiz-adv-x="1646" 
d="M885 1522h-121l-2 4l180 221h199l2 -6zM1290 1315q133 -102 207 -256.5t74 -341.5q0 -214 -96 -385t-267 -267t-385 -96q-230 0 -407 111l-78 -109l-57 39l77 109q-134 101 -208 255.5t-74 342.5q0 160 56 299t154.5 237.5t237.5 154.5t299 56q234 0 410 -110l76 108
l57 -41zM276 717q0 -136 51.5 -249.5t143.5 -188.5l649 917q-132 80 -297 80q-240 0 -393.5 -156.5t-153.5 -402.5zM823 158q240 0 393.5 156.5t153.5 402.5q0 137 -50 249.5t-142 188.5l-652 -917q132 -80 297 -80z" />
    <glyph glyph-name="oslashacute" unicode="&#x1ff;" horiz-adv-x="1167" 
d="M647 1133h-121l-2 6l191 309h200l3 -6zM948 838q150 -144 150 -365q0 -219 -145 -361.5t-369 -142.5q-177 0 -314 97l-82 -95l-55 45l82 95q-147 144 -147 362t146 361t370 143q173 0 309 -92l82 92l55 -47zM252 473q0 -140 80 -229l444 508q-80 55 -192 55
q-148 0 -240 -92.5t-92 -241.5zM584 139q148 0 239.5 92.5t91.5 241.5q0 142 -84 232l-444 -508q83 -58 197 -58z" />
    <glyph glyph-name="Scommaaccent" unicode="&#x218;" horiz-adv-x="1009" 
d="M528 1464q183 0 371 -94l-84 -176q-152 84 -291 84q-95 0 -142.5 -37.5t-47.5 -105.5q0 -56 30 -99.5t103 -99.5l244 -184q122 -90 177.5 -180.5t55.5 -209.5q0 -187 -122 -290t-330 -103q-126 0 -245 36.5t-212 96.5l86 172q197 -116 373 -116q121 0 186 53t65 141
q0 65 -38 121t-127 123l-240 184q-105 81 -156 161.5t-51 184.5q0 156 105 247t290 91zM602 -104l-153 -336h-97l70 336h180z" />
    <glyph glyph-name="scommaaccent" unicode="&#x219;" horiz-adv-x="847" 
d="M432 -31q-217 0 -389 107l80 153q154 -96 313 -96q170 0 170 109q0 37 -26.5 66.5t-87.5 56.5l-173 84q-104 50 -154 115.5t-50 154.5q0 122 86.5 190t242.5 68q160 0 324 -74l-72 -151q-141 63 -256 63q-141 0 -141 -92q0 -39 28 -69t93 -60l174 -82q104 -49 150.5 -112
t46.5 -152q0 -132 -94.5 -205.5t-264.5 -73.5zM537 -104l-154 -336h-96l69 336h181z" />
    <glyph glyph-name="uni021A" unicode="&#x21a;" horiz-adv-x="1058" 
d="M1038 1434v-177h-366q-38 0 -54 7l-2 -4q7 -18 7 -50v-1210h-185v1210q0 35 6 50l-4 4q-16 -7 -51 -7h-369v177h1018zM621 -104l-154 -336h-96l69 336h181z" />
    <glyph glyph-name="uni021B" unicode="&#x21b;" horiz-adv-x="636" 
d="M399 1452v-420q0 -65 -8 -96l6 -4q22 14 78 14h109v-164h-109q-58 0 -78 15l-6 -4q8 -31 8 -99v-694h-172v694q0 64 9 99l-5 4q-20 -15 -79 -15h-99v164h99q57 0 79 -14l5 4q-9 35 -9 96v297l162 123h10zM403 -104l-153 -336h-96l69 336h180z" />
    <glyph glyph-name="uni0237" unicode="&#x237;" horiz-adv-x="452" 
d="M313 946v-1016q0 -189 -90 -279.5t-258 -90.5h-14v170h14q174 0 174 200v1016h174z" />
    <glyph glyph-name="uni02BC" unicode="&#x2bc;" horiz-adv-x="374" 
d="M135 1495h182l-145 -487h-96z" />
    <glyph glyph-name="circumflex" unicode="&#x2c6;" horiz-adv-x="837" 
d="M508 1448l227 -311v-4h-151l-86 120q-42 60 -55.5 84.5t-22.5 53.5h-4q-7 -29 -20.5 -53t-55.5 -85l-86 -120h-152v4l228 311h178z" />
    <glyph glyph-name="caron" unicode="&#x2c7;" horiz-adv-x="862" 
d="M342 1133l-240 311v4h160l90 -121q9 -13 25 -35.5t20.5 -29.5t12.5 -20t11.5 -21.5t6.5 -20.5h6q3 12 6.5 20.5t11.5 21.5t12.5 20t20.5 29.5t25 35.5l88 121h162v-4l-240 -311h-178z" />
    <glyph glyph-name="breve" unicode="&#x2d8;" horiz-adv-x="768" 
d="M666 1444q0 -139 -78 -218t-203 -79q-126 0 -204.5 79t-78.5 218h125q3 -89 44 -132.5t114 -43.5q71 0 113 44t45 132h123z" />
    <glyph glyph-name="dotaccent" unicode="&#x2d9;" horiz-adv-x="401" 
d="M299 1434v-269h-197v269h197z" />
    <glyph glyph-name="ring" unicode="&#x2da;" horiz-adv-x="692" 
d="M346 1530q106 0 175 -68t69 -172t-69 -171.5t-175 -67.5t-175 67.5t-69 171.5t69 172t175 68zM346 1442q-68 0 -109.5 -42.5t-41.5 -109.5t41.5 -109t109.5 -42t110 42t42 109t-42 109.5t-110 42.5z" />
    <glyph glyph-name="ogonek" unicode="&#x2db;" horiz-adv-x="526" 
d="M346 57l70 -37q-98 -76 -144.5 -130t-46.5 -97q0 -63 82 -63q45 0 88 12l27 -100q-75 -27 -139 -27q-78 0 -129.5 38.5t-51.5 106.5q0 74 60 142.5t184 154.5z" />
    <glyph glyph-name="tilde" unicode="&#x2dc;" horiz-adv-x="913" 
d="M305 1425q51 0 113 -25.5t117 -51t88 -25.5q69 0 108 102l80 -28q-21 -91 -70 -148t-131 -57q-52 0 -114 25.5t-117 51t-88 25.5q-69 0 -109 -100l-80 27q48 204 203 204z" />
    <glyph glyph-name="hungarumlaut" unicode="&#x2dd;" horiz-adv-x="862" 
d="M104 1133l-2 4l232 311h145l2 -4l-243 -311h-134zM385 1133l-2 4l229 311h146l2 -4l-244 -311h-131z" />
    <glyph glyph-name="gravecomb" unicode="&#x300;" horiz-adv-x="0" 
d="M-297 1448l195 -309l-2 -6h-121l-271 309l2 6h197z" />
    <glyph glyph-name="acutecomb" unicode="&#x301;" horiz-adv-x="0" 
d="M-104 1448l2 -6l-271 -309h-121l-2 6l191 309h201z" />
    <glyph glyph-name="uni0302" unicode="&#x302;" horiz-adv-x="0" 
d="M-330 1448l228 -311v-4h-152l-86 120q-42 60 -55.5 84.5t-22.5 53.5h-4q-7 -29 -20.5 -53t-55.5 -85l-86 -120h-151v4l227 311h178z" />
    <glyph glyph-name="tildecomb" unicode="&#x303;" horiz-adv-x="0" 
d="M-608 1425q51 0 112.5 -25.5t116.5 -51t88 -25.5q70 0 109 102l80 -28q-21 -91 -70 -148t-131 -57q-52 0 -114.5 25.5t-117.5 51t-88 25.5q-68 0 -108 -100l-80 27q48 204 203 204z" />
    <glyph glyph-name="uni0304" unicode="&#x304;" horiz-adv-x="0" 
d="M-102 1368v-127h-586v127h586z" />
    <glyph glyph-name="uni0306" unicode="&#x306;" horiz-adv-x="0" 
d="M-102 1444q0 -139 -78 -218t-203 -79q-126 0 -204.5 79t-78.5 218h125q3 -89 44 -132.5t114 -43.5q71 0 113 44t45 132h123z" />
    <glyph glyph-name="uni0307" unicode="&#x307;" horiz-adv-x="0" 
d="M-102 1434v-269h-197v269h197z" />
    <glyph glyph-name="uni0308" unicode="&#x308;" horiz-adv-x="0" 
d="M-455 1434v-250h-166v250h166zM-102 1434v-250h-166v250h166z" />
    <glyph glyph-name="uni030A" unicode="&#x30a;" horiz-adv-x="0" 
d="M-346 1530q106 0 175 -68t69 -172t-69 -171.5t-175 -67.5t-175 67.5t-69 171.5t69 172t175 68zM-346 1442q-68 0 -110 -42.5t-42 -109.5t42 -109t110 -42t109.5 42t41.5 109t-41.5 109.5t-109.5 42.5z" />
    <glyph glyph-name="uni030B" unicode="&#x30b;" horiz-adv-x="0" 
d="M-758 1133l-2 4l232 311h145l2 -4l-244 -311h-133zM-477 1133l-2 4l229 311h146l2 -4l-244 -311h-131z" />
    <glyph glyph-name="uni030C" unicode="&#x30c;" horiz-adv-x="0" 
d="M-520 1133l-240 311v4h160l90 -121q9 -13 25 -35.5t20.5 -29.5t12.5 -20t11.5 -21.5t6.5 -20.5h6q3 12 6.5 20.5t11.5 21.5t12.5 20t20.5 29.5t25 35.5l88 121h162v-4l-240 -311h-178z" />
    <glyph glyph-name="uni0326" unicode="&#x326;" horiz-adv-x="0" 
d="M-102 -104l-154 -336h-96l69 336h181z" />
    <glyph glyph-name="uni0327" unicode="&#x327;" horiz-adv-x="0" 
d="M-236 49l-45 -123q81 -23 130 -57t49 -92q0 -32 -18 -62.5t-41.5 -52t-66.5 -47t-70.5 -39t-76.5 -35.5l-28 60q103 59 128 81q28 27 29 52q0 55 -149 88l84 227h75z" />
    <glyph glyph-name="uni0328" unicode="&#x328;" horiz-adv-x="0" 
d="M-180 57l69 -37q-98 -75 -144 -129.5t-46 -97.5q0 -63 82 -63q45 0 88 12l27 -100q-75 -27 -140 -27q-78 0 -129 38.5t-51 106.5q0 74 60 142.5t184 154.5z" />
    <glyph glyph-name="uni0394" unicode="&#x394;" horiz-adv-x="1286" 
d="M725 1434l520 -1434h-1204l520 1434h164zM643 1204l-387 -1116h772z" />
    <glyph glyph-name="uni03A9" unicode="&#x3a9;" horiz-adv-x="1562" 
d="M782 1464q315 0 510 -188t195 -488q0 -240 -144 -412t-389 -231v-6q88 15 174 15h326v-154h-590v264q204 41 324.5 181t120.5 335q0 235 -142.5 376.5t-384.5 141.5t-385 -142t-143 -376q0 -195 120.5 -335t325.5 -181v-264h-591v154h327q84 0 172 -15v6
q-245 59 -388.5 231t-143.5 412q0 300 194.5 488t511.5 188z" />
    <glyph glyph-name="pi" unicode="&#x3c0;" horiz-adv-x="1239" 
d="M1178 977v-160h-222v-817h-168v817h-292l-195 -817h-168l195 817q-157 -3 -267 -41v160q118 41 285 41h832z" />
    <glyph glyph-name="uni0401" unicode="&#x401;" horiz-adv-x="1054" 
d="M332 1747h166v-225h-166v225zM678 1747h166v-225h-166v225zM963 1434v-174h-572q-32 0 -51 8l-4 -4q6 -15 6 -54v-292q0 -37 -6 -52l4 -4q19 8 51 8h506v-174h-506q-30 0 -51 9l-4 -5q6 -15 6 -53v-424q0 -38 -6 -53l4 -4q19 8 51 8h582v-174h-815v1434h805z" />
    <glyph glyph-name="uni0402" unicode="&#x402;" horiz-adv-x="1439" 
d="M999 864q404 0 404 -401v-84q0 -184 -95.5 -281.5t-281.5 -97.5h-162v174h129q121 0 173.5 50.5t52.5 162.5v74q0 227 -238 227q-176 0 -430 -74v-614h-184v1212q0 37 6 52l-2 4q-16 -8 -54 -8h-297v174h1072v-174h-492q-32 0 -51 8l-4 -4q6 -15 6 -52v-338
q0 -63 -10 -83l4 -5q224 78 454 78z" />
    <glyph glyph-name="uni0403" unicode="&#x403;" horiz-adv-x="985" 
d="M874 1747l3 -6l-259 -219h-120l-2 4l180 221h198zM965 1434v-174h-574q-32 0 -51 8l-4 -4q6 -15 6 -52v-1212h-184v1434h807z" />
    <glyph glyph-name="uni0404" unicode="&#x404;" horiz-adv-x="1394" 
d="M815 -31q-337 0 -538 203t-201 545t201 544.5t538 202.5q291 0 518 -151l-94 -164q-192 129 -434 129q-202 0 -339 -112.5t-175 -311.5q-6 -35 -15 -51l5 -4q18 6 59 6h633v-176h-633q-41 0 -59 6l-5 -4q10 -16 15 -51q38 -199 175 -311.5t339 -112.5q242 0 434 129
l94 -164q-228 -152 -518 -152z" />
    <glyph glyph-name="uni0405" unicode="&#x405;" horiz-adv-x="1009" 
d="M528 1464q183 0 371 -94l-84 -176q-152 84 -291 84q-95 0 -142.5 -37.5t-47.5 -105.5q0 -56 30 -99.5t103 -99.5l244 -184q122 -90 177.5 -180.5t55.5 -209.5q0 -187 -122 -290t-330 -103q-126 0 -245 36.5t-212 96.5l86 172q197 -116 373 -116q121 0 186 53t65 141
q0 65 -38 121t-127 123l-240 184q-105 81 -156 161.5t-51 184.5q0 156 105 247t290 91z" />
    <glyph glyph-name="uni0406" unicode="&#x406;" horiz-adv-x="499" 
d="M342 1434v-1434h-184v1434h184z" />
    <glyph glyph-name="uni0407" unicode="&#x407;" horiz-adv-x="499" 
d="M-6 1747h166v-225h-166v225zM340 1747h166v-225h-166v225zM342 1434v-1434h-184v1434h184z" />
    <glyph glyph-name="uni0408" unicode="&#x408;" horiz-adv-x="600" 
d="M442 1434v-1098q0 -179 -72.5 -262.5t-226.5 -83.5q-39 0 -92 6v174q31 -2 74 -2q68 0 100.5 36t32.5 126v1104h184z" />
    <glyph glyph-name="uni0409" unicode="&#x409;" horiz-adv-x="2138" 
d="M1638 852q212 0 336.5 -116t124.5 -310t-124.5 -310t-336.5 -116h-508v997v215q0 34 7 52l-4 4q-16 -8 -52 -8h-559q-32 0 -51 8l-4 -4q6 -15 6 -52v-876q0 -178 -72 -262t-227 -84q-55 0 -123 8v170q86 -4 107 -4q70 0 100.5 37.5t30.5 124.5v1108h1026v-535
q0 -33 -6 -51l4 -2q21 6 51 6h274zM1618 174q137 0 211 66.5t74 185.5q0 118 -75 185t-210 67h-254q-32 0 -51 8l-4 -4q6 -15 6 -51v-408q0 -38 -6 -53l4 -4q19 8 51 8h254z" />
    <glyph glyph-name="uni040A" unicode="&#x40a;" horiz-adv-x="2076" 
d="M158 0v1434h184v-535q0 -33 -6 -51l4 -2q21 6 51 6h629q33 0 51 -6l4 2q-6 18 -6 51v535h184v-535q0 -33 -6 -51l4 -2q21 6 52 6h274q212 0 336.5 -116t124.5 -310t-124.5 -310t-336.5 -116h-508v631q0 36 6 51l-4 4q-16 -8 -51 -8h-629q-32 0 -51 8l-4 -4q6 -15 6 -51
v-631h-184zM1251 166q19 8 52 8h253q137 0 211 66.5t74 185.5q0 118 -75 185t-210 67h-253q-33 0 -52 8l-4 -4q6 -15 6 -51v-408q0 -38 -6 -53z" />
    <glyph glyph-name="uni040B" unicode="&#x40b;" horiz-adv-x="1425" 
d="M979 864q407 0 407 -446v-418h-184v414q0 274 -241 274q-175 0 -424 -74v-614h-185v1212q0 37 6 52l-4 4q-16 -8 -51 -8h-283v174h1018v-174h-452q-35 0 -54 8l-2 -4q7 -18 7 -52v-338q0 -62 -13 -83l4 -5q224 78 451 78z" />
    <glyph glyph-name="uni040C" unicode="&#x40c;" horiz-adv-x="1261" 
d="M938 1747l2 -6l-258 -219h-121l-2 4l180 221h199zM1083 -10q-110 0 -175 54t-89 171l-57 260q-22 106 -73 151.5t-152 45.5h-140q-47 0 -63 4l-2 -2q10 -29 10 -84v-590h-184v1434h184v-531q0 -51 -10 -80l2 -2q18 6 63 6h140q98 0 149.5 46t79.5 159l55 215
q26 102 95 149.5t184 47.5q56 0 102 -6v-174q-35 6 -61 6q-68 0 -104.5 -23.5t-49.5 -75.5l-49 -198q-30 -122 -94 -168t-203 -51v-6q139 -5 205.5 -53t89.5 -165l51 -235q17 -73 50.5 -102t95.5 -29q15 0 84 6v-174q-67 -6 -134 -6z" />
    <glyph glyph-name="uni040E" unicode="&#x40e;" horiz-adv-x="1265" 
d="M915 1767q-3 -132 -77 -207t-201 -75q-128 0 -202 75t-77 207h123q-1 -84 39.5 -129t116.5 -45q77 0 117 45t39 129h122zM338 -16q-84 0 -166 10l2 178q93 -14 158 -14q70 0 123 44.5t100 155.5l-541 1076h222l331 -697q37 -79 48 -104t21.5 -56t16.5 -65h9q6 67 18 109
t47 122l313 691h209l-514 -1121q-73 -176 -169 -252.5t-228 -76.5z" />
    <glyph glyph-name="uni040F" unicode="&#x40f;" horiz-adv-x="1447" 
d="M637 -287v240q0 36 6 51l-4 4q-19 -8 -51 -8h-430v1434h184v-1213q0 -36 -6 -51l4 -4q19 8 51 8h666q32 0 51 -8l4 4q-6 15 -6 51v1213h184v-1434h-430q-32 0 -51 8l-4 -4q6 -15 6 -51v-240h-174z" />
    <glyph glyph-name="uni0410" unicode="&#x410;" horiz-adv-x="1404" 
d="M23 0l669 1464h21l669 -1464h-206l-179 401h-589l-179 -401h-206zM459 555q36 4 114 4h258q79 0 115 -4l2 2q-28 35 -63 117l-127 299q-45 116 -51 168h-9q-6 -52 -51 -168l-127 -299q-35 -82 -63 -117z" />
    <glyph glyph-name="uni0411" unicode="&#x411;" horiz-adv-x="1243" 
d="M688 852q202 0 329.5 -111.5t127.5 -314.5t-127.5 -314.5t-329.5 -111.5h-530v1020v414h911v-174h-678q-32 0 -51 8l-4 -4q6 -15 6 -54v-311q0 -33 -6 -51l4 -2q21 6 51 6h297zM664 174q141 0 213.5 66t72.5 186q0 117 -73.5 184.5t-212.5 67.5h-273q-32 0 -51 8l-4 -4
q6 -15 6 -51v-408q0 -38 -6 -53l4 -4q19 8 51 8h273z" />
    <glyph glyph-name="uni0412" unicode="&#x412;" horiz-adv-x="1267" 
d="M158 0v1434h522q184 0 292.5 -97t108.5 -260q0 -102 -46.5 -175.5t-133.5 -108.5q-52 -22 -110 -25v-8q63 -2 112 -15q126 -31 196 -122.5t70 -227.5q0 -181 -121 -288t-327 -107h-563zM340 821q21 6 51 6h232q127 0 197.5 60t70.5 166q0 100 -62.5 153.5t-179.5 53.5
h-258q-35 0 -51 8l-4 -4q6 -15 6 -54v-336q0 -33 -6 -51zM340 166q16 8 51 8h301q283 0 283 236q0 247 -311 247h-273q-30 0 -51 9l-4 -4q6 -15 6 -52v-387q0 -38 -6 -53z" />
    <glyph glyph-name="uni0413" unicode="&#x413;" horiz-adv-x="985" 
d="M965 1434v-174h-574q-32 0 -51 8l-4 -4q6 -15 6 -52v-1212h-184v1434h807z" />
    <glyph glyph-name="uni0414" unicode="&#x414;" horiz-adv-x="1384" 
d="M14 -287v449h107q25 0 53 -8l4 2q0 25 15 55q95 189 138.5 403t43.5 480v340h794v-1225q0 -36 -6 -51l4 -4q16 8 54 8h96v-449h-174v226q0 37 8 53l-4 2q-21 -6 -53 -6h-854q-36 0 -54 6l-2 -2q6 -18 6 -53v-226h-176zM360 152q18 10 56 10h520q32 0 51 -8l4 4
q-6 15 -6 51v1001q0 39 6 54l-4 4q-19 -8 -51 -8h-328q-32 0 -51 8l-4 -4q6 -15 6 -54v-133q0 -273 -54 -521t-149 -400z" />
    <glyph glyph-name="uni0415" unicode="&#x415;" horiz-adv-x="1054" 
d="M963 1434v-174h-572q-32 0 -51 8l-4 -4q6 -15 6 -54v-292q0 -37 -6 -52l4 -4q19 8 51 8h506v-174h-506q-30 0 -51 9l-4 -5q6 -15 6 -53v-424q0 -38 -6 -53l4 -4q19 8 51 8h582v-174h-815v1434h805z" />
    <glyph glyph-name="uni0416" unicode="&#x416;" horiz-adv-x="1861" 
d="M152 -8q-58 0 -99 8v182q50 -4 66 -4q60 0 96 28t53 91l64 266q25 110 76 149t176 44v8q-137 6 -196.5 50t-90.5 161l-51 194q-23 95 -146 95q-19 0 -59 -4v174q70 6 98 6q117 0 180.5 -43.5t92.5 -147.5l65 -243q42 -168 225 -168h82q47 0 64 -7l2 3q-10 45 -10 81v519
h182v-519q0 -36 -10 -81l2 -3q18 7 63 7h82q180 0 225 168l66 243q27 104 90 147.5t182 43.5q28 0 99 -6v-174q-40 4 -60 4q-122 0 -145 -95l-51 -194q-31 -117 -90.5 -161t-196.5 -50v-8q125 -5 176 -44t76 -149l63 -266q17 -62 53 -90.5t97 -28.5q15 0 65 4v-182
q-41 -8 -98 -8q-123 0 -190 51t-95 168l-69 303q-19 85 -66.5 124.5t-130.5 39.5h-82q-43 0 -63 4l-2 -2q10 -42 10 -84v-596h-182v596q0 42 10 84l-2 2q-20 -4 -64 -4h-82q-82 0 -129.5 -39t-66.5 -125l-70 -303q-28 -117 -94.5 -168t-189.5 -51z" />
    <glyph glyph-name="uni0417" unicode="&#x417;" horiz-adv-x="1161" 
d="M541 -31q-285 0 -482 115l84 170q191 -104 406 -104q317 0 317 249q0 136 -95.5 201.5t-289.5 65.5h-198v178h196q334 0 334 235q0 99 -66.5 152t-197.5 53q-194 0 -389 -94l-68 172q237 102 477 102q443 0 443 -354q0 -248 -234 -319q-65 -19 -145 -25v-6q85 0 147 -12
q283 -61 283 -363q0 -204 -132 -310t-390 -106z" />
    <glyph glyph-name="uni0418" unicode="&#x418;" horiz-adv-x="1492" 
d="M1317 1454h16v-1454h-184v821q0 163 20 258l-8 2q-30 -76 -112 -161l-873 -940h-18v1454h184v-820q0 -176 -18 -258l6 -2q33 74 112 160z" />
    <glyph glyph-name="uni0419" unicode="&#x419;" horiz-adv-x="1492" 
d="M1067 1767q-3 -132 -77 -207t-202 -75q-127 0 -201 75t-77 207h123q-1 -84 39.5 -129t115.5 -45q77 0 117 45t39 129h123zM1317 1454h16v-1454h-184v821q0 163 20 258l-8 2q-30 -76 -112 -161l-873 -940h-18v1454h184v-820q0 -176 -18 -258l6 -2q33 74 112 160z" />
    <glyph glyph-name="uni041A" unicode="&#x41a;" horiz-adv-x="1261" 
d="M1083 -10q-110 0 -175 54t-89 171l-57 260q-22 106 -73 151.5t-152 45.5h-140q-47 0 -63 4l-2 -2q10 -29 10 -84v-590h-184v1434h184v-531q0 -51 -10 -80l2 -2q18 6 63 6h140q98 0 149.5 46t79.5 159l55 215q26 102 95 149.5t184 47.5q56 0 102 -6v-174q-35 6 -61 6
q-68 0 -104.5 -23.5t-49.5 -75.5l-49 -198q-30 -122 -94 -168t-203 -51v-6q139 -5 205.5 -53t89.5 -165l51 -235q17 -73 50.5 -102t95.5 -29q15 0 84 6v-174q-67 -6 -134 -6z" />
    <glyph glyph-name="uni041B" unicode="&#x41b;" horiz-adv-x="1509" 
d="M1352 1434v-1434h-185v1212q0 34 7 52l-5 4q-19 -8 -51 -8h-596q-32 0 -51 8l-4 -4q6 -15 6 -52v-876q0 -178 -72 -262t-227 -84q-55 0 -123 8v170q86 -4 107 -4q70 0 100.5 37.5t30.5 124.5v1108h1063z" />
    <glyph glyph-name="uni041C" unicode="&#x41c;" horiz-adv-x="1787" 
d="M885 -18l-340 815q-56 135 -66 229h-8q-5 -134 -33 -231l-221 -795h-192l413 1456h27l387 -942q27 -74 39 -174h8q9 100 39 174l387 942h25l413 -1456h-190l-221 795q-33 115 -33 231h-8q-14 -106 -68 -229l-340 -815h-18z" />
    <glyph glyph-name="uni041D" unicode="&#x41d;" horiz-adv-x="1447" 
d="M1290 1434v-1434h-184v625q0 36 6 51l-4 4q-19 -8 -51 -8h-666q-32 0 -51 8l-4 -4q6 -15 6 -51v-625h-184v1434h184v-537q0 -36 -6 -51l4 -4q19 8 51 8h666q32 0 51 -8l4 4q-6 15 -6 51v537h184z" />
    <glyph glyph-name="uni041E" unicode="&#x41e;" horiz-adv-x="1646" 
d="M823 1464q214 0 385 -95.5t267 -266.5t96 -385t-96 -385t-267 -267t-385 -96t-385 96t-266.5 267t-95.5 385q0 160 56 299t154.5 237.5t237.5 154.5t299 56zM823 1276q-240 0 -393.5 -156.5t-153.5 -402.5t153.5 -402.5t393.5 -156.5t393.5 156.5t153.5 402.5
t-153.5 402.5t-393.5 156.5z" />
    <glyph glyph-name="uni041F" unicode="&#x41f;" horiz-adv-x="1429" 
d="M1272 1434v-1434h-185v1212q0 34 7 52l-4 4q-16 -8 -52 -8h-647q-32 0 -51 8l-4 -4q6 -15 6 -52v-1212h-184v1434h1114z" />
    <glyph glyph-name="uni0420" unicode="&#x420;" horiz-adv-x="1105" 
d="M612 1434q205 0 325 -107.5t120 -294.5q0 -185 -116.5 -292t-313.5 -107h-236q-32 0 -51 8l-4 -4q6 -15 6 -51v-586h-184v1434h454zM340 1268l-4 -4q6 -15 6 -54v-354q0 -35 -6 -53l4 -2q21 6 51 6h223q117 0 180.5 60.5t63.5 164.5q0 106 -63.5 167t-180.5 61h-223
q-35 0 -51 8z" />
    <glyph glyph-name="uni0421" unicode="&#x421;" horiz-adv-x="1406" 
d="M842 -31q-225 0 -399.5 94t-270.5 264t-96 390q0 164 56 303.5t156 237t242.5 152t311.5 54.5q290 0 504 -159l-113 -160q-184 131 -397 131q-248 0 -404 -155t-156 -404t156 -404t404 -155q213 0 397 131l113 -160q-216 -160 -504 -160z" />
    <glyph glyph-name="uni0422" unicode="&#x422;" horiz-adv-x="1058" 
d="M1038 1434v-177h-366q-38 0 -54 7l-2 -4q7 -18 7 -50v-1210h-185v1210q0 35 6 50l-4 4q-16 -7 -51 -7h-369v177h1018z" />
    <glyph glyph-name="uni0423" unicode="&#x423;" horiz-adv-x="1265" 
d="M338 -16q-84 0 -166 10l2 178q93 -14 158 -14q70 0 123 44.5t100 155.5l-541 1076h222l331 -697q37 -79 48 -104t21.5 -56t16.5 -65h9q6 67 18 109t47 122l313 691h209l-514 -1121q-73 -176 -169 -252.5t-228 -76.5z" />
    <glyph glyph-name="uni0424" unicode="&#x424;" horiz-adv-x="1720" 
d="M770 -82v92q0 36 8 60l-2 2q-18 -6 -71 -6q-130 0 -245.5 48t-200 132.5t-134 207t-49.5 263.5t49.5 263.5t134 207t200 132.5t245.5 48q53 0 71 -6l2 2q-8 24 -8 59v93h180v-93q0 -37 -10 -59l2 -2q21 6 72 6q130 0 245.5 -48t200 -132.5t133.5 -207t49 -263.5
t-49 -263.5t-133.5 -207t-200 -132.5t-245.5 -48q-51 0 -72 6l-2 -2q10 -23 10 -60v-92h-180zM784 233l4 3q-10 20 -10 59v844q0 39 10 59l-4 2q-3 -1 -63 -4q-197 -3 -321 -132t-124 -347t124 -347t321 -132q53 -3 63 -5zM936 233q10 2 65 5q197 3 320 132t123 347
t-123 347t-320 132q-62 3 -65 4l-2 -2q8 -21 8 -59v-844q0 -38 -8 -59z" />
    <glyph glyph-name="uni0425" unicode="&#x425;" horiz-adv-x="1263" 
d="M1182 1434l-348 -545q-53 -83 -91 -125v-4q33 -41 113 -162l385 -598h-219l-301 475q-76 122 -84 164h-8q-11 -46 -86 -164l-301 -475h-219l385 598q84 126 112 162v4q-39 44 -90 125l-348 545h217l240 -379q79 -124 90 -170h8q8 44 88 170l240 379h217z" />
    <glyph glyph-name="uni0426" unicode="&#x426;" horiz-adv-x="1480" 
d="M1237 -283v236q0 31 8 51l-4 4q-16 -8 -53 -8h-1030v1434h184v-1213q0 -31 -8 -51l4 -4q19 8 53 8h629q34 0 53 -8l4 4q-8 20 -8 51v1213h184v-1213q0 -31 -8 -51l4 -4q16 8 54 8h110v-457h-176z" />
    <glyph glyph-name="uni0427" unicode="&#x427;" horiz-adv-x="1230" 
d="M889 0v551q0 62 12 84l-4 4q-214 -78 -451 -78q-409 0 -409 445v428h184v-424q0 -275 242 -275q175 0 426 74v625h184v-1434h-184z" />
    <glyph glyph-name="uni0428" unicode="&#x428;" horiz-adv-x="2039" 
d="M158 0v1434h184v-1213q0 -31 -8 -51l4 -4q19 8 53 8h488q34 0 53 -8l4 4q-8 20 -8 51v1213h184v-1213q0 -31 -8 -51l4 -4q16 8 53 8h486q37 0 53 -8l4 4q-8 20 -8 51v1213h184v-1434h-1722z" />
    <glyph glyph-name="uni0429" unicode="&#x429;" horiz-adv-x="2111" 
d="M1929 174h115v-457h-176v236q0 31 8 51l-4 4q-16 -8 -53 -8h-1661v1434h184v-1213q0 -31 -8 -51l4 -4q19 8 53 8h488q34 0 53 -8l4 4q-8 20 -8 51v1213h184v-1213q0 -31 -8 -51l4 -4q16 8 53 8h486q37 0 53 -8l4 4q-8 20 -8 51v1213h184v-1213q0 -36 -6 -51l2 -4
q19 8 53 8z" />
    <glyph glyph-name="uni042A" unicode="&#x42a;" horiz-adv-x="1425" 
d="M924 852q213 0 337.5 -116t124.5 -310t-124.5 -310t-337.5 -116h-529v1212q0 39 8 52l-4 4q-16 -8 -53 -8h-326v174h560v-535q0 -30 -7 -51l5 -2q21 6 51 6h295zM905 174q136 0 209.5 66.5t73.5 185.5q0 118 -74.5 185t-208.5 67h-276q-32 0 -51 8l-5 -4q7 -18 7 -51
v-408q0 -35 -7 -53l5 -4q19 8 51 8h276z" />
    <glyph glyph-name="uni042B" unicode="&#x42b;" horiz-adv-x="1597" 
d="M686 852q212 0 336.5 -116t124.5 -310t-124.5 -310t-336.5 -116h-528v993v441h184v-535q0 -33 -6 -51l4 -2q21 6 51 6h295zM1255 1434h185v-1434h-185v1434zM666 174q137 0 210.5 66.5t73.5 185.5q0 118 -74.5 185t-209.5 67h-275q-32 0 -51 8l-4 -4q6 -15 6 -51v-408
q0 -38 -6 -53l4 -4q19 8 51 8h275z" />
    <glyph glyph-name="uni042C" unicode="&#x42c;" horiz-adv-x="1185" 
d="M686 852q212 0 336.5 -116t124.5 -310t-124.5 -310t-336.5 -116h-528v993v441h184v-535q0 -33 -6 -51l4 -2q21 6 51 6h295zM666 174q137 0 210.5 66.5t73.5 185.5q0 118 -74.5 185t-209.5 67h-275q-32 0 -51 8l-4 -4q6 -15 6 -51v-408q0 -38 -6 -53l4 -4q19 8 51 8h275z
" />
    <glyph glyph-name="uni042D" unicode="&#x42d;" horiz-adv-x="1392" 
d="M580 -31q-293 0 -521 152l95 164q192 -129 434 -129q203 0 339.5 112.5t174.5 311.5q9 39 16 51l-4 4q-18 -6 -61 -6h-631v176h631q43 0 61 -6l4 4q-6 10 -16 51q-38 199 -174.5 311.5t-339.5 112.5q-242 0 -434 -129l-95 164q226 151 521 151q335 0 536 -202.5
t201 -544.5t-201 -545t-536 -203z" />
    <glyph glyph-name="uni042E" unicode="&#x42e;" horiz-adv-x="2086" 
d="M1264 1460q160 0 299 -56t237.5 -154.5t154.5 -237.5t56 -299q0 -214 -95.5 -385t-266.5 -267t-385 -96q-151 0 -283 49.5t-229 137.5t-158 212.5t-74 270.5h-129q-32 0 -51 8l-4 -4q6 -15 6 -51v-588h-184v1434h184v-578q0 -36 -6 -51l4 -4q19 8 51 8h131
q31 288 236.5 469.5t505.5 181.5zM1264 154q239 0 392.5 157t153.5 402q0 246 -153.5 403.5t-392.5 157.5t-393 -157.5t-154 -403.5q0 -244 154 -401.5t393 -157.5z" />
    <glyph glyph-name="uni042F" unicode="&#x42f;" horiz-adv-x="1243" 
d="M590 1434h493v-1434h-184v606q0 35 6 53l-2 5q-14 -7 -51 -7h-80l-516 -657h-240l449 565q65 83 131 107v8q-45 -10 -72 -10q-151 0 -257.5 109t-106.5 263q0 182 115.5 287t314.5 105zM903 1268q-19 -8 -53 -8h-262q-106 0 -168 -56.5t-62 -159.5q0 -102 61.5 -156
t168.5 -54h262q28 0 53 -7l2 2q-6 18 -6 52v329q0 39 6 54z" />
    <glyph glyph-name="uni0430" unicode="&#x430;" horiz-adv-x="1030" 
d="M510 977q203 0 298 -92.5t95 -288.5v-596h-176q0 78 25 160l-7 4q-52 -95 -137 -145t-194 -50q-157 0 -254 92t-97 242q0 154 96 244t257 90q110 0 195.5 -45t131.5 -127l7 4q-14 45 -17 141q-9 205 -235 205q-120 0 -285 -53l-49 158q177 57 346 57zM473 492
q-101 0 -163 -53t-62 -138q0 -86 61.5 -136t163.5 -50q105 0 174.5 52.5t69.5 135.5q0 82 -69.5 135.5t-174.5 53.5z" />
    <glyph glyph-name="uni0431" unicode="&#x431;" horiz-adv-x="1179" 
d="M598 -31q-250 0 -390 162t-140 463q0 464 256 620q51 30 119.5 53.5t173 49.5t120.5 31q107 29 113 96h170q0 -100 -42.5 -154.5t-143.5 -83.5q-36 -11 -126.5 -31t-165.5 -41.5t-122 -46.5q-192 -104 -203 -462h8q33 163 144 250.5t274 89.5q212 0 340.5 -132
t128.5 -350q0 -229 -142 -371.5t-372 -142.5zM600 141q146 0 237 92t91 242t-92.5 240t-237.5 90q-144 0 -239 -92.5t-95 -239.5q0 -149 94 -240.5t242 -91.5z" />
    <glyph glyph-name="uni0432" unicode="&#x432;" horiz-adv-x="995" 
d="M786 473q142 -44 142 -213q0 -119 -84 -189.5t-219 -70.5h-488v645v301h484q133 0 205.5 -61t72.5 -172q0 -140 -111 -191q-48 -23 -120 -26v-9q69 -3 118 -14zM301 795q10 -20 10 -58v-137q0 -28 -10 -55l2 -2q16 8 55 8h199q72 0 111 34t39 91q0 112 -140 112h-207
q-39 0 -57 9zM592 158q143 0 143 129t-153 129h-224q-40 0 -55 10l-2 -2q10 -27 10 -55v-164q0 -26 -10 -53l2 -2q16 8 57 8h232z" />
    <glyph glyph-name="uni0433" unicode="&#x433;" horiz-adv-x="757" 
d="M137 0v946h611v-162h-388q-39 0 -57 9l-2 -2q10 -20 10 -54v-737h-174z" />
    <glyph glyph-name="uni0434" unicode="&#x434;" horiz-adv-x="1089" 
d="M25 -287v447h75q34 0 50 -8l2 2q-3 20 12 51q70 131 103.5 259t33.5 288v194h633v-739q0 -26 -10 -53l2 -2q16 8 57 8h59v-447h-157v238q0 26 10 53l-2 2q-19 -8 -57 -8h-603q-38 0 -57 8l-2 -2q10 -20 10 -53v-238h-159zM317 150q20 10 60 10h344q41 0 57 -8l2 2
q-10 27 -10 53v536q0 27 10 54l-2 2q-16 -8 -57 -8h-207q-38 0 -57 8l-2 -2q10 -20 10 -54v-57q0 -141 -44 -297.5t-106 -234.5z" />
    <glyph glyph-name="uni0435" unicode="&#x435;" horiz-adv-x="1071" 
d="M551 977q209 0 329.5 -134t120.5 -366v-35h-647q-82 0 -112 15l-4 -4l8 -23q12 -140 95.5 -217.5t221.5 -77.5q91 0 162 35.5t143 116.5l109 -113q-163 -205 -416 -205q-223 0 -358 137t-135 363q0 230 131.5 369t351.5 139zM545 819q-125 0 -204.5 -69.5t-92.5 -190.5
l2 -2q41 18 106 18h326q104 0 135 -16l2 2q-9 123 -80.5 190.5t-193.5 67.5z" />
    <glyph glyph-name="uni0436" unicode="&#x436;" horiz-adv-x="1400" 
d="M39 -6v151h55q45 0 68 17t35 59l41 146q19 65 65 92.5t133 29.5v9q-84 3 -132 32t-68 91l-37 100q-19 46 -41.5 63t-67.5 17h-49v151h94q135 0 178 -102l68 -166q27 -71 56.5 -96t90.5 -25h35q40 0 64 -4l2 2q-11 37 -11 82v303h164v-303q0 -48 -10 -82l2 -2q24 4 64 4
h34q61 0 91.5 25t56.5 96l67 166q43 102 179 102h92v-151h-47q-45 0 -67.5 -17t-41.5 -63l-37 -100q-20 -62 -68 -91t-132 -32v-9q87 -2 132.5 -29.5t65.5 -92.5l41 -146q12 -42 35 -59t68 -17h55v-151h-109q-79 0 -124 31.5t-64 97.5l-49 170q-20 72 -52.5 101.5
t-91.5 29.5h-34q-40 0 -64 4l-2 -2q10 -34 10 -86v-340h-164v340q0 49 11 86l-2 2q-24 -4 -64 -4h-35q-58 0 -90.5 -29.5t-52.5 -101.5l-49 -170q-19 -66 -64.5 -97.5t-124.5 -31.5h-108z" />
    <glyph glyph-name="uni0437" unicode="&#x437;" horiz-adv-x="909" 
d="M432 -31q-225 0 -391 94l72 152q156 -86 325 -86q117 0 173.5 33.5t56.5 109.5q0 80 -50.5 116t-162.5 36h-129v158h118q170 0 170 118q0 115 -186 115q-140 0 -305 -76l-66 152q203 86 385 86q169 0 261 -63t92 -181q0 -98 -62.5 -155t-181.5 -68v-6q289 -16 289 -248
q0 -138 -106 -212.5t-302 -74.5z" />
    <glyph glyph-name="uni0438" unicode="&#x438;" horiz-adv-x="1103" 
d="M137 -14v960h174v-409q0 -135 -10 -238l6 -2q28 61 107 143l501 521h52v-961h-172v410q0 134 10 237l-8 2q-22 -53 -105 -143l-502 -520h-53z" />
    <glyph glyph-name="uni0439" unicode="&#x439;" horiz-adv-x="1103" 
d="M856 1341q0 -139 -78 -218t-203 -79q-126 0 -204 79t-78 218h125q3 -89 44 -132.5t113 -43.5q71 0 113 44t45 132h123zM137 -14v960h174v-409q0 -135 -10 -238l6 -2q28 61 107 143l501 521h52v-961h-172v410q0 134 10 237l-8 2q-22 -53 -105 -143l-502 -520h-53z" />
    <glyph glyph-name="uni043A" unicode="&#x43a;" horiz-adv-x="993" 
d="M846 -6q-81 0 -127.5 31.5t-65.5 97.5l-47 170q-20 73 -51.5 102t-91.5 29h-96q-44 0 -64 4l-2 -2q10 -45 10 -86v-340h-174v946h174v-303q0 -37 -10 -82l2 -2q20 4 64 4h96q61 0 90 24.5t55 96.5l70 166q38 102 180 102h94v-155h-47q-44 0 -66.5 -16.5t-41.5 -59.5
l-37 -100q-25 -65 -71.5 -93.5t-131.5 -29.5v-9q89 -2 134 -29t65 -93l43 -146q12 -42 31.5 -56.5t68.5 -14.5h55v-156h-108z" />
    <glyph glyph-name="uni043B" unicode="&#x43b;" horiz-adv-x="1079" 
d="M952 946v-946h-174v737q0 27 10 54l-2 2q-18 -9 -57 -9h-291q-36 0 -57 9l-2 -2q10 -20 10 -54v-438q0 -152 -72.5 -228.5t-212.5 -76.5h-81v158h79q61 0 88 35.5t27 117.5v641h735z" />
    <glyph glyph-name="uni043C" unicode="&#x43c;" horiz-adv-x="1349" 
d="M651 -12l-192 446q-53 120 -64 172h-6q-4 -55 -41 -174l-141 -432h-187l336 958h43l230 -530q29 -65 43 -129h6q9 54 43 129l229 530h43l336 -958h-186l-142 432q-35 104 -40 174h-9q-10 -54 -61 -172l-193 -446h-47z" />
    <glyph glyph-name="uni043D" unicode="&#x43d;" horiz-adv-x="1138" 
d="M827 946h174v-946h-174v379q0 31 11 53l-2 2q-16 -8 -58 -8h-420q-39 0 -55 8l-2 -2q10 -20 10 -53v-379h-174v946h174v-311q0 -35 -10 -55l2 -2q16 8 55 8h420q42 0 58 -8l2 2q-11 22 -11 55v311z" />
    <glyph glyph-name="uni043E" unicode="&#x43e;" horiz-adv-x="1167" 
d="M584 977q224 0 369 -142.5t145 -361.5t-145 -361.5t-369 -142.5t-370 143t-146 361t146 361t370 143zM584 807q-148 0 -240 -92.5t-92 -241.5t92 -241.5t240 -92.5t239.5 92.5t91.5 241.5t-91.5 241.5t-239.5 92.5z" />
    <glyph glyph-name="uni043F" unicode="&#x43f;" horiz-adv-x="1081" 
d="M954 946v-946h-174v737q0 32 11 54l-3 2q-18 -9 -57 -9h-381q-39 0 -57 9l-2 -2q10 -20 10 -54v-737h-174v946h827z" />
    <glyph glyph-name="uni0440" unicode="&#x440;" horiz-adv-x="1200" 
d="M670 977q204 0 333.5 -141.5t129.5 -362.5t-129.5 -362.5t-333.5 -141.5q-127 0 -222.5 61t-148.5 175l-8 -2q20 -70 20 -201v-412h-174v1356h168q0 -144 -12 -205l8 -2q53 116 147.5 177t221.5 61zM637 813q-148 0 -241 -94.5t-93 -245.5t93.5 -245.5t242.5 -94.5
q144 0 227.5 91.5t83.5 248.5t-84 248.5t-229 91.5z" />
    <glyph glyph-name="uni0441" unicode="&#x441;" horiz-adv-x="964" 
d="M586 -31q-230 0 -374 140t-144 364t144 364t374 140q178 0 323 -96l-84 -148q-116 76 -245 76q-145 0 -236.5 -94t-91.5 -242t91.5 -242t236.5 -94q129 0 245 76l84 -147q-147 -97 -323 -97z" />
    <glyph glyph-name="uni0442" unicode="&#x442;" horiz-adv-x="913" 
d="M10 946h893v-162h-311q-39 0 -57 9l-3 -2q11 -22 11 -54v-737h-172v737q0 34 10 54l-2 2q-18 -9 -57 -9h-312v162z" />
    <glyph glyph-name="uni0443" unicode="&#x443;" horiz-adv-x="997" 
d="M977 946l-580 -1358h-180l205 475l-402 883h199l232 -545q25 -59 36.5 -99t14.5 -91h8q2 72 41 166l237 569h189z" />
    <glyph glyph-name="uni0444" unicode="&#x444;" horiz-adv-x="1724" 
d="M780 -414v426q0 115 17 205l-6 2q-88 -250 -320 -250q-181 0 -287 136.5t-106 367.5t106 367.5t287 136.5q232 0 320 -250l6 2q-17 90 -17 205v489h164v-489q0 -134 -16 -205l6 -2q91 250 319 250q181 0 287.5 -136.5t106.5 -367.5t-106.5 -367.5t-287.5 -136.5
q-228 0 -319 250l-6 -2q16 -71 16 -205v-426h-164zM522 133q124 0 195 92t71 248t-71 248t-195 92q-123 0 -190.5 -90t-69.5 -250q2 -160 69.5 -250t190.5 -90zM1204 133q123 0 190.5 90.5t69.5 249.5q-2 159 -69.5 249.5t-190.5 90.5q-124 0 -195 -92t-71 -248
q0 -155 71.5 -247.5t194.5 -92.5z" />
    <glyph glyph-name="uni0445" unicode="&#x445;" horiz-adv-x="1003" 
d="M20 0l316 430q3 4 13 17l15 19.5t13 14t14 11.5v6q-19 11 -53 59l-279 389h207l156 -219q39 -58 54.5 -87.5t21.5 -61.5h8q6 32 21.5 61.5t54.5 87.5l155 219h205l-276 -389q-34 -48 -56 -59v-6q16 -8 58 -62l315 -430h-207l-196 266q-36 49 -52 79t-22 63h-8
q-12 -59 -74 -142l-199 -266h-205z" />
    <glyph glyph-name="uni0446" unicode="&#x446;" horiz-adv-x="1097" 
d="M893 -287v240q0 33 10 53l-2 2q-16 -8 -57 -8h-707v946h174v-737q0 -33 -10 -53l2 -2q16 8 57 8h351q41 0 57 -8l2 2q-10 20 -10 53v737h174v-737q0 -33 -10 -53l2 -2q16 8 57 8h68v-449h-158z" />
    <glyph glyph-name="uni0447" unicode="&#x447;" horiz-adv-x="956" 
d="M655 946h172v-698v-248h-172v319q0 67 13 93l-4 2q-165 -60 -302 -60q-172 0 -255.5 81t-83.5 251v260h174v-241q0 -101 46 -144t146 -43q111 0 266 55v373z" />
    <glyph glyph-name="uni0448" unicode="&#x448;" horiz-adv-x="1632" 
d="M1321 946h174v-946h-1358v946h174v-737q0 -33 -10 -53l2 -2q16 8 57 8h320q41 0 57 -8l2 2q-10 20 -10 53v737h174v-737q0 -33 -10 -53l2 -2q16 8 57 8h320q41 0 57 -8l2 2q-10 20 -10 53v737z" />
    <glyph glyph-name="uni0449" unicode="&#x449;" horiz-adv-x="1658" 
d="M1454 -287v240q0 33 10 53l-2 2q-16 -8 -57 -8h-1268v946h174v-737q0 -33 -10 -53l2 -2q16 8 57 8h320q41 0 57 -8l2 2q-10 20 -10 53v737h174v-737q0 -33 -10 -53l2 -2q16 8 57 8h320q41 0 57 -8l2 2q-10 20 -10 53v737h174v-737q0 -33 -10 -53l2 -2q16 8 57 8h68v-449
h-158z" />
    <glyph glyph-name="uni044A" unicode="&#x44a;" horiz-adv-x="1130" 
d="M750 606q157 0 248.5 -81t91.5 -222q0 -136 -94 -219.5t-246 -83.5h-433v692v45q0 25 11 54l-2 2q-18 -9 -58 -9h-258v162h482v-293q0 -24 -11 -53l2 -2q19 8 58 8h209zM737 162q81 0 125.5 37t44.5 102q0 68 -44.5 105.5t-125.5 37.5h-196q-37 0 -58 9l-2 -2
q11 -29 11 -54v-188q0 -24 -11 -53l2 -2q16 8 58 8h196z" />
    <glyph glyph-name="uni044B" unicode="&#x44b;" horiz-adv-x="1286" 
d="M565 606q150 0 238 -81.5t88 -221.5q0 -136 -90.5 -219.5t-237.5 -83.5h-426v692v254h174v-293q0 -26 -10 -53l2 -2q16 8 55 8h207zM975 946h174v-946h-174v946zM551 162q75 0 116.5 37t41.5 102q0 68 -41.5 105.5t-116.5 37.5h-193q-37 0 -55 9l-2 -2q10 -27 10 -54
v-188q0 -26 -10 -53l2 -2q16 8 57 8h191z" />
    <glyph glyph-name="uni044C" unicode="&#x44c;" horiz-adv-x="931" 
d="M565 606q150 0 238 -81.5t88 -221.5q0 -136 -90.5 -219.5t-237.5 -83.5h-426v692v254h174v-293q0 -26 -10 -53l2 -2q16 8 55 8h207zM551 162q75 0 116.5 37t41.5 102q0 68 -41.5 105.5t-116.5 37.5h-193q-37 0 -55 9l-2 -2q10 -27 10 -54v-188q0 -26 -10 -53l2 -2
q16 8 57 8h191z" />
    <glyph glyph-name="uni044D" unicode="&#x44d;" horiz-adv-x="970" 
d="M410 -31q-204 0 -355 94l76 150q136 -76 275 -76q105 0 181.5 57t100.5 148q12 45 25 64l-2 2q-25 -11 -56 -11h-358v152h358q33 0 56 -10l2 2q-16 27 -25 63q-25 91 -101.5 148t-180.5 57q-139 0 -275 -76l-76 150q151 94 355 94q220 0 351.5 -138t131.5 -366
t-131.5 -366t-351.5 -138z" />
    <glyph glyph-name="uni044E" unicode="&#x44e;" horiz-adv-x="1533" 
d="M950 977q224 0 370 -143t146 -361t-146 -361t-370 -143q-201 0 -341.5 118.5t-166.5 307.5h-90q-39 0 -55 8l-2 -2q10 -20 10 -53v-348h-168v946h168v-344q0 -35 -10 -55l2 -2q20 10 55 10h90q28 187 168 304.5t340 117.5zM950 139q148 0 240 92.5t92 241.5t-92 241.5
t-240 92.5q-147 0 -239.5 -92.5t-92.5 -241.5t92.5 -241.5t239.5 -92.5z" />
    <glyph glyph-name="uni044F" unicode="&#x44f;" horiz-adv-x="1003" 
d="M866 946v-653v-293h-174v317q0 27 10 54l-2 2q-19 -8 -57 -8h-72l-327 -365h-213v8l254 273q58 62 102 86v6q-27 -5 -51 -2q-106 15 -173 90.5t-67 191.5q0 139 89.5 216t242.5 77h438zM702 510q-10 27 -10 53v180q0 27 10 54l-2 2q-16 -8 -57 -8h-197q-79 0 -122 -36
t-43 -102q0 -64 43 -100.5t118 -36.5h201q38 0 57 -8z" />
    <glyph glyph-name="uni0451" unicode="&#x451;" horiz-adv-x="1071" 
d="M483 1327v-250h-157v250h157zM782 1327v-250h-157v250h157zM551 977q209 0 329.5 -134t120.5 -366v-35h-647q-82 0 -112 15l-4 -4l8 -23q12 -140 95.5 -217.5t221.5 -77.5q91 0 162 35.5t143 116.5l109 -113q-163 -205 -416 -205q-223 0 -358 137t-135 363
q0 230 131.5 369t351.5 139zM545 819q-125 0 -204.5 -69.5t-92.5 -190.5l2 -2q41 18 106 18h326q104 0 135 -16l2 2q-9 123 -80.5 190.5t-193.5 67.5z" />
    <glyph glyph-name="uni0452" unicode="&#x452;" horiz-adv-x="1132" 
d="M1006 0h2v-80q0 -162 -81.5 -246t-230.5 -84h-108v170h106q140 0 140 160v80v559q0 129 -60.5 190.5t-165.5 61.5q-129 0 -209 -90t-80 -275v-446h-174v1118q0 34 11 56l-2 2q-18 -9 -58 -9h-88v109h88q42 0 58 -8l2 2q-11 22 -11 53v141h174v-141q0 -33 -10 -53l2 -2
q16 8 56 8h268v-109h-268q-38 0 -56 9l-2 -2q10 -20 10 -56v-180q0 -114 -20 -217l8 -2q96 258 359 258q155 0 247.5 -92t92.5 -277v-608z" />
    <glyph glyph-name="uni0453" unicode="&#x453;" horiz-adv-x="757" 
d="M803 1346l2 -7l-287 -309h-121l-2 6l191 310h217zM137 0v946h611v-162h-388q-39 0 -57 9l-2 -2q10 -20 10 -54v-737h-174z" />
    <glyph glyph-name="uni0454" unicode="&#x454;" horiz-adv-x="970" 
d="M561 -31q-219 0 -351 138t-132 366t132 366t351 138q206 0 354 -94l-75 -150q-136 76 -275 76q-104 0 -180.5 -57t-101.5 -148q-9 -36 -25 -63l2 -2q22 10 55 10h359v-152h-359q-30 0 -55 11l-2 -2q13 -19 25 -64q24 -91 100.5 -148t181.5 -57q139 0 275 76l75 -150
q-148 -94 -354 -94z" />
    <glyph glyph-name="uni0455" unicode="&#x455;" horiz-adv-x="847" 
d="M432 -31q-217 0 -389 107l80 153q154 -96 313 -96q170 0 170 109q0 37 -26.5 66.5t-87.5 56.5l-173 84q-104 50 -154 115.5t-50 154.5q0 122 86.5 190t242.5 68q160 0 324 -74l-72 -151q-141 63 -256 63q-141 0 -141 -92q0 -39 28 -69t93 -60l174 -82q104 -49 150.5 -112
t46.5 -152q0 -132 -94.5 -205.5t-264.5 -73.5z" />
    <glyph glyph-name="uni0456" unicode="&#x456;" horiz-adv-x="452" 
d="M326 1434v-269h-197v269h197zM313 946v-946h-174v946h174z" />
    <glyph glyph-name="uni0457" unicode="&#x457;" horiz-adv-x="452" 
d="M156 1327v-250h-158v250h158zM455 1327v-250h-158v250h158zM313 946v-946h-174v946h174z" />
    <glyph glyph-name="uni0458" unicode="&#x458;" horiz-adv-x="452" 
d="M326 1434v-269h-197v269h197zM313 946v-1016q0 -189 -90 -279.5t-258 -90.5h-14v170h14q174 0 174 200v1016h174z" />
    <glyph glyph-name="uni0459" unicode="&#x459;" horiz-adv-x="1560" 
d="M1190 606q151 0 239.5 -81t88.5 -222q0 -136 -90.5 -219.5t-237.5 -83.5h-406v737q0 32 11 54l-2 2q-21 -9 -58 -9h-295q-39 0 -57 9l-2 -2q10 -27 10 -54v-112v-326q0 -152 -72.5 -228.5t-212.5 -76.5h-83v158h83q59 0 86 35.5t27 117.5v320h-2v321h739v-293
q0 -26 -10 -53l2 -2q19 8 58 8h184zM1176 162q74 0 115.5 37t41.5 102q0 68 -41 105.5t-116 37.5h-170q-37 0 -58 9l-2 -2q10 -27 10 -54v-188q0 -26 -10 -53l2 -2q16 8 58 8h170z" />
    <glyph glyph-name="uni045A" unicode="&#x45a;" horiz-adv-x="1550" 
d="M137 0v946h174v-293q0 -26 -10 -53l2 -2q16 8 55 8h367q39 0 55 -8l2 2q-8 21 -8 53v293h172v-293q0 -33 -10 -53l2 -2q19 8 57 8h185q151 0 239 -81t88 -222q0 -136 -90 -219.5t-237 -83.5h-406v397q0 33 8 54l-2 2q-18 -9 -55 -9h-367q-37 0 -55 9l-2 -2q10 -27 10 -54
v-397h-174zM938 156q19 8 57 8h170q76 0 117 36t41 101q0 68 -41 105.5t-117 37.5h-170q-36 0 -57 9l-2 -2q10 -20 10 -54v-186q0 -26 -10 -53z" />
    <glyph glyph-name="uni045B" unicode="&#x45b;" horiz-adv-x="1132" 
d="M666 977q155 0 247.5 -92t92.5 -277v-608h-172v559q0 129 -60.5 190.5t-165.5 61.5q-129 0 -209 -90t-80 -275v-446h-174v1118q0 34 11 56l-2 2q-18 -9 -58 -9h-88v109h88q42 0 58 -8l2 2q-11 22 -11 53v141h174v-141q0 -33 -10 -53l2 -2q16 8 56 8h268v-109h-268
q-38 0 -56 9l-2 -2q10 -20 10 -56v-180q0 -114 -20 -217l8 -2q96 258 359 258z" />
    <glyph glyph-name="uni045C" unicode="&#x45c;" horiz-adv-x="993" 
d="M866 1346l2 -7l-286 -309h-121l-2 6l190 310h217zM846 -6q-81 0 -127.5 31.5t-65.5 97.5l-47 170q-20 73 -51.5 102t-91.5 29h-96q-44 0 -64 4l-2 -2q10 -45 10 -86v-340h-174v946h174v-303q0 -37 -10 -82l2 -2q20 4 64 4h96q61 0 90 24.5t55 96.5l70 166q38 102 180 102
h94v-155h-47q-44 0 -66.5 -16.5t-41.5 -59.5l-37 -100q-25 -65 -71.5 -93.5t-131.5 -29.5v-9q89 -2 134 -29t65 -93l43 -146q12 -42 31.5 -56.5t68.5 -14.5h55v-156h-108z" />
    <glyph glyph-name="uni045E" unicode="&#x45e;" horiz-adv-x="997" 
d="M786 1341q0 -139 -77.5 -218t-202.5 -79q-126 0 -204.5 79t-78.5 218h125q3 -89 44 -132.5t114 -43.5q71 0 113 44t45 132h122zM977 946l-580 -1358h-180l205 475l-402 883h199l232 -545q25 -59 36.5 -99t14.5 -91h8q2 72 41 166l237 569h189z" />
    <glyph glyph-name="uni045F" unicode="&#x45f;" horiz-adv-x="1101" 
d="M471 -287v240q0 33 10 53l-2 2q-16 -8 -57 -8h-285v946h174v-737q0 -33 -10 -53l2 -2q16 8 57 8h383q42 0 58 -8l2 2q-10 20 -10 53v737h172v-946h-285q-41 0 -57 8l-2 -2q10 -20 10 -53v-240h-160z" />
    <glyph glyph-name="uni0462" unicode="&#x462;" horiz-adv-x="1294" 
d="M795 852q211 0 335.5 -116t124.5 -310t-124.5 -310t-335.5 -116h-529v987q0 33 6 51l-4 2q-21 -6 -51 -6h-217v170h217q30 0 51 -6l4 2q-6 18 -6 51v183h185v-183q0 -30 -7 -51l5 -2q21 6 51 6h374v-170h-374q-30 0 -51 6l-5 -2q7 -21 7 -51v-88q0 -30 -7 -51l5 -2
q21 6 51 6h295zM774 174q137 0 211 66.5t74 185.5q0 118 -75.5 185t-209.5 67h-274q-32 0 -51 8l-5 -4q7 -18 7 -51v-408q0 -35 -7 -53l5 -4q19 8 51 8h274z" />
    <glyph glyph-name="uni0463" unicode="&#x463;" horiz-adv-x="978" 
d="M610 606q150 0 238 -81.5t88 -221.5q0 -136 -90.5 -219.5t-237.5 -83.5h-426v692v66q0 31 11 53l-3 2q-19 -8 -57 -8h-125v141h125q38 0 57 -8l3 2q-11 22 -11 53v471h172v-471q0 -32 -8 -53l2 -2q16 8 55 8h314v-141h-314q-39 0 -55 8l-2 -2q8 -21 8 -53v-105
q0 -32 -8 -53l2 -2q16 8 55 8h207zM596 162q75 0 116.5 37t41.5 102q0 68 -41.5 105.5t-116.5 37.5h-193q-37 0 -55 9l-2 -2q8 -21 8 -54v-188q0 -33 -10 -53l2 -2q19 8 57 8h193z" />
    <glyph glyph-name="uni0472" unicode="&#x472;" horiz-adv-x="1646" 
d="M823 1464q214 0 384.5 -95t267 -266t96.5 -386q0 -214 -96.5 -385t-267.5 -267t-384 -96q-212 0 -383 96t-267.5 267t-96.5 385q0 161 56.5 300t155.5 237t237.5 154t297.5 56zM287 848q-4 -29 -19 -55l4 -5q27 9 60 9h983q32 0 59 -9l4 5q-7 13 -18 53
q-36 192 -179.5 311t-357.5 119q-110 0 -203.5 -34t-160 -93t-110.5 -135.5t-62 -165.5zM1360 586q10 38 18 55l-4 4q-24 -8 -59 -8h-983q-36 0 -60 8l-4 -4q15 -25 19 -53q38 -192 180.5 -311t355.5 -119q110 0 204 34t161 93t111 136t61 165z" />
    <glyph glyph-name="uni0473" unicode="&#x473;" horiz-adv-x="1159" 
d="M580 977q223 0 367.5 -142t144.5 -362t-144.5 -362t-367.5 -142t-367.5 142t-144.5 362t144.5 362t367.5 142zM907 512l4 4q-17 136 -105.5 213.5t-225.5 77.5t-226 -77.5t-104 -213.5l4 -4q27 16 117 16h417q88 0 119 -16zM580 139q137 0 225.5 77.5t105.5 213.5l-4 4
q-31 -16 -119 -16h-417q-90 0 -117 16l-4 -4q15 -136 104 -213.5t226 -77.5z" />
    <glyph glyph-name="uni0474" unicode="&#x474;" horiz-adv-x="1325" 
d="M1233 1462q47 0 106 -6v-170q-27 2 -71 2q-62 0 -97 -32.5t-73 -125.5l-461 -1150h-23l-610 1454h221l322 -844q28 -69 42.5 -123t28.5 -137h9q23 130 73 260l236 624q52 136 120 192t177 56z" />
    <glyph glyph-name="uni0475" unicode="&#x475;" horiz-adv-x="995" 
d="M965 965h20v-170h-16q-91 0 -129 -78l-330 -729h-51l-439 958h203l183 -454q33 -81 47 -123.5t28 -106.5h6q16 74 30.5 116t45.5 114l129 301q43 101 100 136.5t173 35.5z" />
    <glyph glyph-name="uni048E" unicode="&#x48e;" horiz-adv-x="1105" 
d="M1057 1032q0 -118 -49 -206t-140 -138l133 -186l-69 -51l-146 204q-74 -22 -159 -22h-236q-32 0 -51 8l-4 -4q6 -15 6 -51v-586h-184v1434h454q205 0 325 -107.5t120 -294.5zM614 807q24 0 60 4l-121 172l68 51l139 -192q98 58 98 190q0 106 -63.5 167t-180.5 61h-223
q-35 0 -51 8l-4 -4q6 -15 6 -54v-354q0 -35 -6 -53l4 -2q21 6 51 6h223z" />
    <glyph glyph-name="uni048F" unicode="&#x48f;" horiz-adv-x="1200" 
d="M1133 473q0 -138 -53 -248.5t-148 -177.5l115 -139l-60 -51l-125 151q-89 -39 -192 -39q-127 0 -222.5 61t-148.5 175l-8 -2q20 -70 20 -201v-412h-174v1356h168q0 -144 -12 -205l8 -2q53 116 147.5 177t221.5 61q204 0 333.5 -141.5t129.5 -362.5zM639 133q53 0 109 17
l-130 157l60 49l141 -172q131 89 131 289q0 157 -84 248.5t-229 91.5q-148 0 -241 -94.5t-93 -245.5t93.5 -245.5t242.5 -94.5z" />
    <glyph glyph-name="uni0490" unicode="&#x490;" horiz-adv-x="999" 
d="M805 1720h174v-460h-588q-32 0 -51 8l-4 -4q6 -15 6 -52v-1212h-184v1434h598q30 0 51 -9l4 5q-6 15 -6 51v239z" />
    <glyph glyph-name="uni0491" unicode="&#x491;" horiz-adv-x="813" 
d="M608 1231h174v-447h-422q-39 0 -57 9l-2 -2q10 -20 10 -54v-737h-174v946h422q41 0 57 -8l2 2q-10 20 -10 53v238z" />
    <glyph glyph-name="uni0492" unicode="&#x492;" horiz-adv-x="1079" 
d="M485 1260q-32 0 -51 8l-4 -4q6 -15 6 -52v-356q0 -36 -6 -51l4 -4q19 8 51 8h416v-174h-416q-30 0 -51 6l-4 -2q6 -18 6 -51v-588h-184v588q0 33 6 51l-4 2q-18 -6 -51 -6h-183v174h183q35 0 51 -8l4 4q-6 15 -6 51v578h807v-174h-574z" />
    <glyph glyph-name="uni0493" unicode="&#x493;" horiz-adv-x="815" 
d="M418 784q-40 0 -58 9l-2 -2q11 -22 11 -54v-164q0 -33 -11 -55l2 -2q20 10 58 10h287v-161h-287q-42 0 -58 8l-2 -2q11 -22 11 -54v-317h-174v317q0 34 10 54l-2 2q-16 -8 -56 -8h-94v161h94q36 0 56 -10l2 2q-10 20 -10 55v373h610v-162h-387z" />
    <glyph glyph-name="uni0494" unicode="&#x494;" horiz-adv-x="1241" 
d="M770 864q197 0 295 -99t98 -302v-481q0 -186 -91.5 -289t-266.5 -103h-137v174h125q186 0 186 224v473q0 118 -56.5 172.5t-170.5 54.5q-167 0 -410 -74v-614h-184v1434h839v-174h-606q-32 0 -51 8l-4 -4q6 -15 6 -52v-338q0 -63 -10 -83l4 -5q217 78 434 78z" />
    <glyph glyph-name="uni0495" unicode="&#x495;" horiz-adv-x="976" 
d="M459 -410v164h106q91 0 133.5 40.5t42.5 131.5v279q0 99 -42.5 141.5t-135.5 42.5q-110 0 -252 -53v-336h-174v946h658v-162h-435q-39 0 -57 9l-2 -2q10 -27 10 -54v-147q0 -70 -12 -94l4 -2q149 61 287 61q164 0 244.5 -81.5t80.5 -250.5v-303q0 -167 -82 -248.5
t-253 -81.5h-121z" />
    <glyph glyph-name="uni0496" unicode="&#x496;" horiz-adv-x="1974" 
d="M1808 123h127v-410h-174v281q-8 0 -25 -1t-26 -1q-123 0 -190 51t-95 168l-69 303q-19 85 -66.5 124.5t-130.5 39.5h-82q-43 0 -63 4l-2 -2q10 -42 10 -84v-596h-182v596q0 42 10 84l-2 2q-20 -4 -64 -4h-82q-82 0 -129.5 -39t-66.5 -125l-70 -303q-28 -117 -94.5 -168
t-189.5 -51q-58 0 -99 8v182q50 -4 66 -4q60 0 96 28t53 91l64 266q25 110 76 149t176 44v8q-137 6 -196.5 50t-90.5 161l-51 194q-23 95 -146 95q-19 0 -59 -4v174q70 6 98 6q117 0 180.5 -43.5t92.5 -147.5l65 -243q42 -168 225 -168h82q47 0 64 -7l2 3q-10 45 -10 81v519
h182v-519q0 -36 -10 -81l2 -3q18 7 63 7h82q180 0 225 168l66 243q27 104 90 147.5t182 43.5q28 0 99 -6v-174q-40 4 -60 4q-122 0 -145 -95l-51 -194q-31 -117 -90.5 -161t-196.5 -50v-8q125 -5 176 -44t76 -149l63 -266q17 -62 53 -90.5t97 -28.5q15 0 65 4v-59z" />
    <glyph glyph-name="uni0497" unicode="&#x497;" horiz-adv-x="1501" 
d="M1362 106h113v-393h-158v281h-64q-79 0 -124 31.5t-64 97.5l-49 170q-20 72 -52.5 101.5t-91.5 29.5h-34q-40 0 -64 4l-2 -2q10 -34 10 -86v-340h-164v340q0 49 11 86l-2 2q-24 -4 -64 -4h-35q-58 0 -90.5 -29.5t-52.5 -101.5l-49 -170q-19 -66 -64.5 -97.5t-124.5 -31.5
h-108v151h55q45 0 68 17t35 59l41 146q19 65 65 92.5t133 29.5v9q-84 3 -132 32t-68 91l-37 100q-19 46 -41.5 63t-67.5 17h-49v151h94q135 0 178 -102l68 -166q27 -71 56.5 -96t90.5 -25h35q40 0 64 -4l2 2q-11 37 -11 82v303h164v-303q0 -48 -10 -82l2 -2q24 4 64 4h34
q61 0 91.5 25t56.5 96l67 166q43 102 179 102h92v-151h-47q-45 0 -67.5 -17t-41.5 -63l-37 -100q-20 -62 -68 -91t-132 -32v-9q87 -2 132.5 -29.5t65.5 -92.5l41 -146q12 -42 35 -59t68 -17h55v-39z" />
    <glyph glyph-name="uni0498" unicode="&#x498;" horiz-adv-x="1161" 
d="M1063 385q0 -187 -111 -292t-331 -122l-17 -45q81 -23 129.5 -57t48.5 -92q0 -32 -18 -62.5t-41.5 -52t-66 -47t-70.5 -39t-76 -35.5l-29 60q103 59 127 80q31 27 31 53q0 55 -150 88l56 147h-4q-285 0 -482 115l84 170q191 -104 406 -104q317 0 317 249
q0 136 -95.5 201.5t-289.5 65.5h-198v178h196q334 0 334 235q0 99 -66.5 152t-197.5 53q-194 0 -389 -94l-68 172q237 102 477 102q443 0 443 -354q0 -248 -234 -319q-65 -19 -145 -25v-6q85 0 147 -12q283 -61 283 -363z" />
    <glyph glyph-name="uni0499" unicode="&#x499;" horiz-adv-x="909" 
d="M840 256q0 -126 -88 -199.5t-252 -85.5l-17 -45q81 -23 130 -57t49 -92q0 -32 -18 -62.5t-41.5 -52t-66.5 -47t-70.5 -39t-76.5 -35.5l-29 60q103 59 127 80q31 27 31 53q0 55 -149 88l55 147q-217 3 -383 94l72 152q156 -86 325 -86q117 0 173.5 33.5t56.5 109.5
q0 80 -50.5 116t-162.5 36h-129v158h118q170 0 170 118q0 115 -186 115q-140 0 -305 -76l-66 152q203 86 385 86q169 0 261 -63t92 -181q0 -98 -62.5 -155t-181.5 -68v-6q289 -16 289 -248z" />
    <glyph glyph-name="uni049A" unicode="&#x49a;" horiz-adv-x="1368" 
d="M1217 123h112v-410h-174v279q-20 -2 -72 -2q-110 0 -175 54t-89 171l-57 260q-22 106 -73 151.5t-152 45.5h-140q-47 0 -63 4l-2 -2q10 -29 10 -84v-590h-184v1434h184v-531q0 -51 -10 -80l2 -2q18 6 63 6h140q98 0 149.5 46t79.5 159l55 215q26 102 95 149.5t184 47.5
q56 0 102 -6v-174q-35 6 -61 6q-68 0 -104.5 -23.5t-49.5 -75.5l-49 -198q-30 -122 -94 -168t-203 -51v-6q139 -5 205.5 -53t89.5 -165l51 -235q17 -73 50.5 -102t95.5 -29q15 0 84 6v-47z" />
    <glyph glyph-name="uni049B" unicode="&#x49b;" horiz-adv-x="1089" 
d="M954 106h107v-393h-156v281h-59q-81 0 -127.5 31.5t-65.5 97.5l-47 170q-20 73 -51.5 102t-91.5 29h-96q-44 0 -64 4l-2 -2q10 -45 10 -86v-340h-174v946h174v-303q0 -37 -10 -82l2 -2q20 4 64 4h96q61 0 90 24.5t55 96.5l70 166q38 102 180 102h94v-155h-47
q-44 0 -66.5 -16.5t-41.5 -59.5l-37 -100q-25 -65 -71.5 -93.5t-131.5 -29.5v-9q89 -2 134 -29t65 -93l43 -146q12 -42 31.5 -56.5t68.5 -14.5h55v-44z" />
    <glyph glyph-name="uni049C" unicode="&#x49c;" horiz-adv-x="1261" 
d="M1133 164q15 0 84 6v-174q-67 -6 -134 -6q-110 0 -175 54t-89 171l-57 260q-22 104 -70 149t-141 46v-295h-94v297h-60q-47 0 -63 4l-2 -2q10 -29 10 -84v-590h-184v1434h184v-531q0 -51 -10 -80l2 -2q18 6 63 6h60v308h94v-308q89 3 138 49.5t77 155.5l55 215
q26 102 95 149.5t184 47.5q56 0 102 -6v-174q-35 6 -61 6q-68 0 -104.5 -23.5t-49.5 -75.5l-49 -198q-30 -122 -94 -168t-203 -51v-6q139 -5 205.5 -53t89.5 -165l51 -235q17 -73 50.5 -102t95.5 -29z" />
    <glyph glyph-name="uni049D" unicode="&#x49d;" horiz-adv-x="993" 
d="M899 150h55v-156h-108q-81 0 -127.5 31.5t-65.5 97.5l-47 170q-20 73 -51.5 102t-91.5 29h-6v-240h-62v240h-28q-44 0 -64 4l-2 -2q10 -45 10 -86v-340h-174v946h174v-303q0 -37 -10 -82l2 -2q20 4 64 4h28v234h62v-234h6q61 0 90 24.5t55 96.5l70 166q38 102 180 102h94
v-155h-47q-44 0 -66.5 -16.5t-41.5 -59.5l-37 -100q-25 -65 -71.5 -93.5t-131.5 -29.5v-9q89 -2 134 -29t65 -93l43 -146q12 -42 31.5 -56.5t68.5 -14.5z" />
    <glyph glyph-name="uni049E" unicode="&#x49e;" horiz-adv-x="1388" 
d="M1260 164q17 0 86 6v-174q-56 -6 -148 -6q-102 0 -168.5 57t-89.5 168l-57 260q-22 101 -72.5 144t-144.5 43h-140q-51 0 -63 6l-2 -4q10 -29 10 -84v-580h-184v1016q0 34 6 49l-4 4q-14 -6 -51 -6h-218v154h218q26 0 51 -7l4 2q-6 18 -6 52v170h184v-170q0 -34 -6 -52
l4 -2q25 7 51 7h258v-154h-258q-37 0 -51 6l-4 -4q6 -15 6 -49v-105q0 -51 -10 -80l2 -2q21 7 63 7h140q91 0 142 45t79 151l55 215q26 102 97 149.5t194 47.5q51 0 98 -6v-174q-37 6 -61 6q-68 0 -104.5 -23.5t-49.5 -75.5l-49 -198q-31 -121 -94.5 -168t-202.5 -53v-4
q139 -5 205.5 -53.5t89.5 -164.5l51 -235q17 -73 49.5 -102t94.5 -29z" />
    <glyph glyph-name="uni049F" unicode="&#x49f;" horiz-adv-x="1042" 
d="M948 150h56v-156h-109q-81 0 -127.5 31.5t-65.5 97.5l-47 170q-20 73 -51.5 102t-91.5 29h-96q-44 0 -64 4l-2 -2q10 -45 10 -86v-340h-174v946v172q0 34 11 56l-2 2q-18 -9 -58 -9h-129v109h129q42 0 58 -8l2 2q-11 22 -11 53v141h174v-141q0 -33 -10 -53l2 -2
q16 8 56 8h309v-109h-309q-38 0 -56 9l-2 -2q10 -20 10 -56v-172v-303q0 -37 -10 -82l2 -2q20 4 64 4h96q61 0 90 24.5t55 96.5l70 166q38 102 180 102h92v-155h-45q-44 0 -66.5 -16.5t-41.5 -59.5l-39 -100q-23 -64 -70 -92.5t-131 -30.5v-9q89 -2 134 -29t65 -93l43 -146
q12 -42 31.5 -56.5t68.5 -14.5z" />
    <glyph glyph-name="uni04A0" unicode="&#x4a0;" horiz-adv-x="1499" 
d="M1370 164q15 0 84 6v-174q-123 -6 -137 -6q-109 0 -173.5 54t-88.5 171l-58 260q-22 98 -74 142.5t-147 44.5h-141q-52 0 -64 6l-2 -4q11 -32 11 -84v-580h-185v1212q0 39 8 52l-4 4q-16 -8 -53 -8h-326v174h560v-523q0 -48 -11 -80l2 -2q21 7 64 7h141q93 0 146.5 46
t81.5 150l55 215q24 102 94 149.5t188 47.5q53 0 99 -6v-174q-34 6 -62 6q-66 0 -103 -23.5t-50 -75.5l-49 -198q-29 -121 -93.5 -168t-203.5 -53v-4q140 -5 206 -53t89 -165l53 -235q15 -72 48 -101.5t95 -29.5z" />
    <glyph glyph-name="uni04A1" unicode="&#x4a1;" horiz-adv-x="1159" 
d="M1065 150h55v-156h-108q-77 0 -121.5 31.5t-63.5 97.5l-49 170q-20 66 -54.5 94.5t-94.5 28.5h-97q-43 0 -63 4l-2 -2q10 -34 10 -86v-332h-174v737q0 27 10 54l-2 2q-18 -9 -57 -9h-244v162h467v-295q0 -48 -10 -82l2 -2q20 4 63 4h97q62 0 93.5 23.5t59.5 89.5l70 166
q39 102 172 102h94v-155h-49q-40 0 -61.5 -16.5t-38.5 -59.5l-35 -100q-25 -66 -73 -93.5t-138 -29.5v-9q93 -2 139 -28.5t68 -93.5l41 -146q12 -42 30.5 -56.5t63.5 -14.5z" />
    <glyph glyph-name="uni04A2" unicode="&#x4a2;" horiz-adv-x="1441" 
d="M1290 123h113v-410h-174v287h-123v625q0 36 6 51l-4 4q-19 -8 -51 -8h-666q-32 0 -51 8l-4 -4q6 -15 6 -51v-625h-184v1434h184v-537q0 -36 -6 -51l4 -4q19 8 51 8h666q32 0 51 -8l4 4q-6 15 -6 51v537h184v-1311z" />
    <glyph glyph-name="uni04A3" unicode="&#x4a3;" horiz-adv-x="1134" 
d="M1001 106h107v-393h-158v287h-123v379q0 31 11 53l-2 2q-16 -8 -58 -8h-420q-39 0 -55 8l-2 -2q10 -20 10 -53v-379h-174v946h174v-311q0 -35 -10 -55l2 -2q16 8 55 8h420q42 0 58 -8l2 2q-11 22 -11 55v311h174v-840z" />
    <glyph glyph-name="uni04A4" unicode="&#x4a4;" horiz-adv-x="1839" 
d="M1077 1434h742v-177h-508q-35 0 -51 7l-5 -4q7 -18 7 -50v-1210h-185v625q0 36 6 51l-4 4q-16 -8 -51 -8h-637q-32 0 -51 8l-4 -4q6 -15 6 -51v-625h-184v1434h184v-537q0 -36 -6 -51l4 -4q19 8 51 8h637q35 0 51 -8l4 4q-6 15 -6 51v537z" />
    <glyph glyph-name="uni04A5" unicode="&#x4a5;" horiz-adv-x="1359" 
d="M788 946h562v-162h-338q-40 0 -58 9l-2 -2q11 -22 11 -54v-737h-175v379q0 31 11 53l-2 2q-16 -8 -56 -8h-383q-39 0 -55 8l-2 -2q10 -20 10 -53v-379h-174v946h174v-311q0 -35 -10 -55l2 -2q16 8 55 8h383q40 0 56 -8l2 2q-11 22 -11 55v311z" />
    <glyph glyph-name="uni04A6" unicode="&#x4a6;" horiz-adv-x="2156" 
d="M1716 872q404 0 404 -399v-94q0 -184 -95.5 -281.5t-281.5 -97.5h-162v174h129q121 0 173 50.5t52 162.5v82q0 229 -237 229q-179 0 -430 -73v-625h-185v1212q0 34 7 52l-5 4q-16 -8 -51 -8h-643q-32 0 -51 8l-4 -4q6 -15 6 -52v-1212h-184v1434h1110v-551q0 -62 -11 -84
l5 -4q211 77 454 77z" />
    <glyph glyph-name="uni04A7" unicode="&#x4a7;" horiz-adv-x="1611" 
d="M1243 586q164 0 245 -81t81 -251v-334q0 -166 -82.5 -248t-253.5 -82h-121v164h107q91 0 134.5 40.5t43.5 131.5v312q0 98 -43 141t-137 43q-104 0 -252 -55v-367h-174v666v71q0 27 10 54l-2 2q-18 -9 -58 -9h-381q-39 0 -57 9l-2 -2q10 -27 10 -54v-737h-174v946h828
v-325q0 -67 -13 -93l4 -2q148 60 287 60z" />
    <glyph glyph-name="uni04A8" unicode="&#x4a8;" horiz-adv-x="1605" 
d="M793 -31q-318 0 -507.5 202.5t-189.5 543.5q0 344 198.5 546.5t536.5 202.5q135 0 232 -32l-53 -181q-82 25 -179 25q-243 0 -388.5 -155t-145.5 -414q0 -260 139.5 -419t368.5 -159q24 0 60.5 3t52.5 3v4q-33 7 -80 54q-73 76 -113.5 189.5t-40.5 244.5q0 217 107 344
t290 127q177 0 279 -121t102 -328q0 -138 -46 -257.5t-134 -207.5q-27 -31 -76 -47v-4q15 0 42 -4t50 -4q101 0 220 65l73 -149q-83 -40 -148.5 -56t-142.5 -16q-83 0 -139 18t-69 50h-5q-108 -68 -294 -68zM1057 172h4q6 8 14.5 17.5t16 16t20 18t18.5 16.5
q158 136 158 385q0 139 -53.5 213.5t-153.5 74.5t-154.5 -77t-54.5 -218q0 -225 142 -370q25 -28 32.5 -41t10.5 -35z" />
    <glyph glyph-name="uni04A9" unicode="&#x4a9;" horiz-adv-x="1161" 
d="M561 -31q-227 0 -360 134t-133 370q0 239 139 371.5t391 132.5q90 0 184 -23l-41 -155q-75 16 -139 16q-166 0 -258 -89.5t-92 -252.5q0 -135 62.5 -225.5t172.5 -116.5q32 -9 88 -12v4q-15 7 -27 16.5t-17 15.5t-13 19q-59 85 -59 213q0 143 82 226t223 83t217 -79
t76 -220q0 -143 -90 -250q-19 -26 -58 -43l2 -4q47 6 60 6q56 8 123 39l55 -127q-107 -49 -211 -49q-125 0 -162 47h-4q-100 -47 -211 -47zM721 141l4 -2q84 40 130 103.5t46 140.5q0 74 -36.5 120t-102.5 46q-63 0 -100 -45.5t-37 -130.5q0 -109 63 -178q31 -36 33 -54z
" />
    <glyph glyph-name="uni04AA" unicode="&#x4aa;" horiz-adv-x="1406" 
d="M1346 129q-206 -151 -469 -160l-17 -43q81 -23 129.5 -57t48.5 -92q0 -32 -18 -62.5t-41.5 -52t-66 -47t-70.5 -39t-76 -35.5l-29 60q103 59 127 80q31 27 31 53q0 55 -150 88l56 147q-326 14 -525.5 220t-199.5 528q0 164 56 303.5t156 237t242.5 152t311.5 54.5
q290 0 504 -159l-113 -160q-184 131 -397 131q-248 0 -404 -155t-156 -404t156 -404t404 -155q213 0 397 131z" />
    <glyph glyph-name="uni04AB" unicode="&#x4ab;" horiz-adv-x="964" 
d="M909 66q-133 -88 -295 -97l-16 -43q81 -23 129.5 -57t48.5 -92q0 -32 -18 -62.5t-41.5 -52t-66 -47t-70.5 -39t-76 -35.5l-29 60q103 59 127 80q31 27 31 53q0 55 -150 88l56 149q-211 14 -341 152t-130 350q0 224 144 364t374 140q178 0 323 -96l-84 -148
q-116 76 -245 76q-145 0 -236.5 -94t-91.5 -242t91.5 -242t236.5 -94q129 0 245 76z" />
    <glyph glyph-name="uni04AC" unicode="&#x4ac;" horiz-adv-x="1058" 
d="M672 1257q-38 0 -54 7l-2 -4q7 -18 7 -50v-1087h122v-410h-174v287h-133v1210q0 35 6 50l-4 4q-16 -7 -51 -7h-369v177h1018v-177h-366z" />
    <glyph glyph-name="uni04AD" unicode="&#x4ad;" horiz-adv-x="913" 
d="M592 784q-39 0 -57 9l-3 -2q11 -22 11 -54v-631h116v-393h-157v287h-131v737q0 34 10 54l-2 2q-18 -9 -57 -9h-312v162h893v-162h-311z" />
    <glyph glyph-name="uni04AE" unicode="&#x4ae;" horiz-adv-x="1136" 
d="M1122 1434l-463 -867v-567h-184v567l-461 867h222l239 -488q51 -107 65.5 -144t24.5 -89h4q4 19 8.5 35.5l7.5 27.5t13.5 34t15 33t22 47.5t26.5 55.5l239 488h221z" />
    <glyph glyph-name="uni04AF" unicode="&#x4af;" horiz-adv-x="989" 
d="M969 946l-385 -823v-533h-172v525l-392 831h203l195 -461q41 -100 53.5 -136t22.5 -91h4q9 57 21.5 94t53.5 133l193 461h203z" />
    <glyph glyph-name="uni04B0" unicode="&#x4b0;" horiz-adv-x="1136" 
d="M664 561q19 8 51 8h231v-155h-237q-33 0 -52 8l-4 -4q6 -15 6 -51v-367h-184v367q0 36 6 51l-2 4q-19 -8 -53 -8h-238v155h232q34 0 53 -8l2 4l-461 869h217l244 -488q43 -88 60 -131.5t30 -101.5h6q13 57 30 99.5t61 133.5l243 488h217l-463 -869z" />
    <glyph glyph-name="uni04B1" unicode="&#x4b1;" horiz-adv-x="1030" 
d="M604 117q16 8 55 8h215v-162h-223q-41 0 -57 8l-2 -2q10 -20 10 -53v-326h-172v326q0 37 8 53l-2 2q-16 -8 -55 -8h-223v162h215q39 0 55 -8l2 2l-389 827h203l194 -461q41 -100 53.5 -136t22.5 -91h4q9 56 21.5 92.5t54.5 134.5l192 461h203l-387 -827z" />
    <glyph glyph-name="uni04B2" unicode="&#x4b2;" horiz-adv-x="1329" 
d="M1161 123h131v-410h-174v287h-96l-301 475q-76 122 -84 164h-8q-11 -46 -86 -164l-301 -475h-219l385 598q84 126 112 162v4q-39 44 -90 125l-348 545h217l240 -379q79 -124 90 -170h8q8 44 88 170l240 379h217l-348 -545q-53 -83 -91 -125v-4q33 -41 113 -162z" />
    <glyph glyph-name="uni04B3" unicode="&#x4b3;" horiz-adv-x="1044" 
d="M905 106h113v-393h-158v287h-84l-196 266q-36 49 -52 79t-22 63h-8q-12 -59 -74 -142l-199 -266h-205l316 430q3 4 13 17l15 19.5t13 14t14 11.5v6q-19 11 -53 59l-279 389h207l156 -219q39 -58 54.5 -87.5t21.5 -61.5h8q6 32 21.5 61.5t54.5 87.5l155 219h205l-276 -389
q-34 -48 -56 -59v-6q16 -8 58 -62z" />
    <glyph glyph-name="uni04B4" unicode="&#x4b4;" horiz-adv-x="1740" 
d="M1561 174h112v-457h-176v236q0 31 8 51l-4 4q-16 -8 -53 -8h-969v1212q0 37 6 52l-4 4q-16 -8 -51 -8h-410v174h1029v-174h-336q-35 0 -54 8l-2 -4q7 -18 7 -52v-991q0 -29 -9 -51l4 -4q16 8 54 8h565q37 0 53 -8l4 4q-8 20 -8 51v1213h184v-1213q0 -36 -6 -51l2 -4
q16 8 54 8z" />
    <glyph glyph-name="uni04B5" unicode="&#x4b5;" horiz-adv-x="1204" 
d="M1106 162h51v-449h-158v240q0 31 11 53l-2 2q-16 -8 -58 -8h-667v737q0 34 10 54l-2 2q-18 -9 -58 -9h-223v162h709v-162h-213q-39 0 -57 9l-3 -2q11 -22 11 -54v-528q0 -31 -11 -53l3 -2q16 8 57 8h328q41 0 57 -8l2 2q-10 20 -10 53v737h174v-737q0 -33 -10 -53l2 -2
q16 8 57 8z" />
    <glyph glyph-name="uni04B6" unicode="&#x4b6;" horiz-adv-x="1234" 
d="M1073 123h125v-410h-176v287h-133v551q0 62 12 84l-4 4q-214 -78 -451 -78q-409 0 -409 445v428h184v-424q0 -275 242 -275q175 0 426 74v625h184v-1311z" />
    <glyph glyph-name="uni04B7" unicode="&#x4b7;" horiz-adv-x="970" 
d="M827 106h117v-393h-158v287h-131v319q0 67 13 93l-4 2q-165 -60 -302 -60q-172 0 -255.5 81t-83.5 251v260h174v-241q0 -101 46 -144t146 -43q111 0 266 55v373h172v-698v-142z" />
    <glyph glyph-name="uni04B8" unicode="&#x4b8;" horiz-adv-x="1230" 
d="M889 1434h184v-1434h-184v551q0 62 12 84l-4 4q-140 -52 -295 -70v-241h-94v233h-62q-409 0 -409 445v428h184v-424q0 -275 242 -275q8 0 23 1t22 1v350h94v-342q109 13 287 64v625z" />
    <glyph glyph-name="uni04B9" unicode="&#x4b9;" horiz-adv-x="956" 
d="M655 946h172v-698v-248h-172v319q0 67 13 93l-4 2q-109 -40 -201 -54v-167h-62v161h-39q-172 0 -255.5 81t-83.5 251v260h174v-241q0 -101 46 -144t146 -43h12v217h62v-211q76 9 192 49v373z" />
    <glyph glyph-name="uni04BA" unicode="&#x4ba;" horiz-adv-x="1232" 
d="M342 1434v-551q0 -61 -10 -84l4 -4q208 77 450 77q408 0 408 -444v-428h-184v424q0 274 -242 274q-178 0 -426 -73v-625h-184v1434h184z" />
    <glyph glyph-name="uni04BB" unicode="&#x4bb;" horiz-adv-x="1128" 
d="M313 1464v-526q0 -123 -20 -217l8 -2q99 258 358 258q162 0 251 -97t89 -272v-608h-172v563q0 120 -58 184t-167 64q-137 0 -213 -96t-76 -269v-446h-174v1464h174z" />
    <glyph glyph-name="uni04BC" unicode="&#x4bc;" horiz-adv-x="1839" 
d="M1081 -31q-288 0 -474 153t-247 431q-8 44 -2 76l-4 2q-16 -13 -63 -13q-131 0 -199.5 74t-68.5 211q0 69 20 150h184q-22 -77 -22 -131q0 -127 102 -127q35 0 49 -7l4 3q-7 37 0 79q39 266 233.5 430t493.5 164q326 0 501 -199t175 -548v-99h-1130q-46 0 -86 15l-2 -4
q7 -15 22 -70q37 -186 171.5 -293.5t342.5 -107.5q269 0 465 192l115 -151q-240 -230 -580 -230zM553 786q36 11 96 11h813q73 0 105 -11l4 5q-9 16 -21 77q-25 192 -147.5 300t-325.5 108q-212 0 -340.5 -111.5t-165.5 -294.5q-1 -3 -4.5 -17.5t-8 -30t-9.5 -29.5z" />
    <glyph glyph-name="uni04BD" unicode="&#x4bd;" horiz-adv-x="1282" 
d="M772 -31q-208 0 -338 118t-149 321q-4 26 2 43l-4 2q-22 -11 -60 -11q-213 0 -213 230q0 49 19 108h139q-18 -52 -18 -104q0 -55 18.5 -78t67.5 -23q42 0 57 -10l2 2q-3 20 4 47q40 168 163.5 265.5t297.5 97.5q216 0 335 -135.5t119 -364.5v-35h-645q-80 0 -114 15
l-2 -4l4 -23q12 -141 95.5 -218t221.5 -77q95 0 165 37t142 115l109 -113q-164 -205 -418 -205zM463 557q36 18 106 18h326q108 0 135 -16l4 2q-12 123 -84 190.5t-194 67.5q-123 0 -202.5 -68.5t-94.5 -191.5z" />
    <glyph glyph-name="uni04BE" unicode="&#x4be;" horiz-adv-x="1839" 
d="M633 618q-46 0 -86 15l-2 -4q7 -15 22 -70q37 -186 171.5 -293.5t342.5 -107.5q269 0 465 192l115 -151q-126 -122 -279 -179h2q-98 -75 -144 -129.5t-46 -97.5q0 -63 82 -63q44 0 88 12l27 -100q-75 -27 -140 -27q-78 0 -129 38.5t-51 106.5q0 105 137 217
q-55 -8 -127 -8q-288 0 -474 153t-247 431q-8 44 -2 76l-4 2q-16 -13 -63 -13q-131 0 -199.5 74t-68.5 211q0 69 20 150h184q-22 -77 -22 -131q0 -127 102 -127q35 0 49 -7l4 3q-7 37 0 79q39 266 233.5 430t493.5 164q326 0 501 -199t175 -548v-99h-1130zM571 870
q-1 -3 -4.5 -17.5t-8 -30t-9.5 -29.5l4 -7q36 11 96 11h813q73 0 105 -11l4 5q-9 16 -21 77q-25 192 -147.5 300t-325.5 108q-212 0 -340.5 -111.5t-165.5 -294.5z" />
    <glyph glyph-name="uni04BF" unicode="&#x4bf;" horiz-adv-x="1282" 
d="M569 442q-80 0 -114 15l-2 -4l4 -23q12 -141 95.5 -218t221.5 -77q95 0 165 37t142 115l109 -113q-82 -105 -189 -156q-98 -75 -144 -129.5t-46 -97.5q0 -63 82 -63q44 0 88 12l27 -100q-75 -27 -140 -27q-78 0 -129 38.5t-51 106.5q0 101 131 213q-14 -2 -47 -2
q-208 0 -338 118t-149 321q-4 26 2 43l-4 2q-22 -11 -60 -11q-213 0 -213 230q0 49 19 108h139q-18 -52 -18 -104q0 -55 18.5 -78t67.5 -23q42 0 57 -10l2 2q-3 20 4 47q40 168 163.5 265.5t297.5 97.5q216 0 335 -135.5t119 -364.5v-35h-645zM756 819q-123 0 -202.5 -68.5
t-94.5 -191.5l4 -2q36 18 106 18h326q108 0 135 -16l4 2q-12 123 -84 190.5t-194 67.5z" />
    <glyph glyph-name="uni04C0" unicode="&#x4c0;" horiz-adv-x="499" 
d="M342 1434v-1434h-184v1434h184z" />
    <glyph glyph-name="uni04C1" unicode="&#x4c1;" horiz-adv-x="1861" 
d="M1210 1767q-3 -132 -77 -207t-201 -75q-128 0 -202 75t-77 207h123q-1 -84 39.5 -129t116.5 -45q77 0 116.5 44.5t38.5 129.5h123zM152 -8q-58 0 -99 8v182q50 -4 66 -4q60 0 96 28t53 91l64 266q25 110 76 149t176 44v8q-137 6 -196.5 50t-90.5 161l-51 194
q-23 95 -146 95q-19 0 -59 -4v174q70 6 98 6q117 0 180.5 -43.5t92.5 -147.5l65 -243q42 -168 225 -168h82q47 0 64 -7l2 3q-10 45 -10 81v519h182v-519q0 -36 -10 -81l2 -3q18 7 63 7h82q180 0 225 168l66 243q27 104 90 147.5t182 43.5q28 0 99 -6v-174q-40 4 -60 4
q-122 0 -145 -95l-51 -194q-31 -117 -90.5 -161t-196.5 -50v-8q125 -5 176 -44t76 -149l63 -266q17 -62 53 -90.5t97 -28.5q15 0 65 4v-182q-41 -8 -98 -8q-123 0 -190 51t-95 168l-69 303q-19 85 -66.5 124.5t-130.5 39.5h-82q-43 0 -63 4l-2 -2q10 -42 10 -84v-596h-182
v596q0 42 10 84l-2 2q-20 -4 -64 -4h-82q-82 0 -129.5 -39t-66.5 -125l-70 -303q-28 -117 -94.5 -168t-189.5 -51z" />
    <glyph glyph-name="uni04C2" unicode="&#x4c2;" horiz-adv-x="1400" 
d="M981 1341q0 -139 -78 -218t-203 -79q-126 0 -204 79t-78 218h125q3 -89 44 -132.5t113 -43.5q71 0 113 44t45 132h123zM39 -6v151h55q45 0 68 17t35 59l41 146q19 65 65 92.5t133 29.5v9q-84 3 -132 32t-68 91l-37 100q-19 46 -41.5 63t-67.5 17h-49v151h94
q135 0 178 -102l68 -166q27 -71 56.5 -96t90.5 -25h35q40 0 64 -4l2 2q-11 37 -11 82v303h164v-303q0 -48 -10 -82l2 -2q24 4 64 4h34q61 0 91.5 25t56.5 96l67 166q43 102 179 102h92v-151h-47q-45 0 -67.5 -17t-41.5 -63l-37 -100q-20 -62 -68 -91t-132 -32v-9
q87 -2 132.5 -29.5t65.5 -92.5l41 -146q12 -42 35 -59t68 -17h55v-151h-109q-79 0 -124 31.5t-64 97.5l-49 170q-20 72 -52.5 101.5t-91.5 29.5h-34q-40 0 -64 4l-2 -2q10 -34 10 -86v-340h-164v340q0 49 11 86l-2 2q-24 -4 -64 -4h-35q-58 0 -90.5 -29.5t-52.5 -101.5
l-49 -170q-19 -66 -64.5 -97.5t-124.5 -31.5h-108z" />
    <glyph glyph-name="uni04C3" unicode="&#x4c3;" horiz-adv-x="1269" 
d="M928 973q-22 -95 -84 -143.5t-187 -67.5v-4q264 -5 388 -110.5t124 -334.5v-331q0 -186 -91.5 -289t-266.5 -103h-137v174h125q186 0 186 224v325q0 101 -36 170.5t-111.5 110.5t-182 59t-258.5 19q-47 0 -63 4l-2 -2q10 -29 10 -84v-590h-184v1434h184v-533
q0 -51 -10 -80l2 -2q18 6 63 6h131q91 0 142.5 47.5t79.5 159.5l55 215q49 197 287 197q56 0 102 -6v-174q-38 6 -64 6q-66 0 -102 -23.5t-49 -75.5z" />
    <glyph glyph-name="uni04C4" unicode="&#x4c4;" horiz-adv-x="974" 
d="M748 621q-25 -64 -72.5 -92t-134.5 -31v-6q192 0 287.5 -79t95.5 -249v-244q0 -166 -82.5 -248t-253.5 -82h-121v164h106q91 0 134 40.5t43 131.5v246q0 124 -74 185t-207 63l-102 2q-44 0 -64 4l-2 -2q10 -45 10 -86v-338h-174v946h174v-303q0 -37 -10 -82l2 -2
q20 4 64 4h79q64 0 95 25t59 96l70 166q39 102 172 102h94v-155h-49q-42 0 -65.5 -18t-37.5 -58z" />
    <glyph glyph-name="uni04C5" unicode="&#x4c5;" horiz-adv-x="1519" 
d="M1352 145h139l-143 -432h-150l88 287h-119v1212q0 34 7 52l-5 4q-19 -8 -51 -8h-596q-32 0 -51 8l-4 -4q6 -15 6 -52v-876q0 -178 -72 -262t-227 -84q-55 0 -123 8v170q86 -4 107 -4q70 0 100.5 37.5t30.5 124.5v1108h1063v-1289z" />
    <glyph glyph-name="uni04C6" unicode="&#x4c6;" horiz-adv-x="1107" 
d="M952 145h133l-143 -432h-149l88 287h-103v737q0 27 10 54l-2 2q-18 -9 -57 -9h-291q-36 0 -57 9l-2 -2q10 -20 10 -54v-438q0 -152 -72.5 -228.5t-212.5 -76.5h-81v158h79q61 0 88 35.5t27 117.5v641h735v-801z" />
    <glyph glyph-name="uni04C7" unicode="&#x4c7;" horiz-adv-x="1447" 
d="M1106 1434h184v-1491q0 -185 -87 -269t-249 -84h-108v177h108q78 0 115 41t37 135v340v342q0 36 6 51l-4 4q-19 -8 -51 -8h-666q-32 0 -51 8l-4 -4q6 -15 6 -51v-625h-184v1434h184v-537q0 -36 -6 -51l4 -4q19 8 51 8h666q32 0 51 -8l4 4q-6 15 -6 51v537z" />
    <glyph glyph-name="uni04C8" unicode="&#x4c8;" horiz-adv-x="1138" 
d="M1001 -80q0 -162 -81.5 -246t-229.5 -84h-108v170h106q139 0 139 160v80v379q0 31 11 53l-2 2q-16 -8 -58 -8h-420q-39 0 -55 8l-2 -2q10 -20 10 -53v-379h-174v946h174v-311q0 -35 -10 -55l2 -2q16 8 55 8h420q42 0 58 -8l2 2q-11 22 -11 55v311h174v-1026z" />
    <glyph glyph-name="uni04C9" unicode="&#x4c9;" horiz-adv-x="1458" 
d="M1290 145h140l-144 -432h-149l88 287h-119v625q0 36 6 51l-4 4q-19 -8 -51 -8h-666q-32 0 -51 8l-4 -4q6 -15 6 -51v-625h-184v1434h184v-537q0 -36 -6 -51l4 -4q19 8 51 8h666q32 0 51 -8l4 4q-6 15 -6 51v537h184v-1289z" />
    <glyph glyph-name="uni04CA" unicode="&#x4ca;" horiz-adv-x="1163" 
d="M1001 145h138l-144 -432h-149l88 287h-107v379q0 31 11 53l-2 2q-16 -8 -58 -8h-420q-39 0 -55 8l-2 -2q10 -20 10 -53v-379h-174v946h174v-311q0 -35 -10 -55l2 -2q16 8 55 8h420q42 0 58 -8l2 2q-11 22 -11 55v311h174v-801z" />
    <glyph glyph-name="uni04CB" unicode="&#x4cb;" horiz-adv-x="1230" 
d="M1073 1434v-1434h-145v-287h-174v410h135v428q0 62 12 84l-4 4q-214 -78 -451 -78q-409 0 -409 445v428h184v-424q0 -275 242 -275q175 0 426 74v625h184z" />
    <glyph glyph-name="uni04CC" unicode="&#x4cc;" horiz-adv-x="958" 
d="M655 946h172v-698v-248h-133v-287h-155v393h116v213q0 67 13 93l-4 2q-165 -60 -302 -60q-172 0 -255.5 81t-83.5 251v260h174v-241q0 -101 46 -144t146 -43q111 0 266 55v373z" />
    <glyph glyph-name="uni04CD" unicode="&#x4cd;" horiz-adv-x="1882" 
d="M1722 145h150l-146 -432h-147l88 287h-94l-221 795q-33 115 -33 231h-8q-14 -106 -68 -229l-340 -815h-18l-340 815q-56 135 -66 229h-8q-5 -134 -33 -231l-221 -795h-192l413 1456h27l387 -942q27 -74 39 -174h8q9 100 39 174l387 942h25z" />
    <glyph glyph-name="uni04CE" unicode="&#x4ce;" horiz-adv-x="1411" 
d="M1278 145h123l-146 -432h-147l88 287h-53l-142 432q-35 104 -40 174h-9q-10 -54 -61 -172l-193 -446h-47l-192 446q-53 120 -64 172h-6q-4 -55 -41 -174l-141 -432h-187l336 958h43l230 -530q29 -65 43 -129h6q9 54 43 129l229 530h43z" />
    <glyph glyph-name="uni04CF" unicode="&#x4cf;" horiz-adv-x="452" 
d="M313 946v-946h-174v946h174z" />
    <glyph glyph-name="uni04D0" unicode="&#x4d0;" horiz-adv-x="1404" 
d="M981 1767q-3 -132 -77 -207t-202 -75q-127 0 -201 75t-77 207h123q-1 -84 39.5 -129t115.5 -45q77 0 117 45t39 129h123zM23 0l669 1464h21l669 -1464h-206l-179 401h-589l-179 -401h-206zM459 555q36 4 114 4h258q79 0 115 -4l2 2q-28 35 -63 117l-127 299
q-45 116 -51 168h-9q-6 -52 -51 -168l-127 -299q-35 -82 -63 -117z" />
    <glyph glyph-name="uni04D1" unicode="&#x4d1;" horiz-adv-x="1030" 
d="M803 1341q0 -139 -78 -218t-203 -79q-126 0 -204 79t-78 218h125q3 -89 44 -132.5t113 -43.5q71 0 113 44t45 132h123zM510 977q203 0 298 -92.5t95 -288.5v-596h-176q0 78 25 160l-7 4q-52 -95 -137 -145t-194 -50q-157 0 -254 92t-97 242q0 154 96 244t257 90
q110 0 195.5 -45t131.5 -127l7 4q-14 45 -17 141q-9 205 -235 205q-120 0 -285 -53l-49 158q177 57 346 57zM473 492q-101 0 -163 -53t-62 -138q0 -86 61.5 -136t163.5 -50q105 0 174.5 52.5t69.5 135.5q0 82 -69.5 135.5t-174.5 53.5z" />
    <glyph glyph-name="uni04D2" unicode="&#x4d2;" horiz-adv-x="1404" 
d="M446 1747h166v-225h-166v225zM793 1747h165v-225h-165v225zM23 0l669 1464h21l669 -1464h-206l-179 401h-589l-179 -401h-206zM459 555q36 4 114 4h258q79 0 115 -4l2 2q-28 35 -63 117l-127 299q-45 116 -51 168h-9q-6 -52 -51 -168l-127 -299q-35 -82 -63 -117z" />
    <glyph glyph-name="uni04D3" unicode="&#x4d3;" horiz-adv-x="1030" 
d="M451 1327v-250h-158v250h158zM750 1327v-250h-158v250h158zM510 977q203 0 298 -92.5t95 -288.5v-596h-176q0 78 25 160l-7 4q-52 -95 -137 -145t-194 -50q-157 0 -254 92t-97 242q0 154 96 244t257 90q110 0 195.5 -45t131.5 -127l7 4q-14 45 -17 141q-9 205 -235 205
q-120 0 -285 -53l-49 158q177 57 346 57zM473 492q-101 0 -163 -53t-62 -138q0 -86 61.5 -136t163.5 -50q105 0 174.5 52.5t69.5 135.5q0 82 -69.5 135.5t-174.5 53.5z" />
    <glyph glyph-name="uni04D4" unicode="&#x4d4;" horiz-adv-x="1873" 
d="M1264 176h520v-176h-746v352q0 36 6 54l-2 2q-24 -7 -53 -7h-485l-260 -401h-221l946 1434h807v-177h-512q-33 0 -54 9l-2 -4q6 -15 6 -52v-292q0 -37 -6 -52l2 -4q19 8 54 8h460v-176h-460q-35 0 -54 8l-2 -4q6 -15 6 -51v-424q0 -36 -6 -51l2 -4q19 8 54 8zM1044 555
q-6 18 -6 51v535q0 60 13 149h-2q-27 -74 -72 -147l-322 -502q-18 -27 -25.5 -37.5t-21 -25.5t-30.5 -27l2 -2q35 10 102 10h307q35 0 53 -6z" />
    <glyph glyph-name="uni04D5" unicode="&#x4d5;" horiz-adv-x="1728" 
d="M430 -31q-162 0 -264.5 93.5t-102.5 246.5q0 148 97.5 238t255.5 90q107 0 192.5 -45t132.5 -127l7 4q-15 51 -15 141q-9 205 -235 205q-119 0 -287 -53l-49 158q189 57 348 57q146 0 223.5 -51t104.5 -158h4q52 99 147 154t221 55q213 0 331 -136.5t118 -363.5v-35h-645
q-71 0 -113 11l-2 -4l2 -13q15 -145 98.5 -223t221.5 -78q95 0 164 36.5t141 115.5l108 -113q-160 -205 -411 -205q-154 0 -262.5 74t-147.5 197h-6q-34 -126 -135 -198.5t-242 -72.5zM907 557q41 18 107 18h325q93 0 136 -16l4 2q-11 122 -83 190t-196 68
q-122 0 -201 -68.5t-94 -191.5zM473 115q104 0 173 53t69 135q0 83 -69 136t-173 53q-103 0 -165 -53.5t-62 -137.5t61.5 -135t165.5 -51z" />
    <glyph glyph-name="uni04D6" unicode="&#x4d6;" horiz-adv-x="1054" 
d="M866 1767q-3 -132 -77 -207t-201 -75q-128 0 -202 75t-77 207h123q-1 -84 39.5 -129t116.5 -45q77 0 116.5 44.5t38.5 129.5h123zM963 1434v-174h-572q-32 0 -51 8l-4 -4q6 -15 6 -54v-292q0 -37 -6 -52l4 -4q19 8 51 8h506v-174h-506q-30 0 -51 9l-4 -5q6 -15 6 -53
v-424q0 -38 -6 -53l4 -4q19 8 51 8h582v-174h-815v1434h805z" />
    <glyph glyph-name="uni04D7" unicode="&#x4d7;" horiz-adv-x="1071" 
d="M836 1341q0 -139 -78 -218t-203 -79q-126 0 -204.5 79t-78.5 218h125q3 -89 44 -132.5t114 -43.5q71 0 113 44t45 132h123zM551 977q209 0 329.5 -134t120.5 -366v-35h-647q-82 0 -112 15l-4 -4l8 -23q12 -140 95.5 -217.5t221.5 -77.5q91 0 162 35.5t143 116.5l109 -113
q-163 -205 -416 -205q-223 0 -358 137t-135 363q0 230 131.5 369t351.5 139zM545 819q-125 0 -204.5 -69.5t-92.5 -190.5l2 -2q41 18 106 18h326q104 0 135 -16l2 2q-9 123 -80.5 190.5t-193.5 67.5z" />
    <glyph glyph-name="uni04D8" unicode="&#x4d8;" horiz-adv-x="1570" 
d="M768 1464q334 0 529.5 -199.5t195.5 -547.5q0 -342 -191 -545t-530 -203q-331 0 -513.5 198t-182.5 550v98h1136q45 0 86 -14l2 4q-6 12 -9.5 21.5t-4.5 15t-3.5 15t-4.5 17.5q-35 189 -172 295.5t-348 106.5q-265 0 -471 -174l-111 155q117 99 269 153t323 54zM1298 647
q-25 -8 -98 -8h-831q-80 0 -105 8l-4 -4q15 -30 21 -78q25 -192 155.5 -299.5t345.5 -107.5q206 0 331 106t167 299q2 17 23 80z" />
    <glyph glyph-name="uni04D9" unicode="&#x4d9;" horiz-adv-x="1071" 
d="M522 -31q-210 0 -331 134t-121 366v35h647q87 0 112 -15l5 5l-9 22q-12 140 -95.5 217.5t-221.5 77.5q-91 0 -162 -35.5t-143 -116.5l-109 115q164 203 416 203q223 0 358.5 -137t135.5 -363q0 -230 -132 -369t-350 -139zM526 127q125 0 204.5 69.5t94.5 190.5l-4 2
q-41 -18 -106 -18h-326q-106 0 -133 16l-4 -2q9 -123 80.5 -190.5t193.5 -67.5z" />
    <glyph glyph-name="uni04DA" unicode="&#x4da;" horiz-adv-x="1570" 
d="M526 1747h166v-225h-166v225zM872 1747h166v-225h-166v225zM768 1464q334 0 529.5 -199.5t195.5 -547.5q0 -342 -191 -545t-530 -203q-331 0 -513.5 198t-182.5 550v98h1136q45 0 86 -14l2 4q-6 12 -9.5 21.5t-4.5 15t-3.5 15t-4.5 17.5q-35 189 -172 295.5t-348 106.5
q-265 0 -471 -174l-111 155q117 99 269 153t323 54zM1298 647q-25 -8 -98 -8h-831q-80 0 -105 8l-4 -4q15 -30 21 -78q25 -192 155.5 -299.5t345.5 -107.5q206 0 331 106t167 299q2 17 23 80z" />
    <glyph glyph-name="uni04DB" unicode="&#x4db;" horiz-adv-x="1071" 
d="M467 1327v-250h-158v250h158zM766 1327v-250h-158v250h158zM522 -31q-210 0 -331 134t-121 366v35h647q87 0 112 -15l5 5l-9 22q-12 140 -95.5 217.5t-221.5 77.5q-91 0 -162 -35.5t-143 -116.5l-109 115q164 203 416 203q223 0 358.5 -137t135.5 -363q0 -230 -132 -369
t-350 -139zM526 127q125 0 204.5 69.5t94.5 190.5l-4 2q-41 -18 -106 -18h-326q-106 0 -133 16l-4 -2q9 -123 80.5 -190.5t193.5 -67.5z" />
    <glyph glyph-name="uni04DC" unicode="&#x4dc;" horiz-adv-x="1861" 
d="M676 1747h166v-225h-166v225zM1022 1747h166v-225h-166v225zM152 -8q-58 0 -99 8v182q50 -4 66 -4q60 0 96 28t53 91l64 266q25 110 76 149t176 44v8q-137 6 -196.5 50t-90.5 161l-51 194q-23 95 -146 95q-19 0 -59 -4v174q70 6 98 6q117 0 180.5 -43.5t92.5 -147.5
l65 -243q42 -168 225 -168h82q47 0 64 -7l2 3q-10 45 -10 81v519h182v-519q0 -36 -10 -81l2 -3q18 7 63 7h82q180 0 225 168l66 243q27 104 90 147.5t182 43.5q28 0 99 -6v-174q-40 4 -60 4q-122 0 -145 -95l-51 -194q-31 -117 -90.5 -161t-196.5 -50v-8q125 -5 176 -44
t76 -149l63 -266q17 -62 53 -90.5t97 -28.5q15 0 65 4v-182q-41 -8 -98 -8q-123 0 -190 51t-95 168l-69 303q-19 85 -66.5 124.5t-130.5 39.5h-82q-43 0 -63 4l-2 -2q10 -42 10 -84v-596h-182v596q0 42 10 84l-2 2q-20 -4 -64 -4h-82q-82 0 -129.5 -39t-66.5 -125l-70 -303
q-28 -117 -94.5 -168t-189.5 -51z" />
    <glyph glyph-name="uni04DD" unicode="&#x4dd;" horiz-adv-x="1400" 
d="M631 1327v-250h-158v250h158zM930 1327v-250h-158v250h158zM39 -6v151h55q45 0 68 17t35 59l41 146q19 65 65 92.5t133 29.5v9q-84 3 -132 32t-68 91l-37 100q-19 46 -41.5 63t-67.5 17h-49v151h94q135 0 178 -102l68 -166q27 -71 56.5 -96t90.5 -25h35q40 0 64 -4l2 2
q-11 37 -11 82v303h164v-303q0 -48 -10 -82l2 -2q24 4 64 4h34q61 0 91.5 25t56.5 96l67 166q43 102 179 102h92v-151h-47q-45 0 -67.5 -17t-41.5 -63l-37 -100q-20 -62 -68 -91t-132 -32v-9q87 -2 132.5 -29.5t65.5 -92.5l41 -146q12 -42 35 -59t68 -17h55v-151h-109
q-79 0 -124 31.5t-64 97.5l-49 170q-20 72 -52.5 101.5t-91.5 29.5h-34q-40 0 -64 4l-2 -2q10 -34 10 -86v-340h-164v340q0 49 11 86l-2 2q-24 -4 -64 -4h-35q-58 0 -90.5 -29.5t-52.5 -101.5l-49 -170q-19 -66 -64.5 -97.5t-124.5 -31.5h-108z" />
    <glyph glyph-name="uni04DE" unicode="&#x4de;" horiz-adv-x="1161" 
d="M322 1747h165v-225h-165v225zM668 1747h166v-225h-166v225zM541 -31q-285 0 -482 115l84 170q191 -104 406 -104q317 0 317 249q0 136 -95.5 201.5t-289.5 65.5h-198v178h196q334 0 334 235q0 99 -66.5 152t-197.5 53q-194 0 -389 -94l-68 172q237 102 477 102
q443 0 443 -354q0 -248 -234 -319q-65 -19 -145 -25v-6q85 0 147 -12q283 -61 283 -363q0 -204 -132 -310t-390 -106z" />
    <glyph glyph-name="uni04DF" unicode="&#x4df;" horiz-adv-x="909" 
d="M379 1327v-250h-158v250h158zM678 1327v-250h-158v250h158zM432 -31q-225 0 -391 94l72 152q156 -86 325 -86q117 0 173.5 33.5t56.5 109.5q0 80 -50.5 116t-162.5 36h-129v158h118q170 0 170 118q0 115 -186 115q-140 0 -305 -76l-66 152q203 86 385 86q169 0 261 -63
t92 -181q0 -98 -62.5 -155t-181.5 -68v-6q289 -16 289 -248q0 -138 -106 -212.5t-302 -74.5z" />
    <glyph glyph-name="uni04E0" unicode="&#x4e0;" horiz-adv-x="1142" 
d="M518 -31q-275 0 -491 125l84 174q217 -112 407 -112q158 0 241 67.5t83 198.5q0 140 -100 202t-314 62h-137v152l454 436l-4 4q-57 -21 -155 -21h-467v177h870v-172l-487 -445l4 -4q47 16 108 16q199 0 314.5 -107.5t115.5 -305.5q0 -218 -131 -332.5t-395 -114.5z" />
    <glyph glyph-name="uni04E1" unicode="&#x4e1;" horiz-adv-x="901" 
d="M401 -440q-244 0 -448 114l74 160q205 -108 383 -108q137 0 211.5 66.5t74.5 193.5q0 260 -325 260h-191v143l430 408l-4 4q-64 -21 -153 -21h-406v166h768v-172l-442 -405l4 -7q55 19 102 19q177 0 289.5 -108t112.5 -289q0 -196 -127.5 -310t-352.5 -114z" />
    <glyph glyph-name="uni04E2" unicode="&#x4e2;" horiz-adv-x="1492" 
d="M494 1683h589v-120h-589v120zM1317 1454h16v-1454h-184v821q0 163 20 258l-8 2q-30 -76 -112 -161l-873 -940h-18v1454h184v-820q0 -176 -18 -258l6 -2q33 74 112 160z" />
    <glyph glyph-name="uni04E3" unicode="&#x4e3;" horiz-adv-x="1103" 
d="M868 1368v-127h-585v127h585zM137 -14v960h174v-409q0 -135 -10 -238l6 -2q28 61 107 143l501 521h52v-961h-172v410q0 134 10 237l-8 2q-22 -53 -105 -143l-502 -520h-53z" />
    <glyph glyph-name="uni04E4" unicode="&#x4e4;" horiz-adv-x="1492" 
d="M535 1747h165v-225h-165v225zM881 1747h166v-225h-166v225zM1317 1454h16v-1454h-184v821q0 163 20 258l-8 2q-30 -76 -112 -161l-873 -940h-18v1454h184v-820q0 -176 -18 -258l6 -2q33 74 112 160z" />
    <glyph glyph-name="uni04E5" unicode="&#x4e5;" horiz-adv-x="1103" 
d="M504 1327v-250h-158v250h158zM803 1327v-250h-158v250h158zM137 -14v960h174v-409q0 -135 -10 -238l6 -2q28 61 107 143l501 521h52v-961h-172v410q0 134 10 237l-8 2q-22 -53 -105 -143l-502 -520h-53z" />
    <glyph glyph-name="uni04E6" unicode="&#x4e6;" horiz-adv-x="1646" 
d="M567 1747h166v-225h-166v225zM913 1747h166v-225h-166v225zM823 1464q214 0 385 -95.5t267 -266.5t96 -385t-96 -385t-267 -267t-385 -96t-385 96t-266.5 267t-95.5 385q0 160 56 299t154.5 237.5t237.5 154.5t299 56zM823 1276q-240 0 -393.5 -156.5t-153.5 -402.5
t153.5 -402.5t393.5 -156.5t393.5 156.5t153.5 402.5t-153.5 402.5t-393.5 156.5z" />
    <glyph glyph-name="uni04E7" unicode="&#x4e7;" horiz-adv-x="1167" 
d="M512 1327v-250h-158v250h158zM811 1327v-250h-158v250h158zM584 977q224 0 369 -142.5t145 -361.5t-145 -361.5t-369 -142.5t-370 143t-146 361t146 361t370 143zM584 807q-148 0 -240 -92.5t-92 -241.5t92 -241.5t240 -92.5t239.5 92.5t91.5 241.5t-91.5 241.5
t-239.5 92.5z" />
    <glyph glyph-name="uni04E8" unicode="&#x4e8;" horiz-adv-x="1646" 
d="M823 1464q214 0 384.5 -95t267 -266t96.5 -386q0 -214 -96.5 -385t-267.5 -267t-384 -96q-212 0 -383 96t-267.5 267t-96.5 385q0 161 56.5 300t155.5 237t237.5 154t297.5 56zM287 848q-4 -29 -19 -55l4 -5q27 9 60 9h983q32 0 59 -9l4 5q-7 13 -18 53
q-36 192 -179.5 311t-357.5 119q-110 0 -203.5 -34t-160 -93t-110.5 -135.5t-62 -165.5zM1360 586q10 38 18 55l-4 4q-24 -8 -59 -8h-983q-36 0 -60 8l-4 -4q15 -25 19 -53q38 -192 180.5 -311t355.5 -119q110 0 204 34t161 93t111 136t61 165z" />
    <glyph glyph-name="uni04E9" unicode="&#x4e9;" horiz-adv-x="1159" 
d="M580 977q223 0 367.5 -142t144.5 -362t-144.5 -362t-367.5 -142t-367.5 142t-144.5 362t144.5 362t367.5 142zM907 512l4 4q-17 136 -105.5 213.5t-225.5 77.5t-226 -77.5t-104 -213.5l4 -4q27 16 117 16h417q88 0 119 -16zM580 139q137 0 225.5 77.5t105.5 213.5l-4 4
q-31 -16 -119 -16h-417q-90 0 -117 16l-4 -4q15 -136 104 -213.5t226 -77.5z" />
    <glyph glyph-name="uni04EA" unicode="&#x4ea;" horiz-adv-x="1646" 
d="M733 1747v-225h-166v225h166zM1079 1747v-225h-166v225h166zM823 1464q214 0 384.5 -95t267 -266t96.5 -386q0 -214 -96.5 -385t-267.5 -267t-384 -96q-212 0 -383 96t-267.5 267t-96.5 385q0 161 56.5 300t155.5 237t237.5 154t297.5 56zM287 848q-4 -29 -19 -55l4 -5
q27 9 60 9h983q32 0 59 -9l4 5q-7 13 -18 53q-36 192 -179.5 311t-357.5 119q-110 0 -203.5 -34t-160 -93t-110.5 -135.5t-62 -165.5zM1360 586q10 38 18 55l-4 4q-24 -8 -59 -8h-983q-36 0 -60 8l-4 -4q15 -25 19 -53q38 -192 180.5 -311t355.5 -119q110 0 204 34t161 93
t111 136t61 165z" />
    <glyph glyph-name="uni04EB" unicode="&#x4eb;" horiz-adv-x="1159" 
d="M508 1327v-250h-158v250h158zM807 1327v-250h-158v250h158zM580 977q223 0 367.5 -142t144.5 -362t-144.5 -362t-367.5 -142t-367.5 142t-144.5 362t144.5 362t367.5 142zM907 512l4 4q-17 136 -105.5 213.5t-225.5 77.5t-226 -77.5t-104 -213.5l4 -4q27 16 117 16h417
q88 0 119 -16zM580 139q137 0 225.5 77.5t105.5 213.5l-4 4q-31 -16 -119 -16h-417q-90 0 -117 16l-4 -4q15 -136 104 -213.5t226 -77.5z" />
    <glyph glyph-name="uni04EC" unicode="&#x4ec;" horiz-adv-x="1394" 
d="M340 1747h166v-225h-166v225zM686 1747h166v-225h-166v225zM580 -31q-291 0 -519 152l95 164q192 -129 434 -129q202 0 339 112.5t175 311.5q5 37 14 51l-4 4q-18 -6 -59 -6h-633v176h633q41 0 59 -6l4 4q-8 13 -14 51q-38 199 -175 311.5t-339 112.5q-242 0 -434 -129
l-95 164q227 151 519 151q337 0 538 -202.5t201 -544.5t-201 -545t-538 -203z" />
    <glyph glyph-name="uni04ED" unicode="&#x4ed;" horiz-adv-x="970" 
d="M403 1327v-250h-157v250h157zM702 1327v-250h-157v250h157zM410 -31q-204 0 -355 94l76 150q136 -76 275 -76q105 0 181.5 57t100.5 148q12 45 25 64l-2 2q-25 -11 -56 -11h-358v152h358q33 0 56 -10l2 2q-16 27 -25 63q-25 91 -101.5 148t-180.5 57q-139 0 -275 -76
l-76 150q151 94 355 94q220 0 351.5 -138t131.5 -366t-131.5 -366t-351.5 -138z" />
    <glyph glyph-name="uni04EE" unicode="&#x4ee;" horiz-adv-x="1265" 
d="M340 1683h590v-120h-590v120zM338 -16q-84 0 -166 10l2 178q93 -14 158 -14q70 0 123 44.5t100 155.5l-541 1076h222l331 -697q37 -79 48 -104t21.5 -56t16.5 -65h9q6 67 18 109t47 122l313 691h209l-514 -1121q-73 -176 -169 -252.5t-228 -76.5z" />
    <glyph glyph-name="uni04EF" unicode="&#x4ef;" horiz-adv-x="997" 
d="M797 1245v-127h-586v127h586zM977 946l-580 -1358h-180l205 475l-402 883h199l232 -545q25 -59 36.5 -99t14.5 -91h8q2 72 41 166l237 569h189z" />
    <glyph glyph-name="uni04F0" unicode="&#x4f0;" horiz-adv-x="1265" 
d="M381 1747h166v-225h-166v225zM727 1747h166v-225h-166v225zM338 -16q-84 0 -166 10l2 178q93 -14 158 -14q70 0 123 44.5t100 155.5l-541 1076h222l331 -697q37 -79 48 -104t21.5 -56t16.5 -65h9q6 67 18 109t47 122l313 691h209l-514 -1121q-73 -176 -169 -252.5
t-228 -76.5z" />
    <glyph glyph-name="uni04F1" unicode="&#x4f1;" horiz-adv-x="997" 
d="M434 1327v-250h-158v250h158zM733 1327v-250h-158v250h158zM977 946l-580 -1358h-180l205 475l-402 883h199l232 -545q25 -59 36.5 -99t14.5 -91h8q2 72 41 166l237 569h189z" />
    <glyph glyph-name="uni04F2" unicode="&#x4f2;" horiz-adv-x="1265" 
d="M797 1747l2 -6l-207 -219h-123v4l193 221h135zM698 1526l195 221h133l2 -6l-205 -219h-123zM338 -16q-84 0 -166 10l2 178q93 -14 158 -14q70 0 123 44.5t100 155.5l-541 1076h222l331 -697q37 -79 48 -104t21.5 -56t16.5 -65h9q6 67 18 109t47 122l313 691h209
l-514 -1121q-73 -176 -169 -252.5t-228 -76.5z" />
    <glyph glyph-name="uni04F3" unicode="&#x4f3;" horiz-adv-x="997" 
d="M317 1030l-2 4l232 312h145l2 -5l-243 -311h-134zM557 1030l-2 4l229 312h146l2 -5l-244 -311h-131zM977 946l-580 -1358h-180l205 475l-402 883h199l232 -545q25 -59 36.5 -99t14.5 -91h8q2 72 41 166l237 569h189z" />
    <glyph glyph-name="uni04F4" unicode="&#x4f4;" horiz-adv-x="1230" 
d="M336 1747h166v-225h-166v225zM682 1747h166v-225h-166v225zM889 0v551q0 62 12 84l-4 4q-214 -78 -451 -78q-409 0 -409 445v428h184v-424q0 -275 242 -275q175 0 426 74v625h184v-1434h-184z" />
    <glyph glyph-name="uni04F5" unicode="&#x4f5;" horiz-adv-x="956" 
d="M354 1327v-250h-157v250h157zM653 1327v-250h-157v250h157zM655 946h172v-698v-248h-172v319q0 67 13 93l-4 2q-165 -60 -302 -60q-172 0 -255.5 81t-83.5 251v260h174v-241q0 -101 46 -144t146 -43q111 0 266 55v373z" />
    <glyph glyph-name="uni04F8" unicode="&#x4f8;" horiz-adv-x="1597" 
d="M731 1747v-225h-166v225h166zM1077 1747v-225h-166v225h166zM686 852q212 0 336.5 -116t124.5 -310t-124.5 -310t-336.5 -116h-528v993v441h184v-535q0 -33 -6 -51l4 -2q21 6 51 6h295zM1255 1434h185v-1434h-185v1434zM666 174q137 0 210.5 66.5t73.5 185.5
q0 118 -74.5 185t-209.5 67h-275q-32 0 -51 8l-4 -4q6 -15 6 -51v-408q0 -38 -6 -53l4 -4q19 8 51 8h275z" />
    <glyph glyph-name="uni04F9" unicode="&#x4f9;" horiz-adv-x="1286" 
d="M571 1327v-250h-157v250h157zM870 1327v-250h-157v250h157zM565 606q150 0 238 -81.5t88 -221.5q0 -136 -90.5 -219.5t-237.5 -83.5h-426v692v254h174v-293q0 -26 -10 -53l2 -2q16 8 55 8h207zM975 946h174v-946h-174v946zM551 162q75 0 116.5 37t41.5 102
q0 68 -41.5 105.5t-116.5 37.5h-193q-37 0 -55 9l-2 -2q10 -27 10 -54v-188q0 -26 -10 -53l2 -2q16 8 57 8h191z" />
    <glyph glyph-name="uni04FC" unicode="&#x4fc;" horiz-adv-x="1236" 
d="M1049 297q90 -140 127.5 -231t37.5 -187q0 -141 -88.5 -215t-259.5 -74h-80v177h80q166 0 166 131q0 59 -29 116.5t-139 231.5l-135 209q-79 121 -94 180h-6q-17 -47 -97 -180l-288 -455h-221l356 551q114 180 139 205v6q-19 25 -34.5 46.5t-25.5 37t-35 55t-46 72.5
l-295 461h219l231 -365q84 -141 97 -180h6q2 7 5 14t8 17.5t9 18.5t13 24.5l15 27.5t20 36t24 42l232 365h219l-295 -463q-118 -181 -142 -209v-6q40 -50 140 -205z" />
    <glyph glyph-name="uni04FD" unicode="&#x4fd;" horiz-adv-x="997" 
d="M616 -410v162h91q65 0 92.5 27t27.5 82q0 47 -23.5 92t-90.5 133l-135 180q-51 69 -74 142h-6q-9 -24 -18 -44t-18.5 -36.5t-15 -24.5t-14.5 -21l-10 -14l-197 -268h-205l318 430q36 51 55 62v6q-20 10 -55 59l-277 389h205l156 -219q54 -82 78 -149h4q23 71 76 149
l155 219h207l-278 -389q-29 -41 -54 -59v-6q24 -12 56 -62l223 -313q108 -149 108 -273q0 -133 -77.5 -193.5t-212.5 -60.5h-91z" />
    <glyph glyph-name="uni0510" unicode="&#x510;" horiz-adv-x="1161" 
d="M621 -31q-258 0 -390.5 106.5t-132.5 309.5q0 302 283 363q62 12 147 12v6q-80 6 -145 25q-233 71 -233 319q0 354 444 354q238 0 475 -102l-68 -172q-195 94 -389 94q-131 0 -197.5 -53t-66.5 -152q0 -235 334 -235h197v-178h-199q-194 0 -289.5 -65.5t-95.5 -201.5
q0 -249 317 -249q215 0 406 104l84 -170q-197 -115 -481 -115z" />
    <glyph glyph-name="uni0511" unicode="&#x511;" horiz-adv-x="909" 
d="M477 -31q-196 0 -301.5 74.5t-105.5 212.5q0 233 288 248v6q-119 11 -181 68t-62 155q0 118 91.5 181t260.5 63q182 0 385 -86l-66 -152q-165 76 -305 76q-186 0 -186 -115q0 -118 170 -118h119v-158h-127q-114 0 -164.5 -36t-50.5 -116q0 -76 56.5 -109.5t172.5 -33.5
q170 0 326 86l71 -152q-166 -94 -391 -94z" />
    <glyph glyph-name="uni0512" unicode="&#x512;" horiz-adv-x="1509" 
d="M1352 1434v-1434v-57q0 -185 -87 -269t-249 -84h-109v177h109q78 0 114.5 41t36.5 135v340v929q0 34 7 52l-5 4q-19 -8 -51 -8h-596q-32 0 -51 8l-4 -4q6 -15 6 -52v-876q0 -178 -72 -262t-227 -84q-55 0 -123 8v170q86 -4 107 -4q70 0 100.5 37.5t30.5 124.5v1108h1063z
" />
    <glyph glyph-name="uni0513" unicode="&#x513;" horiz-adv-x="1079" 
d="M952 -80q0 -162 -81.5 -246t-229.5 -84h-109v170h107q139 0 139 160v80v737q0 27 10 54l-2 2q-18 -9 -57 -9h-291q-36 0 -57 9l-2 -2q10 -20 10 -54v-438q0 -152 -72.5 -228.5t-212.5 -76.5h-81v158h79q61 0 88 35.5t27 117.5v641h735v-1026z" />
    <glyph glyph-name="uni051C" unicode="&#x51c;" horiz-adv-x="1943" 
d="M985 1456l297 -821q41 -114 54 -159.5t20 -108.5h8q7 64 21 114.5t49 151.5l274 801h211l-549 -1457h-20l-334 893q-33 85 -39 181h-8q-10 -100 -39 -181l-336 -893h-21l-548 1457h213l272 -801q35 -101 49 -151.5t21 -114.5h8q9 65 22.5 112.5t51.5 155.5l299 821h24z
" />
    <glyph glyph-name="uni051D" unicode="&#x51d;" horiz-adv-x="1445" 
d="M408 -12l-388 958h197l172 -473q22 -63 30 -95.5t11 -76.5h8q4 28 12 56t15.5 46.5t30.5 71.5l206 488h43l205 -488q23 -53 30.5 -71.5t15.5 -46.5t12 -56h8q4 62 43 172l172 473h194l-385 -958h-45l-225 518q-39 93 -43 147h-8q-5 -61 -43 -147l-225 -518h-43z" />
    <glyph glyph-name="uni0524" unicode="&#x524;" horiz-adv-x="1425" 
d="M1272 123h117v-410h-175v287h-127v1212q0 34 7 52l-4 4q-16 -8 -52 -8h-647q-32 0 -51 8l-4 -4q6 -15 6 -52v-1212h-184v1434h1114v-1311z" />
    <glyph glyph-name="uni0525" unicode="&#x525;" horiz-adv-x="1073" 
d="M965 106h79v-393h-155v287h-98v737q0 34 10 54l-2 2q-18 -9 -58 -9h-381q-39 0 -57 9l-2 -2q10 -20 10 -54v-737h-174v946h828v-840z" />
    <glyph glyph-name="uni0526" unicode="&#x526;" horiz-adv-x="1361" 
d="M1194 123h129v-410h-174v287h-139v424q0 274 -242 274q-178 0 -426 -73v-625h-184v1434h184v-551q0 -61 -10 -84l4 -4q208 77 450 77q408 0 408 -444v-305z" />
    <glyph glyph-name="uni0527" unicode="&#x527;" horiz-adv-x="1142" 
d="M999 106h117v-393h-158v287h-131v563q0 120 -58 184t-167 64q-137 0 -213 -96t-76 -269v-446h-174v1464h174v-526q0 -123 -20 -217l8 -2q99 258 358 258q162 0 251 -97t89 -272v-502z" />
    <glyph glyph-name="uni0E3F" unicode="&#xe3f;" horiz-adv-x="1118" 
d="M510 -178v129q0 38 6 53l-4 4q-19 -8 -51 -8h-303v1382h303q32 0 51 -8l4 4q-6 15 -6 54v129h61v-131q0 -36 -8 -52l4 -2q9 6 27 6q168 -2 269.5 -99.5t101.5 -260.5q0 -138 -77 -226t-208 -94v-8q161 -4 250.5 -93.5t89.5 -238.5q0 -165 -118 -263.5t-310 -98.5
q-16 0 -25 6l-4 -2q8 -16 8 -51v-131h-61zM326 762q19 8 57 8h72q38 0 57 -8l4 4q-6 15 -6 51v359q0 36 6 51l-4 4q-19 -8 -51 -8h-84q-32 0 -51 8l-4 -4q6 -15 6 -51v-359q0 -36 -6 -51zM565 764q100 6 156.5 70.5t56.5 169.5q0 102 -54 160.5t-157 64.5l-4 -4q8 -19 8 -51
v-357q0 -35 -8 -51zM326 152q19 8 51 8h84q32 0 51 -8l4 4q-6 15 -6 51v358q0 36 6 51l-4 5q-25 -11 -57 -11h-72q-35 0 -57 11l-4 -5q6 -15 6 -51v-358q0 -36 -6 -51zM567 154q264 3 264 231q0 107 -69 170t-195 66l-4 -5q8 -19 8 -51v-358q0 -36 -8 -49z" />
    <glyph glyph-name="Wgrave" unicode="&#x1e80;" horiz-adv-x="1943" 
d="M854 1747l180 -221l-2 -4h-119l-260 219l2 6h199zM985 1456l297 -821q41 -114 54 -159.5t20 -108.5h8q7 64 21 114.5t49 151.5l274 801h211l-549 -1457h-20l-334 893q-33 85 -39 181h-8q-10 -100 -39 -181l-336 -893h-21l-548 1457h213l272 -801q35 -101 49 -151.5
t21 -114.5h8q9 65 22.5 112.5t51.5 155.5l299 821h24z" />
    <glyph glyph-name="wgrave" unicode="&#x1e81;" horiz-adv-x="1445" 
d="M590 1448l194 -309l-2 -6h-120l-271 309l2 6h197zM408 -12l-388 958h197l172 -473q22 -63 30 -95.5t11 -76.5h8q4 28 12 56t15.5 46.5t30.5 71.5l206 488h43l205 -488q23 -53 30.5 -71.5t15.5 -46.5t12 -56h8q4 62 43 172l172 473h194l-385 -958h-45l-225 518
q-39 93 -43 147h-8q-5 -61 -43 -147l-225 -518h-43z" />
    <glyph glyph-name="Wacute" unicode="&#x1e82;" horiz-adv-x="1943" 
d="M1288 1747l2 -6l-258 -219h-121l-2 4l181 221h198zM985 1456l297 -821q41 -114 54 -159.5t20 -108.5h8q7 64 21 114.5t49 151.5l274 801h211l-549 -1457h-20l-334 893q-33 85 -39 181h-8q-10 -100 -39 -181l-336 -893h-21l-548 1457h213l272 -801q35 -101 49 -151.5
t21 -114.5h8q9 65 22.5 112.5t51.5 155.5l299 821h24z" />
    <glyph glyph-name="wacute" unicode="&#x1e83;" horiz-adv-x="1445" 
d="M1053 1448l2 -6l-271 -309h-120l-2 6l190 309h201zM408 -12l-388 958h197l172 -473q22 -63 30 -95.5t11 -76.5h8q4 28 12 56t15.5 46.5t30.5 71.5l206 488h43l205 -488q23 -53 30.5 -71.5t15.5 -46.5t12 -56h8q4 62 43 172l172 473h194l-385 -958h-45l-225 518
q-39 93 -43 147h-8q-5 -61 -43 -147l-225 -518h-43z" />
    <glyph glyph-name="Wdieresis" unicode="&#x1e84;" horiz-adv-x="1943" 
d="M717 1747h166v-225h-166v225zM1063 1747h166v-225h-166v225zM985 1456l297 -821q41 -114 54 -159.5t20 -108.5h8q7 64 21 114.5t49 151.5l274 801h211l-549 -1457h-20l-334 893q-33 85 -39 181h-8q-10 -100 -39 -181l-336 -893h-21l-548 1457h213l272 -801
q35 -101 49 -151.5t21 -114.5h8q9 65 22.5 112.5t51.5 155.5l299 821h24z" />
    <glyph glyph-name="wdieresis" unicode="&#x1e85;" horiz-adv-x="1445" 
d="M631 1434v-250h-166v250h166zM983 1434v-250h-166v250h166zM408 -12l-388 958h197l172 -473q22 -63 30 -95.5t11 -76.5h8q4 28 12 56t15.5 46.5t30.5 71.5l206 488h43l205 -488q23 -53 30.5 -71.5t15.5 -46.5t12 -56h8q4 62 43 172l172 473h194l-385 -958h-45l-225 518
q-39 93 -43 147h-8q-5 -61 -43 -147l-225 -518h-43z" />
    <glyph glyph-name="Ygrave" unicode="&#x1ef2;" horiz-adv-x="1136" 
d="M451 1747l180 -221l-2 -4h-119l-260 219l2 6h199zM1122 1434l-463 -867v-567h-184v567l-461 867h222l239 -488q51 -107 65.5 -144t24.5 -89h4q4 19 8.5 35.5l7.5 27.5t13.5 34t15 33t22 47.5t26.5 55.5l239 488h221z" />
    </font>
</defs>
</svg>
