<?xml version="1.0" standalone="no"?>
<!DOCTYPE svg PUBLIC "-//W3C//DTD SVG 1.1//EN" "http://www.w3.org/Graphics/SVG/1.1/DTD/svg11.dtd" >
<svg xmlns="http://www.w3.org/2000/svg" xmlns:xlink="http://www.w3.org/1999/xlink" version="1.1">
<metadata>
Created by FontForge 20170731 at Sat Jul 23 01:52:10 2022
 By Aleksey,,,
Copyright (c) 2015 by Reto Moser. All rights reserved.
</metadata>
<defs>
<font id="GTEestiProText-BoldItalic" horiz-adv-x="1228" >
  <font-face 
    font-family="GT Eesti Pro Text Bold"
    font-weight="700"
    font-style="italic"
    font-stretch="normal"
    units-per-em="2048"
    panose-1="0 0 8 0 0 0 0 0 0 0"
    ascent="1536"
    descent="-512"
    x-height="946"
    cap-height="1434"
    bbox="-797 -516 2376 1827"
    underline-thickness="102"
    underline-position="-307"
    slope="-11"
    unicode-range="U+000D-FB02"
  />
<missing-glyph horiz-adv-x="1609" 
d="M852 -31q-213 0 -384 96.5t-267.5 267.5t-96.5 384q0 214 96.5 385t267.5 266.5t384 95.5q160 0 299 -56t237.5 -154.5t154.5 -237.5t56 -299q0 -213 -95.5 -384t-266.5 -267.5t-385 -96.5zM852 20q199 0 359 91t250.5 253t90.5 363l-104 133l-143 -61l-140 184l-161 -90
l-152 242l-152 -242l-161 90l-140 -184l-143 61l-104 -133q0 -201 90.5 -363t250.5 -253t359 -91zM641 651q-31 0 -51.5 20.5t-20.5 51.5t20.5 51.5t51.5 20.5t51.5 -20.5t20.5 -51.5t-20.5 -51.5t-51.5 -20.5zM1061 651q-31 0 -51.5 20.5t-20.5 51.5t20.5 51.5t51.5 20.5
t51.5 -20.5t20.5 -51.5t-20.5 -51.5t-51.5 -20.5zM766 522l74 207q3 17 22 10q6 -2 9.5 -8.5t0.5 -13.5l-57 -160h70q7 0 12.5 -5.5t5.5 -12.5q0 -6 -5.5 -11.5t-12.5 -5.5h-119zM449 350q-61 0 -101.5 40t-40.5 102q0 61 40 101t102 40q61 0 101 -39.5t40 -101.5t-40 -102
t-101 -40zM1253 350q-61 0 -101 40t-40 102t40 101.5t101 39.5q62 0 102 -40t40 -101q0 -62 -40.5 -102t-101.5 -40zM852 395q-96 0 -127 -61q-6 -12 -18 -12q-17 0 -17 18q0 35 50 63.5t112 28.5t112 -28.5t50 -63.5q0 -18 -17 -18q-12 0 -18 12q-31 61 -127 61z" />
    <glyph glyph-name="fi" unicode="fi" horiz-adv-x="1241" 
d="M909 1454l-53 -280h-25q-107 0 -156.5 -34t-66.5 -120l-4 -14q-6 -37 -29 -70l5 -4q21 14 94 14h137l-51 -260h-135q-70 0 -90 14l-5 -4q2 -5 3 -10.5t1 -13.5v-13.5t-1.5 -16.5t-2.5 -17.5t-4 -21.5t-4 -23l-114 -580h-310l115 580q17 91 37 116l-4 4q-23 -14 -94 -14
h-86l49 260h86q67 0 90 -14l4 4q-8 22 0 70l4 18q46 234 165 332t359 98h86zM1346 1434l-66 -344h-334l66 344h334zM1239 946l-184 -946h-310l185 946h309z" />
    <glyph glyph-name="fl" unicode="fl" horiz-adv-x="1263" 
d="M1350 1464l-287 -1464h-309l286 1464h310zM909 1454l-53 -280h-25q-107 0 -156.5 -34t-66.5 -120l-4 -14q-6 -37 -29 -70l5 -4q21 14 94 14h137l-51 -260h-135q-70 0 -90 14l-5 -4q2 -5 3 -10.5t1 -13.5v-13.5t-1.5 -16.5t-2.5 -17.5t-4 -21.5t-4 -23l-114 -580h-310
l115 580q17 91 37 116l-4 4q-23 -14 -94 -14h-86l49 260h86q67 0 90 -14l4 4q-8 22 0 70l4 18q46 234 165 332t359 98h86z" />
    <glyph glyph-name="f_f" unicode="ff" horiz-adv-x="1482" 
d="M1651 1454l-54 -280h-24q-107 0 -156.5 -34t-66.5 -120l-4 -14q-6 -37 -29 -70l4 -4q21 14 94 14h137l-51 -260h-135q-70 0 -90 14l-4 -4q2 -5 3 -10.5t1 -13.5v-13.5t-1.5 -16.5t-2.5 -17.5t-4 -21.5t-4 -23l-115 -580h-309l114 580q17 91 37 116l-4 4q-23 -14 -94 -14
h-86l49 260h86q67 0 90 -14l4 4q-8 22 0 70l4 18q46 234 165.5 332t359.5 98h86zM909 1454l-53 -280h-25q-107 0 -156.5 -34t-66.5 -120l-4 -14q-6 -37 -29 -70l5 -4q21 14 94 14h137l-51 -260h-135q-70 0 -90 14l-5 -4q2 -5 3 -10.5t1 -13.5v-13.5t-1.5 -16.5t-2.5 -17.5
t-4 -21.5t-4 -23l-114 -580h-310l115 580q17 91 37 116l-4 4q-23 -14 -94 -14h-86l49 260h86q67 0 90 -14l4 4q-8 22 0 70l4 18q46 234 165 332t359 98h86z" />
    <glyph glyph-name="f_f_i" unicode="ffi" horiz-adv-x="1982" 
d="M1651 1454l-54 -280h-24q-107 0 -156.5 -34t-66.5 -120l-4 -14q-6 -37 -29 -70l4 -4q21 14 94 14h137l-51 -260h-135q-70 0 -90 14l-4 -4q2 -5 3 -10.5t1 -13.5v-13.5t-1.5 -16.5t-2.5 -17.5t-4 -21.5t-4 -23l-115 -580h-309l114 580q17 91 37 116l-4 4q-23 -14 -94 -14
h-86l49 260h86q67 0 90 -14l4 4q-8 22 0 70l4 18q46 234 165.5 332t359.5 98h86zM909 1454l-53 -280h-25q-107 0 -156.5 -34t-66.5 -120l-4 -14q-6 -37 -29 -70l5 -4q21 14 94 14h137l-51 -260h-135q-70 0 -90 14l-5 -4q2 -5 3 -10.5t1 -13.5v-13.5t-1.5 -16.5t-2.5 -17.5
t-4 -21.5t-4 -23l-114 -580h-310l115 580q17 91 37 116l-4 4q-23 -14 -94 -14h-86l49 260h86q67 0 90 -14l4 4q-8 22 0 70l4 18q46 234 165 332t359 98h86zM2087 1434l-66 -344h-333l65 344h334zM1980 946l-184 -946h-309l184 946h309z" />
    <glyph glyph-name="f_f_l" unicode="ffl" horiz-adv-x="2004" 
d="M2091 1464l-287 -1464h-309l287 1464h309zM1651 1454l-54 -280h-24q-107 0 -156.5 -34t-66.5 -120l-4 -14q-6 -37 -29 -70l4 -4q21 14 94 14h137l-51 -260h-135q-70 0 -90 14l-4 -4q2 -5 3 -10.5t1 -13.5v-13.5t-1.5 -16.5t-2.5 -17.5t-4 -21.5t-4 -23l-115 -580h-309
l114 580q17 91 37 116l-4 4q-23 -14 -94 -14h-86l49 260h86q67 0 90 -14l4 4q-8 22 0 70l4 18q46 234 165.5 332t359.5 98h86zM909 1454l-53 -280h-25q-107 0 -156.5 -34t-66.5 -120l-4 -14q-6 -37 -29 -70l5 -4q21 14 94 14h137l-51 -260h-135q-70 0 -90 14l-5 -4
q2 -5 3 -10.5t1 -13.5v-13.5t-1.5 -16.5t-2.5 -17.5t-4 -21.5t-4 -23l-114 -580h-310l115 580q17 91 37 116l-4 4q-23 -14 -94 -14h-86l49 260h86q67 0 90 -14l4 4q-8 22 0 70l4 18q46 234 165 332t359 98h86z" />
    <glyph glyph-name=".notdef" horiz-adv-x="1609" 
d="M852 -31q-213 0 -384 96.5t-267.5 267.5t-96.5 384q0 214 96.5 385t267.5 266.5t384 95.5q160 0 299 -56t237.5 -154.5t154.5 -237.5t56 -299q0 -213 -95.5 -384t-266.5 -267.5t-385 -96.5zM852 20q199 0 359 91t250.5 253t90.5 363l-104 133l-143 -61l-140 184l-161 -90
l-152 242l-152 -242l-161 90l-140 -184l-143 61l-104 -133q0 -201 90.5 -363t250.5 -253t359 -91zM641 651q-31 0 -51.5 20.5t-20.5 51.5t20.5 51.5t51.5 20.5t51.5 -20.5t20.5 -51.5t-20.5 -51.5t-51.5 -20.5zM1061 651q-31 0 -51.5 20.5t-20.5 51.5t20.5 51.5t51.5 20.5
t51.5 -20.5t20.5 -51.5t-20.5 -51.5t-51.5 -20.5zM766 522l74 207q3 17 22 10q6 -2 9.5 -8.5t0.5 -13.5l-57 -160h70q7 0 12.5 -5.5t5.5 -12.5q0 -6 -5.5 -11.5t-12.5 -5.5h-119zM449 350q-61 0 -101.5 40t-40.5 102q0 61 40 101t102 40q61 0 101 -39.5t40 -101.5t-40 -102
t-101 -40zM1253 350q-61 0 -101 40t-40 102t40 101.5t101 39.5q62 0 102 -40t40 -101q0 -62 -40.5 -102t-101.5 -40zM852 395q-96 0 -127 -61q-6 -12 -18 -12q-17 0 -17 18q0 35 50 63.5t112 28.5t112 -28.5t50 -63.5q0 -18 -17 -18q-12 0 -18 12q-31 61 -127 61z" />
    <glyph glyph-name=".null" horiz-adv-x="0" 
 />
    <glyph glyph-name="nonmarkingreturn" horiz-adv-x="682" 
 />
    <glyph glyph-name="NULL" horiz-adv-x="0" 
 />
    <glyph glyph-name="NULL" horiz-adv-x="0" 
 />
    <glyph glyph-name="CR" unicode="&#xd;" horiz-adv-x="0" 
 />
    <glyph glyph-name="space" unicode=" " horiz-adv-x="540" 
 />
    <glyph glyph-name="exclam" unicode="!" horiz-adv-x="690" 
d="M727 1434l-272 -965h-222l103 965h391zM78 0l69 362h342l-69 -362h-342z" />
    <glyph glyph-name="quotedbl" unicode="&#x22;" horiz-adv-x="727" 
d="M524 1464l-147 -518h-135l53 518h229zM817 1464l-147 -518h-133l53 518h227z" />
    <glyph glyph-name="numbersign" unicode="#" horiz-adv-x="1239" 
d="M1260 903h-240l-125 -336h217l-27 -139h-243l-162 -428h-150l162 428h-268l-162 -428h-149l161 428h-219l27 139h244l127 336h-224l29 139h248l145 392h150l-146 -392h269l145 392h150l-146 -392h215zM745 567l125 336h-268l-127 -336h270z" />
    <glyph glyph-name="dollar" unicode="$" horiz-adv-x="1148" 
d="M451 -168l14 80q3 22 18 65l-4 5q-33 -7 -51 -2q-105 17 -202 64t-203 132l170 240q67 -56 149.5 -100.5t146.5 -57.5q39 -9 48 -14l2 2q-4 16 2 51l49 252l-150 139q-182 170 -182 361q0 165 114.5 264.5t309.5 99.5q48 0 80 -14l2 2q-2 22 2 49l18 100h62l-21 -104
q-4 -25 -16 -51l2 -2q20 8 45 0q92 -23 155.5 -51t145.5 -80l-156 -242q-135 73 -200 92q-19 6 -41 21l-2 -3q6 -19 -4 -63l-43 -211l153 -143q91 -85 132.5 -168t41.5 -180q0 -181 -128.5 -288.5t-342.5 -107.5q-17 0 -30 8l-5 -2q3 -30 -4 -63l-16 -80h-61zM659 889l3 2
q0 24 8 65l26 134q6 31 15 47l-2 2q-12 -4 -23 -4q-55 0 -85 -26.5t-30 -72.5q0 -48 52 -94q23 -23 36 -53zM590 242q21 15 47 18q41 9 63.5 37t22.5 68q0 28 -11.5 52t-41.5 56q-18 18 -27 41h-2q0 -34 -6 -57l-33 -166q-8 -30 -16 -47z" />
    <glyph glyph-name="percent" unicode="%" horiz-adv-x="1693" 
d="M547 770q-136 0 -230 77.5t-94 215.5q0 94 44 180t132.5 143.5t202.5 57.5q136 0 230 -77.5t94 -215.5q0 -94 -44 -180t-132.5 -143.5t-202.5 -57.5zM274 0l1035 1382h159l-1034 -1382h-160zM555 913q71 0 122 36.5t73 86.5t22 103q0 80 -50.5 119.5t-127.5 39.5
q-104 0 -161.5 -69.5t-57.5 -155.5q0 -79 51 -119.5t129 -40.5zM1186 -10q-135 0 -228.5 77.5t-93.5 215.5q0 94 44 180t132.5 143.5t202.5 57.5q135 0 228.5 -77.5t93.5 -215.5q0 -70 -26 -137.5t-73 -122t-120 -88t-160 -33.5zM1194 135q104 0 161.5 69.5t57.5 155.5
q0 79 -51 119.5t-127 40.5q-104 0 -161.5 -70t-57.5 -155q0 -80 50.5 -120t127.5 -40z" />
    <glyph glyph-name="ampersand" unicode="&#x26;" horiz-adv-x="1456" 
d="M1108 1382l125 -264l-2 -6h-377q-88 0 -115 18l-2 -2l303 -571h4q3 24 33 59q67 68 95 102t63 87l240 -176q-121 -170 -240 -289q-31 -31 -64 -31v-4l162 -295l-2 -8l-338 -2l-57 111h-4q-17 -53 -129.5 -97.5t-229.5 -44.5q-222 0 -360.5 126t-138.5 327
q0 164 93.5 289.5t254.5 179.5q55 20 78 16l2 2l-248 463l6 10h848zM625 690h-2q-8 -17 -41 -28q-96 -35 -139.5 -84t-43.5 -121q0 -85 52 -137t135 -52q24 0 51.5 6t42 11.5t43 18.5t33.5 15q34 14 45 11l4 4z" />
    <glyph glyph-name="quotesingle" unicode="'" horiz-adv-x="452" 
d="M545 1464l-148 -518h-155l53 518h250z" />
    <glyph glyph-name="parenleft" unicode="(" horiz-adv-x="694" 
d="M657 1651l211 -152q-57 -70 -95.5 -120.5t-94 -132t-92.5 -151t-78.5 -165.5t-66.5 -189t-41.5 -209t-16.5 -237q0 -192 35.5 -371.5t87.5 -308.5l-242 -111q-145 393 -145 791q0 135 17 261.5t42 228t70 208t84 182t103 171t107.5 154.5t114.5 151z" />
    <glyph glyph-name="parenright" unicode=")" horiz-adv-x="694" 
d="M80 -496l-213 152q57 71 95.5 121t94 131t92.5 150t79 165.5t66.5 189.5t41 208.5t16.5 236.5q0 192 -35.5 371.5t-87.5 310.5l244 111q143 -387 143 -791q0 -135 -17 -261.5t-42 -228t-70 -208.5t-84 -182.5t-102.5 -171t-107 -154.5t-113.5 -150z" />
    <glyph glyph-name="asterisk" unicode="*" horiz-adv-x="854" 
d="M420 733l-170 127l172 193l-256 57l65 199l238 -103l-25 258h213l-24 -258l237 103l66 -199l-256 -57l174 -193l-170 -127l-133 225z" />
    <glyph glyph-name="plus" unicode="+" 
d="M711 1108v-434h430v-129h-430v-434h-138v434h-432v129h432v434h138z" />
    <glyph glyph-name="comma" unicode="," horiz-adv-x="581" 
d="M-74 -342l193 635h336l-353 -635h-176z" />
    <glyph glyph-name="hyphen" unicode="-" horiz-adv-x="815" 
d="M782 682l-55 -276h-668l56 276h667z" />
    <glyph glyph-name="period" unicode="." horiz-adv-x="491" 
d="M-16 0l69 362h342l-69 -362h-342z" />
    <glyph glyph-name="slash" unicode="/" horiz-adv-x="1296" 
d="M131 -268l-188 131l1302 1753l187 -129z" />
    <glyph glyph-name="zero" unicode="0" horiz-adv-x="1312" 
d="M616 -31q-243 0 -372 151t-129 435q0 254 79.5 448t231 302t354.5 108q244 0 374 -151t130 -435q0 -254 -80.5 -448t-232.5 -302t-355 -108zM643 260q151 0 241.5 161t90.5 410q0 140 -57 215.5t-164 75.5q-151 0 -241.5 -161t-90.5 -410q0 -140 57 -215.5t164 -75.5z
" />
    <glyph glyph-name="one" unicode="1" horiz-adv-x="817" 
d="M807 1382l-270 -1382h-301l149 766q15 86 45 139l-6 4q-34 -34 -76 -51l-209 -92l58 297l297 182l71 137h242z" />
    <glyph glyph-name="two" unicode="2" horiz-adv-x="1148" 
d="M721 1413q414 0 414 -344q0 -120 -55.5 -217.5t-207.5 -255.5l-221 -227q-72 -72 -127 -113l2 -6q70 24 244 24h289v-4l-211 -270h-930l-6 20l721 730q89 89 132.5 150.5t43.5 117.5q0 49 -35.5 75.5t-101.5 26.5q-142 0 -330 -98l-117 268q264 123 496 123z" />
    <glyph glyph-name="three" unicode="3" horiz-adv-x="1101" 
d="M670 1411q189 0 302 -78.5t113 -236.5q0 -112 -60.5 -197.5t-180.5 -126.5q-66 -20 -123 -29l-2 -8q63 -3 112 -16q93 -29 146 -103.5t53 -191.5q0 -95 -35 -176t-104 -143.5t-180.5 -98t-253.5 -35.5q-122 0 -241.5 26.5t-211.5 72.5l123 272q171 -80 332 -80
q130 0 197 46.5t67 125.5t-81 118.5t-265 39.5l55 270q160 0 245 42t85 118q0 51 -40.5 78.5t-109.5 27.5q-132 0 -297 -79l-104 256q221 106 459 106z" />
    <glyph glyph-name="four" unicode="4" horiz-adv-x="1210" 
d="M1159 1382l-158 -815q-9 -45 -22 -61l2 -4q20 10 57 10h160l-143 -279h-70q-38 0 -53 11l-4 -4q5 -13 -2 -64l-35 -176h-287l33 176q10 47 20 64l-2 4q-22 -11 -59 -11h-621l43 228l844 921h297zM811 1024q-33 -60 -141 -178l-228 -246q-70 -76 -108 -100l2 -6
q45 18 145 18h170q41 0 54 -10l6 4q-7 18 2 61l59 301q12 72 45 154z" />
    <glyph glyph-name="five" unicode="5" horiz-adv-x="1019" 
d="M1186 1382l-164 -288h-315q-43 0 -60 14l-4 -2q-3 -29 -18 -64l-50 -100q-19 -33 -47 -53l2 -4q40 18 99 18q150 0 250 -102.5t100 -292.5q0 -241 -159 -390t-437 -149q-241 0 -459 113l137 264q173 -94 328 -94q71 0 124 20.5t82 55.5t42.5 75t13.5 84q0 193 -254 193
q-142 0 -250 -31l-8 8l340 725h707z" />
    <glyph glyph-name="six" unicode="6" horiz-adv-x="1161" 
d="M553 -31q-222 0 -360 119.5t-138 337.5q0 90 20 167t68 156t100 143.5t144 166.5l330 352h391l-490 -465q-80 -75 -107.5 -105t-61.5 -81l10 -4q67 90 136.5 136t160.5 46q70 0 134 -27.5t115 -79.5t81 -134.5t30 -184.5q0 -110 -36 -207t-104.5 -172.5t-177.5 -119.5
t-245 -44zM565 260q112 0 172 67t60 154q0 84 -52.5 134.5t-148.5 50.5q-110 0 -170.5 -67.5t-60.5 -154.5q0 -85 52 -134.5t148 -49.5z" />
    <glyph glyph-name="seven" unicode="7" horiz-adv-x="1003" 
d="M1178 1382l2 -8l-889 -1374h-344l604 897q126 189 162 225l-4 4q-62 -32 -189 -32h-399l172 288h885z" />
    <glyph glyph-name="eight" unicode="8" horiz-adv-x="1222" 
d="M561 -31q-228 0 -361.5 106t-133.5 281q0 164 100.5 261t273.5 112l2 8q-204 64 -204 273q0 176 142 289.5t376 113.5q216 0 336 -94.5t120 -253.5q0 -143 -87 -227.5t-236 -102.5l-2 -8q121 -33 179 -105t58 -194q0 -96 -36.5 -179t-105.5 -145.5t-177 -98.5t-244 -36z
M700 862q85 0 133 49t48 117q0 60 -39.5 92.5t-108.5 32.5q-82 0 -131 -47t-49 -115q0 -62 39 -95.5t108 -33.5zM588 252q101 0 161 60t60 147q0 76 -52 116.5t-130 40.5q-101 0 -161 -60.5t-60 -147.5q0 -75 52 -115.5t130 -40.5z" />
    <glyph glyph-name="nine" unicode="9" horiz-adv-x="1110" 
d="M139 0l455 440q107 104 154 185l-11 4q-48 -78 -120 -125t-158 -47q-65 0 -126.5 27t-111 77t-80 131t-30.5 180q0 105 34 200t100 172t174.5 123t244.5 46q99 0 185 -25.5t155 -77t109 -139t40 -202.5q0 -152 -73.5 -296.5t-252.5 -344.5l-307 -328h-381zM618 727
q110 0 171 64.5t61 156.5q0 83 -52.5 129.5t-144.5 46.5q-109 0 -168 -63.5t-59 -157.5q0 -83 51 -129.5t141 -46.5z" />
    <glyph glyph-name="colon" unicode=":" horiz-adv-x="497" 
d="M98 584l70 362h342l-70 -362h-342zM-10 0l69 362h342l-69 -362h-342z" />
    <glyph glyph-name="semicolon" unicode=";" horiz-adv-x="581" 
d="M166 584l70 362h342l-70 -362h-342zM-74 -342l193 635h336l-353 -635h-176z" />
    <glyph glyph-name="less" unicode="&#x3c;" 
d="M1079 1112l2 -156l-802 -344l802 -342l-2 -155l-958 426v145z" />
    <glyph glyph-name="equal" unicode="=" 
d="M1159 897l2 -129h-1036l-2 129h1036zM1161 461l-2 -129h-1036l2 129h1036z" />
    <glyph glyph-name="greater" unicode="&#x3e;" 
d="M203 1112l958 -426v-145l-958 -426l-2 155l803 342l-803 344z" />
    <glyph glyph-name="question" unicode="?" horiz-adv-x="821" 
d="M590 1464q157 0 239 -59t82 -172q0 -71 -35.5 -132t-127.5 -145l-111 -100q-74 -65 -74 -106q0 -45 86 -93l-141 -213q-138 63 -198 130.5t-60 158.5q0 64 32 121t105 119l84 71q60 53 82 78.5t22 44.5q0 37 -73 37q-71 0 -236 -49l-59 236q208 73 383 73zM158 0l69 362
h342l-69 -362h-342z" />
    <glyph glyph-name="at" unicode="@" horiz-adv-x="1955" 
d="M930 -307q-244 0 -431.5 98.5t-290 278t-102.5 413.5q0 205 71.5 378.5t199 294.5t309.5 189t397 68q374 0 599 -186t225 -496q0 -175 -63.5 -321.5t-173 -231t-240.5 -84.5q-113 0 -181 54t-75 151h-7q-38 -91 -120.5 -143t-186.5 -52q-138 0 -223.5 84.5t-85.5 219.5
q0 138 87 216t239 78q223 0 305 -157l6 2q-2 6 -2 24q0 12 5 50.5t5 54.5q0 102 -156 102q-100 0 -260 -30l-32 221q169 28 339 28q197 0 285 -64t88 -206q0 -71 -14 -131l-41 -211q-4 -20 -4 -31q0 -59 53 -59q61 0 116 57t87.5 152.5t32.5 202.5q0 245 -156.5 378.5
t-443.5 133.5q-230 0 -405.5 -89.5t-271.5 -253.5t-96 -380q0 -281 169.5 -445t461.5 -164q172 0 371 60l35 -185q-216 -69 -424 -69zM977 317q58 0 94.5 30.5t36.5 80.5q0 44 -31.5 71t-83.5 27q-57 0 -92 -30.5t-35 -79.5q0 -45 30 -72t81 -27z" />
    <glyph glyph-name="A" unicode="A" horiz-adv-x="1480" 
d="M-90 0l991 1460h66l419 -1460h-327l-80 299h-506l-197 -299h-366zM590 524q34 11 96 11h170q62 0 90 -11l4 2q-29 41 -39 97l-41 188q-19 93 -12 147h-8q-10 -41 -72 -147l-112 -188q-36 -63 -76 -97v-2z" />
    <glyph glyph-name="B" unicode="B" horiz-adv-x="1302" 
d="M43 0l279 1434h557q84 0 153 -17.5t123.5 -54.5t84.5 -100.5t30 -149.5q0 -121 -73.5 -211.5t-201.5 -128.5q-69 -20 -123 -22l-2 -9q62 0 123 -14q114 -29 171 -106.5t57 -194.5q0 -195 -147.5 -310.5t-409.5 -115.5h-621zM522 860q13 8 60 8h153q99 0 153 46.5
t54 121.5q0 133 -174 133h-131q-35 0 -53 11l-4 -4q5 -13 -2 -60l-37 -192q-1 -3 -5 -17t-9 -26.5t-9 -16.5zM403 254q3 0 23 5t39 5h190q128 0 185 49t57 131q0 162 -205 162h-164q-35 0 -55 10l-4 -4q7 -17 -2 -63l-45 -230q-6 -39 -21 -61z" />
    <glyph glyph-name="C" unicode="C" horiz-adv-x="1441" 
d="M825 -31q-323 0 -519.5 191t-196.5 506q0 174 63 322.5t175 253t271 163.5t345 59q322 0 544 -153l-186 -260q-165 108 -365 108q-230 0 -372 -133.5t-142 -349.5q0 -181 108.5 -291.5t285.5 -110.5q172 0 360 107l133 -270q-257 -142 -504 -142z" />
    <glyph glyph-name="D" unicode="D" horiz-adv-x="1441" 
d="M43 0l279 1434h426q312 0 499 -177.5t187 -472.5q0 -229 -111.5 -407.5t-312.5 -277.5t-459 -99h-508zM408 272q33 11 59 11h102q232 0 382.5 140.5t150.5 358.5q0 173 -98 271t-271 98h-98q-40 0 -55 10l-5 -4q8 -29 -2 -63l-147 -754q-9 -46 -23 -64z" />
    <glyph glyph-name="E" unicode="E" horiz-adv-x="1114" 
d="M1210 1434l-55 -283h-520q-38 0 -55 10l-5 -4q7 -19 -2 -61l-26 -144q-10 -46 -23 -63l2 -4q20 10 60 10h465l-56 -279h-465q-38 0 -53 11l-4 -4q5 -13 -2 -62l-45 -223q-6 -41 -23 -62l5 -4q22 11 59 11h528l-55 -283h-897l279 1434h888z" />
    <glyph glyph-name="F" unicode="F" horiz-adv-x="1062" 
d="M1227 1434l-56 -283h-536q-38 0 -55 10l-5 -4q7 -19 -2 -61l-34 -183q-10 -43 -23 -59l4 -4q17 10 60 10h475l-56 -282h-475q-42 0 -55 10l-4 -4q7 -19 -2 -64l-103 -520h-317l279 1434h905z" />
    <glyph glyph-name="G" unicode="G" horiz-adv-x="1587" 
d="M821 -31q-325 0 -520 187.5t-195 498.5q0 176 63.5 326.5t176 256.5t272.5 166t347 60q173 0 323.5 -49.5t261.5 -142.5l-198 -244q-76 63 -180.5 97t-215.5 34q-226 0 -371 -142t-145 -362q0 -180 104.5 -283.5t286.5 -103.5q164 0 276 85.5t140 226.5l-4 4
q-42 -25 -135 -25h-264l49 260h713l-19 -121q-54 -349 -253.5 -539t-512.5 -190z" />
    <glyph glyph-name="H" unicode="H" horiz-adv-x="1509" 
d="M1561 1434l-279 -1434h-317l106 557q9 43 23 61l-2 5q-22 -11 -60 -11h-502q-35 0 -53 11l-6 -5q7 -17 -2 -61l-109 -557h-317l279 1434h317l-92 -476q-10 -46 -23 -63l4 -4q23 10 60 10h499q43 0 56 -10l4 4q-7 18 2 63l94 476h318z" />
    <glyph glyph-name="I" unicode="I" horiz-adv-x="577" 
d="M631 1434l-279 -1434h-309l279 1434h309z" />
    <glyph glyph-name="J" unicode="J" horiz-adv-x="700" 
d="M752 1434l-203 -1039q-40 -215 -147.5 -310t-307.5 -95q-43 0 -153 10l55 291q53 -6 110 -6q106 0 132 141l196 1008h318z" />
    <glyph glyph-name="K" unicode="K" horiz-adv-x="1429" 
d="M1563 1434l-605 -566q-107 -99 -161 -129l-2 -6q10 -7 19 -15t14.5 -13.5t17 -19.5t15 -19t19.5 -26t21 -28l434 -612h-405l-451 702l-6 -2q7 -72 -12 -184l-101 -516h-317l279 1434h317l-86 -441q-20 -115 -59 -190l6 -4l626 635h437z" />
    <glyph glyph-name="L" unicode="L" horiz-adv-x="1038" 
d="M639 1434l-213 -1096q-9 -45 -23 -62l5 -4q22 11 59 11h524l-55 -283h-893l279 1434h317z" />
    <glyph glyph-name="M" unicode="M" horiz-adv-x="1955" 
d="M877 -14l-181 647q-15 59 -18.5 92t0.5 80h-6q-23 -87 -72 -178l-328 -627h-362l811 1454h57l199 -772q11 -40 12.5 -73.5t-2.5 -67.5h8q24 78 64 141l500 772h55l250 -1454h-318l-94 627q-12 88 0 178h-6q-15 -46 -32.5 -79.5t-55.5 -92.5l-432 -647h-49z" />
    <glyph glyph-name="N" unicode="N" horiz-adv-x="1478" 
d="M393 1454l604 -741q30 -37 44.5 -63.5t27.5 -65.5l8 2q-12 71 23 252l117 596h313l-283 -1454h-69l-603 741q-47 58 -71 129l-6 -2q9 -74 -25 -252l-117 -596h-313l283 1454h67z" />
    <glyph glyph-name="O" unicode="O" horiz-adv-x="1656" 
d="M815 -31q-321 0 -516 186.5t-195 493.5q0 173 63.5 324t173.5 259t264.5 170t330.5 62q321 0 516 -186.5t195 -493.5q0 -173 -63.5 -324t-173.5 -259t-264.5 -170t-330.5 -62zM834 276q209 0 343 141.5t134 358.5q0 177 -105.5 279t-287.5 102q-209 0 -343.5 -141
t-134.5 -359q0 -177 106 -279t288 -102z" />
    <glyph glyph-name="P" unicode="P" horiz-adv-x="1218" 
d="M809 1434q232 0 357.5 -106.5t125.5 -301.5q0 -223 -153.5 -351t-423.5 -128h-197q-40 0 -55 10l-4 -4q9 -17 -2 -61l-97 -492h-317l279 1434h487zM584 1171l-6 -4q7 -18 -3 -61l-45 -229q-9 -48 -22 -64l4 -4q23 10 59 10h166q103 0 163.5 52.5t60.5 140.5
q0 73 -47.5 111t-137.5 38h-139q-33 0 -53 10z" />
    <glyph glyph-name="Q" unicode="Q" horiz-adv-x="1673" 
d="M813 -10q-319 0 -513 183.5t-194 485.5q0 170 63.5 319t173 256t263 168.5t328.5 61.5q207 0 369.5 -81t252 -227.5t89.5 -332.5q0 -449 -605 -653l-2 -8q245 69 428 69h109l-47 -241h-715zM834 297q207 0 341 137.5t134 351.5q0 172 -105.5 271.5t-285.5 99.5
q-207 0 -341.5 -138t-134.5 -351q0 -171 106 -271t286 -100z" />
    <glyph glyph-name="R" unicode="R" horiz-adv-x="1312" 
d="M813 1434q221 0 344 -100.5t123 -280.5q0 -189 -119 -308.5t-307 -119.5q-27 0 -43 2l-6 -9q40 -14 70 -44t71 -99l275 -475h-373l-311 592q-23 0 -41 6q-27 10 -29 12l-6 -4q8 -38 -4 -108l-97 -498h-317l279 1434h491zM584 1171l-6 -4q7 -18 -3 -61l-40 -207
q-9 -45 -23 -63l4 -5q19 11 59 11h166q95 0 152 48t57 130q0 67 -46 104t-126 37h-141q-33 0 -53 10z" />
    <glyph glyph-name="S" unicode="S" horiz-adv-x="1097" 
d="M530 -29q-304 0 -565 213l187 258q101 -82 201 -127t179 -45q69 0 108.5 29.5t39.5 81.5q0 36 -21 70.5t-77 85.5l-187 174q-99 93 -142.5 178t-43.5 184q0 180 120 285.5t324 105.5q240 0 492 -149l-174 -264q-178 114 -316 114q-112 0 -112 -86q0 -34 20.5 -63
t83.5 -88l197 -183q93 -86 133.5 -170.5t40.5 -189.5q0 -197 -128 -305.5t-360 -108.5z" />
    <glyph glyph-name="T" unicode="T" horiz-adv-x="1112" 
d="M1286 1434l-57 -293h-334q-36 0 -53 10l-4 -4q4 -22 -4 -60l-211 -1087h-318l211 1087q9 40 21 60l-5 4q-20 -10 -57 -10h-334l58 293h1087z" />
    <glyph glyph-name="U" unicode="U" horiz-adv-x="1464" 
d="M678 -27q-261 0 -401 124.5t-140 357.5q0 77 19 174l155 805h330l-152 -789q-12 -61 -12 -113q0 -120 59.5 -183.5t172.5 -63.5q126 0 212 84.5t115 238.5l160 826h332l-166 -854q-120 -607 -684 -607z" />
    <glyph glyph-name="V" unicode="V" horiz-adv-x="1427" 
d="M1614 1434l-965 -1448h-61l-402 1448h351l145 -680q24 -122 20 -197h9q28 83 98 197l405 680h400z" />
    <glyph glyph-name="W" unicode="W" horiz-adv-x="2045" 
d="M504 -14l-307 1448h335l109 -639q13 -84 6 -187h8q30 86 90 183l426 663h46l167 -663q14 -55 18 -89.5t1 -93.5h8q36 111 78 187l358 639h375l-868 -1448h-66l-174 680q-23 95 -18 157h-9q-25 -75 -77 -157l-441 -680h-65z" />
    <glyph glyph-name="X" unicode="X" horiz-adv-x="1484" 
d="M1620 1434l-518 -566q-93 -100 -121 -118l-2 -9q21 -19 70 -112l342 -629h-390l-206 414q-35 69 -35 137h-8q-21 -62 -84 -137l-338 -414h-420l588 662q81 92 116 112v8q-6 5 -11 11t-12 17t-12 21t-17 31.5t-21 38.5l-299 533h383l168 -330q36 -73 36 -139h9
q10 29 30 58.5t60 78.5l266 332h426z" />
    <glyph glyph-name="Y" unicode="Y" horiz-adv-x="1355" 
d="M1542 1434l-698 -926l-99 -508h-317l98 508l-340 926h355l131 -465q23 -77 30 -112t7 -81h8q13 32 29.5 62.5t30 51t52.5 79.5l312 465h401z" />
    <glyph glyph-name="Z" unicode="Z" horiz-adv-x="1333" 
d="M1499 1434l2 -11l-993 -1161v-4q50 23 99 31t128 8h561l-215 -297h-1167l-2 10l1001 1164l-4 6q-73 -41 -223 -41h-463l207 295h1069z" />
    <glyph glyph-name="bracketleft" unicode="[" horiz-adv-x="774" 
d="M965 1565l-43 -222h-217q-56 0 -78 11l-2 -2q7 -32 -2 -76l-279 -1430q-9 -42 -27 -75v-2q25 10 82 10h219l-43 -221h-546l389 2007h547z" />
    <glyph glyph-name="backslash" unicode="\" horiz-adv-x="1290" 
d="M891 -207l-627 1720l219 82l629 -1722z" />
    <glyph glyph-name="bracketright" unicode="]" horiz-adv-x="774" 
d="M-156 -442l41 221h219q58 0 78 -10l2 2q-7 31 2 75l279 1430q9 43 27 76v2q-28 -11 -82 -11h-220l43 222h547l-389 -2007h-547z" />
    <glyph glyph-name="asciicircum" unicode="^" horiz-adv-x="1296" 
d="M805 1464l295 -659h-215l-228 518l-227 -518h-217l295 659h297z" />
    <glyph glyph-name="underscore" unicode="_" horiz-adv-x="1091" 
d="M-121 -260l43 229h1051l-43 -229h-1051z" />
    <glyph glyph-name="grave" unicode="`" horiz-adv-x="765" 
d="M795 1448l170 -307l-4 -8h-213l-285 307l4 8h328z" />
    <glyph glyph-name="a" unicode="a" horiz-adv-x="1095" 
d="M338 -31q-152 0 -243 87t-91 233q0 155 100 247.5t269 92.5q127 0 215 -55t125 -156l8 2q-6 61 -2 88q10 72 10 102q0 66 -39.5 92.5t-136.5 26.5q-126 0 -293 -29l-35 240q231 37 412 37q212 0 302.5 -72t84.5 -235q0 -46 -18 -154l-97 -516h-309q17 90 70 170l-11 6
q-66 -111 -140 -159t-181 -48zM477 201q60 0 98.5 35.5t38.5 89.5q0 51 -38.5 83.5t-98.5 32.5t-97.5 -34.5t-37.5 -90.5q0 -52 37.5 -84t97.5 -32z" />
    <glyph glyph-name="b" unicode="b" horiz-adv-x="1243" 
d="M692 -31q-136 0 -225.5 64.5t-118.5 183.5l-10 -4q-2 -103 -25 -213h-301l285 1464h309l-88 -460q-36 -175 -82 -269l8 -4q131 246 369 246q174 0 275.5 -116.5t101.5 -317.5q0 -253 -139 -413.5t-359 -160.5zM629 252q103 0 170 69t67 175q0 89 -58 143.5t-153 54.5
q-103 0 -170 -68.5t-67 -174.5q0 -89 58 -144t153 -55z" />
    <glyph glyph-name="c" unicode="c" horiz-adv-x="980" 
d="M557 -31q-224 0 -361 131.5t-137 348.5q0 241 155.5 384.5t418.5 143.5q209 0 385 -111l-154 -254q-127 84 -239 84q-111 0 -179.5 -63.5t-68.5 -167.5q0 -95 60 -154t155 -59q87 0 184 51l98 -260q-145 -74 -317 -74z" />
    <glyph glyph-name="d" unicode="d" horiz-adv-x="1243" 
d="M430 -31q-174 0 -275.5 116.5t-101.5 317.5q0 253 139 413.5t359 160.5q136 0 225.5 -64.5t118.5 -183.5l10 4q-10 74 17 213l100 518h309l-284 -1464h-302q11 73 23 111.5t39 101.5l-8 4q-130 -248 -369 -248zM588 252q103 0 170 69t67 175q0 89 -58 143.5t-153 54.5
q-103 0 -170 -68.5t-67 -174.5q0 -89 58 -144t153 -55z" />
    <glyph glyph-name="e" unicode="e" horiz-adv-x="1103" 
d="M561 -31q-236 0 -372 121t-136 332q0 244 156.5 398.5t404.5 154.5q209 0 329 -101t120 -278q0 -74 -31 -201h-577q-45 0 -66 5t-41 20l-6 -6l4 -17v-14q3 -73 65.5 -116.5t163.5 -43.5q128 0 279 80l98 -231q-199 -103 -391 -103zM371 563q19 19 86 19h225q58 0 80 -19
l4 4q-4 10 -4 33q0 154 -168 154q-175 0 -227 -185z" />
    <glyph glyph-name="f" unicode="f" horiz-adv-x="741" 
d="M909 1454l-53 -280h-25q-107 0 -156.5 -34t-66.5 -120l-4 -14q-6 -37 -29 -70l5 -4q21 14 94 14h137l-51 -260h-135q-70 0 -90 14l-5 -4q2 -5 3 -10.5t1 -13.5v-13.5t-1.5 -16.5t-2.5 -17.5t-4 -21.5t-4 -23l-114 -580h-310l115 580q17 91 37 116l-4 4q-23 -14 -94 -14
h-86l49 260h86q67 0 90 -14l4 4q-8 22 0 70l4 18q46 234 165 332t359 98h86z" />
    <glyph glyph-name="g" unicode="g" horiz-adv-x="1239" 
d="M475 -442q-277 0 -495 131l151 243q165 -96 336 -96q123 0 190 52t95 169q23 83 55 138l-8 4q-130 -230 -369 -230q-174 0 -275.5 116.5t-101.5 317.5q0 253 139 413.5t359 160.5q136 0 225.5 -64.5t118.5 -183.5l10 4q-10 74 17 213h303l-174 -903q-43 -233 -193 -359
t-383 -126zM588 252q103 0 170 69t67 175q0 89 -58 143.5t-153 54.5q-103 0 -170 -68.5t-67 -174.5q0 -89 58 -144t153 -55z" />
    <glyph glyph-name="h" unicode="h" horiz-adv-x="1171" 
d="M606 1464l-86 -436q-34 -173 -78 -274l7 -4q78 123 161.5 175t200.5 52q143 0 219 -79.5t76 -229.5q0 -63 -19 -146l-104 -522h-307l94 465q10 46 10 92q0 73 -38.5 111.5t-110.5 38.5q-91 0 -143 -61.5t-80 -199.5l-86 -446h-310l285 1464h309z" />
    <glyph glyph-name="i" unicode="i" horiz-adv-x="499" 
d="M604 1434l-65 -344h-334l65 344h334zM498 946l-185 -946h-309l184 946h310z" />
    <glyph glyph-name="j" unicode="j" horiz-adv-x="499" 
d="M604 1434l-65 -344h-334l65 344h334zM498 946l-191 -979q-43 -217 -162.5 -312t-347.5 -95h-30l55 284h20q133 0 160 146l186 956h310z" />
    <glyph glyph-name="k" unicode="k" horiz-adv-x="1146" 
d="M606 1464l-135 -702q-28 -145 -82 -232l6 -2l434 418h408l-430 -389q-83 -72 -119 -80l-2 -6q19 -4 31.5 -17t40.5 -51l291 -403h-365l-301 467l-6 -4q18 -74 -6 -213l-49 -250h-310l285 1464h309z" />
    <glyph glyph-name="l" unicode="l" horiz-adv-x="520" 
d="M608 1464l-286 -1464h-310l287 1464h309z" />
    <glyph glyph-name="m" unicode="m" horiz-adv-x="1777" 
d="M12 0l185 946h303q-21 -103 -62 -194l8 -4q76 129 153.5 179t199.5 50q121 0 186 -57t82 -177h10q71 125 152 179.5t198 54.5q139 0 211 -74t72 -217q0 -71 -16 -156l-105 -530h-307l94 498q8 31 8 75q0 134 -139 134q-86 0 -135 -58.5t-72 -187.5l-88 -461h-297l97 500
q8 27 8 73q0 134 -140 134q-86 0 -134.5 -58t-73.5 -188l-88 -461h-310z" />
    <glyph glyph-name="n" unicode="n" horiz-adv-x="1171" 
d="M12 0l185 946h307l-6 -33q-14 -75 -56 -161l7 -4q76 122 161 175.5t201 53.5q143 0 219 -79.5t76 -229.5q0 -63 -19 -146l-104 -522h-307l94 465q10 46 10 92q0 73 -38.5 111.5t-110.5 38.5q-91 0 -143 -61.5t-80 -199.5l-86 -446h-310z" />
    <glyph glyph-name="o" unicode="o" horiz-adv-x="1173" 
d="M549 -31q-229 0 -362.5 122.5t-133.5 334.5q0 243 160.5 397t411.5 154q229 0 362 -122.5t133 -334.5q0 -243 -160 -397t-411 -154zM565 254q107 0 176.5 71t69.5 177q0 88 -54.5 139t-148.5 51q-106 0 -176 -70.5t-70 -177.5q0 -88 54.5 -139t148.5 -51z" />
    <glyph glyph-name="p" unicode="p" horiz-adv-x="1243" 
d="M-68 -410l265 1356h303q-20 -121 -64 -211l8 -4q131 246 369 246q174 0 276.5 -117t102.5 -317q0 -253 -140 -413.5t-360 -160.5q-136 0 -225.5 64.5t-118.5 183.5l-10 -4q-2 -101 -23 -213l-79 -410h-304zM629 252q103 0 170 69t67 175q0 89 -58 143.5t-153 54.5
q-102 0 -169.5 -69t-67.5 -174q0 -89 58 -144t153 -55z" />
    <glyph glyph-name="q" unicode="q" horiz-adv-x="1230" 
d="M657 -410l88 410q11 73 23 111.5t39 101.5l-8 4q-130 -248 -369 -248q-174 0 -275.5 116.5t-101.5 317.5q0 253 139 413.5t359 160.5q136 0 225.5 -64.5t118.5 -183.5l10 4q-5 91 23 213h303l-264 -1356h-310zM588 252q103 0 170 69t67 175q0 89 -58 143.5t-153 54.5
q-103 0 -170 -68.5t-67 -174.5q0 -89 58 -144t153 -55z" />
    <glyph glyph-name="r" unicode="r" horiz-adv-x="763" 
d="M12 0l185 946h292q-32 -138 -88 -272l9 -4q64 158 152.5 231.5t213.5 73.5q47 0 72 -4l-60 -309q-47 4 -94 4q-241 0 -299 -281l-73 -385h-310z" />
    <glyph glyph-name="s" unicode="s" horiz-adv-x="866" 
d="M88 340q192 -125 322 -125q67 0 67 45q0 17 -11.5 29.5t-47.5 32.5l-131 73q-94 53 -138.5 120t-44.5 159q0 141 96.5 222t266.5 81q198 0 412 -103l-111 -219q-157 80 -287 80q-69 0 -69 -41q0 -17 13 -29.5t56 -35.5l125 -70q100 -54 142.5 -115.5t42.5 -154.5
q0 -156 -100.5 -238t-291.5 -82q-243 0 -454 154z" />
    <glyph glyph-name="t" unicode="t" horiz-adv-x="700" 
d="M680 1452l-84 -434q-12 -59 -29 -82l2 -4q27 14 95 14h104l-47 -260h-107q-29 0 -41 0.5t-25 3.5t-22 10l-6 -4q6 -26 4.5 -44.5t-12.5 -71.5l-113 -580h-299l115 580q17 89 35 116l-4 4q-23 -14 -92 -14h-86l47 260h86q67 0 90 -14l6 4q-12 29 0 82l49 246l303 188h31z
" />
    <glyph glyph-name="u" unicode="u" horiz-adv-x="1159" 
d="M1147 946l-184 -946h-301q16 94 77 219l-10 2q-75 -130 -165.5 -191t-209.5 -61q-136 0 -211 77.5t-75 217.5q0 70 16 158l102 524h316l-88 -454q-13 -63 -13 -101q0 -141 136 -141q164 0 211 229l90 467h309z" />
    <glyph glyph-name="v" unicode="v" horiz-adv-x="1099" 
d="M397 -20l-305 966h324l80 -362q1 -7 6.5 -30t6.5 -30t4 -25.5t3 -29.5v-29t-2 -37h8q6 19 12.5 36.5t11.5 29.5t14.5 30t14 25.5t17.5 29.5t18 30l219 362h361l-682 -966h-111z" />
    <glyph glyph-name="w" unicode="w" horiz-adv-x="1603" 
d="M367 -20l-265 966h318l63 -287q2 -9 6.5 -27.5t6.5 -27.5t5.5 -25.5t5 -28.5t2.5 -29.5t1 -35.5h8q36 67 111 177l211 305h78l94 -305q34 -121 41 -177h8q24 60 96 174l172 287h354l-639 -966h-83l-105 331q-19 58 -26 79.5t-13.5 54.5t-5.5 61h-8q-6 -17 -13.5 -33.5
t-20.5 -37t-22.5 -34.5t-30.5 -44t-32 -46l-233 -331h-84z" />
    <glyph glyph-name="x" unicode="x" horiz-adv-x="1153" 
d="M1200 946l-381 -403q-35 -38 -65 -51v-7q21 -12 47 -57l248 -428h-336l-125 213q-20 35 -25 58t-2 65h-8q-25 -74 -72 -123l-192 -213h-371l424 449q36 40 70 57l2 6q-26 16 -47 53l-230 381h340l96 -160q22 -36 29 -61t6 -68h6q22 67 76 129l139 160h371z" />
    <glyph glyph-name="y" unicode="y" horiz-adv-x="1097" 
d="M1190 946l-871 -1356h-325l328 525l-230 831h316l86 -364q24 -104 10 -240l8 2q15 73 78 180l252 422h348z" />
    <glyph glyph-name="z" unicode="z" horiz-adv-x="1044" 
d="M-96 0l-2 10l686 715l-2 6q-45 -22 -83 -30.5t-108 -8.5h-282l194 254h823l3 -10l-678 -709l4 -6q38 20 78.5 26.5t121.5 6.5h340l-204 -254h-891z" />
    <glyph glyph-name="braceleft" unicode="{" horiz-adv-x="843" 
d="M563 -442q-72 0 -132.5 17.5t-110 53t-77.5 96.5t-28 142q0 49 12 110l49 244q7 32 7 53q0 80 -52.5 116t-175.5 40l51 266q142 6 212 50.5t92 158.5l57 299q22 119 91.5 202.5t161 121t195.5 37.5h119l-49 -254h-55q-94 0 -150.5 -40.5t-74.5 -133.5l-58 -295
q-23 -122 -119 -195.5t-268 -83.5l-2 -8q146 -9 215.5 -62.5t69.5 -154.5q0 -24 -8 -78l-54 -274q-6 -27 -6 -52q0 -120 141 -120h76l-47 -256h-82z" />
    <glyph glyph-name="bar" unicode="|" horiz-adv-x="710" 
d="M45 -457l379 1946h258l-379 -1946h-258z" />
    <glyph glyph-name="braceright" unicode="}" horiz-adv-x="843" 
d="M313 1565q152 0 250.5 -76.5t98.5 -233.5q0 -43 -13 -110l-47 -244q-6 -27 -6 -53q0 -80 51.5 -116t175.5 -40l-51 -266q-143 -6 -212.5 -50.5t-90.5 -158.5l-57 -299q-22 -119 -92 -202.5t-161 -120.5t-196 -37h-119l50 254h53q95 0 152 40.5t75 133.5l57 295
q23 122 118 195t267 83l2 8q-145 9 -214.5 62.5t-69.5 154.5q0 24 8 78l55 275q6 27 6 51q0 60 -37 90.5t-104 30.5h-78l49 256h80z" />
    <glyph glyph-name="asciitilde" unicode="~" 
d="M434 823q66 0 130.5 -20t106.5 -43.5t95.5 -43.5t99.5 -20q16 0 30.5 1.5t29.5 6t25.5 7.5t26 11.5t23.5 12.5t24.5 16t22.5 16t25.5 19t24.5 19l131 -203q-196 -160 -371 -160q-66 0 -129.5 19t-105.5 42.5t-95.5 42.5t-101.5 19q-15 0 -29.5 -1.5t-26.5 -3.5t-26 -7.5
t-23 -8t-23.5 -11t-21 -12t-22.5 -14.5t-20.5 -14.5t-23 -17t-22.5 -16.5l-129 198q98 83 188 124.5t187 41.5z" />
    <glyph glyph-name="exclamdown" unicode="&#xa1;" horiz-adv-x="690" 
d="M625 1020l-70 -363h-342l70 363h342zM-25 -414l273 965h221l-100 -965h-394z" />
    <glyph glyph-name="cent" unicode="&#xa2;" horiz-adv-x="980" 
d="M434 -137l8 45q4 26 23 74l-2 4q-24 -7 -60 2q-156 42 -250 159t-94 304q0 101 29.5 188t89.5 159.5t161.5 119t235.5 57.5q50 4 74 -8l4 2q3 37 9 63l10 51h61l-10 -51q-8 -42 -18 -67l4 -2q28 10 59 2q77 -17 130 -38t120 -61l-154 -254q-37 24 -51.5 32.5t-41.5 20
t-64 21.5q-37 11 -54 19l-4 -5q3 -35 -4 -65l-59 -309q-12 -61 -25 -80l4 -4q14 5 66 12q65 8 145 49l98 -260q-147 -74 -317 -74q-32 0 -45 13l-4 -2q4 -33 -4 -70l-8 -47h-62zM514 254l4 2q-4 26 6 70l60 315q9 41 16 57l-2 4q-14 -6 -55 -16q-81 -19 -123.5 -81
t-42.5 -140q0 -58 22.5 -103.5t61.5 -70.5q9 -6 18.5 -11.5t13.5 -8t9.5 -7t11.5 -10.5z" />
    <glyph glyph-name="sterling" unicode="&#xa3;" horiz-adv-x="1236" 
d="M657 -29q-53 0 -101.5 13t-77 28t-63.5 28t-65 13q-61 0 -203 -69l-88 241q66 36 113 67.5t90.5 70.5t65.5 83t22 93q0 28 -9.5 63t-17 54.5t-28.5 70.5h-158l13 61h77q38 0 58 -10l2 2q-19 27 -27 54q-18 62 -18 131q0 73 18 138t57 122t96 98.5t139 65.5t181 24
q236 0 455 -141l-176 -258q-72 46 -135 73t-132 27q-88 0 -138 -44.5t-50 -117.5q0 -61 47 -164h322l-13 -61h-243q-36 0 -54 10l-2 -2q16 -22 21 -43q12 -40 12 -78q0 -58 -23 -106t-68 -86.5t-94.5 -67t-119.5 -59.5l2 -8q80 28 145 28q55 0 122 -23.5t106 -23.5
q57 0 107.5 24.5t115.5 72.5l113 -252q-213 -142 -396 -142z" />
    <glyph glyph-name="currency" unicode="&#xa4;" 
d="M1130 662q0 -186 -118 -320l114 -117l-41 -39l-114 117q-133 -117 -322 -117t-323 115l-115 -115l-39 41l115 115q-119 128 -119 320q0 187 121 321l-117 117l43 41l115 -117q132 113 319 113q188 0 320 -113l118 117l39 -41l-116 -117q120 -129 120 -321zM649 453
q92 0 149.5 59t57.5 147q0 92 -58 151.5t-149 59.5t-149 -59t-58 -149q0 -89 58 -149t149 -60z" />
    <glyph glyph-name="yen" unicode="&#xa5;" horiz-adv-x="1370" 
d="M453 0l84 428h-367l12 61h310q29 0 43 -6l2 4q-13 13 -19 35l-29 82h-284l12 62h211q33 0 49 -7l2 3q-10 14 -22 51l-221 669h331l111 -448q20 -78 25.5 -121t1.5 -98h8q13 53 34.5 95.5t73.5 123.5l285 448h381l-488 -682q-14 -20 -36 -36v-2q31 4 59 4h207l-12 -62
h-285l-64 -84q-18 -22 -30 -33v-4q25 6 49 6h307l-12 -61h-367l-84 -428h-278z" />
    <glyph glyph-name="brokenbar" unicode="&#xa6;" horiz-adv-x="710" 
d="M266 680l158 809h258l-158 -809h-258zM465 373l-162 -830h-258l162 830h258z" />
    <glyph glyph-name="section" unicode="&#xa7;" horiz-adv-x="1093" 
d="M563 1120q0 -33 27.5 -62.5t72 -54t98 -50.5t107 -60t98 -75.5t72 -103t27.5 -136.5q0 -126 -72 -220.5t-192 -150.5q55 -77 55 -187q0 -43 -8.5 -82t-27 -79t-52 -72.5t-79.5 -58.5t-113.5 -40t-149.5 -14q-237 0 -416 129l150 220q124 -89 270 -89q141 0 141 86
q0 34 -27.5 65t-71.5 57t-97 53.5t-106.5 63t-97.5 78.5t-71.5 106t-27.5 139q0 125 70.5 214t189.5 142q-56 80 -56 182q0 68 23 127t72 109t135.5 79t202.5 29q241 0 419 -125l-161 -223q-120 88 -265 88q-74 0 -106.5 -23.5t-32.5 -60.5zM356 588q0 -26 11 -50
t24.5 -40.5t43.5 -37.5t49 -32t61 -33.5t61 -32.5q170 79 170 189q0 22 -6 41.5t-21.5 38t-28.5 31.5t-41 31t-44 27.5t-52 29t-51 28.5q-176 -79 -176 -190z" />
    <glyph glyph-name="dieresis" unicode="&#xa8;" horiz-adv-x="841" 
d="M645 1434l-59 -297h-236l58 297h237zM1042 1434l-57 -297h-237l57 297h237z" />
    <glyph glyph-name="copyright" unicode="&#xa9;" horiz-adv-x="1742" 
d="M918 1464q157 0 296 -56t239.5 -154t159 -238.5t58.5 -302.5q0 -159 -58 -298t-158.5 -236.5t-239.5 -153.5t-297 -56q-210 0 -382 95.5t-271 268t-99 388.5q0 212 99 382.5t271 265.5t382 95zM918 1315q-123 0 -232.5 -44.5t-189 -122t-126 -188.5t-46.5 -239
q0 -175 79.5 -313.5t215.5 -213.5t301 -75t299.5 74.5t213 211t78.5 308.5q0 174 -79 312.5t-214 214t-300 75.5zM934 1190q167 0 311 -98l-92 -177q-42 24 -63.5 35t-68.5 25t-91 14q-117 0 -189.5 -73t-72.5 -189q0 -118 73 -192t189 -74q44 0 91 14t68.5 25t63.5 35
l92 -177q-146 -98 -311 -98q-206 0 -344.5 134t-138.5 333q0 197 137 330t346 133z" />
    <glyph glyph-name="ordfeminine" unicode="&#xaa;" horiz-adv-x="831" 
d="M381 692q-97 0 -155 56t-58 145q0 90 64 155.5t180 65.5q71 0 132 -26.5t97 -77.5l6 2q-5 7 -2 32q4 32 4 54q0 45 -26 64.5t-88 19.5t-191 -21l-31 172q169 27 279 27q137 0 207.5 -47.5t70.5 -159.5q0 -51 -10 -100l-67 -340h-236q7 41 47 98l-6 4q-50 -62 -97 -92.5
t-120 -30.5zM510 850q39 0 61.5 21.5t22.5 54.5q0 31 -20 47t-54 16q-39 0 -61.5 -21.5t-22.5 -54.5q0 -30 20.5 -46.5t53.5 -16.5z" />
    <glyph glyph-name="guillemotleft" unicode="&#xab;" horiz-adv-x="1056" 
d="M1130 858l-2 -8l-243 -260q-78 -84 -106.5 -111.5t-49.5 -38.5v-8q13 -9 27.5 -32.5t68.5 -118.5l119 -209l-2 -9h-274l-217 396l372 397zM700 858l-2 -8l-243 -260q-78 -84 -106.5 -111.5t-49.5 -38.5v-8q13 -9 27.5 -32.5t68.5 -118.5l117 -209l-2 -9h-272l-218 396
l373 397z" />
    <glyph glyph-name="logicalnot" unicode="&#xac;" 
d="M174 885h936v-129v-414h-125v414h-811v129z" />
    <glyph glyph-name="uni00AD" unicode="&#xad;" horiz-adv-x="815" 
d="M782 682l-55 -276h-668l56 276h667z" />
    <glyph glyph-name="registered" unicode="&#xae;" horiz-adv-x="1212" 
d="M702 1464q213 0 353.5 -140t140.5 -355q0 -211 -140.5 -351.5t-353.5 -140.5q-139 0 -251.5 63.5t-177 177.5t-64.5 255q0 210 140.5 350.5t352.5 140.5zM705 1343q-162 0 -265.5 -105.5t-103.5 -264.5q0 -163 102.5 -270t263.5 -107q162 0 265.5 106.5t103.5 266.5
q0 162 -102 268t-264 106zM737 1251q68 0 114 -42.5t46 -106.5q0 -62 -41.5 -108t-99.5 -46l2 -6q33 -17 55 -41l131 -156v-10h-129l-168 209h-6l2 -209h-113v516h207zM733 1153h-90v-113h90q27 0 42.5 17t15.5 39q0 24 -15.5 40.5t-42.5 16.5z" />
    <glyph glyph-name="macron" unicode="&#xaf;" horiz-adv-x="837" 
d="M1038 1384l-37 -198h-632l39 198h630z" />
    <glyph glyph-name="degree" unicode="&#xb0;" horiz-adv-x="980" 
d="M514 1413q130 0 214.5 -84t84.5 -215q0 -129 -85 -212t-216 -83q-129 0 -214 83.5t-85 215.5q0 127 86 211t215 84zM512 1278q-67 0 -113.5 -45.5t-46.5 -114.5q0 -73 46.5 -118.5t113.5 -45.5q70 0 117 45t47 115q0 74 -47 119t-117 45z" />
    <glyph glyph-name="plusminus" unicode="&#xb1;" 
d="M686 1069l2 -262h420l-2 -135h-420l2 -262h-139l-2 262h-420l2 135h420l-2 262h139zM1108 313l-2 -129h-979l2 129h979z" />
    <glyph glyph-name="uni00B2" unicode="&#xb2;" horiz-adv-x="856" 
d="M66 713l-7 14l437 442q108 113 127 137q26 34 26 56q0 37 -61 37q-43 0 -109.5 -18.5t-132.5 -49.5l-88 219q110 47 203.5 71t195.5 24q56 0 102 -10.5t85.5 -33.5t61.5 -65.5t22 -101.5q0 -42 -10.5 -77t-40 -76t-54 -68.5t-80.5 -85.5q-15 -15 -22 -23l-94 -98
q-51 -51 -84 -70l4 -6q63 18 176 18h180v-4l-180 -231h-657z" />
    <glyph glyph-name="uni00B3" unicode="&#xb3;" horiz-adv-x="845" 
d="M481 692q-80 0 -173 16.5t-163 47.5l109 237q104 -51 217 -51q143 0 143 74q0 40 -50.5 59t-168.5 19l37 190q191 0 191 78q0 47 -82 47q-89 0 -199 -49l-84 213q188 72 352 72q129 0 210 -51t81 -158q0 -138 -153 -199q-41 -17 -82 -23l-2 -6q35 0 75 -12
q62 -19 96.5 -70.5t34.5 -126.5q0 -130 -99 -218.5t-290 -88.5z" />
    <glyph glyph-name="acute" unicode="&#xb4;" horiz-adv-x="761" 
d="M823 1448v-8l-403 -307h-215v8l291 307h327z" />
    <glyph glyph-name="uni00B5" unicode="&#xb5;" horiz-adv-x="1169" 
d="M846 946h311l-184 -946h-301q16 91 78 219l-11 2q-77 -131 -166.5 -191.5t-207.5 -60.5q-35 0 -70 6l-74 -385h-299l201 1024h8l66 332h315l-90 -454q-12 -59 -12 -101q0 -141 135 -141q168 0 211 229z" />
    <glyph glyph-name="paragraph" unicode="&#xb6;" horiz-adv-x="1368" 
d="M1452 1434l-45 -228h-133l-277 -1423h-219l277 1423h-185l-276 -1423h-219l166 852q-139 0 -233.5 95.5t-94.5 262.5q0 191 134 316t370 125h735z" />
    <glyph glyph-name="periodcentered" unicode="&#xb7;" horiz-adv-x="546" 
d="M125 584l70 362h342l-70 -362h-342z" />
    <glyph glyph-name="cedilla" unicode="&#xb8;" horiz-adv-x="622" 
d="M307 70l-84 -142q164 -25 164 -125q0 -24 -7 -45.5t-23 -40.5t-33 -35t-46 -32t-52 -27.5t-61.5 -26.5t-64 -24.5t-70 -25.5t-69.5 -25l-24 96q111 50 151.5 76.5t40.5 52.5q0 41 -90 57l149 267h119z" />
    <glyph glyph-name="uni00B9" unicode="&#xb9;" horiz-adv-x="618" 
d="M272 713l86 446q9 53 31 90l-6 2q-20 -22 -51 -34l-133 -54l49 254l201 123l51 84h207l-179 -911h-256z" />
    <glyph glyph-name="ordmasculine" unicode="&#xba;" horiz-adv-x="888" 
d="M535 692q-154 0 -244 84.5t-90 220.5q0 153 107 258t282 105q153 0 243.5 -85t90.5 -220q0 -153 -107 -258t-282 -105zM549 899q70 0 109.5 41t39.5 100q0 54 -34.5 83.5t-90.5 29.5q-70 0 -109.5 -41t-39.5 -100q0 -54 34.5 -83.5t90.5 -29.5z" />
    <glyph glyph-name="guillemotright" unicode="&#xbb;" horiz-adv-x="1056" 
d="M-78 63l2 9l244 260q76 83 105.5 110.5t50.5 38.5v8q-13 9 -28.5 34t-68.5 118l-118 209l2 8h274l217 -395l-373 -397zM352 63l2 9l244 260q76 83 105.5 110.5t50.5 38.5v8q-13 9 -28.5 34t-68.5 118l-116 209l2 8h272l217 -395l-373 -397z" />
    <glyph glyph-name="onequarter" unicode="&#xbc;" horiz-adv-x="1525" 
d="M154 0l1034 1382h160l-1035 -1382h-159zM299 592l90 467q9 53 27 92l-4 2q-19 -23 -50 -33l-118 -43l26 135l179 95l36 75h109l-154 -790h-141zM1100 0l22 115q1 8 4.5 18.5t3.5 11.5l3 5q-11 -7 -29 -7h-365l23 115l498 533h133l-95 -484q-1 -4 -2.5 -9.5t-2 -8.5t-2 -6
t-3.5 -4l2 -5q10 7 27 7h119l-70 -138h-74q-16 0 -26 7l-2 -5q2 -4 -2 -28l-23 -117h-139zM909 268q26 13 84 13h137q18 0 25 -7l2 5l4 28l39 199q13 67 27 110h-2q-16 -31 -64 -84l-190 -204q-44 -44 -64 -58z" />
    <glyph glyph-name="onehalf" unicode="&#xbd;" horiz-adv-x="1540" 
d="M154 0l1034 1382h160l-1035 -1382h-159zM299 592l90 467q9 53 27 92l-4 2q-19 -23 -50 -33l-118 -43l26 135l179 95l36 75h109l-154 -790h-141zM776 0l-2 6l420 424q36 36 54.5 56.5t35 51t16.5 58.5q0 37 -25.5 58.5t-68.5 21.5q-80 0 -215 -64l-51 123q151 74 293 74
q97 0 158 -46.5t61 -141.5q0 -16 -2.5 -32.5t-5 -29t-11 -29t-12 -25t-17 -26t-17.5 -24t-21.5 -25.5t-21.5 -23.5t-25 -26.5t-25 -26l-149 -151q-60 -57 -90 -76v-4q54 12 135 12h211v-2l-103 -133h-522z" />
    <glyph glyph-name="threequarters" unicode="&#xbe;" horiz-adv-x="1652" 
d="M395 573q-135 0 -258 58l64 129q100 -49 194 -49q180 0 180 118q0 63 -53 93t-168 30l25 127q99 0 158 29t59 84q0 74 -104 74q-86 0 -193 -47l-47 122q131 60 266 60q108 0 170 -43.5t62 -128.5q0 -82 -58.5 -135.5t-159.5 -67.5l-2 -4q85 -5 138 -56t53 -139
q0 -107 -83.5 -180.5t-242.5 -73.5zM281 0l1034 1382h160l-1035 -1382h-159zM1227 0l22 115q1 8 4.5 18.5t3.5 11.5l3 5q-10 -7 -29 -7h-365l23 115l497 533h134l-95 -484q-1 -4 -2.5 -9.5t-2 -8.5t-2 -6t-3.5 -4l2 -5q11 7 27 7h119l-70 -138h-74q-15 0 -26 7l-2 -5
q2 -4 -2 -28l-23 -117h-139zM1036 268q26 13 84 13h137q18 0 25 -7l2 5l4 28l39 199q13 67 27 110h-2q-16 -31 -64 -84l-190 -204q-44 -44 -64 -58z" />
    <glyph glyph-name="questiondown" unicode="&#xbf;" horiz-adv-x="731" 
d="M633 1020l-70 -363h-342l70 363h342zM201 -444q-157 0 -240.5 59.5t-83.5 171.5q0 70 36 130t128 146l113 101q71 65 71 106q0 45 -86 92l144 213q138 -63 198 -130t60 -158q0 -63 -32.5 -120t-105.5 -120l-86 -72q-60 -54 -81 -79t-21 -43q0 -37 74 -37q71 0 233 49
l60 -236q-208 -73 -381 -73z" />
    <glyph glyph-name="Agrave" unicode="&#xc0;" horiz-adv-x="1480" 
d="M868 1749l187 -217l-4 -8h-215l-297 217l4 8h325zM-90 0l991 1460h66l419 -1460h-327l-80 299h-506l-197 -299h-366zM590 524q34 11 96 11h170q62 0 90 -11l4 2q-29 41 -39 97l-41 188q-19 93 -12 147h-8q-10 -41 -72 -147l-112 -188q-36 -63 -76 -97v-2z" />
    <glyph glyph-name="Aacute" unicode="&#xc1;" horiz-adv-x="1480" 
d="M1436 1749v-8l-385 -217h-213v8l270 217h328zM-90 0l991 1460h66l419 -1460h-327l-80 299h-506l-197 -299h-366zM590 524q34 11 96 11h170q62 0 90 -11l4 2q-29 41 -39 97l-41 188q-19 93 -12 147h-8q-10 -41 -72 -147l-112 -188q-36 -63 -76 -97v-2z" />
    <glyph glyph-name="Acircumflex" unicode="&#xc2;" horiz-adv-x="1480" 
d="M557 1524l2 6l285 239h297l192 -239l-2 -6h-266l-47 57q-41 51 -41 88h-6q-21 -44 -74 -88l-72 -57h-268zM-90 0l991 1460h66l419 -1460h-327l-80 299h-506l-197 -299h-366zM590 524q34 11 96 11h170q62 0 90 -11l4 2q-29 41 -39 97l-41 188q-19 93 -12 147h-8
q-10 -41 -72 -147l-112 -188q-36 -63 -76 -97v-2z" />
    <glyph glyph-name="Atilde" unicode="&#xc3;" horiz-adv-x="1480" 
d="M1139 1493q-64 0 -179 47t-165 47q-38 0 -67.5 -18.5t-63.5 -59.5l-91 31q52 113 120 179.5t161 66.5q64 0 179 -47t165 -47q39 0 67.5 18.5t63.5 61.5l90 -33q-53 -114 -119.5 -180t-160.5 -66zM-90 0l991 1460h66l419 -1460h-327l-80 299h-506l-197 -299h-366zM590 524
q34 11 96 11h170q62 0 90 -11l4 2q-29 41 -39 97l-41 188q-19 93 -12 147h-8q-10 -41 -72 -147l-112 -188q-36 -63 -76 -97v-2z" />
    <glyph glyph-name="Adieresis" unicode="&#xc4;" horiz-adv-x="1480" 
d="M670 1778h235l-49 -254h-235zM1081 1778h238l-49 -254h-238zM-90 0l991 1460h66l419 -1460h-327l-80 299h-506l-197 -299h-366zM590 524q34 11 96 11h170q62 0 90 -11l4 2q-29 41 -39 97l-41 188q-19 93 -12 147h-8q-10 -41 -72 -147l-112 -188q-36 -63 -76 -97v-2z" />
    <glyph glyph-name="Aring" unicode="&#xc5;" horiz-adv-x="1480" 
d="M999 1348l387 -1348h-327l-80 299h-506l-197 -299h-366l917 1354q-60 22 -94.5 72.5t-34.5 119.5q0 111 77.5 191t199.5 80q100 0 160.5 -58t60.5 -151t-53 -165t-144 -95zM963 1692q-64 0 -99 -42.5t-35 -93.5q0 -40 24 -66.5t69 -29.5h20q60 4 91.5 45t31.5 90
q0 43 -25.5 70t-76.5 27zM946 524l4 2q-29 41 -39 97l-41 188q-19 93 -12 147h-8q-10 -41 -72 -147l-112 -188q-36 -63 -76 -97v-2q34 11 96 11h170q62 0 90 -11z" />
    <glyph glyph-name="AE" unicode="&#xc6;" horiz-adv-x="1900" 
d="M1554 1151q-36 0 -53 10l-4 -4q4 -22 -4 -63l-27 -142q-11 -51 -20 -63l2 -4q20 10 57 10h412l-53 -279h-412q-37 0 -55 11l-4 -4q6 -15 -4 -64l-41 -219q-10 -48 -23 -64l4 -4q18 11 60 11h473l-56 -283h-815l47 242q10 50 21 63l-2 4q-20 -10 -58 -10h-458l-250 -299
h-381l1231 1434h934l-56 -283h-465zM1106 592l80 407q20 103 45 160h-6q-48 -85 -107 -155l-327 -400q-38 -49 -95 -82l2 -4q67 17 129 17h217q38 0 56 -11l4 4q-7 19 2 64z" />
    <glyph glyph-name="Ccedilla" unicode="&#xc7;" horiz-adv-x="1441" 
d="M1329 111q-239 -133 -473 -142l-25 -41q164 -25 164 -125q0 -24 -7 -45.5t-23 -40.5t-33 -35t-46 -32t-52 -27.5t-61.5 -26.5t-64 -24.5t-70 -25.5t-69.5 -25l-24 96q111 50 151.5 76.5t40.5 52.5q0 41 -90 57l94 170q-288 25 -460 212.5t-172 480.5q0 174 63 322.5
t175 253t271 163.5t345 59q322 0 544 -153l-186 -260q-165 108 -365 108q-230 0 -372 -133.5t-142 -349.5q0 -181 108.5 -291.5t285.5 -110.5q172 0 360 107z" />
    <glyph glyph-name="Egrave" unicode="&#xc8;" horiz-adv-x="1114" 
d="M743 1747l187 -217l-4 -8h-215l-297 217l4 8h325zM1210 1434l-55 -283h-520q-38 0 -55 10l-5 -4q7 -19 -2 -61l-26 -144q-10 -46 -23 -63l2 -4q20 10 60 10h465l-56 -279h-465q-38 0 -53 11l-4 -4q5 -13 -2 -62l-45 -223q-6 -41 -23 -62l5 -4q22 11 59 11h528l-55 -283
h-897l279 1434h888z" />
    <glyph glyph-name="Eacute" unicode="&#xc9;" horiz-adv-x="1114" 
d="M1311 1747v-8l-385 -217h-213v8l270 217h328zM1210 1434l-55 -283h-520q-38 0 -55 10l-5 -4q7 -19 -2 -61l-26 -144q-10 -46 -23 -63l2 -4q20 10 60 10h465l-56 -279h-465q-38 0 -53 11l-4 -4q5 -13 -2 -62l-45 -223q-6 -41 -23 -62l5 -4q22 11 59 11h528l-55 -283h-897
l279 1434h888z" />
    <glyph glyph-name="Ecircumflex" unicode="&#xca;" horiz-adv-x="1114" 
d="M432 1522l2 6l285 239h297l192 -239l-2 -6h-266l-47 57q-41 51 -41 88h-6q-21 -44 -74 -88l-72 -57h-268zM1210 1434l-55 -283h-520q-38 0 -55 10l-5 -4q7 -19 -2 -61l-26 -144q-10 -46 -23 -63l2 -4q20 10 60 10h465l-56 -279h-465q-38 0 -53 11l-4 -4q5 -13 -2 -62
l-45 -223q-6 -41 -23 -62l5 -4q22 11 59 11h528l-55 -283h-897l279 1434h888z" />
    <glyph glyph-name="Edieresis" unicode="&#xcb;" horiz-adv-x="1114" 
d="M545 1776h235l-49 -254h-235zM956 1776h238l-49 -254h-238zM1210 1434l-55 -283h-520q-38 0 -55 10l-5 -4q7 -19 -2 -61l-26 -144q-10 -46 -23 -63l2 -4q20 10 60 10h465l-56 -279h-465q-38 0 -53 11l-4 -4q5 -13 -2 -62l-45 -223q-6 -41 -23 -62l5 -4q22 11 59 11h528
l-55 -283h-897l279 1434h888z" />
    <glyph glyph-name="Igrave" unicode="&#xcc;" horiz-adv-x="577" 
d="M416 1747l186 -217l-4 -8h-215l-297 217l4 8h326zM631 1434l-279 -1434h-309l279 1434h309z" />
    <glyph glyph-name="Iacute" unicode="&#xcd;" horiz-adv-x="577" 
d="M983 1747v-8l-385 -217h-213v8l270 217h328zM631 1434l-279 -1434h-309l279 1434h309z" />
    <glyph glyph-name="Icircumflex" unicode="&#xce;" horiz-adv-x="577" 
d="M104 1522l2 6l285 239h297l193 -239l-2 -6h-267l-47 57q-41 51 -41 88h-6q-21 -44 -74 -88l-71 -57h-269zM631 1434l-279 -1434h-309l279 1434h309z" />
    <glyph glyph-name="Idieresis" unicode="&#xcf;" horiz-adv-x="577" 
d="M217 1776h236l-50 -254h-235zM629 1776h237l-49 -254h-237zM631 1434l-279 -1434h-309l279 1434h309z" />
    <glyph glyph-name="Eth" unicode="&#xd0;" horiz-adv-x="1533" 
d="M840 1434q145 0 269.5 -43t218 -123t147 -205t53.5 -279q0 -230 -112.5 -408.5t-314 -277t-458.5 -98.5h-508l105 539q6 40 22 61l-4 4q-20 -10 -59 -10h-176l51 256h176q35 0 55 -10l4 4q-7 18 2 63l17 90l86 437h426zM664 283q147 0 267.5 61t191.5 176t71 262
q0 177 -100 273t-269 96h-98q-38 0 -55 10l-4 -4q7 -18 -2 -63l-21 -97l-16 -90q-10 -46 -23 -63l4 -4q17 10 60 10h248l-52 -256h-248q-40 0 -53 10l-6 -4q5 -12 -2 -61l-39 -199q-10 -49 -22 -64l4 -4q22 11 59 11h105z" />
    <glyph glyph-name="Ntilde" unicode="&#xd1;" horiz-adv-x="1478" 
d="M1118 1491q-64 0 -179 47t-165 47q-38 0 -67.5 -18.5t-63.5 -59.5l-90 31q52 113 120 179.5t161 66.5q64 0 179 -47t165 -47q39 0 68 18.5t63 60.5l90 -32q-53 -113 -119.5 -179.5t-161.5 -66.5zM393 1454l604 -741q30 -37 44.5 -63.5t27.5 -65.5l8 2q-12 71 23 252
l117 596h313l-283 -1454h-69l-603 741q-47 58 -71 129l-6 -2q9 -74 -25 -252l-117 -596h-313l283 1454h67z" />
    <glyph glyph-name="Ograve" unicode="&#xd2;" horiz-adv-x="1656" 
d="M907 1747l187 -217l-4 -8h-216l-296 217l4 8h325zM815 -31q-321 0 -516 186.5t-195 493.5q0 173 63.5 324t173.5 259t264.5 170t330.5 62q321 0 516 -186.5t195 -493.5q0 -173 -63.5 -324t-173.5 -259t-264.5 -170t-330.5 -62zM834 276q209 0 343 141.5t134 358.5
q0 177 -105.5 279t-287.5 102q-209 0 -343.5 -141t-134.5 -359q0 -177 106 -279t288 -102z" />
    <glyph glyph-name="Oacute" unicode="&#xd3;" horiz-adv-x="1656" 
d="M1475 1747v-8l-385 -217h-213v8l270 217h328zM815 -31q-321 0 -516 186.5t-195 493.5q0 173 63.5 324t173.5 259t264.5 170t330.5 62q321 0 516 -186.5t195 -493.5q0 -173 -63.5 -324t-173.5 -259t-264.5 -170t-330.5 -62zM834 276q209 0 343 141.5t134 358.5
q0 177 -105.5 279t-287.5 102q-209 0 -343.5 -141t-134.5 -359q0 -177 106 -279t288 -102z" />
    <glyph glyph-name="Ocircumflex" unicode="&#xd4;" horiz-adv-x="1656" 
d="M596 1522l2 6l285 239h297l192 -239l-2 -6h-266l-47 57q-41 51 -41 88h-6q-21 -44 -74 -88l-72 -57h-268zM815 -31q-321 0 -516 186.5t-195 493.5q0 173 63.5 324t173.5 259t264.5 170t330.5 62q321 0 516 -186.5t195 -493.5q0 -173 -63.5 -324t-173.5 -259t-264.5 -170
t-330.5 -62zM834 276q209 0 343 141.5t134 358.5q0 177 -105.5 279t-287.5 102q-209 0 -343.5 -141t-134.5 -359q0 -177 106 -279t288 -102z" />
    <glyph glyph-name="Otilde" unicode="&#xd5;" horiz-adv-x="1656" 
d="M1180 1491q-64 0 -179 47t-165 47q-38 0 -67.5 -18.5t-63.5 -59.5l-91 31q52 113 120 179.5t161 66.5q64 0 179 -47t165 -47q39 0 68 18.5t63 60.5l90 -32q-53 -114 -119.5 -180t-160.5 -66zM815 -31q-321 0 -516 186.5t-195 493.5q0 173 63.5 324t173.5 259t264.5 170
t330.5 62q321 0 516 -186.5t195 -493.5q0 -173 -63.5 -324t-173.5 -259t-264.5 -170t-330.5 -62zM834 276q209 0 343 141.5t134 358.5q0 177 -105.5 279t-287.5 102q-209 0 -343.5 -141t-134.5 -359q0 -177 106 -279t288 -102z" />
    <glyph glyph-name="Odieresis" unicode="&#xd6;" horiz-adv-x="1656" 
d="M709 1776h235l-49 -254h-236zM1120 1776h238l-49 -254h-238zM815 -31q-321 0 -516 186.5t-195 493.5q0 173 63.5 324t173.5 259t264.5 170t330.5 62q321 0 516 -186.5t195 -493.5q0 -173 -63.5 -324t-173.5 -259t-264.5 -170t-330.5 -62zM834 276q209 0 343 141.5
t134 358.5q0 177 -105.5 279t-287.5 102q-209 0 -343.5 -141t-134.5 -359q0 -177 106 -279t288 -102z" />
    <glyph glyph-name="multiply" unicode="&#xd7;" 
d="M999 1065l97 -96l-357 -359l357 -358l-97 -96l-358 356l-358 -356l-97 96l357 358l-357 359l97 96l358 -356z" />
    <glyph glyph-name="Oslash" unicode="&#xd8;" horiz-adv-x="1656" 
d="M1458 1272q189 -186 189 -488q0 -173 -63.5 -324t-173.5 -259t-264.5 -170t-330.5 -62q-274 0 -459 140l-129 -138l-73 68l127 135q-177 183 -177 475q0 173 63.5 324t173.5 259t264.5 170t330.5 62q264 0 444 -129l125 133l74 -67zM440 657q0 -146 72 -239l641 678
q-91 61 -235 61q-209 0 -343.5 -141t-134.5 -359zM834 276q209 0 343 141.5t134 358.5q0 152 -82 254l-645 -682q101 -72 250 -72z" />
    <glyph glyph-name="Ugrave" unicode="&#xd9;" horiz-adv-x="1464" 
d="M858 1747l186 -217l-4 -8h-215l-297 217l4 8h326zM678 -27q-261 0 -401 124.5t-140 357.5q0 77 19 174l155 805h330l-152 -789q-12 -61 -12 -113q0 -120 59.5 -183.5t172.5 -63.5q126 0 212 84.5t115 238.5l160 826h332l-166 -854q-120 -607 -684 -607z" />
    <glyph glyph-name="Uacute" unicode="&#xda;" horiz-adv-x="1464" 
d="M1423 1747v-8l-385 -217h-213v8l271 217h327zM678 -27q-261 0 -401 124.5t-140 357.5q0 77 19 174l155 805h330l-152 -789q-12 -61 -12 -113q0 -120 59.5 -183.5t172.5 -63.5q126 0 212 84.5t115 238.5l160 826h332l-166 -854q-120 -607 -684 -607z" />
    <glyph glyph-name="Ucircumflex" unicode="&#xdb;" horiz-adv-x="1464" 
d="M547 1522l2 6l285 239h296l193 -239l-2 -6h-266l-47 57q-41 51 -41 88h-6q-21 -44 -74 -88l-72 -57h-268zM678 -27q-261 0 -401 124.5t-140 357.5q0 77 19 174l155 805h330l-152 -789q-12 -61 -12 -113q0 -120 59.5 -183.5t172.5 -63.5q126 0 212 84.5t115 238.5l160 826
h332l-166 -854q-120 -607 -684 -607z" />
    <glyph glyph-name="Udieresis" unicode="&#xdc;" horiz-adv-x="1464" 
d="M657 1776h236l-49 -254h-236zM1069 1776h238l-50 -254h-237zM678 -27q-261 0 -401 124.5t-140 357.5q0 77 19 174l155 805h330l-152 -789q-12 -61 -12 -113q0 -120 59.5 -183.5t172.5 -63.5q126 0 212 84.5t115 238.5l160 826h332l-166 -854q-120 -607 -684 -607z" />
    <glyph glyph-name="Yacute" unicode="&#xdd;" horiz-adv-x="1355" 
d="M1346 1747v-8l-385 -217h-213v8l270 217h328zM1542 1434l-698 -926l-99 -508h-317l98 508l-340 926h355l131 -465q23 -77 30 -112t7 -81h8q13 32 29.5 62.5t30 51t52.5 79.5l312 465h401z" />
    <glyph glyph-name="Thorn" unicode="&#xde;" horiz-adv-x="1241" 
d="M43 0l279 1434h315l-37 -199q-6 -47 -20 -64l4 -4q18 11 57 11h121q225 0 354 -103t129 -305q0 -217 -150 -348t-427 -131h-199q-38 0 -55 10l-4 -4q7 -18 -2 -61l-46 -236h-319zM465 553q17 10 57 10h168q59 0 103.5 16.5t69 44.5t36.5 61t12 69q0 80 -50 115.5
t-132 35.5h-139q-42 0 -55 10l-7 -4q7 -17 -2 -61l-45 -229q-9 -45 -20 -64z" />
    <glyph glyph-name="germandbls" unicode="&#xdf;" horiz-adv-x="1253" 
d="M848 813q174 -23 258 -107.5t84 -238.5q0 -223 -158.5 -350t-435.5 -127h-184l53 268h104q160 0 237 54t77 169q0 108 -70 157.5t-223 49.5l43 232q119 0 184.5 45t65.5 127q0 58 -37.5 89t-108.5 31q-173 0 -213 -202l-248 -1276h-309l250 1315q37 195 181.5 305
t365.5 110q203 0 317.5 -86t114.5 -241q0 -138 -88.5 -218.5t-257.5 -99.5z" />
    <glyph glyph-name="agrave" unicode="&#xe0;" horiz-adv-x="1095" 
d="M668 1448l170 -307l-4 -8h-213l-285 307l4 8h328zM338 -31q-152 0 -243 87t-91 233q0 155 100 247.5t269 92.5q127 0 215 -55t125 -156l8 2q-6 61 -2 88q10 72 10 102q0 66 -39.5 92.5t-136.5 26.5q-126 0 -293 -29l-35 240q231 37 412 37q212 0 302.5 -72t84.5 -235
q0 -46 -18 -154l-97 -516h-309q17 90 70 170l-11 6q-66 -111 -140 -159t-181 -48zM477 201q60 0 98.5 35.5t38.5 89.5q0 51 -38.5 83.5t-98.5 32.5t-97.5 -34.5t-37.5 -90.5q0 -52 37.5 -84t97.5 -32z" />
    <glyph glyph-name="aacute" unicode="&#xe1;" horiz-adv-x="1095" 
d="M1124 1448v-8l-403 -307h-213v8l289 307h327zM338 -31q-152 0 -243 87t-91 233q0 155 100 247.5t269 92.5q127 0 215 -55t125 -156l8 2q-6 61 -2 88q10 72 10 102q0 66 -39.5 92.5t-136.5 26.5q-126 0 -293 -29l-35 240q231 37 412 37q212 0 302.5 -72t84.5 -235
q0 -46 -18 -154l-97 -516h-309q17 90 70 170l-11 6q-66 -111 -140 -159t-181 -48zM477 201q60 0 98.5 35.5t38.5 89.5q0 51 -38.5 83.5t-98.5 32.5t-97.5 -34.5t-37.5 -90.5q0 -52 37.5 -84t97.5 -32z" />
    <glyph glyph-name="acircumflex" unicode="&#xe2;" horiz-adv-x="1095" 
d="M879 1448l178 -305l-2 -10h-232l-51 88q-28 42 -36 70.5t-5 68.5h-6q-12 -39 -31 -67t-63 -72l-86 -88h-260l2 10l297 305h295zM338 -31q-152 0 -243 87t-91 233q0 155 100 247.5t269 92.5q127 0 215 -55t125 -156l8 2q-6 61 -2 88q10 72 10 102q0 66 -39.5 92.5
t-136.5 26.5q-126 0 -293 -29l-35 240q231 37 412 37q212 0 302.5 -72t84.5 -235q0 -46 -18 -154l-97 -516h-309q17 90 70 170l-11 6q-66 -111 -140 -159t-181 -48zM477 201q60 0 98.5 35.5t38.5 89.5q0 51 -38.5 83.5t-98.5 32.5t-97.5 -34.5t-37.5 -90.5q0 -52 37.5 -84
t97.5 -32z" />
    <glyph glyph-name="atilde" unicode="&#xe3;" horiz-adv-x="1095" 
d="M881 1118q-47 0 -99.5 17.5t-89.5 39t-80 39t-75 17.5q-64 0 -129 -94l-109 39q38 85 76 141.5t93 93.5t120 37q47 0 99.5 -17.5t90 -39t80.5 -39t74 -17.5q66 0 129 95l108 -39q-59 -131 -126.5 -202t-161.5 -71zM338 -31q-152 0 -243 87t-91 233q0 155 100 247.5
t269 92.5q127 0 215 -55t125 -156l8 2q-6 61 -2 88q10 72 10 102q0 66 -39.5 92.5t-136.5 26.5q-126 0 -293 -29l-35 240q231 37 412 37q212 0 302.5 -72t84.5 -235q0 -46 -18 -154l-97 -516h-309q17 90 70 170l-11 6q-66 -111 -140 -159t-181 -48zM477 201q60 0 98.5 35.5
t38.5 89.5q0 51 -38.5 83.5t-98.5 32.5t-97.5 -34.5t-37.5 -90.5q0 -52 37.5 -84t97.5 -32z" />
    <glyph glyph-name="adieresis" unicode="&#xe4;" horiz-adv-x="1095" 
d="M649 1434l-57 -297h-238l60 297h235zM1049 1434l-60 -297h-235l57 297h238zM338 -31q-152 0 -243 87t-91 233q0 155 100 247.5t269 92.5q127 0 215 -55t125 -156l8 2q-6 61 -2 88q10 72 10 102q0 66 -39.5 92.5t-136.5 26.5q-126 0 -293 -29l-35 240q231 37 412 37
q212 0 302.5 -72t84.5 -235q0 -46 -18 -154l-97 -516h-309q17 90 70 170l-11 6q-66 -111 -140 -159t-181 -48zM477 201q60 0 98.5 35.5t38.5 89.5q0 51 -38.5 83.5t-98.5 32.5t-97.5 -34.5t-37.5 -90.5q0 -52 37.5 -84t97.5 -32z" />
    <glyph glyph-name="aring" unicode="&#xe5;" horiz-adv-x="1095" 
d="M727 1530q100 0 161.5 -58.5t61.5 -152.5q0 -110 -76 -189t-198 -79q-101 0 -162 58.5t-61 152.5q0 110 75.5 189t198.5 79zM717 1405q-64 0 -98.5 -41t-34.5 -92q0 -42 26 -69t76 -27q64 0 98.5 41t34.5 92q0 42 -26 69t-76 27zM338 -31q-152 0 -243 87t-91 233
q0 155 100 247.5t269 92.5q127 0 215 -55t125 -156l8 2q-6 61 -2 88q10 72 10 102q0 66 -39.5 92.5t-136.5 26.5q-126 0 -293 -29l-35 240q231 37 412 37q212 0 302.5 -72t84.5 -235q0 -46 -18 -154l-97 -516h-309q17 90 70 170l-11 6q-66 -111 -140 -159t-181 -48zM477 201
q60 0 98.5 35.5t38.5 89.5q0 51 -38.5 83.5t-98.5 32.5t-97.5 -34.5t-37.5 -90.5q0 -52 37.5 -84t97.5 -32z" />
    <glyph glyph-name="ae" unicode="&#xe6;" horiz-adv-x="1761" 
d="M1227 -31q-152 0 -256 59t-154 171h-2q-67 -107 -178.5 -168.5t-259.5 -61.5q-174 0 -273.5 84.5t-99.5 235.5q0 152 97.5 246t271.5 94q76 0 139 -18.5t118.5 -67.5t82.5 -125l8 2q-6 49 0 88q1 15 4 36.5t4.5 37t1.5 28.5q0 71 -44 95t-134 24q-129 0 -293 -29l-35 240
q215 37 379 37q272 0 307 -184h4q52 87 153 134.5t230 47.5q190 0 307 -100.5t117 -278.5q0 -84 -30 -201h-578q-43 0 -64 4.5t-40 20.5l-6 -6l4 -17v-14q2 -67 59.5 -113.5t167.5 -46.5q126 0 278 80l99 -231q-201 -103 -385 -103zM1032 563q19 19 86 19h223q59 0 74 -17
l4 4q2 10 2 31q0 154 -168 154q-175 0 -225 -185zM477 201q65 0 101 37.5t36 87.5q0 55 -39.5 85.5t-97.5 30.5q-66 0 -100.5 -37.5t-34.5 -87.5q0 -56 38.5 -86t96.5 -30z" />
    <glyph glyph-name="ccedilla" unicode="&#xe7;" horiz-adv-x="980" 
d="M874 43q-139 -71 -305 -74l-24 -41q164 -25 164 -125q0 -24 -7 -45.5t-23 -40.5t-33 -35t-46 -32t-52 -27.5t-61.5 -26.5t-64 -24.5t-70 -25.5t-69.5 -25l-25 96q112 51 152.5 77t40.5 52q0 41 -91 57l99 174q-184 28 -292 154.5t-108 317.5q0 241 155.5 384.5
t418.5 143.5q209 0 385 -111l-154 -254q-127 84 -239 84q-111 0 -179.5 -63.5t-68.5 -167.5q0 -95 60 -154t155 -59q87 0 184 51z" />
    <glyph glyph-name="egrave" unicode="&#xe8;" horiz-adv-x="1103" 
d="M696 1448l170 -307l-4 -8h-213l-284 307l4 8h327zM561 -31q-236 0 -372 121t-136 332q0 244 156.5 398.5t404.5 154.5q209 0 329 -101t120 -278q0 -74 -31 -201h-577q-45 0 -66 5t-41 20l-6 -6l4 -17v-14q3 -73 65.5 -116.5t163.5 -43.5q128 0 279 80l98 -231
q-199 -103 -391 -103zM371 563q19 19 86 19h225q58 0 80 -19l4 4q-4 10 -4 33q0 154 -168 154q-175 0 -227 -185z" />
    <glyph glyph-name="eacute" unicode="&#xe9;" horiz-adv-x="1103" 
d="M1151 1448v-8l-403 -307h-213v8l288 307h328zM561 -31q-236 0 -372 121t-136 332q0 244 156.5 398.5t404.5 154.5q209 0 329 -101t120 -278q0 -74 -31 -201h-577q-45 0 -66 5t-41 20l-6 -6l4 -17v-14q3 -73 65.5 -116.5t163.5 -43.5q128 0 279 80l98 -231
q-199 -103 -391 -103zM371 563q19 19 86 19h225q58 0 80 -19l4 4q-4 10 -4 33q0 154 -168 154q-175 0 -227 -185z" />
    <glyph glyph-name="ecircumflex" unicode="&#xea;" horiz-adv-x="1103" 
d="M905 1448l178 -305l-2 -10h-231l-51 88q-28 42 -36 70.5t-5 68.5h-6q-12 -39 -31.5 -67t-63.5 -72l-86 -88h-260l2 10l297 305h295zM561 -31q-236 0 -372 121t-136 332q0 244 156.5 398.5t404.5 154.5q209 0 329 -101t120 -278q0 -74 -31 -201h-577q-45 0 -66 5t-41 20
l-6 -6l4 -17v-14q3 -73 65.5 -116.5t163.5 -43.5q128 0 279 80l98 -231q-199 -103 -391 -103zM371 563q19 19 86 19h225q58 0 80 -19l4 4q-4 10 -4 33q0 154 -168 154q-175 0 -227 -185z" />
    <glyph glyph-name="edieresis" unicode="&#xeb;" horiz-adv-x="1103" 
d="M678 1434l-57 -297h-238l59 297h236zM1077 1434l-59 -297h-236l58 297h237zM561 -31q-236 0 -372 121t-136 332q0 244 156.5 398.5t404.5 154.5q209 0 329 -101t120 -278q0 -74 -31 -201h-577q-45 0 -66 5t-41 20l-6 -6l4 -17v-14q3 -73 65.5 -116.5t163.5 -43.5
q128 0 279 80l98 -231q-199 -103 -391 -103zM371 563q19 19 86 19h225q58 0 80 -19l4 4q-4 10 -4 33q0 154 -168 154q-175 0 -227 -185z" />
    <glyph glyph-name="igrave" unicode="&#xec;" horiz-adv-x="499" 
d="M391 1448l90 -307l-4 -8h-221l-133 307l4 8h264zM498 946l-185 -946h-309l184 946h310z" />
    <glyph glyph-name="iacute" unicode="&#xed;" horiz-adv-x="499" 
d="M733 1448v-8l-246 -307h-235v8l190 307h291zM498 946l-185 -946h-309l184 946h310z" />
    <glyph glyph-name="icircumflex" unicode="&#xee;" horiz-adv-x="499" 
d="M582 1448l94 -305l-2 -10h-213l-19 88q-14 66 -10 139h-6q-7 -27 -10.5 -39t-16 -38t-34.5 -62l-56 -88h-239l2 10l213 305h297zM498 946l-185 -946h-309l184 946h310z" />
    <glyph glyph-name="idieresis" unicode="&#xef;" horiz-adv-x="499" 
d="M397 1434l-57 -297h-238l60 297h235zM715 1434l-60 -297h-235l57 297h238zM498 946l-185 -946h-309l184 946h310z" />
    <glyph glyph-name="eth" unicode="&#xf0;" horiz-adv-x="1269" 
d="M989 1298q219 -173 219 -550q0 -182 -50 -331t-137.5 -246t-205.5 -149.5t-254 -52.5q-222 0 -363 132.5t-141 344.5q0 99 34.5 190.5t98.5 163.5t164 115t221 43q154 0 246.5 -68t116.5 -192h8q9 135 -22 232q-41 134 -156 203l-180 -136l-78 97l125 94q-115 28 -227 33
l53 243q252 -18 413 -94l152 115l78 -99zM569 254q118 0 182 74.5t64 171.5q0 96 -59.5 144t-145.5 48q-80 0 -137.5 -38t-82.5 -92t-25 -116q0 -96 59 -144t145 -48z" />
    <glyph glyph-name="ntilde" unicode="&#xf1;" horiz-adv-x="1171" 
d="M918 1118q-47 0 -99.5 17.5t-90 39t-80.5 39t-75 17.5q-64 0 -129 -94l-108 39q38 85 76 141.5t93 93.5t120 37q47 0 99.5 -17.5t90 -39t80.5 -39t74 -17.5q66 0 129 95l108 -39q-59 -131 -126.5 -202t-161.5 -71zM12 0l185 946h307l-6 -33q-14 -75 -56 -161l7 -4
q76 122 161 175.5t201 53.5q143 0 219 -79.5t76 -229.5q0 -63 -19 -146l-104 -522h-307l94 465q10 46 10 92q0 73 -38.5 111.5t-110.5 38.5q-91 0 -143 -61.5t-80 -199.5l-86 -446h-310z" />
    <glyph glyph-name="ograve" unicode="&#xf2;" horiz-adv-x="1173" 
d="M690 1448l170 -307l-4 -8h-213l-285 307l4 8h328zM549 -31q-229 0 -362.5 122.5t-133.5 334.5q0 243 160.5 397t411.5 154q229 0 362 -122.5t133 -334.5q0 -243 -160 -397t-411 -154zM565 254q107 0 176.5 71t69.5 177q0 88 -54.5 139t-148.5 51q-106 0 -176 -70.5
t-70 -177.5q0 -88 54.5 -139t148.5 -51z" />
    <glyph glyph-name="oacute" unicode="&#xf3;" horiz-adv-x="1173" 
d="M1147 1448v-8l-404 -307h-213v8l289 307h328zM549 -31q-229 0 -362.5 122.5t-133.5 334.5q0 243 160.5 397t411.5 154q229 0 362 -122.5t133 -334.5q0 -243 -160 -397t-411 -154zM565 254q107 0 176.5 71t69.5 177q0 88 -54.5 139t-148.5 51q-106 0 -176 -70.5
t-70 -177.5q0 -88 54.5 -139t148.5 -51z" />
    <glyph glyph-name="ocircumflex" unicode="&#xf4;" horiz-adv-x="1173" 
d="M901 1448l178 -305l-2 -10h-231l-51 88q-28 42 -36 70.5t-5 68.5h-6q-12 -39 -31.5 -67t-63.5 -72l-86 -88h-260l2 10l297 305h295zM549 -31q-229 0 -362.5 122.5t-133.5 334.5q0 243 160.5 397t411.5 154q229 0 362 -122.5t133 -334.5q0 -243 -160 -397t-411 -154z
M565 254q107 0 176.5 71t69.5 177q0 88 -54.5 139t-148.5 51q-106 0 -176 -70.5t-70 -177.5q0 -88 54.5 -139t148.5 -51z" />
    <glyph glyph-name="otilde" unicode="&#xf5;" horiz-adv-x="1173" 
d="M903 1118q-47 0 -99.5 17.5t-89.5 39t-80 39t-75 17.5q-64 0 -129 -94l-108 39q59 131 126.5 201.5t161.5 70.5q47 0 99.5 -17.5t90 -39t80.5 -39t74 -17.5q66 0 129 95l109 -39q-59 -131 -127 -202t-162 -71zM549 -31q-229 0 -362.5 122.5t-133.5 334.5q0 243 160.5 397
t411.5 154q229 0 362 -122.5t133 -334.5q0 -243 -160 -397t-411 -154zM565 254q107 0 176.5 71t69.5 177q0 88 -54.5 139t-148.5 51q-106 0 -176 -70.5t-70 -177.5q0 -88 54.5 -139t148.5 -51z" />
    <glyph glyph-name="odieresis" unicode="&#xf6;" horiz-adv-x="1173" 
d="M672 1434l-58 -297h-237l59 297h236zM1071 1434l-59 -297h-236l58 297h237zM549 -31q-229 0 -362.5 122.5t-133.5 334.5q0 243 160.5 397t411.5 154q229 0 362 -122.5t133 -334.5q0 -243 -160 -397t-411 -154zM565 254q107 0 176.5 71t69.5 177q0 88 -54.5 139t-148.5 51
q-106 0 -176 -70.5t-70 -177.5q0 -88 54.5 -139t148.5 -51z" />
    <glyph glyph-name="divide" unicode="&#xf7;" 
d="M737 1051v-201h-194v201h194zM1169 676v-129h-1058v129h1058zM737 373v-203h-194v203h194z" />
    <glyph glyph-name="oslash" unicode="&#xf8;" horiz-adv-x="1173" 
d="M1012 829q108 -120 108 -309q0 -243 -160 -397t-411 -154q-212 0 -346 109l-113 -107l-51 47l115 107q-101 125 -101 301q0 243 160.5 397t411.5 154q209 0 336 -100l108 100l49 -49zM362 444q0 -57 25 -102l342 320q-47 30 -121 30q-106 0 -176 -70.5t-70 -177.5z
M565 254q107 0 176.5 71t69.5 177q0 64 -31 112l-346 -323q49 -37 131 -37z" />
    <glyph glyph-name="ugrave" unicode="&#xf9;" horiz-adv-x="1159" 
d="M705 1448l169 -307l-4 -8h-213l-284 307l4 8h328zM1147 946l-184 -946h-301q16 94 77 219l-10 2q-75 -130 -165.5 -191t-209.5 -61q-136 0 -211 77.5t-75 217.5q0 70 16 158l102 524h316l-88 -454q-13 -63 -13 -101q0 -141 136 -141q164 0 211 229l90 467h309z" />
    <glyph glyph-name="uacute" unicode="&#xfa;" horiz-adv-x="1159" 
d="M1161 1448v-8l-403 -307h-213v8l289 307h327zM1147 946l-184 -946h-301q16 94 77 219l-10 2q-75 -130 -165.5 -191t-209.5 -61q-136 0 -211 77.5t-75 217.5q0 70 16 158l102 524h316l-88 -454q-13 -63 -13 -101q0 -141 136 -141q164 0 211 229l90 467h309z" />
    <glyph glyph-name="ucircumflex" unicode="&#xfb;" horiz-adv-x="1159" 
d="M915 1448l179 -305l-2 -10h-232l-51 88q-28 42 -36 70.5t-5 68.5h-6q-12 -39 -31 -67t-63 -72l-86 -88h-260l2 10l297 305h294zM1147 946l-184 -946h-301q16 94 77 219l-10 2q-75 -130 -165.5 -191t-209.5 -61q-136 0 -211 77.5t-75 217.5q0 70 16 158l102 524h316
l-88 -454q-13 -63 -13 -101q0 -141 136 -141q164 0 211 229l90 467h309z" />
    <glyph glyph-name="udieresis" unicode="&#xfc;" horiz-adv-x="1159" 
d="M686 1434l-57 -297h-238l60 297h235zM1085 1434l-59 -297h-235l57 297h237zM1147 946l-184 -946h-301q16 94 77 219l-10 2q-75 -130 -165.5 -191t-209.5 -61q-136 0 -211 77.5t-75 217.5q0 70 16 158l102 524h316l-88 -454q-13 -63 -13 -101q0 -141 136 -141
q164 0 211 229l90 467h309z" />
    <glyph glyph-name="yacute" unicode="&#xfd;" horiz-adv-x="1097" 
d="M1120 1448v-8l-403 -307h-213v8l289 307h327zM1190 946l-871 -1356h-325l328 525l-230 831h316l86 -364q24 -104 10 -240l8 2q15 73 78 180l252 422h348z" />
    <glyph glyph-name="thorn" unicode="&#xfe;" horiz-adv-x="1243" 
d="M-68 -410l359 1844h309l-84 -441q-30 -152 -80 -258l8 -4q129 246 369 246q57 0 109 -13.5t102 -45.5t86.5 -80.5t59 -124t22.5 -170.5q0 -163 -61 -293t-176 -205.5t-263 -75.5q-139 0 -227.5 65.5t-116.5 182.5l-10 -4q-3 -105 -23 -213l-79 -410h-304zM629 252
q108 0 172.5 72t64.5 172q0 95 -60 146.5t-151 51.5q-108 0 -172.5 -71.5t-64.5 -171.5q0 -96 60 -147.5t151 -51.5z" />
    <glyph glyph-name="ydieresis" unicode="&#xff;" horiz-adv-x="1097" 
d="M647 1434l-57 -297h-238l60 297h235zM1047 1434l-60 -297h-235l57 297h238zM1190 946l-871 -1356h-325l328 525l-230 831h316l86 -364q24 -104 10 -240l8 2q15 73 78 180l252 422h348z" />
    <glyph glyph-name="Amacron" unicode="&#x100;" horiz-adv-x="1480" 
d="M655 1729h664l-39 -193h-664zM-90 0l991 1460h66l419 -1460h-327l-80 299h-506l-197 -299h-366zM590 524q34 11 96 11h170q62 0 90 -11l4 2q-29 41 -39 97l-41 188q-19 93 -12 147h-8q-10 -41 -72 -147l-112 -188q-36 -63 -76 -97v-2z" />
    <glyph glyph-name="amacron" unicode="&#x101;" horiz-adv-x="1095" 
d="M1034 1384l-37 -198h-632l38 198h631zM338 -31q-152 0 -243 87t-91 233q0 155 100 247.5t269 92.5q127 0 215 -55t125 -156l8 2q-6 61 -2 88q10 72 10 102q0 66 -39.5 92.5t-136.5 26.5q-126 0 -293 -29l-35 240q231 37 412 37q212 0 302.5 -72t84.5 -235q0 -46 -18 -154
l-97 -516h-309q17 90 70 170l-11 6q-66 -111 -140 -159t-181 -48zM477 201q60 0 98.5 35.5t38.5 89.5q0 51 -38.5 83.5t-98.5 32.5t-97.5 -34.5t-37.5 -90.5q0 -52 37.5 -84t97.5 -32z" />
    <glyph glyph-name="Abreve" unicode="&#x102;" horiz-adv-x="1480" 
d="M963 1507q-149 0 -227.5 66.5t-78.5 185.5v10h213v-6q0 -37 27.5 -59.5t79.5 -22.5q105 0 141 88h213q-86 -262 -368 -262zM-90 0l991 1460h66l419 -1460h-327l-80 299h-506l-197 -299h-366zM590 524q34 11 96 11h170q62 0 90 -11l4 2q-29 41 -39 97l-41 188
q-19 93 -12 147h-8q-10 -41 -72 -147l-112 -188q-36 -63 -76 -97v-2z" />
    <glyph glyph-name="abreve" unicode="&#x103;" horiz-adv-x="1095" 
d="M702 1130q-140 0 -225.5 71.5t-85.5 189.5q0 38 8 71h191q-2 -10 -2 -32q0 -49 28.5 -79t90.5 -30q129 0 167 141h199q-25 -158 -128.5 -245t-242.5 -87zM338 -31q-152 0 -243 87t-91 233q0 155 100 247.5t269 92.5q127 0 215 -55t125 -156l8 2q-6 61 -2 88q10 72 10 102
q0 66 -39.5 92.5t-136.5 26.5q-126 0 -293 -29l-35 240q231 37 412 37q212 0 302.5 -72t84.5 -235q0 -46 -18 -154l-97 -516h-309q17 90 70 170l-11 6q-66 -111 -140 -159t-181 -48zM477 201q60 0 98.5 35.5t38.5 89.5q0 51 -38.5 83.5t-98.5 32.5t-97.5 -34.5t-37.5 -90.5
q0 -52 37.5 -84t97.5 -32z" />
    <glyph glyph-name="Aogonek" unicode="&#x104;" horiz-adv-x="1480" 
d="M1057 -217q0 -18 13.5 -28.5t35.5 -10.5q28 0 80 10l-10 -190q-20 -3 -55 -8t-57 -8t-38 -3q-94 0 -146.5 38.5t-52.5 117.5q0 75 59.5 142.5t188.5 156.5h-16l-80 299h-506l-197 -299h-366l991 1460h66l419 -1460h-116q-213 -152 -213 -217zM946 524l4 2q-29 41 -39 97
l-41 188q-19 93 -12 147h-8q-10 -41 -72 -147l-112 -188q-36 -63 -76 -97v-2q34 11 96 11h170q62 0 90 -11z" />
    <glyph glyph-name="aogonek" unicode="&#x105;" horiz-adv-x="1095" 
d="M637 977q212 0 302.5 -72t84.5 -235q0 -46 -18 -154l-97 -516h-137q-186 -140 -186 -199q0 -18 13.5 -28.5t35.5 -10.5q23 0 80 11l-10 -191q-137 -18 -150 -18q-199 0 -199 155q0 75 59.5 143t188.5 156q18 84 66 152l-11 6q-66 -111 -140 -159t-181 -48q-152 0 -243 87
t-91 233q0 155 100 247.5t269 92.5q127 0 215 -55t125 -156l8 2q-6 61 -2 88q10 72 10 102q0 66 -39.5 92.5t-136.5 26.5q-126 0 -293 -29l-35 240q231 37 412 37zM477 201q60 0 98.5 35.5t38.5 89.5q0 51 -38.5 83.5t-98.5 32.5t-97.5 -34.5t-37.5 -90.5q0 -52 37.5 -84
t97.5 -32z" />
    <glyph glyph-name="Cacute" unicode="&#x106;" horiz-adv-x="1441" 
d="M1497 1747v-8l-385 -217h-213v8l270 217h328zM825 -31q-323 0 -519.5 191t-196.5 506q0 174 63 322.5t175 253t271 163.5t345 59q322 0 544 -153l-186 -260q-165 108 -365 108q-230 0 -372 -133.5t-142 -349.5q0 -181 108.5 -291.5t285.5 -110.5q172 0 360 107l133 -270
q-257 -142 -504 -142z" />
    <glyph glyph-name="cacute" unicode="&#x107;" horiz-adv-x="980" 
d="M1153 1448v-8l-403 -307h-213v8l288 307h328zM557 -31q-224 0 -361 131.5t-137 348.5q0 241 155.5 384.5t418.5 143.5q209 0 385 -111l-154 -254q-127 84 -239 84q-111 0 -179.5 -63.5t-68.5 -167.5q0 -95 60 -154t155 -59q87 0 184 51l98 -260q-145 -74 -317 -74z" />
    <glyph glyph-name="Ccircumflex" unicode="&#x108;" horiz-adv-x="1441" 
d="M621 1522l2 6l284 239h297l193 -239l-2 -6h-267l-47 57q-41 51 -41 88h-6q-22 -45 -73 -88l-72 -57h-268zM825 -31q-323 0 -519.5 191t-196.5 506q0 174 63 322.5t175 253t271 163.5t345 59q322 0 544 -153l-186 -260q-165 108 -365 108q-230 0 -372 -133.5t-142 -349.5
q0 -181 108.5 -291.5t285.5 -110.5q172 0 360 107l133 -270q-257 -142 -504 -142z" />
    <glyph glyph-name="ccircumflex" unicode="&#x109;" horiz-adv-x="980" 
d="M907 1448l178 -305l-2 -10h-231l-51 88q-28 42 -36 70.5t-5 68.5h-6q-12 -39 -31.5 -67t-63.5 -72l-86 -88h-260l2 10l297 305h295zM557 -31q-224 0 -361 131.5t-137 348.5q0 241 155.5 384.5t418.5 143.5q209 0 385 -111l-154 -254q-127 84 -239 84q-111 0 -179.5 -63.5
t-68.5 -167.5q0 -95 60 -154t155 -59q87 0 184 51l98 -260q-145 -74 -317 -74z" />
    <glyph glyph-name="Cdotaccent" unicode="&#x10a;" horiz-adv-x="1441" 
d="M1208 1794l-53 -272h-293l51 272h295zM825 -31q-323 0 -519.5 191t-196.5 506q0 174 63 322.5t175 253t271 163.5t345 59q322 0 544 -153l-186 -260q-165 108 -365 108q-230 0 -372 -133.5t-142 -349.5q0 -181 108.5 -291.5t285.5 -110.5q172 0 360 107l133 -270
q-257 -142 -504 -142z" />
    <glyph glyph-name="cdotaccent" unicode="&#x10b;" horiz-adv-x="980" 
d="M928 1434l-66 -344h-334l66 344h334zM557 -31q-224 0 -361 131.5t-137 348.5q0 241 155.5 384.5t418.5 143.5q209 0 385 -111l-154 -254q-127 84 -239 84q-111 0 -179.5 -63.5t-68.5 -167.5q0 -95 60 -154t155 -59q87 0 184 51l98 -260q-145 -74 -317 -74z" />
    <glyph glyph-name="Ccaron" unicode="&#x10c;" horiz-adv-x="1441" 
d="M1444 1767l-2 -6l-285 -239h-297l-192 239l2 6h266l47 -57q38 -47 41 -88h6q16 39 74 88l72 57h268zM825 -31q-323 0 -519.5 191t-196.5 506q0 174 63 322.5t175 253t271 163.5t345 59q322 0 544 -153l-186 -260q-165 108 -365 108q-230 0 -372 -133.5t-142 -349.5
q0 -181 108.5 -291.5t285.5 -110.5q172 0 360 107l133 -270q-257 -142 -504 -142z" />
    <glyph glyph-name="ccaron" unicode="&#x10d;" horiz-adv-x="980" 
d="M569 1133l-178 305l2 10h246l51 -88q27 -45 35.5 -73.5t5.5 -65.5h6q12 37 31 65.5t63 73.5l87 88h245l-2 -10l-297 -305h-295zM557 -31q-224 0 -361 131.5t-137 348.5q0 241 155.5 384.5t418.5 143.5q209 0 385 -111l-154 -254q-127 84 -239 84q-111 0 -179.5 -63.5
t-68.5 -167.5q0 -95 60 -154t155 -59q87 0 184 51l98 -260q-145 -74 -317 -74z" />
    <glyph glyph-name="Dcaron" unicode="&#x10e;" horiz-adv-x="1441" 
d="M1237 1767l-2 -6l-285 -239h-297l-192 239l2 6h266l47 -57q38 -47 41 -88h6q16 39 74 88l72 57h268zM43 0l279 1434h426q312 0 499 -177.5t187 -472.5q0 -229 -111.5 -407.5t-312.5 -277.5t-459 -99h-508zM408 272q33 11 59 11h102q232 0 382.5 140.5t150.5 358.5
q0 173 -98 271t-271 98h-98q-40 0 -55 10l-5 -4q8 -29 -2 -63l-147 -754q-9 -46 -23 -64z" />
    <glyph glyph-name="dcaron" unicode="&#x10f;" horiz-adv-x="1570" 
d="M1501 1495h297l-305 -442h-158zM430 -31q-174 0 -275.5 116.5t-101.5 317.5q0 253 139 413.5t359 160.5q136 0 225.5 -64.5t118.5 -183.5l10 4q-10 74 17 213l100 518h309l-284 -1464h-302q11 73 23 111.5t39 101.5l-8 4q-130 -248 -369 -248zM588 252q103 0 170 69
t67 175q0 89 -58 143.5t-153 54.5q-103 0 -170 -68.5t-67 -174.5q0 -89 58 -144t153 -55z" />
    <glyph glyph-name="Dcroat" unicode="&#x110;" horiz-adv-x="1392" 
d="M840 1434q145 0 269.5 -43t218 -123t147 -205t53.5 -279q0 -230 -112.5 -408.5t-314 -277t-458.5 -98.5h-508l105 539q6 40 22 61l-4 4q-20 -10 -59 -10h-176l51 256h176q35 0 55 -10l4 4q-7 18 2 63l17 90l86 437h426zM664 283q147 0 267.5 61t191.5 176t71 262
q0 177 -100 273t-269 96h-98q-38 0 -55 10l-4 -4q7 -18 -2 -63l-21 -97l-16 -90q-10 -46 -23 -63l4 -4q17 10 60 10h248l-52 -256h-248q-40 0 -53 10l-6 -4q5 -12 -2 -61l-39 -199q-10 -49 -22 -64l4 -4q22 11 59 11h105z" />
    <glyph glyph-name="dcroat" unicode="&#x111;" horiz-adv-x="1234" 
d="M1350 1309h65l-35 -179h-65q-39 0 -55 9l-3 -2q6 -25 0 -54l-8 -36l-202 -1047h-302q11 73 23 111.5t39 101.5l-8 4q-130 -248 -369 -248q-174 0 -275.5 116.5t-101.5 317.5q0 253 139 413.5t359 160.5q136 0 225.5 -64.5t118.5 -183.5l10 4q-10 76 17 213l20 101l6 36
q8 37 21 54l-2 2q-20 -9 -60 -9h-256l35 179h258q39 0 55 -9l2 3q-6 25 0 53l21 108h309l-22 -108q-8 -36 -21 -53l2 -3q20 9 60 9zM606 252q103 0 170.5 69t67.5 175q0 89 -58 143.5t-153 54.5q-103 0 -170.5 -68.5t-67.5 -174.5q0 -89 58 -144t153 -55z" />
    <glyph glyph-name="Emacron" unicode="&#x112;" horiz-adv-x="1114" 
d="M530 1726h664l-39 -192h-663zM1210 1434l-55 -283h-520q-38 0 -55 10l-5 -4q7 -19 -2 -61l-26 -144q-10 -46 -23 -63l2 -4q20 10 60 10h465l-56 -279h-465q-38 0 -53 11l-4 -4q5 -13 -2 -62l-45 -223q-6 -41 -23 -62l5 -4q22 11 59 11h528l-55 -283h-897l279 1434h888z
" />
    <glyph glyph-name="emacron" unicode="&#x113;" horiz-adv-x="1103" 
d="M1063 1384l-37 -198h-633l39 198h631zM561 -31q-236 0 -372 121t-136 332q0 244 156.5 398.5t404.5 154.5q209 0 329 -101t120 -278q0 -74 -31 -201h-577q-45 0 -66 5t-41 20l-6 -6l4 -17v-14q3 -73 65.5 -116.5t163.5 -43.5q128 0 279 80l98 -231q-199 -103 -391 -103z
M371 563q19 19 86 19h225q58 0 80 -19l4 4q-4 10 -4 33q0 154 -168 154q-175 0 -227 -185z" />
    <glyph glyph-name="Ebreve" unicode="&#x114;" horiz-adv-x="1114" 
d="M838 1505q-149 0 -227.5 66.5t-78.5 185.5v10h213v-6q0 -37 27.5 -59.5t79.5 -22.5q105 0 141 88h213q-86 -262 -368 -262zM1210 1434l-55 -283h-520q-38 0 -55 10l-5 -4q7 -19 -2 -61l-26 -144q-10 -46 -23 -63l2 -4q20 10 60 10h465l-56 -279h-465q-38 0 -53 11l-4 -4
q5 -13 -2 -62l-45 -223q-6 -41 -23 -62l5 -4q22 11 59 11h528l-55 -283h-897l279 1434h888z" />
    <glyph glyph-name="ebreve" unicode="&#x115;" horiz-adv-x="1103" 
d="M729 1130q-140 0 -225.5 71.5t-85.5 189.5q0 38 8 71h190q-2 -10 -2 -32q0 -49 28.5 -79t90.5 -30q130 0 168 141h199q-25 -158 -128.5 -245t-242.5 -87zM561 -31q-236 0 -372 121t-136 332q0 244 156.5 398.5t404.5 154.5q209 0 329 -101t120 -278q0 -74 -31 -201h-577
q-45 0 -66 5t-41 20l-6 -6l4 -17v-14q3 -73 65.5 -116.5t163.5 -43.5q128 0 279 80l98 -231q-199 -103 -391 -103zM371 563q19 19 86 19h225q58 0 80 -19l4 4q-4 10 -4 33q0 154 -168 154q-175 0 -227 -185z" />
    <glyph glyph-name="Edotaccent" unicode="&#x116;" horiz-adv-x="1114" 
d="M1020 1794l-53 -272h-293l51 272h295zM1210 1434l-55 -283h-520q-38 0 -55 10l-5 -4q7 -19 -2 -61l-26 -144q-10 -46 -23 -63l2 -4q20 10 60 10h465l-56 -279h-465q-38 0 -53 11l-4 -4q5 -13 -2 -62l-45 -223q-6 -41 -23 -62l5 -4q22 11 59 11h528l-55 -283h-897
l279 1434h888z" />
    <glyph glyph-name="edotaccent" unicode="&#x117;" horiz-adv-x="1103" 
d="M926 1434l-66 -344h-334l66 344h334zM561 -31q-236 0 -372 121t-136 332q0 244 156.5 398.5t404.5 154.5q209 0 329 -101t120 -278q0 -74 -31 -201h-577q-45 0 -66 5t-41 20l-6 -6l4 -17v-14q3 -73 65.5 -116.5t163.5 -43.5q128 0 279 80l98 -231q-199 -103 -391 -103z
M371 563q19 19 86 19h225q58 0 80 -19l4 4q-4 10 -4 33q0 154 -168 154q-175 0 -227 -185z" />
    <glyph glyph-name="Eogonek" unicode="&#x118;" horiz-adv-x="1114" 
d="M635 1151q-38 0 -55 10l-5 -4q7 -19 -2 -61l-26 -144q-10 -46 -23 -63l2 -4q20 10 60 10h465l-56 -279h-465q-38 0 -53 11l-4 -4q5 -13 -2 -62l-45 -223q-6 -41 -23 -62l5 -4q22 11 59 11h528l-55 -283h-63q-187 -141 -187 -199q0 -18 13.5 -28.5t35.5 -10.5q23 0 80 11
l-10 -191q-137 -18 -150 -18q-198 0 -198 155q0 72 54.5 137.5t166.5 143.5h-639l279 1434h888l-55 -283h-520z" />
    <glyph glyph-name="eogonek" unicode="&#x119;" horiz-adv-x="1103" 
d="M455 395q-45 0 -66 5t-41 20l-6 -6l4 -17v-14q3 -73 65.5 -116.5t163.5 -43.5q128 0 279 80l98 -231q-74 -41 -145 -62q-201 -146 -201 -209q0 -18 13.5 -28.5t35.5 -10.5q23 0 80 11l-10 -191q-137 -18 -150 -18q-198 0 -198 155q0 65 43.5 123.5t134.5 126.5
q-233 2 -367.5 123t-134.5 330q0 244 156.5 398.5t404.5 154.5q209 0 329 -101t120 -278q0 -74 -31 -201h-577zM594 754q-175 0 -227 -185l4 -6q19 19 86 19h225q58 0 80 -19l4 4q-4 10 -4 33q0 154 -168 154z" />
    <glyph glyph-name="Ecaron" unicode="&#x11a;" horiz-adv-x="1114" 
d="M1255 1767l-2 -6l-284 -239h-297l-193 239l2 6h267l47 -57q38 -47 41 -88h6q16 40 73 88l72 57h268zM1210 1434l-55 -283h-520q-38 0 -55 10l-5 -4q7 -19 -2 -61l-26 -144q-10 -46 -23 -63l2 -4q20 10 60 10h465l-56 -279h-465q-38 0 -53 11l-4 -4q5 -13 -2 -62l-45 -223
q-6 -41 -23 -62l5 -4q22 11 59 11h528l-55 -283h-897l279 1434h888z" />
    <glyph glyph-name="ecaron" unicode="&#x11b;" horiz-adv-x="1103" 
d="M565 1133l-178 305l2 10h246l51 -88q27 -45 35.5 -73.5t5.5 -65.5h6q12 37 31 65.5t63 73.5l86 88h246l-2 -10l-297 -305h-295zM561 -31q-236 0 -372 121t-136 332q0 244 156.5 398.5t404.5 154.5q209 0 329 -101t120 -278q0 -74 -31 -201h-577q-45 0 -66 5t-41 20l-6 -6
l4 -17v-14q3 -73 65.5 -116.5t163.5 -43.5q128 0 279 80l98 -231q-199 -103 -391 -103zM371 563q19 19 86 19h225q58 0 80 -19l4 4q-4 10 -4 33q0 154 -168 154q-175 0 -227 -185z" />
    <glyph glyph-name="Gcircumflex" unicode="&#x11c;" horiz-adv-x="1587" 
d="M614 1522l2 6l285 239h297l193 -239l-2 -6h-267l-47 57q-41 51 -41 88h-6q-21 -44 -74 -88l-71 -57h-269zM821 -31q-325 0 -520 187.5t-195 498.5q0 176 63.5 326.5t176 256.5t272.5 166t347 60q173 0 323.5 -49.5t261.5 -142.5l-198 -244q-76 63 -180.5 97t-215.5 34
q-226 0 -371 -142t-145 -362q0 -180 104.5 -283.5t286.5 -103.5q164 0 276 85.5t140 226.5l-4 4q-42 -25 -135 -25h-264l49 260h713l-19 -121q-54 -349 -253.5 -539t-512.5 -190z" />
    <glyph glyph-name="gcircumflex" unicode="&#x11d;" horiz-adv-x="1239" 
d="M952 1448l178 -305l-2 -10h-231l-51 88q-28 42 -36 70.5t-5 68.5h-6q-12 -39 -31 -67t-63 -72l-87 -88h-260l2 10l297 305h295zM475 -442q-277 0 -495 131l151 243q165 -96 336 -96q123 0 190 52t95 169q23 83 55 138l-8 4q-130 -230 -369 -230q-174 0 -275.5 116.5
t-101.5 317.5q0 253 139 413.5t359 160.5q136 0 225.5 -64.5t118.5 -183.5l10 4q-10 74 17 213h303l-174 -903q-43 -233 -193 -359t-383 -126zM588 252q103 0 170 69t67 175q0 89 -58 143.5t-153 54.5q-103 0 -170 -68.5t-67 -174.5q0 -89 58 -144t153 -55z" />
    <glyph glyph-name="Gbreve" unicode="&#x11e;" horiz-adv-x="1587" 
d="M1020 1505q-149 0 -227 66.5t-78 185.5v10h213v-6q0 -37 27 -59.5t79 -22.5q106 0 142 88h213q-86 -262 -369 -262zM821 -31q-325 0 -520 187.5t-195 498.5q0 176 63.5 326.5t176 256.5t272.5 166t347 60q173 0 323.5 -49.5t261.5 -142.5l-198 -244q-76 63 -180.5 97
t-215.5 34q-226 0 -371 -142t-145 -362q0 -180 104.5 -283.5t286.5 -103.5q164 0 276 85.5t140 226.5l-4 4q-42 -25 -135 -25h-264l49 260h713l-19 -121q-54 -349 -253.5 -539t-512.5 -190z" />
    <glyph glyph-name="gbreve" unicode="&#x11f;" horiz-adv-x="1239" 
d="M776 1130q-140 0 -225.5 71.5t-85.5 189.5q0 38 8 71h191q-2 -10 -2 -32q0 -49 28 -79t90 -30q130 0 168 141h199q-25 -158 -128.5 -245t-242.5 -87zM475 -442q-277 0 -495 131l151 243q165 -96 336 -96q123 0 190 52t95 169q23 83 55 138l-8 4q-130 -230 -369 -230
q-174 0 -275.5 116.5t-101.5 317.5q0 253 139 413.5t359 160.5q136 0 225.5 -64.5t118.5 -183.5l10 4q-10 74 17 213h303l-174 -903q-43 -233 -193 -359t-383 -126zM588 252q103 0 170 69t67 175q0 89 -58 143.5t-153 54.5q-103 0 -170 -68.5t-67 -174.5q0 -89 58 -144
t153 -55z" />
    <glyph glyph-name="Gdotaccent" unicode="&#x120;" horiz-adv-x="1587" 
d="M1204 1794l-53 -272h-293l51 272h295zM821 -31q-325 0 -520 187.5t-195 498.5q0 176 63.5 326.5t176 256.5t272.5 166t347 60q173 0 323.5 -49.5t261.5 -142.5l-198 -244q-76 63 -180.5 97t-215.5 34q-226 0 -371 -142t-145 -362q0 -180 104.5 -283.5t286.5 -103.5
q164 0 276 85.5t140 226.5l-4 4q-42 -25 -135 -25h-264l49 260h713l-19 -121q-54 -349 -253.5 -539t-512.5 -190z" />
    <glyph glyph-name="gdotaccent" unicode="&#x121;" horiz-adv-x="1239" 
d="M973 1434l-66 -344h-334l66 344h334zM475 -442q-277 0 -495 131l151 243q165 -96 336 -96q123 0 190 52t95 169q23 83 55 138l-8 4q-130 -230 -369 -230q-174 0 -275.5 116.5t-101.5 317.5q0 253 139 413.5t359 160.5q136 0 225.5 -64.5t118.5 -183.5l10 4q-10 74 17 213
h303l-174 -903q-43 -233 -193 -359t-383 -126zM588 252q103 0 170 69t67 175q0 89 -58 143.5t-153 54.5q-103 0 -170 -68.5t-67 -174.5q0 -89 58 -144t153 -55z" />
    <glyph glyph-name="Gcommaaccent" unicode="&#x122;" horiz-adv-x="1587" 
d="M821 -31q-325 0 -520 187.5t-195 498.5q0 176 63.5 326.5t176 256.5t272.5 166t347 60q173 0 323.5 -49.5t261.5 -142.5l-198 -244q-76 63 -180.5 97t-215.5 34q-226 0 -371 -142t-145 -362q0 -180 104.5 -283.5t286.5 -103.5q164 0 276 85.5t140 226.5l-4 4
q-42 -25 -135 -25h-264l49 260h713l-19 -121q-54 -349 -253.5 -539t-512.5 -190zM954 -104l-270 -336h-149l120 336h299z" />
    <glyph glyph-name="gcommaaccent" unicode="&#x123;" horiz-adv-x="1236" 
d="M897 1133h-332l322 374h157zM475 -442q-277 0 -495 131l151 243q165 -96 336 -96q123 0 190 52t95 169q23 83 55 138l-8 4q-130 -230 -369 -230q-174 0 -275.5 116.5t-101.5 317.5q0 253 139 413.5t359 160.5q136 0 225.5 -64.5t118.5 -183.5l10 4q-10 74 17 213h303
l-174 -903q-43 -233 -193 -359t-383 -126zM588 252q103 0 170 69t67 175q0 89 -58 143.5t-153 54.5q-103 0 -170 -68.5t-67 -174.5q0 -89 58 -144t153 -55z" />
    <glyph glyph-name="Hcircumflex" unicode="&#x124;" horiz-adv-x="1509" 
d="M573 1522l2 6l285 239h297l193 -239l-2 -6h-267l-47 57q-41 51 -41 88h-6q-21 -44 -74 -88l-71 -57h-269zM1561 1434l-279 -1434h-317l106 557q9 43 23 61l-2 5q-22 -11 -60 -11h-502q-35 0 -53 11l-6 -5q7 -17 -2 -61l-109 -557h-317l279 1434h317l-92 -476
q-10 -46 -23 -63l4 -4q23 10 60 10h499q43 0 56 -10l4 4q-7 18 2 63l94 476h318z" />
    <glyph glyph-name="hcircumflex" unicode="&#x125;" horiz-adv-x="1171" 
d="M74 1522l2 6l284 239h297l193 -239l-2 -6h-266l-47 57q-41 51 -41 88h-7q-22 -45 -73 -88l-72 -57h-268zM606 1464l-86 -436q-34 -173 -78 -274l7 -4q78 123 161.5 175t200.5 52q143 0 219 -79.5t76 -229.5q0 -63 -19 -146l-104 -522h-307l94 465q10 46 10 92
q0 73 -38.5 111.5t-110.5 38.5q-91 0 -143 -61.5t-80 -199.5l-86 -446h-310l285 1464h309z" />
    <glyph glyph-name="Hbar" unicode="&#x126;" horiz-adv-x="1513" 
d="M51 0l195 1001q7 37 14 50l-4 4q-12 -6 -41 -6h-102l45 239h104q28 0 37 -6l6 4q-1 6 6 51l21 97h317l-20 -97q-6 -35 -15 -51l2 -4q15 6 43 6h512q30 0 39 -6l7 4q-1 6 6 51l18 97h318l-19 -97q-6 -38 -14 -51l2 -4q15 6 43 6h102l-47 -239h-102q-29 0 -41 6l-4 -4
q2 -11 -6 -50l-195 -1001h-315l104 547q10 46 23 63l-3 4q-20 -10 -57 -10h-493q-41 0 -54 10l-6 -4q6 -15 -4 -63l-104 -547h-318zM537 891q20 10 57 10h493q41 0 54 -10l4 4q-6 12 0 51l12 55q7 37 14 50l-4 4q-12 -6 -41 -6h-512q-29 0 -41 6l-4 -4q0 -20 -6 -50l-12 -55
q-6 -38 -19 -51z" />
    <glyph glyph-name="hbar" unicode="&#x127;" horiz-adv-x="1165" 
d="M805 977q143 0 218 -79t75 -230q0 -60 -17 -146l-104 -522h-309l96 465q10 44 10 92q0 73 -38.5 111.5t-110.5 38.5q-91 0 -144.5 -62t-79.5 -199l-86 -446h-309l184 946l27 137q8 37 21 54l-2 2q-20 -9 -60 -9h-63l32 179h66q39 0 57 -9l2 3q-7 20 0 53l21 108h309
l-20 -108q-7 -30 -21 -53l2 -3q18 9 57 9h256l-34 -179h-256q-40 0 -56 9l-4 -2q8 -20 0 -54l-26 -137l-6 -33q-14 -75 -56 -161l6 -4q76 122 161.5 175.5t201.5 53.5z" />
    <glyph glyph-name="Itilde" unicode="&#x128;" horiz-adv-x="577" 
d="M688 1491q-64 0 -179 47t-165 47q-38 0 -67.5 -18.5t-63.5 -59.5l-90 31q53 113 120 179.5t160 66.5q64 0 179.5 -47t165.5 -47q39 0 68 18.5t63 60.5l90 -32q-53 -113 -119.5 -179.5t-161.5 -66.5zM631 1434l-279 -1434h-309l279 1434h309z" />
    <glyph glyph-name="itilde" unicode="&#x129;" horiz-adv-x="499" 
d="M317 1448q45 0 92 -23.5t87 -47t67 -23.5q53 0 99 94l102 -39q-48 -129 -107.5 -200.5t-144.5 -71.5q-45 0 -92 23.5t-86.5 47t-65.5 23.5q-31 0 -53.5 -24t-46.5 -70l-100 39q50 130 108 201t141 71zM498 946l-185 -946h-309l184 946h310z" />
    <glyph glyph-name="Imacron" unicode="&#x12a;" horiz-adv-x="577" 
d="M203 1726h663l-39 -192h-663zM631 1434l-279 -1434h-309l279 1434h309z" />
    <glyph glyph-name="imacron" unicode="&#x12b;" horiz-adv-x="499" 
d="M653 1384l-37 -198h-469l39 198h467zM498 946l-185 -946h-309l184 946h310z" />
    <glyph glyph-name="Ibreve" unicode="&#x12c;" horiz-adv-x="577" 
d="M510 1505q-149 0 -227 66.5t-78 185.5v10h213v-6q0 -37 27 -59.5t79 -22.5q106 0 142 88h213q-86 -262 -369 -262zM631 1434l-279 -1434h-309l279 1434h309z" />
    <glyph glyph-name="ibreve" unicode="&#x12d;" horiz-adv-x="499" 
d="M387 1130q-127 0 -192.5 66t-65.5 184q0 38 6 82h191q-4 -32 -4 -45q0 -96 71 -96q52 0 77.5 37.5t37.5 103.5h199q-23 -164 -106 -248t-214 -84zM498 946l-185 -946h-309l184 946h310z" />
    <glyph glyph-name="Iogonek" unicode="&#x12e;" horiz-adv-x="577" 
d="M303 0q-186 -140 -186 -199q0 -18 13.5 -28.5t35.5 -10.5q23 0 80 11l-10 -191q-137 -18 -150 -18q-199 0 -199 155q0 71 54.5 137t167.5 144h-66l279 1434h309l-279 -1434h-49z" />
    <glyph glyph-name="iogonek" unicode="&#x12f;" horiz-adv-x="499" 
d="M270 1434h334l-65 -344h-334zM4 0l184 946h310l-185 -946h-116q-187 -141 -187 -199q0 -18 13.5 -28.5t35.5 -10.5q23 0 80 11l-10 -191q-137 -18 -149 -18q-199 0 -199 155q0 72 54.5 137.5t168.5 143.5z" />
    <glyph glyph-name="Idotaccent" unicode="&#x130;" horiz-adv-x="577" 
d="M692 1794l-53 -272h-293l51 272h295zM631 1434l-279 -1434h-309l279 1434h309z" />
    <glyph glyph-name="dotlessi" unicode="&#x131;" horiz-adv-x="499" 
d="M498 946l-185 -946h-309l184 946h310z" />
    <glyph glyph-name="IJ" unicode="&#x132;" horiz-adv-x="1277" 
d="M631 1434l-279 -1434h-309l279 1434h309zM1329 1434l-203 -1039q-40 -215 -147 -310t-307 -95q-44 0 -154 10l55 291q53 -6 111 -6q105 0 131 141l197 1008h317z" />
    <glyph glyph-name="ij" unicode="&#x133;" horiz-adv-x="999" 
d="M604 1434l-65 -344h-334l65 344h334zM1104 1434l-66 -344h-333l65 344h334zM498 946l-185 -946h-309l184 946h310zM997 946l-190 -979q-43 -217 -162.5 -312t-347.5 -95h-31l56 284h20q133 0 160 146l186 956h309z" />
    <glyph glyph-name="Jcircumflex" unicode="&#x134;" horiz-adv-x="700" 
d="M221 1522l2 6l285 239h297l192 -239l-2 -6h-266l-47 57q-41 51 -41 88h-6q-21 -44 -74 -88l-72 -57h-268zM752 1434l-203 -1039q-40 -215 -147.5 -310t-307.5 -95q-43 0 -153 10l55 291q53 -6 110 -6q106 0 132 141l196 1008h318z" />
    <glyph glyph-name="jcircumflex" unicode="&#x135;" horiz-adv-x="499" 
d="M582 1448l94 -305l-2 -10h-213l-19 88q-14 66 -10 139h-6q-7 -27 -10.5 -39t-16 -38t-34.5 -62l-56 -88h-239l2 10l213 305h297zM498 946l-191 -979q-43 -217 -162.5 -312t-347.5 -95h-30l55 284h20q133 0 160 146l186 956h310z" />
    <glyph glyph-name="Kcommaaccent" unicode="&#x136;" horiz-adv-x="1429" 
d="M1563 1434l-605 -566q-107 -99 -161 -129l-2 -6q10 -7 19 -15t14.5 -13.5t17 -19.5t15 -19t19.5 -26t21 -28l434 -612h-405l-451 702l-6 -2q7 -72 -12 -184l-101 -516h-317l279 1434h317l-86 -441q-20 -115 -59 -190l6 -4l626 635h437zM745 -104l-270 -336h-149l120 336
h299z" />
    <glyph glyph-name="kcommaaccent" unicode="&#x137;" horiz-adv-x="1146" 
d="M606 1464l-135 -702q-28 -145 -82 -232l6 -2l434 418h408l-430 -389q-83 -72 -119 -80l-2 -6q19 -4 31.5 -17t40.5 -51l291 -403h-365l-301 467l-6 -4q18 -74 -6 -213l-49 -250h-310l285 1464h309zM627 -104l-271 -336h-149l121 336h299z" />
    <glyph glyph-name="kgreenlandic" unicode="&#x138;" horiz-adv-x="1167" 
d="M12 0l185 946h309l-35 -184q-29 -142 -80 -221l6 -2l451 407h391l-393 -352q-81 -70 -111 -80l-2 -6q24 -9 62 -68l280 -440h-405l-289 457l-6 -4q19 -73 -4 -203l-49 -250h-310z" />
    <glyph glyph-name="Lacute" unicode="&#x139;" horiz-adv-x="1038" 
d="M987 1747v-8l-385 -217h-213v8l270 217h328zM639 1434l-213 -1096q-9 -45 -23 -62l5 -4q22 11 59 11h524l-55 -283h-893l279 1434h317z" />
    <glyph glyph-name="lacute" unicode="&#x13a;" horiz-adv-x="520" 
d="M954 1747v-8l-385 -217h-213v8l271 217h327zM608 1464l-286 -1464h-310l287 1464h309z" />
    <glyph glyph-name="Lcommaaccent" unicode="&#x13b;" horiz-adv-x="1038" 
d="M639 1434l-213 -1096q-9 -45 -23 -62l5 -4q22 11 59 11h524l-55 -283h-893l279 1434h317zM629 -104l-271 -336h-149l121 336h299z" />
    <glyph glyph-name="lcommaaccent" unicode="&#x13c;" horiz-adv-x="520" 
d="M608 1464l-286 -1464h-310l287 1464h309zM305 -104l-270 -336h-150l121 336h299z" />
    <glyph glyph-name="Lcaron" unicode="&#x13d;" horiz-adv-x="1038" 
d="M915 1495h297l-342 -559h-157zM639 1434l-213 -1096q-9 -45 -23 -62l5 -4q22 11 59 11h524l-55 -283h-893l279 1434h317z" />
    <glyph glyph-name="lcaron" unicode="&#x13e;" horiz-adv-x="845" 
d="M776 1495h297l-305 -442h-158zM608 1464l-286 -1464h-310l287 1464h309z" />
    <glyph glyph-name="Ldot" unicode="&#x13f;" horiz-adv-x="1038" 
d="M639 1434l-213 -1096q-9 -45 -23 -62l5 -4q22 11 59 11h524l-55 -283h-893l279 1434h317zM647 584l70 362h342l-70 -362h-342z" />
    <glyph glyph-name="ldot" unicode="&#x140;" horiz-adv-x="890" 
d="M608 1464l-286 -1464h-310l287 1464h309zM551 584l70 362h342l-70 -362h-342z" />
    <glyph glyph-name="Lslash" unicode="&#x141;" horiz-adv-x="1038" 
d="M43 0l92 477q13 60 41 94l-4 4q-29 -29 -80 -49l-86 -34l37 206l147 58l132 678h317l-90 -461q-7 -37 -15.5 -59t-33.5 -52l4 -6q28 25 46.5 37t51.5 25l324 126l-35 -206l-397 -156l-68 -344q-8 -40 -23 -62l5 -4q22 11 59 11h524l-55 -283h-893z" />
    <glyph glyph-name="lslash" unicode="&#x142;" horiz-adv-x="643" 
d="M76 0l96 502q11 54 20 76.5t37 60.5l-4 2q-38 -43 -106 -76l-84 -39l37 205l161 78l129 655h310l-84 -417q-8 -40 -18 -60.5t-38 -48.5l5 -2q43 36 102 65l90 41l-35 -206l-162 -74l-147 -762h-309z" />
    <glyph glyph-name="Nacute" unicode="&#x143;" horiz-adv-x="1478" 
d="M1415 1747v-8l-385 -217h-213v8l270 217h328zM393 1454l604 -741q30 -37 44.5 -63.5t27.5 -65.5l8 2q-12 71 23 252l117 596h313l-283 -1454h-69l-603 741q-47 58 -71 129l-6 -2q9 -74 -25 -252l-117 -596h-313l283 1454h67z" />
    <glyph glyph-name="nacute" unicode="&#x144;" horiz-adv-x="1171" 
d="M1161 1448v-8l-403 -307h-213v8l289 307h327zM12 0l185 946h307l-6 -33q-14 -75 -56 -161l7 -4q76 122 161 175.5t201 53.5q143 0 219 -79.5t76 -229.5q0 -63 -19 -146l-104 -522h-307l94 465q10 46 10 92q0 73 -38.5 111.5t-110.5 38.5q-91 0 -143 -61.5t-80 -199.5
l-86 -446h-310z" />
    <glyph glyph-name="Ncommaaccent" unicode="&#x145;" horiz-adv-x="1478" 
d="M393 1454l604 -741q30 -37 44.5 -63.5t27.5 -65.5l8 2q-12 71 23 252l117 596h313l-283 -1454h-69l-603 741q-47 58 -71 129l-6 -2q9 -74 -25 -252l-117 -596h-313l283 1454h67zM885 -104l-271 -336h-149l121 336h299z" />
    <glyph glyph-name="ncommaaccent" unicode="&#x146;" horiz-adv-x="1171" 
d="M12 0l185 946h307l-6 -33q-14 -75 -56 -161l7 -4q76 122 161 175.5t201 53.5q143 0 219 -79.5t76 -229.5q0 -63 -19 -146l-104 -522h-307l94 465q10 46 10 92q0 73 -38.5 111.5t-110.5 38.5q-91 0 -143 -61.5t-80 -199.5l-86 -446h-310zM637 -104l-270 -336h-150l121 336
h299z" />
    <glyph glyph-name="Ncaron" unicode="&#x147;" horiz-adv-x="1478" 
d="M1360 1767l-2 -6l-285 -239h-297l-192 239l2 6h266l47 -57q38 -47 41 -88h6q16 39 74 88l72 57h268zM393 1454l604 -741q30 -37 44.5 -63.5t27.5 -65.5l8 2q-12 71 23 252l117 596h313l-283 -1454h-69l-603 741q-47 58 -71 129l-6 -2q9 -74 -25 -252l-117 -596h-313
l283 1454h67z" />
    <glyph glyph-name="ncaron" unicode="&#x148;" horiz-adv-x="1171" 
d="M575 1133l-178 305l2 10h246l51 -88q27 -45 35.5 -73.5t5.5 -65.5h6q12 37 31.5 65t63.5 74l86 88h245l-2 -10l-297 -305h-295zM12 0l185 946h307l-6 -33q-14 -75 -56 -161l7 -4q76 122 161 175.5t201 53.5q143 0 219 -79.5t76 -229.5q0 -63 -19 -146l-104 -522h-307
l94 465q10 46 10 92q0 73 -38.5 111.5t-110.5 38.5q-91 0 -143 -61.5t-80 -199.5l-86 -446h-310z" />
    <glyph glyph-name="napostrophe" unicode="&#x149;" horiz-adv-x="1171" 
d="M150 1495h296l-342 -559h-157zM12 0l185 946h307l-6 -33q-14 -75 -56 -161l7 -4q76 122 161 175.5t201 53.5q143 0 219 -79.5t76 -229.5q0 -63 -19 -146l-104 -522h-307l94 465q10 46 10 92q0 73 -38.5 111.5t-110.5 38.5q-91 0 -143 -61.5t-80 -199.5l-86 -446h-310z
" />
    <glyph glyph-name="Eng" unicode="&#x14a;" horiz-adv-x="1478" 
d="M1530 1434l-283 -1454h-10q-32 -192 -145 -291t-287 -99h-168l57 287h82q131 0 158 143l41 209l-400 492q-47 58 -71 129l-6 -2q9 -74 -25 -252l-117 -596h-313l283 1454h67l604 -741q30 -37 44.5 -63.5t27.5 -65.5l8 2q-12 71 23 252l117 596h313z" />
    <glyph glyph-name="eng" unicode="&#x14b;" horiz-adv-x="1171" 
d="M811 977q143 0 219 -79.5t76 -229.5q0 -63 -19 -146l-104 -522l-16 -86q-69 -324 -412 -324h-139l53 275h82q49 0 78 20t41 84l4 31h2l94 465q10 46 10 92q0 73 -38.5 111.5t-110.5 38.5q-91 0 -143 -61.5t-80 -199.5l-86 -446h-310l185 946h307l-6 -33q-14 -75 -56 -161
l7 -4q76 122 161 175.5t201 53.5z" />
    <glyph glyph-name="Omacron" unicode="&#x14c;" horiz-adv-x="1656" 
d="M694 1726h664l-39 -192h-664zM815 -31q-321 0 -516 186.5t-195 493.5q0 173 63.5 324t173.5 259t264.5 170t330.5 62q321 0 516 -186.5t195 -493.5q0 -173 -63.5 -324t-173.5 -259t-264.5 -170t-330.5 -62zM834 276q209 0 343 141.5t134 358.5q0 177 -105.5 279
t-287.5 102q-209 0 -343.5 -141t-134.5 -359q0 -177 106 -279t288 -102z" />
    <glyph glyph-name="omacron" unicode="&#x14d;" horiz-adv-x="1173" 
d="M1057 1384l-37 -198h-633l39 198h631zM549 -31q-229 0 -362.5 122.5t-133.5 334.5q0 243 160.5 397t411.5 154q229 0 362 -122.5t133 -334.5q0 -243 -160 -397t-411 -154zM565 254q107 0 176.5 71t69.5 177q0 88 -54.5 139t-148.5 51q-106 0 -176 -70.5t-70 -177.5
q0 -88 54.5 -139t148.5 -51z" />
    <glyph glyph-name="Obreve" unicode="&#x14e;" horiz-adv-x="1656" 
d="M1001 1505q-149 0 -227 66.5t-78 185.5v10h213v-6q0 -37 27.5 -59.5t79.5 -22.5q105 0 141 88h213q-86 -262 -369 -262zM815 -31q-321 0 -516 186.5t-195 493.5q0 173 63.5 324t173.5 259t264.5 170t330.5 62q321 0 516 -186.5t195 -493.5q0 -173 -63.5 -324t-173.5 -259
t-264.5 -170t-330.5 -62zM834 276q209 0 343 141.5t134 358.5q0 177 -105.5 279t-287.5 102q-209 0 -343.5 -141t-134.5 -359q0 -177 106 -279t288 -102z" />
    <glyph glyph-name="obreve" unicode="&#x14f;" horiz-adv-x="1173" 
d="M723 1130q-140 0 -225.5 71.5t-85.5 189.5q0 38 8 71h190q-2 -10 -2 -32q0 -49 28.5 -79t90.5 -30q130 0 168 141h199q-25 -158 -128.5 -245t-242.5 -87zM549 -31q-229 0 -362.5 122.5t-133.5 334.5q0 243 160.5 397t411.5 154q229 0 362 -122.5t133 -334.5
q0 -243 -160 -397t-411 -154zM565 254q107 0 176.5 71t69.5 177q0 88 -54.5 139t-148.5 51q-106 0 -176 -70.5t-70 -177.5q0 -88 54.5 -139t148.5 -51z" />
    <glyph glyph-name="Ohungarumlaut" unicode="&#x150;" horiz-adv-x="1656" 
d="M1214 1747l3 -4l-299 -221h-203l-2 4l278 221h223zM1012 1526l278 221h221l2 -4l-296 -221h-203zM815 -31q-321 0 -516 186.5t-195 493.5q0 173 63.5 324t173.5 259t264.5 170t330.5 62q321 0 516 -186.5t195 -493.5q0 -173 -63.5 -324t-173.5 -259t-264.5 -170
t-330.5 -62zM834 276q209 0 343 141.5t134 358.5q0 177 -105.5 279t-287.5 102q-209 0 -343.5 -141t-134.5 -359q0 -177 106 -279t288 -102z" />
    <glyph glyph-name="ohungarumlaut" unicode="&#x151;" horiz-adv-x="1173" 
d="M444 1133l-2 4l320 311h235v-4l-340 -311h-213zM774 1133l-2 4l320 311h233v-4l-338 -311h-213zM549 -31q-229 0 -362.5 122.5t-133.5 334.5q0 243 160.5 397t411.5 154q229 0 362 -122.5t133 -334.5q0 -243 -160 -397t-411 -154zM565 254q107 0 176.5 71t69.5 177
q0 88 -54.5 139t-148.5 51q-106 0 -176 -70.5t-70 -177.5q0 -88 54.5 -139t148.5 -51z" />
    <glyph glyph-name="OE" unicode="&#x152;" horiz-adv-x="2238" 
d="M791 -31q-195 0 -350.5 82.5t-246 239t-90.5 360.5q0 165 61 314t168.5 259t264 175t338.5 65q92 0 170 -17t127.5 -41t89 -56.5t58.5 -57t32 -49.5l4 2q0 51 8 90l21 99h885l-54 -283h-518q-42 0 -55 10l-6 -4q5 -12 -2 -63l-25 -142q-6 -43 -22 -63l4 -4q20 10 59 10
h426l-55 -281h-428q-38 0 -53 11l-7 -4q7 -19 -2 -64l-41 -217q-10 -49 -22 -64l4 -4q22 11 59 11h527l-56 -283h-899l13 68q6 35 24 79l-6 3q-41 -75 -143 -128t-262 -53zM821 276q144 0 262 67.5t184 182t66 250.5q0 181 -116 281t-304 100q-94 0 -172.5 -29t-133.5 -77.5
t-93 -113.5t-56 -136t-18 -146q0 -94 30 -167.5t83 -119t121 -69t147 -23.5z" />
    <glyph glyph-name="oe" unicode="&#x153;" horiz-adv-x="1880" 
d="M543 -31q-102 0 -190 28.5t-155.5 83.5t-106 143t-38.5 200q0 115 41 216.5t113.5 176t177.5 117.5t227 43q135 0 232 -49.5t141 -141.5h4q134 189 410 189q200 0 321 -100.5t121 -278.5q0 -80 -31 -201h-579q-44 0 -65 4.5t-40 20.5l-6 -6l4 -17v-14q2 -68 60.5 -114
t169.5 -46q130 0 278 80l99 -231q-201 -103 -385 -103q-136 0 -236 51.5t-147 149.5h-2q-132 -201 -418 -201zM1147 563q22 19 88 19h225q59 0 74 -17l4 4q2 10 2 31q0 77 -43.5 115.5t-124.5 38.5q-175 0 -227 -185zM567 254q115 0 179.5 75t64.5 175q0 94 -59 141t-146 47
q-115 0 -179.5 -75t-64.5 -175q0 -94 59 -141t146 -47z" />
    <glyph glyph-name="Racute" unicode="&#x154;" horiz-adv-x="1312" 
d="M1266 1747v-8l-385 -217h-213v8l270 217h328zM813 1434q221 0 344 -100.5t123 -280.5q0 -189 -119 -308.5t-307 -119.5q-27 0 -43 2l-6 -9q40 -14 70 -44t71 -99l275 -475h-373l-311 592q-23 0 -41 6q-27 10 -29 12l-6 -4q8 -38 -4 -108l-97 -498h-317l279 1434h491z
M584 1171l-6 -4q7 -18 -3 -61l-40 -207q-9 -45 -23 -63l4 -5q19 11 59 11h166q95 0 152 48t57 130q0 67 -46 104t-126 37h-141q-33 0 -53 10z" />
    <glyph glyph-name="racute" unicode="&#x155;" horiz-adv-x="763" 
d="M961 1448v-8l-404 -307h-213v8l289 307h328zM12 0l185 946h292q-32 -138 -88 -272l9 -4q64 158 152.5 231.5t213.5 73.5q47 0 72 -4l-60 -309q-47 4 -94 4q-241 0 -299 -281l-73 -385h-310z" />
    <glyph glyph-name="Rcommaaccent" unicode="&#x156;" horiz-adv-x="1312" 
d="M813 1434q221 0 344 -100.5t123 -280.5q0 -189 -119 -308.5t-307 -119.5q-27 0 -43 2l-6 -9q40 -14 70 -44t71 -99l275 -475h-373l-311 592q-23 0 -41 6q-27 10 -29 12l-6 -4q8 -38 -4 -108l-97 -498h-317l279 1434h491zM584 1171l-6 -4q7 -18 -3 -61l-40 -207
q-9 -45 -23 -63l4 -5q19 11 59 11h166q95 0 152 48t57 130q0 67 -46 104t-126 37h-141q-33 0 -53 10zM743 -104l-270 -336h-149l120 336h299z" />
    <glyph glyph-name="rcommaaccent" unicode="&#x157;" horiz-adv-x="763" 
d="M12 0l185 946h292q-32 -138 -88 -272l9 -4q64 158 152.5 231.5t213.5 73.5q47 0 72 -4l-60 -309q-47 4 -94 4q-241 0 -299 -281l-73 -385h-310zM307 -104l-270 -336h-150l121 336h299z" />
    <glyph glyph-name="Rcaron" unicode="&#x158;" horiz-adv-x="1312" 
d="M1212 1767l-2 -6l-284 -239h-297l-193 239l2 6h267l47 -57q38 -47 41 -88h6q16 40 73 88l72 57h268zM813 1434q221 0 344 -100.5t123 -280.5q0 -189 -119 -308.5t-307 -119.5q-27 0 -43 2l-6 -9q40 -14 70 -44t71 -99l275 -475h-373l-311 592q-23 0 -41 6q-27 10 -29 12
l-6 -4q8 -38 -4 -108l-97 -498h-317l279 1434h491zM584 1171l-6 -4q7 -18 -3 -61l-40 -207q-9 -45 -23 -63l4 -5q19 11 59 11h166q95 0 152 48t57 130q0 67 -46 104t-126 37h-141q-33 0 -53 10z" />
    <glyph glyph-name="rcaron" unicode="&#x159;" horiz-adv-x="763" 
d="M375 1133l-178 305l2 10h245l52 -88q27 -45 35.5 -73.5t5.5 -65.5h6q12 37 31 65.5t63 73.5l86 88h246l-2 -10l-297 -305h-295zM12 0l185 946h292q-32 -138 -88 -272l9 -4q64 158 152.5 231.5t213.5 73.5q47 0 72 -4l-60 -309q-47 4 -94 4q-241 0 -299 -281l-73 -385
h-310z" />
    <glyph glyph-name="Sacute" unicode="&#x15a;" horiz-adv-x="1097" 
d="M1262 1747v-8l-385 -217h-213v8l270 217h328zM530 -29q-304 0 -565 213l187 258q101 -82 201 -127t179 -45q69 0 108.5 29.5t39.5 81.5q0 36 -21 70.5t-77 85.5l-187 174q-99 93 -142.5 178t-43.5 184q0 180 120 285.5t324 105.5q240 0 492 -149l-174 -264
q-178 114 -316 114q-112 0 -112 -86q0 -34 20.5 -63t83.5 -88l197 -183q93 -86 133.5 -170.5t40.5 -189.5q0 -197 -128 -305.5t-360 -108.5z" />
    <glyph glyph-name="sacute" unicode="&#x15b;" horiz-adv-x="866" 
d="M1008 1448v-8l-404 -307h-213v8l289 307h328zM88 340q192 -125 322 -125q67 0 67 45q0 17 -11.5 29.5t-47.5 32.5l-131 73q-94 53 -138.5 120t-44.5 159q0 141 96.5 222t266.5 81q198 0 412 -103l-111 -219q-157 80 -287 80q-69 0 -69 -41q0 -17 13 -29.5t56 -35.5
l125 -70q100 -54 142.5 -115.5t42.5 -154.5q0 -156 -100.5 -238t-291.5 -82q-243 0 -454 154z" />
    <glyph glyph-name="Scircumflex" unicode="&#x15c;" horiz-adv-x="1097" 
d="M385 1522l2 6l285 239h297l192 -239l-2 -6h-266l-47 57q-41 51 -41 88h-6q-21 -44 -74 -88l-72 -57h-268zM530 -29q-304 0 -565 213l187 258q101 -82 201 -127t179 -45q69 0 108.5 29.5t39.5 81.5q0 36 -21 70.5t-77 85.5l-187 174q-99 93 -142.5 178t-43.5 184
q0 180 120 285.5t324 105.5q240 0 492 -149l-174 -264q-178 114 -316 114q-112 0 -112 -86q0 -34 20.5 -63t83.5 -88l197 -183q93 -86 133.5 -170.5t40.5 -189.5q0 -197 -128 -305.5t-360 -108.5z" />
    <glyph glyph-name="scircumflex" unicode="&#x15d;" horiz-adv-x="866" 
d="M762 1448l178 -305l-2 -10h-231l-52 88q-28 42 -36 70.5t-5 68.5h-6q-12 -39 -31 -67t-63 -72l-86 -88h-260l2 10l297 305h295zM88 340q192 -125 322 -125q67 0 67 45q0 17 -11.5 29.5t-47.5 32.5l-131 73q-94 53 -138.5 120t-44.5 159q0 141 96.5 222t266.5 81
q198 0 412 -103l-111 -219q-157 80 -287 80q-69 0 -69 -41q0 -17 13 -29.5t56 -35.5l125 -70q100 -54 142.5 -115.5t42.5 -154.5q0 -156 -100.5 -238t-291.5 -82q-243 0 -454 154z" />
    <glyph glyph-name="Scedilla" unicode="&#x15e;" horiz-adv-x="1097" 
d="M844 745q93 -86 133.5 -170.5t40.5 -189.5q0 -190 -120 -298t-337 -116l-26 -43q163 -25 163 -125q0 -24 -7 -45.5t-23 -40.5t-33 -35t-46 -32t-52 -27.5t-61.5 -26.5t-64 -24.5t-70 -25.5t-69.5 -25l-24 96q111 50 151.5 76.5t40.5 52.5q0 41 -90 57l96 172
q-252 23 -481 209l187 258q101 -82 201 -127t179 -45q69 0 108.5 29.5t39.5 81.5q0 36 -21 70.5t-77 85.5l-187 174q-99 93 -142.5 178t-43.5 184q0 180 120 285.5t324 105.5q240 0 492 -149l-174 -264q-178 114 -316 114q-112 0 -112 -86q0 -34 20.5 -63t83.5 -88z" />
    <glyph glyph-name="scedilla" unicode="&#x15f;" horiz-adv-x="866" 
d="M606 559q100 -54 142.5 -115.5t42.5 -154.5q0 -156 -100.5 -238t-291.5 -82h-14l-25 -41q164 -25 164 -125q0 -24 -7 -45.5t-23 -40.5t-33 -35t-46 -32t-52 -27.5t-61.5 -26.5t-64 -24.5t-70 -25.5t-69.5 -25l-24 96q111 50 151.5 76.5t40.5 52.5q0 41 -90 57l98 177
q-165 26 -329 143l143 217q192 -125 322 -125q67 0 67 45q0 17 -11.5 29.5t-47.5 32.5l-131 73q-94 53 -138.5 120t-44.5 159q0 141 96.5 222t266.5 81q198 0 412 -103l-111 -219q-157 80 -287 80q-69 0 -69 -41q0 -17 13 -29.5t56 -35.5z" />
    <glyph glyph-name="Scaron" unicode="&#x160;" horiz-adv-x="1097" 
d="M1208 1767l-2 -6l-284 -239h-297l-193 239l2 6h266l48 -57q37 -45 40 -88h7q16 40 73 88l72 57h268zM530 -29q-304 0 -565 213l187 258q101 -82 201 -127t179 -45q69 0 108.5 29.5t39.5 81.5q0 36 -21 70.5t-77 85.5l-187 174q-99 93 -142.5 178t-43.5 184
q0 180 120 285.5t324 105.5q240 0 492 -149l-174 -264q-178 114 -316 114q-112 0 -112 -86q0 -34 20.5 -63t83.5 -88l197 -183q93 -86 133.5 -170.5t40.5 -189.5q0 -197 -128 -305.5t-360 -108.5z" />
    <glyph glyph-name="scaron" unicode="&#x161;" horiz-adv-x="866" 
d="M422 1133l-178 305l2 10h246l51 -88q27 -45 35.5 -73.5t5.5 -65.5h6q12 37 31 65.5t63 73.5l86 88h246l-2 -10l-297 -305h-295zM88 340q192 -125 322 -125q67 0 67 45q0 17 -11.5 29.5t-47.5 32.5l-131 73q-94 53 -138.5 120t-44.5 159q0 141 96.5 222t266.5 81
q198 0 412 -103l-111 -219q-157 80 -287 80q-69 0 -69 -41q0 -17 13 -29.5t56 -35.5l125 -70q100 -54 142.5 -115.5t42.5 -154.5q0 -156 -100.5 -238t-291.5 -82q-243 0 -454 154z" />
    <glyph glyph-name="uni0162" unicode="&#x162;" horiz-adv-x="1112" 
d="M199 1434h1087l-57 -293h-334q-36 0 -53 10l-4 -4q4 -22 -4 -60l-211 -1087h-93l-43 -72q164 -25 164 -125q0 -24 -7 -45.5t-23 -40.5t-33 -35t-46 -32t-52 -27.5t-61.5 -26.5t-64 -24.5t-70 -25.5t-69.5 -25l-24 96q111 50 151.5 76.5t40.5 52.5q0 41 -90 57l111 197
h-109l211 1087q9 40 21 60l-5 4q-20 -10 -57 -10h-334z" />
    <glyph glyph-name="uni0163" unicode="&#x163;" horiz-adv-x="700" 
d="M664 946h104l-47 -260h-107q-29 0 -41 0.5t-25 3.5t-22 10l-6 -4q6 -26 4.5 -44.5t-12.5 -71.5l-113 -580h-84l-43 -72q164 -25 164 -125q0 -24 -7 -45.5t-23 -40.5t-33 -35t-46 -32t-52 -27.5t-61.5 -26.5t-64 -24.5t-70 -25.5t-69.5 -25l-24 96q111 50 151.5 76.5
t40.5 52.5q0 41 -90 57l111 197h-99l115 580q17 89 35 116l-4 4q-23 -14 -92 -14h-86l47 260h86q67 0 90 -14l6 4q-12 29 0 82l49 246l303 188h31l-84 -434q-12 -59 -29 -82l2 -4q27 14 95 14z" />
    <glyph glyph-name="Tcaron" unicode="&#x164;" horiz-adv-x="1112" 
d="M1194 1767l-2 -6l-285 -239h-297l-192 239l2 6h266l47 -57q38 -47 41 -88h6q16 39 74 88l72 57h268zM1286 1434l-57 -293h-334q-36 0 -53 10l-4 -4q4 -22 -4 -60l-211 -1087h-318l211 1087q9 40 21 60l-5 4q-20 -10 -57 -10h-334l58 293h1087z" />
    <glyph glyph-name="tcaron" unicode="&#x165;" horiz-adv-x="978" 
d="M889 1495h299l-307 -442h-158zM680 1452l-84 -434q-12 -59 -29 -82l2 -4q27 14 95 14h104l-47 -260h-107q-29 0 -41 0.5t-25 3.5t-22 10l-6 -4q6 -26 4.5 -44.5t-12.5 -71.5l-113 -580h-299l115 580q17 89 35 116l-4 4q-23 -14 -92 -14h-86l47 260h86q67 0 90 -14l6 4
q-12 29 0 82l49 246l303 188h31z" />
    <glyph glyph-name="Tbar" unicode="&#x166;" horiz-adv-x="1114" 
d="M895 1137q-38 0 -55 10l-4 -4q7 -19 -2 -64l-17 -84q-11 -46 -14 -51l2 -4q15 6 43 6h196l-45 -239h-196q-29 0 -41 6l-4 -4q0 -47 -6 -50l-129 -659h-318l129 659q7 33 15 50l-5 4q-12 -6 -41 -6h-196l45 239h199q27 0 36 -6l7 4q-2 9 0 29.5t6 21.5l16 84q10 48 23 64
l-4 4q-20 -10 -60 -10h-336l58 297h1091l-57 -297h-336z" />
    <glyph glyph-name="tbar" unicode="&#x167;" horiz-adv-x="712" 
d="M340 1227l348 231h6l-86 -436q-11 -54 -37 -90l4 -4q33 18 101 18h104l-51 -260h-104q-40 0 -58.5 3t-34.5 16l-4 -5q11 -26 4 -59l-4 -23q-5 -29 -18 -55l4 -4q18 10 84 10h94l-35 -178h-94q-66 0 -82 10l-4 -4q6 -17 -8 -90l-59 -307h-310l60 307q13 71 28 90l-4 4
q-20 -10 -86 -10h-84l35 178h82q66 0 84 -10l4 4q-5 14 2 58l4 20q7 35 29 59l-4 5q-20 -13 -39.5 -16t-58.5 -3h-86l51 260h86q67 0 92 -18l4 4q-12 31 0 90z" />
    <glyph glyph-name="Utilde" unicode="&#x168;" horiz-adv-x="1464" 
d="M1128 1491q-64 0 -179 47t-165 47q-38 0 -67.5 -18.5t-63.5 -59.5l-90 31q52 113 120 179.5t161 66.5q64 0 179 -47t165 -47q39 0 68 18.5t63 60.5l90 -32q-53 -113 -119.5 -179.5t-161.5 -66.5zM678 -27q-261 0 -401 124.5t-140 357.5q0 77 19 174l155 805h330
l-152 -789q-12 -61 -12 -113q0 -120 59.5 -183.5t172.5 -63.5q126 0 212 84.5t115 238.5l160 826h332l-166 -854q-120 -607 -684 -607z" />
    <glyph glyph-name="utilde" unicode="&#x169;" horiz-adv-x="1159" 
d="M918 1118q-47 0 -99.5 17.5t-90 39t-80.5 39t-75 17.5q-64 0 -129 -94l-108 39q38 85 76 141.5t93 93.5t120 37q47 0 99.5 -17.5t90 -39t80.5 -39t74 -17.5q66 0 129 95l108 -39q-59 -131 -126.5 -202t-161.5 -71zM1147 946l-184 -946h-301q16 94 77 219l-10 2
q-75 -130 -165.5 -191t-209.5 -61q-136 0 -211 77.5t-75 217.5q0 70 16 158l102 524h316l-88 -454q-13 -63 -13 -101q0 -141 136 -141q164 0 211 229l90 467h309z" />
    <glyph glyph-name="Umacron" unicode="&#x16a;" horiz-adv-x="1464" 
d="M643 1726h664l-39 -192h-664zM678 -27q-261 0 -401 124.5t-140 357.5q0 77 19 174l155 805h330l-152 -789q-12 -61 -12 -113q0 -120 59.5 -183.5t172.5 -63.5q126 0 212 84.5t115 238.5l160 826h332l-166 -854q-120 -607 -684 -607z" />
    <glyph glyph-name="umacron" unicode="&#x16b;" horiz-adv-x="1159" 
d="M1071 1384l-37 -198h-633l39 198h631zM1147 946l-184 -946h-301q16 94 77 219l-10 2q-75 -130 -165.5 -191t-209.5 -61q-136 0 -211 77.5t-75 217.5q0 70 16 158l102 524h316l-88 -454q-13 -63 -13 -101q0 -141 136 -141q164 0 211 229l90 467h309z" />
    <glyph glyph-name="Ubreve" unicode="&#x16c;" horiz-adv-x="1464" 
d="M952 1505q-149 0 -227 66.5t-78 185.5v10h213v-6q0 -37 27.5 -59.5t79.5 -22.5q105 0 141 88h213q-86 -262 -369 -262zM678 -27q-261 0 -401 124.5t-140 357.5q0 77 19 174l155 805h330l-152 -789q-12 -61 -12 -113q0 -120 59.5 -183.5t172.5 -63.5q126 0 212 84.5
t115 238.5l160 826h332l-166 -854q-120 -607 -684 -607z" />
    <glyph glyph-name="ubreve" unicode="&#x16d;" horiz-adv-x="1159" 
d="M739 1130q-140 0 -225.5 71.5t-85.5 189.5q0 38 8 71h191q-2 -10 -2 -32q0 -49 28 -79t90 -30q130 0 168 141h199q-25 -158 -128.5 -245t-242.5 -87zM1147 946l-184 -946h-301q16 94 77 219l-10 2q-75 -130 -165.5 -191t-209.5 -61q-136 0 -211 77.5t-75 217.5
q0 70 16 158l102 524h316l-88 -454q-13 -63 -13 -101q0 -141 136 -141q164 0 211 229l90 467h309z" />
    <glyph glyph-name="Uring" unicode="&#x16e;" horiz-adv-x="1464" 
d="M907 1335q-99 0 -160 58t-61 151q0 111 77.5 191t199.5 80q100 0 160.5 -58t60.5 -151q0 -113 -76.5 -192t-200.5 -79zM920 1458q64 0 98.5 42t34.5 93q0 43 -26 70t-77 27q-64 0 -98.5 -42.5t-34.5 -93.5q0 -42 26.5 -69t76.5 -27zM678 -27q-261 0 -401 124.5
t-140 357.5q0 77 19 174l155 805h330l-152 -789q-12 -61 -12 -113q0 -120 59.5 -183.5t172.5 -63.5q126 0 212 84.5t115 238.5l160 826h332l-166 -854q-120 -607 -684 -607z" />
    <glyph glyph-name="uring" unicode="&#x16f;" horiz-adv-x="1159" 
d="M764 1530q100 0 161.5 -58.5t61.5 -152.5q0 -110 -76 -189t-198 -79q-101 0 -162.5 58.5t-61.5 152.5q0 110 76 189t199 79zM754 1405q-64 0 -98.5 -41t-34.5 -92q0 -42 26 -69t76 -27q64 0 98.5 41t34.5 92q0 42 -26 69t-76 27zM1147 946l-184 -946h-301q16 94 77 219
l-10 2q-75 -130 -165.5 -191t-209.5 -61q-136 0 -211 77.5t-75 217.5q0 70 16 158l102 524h316l-88 -454q-13 -63 -13 -101q0 -141 136 -141q164 0 211 229l90 467h309z" />
    <glyph glyph-name="Uhungarumlaut" unicode="&#x170;" horiz-adv-x="1464" 
d="M1163 1747l2 -4l-299 -221h-202l-2 4l278 221h223zM961 1526l278 221h221l2 -4l-297 -221h-202zM678 -27q-261 0 -401 124.5t-140 357.5q0 77 19 174l155 805h330l-152 -789q-12 -61 -12 -113q0 -120 59.5 -183.5t172.5 -63.5q126 0 212 84.5t115 238.5l160 826h332
l-166 -854q-120 -607 -684 -607z" />
    <glyph glyph-name="uhungarumlaut" unicode="&#x171;" horiz-adv-x="1159" 
d="M459 1133l-2 4l319 311h236v-4l-340 -311h-213zM788 1133l-2 4l320 311h233v-4l-338 -311h-213zM1147 946l-184 -946h-301q16 94 77 219l-10 2q-75 -130 -165.5 -191t-209.5 -61q-136 0 -211 77.5t-75 217.5q0 70 16 158l102 524h316l-88 -454q-13 -63 -13 -101
q0 -141 136 -141q164 0 211 229l90 467h309z" />
    <glyph glyph-name="Uogonek" unicode="&#x172;" horiz-adv-x="1464" 
d="M1196 1434h332l-166 -854q-117 -586 -647 -607q-152 -119 -152 -172q0 -18 13.5 -28.5t35.5 -10.5q23 0 80 11l-10 -191q-137 -18 -150 -18q-198 0 -198 155q0 68 48.5 130t149.5 135q-193 32 -294 152t-101 319q0 77 19 174l155 805h330l-152 -789q-12 -61 -12 -113
q0 -120 59.5 -183.5t172.5 -63.5q126 0 212 84.5t115 238.5z" />
    <glyph glyph-name="uogonek" unicode="&#x173;" horiz-adv-x="1159" 
d="M850 0q-186 -140 -186 -199q0 -18 13.5 -28.5t35.5 -10.5q23 0 80 11l-11 -191q-137 -18 -149 -18q-199 0 -199 155q0 73 56 139t174 146q15 86 75 215l-10 2q-75 -130 -165.5 -191t-209.5 -61q-136 0 -211 77.5t-75 217.5q0 70 16 158l102 524h316l-88 -454
q-13 -63 -13 -101q0 -141 136 -141q164 0 211 229l90 467h309l-184 -946h-113z" />
    <glyph glyph-name="Wcircumflex" unicode="&#x174;" horiz-adv-x="2045" 
d="M819 1522l2 6l285 239h297l192 -239l-2 -6h-266l-47 57q-41 51 -41 88h-6q-21 -44 -74 -88l-72 -57h-268zM504 -14l-307 1448h335l109 -639q13 -84 6 -187h8q30 86 90 183l426 663h46l167 -663q14 -55 18 -89.5t1 -93.5h8q36 111 78 187l358 639h375l-868 -1448h-66
l-174 680q-23 95 -18 157h-9q-25 -75 -77 -157l-441 -680h-65z" />
    <glyph glyph-name="wcircumflex" unicode="&#x175;" horiz-adv-x="1603" 
d="M1098 1448l178 -305l-2 -10h-232l-51 88q-28 42 -36 70.5t-5 68.5h-6q-12 -39 -31 -67t-63 -72l-86 -88h-260l2 10l297 305h295zM367 -20l-265 966h318l63 -287q2 -9 6.5 -27.5t6.5 -27.5t5.5 -25.5t5 -28.5t2.5 -29.5t1 -35.5h8q36 67 111 177l211 305h78l94 -305
q34 -121 41 -177h8q24 60 96 174l172 287h354l-639 -966h-83l-105 331q-19 58 -26 79.5t-13.5 54.5t-5.5 61h-8q-6 -17 -13.5 -33.5t-20.5 -37t-22.5 -34.5t-30.5 -44t-32 -46l-233 -331h-84z" />
    <glyph glyph-name="Ycircumflex" unicode="&#x176;" horiz-adv-x="1355" 
d="M469 1522l2 6l285 239h297l192 -239l-2 -6h-266l-47 57q-41 51 -41 88h-6q-21 -44 -74 -88l-72 -57h-268zM1542 1434l-698 -926l-99 -508h-317l98 508l-340 926h355l131 -465q23 -77 30 -112t7 -81h8q13 32 29.5 62.5t30 51t52.5 79.5l312 465h401z" />
    <glyph glyph-name="ycircumflex" unicode="&#x177;" horiz-adv-x="1097" 
d="M874 1448l179 -305l-2 -10h-232l-51 88q-28 42 -36 70.5t-5 68.5h-6q-12 -39 -31 -67t-63 -72l-86 -88h-260l2 10l297 305h294zM1190 946l-871 -1356h-325l328 525l-230 831h316l86 -364q24 -104 10 -240l8 2q15 73 78 180l252 422h348z" />
    <glyph glyph-name="Ydieresis" unicode="&#x178;" horiz-adv-x="1355" 
d="M582 1776h235l-49 -254h-236zM993 1776h238l-49 -254h-238zM1542 1434l-698 -926l-99 -508h-317l98 508l-340 926h355l131 -465q23 -77 30 -112t7 -81h8q13 32 29.5 62.5t30 51t52.5 79.5l312 465h401z" />
    <glyph glyph-name="Zacute" unicode="&#x179;" horiz-adv-x="1333" 
d="M1454 1747v-8l-385 -217h-213v8l270 217h328zM1499 1434l2 -11l-993 -1161v-4q50 23 99 31t128 8h561l-215 -297h-1167l-2 10l1001 1164l-4 6q-73 -41 -223 -41h-463l207 295h1069z" />
    <glyph glyph-name="zacute" unicode="&#x17a;" horiz-adv-x="1044" 
d="M1184 1448v-8l-404 -307h-213v8l289 307h328zM-96 0l-2 10l686 715l-2 6q-45 -22 -83 -30.5t-108 -8.5h-282l194 254h823l3 -10l-678 -709l4 -6q38 20 78.5 26.5t121.5 6.5h340l-204 -254h-891z" />
    <glyph glyph-name="Zdotaccent" unicode="&#x17b;" horiz-adv-x="1333" 
d="M1165 1794l-53 -272h-293l51 272h295zM1499 1434l2 -11l-993 -1161v-4q50 23 99 31t128 8h561l-215 -297h-1167l-2 10l1001 1164l-4 6q-73 -41 -223 -41h-463l207 295h1069z" />
    <glyph glyph-name="zdotaccent" unicode="&#x17c;" horiz-adv-x="1044" 
d="M958 1434l-65 -344h-334l66 344h333zM-96 0l-2 10l686 715l-2 6q-45 -22 -83 -30.5t-108 -8.5h-282l194 254h823l3 -10l-678 -709l4 -6q38 20 78.5 26.5t121.5 6.5h340l-204 -254h-891z" />
    <glyph glyph-name="Zcaron" unicode="&#x17d;" horiz-adv-x="1333" 
d="M1401 1767l-2 -6l-285 -239h-297l-192 239l2 6h266l47 -57q38 -47 41 -88h6q16 39 74 88l72 57h268zM1499 1434l2 -11l-993 -1161v-4q50 23 99 31t128 8h561l-215 -297h-1167l-2 10l1001 1164l-4 6q-73 -41 -223 -41h-463l207 295h1069z" />
    <glyph glyph-name="zcaron" unicode="&#x17e;" horiz-adv-x="1044" 
d="M600 1133l-178 305l2 10h246l51 -88q27 -45 35.5 -73.5t5.5 -65.5h6q12 37 31 65.5t63 73.5l86 88h246l-2 -10l-297 -305h-295zM-96 0l-2 10l686 715l-2 6q-45 -22 -83 -30.5t-108 -8.5h-282l194 254h823l3 -10l-678 -709l4 -6q38 20 78.5 26.5t121.5 6.5h340l-204 -254
h-891z" />
    <glyph glyph-name="florin" unicode="&#x192;" horiz-adv-x="835" 
d="M834 1403q51 0 137 -6l-51 -269q-11 1 -27 2t-27.5 2t-21.5 1q-71 0 -117 -31t-70 -105l-2 -8q-2 -5 -5.5 -21.5t-6.5 -25.5l2 -2q18 6 64 6h174l-13 -61h-174q-25 0 -61 6l-2 -2q-5 -49 -17 -103l-155 -804q-35 -186 -148 -290t-280 -104q-62 0 -154 9l51 268
q33 -4 93 -4q55 0 95 36.5t54 114.5l152 774q15 76 24 103l-2 2q-30 -6 -65 -6h-156l12 61h156q48 0 63 -6l2 2q-1 8 4 45l3 12q95 404 469 404z" />
    <glyph glyph-name="AEacute" unicode="&#x1fc;" horiz-adv-x="1900" 
d="M2066 1739l-385 -217h-213v8l271 217h327v-8zM1554 1151q-36 0 -53 10l-4 -4q4 -22 -4 -63l-27 -142q-11 -51 -20 -63l2 -4q20 10 57 10h412l-53 -279h-412q-37 0 -55 11l-4 -4q6 -15 -4 -64l-41 -219q-10 -48 -23 -64l4 -4q18 11 60 11h473l-56 -283h-815l47 242
q10 50 21 63l-2 4q-20 -10 -58 -10h-458l-250 -299h-381l1231 1434h934l-56 -283h-465zM1106 592l80 407q20 103 45 160h-6q-48 -85 -107 -155l-327 -400q-38 -49 -95 -82l2 -4q67 17 129 17h217q38 0 56 -11l4 4q-7 19 2 64z" />
    <glyph glyph-name="aeacute" unicode="&#x1fd;" horiz-adv-x="1761" 
d="M1448 1448v-8l-404 -307h-213v8l289 307h328zM1227 -31q-152 0 -256 59t-154 171h-2q-67 -107 -178.5 -168.5t-259.5 -61.5q-174 0 -273.5 84.5t-99.5 235.5q0 152 97.5 246t271.5 94q76 0 139 -18.5t118.5 -67.5t82.5 -125l8 2q-6 49 0 88q1 15 4 36.5t4.5 37t1.5 28.5
q0 71 -44 95t-134 24q-129 0 -293 -29l-35 240q215 37 379 37q272 0 307 -184h4q52 87 153 134.5t230 47.5q190 0 307 -100.5t117 -278.5q0 -84 -30 -201h-578q-43 0 -64 4.5t-40 20.5l-6 -6l4 -17v-14q2 -67 59.5 -113.5t167.5 -46.5q126 0 278 80l99 -231
q-201 -103 -385 -103zM1032 563q19 19 86 19h223q59 0 74 -17l4 4q2 10 2 31q0 154 -168 154q-175 0 -225 -185zM477 201q65 0 101 37.5t36 87.5q0 55 -39.5 85.5t-97.5 30.5q-66 0 -100.5 -37.5t-34.5 -87.5q0 -56 38.5 -86t96.5 -30z" />
    <glyph glyph-name="Oslashacute" unicode="&#x1fe;" horiz-adv-x="1650" 
d="M1505 1739l-383 -217h-213v8l271 217h325v-8zM1458 1272q189 -186 189 -488q0 -173 -63.5 -324t-173.5 -259t-264.5 -170t-330.5 -62q-274 0 -459 140l-129 -138l-73 68l127 135q-177 183 -177 475q0 173 63.5 324t173.5 259t264.5 170t330.5 62q264 0 444 -129l125 133
l74 -67zM440 657q0 -146 72 -239l641 678q-91 61 -235 61q-209 0 -343.5 -141t-134.5 -359zM834 276q209 0 343 141.5t134 358.5q0 152 -82 254l-645 -682q101 -72 250 -72z" />
    <glyph glyph-name="oslashacute" unicode="&#x1ff;" horiz-adv-x="1173" 
d="M815 1448h328v-8l-404 -307h-213v8zM1118 928l-106 -99q108 -120 108 -309q0 -243 -160 -397t-411 -154q-212 0 -346 109l-113 -107l-51 47l115 107q-101 125 -101 301q0 243 160.5 397t411.5 154q209 0 336 -100l108 100zM362 444q0 -57 25 -102l342 320q-47 30 -121 30
q-106 0 -176 -70.5t-70 -177.5zM811 502q0 64 -31 112l-346 -323q49 -37 131 -37q107 0 176.5 71t69.5 177z" />
    <glyph glyph-name="Scommaaccent" unicode="&#x218;" horiz-adv-x="1097" 
d="M530 -29q-304 0 -565 213l187 258q101 -82 201 -127t179 -45q69 0 108.5 29.5t39.5 81.5q0 36 -21 70.5t-77 85.5l-187 174q-99 93 -142.5 178t-43.5 184q0 180 120 285.5t324 105.5q240 0 492 -149l-174 -264q-178 114 -316 114q-112 0 -112 -86q0 -34 20.5 -63
t83.5 -88l197 -183q93 -86 133.5 -170.5t40.5 -189.5q0 -197 -128 -305.5t-360 -108.5zM651 -104l-270 -336h-150l121 336h299z" />
    <glyph glyph-name="scommaaccent" unicode="&#x219;" horiz-adv-x="866" 
d="M88 340q192 -125 322 -125q67 0 67 45q0 17 -11.5 29.5t-47.5 32.5l-131 73q-94 53 -138.5 120t-44.5 159q0 141 96.5 222t266.5 81q198 0 412 -103l-111 -219q-157 80 -287 80q-69 0 -69 -41q0 -17 13 -29.5t56 -35.5l125 -70q100 -54 142.5 -115.5t42.5 -154.5
q0 -156 -100.5 -238t-291.5 -82q-243 0 -454 154zM477 -104l-270 -336h-150l121 336h299z" />
    <glyph glyph-name="uni021A" unicode="&#x21a;" horiz-adv-x="1112" 
d="M1286 1434l-57 -293h-334q-36 0 -53 10l-4 -4q4 -22 -4 -60l-211 -1087h-318l211 1087q9 40 21 60l-5 4q-20 -10 -57 -10h-334l58 293h1087zM602 -104l-270 -336h-150l121 336h299z" />
    <glyph glyph-name="uni021B" unicode="&#x21b;" horiz-adv-x="700" 
d="M680 1452l-84 -434q-12 -59 -29 -82l2 -4q27 14 95 14h104l-47 -260h-107q-29 0 -41 0.5t-25 3.5t-22 10l-6 -4q6 -26 4.5 -44.5t-12.5 -71.5l-113 -580h-299l115 580q17 89 35 116l-4 4q-23 -14 -92 -14h-86l47 260h86q67 0 90 -14l6 4q-12 29 0 82l49 246l303 188h31z
M387 -104l-270 -336h-150l121 336h299z" />
    <glyph glyph-name="uni0237" unicode="&#x237;" horiz-adv-x="499" 
d="M498 946l-191 -979q-43 -217 -162.5 -312t-347.5 -95h-30l55 284h20q133 0 160 146l186 956h310z" />
    <glyph glyph-name="uni02BC" unicode="&#x2bc;" horiz-adv-x="487" 
d="M346 1495h297l-342 -559h-158z" />
    <glyph glyph-name="circumflex" unicode="&#x2c6;" horiz-adv-x="974" 
d="M825 1448l179 -305l-3 -10h-231l-51 88q-28 42 -36 70.5t-5 68.5h-6q-12 -39 -31 -67t-63 -72l-86 -88h-261l2 10l297 305h295z" />
    <glyph glyph-name="caron" unicode="&#x2c7;" horiz-adv-x="976" 
d="M469 1133l-178 305l2 10h246l51 -88q27 -45 35.5 -73.5t5.5 -65.5h6q12 37 31 65.5t63 73.5l86 88h246l-2 -10l-297 -305h-295z" />
    <glyph glyph-name="breve" unicode="&#x2d8;" horiz-adv-x="878" 
d="M598 1130q-140 0 -225.5 71.5t-85.5 189.5q0 38 8 71h190q-2 -10 -2 -32q0 -49 28.5 -79t90.5 -30q130 0 168 141h199q-25 -158 -128.5 -245t-242.5 -87z" />
    <glyph glyph-name="dotaccent" unicode="&#x2d9;" horiz-adv-x="538" 
d="M731 1434l-67 -344h-332l65 344h334z" />
    <glyph glyph-name="ring" unicode="&#x2da;" horiz-adv-x="696" 
d="M532 1530q100 0 162 -58.5t62 -152.5q0 -110 -76.5 -189t-198.5 -79q-101 0 -162 58.5t-61 152.5q0 110 76 189t198 79zM522 1405q-64 0 -98.5 -41t-34.5 -92q0 -42 26.5 -69t76.5 -27q64 0 98.5 41t34.5 92q0 42 -26.5 69t-76.5 27z" />
    <glyph glyph-name="ogonek" unicode="&#x2db;" horiz-adv-x="589" 
d="M158 -436q-199 0 -199 155q0 82 70 155.5t225 174.5l149 -29q-215 -154 -215 -219q0 -18 14 -28.5t36 -10.5t79 11l-10 -191q-137 -18 -149 -18z" />
    <glyph glyph-name="tilde" unicode="&#x2dc;" horiz-adv-x="1009" 
d="M799 1118q-47 0 -99.5 17.5t-89.5 39t-80 39t-75 17.5q-64 0 -129 -94l-109 39q38 85 76 141.5t93 93.5t120 37q47 0 99.5 -17.5t89.5 -39t80 -39t75 -17.5q66 0 129 95l108 -39q-59 -131 -126.5 -202t-161.5 -71z" />
    <glyph glyph-name="hungarumlaut" unicode="&#x2dd;" horiz-adv-x="1028" 
d="M350 1133l-2 4l320 311h235v-4l-340 -311h-213zM680 1133l-2 4l319 311h236v-4l-340 -311h-213z" />
    <glyph glyph-name="gravecomb" unicode="&#x300;" horiz-adv-x="0" 
d="M-143 1448l170 -307l-4 -8h-213l-285 307l4 8h328z" />
    <glyph glyph-name="acutecomb" unicode="&#x301;" horiz-adv-x="0" 
d="M86 1448v-8l-403 -307h-213v8l288 307h328z" />
    <glyph glyph-name="uni0302" unicode="&#x302;" horiz-adv-x="0" 
d="M-150 1448l179 -305l-2 -10h-232l-51 88q-28 42 -36 70.5t-5 68.5h-6q-12 -39 -31 -67t-63 -72l-86 -88h-260l2 10l297 305h294z" />
    <glyph glyph-name="tildecomb" unicode="&#x303;" horiz-adv-x="0" 
d="M-211 1118q-47 0 -99.5 17.5t-89.5 39t-80 39t-75 17.5q-64 0 -129 -94l-109 39q38 85 76 141.5t93 93.5t120 37q48 0 100.5 -17.5t90 -39t80 -39t73.5 -17.5q66 0 129 95l109 -39q-59 -131 -127 -202t-162 -71z" />
    <glyph glyph-name="uni0304" unicode="&#x304;" horiz-adv-x="0" 
d="M74 1384l-37 -198h-633l39 198h631z" />
    <glyph glyph-name="uni0306" unicode="&#x306;" horiz-adv-x="0" 
d="M-281 1130q-140 0 -225.5 71.5t-85.5 189.5q0 38 8 71h191q-2 -10 -2 -32q0 -49 28.5 -79t90.5 -30q129 0 167 141h199q-25 -158 -128.5 -245t-242.5 -87z" />
    <glyph glyph-name="uni0307" unicode="&#x307;" horiz-adv-x="0" 
d="M84 1434l-66 -344h-333l65 344h334z" />
    <glyph glyph-name="uni0308" unicode="&#x308;" horiz-adv-x="0" 
d="M-315 1434l-58 -297h-237l59 297h236zM84 1434l-59 -297h-236l57 297h238z" />
    <glyph glyph-name="uni030A" unicode="&#x30a;" horiz-adv-x="0" 
d="M-166 1530q100 0 161.5 -58.5t61.5 -152.5q0 -110 -76 -189t-198 -79q-101 0 -162 58.5t-61 152.5q0 110 75.5 189t198.5 79zM-176 1405q-64 0 -98.5 -41t-34.5 -92q0 -42 26 -69t76 -27q64 0 98.5 41t34.5 92q0 42 -26 69t-76 27z" />
    <glyph glyph-name="uni030B" unicode="&#x30b;" horiz-adv-x="0" 
d="M-795 1133l-2 4l320 311h235v-4l-340 -311h-213zM-465 1133l-2 4l320 311h233v-4l-338 -311h-213z" />
    <glyph glyph-name="uni030C" unicode="&#x30c;" horiz-adv-x="0" 
d="M-506 1133l-178 305l2 10h246l51 -88q27 -45 35.5 -73.5t5.5 -65.5h6q12 37 31 65.5t63 73.5l86 88h246l-2 -10l-297 -305h-295z" />
    <glyph glyph-name="uni0326" unicode="&#x326;" horiz-adv-x="0" 
d="M-215 -104l-270 -336h-150l121 336h299z" />
    <glyph glyph-name="uni0327" unicode="&#x327;" horiz-adv-x="0" 
d="M-315 70l-84 -142q163 -25 163 -125q0 -24 -7 -45.5t-23 -40.5t-33 -35t-46 -32t-52 -27.5t-61.5 -26.5t-64 -24.5t-70 -25.5t-69.5 -25l-24 96q111 50 151.5 76.5t40.5 52.5q0 41 -90 57l150 267h119z" />
    <glyph glyph-name="uni0328" unicode="&#x328;" horiz-adv-x="0" 
d="M-436 -436q-199 0 -199 155q0 82 70 155.5t225 174.5l150 -29q-216 -155 -216 -219q0 -18 14 -28.5t36 -10.5q23 0 80 11l-11 -191q-137 -18 -149 -18z" />
    <glyph glyph-name="uni0394" unicode="&#x394;" horiz-adv-x="1280" 
d="M649 1434l510 -1434h-1204l510 1434h184zM557 969l-244 -764h486z" />
    <glyph glyph-name="uni03A9" unicode="&#x3a9;" horiz-adv-x="1632" 
d="M825 1464q158 0 290.5 -48.5t222.5 -134t140 -202.5t50 -252q0 -120 -41 -221t-109.5 -169t-150.5 -112.5t-172 -64.5l-2 -6q110 14 172 14h276v-268h-594v444q137 21 224.5 121t87.5 244q0 158 -107 258t-287 100q-181 0 -287 -99.5t-106 -256.5q0 -146 86.5 -246.5
t224.5 -120.5v-444h-596v268h277q62 0 172 -14v6q-91 20 -173 64.5t-150.5 113t-109 169t-40.5 220.5q0 181 85 325t246 228t371 84z" />
    <glyph glyph-name="pi" unicode="&#x3c0;" 
d="M1305 977l-54 -268h-184l-137 -709h-279l137 709h-198l-299 -709h-281l297 707q-135 -6 -250 -39l54 268q125 41 327 41h867z" />
    <glyph glyph-name="uni0401" unicode="&#x401;" horiz-adv-x="1114" 
d="M545 1776h235l-49 -254h-235zM956 1776h238l-49 -254h-238zM1210 1434l-55 -283h-520q-38 0 -55 10l-5 -4q7 -19 -2 -61l-26 -144q-10 -46 -23 -63l2 -4q20 10 60 10h465l-56 -279h-465q-38 0 -53 11l-4 -4q5 -13 -2 -62l-45 -223q-6 -41 -23 -62l5 -4q22 11 59 11h528
l-55 -283h-897l279 1434h888z" />
    <glyph glyph-name="uni0402" unicode="&#x402;" horiz-adv-x="1597" 
d="M1176 893q187 0 285 -77.5t98 -225.5q0 -40 -9 -86l-12 -66l-8 -35q-45 -221 -158 -312t-305 -91h-190l57 297h94q89 0 131.5 28.5t57.5 100.5l4 25q6 27 6 45q0 47 -47.5 72.5t-137.5 25.5q-144 0 -340 -53l-102 -541h-317l202 1053l9 34q6 38 18 60l-4 4
q-20 -10 -55 -10h-312l58 293h1126l-57 -293h-398q-38 0 -51 10l-6 -4q4 -19 -2 -60l-8 -34l-21 -101q-16 -80 -41 -125l4 -4q93 32 211.5 51t219.5 19z" />
    <glyph glyph-name="uni0403" unicode="&#x403;" horiz-adv-x="1019" 
d="M1262 1747v-8l-385 -217h-213v8l270 217h328zM43 0l279 1434h874l-55 -289h-506q-42 0 -55 10l-7 -4q7 -19 -2 -64l-211 -1087h-317z" />
    <glyph glyph-name="uni0404" unicode="&#x404;" horiz-adv-x="1439" 
d="M961 1464q315 0 544 -153l-186 -260q-165 108 -365 108q-170 0 -291.5 -69.5t-173.5 -190.5q-14 -27 -34 -43l4 -4q36 10 86 10h465l-58 -291h-424q-48 0 -82 11l-6 -4q13 -16 21 -46q32 -122 134 -190t239 -68q170 0 362 107l131 -270q-242 -142 -504 -142
q-325 0 -521 192.5t-196 504.5q0 166 60 312t168.5 253.5t270.5 170t356 62.5z" />
    <glyph glyph-name="uni0405" unicode="&#x405;" horiz-adv-x="1097" 
d="M530 -29q-304 0 -565 213l187 258q101 -82 201 -127t179 -45q69 0 108.5 29.5t39.5 81.5q0 36 -21 70.5t-77 85.5l-187 174q-99 93 -142.5 178t-43.5 184q0 180 120 285.5t324 105.5q240 0 492 -149l-174 -264q-178 114 -316 114q-112 0 -112 -86q0 -34 20.5 -63
t83.5 -88l197 -183q93 -86 133.5 -170.5t40.5 -189.5q0 -197 -128 -305.5t-360 -108.5z" />
    <glyph glyph-name="uni0406" unicode="&#x406;" horiz-adv-x="577" 
d="M631 1434l-279 -1434h-309l279 1434h309z" />
    <glyph glyph-name="uni0407" unicode="&#x407;" horiz-adv-x="577" 
d="M217 1776h236l-50 -254h-235zM629 1776h237l-49 -254h-237zM631 1434l-279 -1434h-309l279 1434h309z" />
    <glyph glyph-name="uni0408" unicode="&#x408;" horiz-adv-x="700" 
d="M752 1434l-203 -1039q-40 -215 -147.5 -310t-307.5 -95q-43 0 -153 10l55 291q53 -6 110 -6q106 0 132 141l196 1008h318z" />
    <glyph glyph-name="uni0409" unicode="&#x409;" horiz-adv-x="2258" 
d="M1747 918q77 0 144 -11.5t131 -41.5t109 -76.5t72 -120.5t27 -170q0 -121 -44 -216.5t-122.5 -156.5t-183 -93t-227.5 -32h-621l199 1024l12 66q9 41 21 61l-2 4q-20 -10 -58 -10h-432q-42 0 -55 10l-6 -4q7 -19 -2 -61l-50 -248l-86 -447q-40 -213 -146.5 -309
t-307.5 -96q-91 0 -176 12l55 291q55 -8 127 -8q57 0 90.5 34t46.5 107l80 416l117 592h1169l-80 -410l-10 -51q-7 -40 -20 -62l2 -4q22 11 57 11h170zM1638 279q130 0 196.5 52.5t66.5 139.5q0 166 -211 166h-166q-39 0 -56 10l-4 -4q7 -17 -2 -61l-47 -246
q-10 -47 -22 -64l2 -4q22 11 59 11h184z" />
    <glyph glyph-name="uni040A" unicode="&#x40a;" horiz-adv-x="2191" 
d="M43 0l279 1434h317l-90 -461q-10 -48 -21 -62l2 -4q26 11 58 11h502q40 0 55 -11l6 4q-7 18 2 62l90 461h318l-91 -461q-10 -47 -22 -62l4 -4q22 11 57 11h168q78 0 145.5 -11.5t131.5 -41.5t109 -76.5t72.5 -120.5t27.5 -170q0 -160 -77.5 -274.5t-206.5 -169
t-296 -54.5h-618l110 573q9 45 23 62l-4 4q-17 -10 -60 -10h-502q-35 0 -55 10l-4 -4q7 -18 -2 -62l-111 -573h-317zM1327 268q22 11 59 11h183q131 0 197.5 52.5t66.5 139.5q0 166 -211 166h-166q-38 0 -55 10l-4 -4q7 -17 -2 -61l-47 -246q-10 -48 -23 -64z" />
    <glyph glyph-name="uni040B" unicode="&#x40b;" horiz-adv-x="1628" 
d="M1104 938q84 0 152 -20t123 -63t85.5 -119t30.5 -179q0 -61 -12 -131l-82 -426h-320l80 408q6 37 6 67q0 166 -196 166q-79 0 -242 -63l-111 -578h-317l203 1053l8 34q12 49 18 60l-4 4q-20 -10 -55 -10h-330l58 293h1087l-57 -293h-340q-38 0 -51 10l-4 -4q4 -20 -5 -60
l-8 -34l-10 -56q-16 -80 -43 -127l4 -4q171 72 332 72z" />
    <glyph glyph-name="uni040C" unicode="&#x40c;" horiz-adv-x="1347" 
d="M1366 1747v-8l-385 -217h-213v8l270 217h328zM1083 -12q-101 0 -164.5 60t-70.5 194l-14 213q-6 84 -52.5 115.5t-148.5 31.5h-103q-46 0 -57 8l-6 -4q7 -18 -2 -65l-105 -541h-317l279 1434h317l-94 -484q-10 -46 -23 -63l4 -4q20 8 60 8h104q72 0 119.5 33.5
t85.5 113.5l96 213q44 102 126 148.5t216 46.5q77 0 156 -8l-55 -287q-41 4 -80 4q-85 0 -125 -76l-82 -166q-45 -96 -118.5 -126t-250.5 -35v-4q181 -6 250.5 -53.5t77.5 -164.5l6 -110q3 -75 23.5 -99t72.5 -24q9 0 84 6l-59 -307q-93 -8 -150 -8z" />
    <glyph glyph-name="uni040E" unicode="&#x40e;" horiz-adv-x="1435" 
d="M1274 1769q-35 -142 -124.5 -214t-248.5 -72q-149 0 -226 61t-77 168q0 29 4 57h201q-2 -10 -2 -28q0 -42 28 -68t84 -26q63 0 101 31.5t49 90.5h211zM287 -16q-125 0 -240 34l72 287q85 -29 164 -29q74 0 131 25t108 82l-336 1051h367l154 -557q4 -13 12.5 -45t10.5 -39
t9 -34t7 -30.5t4.5 -27.5t2 -26t-0.5 -26l8 2q21 66 40.5 106t71.5 126l336 551h412l-715 -1082q-60 -89 -118.5 -152.5t-132 -114.5t-165 -76t-202.5 -25z" />
    <glyph glyph-name="uni040F" unicode="&#x40f;" horiz-adv-x="1495" 
d="M451 -287l47 232q6 40 18 61l-4 4q-20 -10 -55 -10h-414l279 1434h317l-211 -1090q-9 -45 -22 -61l2 -4q20 10 59 10h489q41 0 54 -10l6 4q-5 12 2 61l211 1090h317l-278 -1434h-412q-40 0 -53 10l-4 -4q4 -21 -4 -61l-45 -232h-299z" />
    <glyph glyph-name="uni0410" unicode="&#x410;" horiz-adv-x="1480" 
d="M-90 0l991 1460h66l419 -1460h-327l-80 299h-506l-197 -299h-366zM590 524q34 11 96 11h170q62 0 90 -11l4 2q-29 41 -39 97l-41 188q-19 93 -12 147h-8q-10 -41 -72 -147l-112 -188q-36 -63 -76 -97v-2z" />
    <glyph glyph-name="uni0411" unicode="&#x411;" horiz-adv-x="1333" 
d="M778 918q77 0 144 -11.5t131 -41.5t109 -76.5t72.5 -120.5t27.5 -170q0 -160 -77.5 -274.5t-206 -169t-294.5 -54.5h-641l279 1434h987l-56 -283h-618q-38 0 -55 10l-5 -4q7 -18 -2 -63l-14 -72l-10 -49q-8 -46 -21 -62l2 -4q22 11 58 11h190zM670 279q131 0 196.5 52
t65.5 140q0 166 -209 166h-188q-39 0 -56 10l-4 -4q7 -17 -2 -61l-47 -246q-10 -44 -23 -64l3 -4q26 11 59 11h205z" />
    <glyph glyph-name="uni0412" unicode="&#x412;" horiz-adv-x="1302" 
d="M43 0l279 1434h557q84 0 153 -17.5t123.5 -54.5t84.5 -100.5t30 -149.5q0 -121 -73.5 -211.5t-201.5 -128.5q-69 -20 -123 -22l-2 -9q62 0 123 -14q114 -29 171 -106.5t57 -194.5q0 -195 -147.5 -310.5t-409.5 -115.5h-621zM522 860q13 8 60 8h153q99 0 153 46.5
t54 121.5q0 133 -174 133h-131q-35 0 -53 11l-4 -4q5 -13 -2 -60l-37 -192q-1 -3 -5 -17t-9 -26.5t-9 -16.5zM403 254q3 0 23 5t39 5h190q128 0 185 49t57 131q0 162 -205 162h-164q-35 0 -55 10l-4 -4q7 -17 -2 -63l-45 -230q-6 -39 -21 -61z" />
    <glyph glyph-name="uni0413" unicode="&#x413;" horiz-adv-x="1019" 
d="M43 0l279 1434h874l-55 -289h-506q-42 0 -55 10l-7 -4q7 -19 -2 -64l-211 -1087h-317z" />
    <glyph glyph-name="uni0414" unicode="&#x414;" horiz-adv-x="1484" 
d="M-137 -287l102 527h101q37 0 55 -11l4 4q4 26 27 64q70 104 114 179.5t89.5 173t78.5 208.5t60 250l61 326h909l-221 -1137q-11 -53 -20 -64l4 -4q18 11 57 11h123l-104 -527h-297l38 201q10 46 23 63l-4 5q-18 -11 -59 -11h-744q-35 0 -53 11l-4 -5q5 -12 -2 -63
l-41 -201h-297zM449 229q18 11 59 11h364q38 0 56 -11l4 4q-7 19 2 64l156 801q10 48 22 63l-4 4q-20 -10 -59 -10h-187q-42 0 -55 10l-4 -4q7 -18 -2 -63l-13 -60q-96 -453 -344 -805z" />
    <glyph glyph-name="uni0415" unicode="&#x415;" horiz-adv-x="1114" 
d="M1210 1434l-55 -283h-520q-38 0 -55 10l-5 -4q7 -19 -2 -61l-26 -144q-10 -46 -23 -63l2 -4q20 10 60 10h465l-56 -279h-465q-38 0 -53 11l-4 -4q5 -13 -2 -62l-45 -223q-6 -41 -23 -62l5 -4q22 11 59 11h528l-55 -283h-897l279 1434h888z" />
    <glyph glyph-name="uni0416" unicode="&#x416;" horiz-adv-x="2054" 
d="M2077 1446q60 0 123 -8l-56 -283q-41 4 -80 4q-92 0 -129 -78l-73 -168q-41 -96 -117 -126t-256 -35l-2 -4q187 -6 254.5 -44t70.5 -151l5 -135q1 -74 23.5 -99.5t72.5 -25.5q11 0 86 6l-60 -303q-96 -8 -157 -8q-121 0 -180 57.5t-62 179.5l-8 232q-3 87 -43.5 117
t-147.5 30h-79q-41 0 -58 10l-4 -4q7 -20 -2 -65l-104 -545h-314l105 545q10 46 22 65l-4 4q-17 -10 -59 -10h-82q-85 0 -124.5 -29t-76.5 -118l-104 -238q-102 -231 -387 -231q-61 0 -140 8l60 303q60 -6 80 -6q60 0 96 25t70 98l57 141q42 109 121 147t258 44l2 4
q-181 5 -244.5 35.5t-69.5 125.5l-12 168q-5 78 -90 78q-39 0 -84 -4l55 283q73 8 138 8q113 0 171.5 -41.5t69.5 -153.5l21 -213q11 -86 47.5 -117.5t140.5 -31.5h82q42 0 55 -10l7 4q-7 20 2 65l96 486h313l-94 -486q-10 -47 -25 -65l2 -4q20 10 62 10h82q82 0 123 31
t84 118l102 213q53 106 141.5 150.5t227.5 44.5z" />
    <glyph glyph-name="uni0417" unicode="&#x417;" horiz-adv-x="1177" 
d="M494 -31q-310 0 -555 121l159 277q208 -105 404 -105q142 0 212 47t70 119q0 79 -59.5 119.5t-169.5 40.5h-195l58 301h198q117 0 170.5 47t53.5 121q0 60 -42 89.5t-141 29.5q-182 0 -383 -70l-86 276q266 82 529 82q226 0 351.5 -80.5t125.5 -253.5q0 -138 -73.5 -222
t-229.5 -132q-67 -21 -158 -24l-2 -9q88 0 139 -14q117 -27 181.5 -106t64.5 -207q0 -70 -19 -132.5t-64.5 -121t-115 -100.5t-178 -67.5t-245.5 -25.5z" />
    <glyph glyph-name="uni0418" unicode="&#x418;" horiz-adv-x="1478" 
d="M1464 1454h70l-283 -1454h-313l115 598q36 185 71 250l-4 2q-59 -76 -121 -129l-893 -741h-67l283 1454h313l-115 -596q-36 -186 -71 -252l4 -2q21 29 33.5 44t34.5 37.5t52 47.5z" />
    <glyph glyph-name="uni0419" unicode="&#x419;" horiz-adv-x="1478" 
d="M1346 1769q-35 -142 -124.5 -214t-248.5 -72q-149 0 -226 61t-77 168q0 29 4 57h200q-2 -10 -2 -28q0 -42 28.5 -68t84.5 -26q63 0 101 31.5t49 90.5h211zM1464 1454h70l-283 -1454h-313l115 598q36 185 71 250l-4 2q-59 -76 -121 -129l-893 -741h-67l283 1454h313
l-115 -596q-36 -186 -71 -252l4 -2q21 29 33.5 44t34.5 37.5t52 47.5z" />
    <glyph glyph-name="uni041A" unicode="&#x41a;" horiz-adv-x="1347" 
d="M1083 -12q-101 0 -164.5 60t-70.5 194l-14 213q-6 84 -52.5 115.5t-148.5 31.5h-103q-46 0 -57 8l-6 -4q7 -18 -2 -65l-105 -541h-317l279 1434h317l-94 -484q-10 -46 -23 -63l4 -4q20 8 60 8h104q72 0 119.5 33.5t85.5 113.5l96 213q44 102 126 148.5t216 46.5
q77 0 156 -8l-55 -287q-41 4 -80 4q-85 0 -125 -76l-82 -166q-45 -96 -118.5 -126t-250.5 -35v-4q181 -6 250.5 -53.5t77.5 -164.5l6 -110q3 -75 23.5 -99t72.5 -24q9 0 84 6l-59 -307q-93 -8 -150 -8z" />
    <glyph glyph-name="uni041B" unicode="&#x41b;" horiz-adv-x="1576" 
d="M1628 1434l-278 -1434h-318l162 844l51 246q11 48 21 61l-2 4q-20 -10 -58 -10h-432q-42 0 -55 10l-6 -4q7 -19 -2 -61l-52 -248l-86 -447q-40 -213 -146.5 -309t-307.5 -96q-91 0 -176 12l55 291q55 -8 127 -8q57 0 90.5 34t46.5 107l80 416l117 592h1169z" />
    <glyph glyph-name="uni041C" unicode="&#x41c;" horiz-adv-x="1955" 
d="M877 -14l-181 647q-15 59 -18.5 92t0.5 80h-6q-23 -87 -72 -178l-328 -627h-362l811 1454h57l199 -772q11 -40 12.5 -73.5t-2.5 -67.5h8q24 78 64 141l500 772h55l250 -1454h-318l-94 627q-12 88 0 178h-6q-15 -46 -32.5 -79.5t-55.5 -92.5l-432 -647h-49z" />
    <glyph glyph-name="uni041D" unicode="&#x41d;" horiz-adv-x="1509" 
d="M1561 1434l-279 -1434h-317l106 557q9 43 23 61l-2 5q-22 -11 -60 -11h-502q-35 0 -53 11l-6 -5q7 -17 -2 -61l-109 -557h-317l279 1434h317l-92 -476q-10 -46 -23 -63l4 -4q23 10 60 10h499q43 0 56 -10l4 4q-7 18 2 63l94 476h318z" />
    <glyph glyph-name="uni041E" unicode="&#x41e;" horiz-adv-x="1656" 
d="M815 -31q-321 0 -516 186.5t-195 493.5q0 173 63.5 324t173.5 259t264.5 170t330.5 62q321 0 516 -186.5t195 -493.5q0 -173 -63.5 -324t-173.5 -259t-264.5 -170t-330.5 -62zM834 276q209 0 343 141.5t134 358.5q0 177 -105.5 279t-287.5 102q-209 0 -343.5 -141
t-134.5 -359q0 -177 106 -279t288 -102z" />
    <glyph glyph-name="uni041F" unicode="&#x41f;" horiz-adv-x="1499" 
d="M43 0l279 1434h1228l-278 -1434h-318l211 1090q9 41 21 61l-2 4q-20 -10 -58 -10h-491q-42 0 -55 10l-7 -4q7 -19 -2 -61l-211 -1090h-317z" />
    <glyph glyph-name="uni0420" unicode="&#x420;" horiz-adv-x="1218" 
d="M809 1434q232 0 357.5 -106.5t125.5 -301.5q0 -223 -153.5 -351t-423.5 -128h-197q-40 0 -55 10l-4 -4q9 -17 -2 -61l-97 -492h-317l279 1434h487zM584 1171l-6 -4q7 -18 -3 -61l-45 -229q-9 -48 -22 -64l4 -4q23 10 59 10h166q103 0 163.5 52.5t60.5 140.5
q0 73 -47.5 111t-137.5 38h-139q-33 0 -53 10z" />
    <glyph glyph-name="uni0421" unicode="&#x421;" horiz-adv-x="1441" 
d="M825 -31q-323 0 -519.5 191t-196.5 506q0 174 63 322.5t175 253t271 163.5t345 59q322 0 544 -153l-186 -260q-165 108 -365 108q-230 0 -372 -133.5t-142 -349.5q0 -181 108.5 -291.5t285.5 -110.5q172 0 360 107l133 -270q-257 -142 -504 -142z" />
    <glyph glyph-name="uni0422" unicode="&#x422;" horiz-adv-x="1112" 
d="M1286 1434l-57 -293h-334q-36 0 -53 10l-4 -4q4 -22 -4 -60l-211 -1087h-318l211 1087q9 40 21 60l-5 4q-20 -10 -57 -10h-334l58 293h1087z" />
    <glyph glyph-name="uni0423" unicode="&#x423;" horiz-adv-x="1435" 
d="M287 -16q-125 0 -240 34l72 287q85 -29 164 -29q74 0 131 25t108 82l-336 1051h367l154 -557q4 -13 12.5 -45t10.5 -39t9 -34t7 -30.5t4.5 -27.5t2 -26t-0.5 -26l8 2q21 66 40.5 106t71.5 126l336 551h412l-715 -1082q-60 -89 -118.5 -152.5t-132 -114.5t-165 -76
t-202.5 -25z" />
    <glyph glyph-name="uni0424" unicode="&#x424;" horiz-adv-x="1781" 
d="M645 -20l12 63q9 43 23 63l-2 5q-22 -11 -64 -11q-70 0 -140.5 21t-137 67.5t-117.5 112t-82 161.5t-31 210q0 139 46.5 258.5t135 209.5t228 141.5t315.5 51.5q61 0 74 -10l4 4q-7 21 2 64l13 63h307l-12 -63q-10 -44 -23 -64l2 -4q20 10 64 10q71 0 141.5 -21
t136.5 -67t117 -111.5t81.5 -161.5t30.5 -210q0 -139 -46.5 -258.5t-135 -210t-228 -142t-315.5 -51.5q-58 0 -73 11l-4 -5q7 -20 -2 -63l-13 -63h-307zM745 375l5 4q-7 18 2 63l98 549q10 49 22 64l-4 4q-15 -10 -59 -10q-95 -1 -169.5 -34.5t-118.5 -88.5t-66.5 -120
t-22.5 -136q0 -65 17.5 -116t44.5 -81.5t63 -50.5t68 -28t65 -9q13 -1 19.5 -1t12 -0.5t8 -1.5t4 -1.5t5.5 -2.5zM1008 375q15 10 59 10q95 1 169.5 34.5t118.5 88.5t66.5 120t22.5 136q0 80 -25 138t-66.5 88t-82.5 43.5t-84 15.5q-13 1 -19.5 1t-12 0.5t-8.5 1.5t-4.5 1
t-5.5 2.5t-6 3.5l-4 -4q7 -19 -2 -64l-98 -549q-10 -48 -22 -63z" />
    <glyph glyph-name="uni0425" unicode="&#x425;" horiz-adv-x="1482" 
d="M1620 1434l-518 -566q-93 -100 -121 -118l-2 -9q21 -19 70 -112l342 -629h-390l-206 414q-35 69 -35 137h-8q-21 -62 -84 -137l-338 -414h-420l588 662q81 92 116 112v8q-6 5 -11 11t-12 17t-12 21t-17 31.5t-21 38.5l-299 533h383l168 -330q36 -73 36 -139h9
q10 29 30 58.5t60 78.5l266 332h426z" />
    <glyph glyph-name="uni0426" unicode="&#x426;" horiz-adv-x="1538" 
d="M1059 -287l45 230q10 48 22 63l-4 4q-20 -10 -59 -10h-1020l279 1434h317l-211 -1090q-10 -46 -22 -61l2 -4q20 10 59 10h459q38 0 55 -10l6 4q-7 19 2 61l209 1090h318l-209 -1090q-10 -45 -23 -61l2 -4q20 10 60 10h120l-110 -576h-297z" />
    <glyph glyph-name="uni0427" unicode="&#x427;" horiz-adv-x="1318" 
d="M776 0l82 424q13 77 41 125l-4 4q-190 -70 -383 -70q-202 0 -308 93.5t-106 273.5q0 47 15 135l86 449h319l-80 -404q-6 -40 -6 -72q0 -167 203 -167q130 0 303 53l115 590h317l-278 -1434h-316z" />
    <glyph glyph-name="uni0428" unicode="&#x428;" horiz-adv-x="2265" 
d="M43 0l279 1434h317l-211 -1090q-10 -46 -22 -61l2 -4q20 10 59 10h420q38 0 55 -10l6 4q-7 19 2 61l209 1090h318l-209 -1090q-10 -45 -23 -61l2 -4q20 10 60 10h417q43 0 56 -10l6 4q-7 19 2 61l211 1090h317l-278 -1434h-1995z" />
    <glyph glyph-name="uni0429" unicode="&#x429;" horiz-adv-x="2336" 
d="M2144 289h123l-110 -576h-297l45 230q6 46 20 63l-4 4q-20 -10 -57 -10h-1821l279 1434h317l-211 -1090q-10 -46 -22 -61l2 -4q20 10 59 10h420q38 0 55 -10l6 4q-7 19 2 61l209 1090h318l-209 -1090q-10 -45 -23 -61l2 -4q20 10 60 10h417q43 0 56 -10l6 4q-7 19 2 61
l211 1090h317l-211 -1090q-10 -46 -22 -61l2 -4q20 10 59 10z" />
    <glyph glyph-name="uni042A" unicode="&#x42a;" horiz-adv-x="1536" 
d="M1022 918q78 0 145.5 -11.5t131.5 -41.5t109 -76.5t72 -120.5t27 -170q0 -121 -44 -216.5t-122.5 -156.5t-183.5 -93t-229 -32h-639l196 1022l13 68q10 46 22 61l-4 4q-20 -10 -59 -10h-316l56 289h686l-80 -412l-8 -49q-7 -42 -23 -62l2 -4q22 11 60 11h188zM913 279
q131 0 198 52.5t67 139.5q0 166 -211 166h-187q-38 0 -55 10l-4 -4q7 -17 -2 -61l-47 -246q-10 -44 -23 -64l2 -4q22 11 60 11h202z" />
    <glyph glyph-name="uni042B" unicode="&#x42b;" horiz-adv-x="1869" 
d="M778 918q77 0 144 -11.5t131 -41.5t109 -76.5t72.5 -120.5t27.5 -170q0 -160 -77.5 -274.5t-206 -169t-294.5 -54.5h-641l279 1434h317l-80 -412l-10 -49q-8 -46 -21 -62l2 -4q22 11 58 11h190zM1612 1434h309l-279 -1434h-309zM670 279q131 0 196.5 52t65.5 140
q0 166 -209 166h-188q-36 0 -56 10l-4 -4q7 -17 -2 -61l-47 -246q-11 -50 -23 -64l5 -4q22 11 57 11h205z" />
    <glyph glyph-name="uni042C" unicode="&#x42c;" horiz-adv-x="1290" 
d="M778 918q77 0 144 -11.5t131 -41.5t109 -76.5t72.5 -120.5t27.5 -170q0 -160 -77.5 -274.5t-206 -169t-294.5 -54.5h-641l279 1434h317l-80 -412l-10 -49q-8 -46 -21 -62l2 -4q22 11 58 11h190zM670 279q131 0 196.5 52t65.5 140q0 166 -209 166h-188q-36 0 -56 10l-4 -4
q7 -17 -2 -61l-47 -246q-11 -50 -23 -64l5 -4q22 11 57 11h205z" />
    <glyph glyph-name="uni042D" unicode="&#x42d;" horiz-adv-x="1439" 
d="M573 -31q-315 0 -542 154l184 260q170 -109 365 -109q170 0 291 70t173 191q13 26 35 43l-4 4q-40 -11 -86 -11h-465l58 291h424q50 0 81 -10l7 4q-16 18 -19 45q-33 122 -135.5 190t-239.5 68q-173 0 -360 -106l-133 270q240 141 504 141q325 0 520.5 -192t195.5 -504
q0 -166 -60 -312t-168.5 -254t-270 -170.5t-355.5 -62.5z" />
    <glyph glyph-name="uni042E" unicode="&#x42e;" horiz-adv-x="2215" 
d="M1495 1464q321 0 516 -186.5t195 -493.5q0 -173 -63.5 -324t-173.5 -259t-264.5 -170t-330.5 -62q-299 0 -490 163t-216 437h-146q-38 0 -53 11l-6 -5q4 -21 -4 -61l-99 -514h-317l279 1434h317l-100 -519q-10 -46 -23 -63l4 -4q17 10 58 10h110q68 271 288 438.5
t519 167.5zM1395 274q207 0 341 142t134 360q0 175 -106 278t-287 103q-209 0 -343.5 -141.5t-134.5 -358.5q0 -177 106.5 -280t289.5 -103z" />
    <glyph glyph-name="uni042F" unicode="&#x42f;" horiz-adv-x="1349" 
d="M-90 0l496 502q52 52 94.5 78t93.5 38l-2 9q-16 -2 -43 -2q-42 0 -87 22.5t-85.5 64.5t-67 113t-26.5 158q0 95 32.5 175.5t97.5 143t173 97.5t250 35h567l-279 -1434h-317l94 498q10 56 39 108l-2 4q-3 -1 -8 -2.5t-12.5 -4.5t-14.5 -5q-15 -6 -37 -6l-551 -592h-405z
M973 831l4 5q-4 22 4 63l39 207q10 49 22 61l-2 4q-20 -10 -59 -10h-170q-102 0 -150.5 -46t-48.5 -120q0 -56 30 -92t70.5 -48.5t90.5 -12.5h117q38 0 53 -11z" />
    <glyph glyph-name="uni0430" unicode="&#x430;" horiz-adv-x="1095" 
d="M338 -31q-152 0 -243 87t-91 233q0 155 100 247.5t269 92.5q127 0 215 -55t125 -156l8 2q-6 61 -2 88q10 72 10 102q0 66 -39.5 92.5t-136.5 26.5q-126 0 -293 -29l-35 240q231 37 412 37q212 0 302.5 -72t84.5 -235q0 -46 -18 -154l-97 -516h-309q17 90 70 170l-11 6
q-66 -111 -140 -159t-181 -48zM477 201q60 0 98.5 35.5t38.5 89.5q0 51 -38.5 83.5t-98.5 32.5t-97.5 -34.5t-37.5 -90.5q0 -52 37.5 -84t97.5 -32z" />
    <glyph glyph-name="uni0431" unicode="&#x431;" horiz-adv-x="1253" 
d="M623 -31q-82 0 -154 16.5t-140 58t-116.5 105.5t-77.5 166t-29 232q0 263 108.5 454.5t299.5 258.5q45 16 117.5 32.5t146 30.5t88.5 18q52 9 78.5 33t38.5 76h317q-31 -138 -89 -215t-167 -107q-39 -11 -194.5 -39t-204.5 -42q-132 -38 -202.5 -125t-86.5 -265h6
q34 104 102.5 171t145.5 93.5t168 26.5q187 0 304.5 -111.5t117.5 -308.5q0 -86 -22.5 -167t-70 -152t-114.5 -124.5t-162.5 -84.5t-207.5 -31zM633 252q113 0 177 74t64 176q0 97 -58.5 144.5t-143.5 47.5q-112 0 -179 -73.5t-67 -176.5q0 -98 60.5 -145t146.5 -47z" />
    <glyph glyph-name="uni0432" unicode="&#x432;" horiz-adv-x="1128" 
d="M909 471q123 -41 123 -186q0 -121 -92.5 -203t-269.5 -82h-658l60 307l67 344l58 295h598q128 0 201 -48t73 -167q0 -78 -35.5 -124.5t-113.5 -76.5q-68 -27 -179 -32v-4q103 0 168 -23zM645 578q47 0 72.5 22.5t25.5 56.5q0 68 -100 68h-131q-41 0 -55 8l-2 -2
q6 -27 0 -53l-6 -27h-3l-4 -26q-7 -36 -20 -54l2 -2q20 9 59 9h162zM594 221q63 0 93 24.5t30 65.5q0 76 -113 76h-158q-41 0 -57 8l-2 -2q8 -20 0 -51l-6 -35l-6 -39q-4 -25 -21 -53l2 -2q16 8 58 8h180z" />
    <glyph glyph-name="uni0433" unicode="&#x433;" horiz-adv-x="794" 
d="M12 0l185 946h680l-50 -260h-321q-41 0 -57 8l-3 -2q7 -20 0 -53l-124 -639h-310z" />
    <glyph glyph-name="uni0434" unicode="&#x434;" horiz-adv-x="1216" 
d="M-135 -287l100 508h82q35 0 49 -8l2 2q3 21 25 53q87 118 141.5 234t81.5 252l39 192h772l-131 -678q-7 -33 -20 -53l2 -2q16 8 57 8h88l-98 -508h-279l45 221q8 37 21 54l-2 2q-18 -8 -60 -8h-536q-42 0 -56 8l-2 -2q6 -25 0 -54l-43 -221h-278zM391 213q18 8 60 8h219
q41 0 55 -8l2 2q-6 25 0 53l74 381q7 33 20 53l-2 3q-18 -9 -57 -9h-107q-39 0 -55 9l-2 -3q6 -25 0 -53l-4 -12q-19 -95 -78.5 -222.5t-126.5 -199.5z" />
    <glyph glyph-name="uni0435" unicode="&#x435;" horiz-adv-x="1103" 
d="M561 -31q-236 0 -372 121t-136 332q0 244 156.5 398.5t404.5 154.5q209 0 329 -101t120 -278q0 -74 -31 -201h-577q-45 0 -66 5t-41 20l-6 -6l4 -17v-14q3 -73 65.5 -116.5t163.5 -43.5q128 0 279 80l98 -231q-199 -103 -391 -103zM371 563q19 19 86 19h225q58 0 80 -19
l4 4q-4 10 -4 33q0 154 -168 154q-175 0 -227 -185z" />
    <glyph glyph-name="uni0436" unicode="&#x436;" horiz-adv-x="1542" 
d="M1434 952h165l-45 -239h-32q-67 0 -97 -47l-47 -68q-31 -53 -79 -76t-156 -26l-2 -4q74 -2 115 -16.5t56.5 -37t24.5 -63.5l21 -84q7 -35 21 -46.5t48 -11.5h27l-45 -239h-139q-149 0 -168 123l-25 145q-5 28 -7.5 39.5t-9.5 29.5t-17 25t-27.5 13t-42.5 6h-31
q-47 0 -63 4l-2 -2q3 -33 -7 -86l-55 -291h-272l57 291q8 42 27 86l-2 2q-16 -4 -64 -4h-31q-42 0 -64.5 -25t-53.5 -88l-76 -145q-62 -123 -217 -123h-174l47 239h26q34 0 54.5 11t42.5 47l47 84q34 60 83.5 87t157.5 30l3 4q-106 3 -145 25.5t-52 76.5l-14 57
q-7 33 -26 45.5t-56 12.5h-33l47 239h164q64 0 98.5 -26.5t46.5 -85.5l33 -133q16 -52 35.5 -73.5t70.5 -21.5h31q48 0 64 -4l2 2q-3 35 6 82l49 254h272l-51 -256q-9 -42 -26 -82l2 -2q16 4 63 4h31q38 0 61 22t56 75l84 133q70 112 215 112z" />
    <glyph glyph-name="uni0437" unicode="&#x437;" horiz-adv-x="962" 
d="M403 -31q-246 0 -413 78l102 232q148 -70 289 -70q162 0 162 88q0 82 -137 82h-179l41 205h183q61 0 90.5 22.5t29.5 61.5q0 38 -31.5 53.5t-97.5 15.5q-128 0 -270 -47l-74 221q216 66 432 66q89 0 157 -11.5t122.5 -38t83.5 -74.5t29 -116q0 -112 -81 -170.5
t-257 -68.5l-2 -4q132 -6 207 -65t75 -165q0 -44 -13 -83.5t-45.5 -79t-83.5 -68t-132.5 -46.5t-186.5 -18z" />
    <glyph glyph-name="uni0438" unicode="&#x438;" horiz-adv-x="1153" 
d="M10 -12l187 958h307l-49 -250q-12 -67 -17 -90.5t-15 -53t-26 -60.5l4 -3q35 39 138 111l522 358h80l-187 -958h-307l49 250q3 13 9 41.5t7.5 36.5t6 27.5t7.5 27.5t7.5 22t10 25l12.5 25l-4 2q-24 -27 -51.5 -48.5t-88.5 -62.5l-520 -358h-82z" />
    <glyph glyph-name="uni0439" unicode="&#x439;" horiz-adv-x="1153" 
d="M739 997q-140 0 -225.5 71t-85.5 189q0 39 8 72h191q-2 -10 -2 -33q0 -49 28 -78.5t90 -29.5q130 0 168 141h199q-25 -158 -128.5 -245t-242.5 -87zM10 -12l187 958h307l-49 -250q-12 -67 -17 -90.5t-15 -53t-26 -60.5l4 -3q35 39 138 111l522 358h80l-187 -958h-307
l49 250q3 13 9 41.5t7.5 36.5t6 27.5t7.5 27.5t7.5 22t10 25l12.5 25l-4 2q-24 -27 -51.5 -48.5t-88.5 -62.5l-520 -358h-82z" />
    <glyph glyph-name="uni043A" unicode="&#x43a;" horiz-adv-x="1073" 
d="M784 -6q-152 0 -170 123l-22 145q-8 56 -28 79.5t-70 23.5h-45q-50 0 -62 4l-4 -2q3 -37 -6 -86l-55 -281h-310l185 946h309l-47 -244q-7 -34 -27 -81l2 -3q20 5 64 5h45q40 0 68.5 19.5t56.5 64.5l82 133q38 60 89 86t128 26h166l-48 -239h-22q-59 0 -86 -47l-45 -68
q-33 -53 -85.5 -76t-170.5 -26v-4q79 -2 122 -17.5t57 -37.5t22 -64l18 -82q13 -58 66 -58h26l-47 -239h-156z" />
    <glyph glyph-name="uni043B" unicode="&#x43b;" horiz-adv-x="1173" 
d="M1161 946l-184 -946h-309l123 631q7 33 20 53l-2 2q-16 -8 -57 -8h-183q-41 0 -57 8l-2 -2q7 -20 0 -53l-21 -117l-38 -197q-28 -153 -130 -235t-270 -82h-123l52 268h53q56 0 87.5 33.5t49.5 122.5l16 90l84 432h891z" />
    <glyph glyph-name="uni043C" unicode="&#x43c;" horiz-adv-x="1531" 
d="M649 -18l-108 325q-27 73 -27 129h-6q-6 -27 -17 -53t-17.5 -37t-29.5 -49l-180 -297h-356l616 965h76l133 -406q25 -73 25 -113h4q20 48 69 113l289 406h76l242 -965h-316l-69 297q-18 75 -11 139h-6q-18 -52 -73 -129l-238 -325h-76z" />
    <glyph glyph-name="uni043D" unicode="&#x43d;" horiz-adv-x="1167" 
d="M846 946h309l-184 -946h-309l65 334q8 36 21 53l-3 2q-18 -8 -59 -8h-242q-41 0 -55 8l-2 -2q6 -25 0 -53l-65 -334h-310l185 946h309l-49 -260q-7 -32 -23 -53l2 -2q18 8 60 8h241q42 0 56 -8l2 2q-5 21 2 53z" />
    <glyph glyph-name="uni043E" unicode="&#x43e;" horiz-adv-x="1173" 
d="M549 -31q-229 0 -362.5 122.5t-133.5 334.5q0 243 160.5 397t411.5 154q229 0 362 -122.5t133 -334.5q0 -243 -160 -397t-411 -154zM565 254q107 0 176.5 71t69.5 177q0 88 -54.5 139t-148.5 51q-106 0 -176 -70.5t-70 -177.5q0 -88 54.5 -139t148.5 -51z" />
    <glyph glyph-name="uni043F" unicode="&#x43f;" horiz-adv-x="1173" 
d="M1161 946l-184 -946h-309l120 621q7 30 21 53l-2 2q-16 -8 -57 -8h-248q-42 0 -58 8l-2 -2q7 -20 0 -53l-120 -621h-310l185 946h964z" />
    <glyph glyph-name="uni0440" unicode="&#x440;" horiz-adv-x="1243" 
d="M-68 -410l265 1356h303q-20 -121 -64 -211l8 -4q131 246 369 246q174 0 276.5 -117t102.5 -317q0 -253 -140 -413.5t-360 -160.5q-136 0 -225.5 64.5t-118.5 183.5l-10 -4q-2 -101 -23 -213l-79 -410h-304zM629 252q103 0 170 69t67 175q0 89 -58 143.5t-153 54.5
q-102 0 -169.5 -69t-67.5 -174q0 -89 58 -144t153 -55z" />
    <glyph glyph-name="uni0441" unicode="&#x441;" horiz-adv-x="980" 
d="M557 -31q-224 0 -361 131.5t-137 348.5q0 241 155.5 384.5t418.5 143.5q209 0 385 -111l-154 -254q-127 84 -239 84q-111 0 -179.5 -63.5t-68.5 -167.5q0 -95 60 -154t155 -59q87 0 184 51l98 -260q-145 -74 -317 -74z" />
    <glyph glyph-name="uni0442" unicode="&#x442;" horiz-adv-x="935" 
d="M1018 946l-53 -278h-254q-42 0 -56 8l-2 -2q6 -25 0 -53l-12 -64l-111 -557h-309l111 557l12 64q8 36 21 53l-3 2q-18 -8 -59 -8h-254l53 278h916z" />
    <glyph glyph-name="uni0443" unicode="&#x443;" horiz-adv-x="1097" 
d="M1190 946l-871 -1356h-325l328 525l-230 831h316l86 -364q24 -104 10 -240l8 2q15 73 78 180l252 422h348z" />
    <glyph glyph-name="uni0444" unicode="&#x444;" horiz-adv-x="1826" 
d="M594 -410l80 410q26 136 80 252l-9 4q-80 -158 -161.5 -222.5t-182.5 -64.5q-67 0 -126.5 27t-106.5 80t-74.5 139t-27.5 195q0 157 53.5 284.5t159.5 205t247 77.5q126 0 205.5 -70.5t97.5 -216.5l11 4q-10 106 18 252l86 440h295l-84 -440q-27 -143 -78 -252l6 -4
q73 157 157.5 222t191.5 65q143 0 237 -108.5t94 -321.5q0 -116 -31 -220t-88.5 -184t-146.5 -127t-197 -47q-124 0 -202 70.5t-99 216.5l-8 -4q9 -99 -20 -252l-80 -410h-297zM557 242q101 0 163 76.5t62 187.5q0 102 -51 150.5t-127 48.5q-97 0 -156 -77t-59 -188
q0 -101 48 -149.5t120 -48.5zM1227 242q97 0 156 76.5t59 187.5q0 102 -48 150.5t-120 48.5q-101 0 -163 -77t-62 -188q0 -102 50.5 -150t127.5 -48z" />
    <glyph glyph-name="uni0445" unicode="&#x445;" horiz-adv-x="1153" 
d="M1200 946l-381 -403q-35 -38 -65 -51v-7q21 -12 47 -57l248 -428h-336l-125 213q-20 35 -25 58t-2 65h-8q-25 -74 -72 -123l-192 -213h-371l424 449q36 40 70 57l2 6q-26 16 -47 53l-230 381h340l96 -160q22 -36 29 -61t6 -68h6q22 67 76 129l139 160h371z" />
    <glyph glyph-name="uni0446" unicode="&#x446;" horiz-adv-x="1226" 
d="M788 -287l48 240q8 37 20 53l-2 2q-18 -8 -59 -8h-783l185 946h309l-123 -631q-7 -30 -21 -53v-2q18 8 60 8h258q41 0 55 -8l4 2q-7 20 0 53l123 631h309l-122 -631q-7 -30 -21 -53v-2q18 8 59 8h87l-109 -555h-277z" />
    <glyph glyph-name="uni0447" unicode="&#x447;" horiz-adv-x="1075" 
d="M754 946h309l-49 -246l-92 -473l-43 -227h-310l43 227l11 56q11 59 39 98l-5 4q-163 -80 -307 -80q-299 0 -299 270q0 52 17 142l45 229h307l-41 -215q-4 -32 -4 -45q0 -102 121 -102q79 0 194 41l17 75z" />
    <glyph glyph-name="uni0448" unicode="&#x448;" horiz-adv-x="1779" 
d="M1458 946h307l-184 -946h-1569l185 946h309l-123 -631q-7 -30 -21 -53v-2q18 8 60 8h223q41 0 55 -8l5 2q-7 20 0 53l122 631h310l-123 -631q-7 -30 -21 -53v-2q18 8 60 8h223q41 0 55 -8l4 2q-7 20 0 53z" />
    <glyph glyph-name="uni0449" unicode="&#x449;" horiz-adv-x="1820" 
d="M1382 -287l48 240q8 37 20 53l-2 2q-18 -8 -59 -8h-1377l185 946h309l-123 -631q-7 -30 -21 -53v-2q18 8 60 8h223q41 0 55 -8l5 2q-7 20 0 53l122 631h310l-123 -631q-7 -30 -21 -53v-2q18 8 60 8h223q41 0 55 -8l4 2q-7 20 0 53l123 631h307l-120 -631q-7 -30 -21 -53
v-2q18 8 59 8h84l-106 -555h-279z" />
    <glyph glyph-name="uni044A" unicode="&#x44a;" horiz-adv-x="1224" 
d="M827 688q76 0 138.5 -16t113.5 -51t79 -96t28 -144q0 -170 -112.5 -275.5t-321.5 -105.5h-537l70 352l53 271l4 16q8 37 20 53l-2 2q-18 -8 -59 -8h-248l49 260h607l-33 -168l-8 -43q-9 -37 -21 -53l2 -2q18 8 60 8h118zM727 238q64 0 93.5 35t29.5 81q0 99 -121 99h-65
q-42 0 -58 8l-2 -2q7 -20 0 -53l-10 -54l-14 -67q-8 -37 -21 -54l2 -2q20 9 60 9h106z" />
    <glyph glyph-name="uni044B" unicode="&#x44b;" horiz-adv-x="1468" 
d="M625 688q76 0 138.5 -16t113 -51t78.5 -96t28 -144q0 -170 -112.5 -275.5t-321.5 -105.5h-537l70 352l84 426l31 168h309l-33 -168l-8 -43q-3 -24 -21 -53v-2q18 8 60 8h121zM1147 946h307l-184 -946h-307zM524 238q65 0 94 35t29 81q0 99 -121 99h-67q-42 0 -56 8l-2 -2
q6 -25 0 -53l-10 -54l-14 -67q-8 -37 -21 -54l2 -2q20 9 60 9h106z" />
    <glyph glyph-name="uni044C" unicode="&#x44c;" horiz-adv-x="1024" 
d="M625 688q76 0 138.5 -16t113 -51t78.5 -96t28 -144q0 -170 -112.5 -275.5t-321.5 -105.5h-537l70 352l84 426l31 168h309l-33 -168l-8 -43q-3 -24 -21 -53v-2q18 8 60 8h121zM524 238q65 0 94 35t29 81q0 99 -121 99h-67q-42 0 -56 8l-2 -2q6 -25 0 -53l-10 -54l-14 -67
q-8 -37 -21 -54l2 -2q20 9 60 9h106z" />
    <glyph glyph-name="uni044D" unicode="&#x44d;" horiz-adv-x="991" 
d="M346 -31q-209 0 -383 111l154 252q122 -82 239 -82q80 0 136.5 27.5t80.5 74.5q15 25 25 33v4q-27 -8 -68 -8h-231l33 184h207q38 0 59 -8l2 4q-8 5 -20 33q-19 47 -68.5 73.5t-116.5 26.5q-88 0 -190 -51l-99 260q147 74 318 74q138 0 248.5 -52.5t179 -163t68.5 -263.5
q0 -110 -36 -205t-105.5 -168t-180.5 -114.5t-252 -41.5z" />
    <glyph glyph-name="uni044E" unicode="&#x44e;" horiz-adv-x="1660" 
d="M1112 977q229 0 361.5 -122.5t132.5 -334.5q0 -243 -159.5 -397t-410.5 -154q-201 0 -329.5 96t-157.5 267h-119q-41 0 -55 8l-2 -2q6 -25 0 -53l-56 -285h-305l185 946h303l-54 -282q-9 -39 -20 -54l2 -2q18 8 59 8h84q55 166 199 263.5t342 97.5zM1053 254
q107 0 176 71t69 177q0 88 -54 139t-148 51q-106 0 -176 -70.5t-70 -177.5q0 -88 54.5 -139t148.5 -51z" />
    <glyph glyph-name="uni044F" unicode="&#x44f;" horiz-adv-x="1101" 
d="M1090 946l-66 -336l-80 -399l-39 -211h-309l43 223l10 51q7 30 21 54l-2 2q-18 -8 -60 -8h-12l-297 -322h-371l2 12l246 234q51 47 82.5 67.5t73.5 32.5v6q-59 -8 -103 8q-64 23 -101.5 92t-37.5 162q0 150 111.5 241t294.5 91h594zM705 563l8 47l14 72q7 30 21 53v2
q-19 -8 -60 -8h-119q-68 0 -103.5 -28.5t-35.5 -82.5q0 -102 139 -102h78q39 0 55 -8l3 2q-6 25 0 53z" />
    <glyph glyph-name="uni0451" unicode="&#x451;" horiz-adv-x="1103" 
d="M674 1329l-53 -276h-234l55 276h232zM1038 1329l-55 -276h-233l55 276h233zM561 -31q-236 0 -372 121t-136 332q0 244 156.5 398.5t404.5 154.5q209 0 329 -101t120 -278q0 -74 -31 -201h-577q-45 0 -66 5t-41 20l-6 -6l4 -17v-14q3 -73 65.5 -116.5t163.5 -43.5
q128 0 279 80l98 -231q-199 -103 -391 -103zM371 563q19 19 86 19h225q58 0 80 -19l4 4q-4 10 -4 33q0 154 -168 154q-175 0 -227 -185z" />
    <glyph glyph-name="uni0452" unicode="&#x452;" horiz-adv-x="1165" 
d="M805 977q143 0 218 -79t75 -230q0 -60 -17 -146l-104 -522l-16 -86q-69 -324 -412 -324h-139l53 275h82q49 0 78 20t41 84l4 31l96 465q10 44 10 92q0 73 -38.5 111.5t-110.5 38.5q-91 0 -144.5 -62t-79.5 -199l-86 -446h-309l184 946l27 137q8 37 21 54l-2 2
q-20 -9 -60 -9h-63l32 179h66q39 0 57 -9l2 3q-7 20 0 53l21 108h309l-20 -108q-7 -30 -21 -53l2 -3q18 9 57 9h256l-34 -179h-256q-40 0 -56 9l-4 -2q8 -20 0 -54l-26 -137l-6 -33q-14 -75 -56 -161l6 -4q76 122 161.5 175.5t201.5 53.5z" />
    <glyph glyph-name="uni0453" unicode="&#x453;" horiz-adv-x="794" 
d="M1104 1346l-393 -316h-242l297 316h338zM12 0l185 946h680l-50 -260h-321q-41 0 -57 8l-3 -2q7 -20 0 -53l-124 -639h-310z" />
    <glyph glyph-name="uni0454" unicode="&#x454;" horiz-adv-x="980" 
d="M633 977q208 0 385 -111l-154 -252q-126 82 -239 82q-81 0 -137 -27.5t-80 -74.5q-15 -25 -27 -33l2 -4q27 8 68 8h229l-33 -184h-207q-36 0 -57 8l-4 -4q5 -3 22 -33q17 -47 67.5 -73.5t117.5 -26.5q88 0 190 51l98 -260q-147 -74 -317 -74q-102 0 -191.5 31
t-158.5 89.5t-108.5 151t-39.5 208.5q0 110 36 204.5t105.5 167.5t180.5 114.5t252 41.5z" />
    <glyph glyph-name="uni0455" unicode="&#x455;" horiz-adv-x="866" 
d="M88 340q192 -125 322 -125q67 0 67 45q0 17 -11.5 29.5t-47.5 32.5l-131 73q-94 53 -138.5 120t-44.5 159q0 141 96.5 222t266.5 81q198 0 412 -103l-111 -219q-157 80 -287 80q-69 0 -69 -41q0 -17 13 -29.5t56 -35.5l125 -70q100 -54 142.5 -115.5t42.5 -154.5
q0 -156 -100.5 -238t-291.5 -82q-243 0 -454 154z" />
    <glyph glyph-name="uni0456" unicode="&#x456;" horiz-adv-x="499" 
d="M604 1434l-65 -344h-334l65 344h334zM498 946l-185 -946h-309l184 946h310z" />
    <glyph glyph-name="uni0457" unicode="&#x457;" horiz-adv-x="499" 
d="M352 1329l-53 -276h-233l55 276h231zM717 1329l-55 -276h-234l55 276h234zM498 946l-185 -946h-309l184 946h310z" />
    <glyph glyph-name="uni0458" unicode="&#x458;" horiz-adv-x="499" 
d="M604 1434l-65 -344h-334l65 344h334zM498 946l-191 -979q-43 -217 -162.5 -312t-347.5 -95h-30l55 284h20q133 0 160 146l186 956h310z" />
    <glyph glyph-name="uni0459" unicode="&#x459;" horiz-adv-x="1658" 
d="M1260 688q77 0 140 -16t113.5 -51t78.5 -96t28 -144q0 -169 -113 -275t-321 -106h-518l123 631q7 33 20 53l-2 2q-16 -8 -57 -8h-183q-41 0 -57 8l-2 -2q7 -20 0 -53l-23 -117h2l-38 -197q-28 -153 -130 -235t-270 -82h-123l52 268h53q56 0 87.5 33.5t49.5 122.5l16 90
l84 432h873l-41 -211q-8 -32 -21 -53v-2q18 8 60 8h119zM1161 238q64 0 93.5 35t29.5 81q0 99 -121 99h-67q-42 0 -58 8l-2 -2q7 -20 0 -53l-24 -121q-8 -37 -21 -54l2 -2q20 9 60 9h108z" />
    <glyph glyph-name="uni045A" unicode="&#x45a;" horiz-adv-x="1667" 
d="M1266 670q76 0 139 -16t113.5 -50.5t79 -94.5t28.5 -142q0 -165 -112.5 -266t-321.5 -101h-530l69 365q7 30 21 53v2q-18 -8 -60 -8h-241q-42 0 -56 8l-4 -2q7 -20 0 -53l-69 -365h-310l185 946h309l-43 -229q-7 -30 -21 -53v-2q18 8 60 8h241q42 0 56 -8l4 2q-7 20 0 53
l43 229h311l-45 -229q-7 -33 -20 -53v-2q18 8 59 8h115zM1176 229q64 0 93 34t29 81q0 96 -120 96h-70q-39 0 -55 9l-2 -3q6 -25 0 -53l-25 -117q-7 -33 -20 -53l2 -2q16 8 57 8h111z" />
    <glyph glyph-name="uni045B" unicode="&#x45b;" horiz-adv-x="1165" 
d="M805 977q143 0 218 -79t75 -230q0 -60 -17 -146l-104 -522h-309l96 465q10 44 10 92q0 73 -38.5 111.5t-110.5 38.5q-91 0 -144.5 -62t-79.5 -199l-86 -446h-309l184 946l27 137q8 37 21 54l-2 2q-20 -9 -60 -9h-63l32 179h66q39 0 57 -9l2 3q-7 20 0 53l21 108h309
l-20 -108q-7 -30 -21 -53l2 -3q18 9 57 9h256l-34 -179h-256q-40 0 -56 9l-4 -2q8 -20 0 -54l-26 -137l-6 -33q-14 -75 -56 -161l6 -4q76 122 161.5 175.5t201.5 53.5z" />
    <glyph glyph-name="uni045C" unicode="&#x45c;" horiz-adv-x="1073" 
d="M1190 1346l-393 -316h-242l297 316h338zM784 -6q-152 0 -170 123l-22 145q-8 56 -28 79.5t-70 23.5h-45q-50 0 -62 4l-4 -2q3 -37 -6 -86l-55 -281h-310l185 946h309l-47 -244q-7 -34 -27 -81l2 -3q20 5 64 5h45q40 0 68.5 19.5t56.5 64.5l82 133q38 60 89 86t128 26h166
l-48 -239h-22q-59 0 -86 -47l-45 -68q-33 -53 -85.5 -76t-170.5 -26v-4q79 -2 122 -17.5t57 -37.5t22 -64l18 -82q13 -58 66 -58h26l-47 -239h-156z" />
    <glyph glyph-name="uni045E" unicode="&#x45e;" horiz-adv-x="1097" 
d="M664 997q-140 0 -226 71t-86 189q0 39 8 72h191q-2 -10 -2 -33q0 -48 28.5 -78t90.5 -30q130 0 168 141h198q-25 -159 -128 -245.5t-242 -86.5zM1190 946l-871 -1356h-325l328 525l-230 831h316l86 -364q24 -104 10 -240l8 2q15 73 78 180l252 422h348z" />
    <glyph glyph-name="uni045F" unicode="&#x45f;" horiz-adv-x="1165" 
d="M297 -287l47 240q8 36 21 53l-3 2q-18 -8 -59 -8h-291l185 946h309l-121 -620q-8 -34 -20 -54v-2q20 9 59 9h240q39 0 55 -9l4 2q-8 20 0 54l121 620h309l-184 -946h-291q-41 0 -55 8l-2 -2q6 -25 0 -53l-48 -240h-276z" />
    <glyph glyph-name="uni0462" unicode="&#x462;" horiz-adv-x="1402" 
d="M174 0l191 985q6 42 22 62l-4 4q-22 -11 -59 -11h-201l45 242h203q40 0 53 -10l6 4q-7 18 2 61l21 97h317l-20 -97q-10 -47 -21 -61l2 -4q20 10 57 10h357l-47 -242h-355q-40 0 -55 11l-4 -4q5 -13 -2 -62l-2 -18q-17 -51 -21 -56l3 -4q22 11 57 11h172q77 0 144 -11.5
t131 -41.5t109 -76.5t72 -120.5t27 -170q0 -121 -44 -216.5t-122.5 -156.5t-183 -93t-227.5 -32h-623zM539 268q22 11 57 11h186q131 0 196.5 52t65.5 140q0 166 -208 166h-170q-36 0 -56 10l-4 -4q7 -17 -2 -61l-47 -246q-11 -51 -22 -64z" />
    <glyph glyph-name="uni0463" unicode="&#x463;" horiz-adv-x="1095" 
d="M696 688q76 0 138.5 -16t113.5 -51t79 -96t28 -144q0 -170 -112.5 -275.5t-321.5 -105.5h-537l152 780q9 39 20 54l-2 2q-20 -9 -59 -9h-144l41 220h146q39 0 55 -9l2 2q-6 25 0 54l74 370h309l-74 -370q-8 -34 -20 -54l2 -2q18 9 57 9h297l-43 -220h-295q-39 0 -55 9
l-2 -2q4 -15 0 -54l-8 -45q-3 -24 -21 -53v-2q18 8 59 8h121zM596 238q65 0 94 35t29 81q0 99 -121 99h-68q-41 0 -55 8l-2 -2q6 -25 0 -53l-24 -121q-8 -37 -21 -54l2 -2q20 9 59 9h107z" />
    <glyph glyph-name="uni0472" unicode="&#x472;" horiz-adv-x="1654" 
d="M936 1464q210 0 371 -82.5t250.5 -237.5t89.5 -360q0 -168 -61 -317.5t-169 -259.5t-264.5 -174t-337.5 -64q-210 0 -371 82.5t-250.5 237.5t-89.5 360q0 168 61 317.5t169 259.5t264.5 174t337.5 64zM1319 827l4 7q-2 6 -14 61q-28 130 -136 201t-258 71
q-155 0 -270 -74.5t-168 -195.5q-12 -26 -39 -63l4 -7q27 11 82 11h719q54 0 76 -11zM1274 537q10 22 37 63l-4 6q-25 -10 -80 -10h-719q-56 0 -76 10l-4 -6q5 -16 8 -36.5t4 -24.5q30 -130 138.5 -201.5t257.5 -71.5q155 0 270 74.5t168 196.5z" />
    <glyph glyph-name="uni0473" unicode="&#x473;" horiz-adv-x="1173" 
d="M625 977q105 0 194 -28.5t156.5 -83.5t106 -143.5t38.5 -201.5q0 -154 -69 -278.5t-200 -198.5t-302 -74q-105 0 -194 28.5t-157 83.5t-106.5 143.5t-38.5 201.5q0 115 40.5 215.5t113.5 175t181.5 117.5t236.5 43zM817 518l4 4q0 15 -2 21q-20 178 -203 178
q-107 0 -171.5 -54.5t-82.5 -144.5l5 -4q17 17 84 17h286q68 0 80 -17zM557 225q107 0 171.5 54.5t82.5 144.5l-4 4q-16 -16 -84 -16h-287q-69 0 -80 16l-4 -4q0 -15 2 -21q20 -178 203 -178z" />
    <glyph glyph-name="uni0474" unicode="&#x474;" horiz-adv-x="1409" 
d="M567 -14l-381 1448h346l130 -666q1 -7 5 -26t5 -25t3.5 -21.5t3.5 -21.5t2.5 -19t2 -20.5t1 -18.5t0.5 -21.5t-1 -21.5h8q9 31 22 56.5t40 69t43 71.5l231 408q43 76 79.5 123t86 84.5t113 53t151.5 15.5q62 0 141 -8l-57 -291q-44 6 -78 6q-53 0 -86 -26.5t-82 -102.5
l-669 -1046h-60z" />
    <glyph glyph-name="uni0475" unicode="&#x475;" horiz-adv-x="1054" 
d="M1073 965h88l-57 -285h-19q-84 0 -129 -64l-446 -636h-113l-305 966h320l86 -352q1 -6 6.5 -29.5t6.5 -30t4 -25t3 -29.5t-1 -29t-3 -37h8q26 82 90 180l97 160q68 110 154.5 160.5t209.5 50.5z" />
    <glyph glyph-name="uni048E" unicode="&#x48e;" horiz-adv-x="1218" 
d="M1292 1026q0 -153 -73 -262.5t-209 -165.5l114 -162l-104 -71l-139 196q-89 -14 -166 -14h-197q-40 0 -55 10l-4 -4q9 -17 -2 -61l-97 -492h-317l279 1434h487q232 0 357.5 -106.5t125.5 -301.5zM739 983l103 -145q56 22 87.5 67t31.5 107q0 73 -47.5 111t-137.5 38h-139
q-33 0 -53 10l-6 -4q7 -18 -3 -61l-45 -229q-9 -48 -22 -64l4 -4q23 10 59 10h127l-63 92z" />
    <glyph glyph-name="uni048F" unicode="&#x48f;" horiz-adv-x="1243" 
d="M1192 543q0 -158 -57 -283.5t-158 -200.5l82 -104l-94 -74l-95 121q-79 -33 -178 -33q-136 0 -225.5 64.5t-118.5 183.5l-10 -4q-2 -101 -23 -213l-79 -410h-304l265 1356h303q-20 -121 -64 -211l8 -4q131 246 369 246q174 0 276.5 -117t102.5 -317zM629 252q29 0 41 2
l-97 121l95 74l114 -144q84 71 84 191q0 89 -58 143.5t-153 54.5q-102 0 -169.5 -69t-67.5 -174q0 -89 58 -144t153 -55z" />
    <glyph glyph-name="uni0490" unicode="&#x490;" horiz-adv-x="1077" 
d="M1012 1720h297l-111 -575h-563q-42 0 -55 10l-7 -4q7 -19 -2 -61l-211 -1090h-317l279 1434h581q40 0 55 -11l5 4q-6 15 4 64z" />
    <glyph glyph-name="uni0491" unicode="&#x491;" horiz-adv-x="864" 
d="M692 1233h309l-104 -547h-391q-41 0 -57 8l-3 -2q7 -20 0 -53l-124 -639h-310l185 946h391q41 0 55 -8l2 2q-6 25 0 53z" />
    <glyph glyph-name="uni0492" unicode="&#x492;" horiz-adv-x="1161" 
d="M780 1145q-38 0 -55 10l-4 -4q5 -23 -4 -64l-8 -51l-21 -98q-6 -47 -20 -64l2 -4q22 11 57 11h340l-45 -242h-340q-42 0 -55 10l-4 -4q5 -12 -2 -63l-113 -582h-318l113 582q6 41 23 63l-4 4q-20 -10 -60 -10h-217l45 242h219q38 0 53 -11l7 4q-5 13 2 64l20 98l78 398
h868l-55 -289h-502z" />
    <glyph glyph-name="uni0493" unicode="&#x493;" horiz-adv-x="833" 
d="M543 686q-42 0 -56 8l-2 -2q6 -25 0 -53l-14 -72q-7 -33 -20 -53l2 -2q16 8 57 8h209l-43 -223h-209q-41 0 -55 8l-2 -2q6 -25 0 -53l-50 -250h-309l49 250q8 36 21 53l-2 2q-18 -8 -60 -8h-69l43 223h69q42 0 58 -8l2 2q-7 20 0 53l74 379h679l-51 -260h-321z" />
    <glyph glyph-name="uni0494" unicode="&#x494;" horiz-adv-x="1368" 
d="M934 893q187 0 282 -82t95 -242q0 -52 -21 -155l-20 -109l-58 -297q-42 -221 -159.5 -319.5t-321.5 -98.5h-190l57 297h115q83 0 127.5 38.5t64.5 133.5l49 246l13 64q14 82 14 102q0 123 -178 123q-147 0 -338 -53l-105 -541h-317l205 1053l74 381h946l-56 -289h-577
q-42 0 -55 10l-7 -4q7 -19 -2 -61l-8 -37h2l-20 -101q-14 -81 -41 -125l2 -4q92 32 211.5 51t216.5 19z" />
    <glyph glyph-name="uni0495" unicode="&#x495;" horiz-adv-x="1105" 
d="M371 -410l53 279h88q59 0 91.5 28.5t45.5 96.5l17 88q10 45 10 84q0 90 -121 90q-75 0 -193 -41l-40 -215h-310l185 946h751l-51 -260h-391q-41 0 -57 8l-3 -2q7 -20 0 -53l-16 -82q-13 -61 -37 -98l4 -4q160 80 305 80q297 0 297 -271q0 -58 -16 -143l-37 -199
q-29 -156 -142.5 -244t-273.5 -88h-159z" />
    <glyph glyph-name="uni0496" unicode="&#x496;" horiz-adv-x="2240" 
d="M1999 299l-14 -72h204l-100 -514h-299l55 277q-29 -2 -63 -2q-121 0 -180 57.5t-62 179.5l-8 232q-3 87 -43.5 117t-147.5 30h-79q-41 0 -58 10l-4 -4q7 -20 -2 -65l-104 -545h-314l105 545q10 46 22 65l-4 4q-17 -10 -59 -10h-82q-85 0 -124.5 -29t-76.5 -118l-104 -238
q-102 -231 -387 -231q-61 0 -140 8l60 303q60 -6 80 -6q60 0 96 25t70 98l57 141q42 109 121 147t258 44l2 4q-181 5 -244.5 35.5t-69.5 125.5l-12 168q-5 78 -90 78q-39 0 -84 -4l55 283q73 8 138 8q113 0 171.5 -41.5t69.5 -153.5l21 -213q11 -86 47.5 -117.5t140.5 -31.5
h82q42 0 55 -10l7 4q-7 20 2 65l96 486h313l-94 -486q-10 -47 -25 -65l2 -4q20 10 62 10h82q82 0 123 31t84 118l102 213q53 106 141.5 150.5t227.5 44.5q60 0 123 -8l-56 -283q-41 4 -80 4q-92 0 -129 -78l-73 -168q-41 -96 -117 -126t-256 -35l-2 -4q187 -6 254.5 -44
t70.5 -151l5 -135q1 -74 23.5 -99.5t72.5 -25.5q11 0 86 6z" />
    <glyph glyph-name="uni0497" unicode="&#x497;" horiz-adv-x="1710" 
d="M1438 152h198l-86 -439h-278l55 281h-57q-149 0 -168 123l-25 145q-5 28 -7.5 39.5t-9.5 29.5t-17 25t-27.5 13t-42.5 6h-31q-47 0 -63 4l-2 -2q3 -33 -7 -86l-55 -291h-272l57 291q8 42 27 86l-2 2q-16 -4 -64 -4h-31q-42 0 -64.5 -25t-53.5 -88l-76 -145
q-62 -123 -217 -123h-174l47 239h26q34 0 54.5 11t42.5 47l47 84q34 60 83.5 87t157.5 30l3 4q-106 3 -145 25.5t-52 76.5l-14 57q-7 33 -26 45.5t-56 12.5h-33l47 239h164q64 0 98.5 -26.5t46.5 -85.5l33 -133q16 -52 35.5 -73.5t70.5 -21.5h31q48 0 64 -4l2 2q-3 35 6 82
l49 254h272l-51 -256q-9 -42 -26 -82l2 -2q16 4 63 4h31q38 0 61 22t56 75l84 133q70 112 215 112h165l-45 -239h-32q-67 0 -97 -47l-47 -68q-31 -53 -79 -76t-156 -26l-2 -4q74 -2 115 -16.5t56.5 -37t24.5 -63.5l21 -84q7 -35 21 -46.5t48 -11.5h27z" />
    <glyph glyph-name="uni0498" unicode="&#x498;" horiz-adv-x="1177" 
d="M870 729q117 -27 181.5 -106t64.5 -207q0 -66 -17 -125.5t-57.5 -116t-102.5 -99t-157.5 -70.5t-216.5 -34l-24 -43q164 -25 164 -125q0 -24 -7 -45.5t-23 -40.5t-33 -35t-46 -32t-52 -27.5t-61.5 -26.5t-64 -24.5t-70 -25.5t-69.5 -25l-25 96q111 50 151.5 76.5
t40.5 52.5q0 41 -90 57l95 166q-286 9 -512 121l159 277q208 -105 404 -105q142 0 212 47t70 119q0 79 -59.5 119.5t-169.5 40.5h-195l58 301h198q117 0 170.5 47t53.5 121q0 60 -42 89.5t-141 29.5q-182 0 -383 -70l-86 276q266 82 529 82q226 0 351.5 -80.5t125.5 -253.5
q0 -138 -73.5 -222t-229.5 -132q-67 -21 -158 -24l-2 -9q88 0 139 -14z" />
    <glyph glyph-name="uni0499" unicode="&#x499;" horiz-adv-x="962" 
d="M922 737q0 -112 -81 -170.5t-257 -68.5l-2 -4q132 -6 207 -65t75 -165q0 -53 -19.5 -99.5t-63.5 -90t-127 -71t-197 -32.5l-25 -43q164 -25 164 -125q0 -24 -7 -45.5t-23 -40.5t-33 -35t-46 -32t-52 -27.5t-61.5 -26.5t-64 -24.5t-70 -25.5t-69.5 -25l-25 96
q112 51 152.5 77t40.5 52q0 41 -90 57l94 168q-207 9 -352 76l102 232q148 -70 289 -70q162 0 162 88q0 82 -137 82h-179l41 205h183q61 0 90.5 22.5t29.5 61.5q0 38 -31.5 53.5t-97.5 15.5q-128 0 -270 -47l-74 221q216 66 432 66q89 0 157 -11.5t122.5 -38t83.5 -74.5
t29 -116z" />
    <glyph glyph-name="uni049A" unicode="&#x49a;" horiz-adv-x="1536" 
d="M1292 303l-14 -76h207l-101 -514h-299l56 277q-25 -2 -58 -2q-101 0 -164.5 60t-70.5 194l-14 213q-6 84 -52.5 115.5t-148.5 31.5h-103q-46 0 -57 8l-6 -4q7 -18 -2 -65l-105 -541h-317l279 1434h317l-94 -484q-10 -46 -23 -63l4 -4q20 8 60 8h104q72 0 119.5 33.5
t85.5 113.5l96 213q44 102 126 148.5t216 46.5q77 0 156 -8l-55 -287q-41 4 -80 4q-85 0 -125 -76l-82 -166q-45 -96 -118.5 -126t-250.5 -35v-4q181 -6 250.5 -53.5t77.5 -164.5l6 -110q3 -75 23.5 -99t72.5 -24q9 0 84 6z" />
    <glyph glyph-name="uni049B" unicode="&#x49b;" horiz-adv-x="1232" 
d="M971 152h198l-86 -439h-278l55 281h-76q-152 0 -170 123l-22 145q-8 56 -28 79.5t-70 23.5h-45q-50 0 -62 4l-4 -2q3 -37 -6 -86l-55 -281h-310l185 946h309l-47 -244q-7 -34 -27 -81l2 -3q20 5 64 5h45q40 0 68.5 19.5t56.5 64.5l82 133q38 60 89 86t128 26h166
l-48 -239h-22q-59 0 -86 -47l-45 -68q-33 -53 -85.5 -76t-170.5 -26v-4q79 -2 122 -17.5t57 -37.5t22 -64l18 -82q13 -58 66 -58h26z" />
    <glyph glyph-name="uni049C" unicode="&#x49c;" horiz-adv-x="1347" 
d="M1333 1446q77 0 156 -8l-55 -287q-41 4 -80 4q-85 0 -125 -76l-82 -166q-45 -96 -118.5 -126t-250.5 -35v-4q181 -6 250.5 -53.5t77.5 -164.5l6 -110q3 -75 23.5 -99t72.5 -24q9 0 84 6l-59 -307q-93 -8 -150 -8q-101 0 -164.5 60t-70.5 194l-14 213q-4 73 -40.5 106
t-109.5 39l-49 -248h-121l49 250h-33q-46 0 -57 8l-6 -4q7 -18 -2 -65l-105 -541h-317l279 1434h317l-94 -484q-10 -46 -23 -63l4 -4q20 8 60 8h32l54 266h121l-52 -260q50 9 87 42.5t67 98.5l96 213q44 102 126 148.5t216 46.5z" />
    <glyph glyph-name="uni049D" unicode="&#x49d;" horiz-adv-x="1073" 
d="M967 952h166l-48 -239h-22q-59 0 -86 -47l-45 -68q-33 -53 -85.5 -76t-170.5 -26v-4q79 -2 122 -17.5t57 -37.5t22 -64l18 -82q13 -58 66 -58h26l-47 -239h-156q-152 0 -170 123l-22 145q-6 49 -23.5 72.5t-56.5 27.5l-35 -180h-61l35 183h-2q-50 0 -62 4l-4 -2
q3 -37 -6 -86l-55 -281h-310l185 946h309l-47 -244q-7 -34 -27 -81l2 -3q20 5 64 5h4l33 174h61l-33 -172q32 4 56 23.5t49 58.5l82 133q38 60 89 86t128 26z" />
    <glyph glyph-name="uni049E" unicode="&#x49e;" horiz-adv-x="1460" 
d="M1446 1446q77 0 156 -8l-56 -287q-41 4 -80 4q-85 0 -125 -76l-81 -166q-45 -96 -118.5 -126t-250.5 -35v-4q181 -6 250.5 -53.5t75.5 -164.5l6 -110q4 -75 25 -99t73 -24q9 0 84 6l-59 -307q-93 -8 -150 -8q-101 0 -164.5 60t-70.5 194l-15 213q-6 84 -52.5 115.5
t-148.5 31.5h-102q-44 0 -57 10l-6 -4q7 -21 -2 -65l-105 -543h-317l190 985q10 46 23 62l-4 4q-22 -11 -60 -11h-182l45 242h182q43 0 56 -10l6 4q-7 18 2 61l20 97h318l-21 -97q-9 -42 -20 -61l2 -4q20 10 57 10h197l-45 -242h-197q-40 0 -55 11l-4 -4q5 -13 -2 -62
l-9 -37q-10 -48 -22 -63l4 -4q24 8 59 8h105q73 0 121 34t86 115l96 213q44 102 126 148.5t216 46.5z" />
    <glyph glyph-name="uni049F" unicode="&#x49f;" horiz-adv-x="1067" 
d="M958 952h166l-45 -239h-22q-32 0 -51.5 -10.5t-36.5 -36.5l-43 -68q-33 -53 -85.5 -76t-170.5 -26v-4q60 -1 97.5 -9t58 -25t29 -35t15.5 -50l19 -82q10 -58 65 -58h27l-47 -239h-156q-152 0 -170 123l-22 145q-8 56 -29 79.5t-72 23.5h-45q-49 0 -61 4l-4 -2
q3 -37 -6 -86l-54 -281h-309l184 946l27 137q8 37 21 54l-2 2q-20 -9 -60 -9h-63l32 179h66q39 0 57 -9l2 3q-7 20 0 53l21 108h309l-20 -108q-7 -30 -21 -53l2 -3q18 9 57 9h256l-34 -179h-256q-40 0 -56 9l-2 -2q6 -25 0 -54l-26 -137l-47 -244q-7 -34 -27 -81l2 -3
q20 5 64 5h45q39 0 68 19.5t57 64.5l81 133q38 60 88.5 86t126.5 26z" />
    <glyph glyph-name="uni04A0" unicode="&#x4a0;" horiz-adv-x="1572" 
d="M1561 1446q74 0 155 -8l-57 -287q-41 4 -80 4q-85 0 -125 -76l-80 -166q-46 -96 -118.5 -126t-249.5 -35v-4q122 -4 190.5 -26.5t99 -67.5t35.5 -124l6 -110q4 -75 25.5 -99t71.5 -24q11 0 86 6l-60 -307q-96 -8 -149 -8q-102 0 -166 60t-72 194l-14 213
q-6 84 -52.5 115.5t-148.5 31.5h-102q-43 0 -56 10l-6 -4q7 -21 -2 -65l-106 -543h-318l197 1012l14 78q10 45 23 61l-4 4q-20 -10 -60 -10h-297l56 289h665l-80 -422l-12 -64q-10 -48 -22 -63l4 -4q20 8 59 8h104q72 0 120.5 34.5t84.5 114.5l99 213q44 103 125.5 149
t216.5 46z" />
    <glyph glyph-name="uni04A1" unicode="&#x4a1;" horiz-adv-x="1245" 
d="M1139 952h166l-45 -239h-19q-62 0 -92 -47l-43 -68q-23 -36 -49 -55.5t-76.5 -32t-132.5 -14.5v-4q80 -2 126 -17t63 -38t26 -64l18 -82q6 -34 17.5 -46t36.5 -12h26l-49 -239h-154q-161 0 -176 123l-18 145q-6 55 -27 79t-71 24h-45q-50 0 -62 4l-4 -2q3 -37 -6 -86
l-53 -281h-310l121 623l4 16q8 36 21 53l-2 2q-18 -8 -60 -8h-217l49 260h576l-33 -168l-14 -76q-7 -34 -27 -81l2 -3q20 5 64 5h45q40 0 68.5 19.5t58.5 64.5l82 133q36 59 87.5 85.5t127.5 26.5z" />
    <glyph glyph-name="uni04A2" unicode="&#x4a2;" horiz-adv-x="1583" 
d="M1561 1434l-236 -1207h207l-100 -514h-299l57 287h-225l106 557q9 43 23 61l-2 5q-22 -11 -60 -11h-502q-35 0 -53 11l-6 -5q7 -17 -2 -61l-109 -557h-317l279 1434h317l-92 -476q-10 -46 -23 -63l4 -4q23 10 60 10h499q43 0 56 -10l4 4q-7 18 2 63l94 476h318z" />
    <glyph glyph-name="uni04A3" unicode="&#x4a3;" horiz-adv-x="1261" 
d="M999 152h199l-86 -439h-278l55 287h-227l65 334q8 36 21 53l-3 2q-18 -8 -59 -8h-242q-41 0 -55 8l-2 -2q6 -25 0 -53l-65 -334h-310l185 946h309l-49 -260q-7 -32 -23 -53l2 -2q18 8 60 8h241q42 0 56 -8l2 2q-5 21 2 53l49 260h309z" />
    <glyph glyph-name="uni04A4" unicode="&#x4a4;" horiz-adv-x="1820" 
d="M1202 1434h795l-55 -289h-426q-39 0 -56 10l-6 -4q7 -19 -2 -64l-8 -45l-201 -1042h-319l108 557q9 43 23 61l-2 5q-26 -11 -60 -11h-463q-35 0 -53 11l-6 -5q7 -17 -2 -61l-109 -557h-317l279 1434h317l-92 -476q-10 -46 -23 -63l4 -4q23 10 60 10h461q42 0 55 -10l4 4
q-7 18 2 63l16 84z" />
    <glyph glyph-name="uni04A5" unicode="&#x4a5;" horiz-adv-x="1413" 
d="M825 946h670l-51 -260h-309q-42 0 -58 8l-2 -2q7 -20 0 -53l-10 -53l-115 -586h-309l66 334q8 37 20 53l-2 2q-18 -8 -59 -8h-222q-41 0 -55 8l-2 -2q6 -25 0 -53l-65 -334h-310l185 946h309l-49 -260q-7 -32 -23 -53l2 -2q18 8 60 8h221q41 0 55 -8l2 2q-5 21 2 53
l15 86z" />
    <glyph glyph-name="uni04A6" unicode="&#x4a6;" horiz-adv-x="2271" 
d="M1849 893q187 0 285 -77.5t98 -225.5q0 -45 -8 -86l-12 -66l-8 -35q-44 -221 -156.5 -312t-306.5 -91h-191l58 297h94q89 0 132 28.5t56 100.5l2 12l4 13q5 22 5 45q0 47 -47.5 72.5t-137.5 25.5q-144 0 -340 -53l-102 -541h-318l203 1055l8 35q11 48 21 61l-2 4
q-20 -10 -58 -10h-493q-42 0 -55 10l-7 -4q7 -19 -2 -61l-211 -1090h-317l279 1434h1230l-96 -482q-18 -88 -41 -125l4 -4q93 32 211 51t219 19z" />
    <glyph glyph-name="uni04A7" unicode="&#x4a7;" horiz-adv-x="1738" 
d="M1026 -410l55 279h86q115 0 144 154l32 174q7 40 7 59q0 109 -119 109q-76 0 -191 -43l-63 -322h-307l121 631q7 33 20 53l-2 2q-16 -8 -57 -8h-248q-42 0 -58 8l-2 -2q7 -20 0 -53l-122 -631h-310l185 946h964l-55 -280q-11 -62 -37 -99l4 -4q163 80 303 80
q144 0 220.5 -65t76.5 -213q0 -62 -16 -156l-55 -285q-17 -86 -58 -152t-97.5 -105t-122 -58t-138.5 -19h-160z" />
    <glyph glyph-name="uni04A8" unicode="&#x4a8;" horiz-adv-x="1714" 
d="M776 -31q-320 0 -496 180.5t-176 489.5q0 172 57.5 321t166 262t276.5 177.5t377 64.5q148 0 293 -34l-96 -277q-89 21 -181 21q-138 0 -244 -41.5t-170 -115.5t-96 -169.5t-32 -210.5q0 -147 50.5 -246.5t143.5 -136.5q75 -30 166 -35l2 6q-71 31 -108 111
q-41 78 -41 192q0 146 55.5 266t168.5 194.5t265 74.5q177 0 290.5 -100t113.5 -287q0 -121 -48.5 -224.5t-130.5 -175.5q-57 -49 -116 -63l2 -6q19 2 37.5 3t27 1.5t30 4t58.5 9.5q69 12 148 43l51 -231q-176 -68 -363 -68q-211 0 -245 72h-11q-97 -72 -225 -72zM1049 272
h4q3 12 7 21.5t11 18t11.5 13.5t15.5 15.5t16 15.5q133 122 133 277q0 141 -104 141q-81 0 -122.5 -73.5t-41.5 -178.5q0 -90 35 -155q4 -9 12 -24.5t10.5 -22.5t6.5 -20t6 -28z" />
    <glyph glyph-name="uni04A9" unicode="&#x4a9;" horiz-adv-x="1275" 
d="M512 -31q-215 0 -336 120t-121 337q0 137 51 244.5t138.5 173t199 99.5t238.5 34q101 0 223 -31l-74 -229q-77 18 -133 18q-151 0 -243.5 -80.5t-92.5 -232.5q0 -167 113 -225q42 -25 113 -25l2 4q-44 22 -70 66q-24 46 -24 102q0 139 97 237.5t263 98.5q135 0 216 -67.5
t81 -194.5q0 -124 -90 -217q-29 -33 -90 -64l2 -2q27 3 84 17q38 10 67 26l52 -158q-128 -51 -230 -51q-141 0 -168 66h-6q-120 -66 -262 -66zM791 184h4q5 23 41 47q79 55 79 156q0 86 -73 86q-59 0 -85 -45.5t-26 -103.5q0 -86 60 -140z" />
    <glyph glyph-name="uni04AA" unicode="&#x4aa;" horiz-adv-x="1441" 
d="M1329 111q-239 -133 -473 -142l-25 -41q164 -25 164 -125q0 -24 -7 -45.5t-23 -40.5t-33 -35t-46 -32t-52 -27.5t-61.5 -26.5t-64 -24.5t-70 -25.5t-69.5 -25l-24 96q111 50 151.5 76.5t40.5 52.5q0 41 -90 57l94 170q-288 25 -460 212.5t-172 480.5q0 174 63 322.5
t175 253t271 163.5t345 59q322 0 544 -153l-186 -260q-165 108 -365 108q-230 0 -372 -133.5t-142 -349.5q0 -181 108.5 -291.5t285.5 -110.5q172 0 360 107z" />
    <glyph glyph-name="uni04AB" unicode="&#x4ab;" horiz-adv-x="980" 
d="M874 43q-139 -71 -305 -74l-24 -41q164 -25 164 -125q0 -24 -7 -45.5t-23 -40.5t-33 -35t-46 -32t-52 -27.5t-61.5 -26.5t-64 -24.5t-70 -25.5t-69.5 -25l-25 96q112 51 152.5 77t40.5 52q0 41 -91 57l99 174q-184 28 -292 154.5t-108 317.5q0 241 155.5 384.5
t418.5 143.5q209 0 385 -111l-154 -254q-127 84 -239 84q-111 0 -179.5 -63.5t-68.5 -167.5q0 -95 60 -154t155 -59q87 0 184 51z" />
    <glyph glyph-name="uni04AC" unicode="&#x4ac;" horiz-adv-x="1112" 
d="M199 1434h1087l-57 -293h-334q-36 0 -53 10l-4 -4q4 -22 -4 -60l-166 -860h206l-100 -514h-299l57 287h-227l211 1087q9 40 21 60l-5 4q-20 -10 -57 -10h-334z" />
    <glyph glyph-name="uni04AD" unicode="&#x4ad;" horiz-adv-x="935" 
d="M1018 946l-53 -278h-254q-42 0 -56 8l-2 -2q6 -25 0 -53l-12 -64l-80 -405h197l-86 -439h-279l56 287h-228l111 557l12 64q8 36 21 53l-3 2q-18 -8 -59 -8h-254l53 278h916z" />
    <glyph glyph-name="uni04AE" unicode="&#x4ae;" horiz-adv-x="1353" 
d="M1540 1434l-696 -926l-101 -508h-317l100 508l-340 926h353l133 -465q23 -77 30 -112t7 -81h8q12 32 28 62t29.5 51.5t52.5 79.5l314 465h399z" />
    <glyph glyph-name="uni04AF" unicode="&#x4af;" horiz-adv-x="1099" 
d="M1190 946l-572 -809l-106 -547h-279l109 566l-250 790h324l80 -362q1 -7 6.5 -30t6.5 -30t4 -25.5t3 -29.5v-29t-2 -37h8q6 19 12.5 36.5t11.5 29.5t14.5 30t14 25.5t17.5 29.5t18 30l219 362h361z" />
    <glyph glyph-name="uni04B0" unicode="&#x4b0;" horiz-adv-x="1353" 
d="M848 504q17 10 57 10h199l-49 -240h-209q-33 0 -55 11l-5 -4q7 -19 -2 -64l-41 -217h-317l41 217q10 49 22 64l-4 4q-18 -11 -59 -11h-205l47 240h199q35 0 55 -10l4 4l-340 926h353l133 -465q22 -74 29.5 -110t7.5 -83h8q26 70 110 193l314 465h399l-696 -926z" />
    <glyph glyph-name="uni04B1" unicode="&#x4b1;" horiz-adv-x="1099" 
d="M633 154q16 8 57 8h211l-53 -271h-227q-40 0 -56 9l-2 -2q6 -25 0 -54l-51 -254h-279l52 254q9 39 20 54l-2 2q-20 -9 -59 -9h-228l52 271h217q41 0 57 -8l2 2l-252 790h324l80 -362q1 -7 6.5 -30t6.5 -30t4 -25.5t3 -29.5v-29t-2 -37h8q6 19 12.5 36.5t11.5 29.5
t14.5 30t14 25.5t17.5 29.5t18 30l219 362h361l-557 -790v-2z" />
    <glyph glyph-name="uni04B2" unicode="&#x4b2;" horiz-adv-x="1585" 
d="M1049 629l219 -402h266l-100 -514h-299l57 287h-191l-206 414q-35 69 -35 137h-8q-21 -62 -84 -137l-338 -414h-420l588 662q81 92 116 112v8q-6 5 -11 11t-12 17t-12 21t-17 31.5t-21 38.5l-299 533h383l168 -330q36 -73 36 -139h9q10 29 30 58.5t60 78.5l266 332h426
l-518 -566q-93 -100 -121 -118l-2 -9q21 -19 70 -112z" />
    <glyph glyph-name="uni04B3" unicode="&#x4b3;" horiz-adv-x="1261" 
d="M801 428l160 -276h227l-86 -439h-279l56 287h-166l-125 213q-20 35 -25 58t-2 65h-8q-25 -74 -72 -123l-192 -213h-371l424 449q36 40 70 57l2 6q-26 16 -47 53l-230 381h340l96 -160q22 -36 29 -61t6 -68h6q22 67 76 129l139 160h371l-381 -403q-35 -38 -65 -51v-7
q21 -12 47 -57z" />
    <glyph glyph-name="uni04B4" unicode="&#x4b4;" horiz-adv-x="1757" 
d="M1505 279q20 10 60 10h123l-113 -576h-297l45 230q9 45 20 63l-4 4q-17 -10 -55 -10h-1018l180 934l31 153q9 40 21 60l-4 4q-20 -10 -58 -10h-295l58 293h1007l-57 -293h-293q-40 0 -53 10l-4 -4q4 -22 -4 -60l-31 -153l-115 -590q-7 -44 -20 -61l4 -4q17 10 57 10h455
q38 0 55 -10l4 4q-7 19 2 61l211 1090h318l-211 -1090q-10 -45 -23 -61z" />
    <glyph glyph-name="uni04B5" unicode="&#x4b5;" horiz-adv-x="1337" 
d="M1161 260q18 8 60 8h63l-110 -555h-277l47 240q8 36 21 53l-2 2q-18 -8 -60 -8h-745l106 539l17 82q8 37 20 53l-2 2q-18 -8 -59 -8h-191l53 278h750l-53 -278h-152q-41 0 -55 8l-2 -2q6 -25 0 -53l-17 -82l-45 -224q-8 -37 -20 -53l2 -2q18 8 59 8h244q41 0 55 -8l2 2
q-6 25 0 53l123 631h310l-123 -631q-8 -36 -21 -53z" />
    <glyph glyph-name="uni04B6" unicode="&#x4b6;" horiz-adv-x="1392" 
d="M1370 1434l-235 -1207h206l-100 -514h-299l57 287h-223l82 424q13 77 41 125l-4 4q-190 -70 -383 -70q-202 0 -308 93.5t-106 273.5q0 47 15 135l86 449h319l-80 -404q-6 -40 -6 -72q0 -167 203 -167q130 0 303 53l115 590h317z" />
    <glyph glyph-name="uni04B7" unicode="&#x4b7;" horiz-adv-x="1140" 
d="M907 152h160l-86 -439h-276l55 287h-191l43 227l11 56q11 59 39 98l-5 4q-163 -80 -307 -80q-299 0 -299 270q0 52 17 142l45 229h307l-41 -215q-4 -32 -4 -45q0 -102 121 -102q79 0 194 41l17 75l47 246h309l-49 -246l-92 -473z" />
    <glyph glyph-name="uni04B8" unicode="&#x4b8;" horiz-adv-x="1318" 
d="M1053 1434h317l-278 -1434h-316l82 424q13 77 41 125l-4 4q-102 -39 -231 -57l-43 -215h-121l39 202h-27q-202 0 -308 93.5t-106 273.5q0 47 15 135l86 449h319l-80 -404q-6 -40 -6 -72q0 -81 42.5 -120t125.5 -45l57 292h121l-57 -288q112 14 217 47z" />
    <glyph glyph-name="uni04B9" unicode="&#x4b9;" horiz-adv-x="1075" 
d="M754 946h309l-49 -246l-92 -473l-43 -227h-310l43 227l11 56q11 59 39 98l-5 4q-86 -42 -157 -61l-31 -160h-61l28 147q-40 -6 -86 -6q-299 0 -299 270q0 52 17 142l45 229h307l-41 -215q-4 -32 -4 -45q0 -99 114 -102l37 188h62l-37 -184q45 6 139 37l17 75z" />
    <glyph glyph-name="uni04BA" unicode="&#x4ba;" horiz-adv-x="1318" 
d="M637 1434l-82 -424q-16 -84 -41 -125l4 -4q184 69 383 69q201 0 307.5 -93.5t106.5 -272.5q0 -47 -15 -135l-86 -449h-319l80 403q6 40 6 72q0 168 -203 168q-129 0 -305 -53l-113 -590h-317l279 1434h315z" />
    <glyph glyph-name="uni04BB" unicode="&#x4bb;" horiz-adv-x="1171" 
d="M606 1464l-86 -436q-34 -173 -78 -274l7 -4q78 123 161.5 175t200.5 52q143 0 219 -79.5t76 -229.5q0 -63 -19 -146l-104 -522h-307l94 465q10 46 10 92q0 73 -38.5 111.5t-110.5 38.5q-91 0 -143 -61.5t-80 -199.5l-86 -446h-310l285 1464h309z" />
    <glyph glyph-name="uni04BC" unicode="&#x4bc;" horiz-adv-x="1982" 
d="M1221 -31q-132 0 -245.5 31t-196 84.5t-143.5 126t-95 154.5t-45 172q-4 31 4 57l-6 6q-38 -18 -95 -18q-58 0 -108 13.5t-94 43.5t-69.5 85t-25.5 130q0 59 19 143h264q-6 -48 -6 -61q0 -44 21.5 -61.5t68.5 -22.5q24 -3 32 -6.5t19 -14.5l6 5q-5 20 2 51
q17 77 54.5 154t104 154.5t152.5 136t209.5 95.5t266.5 37q311 0 489 -162t178 -434q0 -142 -32 -284h-1026q-53 0 -93 16l-6 -6q8 -18 19 -80q6 -44 31 -84.5t68.5 -76t115.5 -56.5t162 -21q120 0 231 39t236 115l135 -287q-298 -174 -602 -174zM829 834q45 18 107 18h623
q76 0 102 -18l6 4q-8 28 -12 73q-11 135 -107.5 200t-247.5 65q-78 0 -144 -17.5t-108.5 -42.5t-78.5 -63t-54.5 -67.5t-37.5 -67.5q-1 -2 -3 -7q-19 -41 -40 -62l-9 -9z" />
    <glyph glyph-name="uni04BD" unicode="&#x4bd;" horiz-adv-x="1380" 
d="M842 -31q-213 0 -350 101t-156 272q-5 37 10 66l-2 2q-43 -15 -72 -15q-114 0 -174 52.5t-59 152.5q0 62 49 135h197q-45 -68 -45 -104q0 -26 13.5 -37t49.5 -12q5 0 11.5 -0.5t8 -0.5t5.5 -1t5 -1t5.5 -2.5t6.5 -4t9 -5.5l4 4q-4 25 11 68q69 166 200.5 251t319.5 85
q211 0 330.5 -100.5t119.5 -278.5q0 -73 -28 -201h-580q-45 0 -65 5t-41 20l-7 -6l5 -17v-14q3 -73 65.5 -116.5t163.5 -43.5q127 0 278 80l99 -231q-199 -103 -387 -103zM647 563q19 19 86 19h225q60 0 74 -17l4 4q2 6 2 31q0 154 -168 154q-175 0 -227 -185z" />
    <glyph glyph-name="uni04BE" unicode="&#x4be;" horiz-adv-x="1982" 
d="M924 584q-53 0 -93 16l-6 -6q8 -18 19 -80q6 -44 31 -84.5t68.5 -76t115.5 -56.5t162 -21q120 0 231 39t236 115l135 -287q-152 -90 -301 -133q-201 -146 -201 -209q0 -18 13 -28.5t34 -10.5q25 0 82 11l-10 -191q-137 -18 -150 -18q-198 0 -198 155q0 65 43.5 123.5
t134.5 128.5q-16 -2 -49 -2q-132 0 -245.5 31t-196 84.5t-143.5 126t-95 154.5t-45 172q-4 31 4 57l-6 6q-38 -18 -95 -18q-58 0 -108 13.5t-94 43.5t-69.5 85t-25.5 130q0 59 19 143h264q-6 -48 -6 -61q0 -44 21.5 -61.5t68.5 -22.5q24 -3 32 -6.5t19 -14.5l6 5q-5 20 2 51
q17 77 54.5 154t104 154.5t152.5 136t209.5 95.5t266.5 37q311 0 489 -162t178 -434q0 -142 -32 -284h-1026zM825 840l4 -6q45 18 107 18h623q76 0 102 -18l6 4q-8 28 -12 73q-11 135 -107.5 200t-247.5 65q-78 0 -144 -17.5t-108.5 -42.5t-78.5 -63t-54.5 -67.5
t-37.5 -67.5q-1 -2 -3 -7q-19 -41 -40 -62z" />
    <glyph glyph-name="uni04BF" unicode="&#x4bf;" horiz-adv-x="1378" 
d="M729 395q-45 0 -65 5t-41 20l-7 -6l5 -17v-14q3 -73 65.5 -116.5t163.5 -43.5q127 0 278 80l99 -231q-65 -35 -127 -56q-209 -154 -209 -217q0 -18 13.5 -28.5t35.5 -10.5q23 0 80 11l-10 -191q-137 -18 -150 -18q-198 0 -198 155q0 65 44.5 125t135.5 127h-2
q-213 0 -350 101t-156 272q-5 37 10 66l-2 2q-44 -15 -72 -15q-114 0 -174 52.5t-59 152.5q0 62 49 135h197q-45 -68 -45 -104q0 -26 13.5 -37t49.5 -12q5 0 11.5 -0.5t8 -0.5t5.5 -1t5 -1t5.5 -2.5t6.5 -4t9 -5.5l4 4q-2 29 11 68q69 165 201.5 250.5t318.5 85.5
q211 0 330.5 -100.5t119.5 -278.5q0 -73 -28 -201h-580zM868 754q-175 0 -227 -185l4 -6q19 19 88 19h223q60 0 74 -17l4 4q2 6 2 31q0 154 -168 154z" />
    <glyph glyph-name="uni04C0" unicode="&#x4c0;" horiz-adv-x="577" 
d="M631 1434l-279 -1434h-309l279 1434h309z" />
    <glyph glyph-name="uni04C1" unicode="&#x4c1;" horiz-adv-x="2054" 
d="M1237 1483q-149 0 -226 61t-77 168q0 29 4 57h201q-2 -10 -2 -28q0 -42 28 -68t84 -26q63 0 101 31.5t49 90.5h211q-35 -142 -124.5 -214t-248.5 -72zM2077 1446q60 0 123 -8l-56 -283q-41 4 -80 4q-92 0 -129 -78l-73 -168q-41 -96 -117 -126t-256 -35l-2 -4
q187 -6 254.5 -44t70.5 -151l5 -135q1 -74 23.5 -99.5t72.5 -25.5q11 0 86 6l-60 -303q-96 -8 -157 -8q-121 0 -180 57.5t-62 179.5l-8 232q-3 87 -43.5 117t-147.5 30h-79q-41 0 -58 10l-4 -4q7 -20 -2 -65l-104 -545h-314l105 545q10 46 22 65l-4 4q-17 -10 -59 -10h-82
q-85 0 -124.5 -29t-76.5 -118l-104 -238q-102 -231 -387 -231q-61 0 -140 8l60 303q60 -6 80 -6q60 0 96 25t70 98l57 141q42 109 121 147t258 44l2 4q-181 5 -244.5 35.5t-69.5 125.5l-12 168q-5 78 -90 78q-39 0 -84 -4l55 283q73 8 138 8q113 0 171.5 -41.5t69.5 -153.5
l21 -213q11 -86 47.5 -117.5t140.5 -31.5h82q42 0 55 -10l7 4q-7 20 2 65l96 486h313l-94 -486q-10 -47 -25 -65l2 -4q20 10 62 10h82q82 0 123 31t84 118l102 213q53 106 141.5 150.5t227.5 44.5z" />
    <glyph glyph-name="uni04C2" unicode="&#x4c2;" horiz-adv-x="1542" 
d="M895 997q-140 0 -225.5 71t-85.5 189q0 39 8 72h190q-2 -10 -2 -33q0 -48 28.5 -78t90.5 -30q130 0 168 141h199q-25 -158 -128.5 -245t-242.5 -87zM1434 952h165l-45 -239h-32q-67 0 -97 -47l-47 -68q-31 -53 -79 -76t-156 -26l-2 -4q74 -2 115 -16.5t56.5 -37
t24.5 -63.5l21 -84q7 -35 21 -46.5t48 -11.5h27l-45 -239h-139q-149 0 -168 123l-25 145q-5 28 -7.5 39.5t-9.5 29.5t-17 25t-27.5 13t-42.5 6h-31q-47 0 -63 4l-2 -2q3 -33 -7 -86l-55 -291h-272l57 291q8 42 27 86l-2 2q-16 -4 -64 -4h-31q-42 0 -64.5 -25t-53.5 -88
l-76 -145q-62 -123 -217 -123h-174l47 239h26q34 0 54.5 11t42.5 47l47 84q34 60 83.5 87t157.5 30l3 4q-106 3 -145 25.5t-52 76.5l-14 57q-7 33 -26 45.5t-56 12.5h-33l47 239h164q64 0 98.5 -26.5t46.5 -85.5l33 -133q16 -52 35.5 -73.5t70.5 -21.5h31q48 0 64 -4l2 2
q-3 35 6 82l49 254h272l-51 -256q-9 -42 -26 -82l2 -2q16 4 63 4h31q38 0 61 22t56 75l84 133q70 112 215 112z" />
    <glyph glyph-name="uni04C3" unicode="&#x4c3;" horiz-adv-x="1376" 
d="M1354 1446q67 0 135 -8l-55 -287q-41 4 -80 4q-44 0 -73 -17t-50 -59l-82 -164q-32 -67 -102 -101.5t-207 -49.5l-2 -6q493 -9 493 -338q0 -60 -10 -109l-57 -301q-43 -224 -166.5 -321t-335.5 -97h-172l57 297h115q85 0 129.5 38t62.5 132l50 252q6 37 6 70
q0 123 -112 173t-368 50q-41 0 -57 8l-6 -4q7 -18 -2 -63l-105 -545h-317l279 1434h317l-98 -504q-9 -46 -23 -66l4 -4q17 10 60 10h104q70 0 119.5 39.5t91.5 132.5l94 209q48 104 131.5 149.5t231.5 45.5z" />
    <glyph glyph-name="uni04C4" unicode="&#x4c4;" horiz-adv-x="1107" 
d="M393 -410l56 279h86q63 0 99 38t54 116l27 135q6 37 6 63q0 152 -207 152h-63q-48 0 -64 4l-2 -2q3 -37 -6 -86l-57 -289h-310l185 946h309l-49 -254q-7 -36 -27 -82l2 -2q16 4 66 4h43q31 0 55.5 14t38.5 30.5t35 50.5l82 133q37 61 87 86.5t126 25.5h165l-47 -239h-16
q-86 0 -117 -47l-43 -68q-23 -34 -47 -52t-73.5 -31t-131.5 -17l-2 -9q365 -7 365 -268q0 -34 -10 -92l-41 -203q-31 -153 -147 -244.5t-281 -91.5h-146z" />
    <glyph glyph-name="uni04C5" unicode="&#x4c5;" horiz-adv-x="1703" 
d="M1395 231h254l-271 -518h-256l129 287h-219l162 844l51 246q11 48 21 61l-2 4q-20 -10 -58 -10h-432q-42 0 -55 10l-6 -4q7 -19 -2 -61l-52 -248l-86 -447q-40 -213 -146.5 -309t-307.5 -96q-91 0 -176 12l55 291q55 -8 127 -8q57 0 90.5 34t46.5 107l80 416l117 592
h1169l-115 -590z" />
    <glyph glyph-name="uni04C6" unicode="&#x4c6;" horiz-adv-x="1331" 
d="M1022 231h252l-270 -518h-256l129 287h-209l123 631q7 33 20 53l-2 2q-16 -8 -57 -8h-183q-41 0 -57 8l-2 -2q7 -20 0 -53l-21 -117l-38 -197q-28 -153 -130 -235t-270 -82h-123l52 268h53q56 0 87.5 33.5t49.5 122.5l16 90l84 432h891z" />
    <glyph glyph-name="uni04C7" unicode="&#x4c7;" horiz-adv-x="1509" 
d="M674 -410l55 287h82q129 0 156 143l104 537q9 43 23 61l-2 5q-22 -11 -60 -11h-502q-35 0 -53 11l-6 -5q7 -17 -2 -61l-109 -557h-317l279 1434h317l-92 -476q-10 -46 -23 -63l4 -4q23 10 60 10h499q43 0 56 -10l4 4q-7 18 2 63l94 476h318l-283 -1454
q-41 -213 -169 -301.5t-343 -88.5h-92z" />
    <glyph glyph-name="uni04C8" unicode="&#x4c8;" horiz-adv-x="1167" 
d="M1155 946l-184 -946l-17 -86q-69 -324 -411 -324h-140l54 275h82q49 0 77.5 20t40.5 84l5 31l65 334q8 36 21 53l-3 2q-18 -8 -59 -8h-242q-41 0 -55 8l-2 -2q6 -25 0 -53l-65 -334h-310l185 946h309l-49 -260q-7 -32 -23 -53l2 -2q18 8 60 8h241q42 0 56 -8l2 2
q-5 21 2 53l49 260h309z" />
    <glyph glyph-name="uni04C9" unicode="&#x4c9;" horiz-adv-x="1636" 
d="M1327 231h252l-270 -518h-256l129 287h-217l106 557q9 43 23 61l-2 5q-22 -11 -60 -11h-502q-35 0 -53 11l-6 -5q7 -17 -2 -61l-109 -557h-317l279 1434h317l-92 -476q-10 -46 -23 -63l4 -4q23 10 60 10h499q43 0 56 -10l4 4q-7 18 2 63l94 476h318z" />
    <glyph glyph-name="uni04CA" unicode="&#x4ca;" horiz-adv-x="1325" 
d="M1016 231h252l-271 -518h-256l129 287h-208l65 334q8 36 21 53l-3 2q-18 -8 -59 -8h-242q-41 0 -55 8l-2 -2q6 -25 0 -53l-65 -334h-310l185 946h309l-49 -260q-7 -32 -23 -53l2 -2q18 8 60 8h241q42 0 56 -8l2 2q-5 21 2 53l49 260h309z" />
    <glyph glyph-name="uni04CB" unicode="&#x4cb;" horiz-adv-x="1318" 
d="M1370 1434l-278 -1434h-193l-55 -287h-299l102 514h172l39 197q13 77 41 125l-4 4q-190 -70 -383 -70q-202 0 -308 93.5t-106 273.5q0 47 15 135l86 449h319l-80 -404q-6 -40 -6 -72q0 -167 203 -167q130 0 303 53l115 590h317z" />
    <glyph glyph-name="uni04CC" unicode="&#x4cc;" horiz-adv-x="1075" 
d="M754 946h309l-49 -246l-92 -473l-43 -227h-187l-55 -287h-279l86 439h154l14 75l11 56q11 59 39 98l-5 4q-163 -80 -307 -80q-299 0 -299 270q0 52 17 142l45 229h307l-41 -215q-4 -32 -4 -45q0 -102 121 -102q79 0 194 41l17 75z" />
    <glyph glyph-name="uni04CD" unicode="&#x4cd;" horiz-adv-x="2136" 
d="M1823 231h256l-271 -518h-256l129 287h-135l-94 627q-12 88 0 178h-6q-15 -46 -32.5 -79.5t-55.5 -92.5l-432 -647h-49l-181 647q-15 59 -18.5 92t0.5 80h-6q-23 -87 -72 -178l-328 -627h-362l811 1454h57l199 -772q11 -40 12.5 -73.5t-2.5 -67.5h8q24 78 64 141l500 772
h55z" />
    <glyph glyph-name="uni04CE" unicode="&#x4ce;" horiz-adv-x="1691" 
d="M1380 231h256l-270 -518h-256l129 287h-117l-69 297q-18 75 -11 139h-6q-18 -52 -73 -129l-238 -325h-76l-108 325q-27 73 -27 129h-6q-6 -27 -17 -53t-17.5 -37t-29.5 -49l-180 -297h-356l616 965h76l133 -406q25 -73 25 -113h4q20 48 69 113l289 406h76z" />
    <glyph glyph-name="uni04CF" unicode="&#x4cf;" horiz-adv-x="518" 
d="M506 946l-184 -946h-310l185 946h309z" />
    <glyph glyph-name="uni04D0" unicode="&#x4d0;" horiz-adv-x="1480" 
d="M1325 1772q-35 -142 -124.5 -214.5t-248.5 -72.5q-149 0 -226 61t-77 168q0 30 4 58h201q-2 -10 -2 -29q0 -42 28.5 -68t84.5 -26q62 0 100 32t49 91h211zM-90 0l991 1460h66l419 -1460h-327l-80 299h-506l-197 -299h-366zM590 524q34 11 96 11h170q62 0 90 -11l4 2
q-29 41 -39 97l-41 188q-19 93 -12 147h-8q-10 -41 -72 -147l-112 -188q-36 -63 -76 -97v-2z" />
    <glyph glyph-name="uni04D1" unicode="&#x4d1;" horiz-adv-x="1095" 
d="M668 997q-140 0 -226 71t-86 189q0 35 9 72h190q-2 -10 -2 -33q0 -48 28.5 -78t90.5 -30q130 0 168 141h198q-25 -159 -128 -245.5t-242 -86.5zM338 -31q-152 0 -243 87t-91 233q0 155 100 247.5t269 92.5q127 0 215 -55t125 -156l8 2q-6 61 -2 88q10 72 10 102
q0 66 -39.5 92.5t-136.5 26.5q-126 0 -293 -29l-35 240q231 37 412 37q212 0 302.5 -72t84.5 -235q0 -46 -18 -154l-97 -516h-309q17 90 70 170l-11 6q-66 -111 -140 -159t-181 -48zM477 201q60 0 98.5 35.5t38.5 89.5q0 51 -38.5 83.5t-98.5 32.5t-97.5 -34.5t-37.5 -90.5
q0 -52 37.5 -84t97.5 -32z" />
    <glyph glyph-name="uni04D2" unicode="&#x4d2;" horiz-adv-x="1480" 
d="M670 1778h235l-49 -254h-235zM1081 1778h238l-49 -254h-238zM-90 0l991 1460h66l419 -1460h-327l-80 299h-506l-197 -299h-366zM590 524q34 11 96 11h170q62 0 90 -11l4 2q-29 41 -39 97l-41 188q-19 93 -12 147h-8q-10 -41 -72 -147l-112 -188q-36 -63 -76 -97v-2z" />
    <glyph glyph-name="uni04D3" unicode="&#x4d3;" horiz-adv-x="1095" 
d="M645 1329l-53 -276h-234l56 276h231zM1010 1329l-56 -276h-233l55 276h234zM338 -31q-152 0 -243 87t-91 233q0 155 100 247.5t269 92.5q127 0 215 -55t125 -156l8 2q-6 61 -2 88q10 72 10 102q0 66 -39.5 92.5t-136.5 26.5q-126 0 -293 -29l-35 240q231 37 412 37
q212 0 302.5 -72t84.5 -235q0 -46 -18 -154l-97 -516h-309q17 90 70 170l-11 6q-66 -111 -140 -159t-181 -48zM477 201q60 0 98.5 35.5t38.5 89.5q0 51 -38.5 83.5t-98.5 32.5t-97.5 -34.5t-37.5 -90.5q0 -52 37.5 -84t97.5 -32z" />
    <glyph glyph-name="uni04D4" unicode="&#x4d4;" horiz-adv-x="1900" 
d="M1554 1151q-36 0 -53 10l-4 -4q4 -22 -4 -63l-27 -142q-11 -51 -20 -63l2 -4q20 10 57 10h412l-53 -279h-412q-37 0 -55 11l-4 -4q6 -15 -4 -64l-41 -219q-10 -48 -23 -64l4 -4q18 11 60 11h473l-56 -283h-815l47 242q10 50 21 63l-2 4q-20 -10 -58 -10h-458l-250 -299
h-381l1231 1434h934l-56 -283h-465zM1106 592l80 407q20 103 45 160h-6q-48 -85 -107 -155l-327 -400q-38 -49 -95 -82l2 -4q67 17 129 17h217q38 0 56 -11l4 4q-7 19 2 64z" />
    <glyph glyph-name="uni04D5" unicode="&#x4d5;" horiz-adv-x="1761" 
d="M1227 -31q-152 0 -256 59t-154 171h-2q-67 -107 -178.5 -168.5t-259.5 -61.5q-174 0 -273.5 84.5t-99.5 235.5q0 152 97.5 246t271.5 94q76 0 139 -18.5t118.5 -67.5t82.5 -125l8 2q-6 49 0 88q1 15 4 36.5t4.5 37t1.5 28.5q0 71 -44 95t-134 24q-129 0 -293 -29l-35 240
q215 37 379 37q272 0 307 -184h4q52 87 153 134.5t230 47.5q190 0 307 -100.5t117 -278.5q0 -84 -30 -201h-578q-43 0 -64 4.5t-40 20.5l-6 -6l4 -17v-14q2 -67 59.5 -113.5t167.5 -46.5q126 0 278 80l99 -231q-201 -103 -385 -103zM1032 563q19 19 86 19h223q59 0 74 -17
l4 4q2 10 2 31q0 154 -168 154q-175 0 -225 -185zM477 201q65 0 101 37.5t36 87.5q0 55 -39.5 85.5t-97.5 30.5q-66 0 -100.5 -37.5t-34.5 -87.5q0 -56 38.5 -86t96.5 -30z" />
    <glyph glyph-name="uni04D6" unicode="&#x4d6;" horiz-adv-x="1114" 
d="M1200 1769q-35 -142 -124.5 -214t-248.5 -72q-149 0 -226 61t-77 168q0 29 4 57h201q-2 -10 -2 -28q0 -42 28.5 -68t84.5 -26q127 0 149 122h211zM1210 1434l-55 -283h-520q-38 0 -55 10l-5 -4q7 -19 -2 -61l-26 -144q-10 -46 -23 -63l2 -4q20 10 60 10h465l-56 -279
h-465q-38 0 -53 11l-4 -4q5 -13 -2 -62l-45 -223q-6 -41 -23 -62l5 -4q22 11 59 11h528l-55 -283h-897l279 1434h888z" />
    <glyph glyph-name="uni04D7" unicode="&#x4d7;" horiz-adv-x="1103" 
d="M694 997q-140 0 -225.5 71t-85.5 189q0 39 8 72h191q-2 -10 -2 -33q0 -49 28 -78.5t90 -29.5q130 0 168 141h199q-25 -158 -128.5 -245t-242.5 -87zM561 -31q-236 0 -372 121t-136 332q0 244 156.5 398.5t404.5 154.5q209 0 329 -101t120 -278q0 -74 -31 -201h-577
q-45 0 -66 5t-41 20l-6 -6l4 -17v-14q3 -73 65.5 -116.5t163.5 -43.5q128 0 279 80l98 -231q-199 -103 -391 -103zM371 563q19 19 86 19h225q58 0 80 -19l4 4q-4 10 -4 33q0 154 -168 154q-175 0 -227 -185z" />
    <glyph glyph-name="uni04D8" unicode="&#x4d8;" horiz-adv-x="1605" 
d="M858 1464q221 0 385.5 -76.5t258 -231.5t93.5 -374q0 -133 -33.5 -253.5t-101.5 -223t-165 -177t-231 -117t-292 -42.5q-318 0 -499 167t-181 462q0 107 39 252h1024q54 0 92 -16l6 6q-5 14 -8 27.5t-5 30t-3 22.5q-19 113 -121.5 175t-265.5 62q-114 0 -217 -34.5
t-219 -102.5l-140 276q273 168 584 168zM1233 598q-39 -14 -105 -14h-593q-76 0 -121 14l-8 -4q16 -43 20 -86q18 -121 112.5 -182.5t243.5 -61.5q308 0 416 248q23 51 39 82z" />
    <glyph glyph-name="uni04D9" unicode="&#x4d9;" horiz-adv-x="1103" 
d="M543 977q236 0 371 -121t135 -332q0 -244 -157 -398.5t-403 -154.5q-210 0 -329 101t-119 278q0 69 29 201h579q45 0 66 -5t41 -20l6 6l-4 17v14q-3 73 -65.5 116.5t-164.5 43.5q-127 0 -278 -80l-98 231q199 103 391 103zM733 383q-18 -18 -88 -18h-223q-59 0 -80 18
l-4 -4q4 -10 4 -33q0 -153 168 -153q175 0 227 184z" />
    <glyph glyph-name="uni04DA" unicode="&#x4da;" horiz-adv-x="1605" 
d="M631 1776h235l-49 -254h-235zM1042 1776h238l-49 -254h-238zM858 1464q221 0 385.5 -76.5t258 -231.5t93.5 -374q0 -133 -33.5 -253.5t-101.5 -223t-165 -177t-231 -117t-292 -42.5q-318 0 -499 167t-181 462q0 107 39 252h1024q54 0 92 -16l6 6q-5 14 -8 27.5t-5 30
t-3 22.5q-19 113 -121.5 175t-265.5 62q-114 0 -217 -34.5t-219 -102.5l-140 276q273 168 584 168zM1233 598q-39 -14 -105 -14h-593q-76 0 -121 14l-8 -4q16 -43 20 -86q18 -121 112.5 -182.5t243.5 -61.5q308 0 416 248q23 51 39 82z" />
    <glyph glyph-name="uni04DB" unicode="&#x4db;" horiz-adv-x="1103" 
d="M631 1329l-53 -276h-234l55 276h232zM995 1329l-55 -276h-233l55 276h233zM543 977q236 0 371 -121t135 -332q0 -244 -157 -398.5t-403 -154.5q-210 0 -329 101t-119 278q0 69 29 201h579q45 0 66 -5t41 -20l6 6l-4 17v14q-3 73 -65.5 116.5t-164.5 43.5q-127 0 -278 -80
l-98 231q199 103 391 103zM733 383q-18 -18 -88 -18h-223q-59 0 -80 18l-4 -4q4 -10 4 -33q0 -153 168 -153q175 0 227 184z" />
    <glyph glyph-name="uni04DC" unicode="&#x4dc;" horiz-adv-x="2054" 
d="M1190 1776l-49 -254h-236l49 254h236zM1604 1776l-50 -254h-237l49 254h238zM2077 1446q60 0 123 -8l-56 -283q-41 4 -80 4q-92 0 -129 -78l-73 -168q-41 -96 -117 -126t-256 -35l-2 -4q187 -6 254.5 -44t70.5 -151l5 -135q1 -74 23.5 -99.5t72.5 -25.5q11 0 86 6
l-60 -303q-96 -8 -157 -8q-121 0 -180 57.5t-62 179.5l-8 232q-3 87 -43.5 117t-147.5 30h-79q-41 0 -58 10l-4 -4q7 -20 -2 -65l-104 -545h-314l105 545q10 46 22 65l-4 4q-17 -10 -59 -10h-82q-85 0 -124.5 -29t-76.5 -118l-104 -238q-102 -231 -387 -231q-61 0 -140 8
l60 303q60 -6 80 -6q60 0 96 25t70 98l57 141q42 109 121 147t258 44l2 4q-181 5 -244.5 35.5t-69.5 125.5l-12 168q-5 78 -90 78q-39 0 -84 -4l55 283q73 8 138 8q113 0 171.5 -41.5t69.5 -153.5l21 -213q11 -86 47.5 -117.5t140.5 -31.5h82q42 0 55 -10l7 4q-7 20 2 65
l96 486h313l-94 -486q-10 -47 -25 -65l2 -4q20 10 62 10h82q82 0 123 31t84 118l102 213q53 106 141.5 150.5t227.5 44.5z" />
    <glyph glyph-name="uni04DD" unicode="&#x4dd;" horiz-adv-x="1542" 
d="M872 1329l-53 -276h-233l55 276h231zM1237 1329l-55 -276h-234l56 276h233zM1434 952h165l-45 -239h-32q-67 0 -97 -47l-47 -68q-31 -53 -79 -76t-156 -26l-2 -4q74 -2 115 -16.5t56.5 -37t24.5 -63.5l21 -84q7 -35 21 -46.5t48 -11.5h27l-45 -239h-139q-149 0 -168 123
l-25 145q-5 28 -7.5 39.5t-9.5 29.5t-17 25t-27.5 13t-42.5 6h-31q-47 0 -63 4l-2 -2q3 -33 -7 -86l-55 -291h-272l57 291q8 42 27 86l-2 2q-16 -4 -64 -4h-31q-42 0 -64.5 -25t-53.5 -88l-76 -145q-62 -123 -217 -123h-174l47 239h26q34 0 54.5 11t42.5 47l47 84
q34 60 83.5 87t157.5 30l3 4q-106 3 -145 25.5t-52 76.5l-14 57q-7 33 -26 45.5t-56 12.5h-33l47 239h164q64 0 98.5 -26.5t46.5 -85.5l33 -133q16 -52 35.5 -73.5t70.5 -21.5h31q48 0 64 -4l2 2q-3 35 6 82l49 254h272l-51 -256q-9 -42 -26 -82l2 -2q16 4 63 4h31
q38 0 61 22t56 75l84 133q70 112 215 112z" />
    <glyph glyph-name="uni04DE" unicode="&#x4de;" horiz-adv-x="1177" 
d="M500 1776h235l-49 -254h-235zM911 1776h238l-49 -254h-238zM494 -31q-310 0 -555 121l159 277q208 -105 404 -105q142 0 212 47t70 119q0 79 -59.5 119.5t-169.5 40.5h-195l58 301h198q117 0 170.5 47t53.5 121q0 60 -42 89.5t-141 29.5q-182 0 -383 -70l-86 276
q266 82 529 82q226 0 351.5 -80.5t125.5 -253.5q0 -138 -73.5 -222t-229.5 -132q-67 -21 -158 -24l-2 -9q88 0 139 -14q117 -27 181.5 -106t64.5 -207q0 -70 -19 -132.5t-64.5 -121t-115 -100.5t-178 -67.5t-245.5 -25.5z" />
    <glyph glyph-name="uni04DF" unicode="&#x4df;" horiz-adv-x="962" 
d="M571 1329l-53 -276h-233l55 276h231zM936 1329l-55 -276h-234l55 276h234zM403 -31q-246 0 -413 78l102 232q148 -70 289 -70q162 0 162 88q0 82 -137 82h-179l41 205h183q61 0 90.5 22.5t29.5 61.5q0 38 -31.5 53.5t-97.5 15.5q-128 0 -270 -47l-74 221q216 66 432 66
q89 0 157 -11.5t122.5 -38t83.5 -74.5t29 -116q0 -112 -81 -170.5t-257 -68.5l-2 -4q132 -6 207 -65t75 -165q0 -44 -13 -83.5t-45.5 -79t-83.5 -68t-132.5 -46.5t-186.5 -18z" />
    <glyph glyph-name="uni04E0" unicode="&#x4e0;" horiz-adv-x="1236" 
d="M549 -31q-147 0 -291 34t-250 101l166 273q98 -51 187 -79t190 -28q135 0 202.5 48t67.5 124q0 82 -71 121t-220 39h-139l49 250l426 324l-2 6q-61 -31 -155 -31h-398l56 283h942l-52 -258l-542 -379l2 -6q61 30 123 30q143 0 231 -96t88 -266q0 -75 -18 -142.5
t-62.5 -132.5t-112.5 -111.5t-175 -75t-242 -28.5z" />
    </font>
</defs>
</svg>
