<?xml version="1.0" standalone="no"?>
<!DOCTYPE svg PUBLIC "-//W3C//DTD SVG 1.1//EN" "http://www.w3.org/Graphics/SVG/1.1/DTD/svg11.dtd" >
<svg xmlns="http://www.w3.org/2000/svg" xmlns:xlink="http://www.w3.org/1999/xlink" version="1.1">
<metadata>
Created by FontForge 20170731 at Sat Jul 23 01:52:11 2022
 By Aleksey,,,
Copyright (c) 2015 by Reto Moser. All rights reserved.
</metadata>
<defs>
<font id="GTEestiProText-Bold" horiz-adv-x="1228" >
  <font-face 
    font-family="GT Eesti Pro Text Bold"
    font-weight="700"
    font-stretch="normal"
    units-per-em="2048"
    panose-1="0 0 8 0 0 0 0 0 0 0"
    ascent="1536"
    descent="-512"
    x-height="946"
    cap-height="1434"
    bbox="-940 -516 2318 1825"
    underline-thickness="102"
    underline-position="-307"
    unicode-range="U+000D-FB02"
  />
<missing-glyph horiz-adv-x="1576" 
d="M788 -31q-213 0 -384 96.5t-267 267.5t-96 384q0 160 56.5 299t155 237.5t237 154.5t298.5 56q214 0 385 -95.5t267 -266.5t96 -385q0 -213 -96 -384t-267 -267.5t-385 -96.5zM788 20q149 0 279 53.5t223 146.5t146 224.5t53 282.5l-105 133l-143 -61l-139 184l-162 -90
l-152 242l-151 -242l-162 90l-139 -184l-143 61l-105 -133q0 -201 90.5 -363t250.5 -253t359 -91zM578 651q-31 0 -51.5 20.5t-20.5 51.5t20.5 51.5t51.5 20.5t51 -20.5t20 -51.5t-20 -51.5t-51 -20.5zM997 651q-31 0 -51 20.5t-20 51.5t20 51.5t51 20.5t51.5 -20.5
t20.5 -51.5t-20.5 -51.5t-51.5 -20.5zM702 522l74 207q1 7 8.5 10t14.5 0q6 -2 9.5 -8.5t0.5 -13.5l-57 -160h69q8 0 13.5 -5.5t5.5 -12.5q0 -6 -6 -11.5t-13 -5.5h-119zM385 350q-61 0 -101 40t-40 102t40 101.5t101 39.5t101 -39.5t40 -101.5t-40 -102t-101 -40zM1190 350
q-61 0 -101 40t-40 102t39.5 101.5t101.5 39.5t101.5 -39.5t39.5 -101.5t-40 -102t-101 -40zM788 395q-95 0 -126 -61q-6 -12 -19 -12q-16 0 -16 18q0 35 49.5 63.5t111.5 28.5t112 -28.5t50 -63.5q0 -18 -16 -18q-13 0 -19 12q-31 61 -127 61z" />
    <glyph glyph-name="fi" unicode="fi" horiz-adv-x="1259" 
d="M719 1454v-280h-25q-107 0 -150.5 -33.5t-43.5 -120.5v-14q0 -41 -15 -70l4 -4q25 14 93 14h137v-260h-137q-70 0 -93 14l-4 -4q15 -27 15 -116v-580h-310v580q0 89 15 116l-4 4q-23 -14 -92 -14h-86v260h86q67 0 92 -14l4 4q-15 29 -15 70v14q0 225 116.5 329.5
t348.5 104.5h64zM1167 1434v-344h-333v344h333zM1155 946v-946h-309v946h309z" />
    <glyph glyph-name="fl" unicode="fl" horiz-adv-x="1261" 
d="M1155 1464v-1464h-309v1464h309zM719 1454v-280h-25q-107 0 -150.5 -33.5t-43.5 -120.5v-14q0 -41 -15 -70l4 -4q25 14 93 14h137v-260h-137q-70 0 -93 14l-4 -4q15 -27 15 -116v-580h-310v580q0 89 15 116l-4 4q-23 -14 -92 -14h-86v260h86q67 0 92 -14l4 4
q-15 29 -15 70v14q0 225 116.5 329.5t348.5 104.5h64z" />
    <glyph glyph-name="f_f" unicode="ff" horiz-adv-x="1482" 
d="M1460 1454v-280h-24q-107 0 -151 -33.5t-44 -120.5v-14q0 -43 -14 -70l4 -4q25 14 92 14h137v-260h-137q-69 0 -92 14l-4 -4q14 -25 14 -116v-580h-309v580q0 91 14 116l-4 4q-23 -14 -92 -14h-86v260h86q67 0 92 -14l4 4q-14 27 -14 70v14q0 225 116.5 329.5
t348.5 104.5h63zM719 1454v-280h-25q-107 0 -150.5 -33.5t-43.5 -120.5v-14q0 -41 -15 -70l4 -4q25 14 93 14h137v-260h-137q-70 0 -93 14l-4 -4q15 -27 15 -116v-580h-310v580q0 89 15 116l-4 4q-23 -14 -92 -14h-86v260h86q67 0 92 -14l4 4q-15 29 -15 70v14
q0 225 116.5 329.5t348.5 104.5h64z" />
    <glyph glyph-name="f_f_i" unicode="ffi" horiz-adv-x="2000" 
d="M1460 1454v-280h-24q-107 0 -151 -33.5t-44 -120.5v-14q0 -43 -14 -70l4 -4q25 14 92 14h137v-260h-137q-69 0 -92 14l-4 -4q14 -25 14 -116v-580h-309v580q0 91 14 116l-4 4q-23 -14 -92 -14h-86v260h86q67 0 92 -14l4 4q-14 27 -14 70v14q0 225 116.5 329.5
t348.5 104.5h63zM719 1454v-280h-25q-107 0 -150.5 -33.5t-43.5 -120.5v-14q0 -41 -15 -70l4 -4q25 14 93 14h137v-260h-137q-70 0 -93 14l-4 -4q15 -27 15 -116v-580h-310v580q0 89 15 116l-4 4q-23 -14 -92 -14h-86v260h86q67 0 92 -14l4 4q-15 29 -15 70v14
q0 225 116.5 329.5t348.5 104.5h64zM1909 1434v-344h-334v344h334zM1896 946v-946h-309v946h309z" />
    <glyph glyph-name="f_f_l" unicode="ffl" horiz-adv-x="2002" 
d="M1896 1464v-1464h-309v1464h309zM1460 1454v-280h-24q-107 0 -151 -33.5t-44 -120.5v-14q0 -43 -14 -70l4 -4q25 14 92 14h137v-260h-137q-69 0 -92 14l-4 -4q14 -25 14 -116v-580h-309v580q0 91 14 116l-4 4q-23 -14 -92 -14h-86v260h86q67 0 92 -14l4 4q-14 27 -14 70
v14q0 225 116.5 329.5t348.5 104.5h63zM719 1454v-280h-25q-107 0 -150.5 -33.5t-43.5 -120.5v-14q0 -41 -15 -70l4 -4q25 14 93 14h137v-260h-137q-70 0 -93 14l-4 -4q15 -27 15 -116v-580h-310v580q0 89 15 116l-4 4q-23 -14 -92 -14h-86v260h86q67 0 92 -14l4 4
q-15 29 -15 70v14q0 225 116.5 329.5t348.5 104.5h64z" />
    <glyph glyph-name=".notdef" horiz-adv-x="1576" 
d="M788 -31q-213 0 -384 96.5t-267 267.5t-96 384q0 160 56.5 299t155 237.5t237 154.5t298.5 56q214 0 385 -95.5t267 -266.5t96 -385q0 -213 -96 -384t-267 -267.5t-385 -96.5zM788 20q149 0 279 53.5t223 146.5t146 224.5t53 282.5l-105 133l-143 -61l-139 184l-162 -90
l-152 242l-151 -242l-162 90l-139 -184l-143 61l-105 -133q0 -201 90.5 -363t250.5 -253t359 -91zM578 651q-31 0 -51.5 20.5t-20.5 51.5t20.5 51.5t51.5 20.5t51 -20.5t20 -51.5t-20 -51.5t-51 -20.5zM997 651q-31 0 -51 20.5t-20 51.5t20 51.5t51 20.5t51.5 -20.5
t20.5 -51.5t-20.5 -51.5t-51.5 -20.5zM702 522l74 207q1 7 8.5 10t14.5 0q6 -2 9.5 -8.5t0.5 -13.5l-57 -160h69q8 0 13.5 -5.5t5.5 -12.5q0 -6 -6 -11.5t-13 -5.5h-119zM385 350q-61 0 -101 40t-40 102t40 101.5t101 39.5t101 -39.5t40 -101.5t-40 -102t-101 -40zM1190 350
q-61 0 -101 40t-40 102t39.5 101.5t101.5 39.5t101.5 -39.5t39.5 -101.5t-40 -102t-101 -40zM788 395q-95 0 -126 -61q-6 -12 -19 -12q-16 0 -16 18q0 35 49.5 63.5t111.5 28.5t112 -28.5t50 -63.5q0 -18 -16 -18q-13 0 -19 12q-31 61 -127 61z" />
    <glyph glyph-name=".null" horiz-adv-x="0" 
 />
    <glyph glyph-name="nonmarkingreturn" horiz-adv-x="682" 
 />
    <glyph glyph-name="NULL" horiz-adv-x="0" 
 />
    <glyph glyph-name="NULL" horiz-adv-x="0" 
 />
    <glyph glyph-name="CR" unicode="&#xd;" horiz-adv-x="0" 
 />
    <glyph glyph-name="space" unicode=" " horiz-adv-x="540" 
 />
    <glyph glyph-name="exclam" unicode="!" horiz-adv-x="759" 
d="M270 469l-86 965h391l-83 -965h-222zM209 0v362h342v-362h-342z" />
    <glyph glyph-name="quotedbl" unicode="&#x22;" horiz-adv-x="690" 
d="M311 1464l-47 -518h-133l-47 518h227zM606 1464l-47 -518h-135l-47 518h229z" />
    <glyph glyph-name="numbersign" unicode="#" horiz-adv-x="1282" 
d="M1198 903h-242l-61 -336h219v-139h-244l-77 -428h-150l78 428h-268l-78 -428h-150l78 428h-219v139h244l61 336h-223v139h248l71 392h150l-72 -392h268l72 392h150l-72 -392h217v-139zM745 567l62 336h-268l-62 -336h268z" />
    <glyph glyph-name="dollar" unicode="$" horiz-adv-x="1110" 
d="M582 -168v82q0 34 8 70l-2 2q-20 -17 -62 -17q-125 2 -254 40t-229 102l133 264q127 -62 193 -83.5t168 -33.5q37 -6 51 -16l2 2q-8 31 -8 67v238l-183 110q-256 149 -256 390q0 152 107 251.5t282 110.5q41 3 54 -10l4 2q-8 21 -8 63v84h61v-84q0 -40 -6 -67l2 -2
q12 12 43 12q60 0 168 -28.5t184 -65.5l-125 -264q-131 50 -223 67q-28 3 -45 23l-4 -2q6 -21 6 -49v-226l150 -86q150 -88 213 -179t63 -220q0 -167 -99 -270.5t-280 -128.5q-30 -5 -53 8l-2 -2q8 -33 8 -70v-84h-61zM588 887l2 2q-8 31 -8 59v142q0 32 8 51l-2 2
q-7 -9 -45 -15q-45 -8 -71 -31.5t-26 -56.5q0 -32 24.5 -60t82.5 -62q23 -11 35 -31zM637 246q6 6 12 10t10.5 5.5l10.5 3.5t8 3q86 26 86 94q0 37 -17.5 63t-64.5 60q-2 1 -9 6t-11.5 9t-11 11.5t-9.5 16.5l-2 -2q4 -27 4 -65v-150q0 -32 -8 -63z" />
    <glyph glyph-name="percent" unicode="%" horiz-adv-x="1638" 
d="M444 739q-148 0 -245 93.5t-97 242.5q0 150 97 244t245 94q149 0 246.5 -93.5t97.5 -244.5q0 -149 -97.5 -242.5t-246.5 -93.5zM324 0l811 1382h159l-811 -1382h-159zM446 883q83 0 138 54.5t55 137.5q0 85 -55 140t-138 55q-85 0 -139.5 -55t-54.5 -140
q0 -83 54.5 -137.5t139.5 -54.5zM1192 -10q-149 0 -245.5 93.5t-96.5 244.5q0 149 96.5 242.5t245.5 93.5t246.5 -93.5t97.5 -242.5q0 -151 -97.5 -244.5t-246.5 -93.5zM1192 133q84 0 139 55.5t55 139.5q0 83 -55.5 137.5t-138.5 54.5q-84 0 -139.5 -54.5t-55.5 -137.5
q0 -84 55.5 -139.5t139.5 -55.5z" />
    <glyph glyph-name="ampersand" unicode="&#x26;" horiz-adv-x="1458" 
d="M928 1382l176 -264l-2 -6h-385q-64 0 -90 18l-9 -2l429 -596h4q-3 39 26 82q22 33 111 174l260 -155q-68 -115 -100.5 -164t-83.5 -117q-25 -25 -60 -30v-5l226 -307v-8l-355 -2l-78 111h-4q-34 -62 -134.5 -102t-229.5 -40q-158 0 -282.5 59t-196.5 172.5t-72 262.5
q0 147 68 257.5t190 166.5q37 16 72 14l2 4l-334 467l4 10h848zM563 702h-4q-3 -13 -9 -18.5t-24 -15.5q-131 -67 -131 -197q0 -92 61.5 -147.5t161.5 -55.5q25 0 50 4.5t37 8.5t34.5 13.5t24.5 10.5q41 15 72 10l2 4z" />
    <glyph glyph-name="quotesingle" unicode="'" horiz-adv-x="415" 
d="M332 1464l-47 -518h-154l-47 518h248z" />
    <glyph glyph-name="parenleft" unicode="(" horiz-adv-x="612" 
d="M371 1630l219 -131q-58 -91 -100 -170.5t-86 -191t-67.5 -243t-23.5 -276.5q0 -497 277 -927l-219 -131q-68 107 -117.5 205.5t-98 230.5t-74.5 289.5t-26 332.5q0 137 18 263.5t45.5 223t72 197t84.5 170.5t96 158z" />
    <glyph glyph-name="parenright" unicode=")" horiz-adv-x="612" 
d="M244 1630q57 -88 97 -158.5t84.5 -170.5t72 -196.5t45.5 -223t18 -263.5q0 -175 -25.5 -333t-74 -289t-99 -230.5t-118.5 -205.5l-217 131q274 432 274 927q0 145 -23 276.5t-67 243t-85 190.5t-99 171z" />
    <glyph glyph-name="asterisk" unicode="*" horiz-adv-x="854" 
d="M295 733l-170 127l174 193l-256 57l66 199l237 -103l-24 258h210l-24 -258l237 103l68 -199l-256 -57l172 -193l-170 -127l-131 225z" />
    <glyph glyph-name="plus" unicode="+" 
d="M684 1108v-434h432v-129h-432v-434h-139v434h-432v129h432v434h139z" />
    <glyph glyph-name="comma" unicode="," horiz-adv-x="569" 
d="M72 -342l69 635h336l-229 -635h-176z" />
    <glyph glyph-name="hyphen" unicode="-" horiz-adv-x="815" 
d="M741 682v-276h-667v276h667z" />
    <glyph glyph-name="period" unicode="." horiz-adv-x="530" 
d="M94 0v362h342v-362h-342z" />
    <glyph glyph-name="slash" unicode="/" horiz-adv-x="1181" 
d="M229 -231l-186 106l905 1679l191 -108z" />
    <glyph glyph-name="zero" unicode="0" horiz-adv-x="1255" 
d="M627 1413q265 0 410 -188.5t145 -532.5q0 -345 -145 -534t-410 -189q-264 0 -408.5 189.5t-144.5 533.5t144.5 532.5t408.5 188.5zM627 1122q-120 0 -183 -110.5t-63 -319.5t63.5 -320.5t182.5 -111.5q120 0 183.5 111.5t63.5 320.5q0 210 -63 320t-184 110z" />
    <glyph glyph-name="one" unicode="1" horiz-adv-x="811" 
d="M627 1382v-1382h-299v766q0 95 18 141l-8 4q-23 -33 -66 -53l-190 -92v297l262 182l43 137h240z" />
    <glyph glyph-name="two" unicode="2" horiz-adv-x="1157" 
d="M604 1413q201 0 309.5 -94.5t108.5 -271.5q0 -107 -45 -206t-160 -245l-176 -223q-61 -75 -106 -113l4 -6q77 25 233 25h332l2 -5l-160 -274h-936l-10 20l575 730q70 89 98.5 144.5t28.5 104.5q0 60 -36.5 92.5t-102.5 32.5q-138 0 -313 -125l-150 244q253 170 504 170z
" />
    <glyph glyph-name="three" unicode="3" horiz-adv-x="1064" 
d="M514 1411q207 0 317.5 -86.5t110.5 -249.5q0 -99 -45.5 -176t-122.5 -111q-58 -24 -137 -30v-8q72 0 137 -19q112 -31 175 -118.5t63 -213.5q0 -204 -137.5 -316t-387.5 -112q-106 0 -226.5 26.5t-209.5 68.5l111 280q164 -84 319 -84q107 0 168.5 44t61.5 120
q0 92 -84.5 129t-290.5 37v270q301 0 301 146q0 122 -172 122q-139 0 -287 -92l-127 246q206 127 463 127z" />
    <glyph glyph-name="four" unicode="4" horiz-adv-x="1210" 
d="M981 1382v-815q0 -44 -10 -61l4 -4q13 8 57 8h158l-88 -277h-70q-34 0 -57 9l-4 -4q10 -13 10 -62v-176h-287v176q0 51 8 62l-4 4q-23 -9 -55 -9h-623v228l666 921h295zM702 1038q-24 -71 -106 -180l-188 -262q-45 -61 -86 -98l4 -4q37 16 133 16h184q42 0 55 -8l4 4
q-10 17 -10 61v322q0 68 17 147z" />
    <glyph glyph-name="five" unicode="5" horiz-adv-x="1044" 
d="M1034 1382l-108 -288h-318q-40 0 -61 14l-4 -2q3 -25 -6 -64l-27 -98q-5 -23 -35 -53l2 -4q34 18 107 18q183 0 291 -117t108 -315q0 -244 -145.5 -374t-419.5 -130q-225 0 -418 97l109 272q167 -80 309 -80q118 0 186 57.5t68 157.5q0 101 -72.5 154t-210.5 53
q-137 0 -227 -35l-8 8l215 729h665z" />
    <glyph glyph-name="six" unicode="6" horiz-adv-x="1132" 
d="M911 1382l-397 -432q-94 -103 -141 -211l12 -4q54 105 121 154t156 49q192 0 311 -132.5t119 -346.5q0 -216 -144.5 -353t-374.5 -137q-236 0 -379 142.5t-143 377.5q0 159 50 288t171 282l263 323h376zM569 666q-95 0 -154 -56.5t-59 -148.5q0 -91 59 -147t154 -56
q94 0 152.5 56.5t58.5 148.5q0 91 -58.5 147t-152.5 56z" />
    <glyph glyph-name="seven" unicode="7" horiz-adv-x="1005" 
d="M1001 1382l5 -8l-623 -1374h-338l430 897q11 23 29 60t27 56t21 42.5t21.5 38.5t18.5 26l-4 4q-62 -30 -182 -30h-406l117 288h884z" />
    <glyph glyph-name="eight" unicode="8" horiz-adv-x="1193" 
d="M596 -31q-243 0 -378.5 108t-135.5 300q0 143 78 237t213 113v8q-114 17 -183 100.5t-69 206.5q0 172 127.5 271.5t347.5 99.5q221 0 348 -99.5t127 -271.5q0 -122 -68.5 -206t-181.5 -101v-8q135 -19 213 -113t78 -237q0 -192 -136 -300t-380 -108zM596 860
q72 0 116 40.5t44 105.5q0 66 -44 106.5t-116 40.5q-71 0 -115.5 -40.5t-44.5 -106.5q0 -64 44.5 -105t115.5 -41zM596 256q89 0 143 49t54 129t-54 129t-143 49t-143 -49t-54 -129t54 -129t143 -49z" />
    <glyph glyph-name="nine" unicode="9" horiz-adv-x="1087" 
d="M526 1411q235 0 378 -143t143 -379q0 -152 -48 -275.5t-168 -285.5l-245 -328h-367l369 440q83 95 117 185l-11 4q-36 -82 -103.5 -127t-150.5 -45q-183 0 -301.5 131t-118.5 334q0 215 142 352t364 137zM537 1126q-91 0 -149 -55.5t-58 -144.5q0 -88 58 -143.5
t149 -55.5t148.5 55.5t57.5 143.5q0 89 -57.5 144.5t-148.5 55.5z" />
    <glyph glyph-name="colon" unicode=":" horiz-adv-x="530" 
d="M94 584v362h342v-362h-342zM94 0v362h342v-362h-342z" />
    <glyph glyph-name="semicolon" unicode=";" horiz-adv-x="571" 
d="M135 584v362h342v-362h-342zM72 -342l69 635h336l-229 -635h-176z" />
    <glyph glyph-name="less" unicode="&#x3c;" 
d="M1094 1114v-156l-801 -344l801 -344v-155l-959 426v147z" />
    <glyph glyph-name="equal" unicode="=" 
d="M1133 901v-135h-1037v135h1037zM1133 465v-135h-1037v135h1037z" />
    <glyph glyph-name="greater" unicode="&#x3e;" 
d="M135 1114l959 -426v-147l-959 -426v155l801 344l-801 344v156z" />
    <glyph glyph-name="question" unicode="?" horiz-adv-x="802" 
d="M416 1464q166 0 255 -68.5t89 -187.5q0 -75 -30.5 -129t-82.5 -104l-115 -119q-47 -50 -47 -88q0 -31 24.5 -56.5t78.5 -54.5l-103 -213q-57 20 -97 37t-84 44t-70.5 57t-44 74.5t-17.5 97.5q0 60 23 108t79 103l74 73q76 74 76 115q0 22 -18.5 36.5t-57.5 14.5
q-82 0 -217 -78l-121 226q210 112 406 112zM238 0v362h342v-362h-342z" />
    <glyph glyph-name="at" unicode="@" horiz-adv-x="1912" 
d="M981 -307q-135 0 -263 31.5t-243.5 99.5t-202 165.5t-137.5 238.5t-51 309q0 272 112.5 470.5t317 302t477.5 103.5q247 0 437 -95t295.5 -272.5t105.5 -410.5q0 -106 -22.5 -200.5t-67 -172t-120 -123t-173.5 -45.5q-113 0 -189.5 52t-89.5 153h-8q-41 -87 -116.5 -141
t-188.5 -54q-140 0 -225.5 82t-85.5 217q0 137 86 218t227 81q186 0 279 -137l6 2q-15 46 -15 101q0 50 -44 80t-132 30q-105 0 -252 -30l-36 221q178 28 323 28q211 0 309.5 -80.5t98.5 -257.5v-258q0 -106 73 -106q60 0 107 76.5t47 228.5q0 157 -49.5 278t-136.5 194
t-197.5 110t-239.5 37q-155 0 -283.5 -43.5t-223 -127t-147 -213.5t-52.5 -296q0 -160 56.5 -286.5t153.5 -205t220.5 -119.5t263.5 -41q175 0 348 66l68 -184q-209 -76 -420 -76zM973 326q49 0 80.5 26.5t31.5 67.5q0 44 -31 71t-81 27q-49 0 -79 -27t-30 -71q0 -42 30 -68
t79 -26z" />
    <glyph glyph-name="A" unicode="A" horiz-adv-x="1499" 
d="M10 0l707 1460h65l707 -1460h-348l-133 299h-514l-136 -299h-348zM565 524q32 11 92 11h185q60 0 92 -11l2 2q-27 30 -55 97l-82 194q-42 102 -45 148h-9q-3 -52 -43 -148l-81 -194q-31 -67 -58 -97z" />
    <glyph glyph-name="B" unicode="B" horiz-adv-x="1290" 
d="M135 0v1434h596q189 0 300.5 -95t111.5 -256q0 -116 -54 -195t-153 -108q-65 -19 -123 -22v-8q61 0 127 -13q287 -60 287 -340q0 -186 -125.5 -291.5t-345.5 -105.5h-621zM446 860q16 8 58 8h151q85 0 130.5 40.5t45.5 115.5q0 71 -45 108t-131 37h-151q-42 0 -58 11
l-4 -4q11 -18 11 -60v-192q0 -42 -11 -60zM446 254q2 0 20.5 5t39.5 5h184q103 0 156 45t53 133q0 164 -211 164h-184q-43 0 -58 10l-4 -4q11 -18 11 -63v-230q0 -43 -11 -61z" />
    <glyph glyph-name="C" unicode="C" horiz-adv-x="1392" 
d="M829 -31q-169 0 -313.5 56t-246 154.5t-159 237t-57.5 300.5q0 216 98 386t275.5 265.5t402.5 95.5q294 0 523 -159l-162 -258q-171 110 -354 110q-200 0 -324.5 -122t-124.5 -318q0 -195 125 -318t324 -123q181 0 354 111l162 -258q-231 -160 -523 -160z" />
    <glyph glyph-name="D" unicode="D" horiz-adv-x="1419" 
d="M600 1434q355 0 560.5 -192.5t205.5 -524.5t-205.5 -524.5t-560.5 -192.5h-465v1434h465zM446 1161l-4 -4q11 -18 11 -63v-754q0 -46 -11 -64l4 -4q16 11 58 11h121q192 0 300.5 115.5t108.5 318.5t-108.5 318.5t-300.5 115.5h-121q-43 0 -58 10z" />
    <glyph glyph-name="E" unicode="E" horiz-adv-x="1114" 
d="M1024 1434v-283h-520q-41 0 -58 10l-4 -4q11 -18 11 -61v-144q0 -45 -11 -63l4 -4q17 10 58 10h465v-279h-465q-40 0 -58 11l-4 -4q11 -18 11 -62v-223q0 -44 -11 -62l4 -4q18 11 58 11h528v-283h-897v1434h889z" />
    <glyph glyph-name="F" unicode="F" horiz-adv-x="1062" 
d="M1040 1434v-283h-536q-41 0 -58 10l-4 -4q11 -18 11 -61v-183q0 -41 -11 -59l4 -4q17 10 58 10h477v-282h-477q-41 0 -58 10l-4 -4q11 -18 11 -64v-520h-318v1434h905z" />
    <glyph glyph-name="G" unicode="G" horiz-adv-x="1566" 
d="M825 1464q312 0 555 -178l-180 -258q-83 61 -184 95t-201 34q-195 0 -315.5 -120t-120.5 -314q0 -201 117.5 -324t310.5 -123q97 0 172 25.5t120 70t69.5 95.5t31.5 111l-4 4q-32 -23 -131 -23h-262v266h713v-65q0 -171 -43.5 -314t-128.5 -250t-220.5 -167t-308.5 -60
q-340 0 -551 207t-211 543q0 220 96 389.5t271.5 262.5t404.5 93z" />
    <glyph glyph-name="H" unicode="H" horiz-adv-x="1509" 
d="M1374 1434v-1434h-317v557q0 44 10 61l-4 5q-22 -11 -57 -11h-502q-40 0 -58 11l-4 -5q11 -18 11 -61v-557h-318v1434h318v-476q0 -45 -11 -63l4 -4q17 10 58 10h502q37 0 57 -10l4 4q-10 17 -10 63v476h317z" />
    <glyph glyph-name="I" unicode="I" horiz-adv-x="587" 
d="M453 1434v-1434h-318v1434h318z" />
    <glyph glyph-name="J" unicode="J" horiz-adv-x="700" 
d="M565 1434v-1037q0 -209 -92.5 -308t-284.5 -99q-42 0 -155 10v291q52 -6 110 -6q54 0 79.5 34t25.5 107v1008h317z" />
    <glyph glyph-name="K" unicode="K" horiz-adv-x="1456" 
d="M1358 1434l-467 -543q-80 -92 -133 -125v-8q32 -18 56.5 -41t68.5 -74l571 -643h-430l-588 702l-6 -2q23 -78 23 -184v-516h-318v1434h318v-441q0 -115 -23 -190l6 -4l504 635h418z" />
    <glyph glyph-name="L" unicode="L" horiz-adv-x="1038" 
d="M453 1434v-1090q0 -43 -11 -61l4 -4q17 10 58 10h524v-289h-893v1434h318z" />
    <glyph glyph-name="M" unicode="M" horiz-adv-x="1974" 
d="M965 -14l-312 641q-27 59 -36.5 93t-12.5 79h-8q-6 -84 -35 -176l-205 -623h-346l533 1454h57l346 -772q18 -40 25 -68t12 -73h8q4 31 6.5 47.5t10 41t20.5 52.5l346 772h56l532 -1454h-344l-205 623q-29 92 -35 176h-8q-3 -46 -13 -79.5t-38 -92.5l-309 -641h-45z" />
    <glyph glyph-name="N" unicode="N" horiz-adv-x="1478" 
d="M203 1454l747 -747q60 -59 94 -127l9 2q-23 77 -23 249v603h313v-1454h-69l-748 747q-36 36 -54 61.5t-40 67.5l-8 -2q25 -73 25 -252v-602h-314v1454h68z" />
    <glyph glyph-name="O" unicode="O" horiz-adv-x="1615" 
d="M809 1464q162 0 302 -56t239.5 -154.5t156 -237.5t56.5 -299q0 -214 -96.5 -385t-269 -267t-388.5 -96q-217 0 -390 96t-269.5 267t-96.5 385q0 161 56.5 299.5t156 237t240 154.5t303.5 56zM809 1157q-192 0 -311 -122.5t-119 -317.5t119 -318t311 -123q190 0 309 123
t119 318t-119 317.5t-309 122.5z" />
    <glyph glyph-name="P" unicode="P" horiz-adv-x="1196" 
d="M666 1434q242 0 375 -116t133 -327t-129.5 -327.5t-362.5 -116.5h-178q-43 0 -58 10l-4 -4q11 -18 11 -61v-492h-318v1434h531zM446 1171l-4 -4q11 -18 11 -61v-229q0 -46 -11 -64l4 -4q15 10 58 10h172q84 0 134 47t50 125t-49.5 124t-134.5 46h-172q-43 0 -58 10z" />
    <glyph glyph-name="Q" unicode="Q" horiz-adv-x="1648" 
d="M817 -10q-219 0 -393.5 94t-272.5 262t-98 379q0 214 97.5 383t272 262.5t396.5 93.5q158 0 296.5 -52.5t236.5 -144t154.5 -219.5t56.5 -274q0 -176 -64 -294.5t-203 -205.5q-72 -45 -225 -104v-10q239 80 393 80h131v-250h-778zM817 293q186 0 301 121.5t115 318.5
q0 189 -116.5 306.5t-303.5 117.5q-194 0 -314 -119.5t-120 -312.5q0 -192 122 -312t316 -120z" />
    <glyph glyph-name="R" unicode="R" horiz-adv-x="1341" 
d="M680 1434q229 0 356 -108t127 -302q0 -168 -100 -283.5t-240 -115.5q-31 0 -43 2v-4q85 -23 160 -119l401 -504h-387l-442 592q-23 0 -41 6q-21 6 -33 12l-4 -4q19 -46 19 -108v-498h-318v1434h545zM446 1171l-4 -4q11 -18 11 -61v-207q0 -45 -11 -63l4 -5q16 11 58 11
h174q78 0 122 43t44 119q0 72 -44 114.5t-122 42.5h-174q-43 0 -58 10z" />
    <glyph glyph-name="S" unicode="S" horiz-adv-x="1118" 
d="M586 1464q234 0 452 -110l-139 -277q-169 94 -311 94q-137 0 -137 -81q0 -34 22 -60t86 -65l240 -154q143 -91 205.5 -187.5t62.5 -228.5q0 -205 -135.5 -315.5t-384.5 -110.5q-280 0 -527 144l144 284q203 -133 395 -133q87 0 134.5 31t47.5 86q0 40 -30.5 75.5
t-106.5 82.5l-221 141q-258 164 -258 405q0 177 122.5 278t338.5 101z" />
    <glyph glyph-name="T" unicode="T" horiz-adv-x="1110" 
d="M1098 1434v-289h-334q-36 0 -53 10l-4 -4q6 -15 6 -61v-1090h-318v1090q0 41 8 61l-4 4q-17 -10 -53 -10h-336v289h1088z" />
    <glyph glyph-name="U" unicode="U" horiz-adv-x="1456" 
d="M1333 1434v-861q0 -286 -158.5 -443t-445.5 -157q-288 0 -447 157.5t-159 442.5v861h323v-844q0 -142 76 -224.5t207 -82.5q130 0 206.5 82.5t76.5 224.5v844h321z" />
    <glyph glyph-name="V" unicode="V" horiz-adv-x="1425" 
d="M1425 1434l-682 -1448h-61l-682 1448h375l276 -680q50 -125 58 -195h8q13 85 59 195l275 680h374z" />
    <glyph glyph-name="W" unicode="W" horiz-adv-x="2045" 
d="M1044 1454l299 -666q26 -59 36.5 -91.5t17.5 -88.5h8q12 98 43 187l225 639h363l-588 -1448h-66l-307 680q-36 81 -47 157h-8q-10 -69 -49 -157l-307 -680h-66l-588 1448h365l223 -639q34 -98 45 -187h8q7 56 17.5 88.5t36.5 91.5l296 666h43z" />
    <glyph glyph-name="X" unicode="X" horiz-adv-x="1503" 
d="M1440 1434l-404 -564q-59 -88 -90 -112v-6q5 -3 9.5 -7.5t11 -11.5t10.5 -12t12.5 -16.5t13 -17.5t15.5 -21.5t16 -22.5l457 -643h-404l-278 422q-50 73 -61 137h-9q-10 -60 -57 -137l-268 -422h-404l455 655q67 95 90 111v8q-28 20 -92 109l-400 551h404l223 -340
q57 -88 64 -138h8q7 52 63 138l209 340h406z" />
    <glyph glyph-name="Y" unicode="Y" horiz-adv-x="1374" 
d="M1364 1434l-518 -926v-508h-318v508l-518 926h377l221 -465q7 -14 19 -38.5t16 -33.5t11.5 -25.5t10.5 -24.5t7.5 -21t7.5 -24.5t6 -25.5h4q3 14 5 25t7 25l7.5 21t10.5 25t11.5 25t16 33.5t18.5 38.5l221 465h377z" />
    <glyph glyph-name="Z" unicode="Z" horiz-adv-x="1349" 
d="M1321 1434l4 -11l-793 -1161l9 -4q39 23 84.5 31t122.5 8h589l-157 -297h-1164l-6 10l801 1164l-6 4q-63 -39 -209 -39h-494l152 295h1067z" />
    <glyph glyph-name="bracketleft" unicode="[" horiz-adv-x="735" 
d="M715 1565v-222h-199q-55 0 -80 11l-2 -2q12 -27 12 -76v-1430q0 -48 -12 -75l2 -2q22 10 80 10h199v-221h-529v2007h529z" />
    <glyph glyph-name="backslash" unicode="\" horiz-adv-x="1099" 
d="M221 1552l836 -1589l-174 -88l-840 1589z" />
    <glyph glyph-name="bracketright" unicode="]" horiz-adv-x="735" 
d="M20 1565h529v-2007h-529v221h201q57 0 80 -10l2 2q-12 27 -12 75v1430q0 49 12 76l-2 2q-25 -11 -80 -11h-201v222z" />
    <glyph glyph-name="asciicircum" unicode="^" 
d="M764 1464l295 -659h-217l-228 518l-227 -518h-215l295 659h297z" />
    <glyph glyph-name="underscore" unicode="_" horiz-adv-x="1054" 
d="M1053 -31v-229h-1051v229h1051z" />
    <glyph glyph-name="grave" unicode="`" horiz-adv-x="724" 
d="M125 1448l285 -29l213 -278l-15 -8l-225 28l-281 279z" />
    <glyph glyph-name="a" unicode="a" horiz-adv-x="1083" 
d="M532 977q244 0 350.5 -88t106.5 -289v-600h-309q0 106 33 188l-11 7q-99 -226 -331 -226q-153 0 -245.5 91t-92.5 241q0 148 93.5 236t248.5 88q221 0 323 -176l9 4q-17 52 -17 151q0 57 -52.5 90t-143.5 33q-119 0 -289 -31l-43 246q187 35 370 35zM496 442
q-58 0 -94.5 -33.5t-36.5 -86.5q0 -54 36.5 -87.5t94.5 -33.5t95.5 34t37.5 87t-37.5 86.5t-95.5 33.5z" />
    <glyph glyph-name="b" unicode="b" horiz-adv-x="1230" 
d="M745 -31q-126 0 -217 64.5t-131 181.5l-8 -2q17 -105 17 -213h-302v1464h310v-460q0 -165 -27 -271l8 -2q100 246 350 246q195 0 315 -139.5t120 -366.5t-119 -364.5t-316 -137.5zM631 246q106 0 168.5 61.5t62.5 165.5t-63 165.5t-168 61.5q-106 0 -169 -62t-63 -165
t63 -165t169 -62z" />
    <glyph glyph-name="c" unicode="c" horiz-adv-x="944" 
d="M578 -31q-233 0 -380 140.5t-147 363.5t147 363.5t380 140.5q187 0 342 -92l-125 -248q-92 57 -203 57q-101 0 -165.5 -61.5t-64.5 -159.5q0 -97 64.5 -159t165.5 -62q111 0 203 57l125 -248q-155 -92 -342 -92z" />
    <glyph glyph-name="d" unicode="d" horiz-adv-x="1230" 
d="M487 -31q-198 0 -317 137.5t-119 364.5t120 366.5t316 139.5q251 0 351 -246l8 2q-29 101 -29 271v460h309v-1464h-301q0 113 19 213l-8 2q-41 -117 -132.5 -181.5t-216.5 -64.5zM600 246q105 0 168 62t63 165t-63 165t-168 62t-168 -61.5t-63 -165.5t62.5 -165.5
t168.5 -61.5z" />
    <glyph glyph-name="e" unicode="e" horiz-adv-x="1064" 
d="M553 975q220 0 344.5 -130.5t124.5 -367.5v-82h-561q-44 0 -66.5 4.5t-44.5 20.5l-4 -6l8 -23q42 -168 236 -168q145 0 274 84l103 -235q-174 -103 -375 -103q-248 0 -394.5 135t-146.5 371q0 230 139.5 365t362.5 135zM541 745q-82 0 -135.5 -46.5t-63.5 -129.5l4 -6
q16 19 86 19h207q63 0 78 -17l4 4q-4 86 -52 131t-128 45z" />
    <glyph glyph-name="f" unicode="f" horiz-adv-x="741" 
d="M719 1454v-280h-25q-107 0 -150.5 -33.5t-43.5 -120.5v-14q0 -41 -15 -70l4 -4q25 14 93 14h137v-260h-137q-70 0 -93 14l-4 -4q15 -27 15 -116v-580h-310v580q0 89 15 116l-4 4q-23 -14 -92 -14h-86v260h86q67 0 92 -14l4 4q-15 29 -15 70v14q0 225 116.5 329.5
t348.5 104.5h64z" />
    <glyph glyph-name="g" unicode="g" horiz-adv-x="1230" 
d="M487 977q243 0 349 -246l8 2q-27 100 -27 213h309v-864q0 -141 -39.5 -244t-113.5 -163t-170 -88.5t-219 -28.5q-277 0 -484 120l131 252q169 -88 330 -88q126 0 195 53t69 162v17q0 42 19 139l-8 2q-61 -117 -146.5 -172t-204.5 -55q-195 0 -314.5 130.5t-119.5 352.5
q0 230 121.5 368t314.5 138zM588 694q-95 0 -157 -60t-62 -161t62 -161t157 -60q96 0 159.5 61t63.5 160t-63.5 160t-159.5 61z" />
    <glyph glyph-name="h" unicode="h" horiz-adv-x="1173" 
d="M414 1464v-436q0 -169 -23 -293l8 -4q50 119 128.5 182.5t207.5 63.5q161 0 251.5 -98t90.5 -287v-592h-307v506q0 108 -41.5 154.5t-120.5 46.5q-88 0 -141 -61t-53 -189v-457h-310v1464h310z" />
    <glyph glyph-name="i" unicode="i" horiz-adv-x="518" 
d="M426 1434v-344h-334v344h334zM414 946v-946h-310v946h310z" />
    <glyph glyph-name="j" unicode="j" horiz-adv-x="518" 
d="M426 1434v-344h-334v344h334zM414 946v-975q0 -411 -432 -411h-29v284h18q133 0 133 146v956h310z" />
    <glyph glyph-name="k" unicode="k" horiz-adv-x="1134" 
d="M414 1464v-702q0 -151 -35 -232l6 -2l354 418h371l-326 -352q-67 -70 -102 -78v-8q32 -8 84 -68l369 -440h-392l-358 467l-6 -4q35 -72 35 -213v-250h-310v1464h310z" />
    <glyph glyph-name="l" unicode="l" horiz-adv-x="518" 
d="M414 1464v-1464h-310v1464h310z" />
    <glyph glyph-name="m" unicode="m" horiz-adv-x="1779" 
d="M104 0v946h304q0 -90 -23 -194l8 -4q54 119 130 174t196 55q126 0 196 -59.5t101 -174.5h8q94 234 330 234q155 0 243.5 -94t88.5 -283v-600h-310v502q0 111 -40 157t-115 46q-177 0 -177 -246v-459h-296v506q0 108 -41 153.5t-115 45.5q-178 0 -178 -246v-459h-310z" />
    <glyph glyph-name="n" unicode="n" horiz-adv-x="1173" 
d="M745 977q160 0 246 -97.5t86 -287.5v-592h-307v506q0 100 -42 150.5t-118 50.5q-196 0 -196 -250v-457h-310v946h306q0 -123 -19 -213l8 -4q102 248 346 248z" />
    <glyph glyph-name="o" unicode="o" horiz-adv-x="1167" 
d="M584 977q231 0 380.5 -139.5t149.5 -364.5t-149.5 -364.5t-380.5 -139.5q-233 0 -383 139.5t-150 364.5t150 364.5t383 139.5zM584 694q-96 0 -159 -61t-63 -160t63 -160t159 -61t158.5 60.5t62.5 160.5t-62.5 160.5t-158.5 60.5z" />
    <glyph glyph-name="p" unicode="p" horiz-adv-x="1230" 
d="M743 977q193 0 315 -138t122 -368q0 -229 -120 -365.5t-315 -136.5q-121 0 -212 62t-136 184l-8 -2q19 -117 19 -184v-439h-304v1356h306q0 -122 -23 -213l8 -2q106 246 348 246zM631 700q-105 0 -168.5 -61.5t-63.5 -165.5t63.5 -165.5t168.5 -61.5t168 61t63 166
t-63.5 166t-167.5 61z" />
    <glyph glyph-name="q" unicode="q" horiz-adv-x="1230" 
d="M489 977q239 0 349 -246l8 2q-25 87 -25 213h305v-1356h-301v439q0 84 19 184l-8 2q-46 -122 -138 -184t-213 -62q-195 0 -314.5 136.5t-119.5 365.5q0 231 122 368.5t316 137.5zM600 700q-104 0 -167.5 -61t-63.5 -166t63 -166t168 -61t168 61.5t63 165.5t-63 165.5
t-168 61.5z" />
    <glyph glyph-name="r" unicode="r" horiz-adv-x="763" 
d="M678 975q34 0 74 -4v-303q-47 4 -93 4q-121 0 -183 -67t-62 -220v-385h-310v946h293q0 -161 -28 -311l8 -2q70 342 301 342z" />
    <glyph glyph-name="s" unicode="s" horiz-adv-x="876" 
d="M432 -31q-232 0 -420 99l115 243q159 -100 326 -100q49 0 70.5 10t21.5 35q0 5 -1 10t-3.5 9t-4 7t-6.5 6t-7.5 5t-9.5 5t-9.5 4t-11 4.5t-11.5 4.5l-170 70q-223 88 -223 293q0 140 101.5 221.5t293.5 81.5q162 0 342 -62l-88 -239q-145 65 -270 65q-82 0 -82 -41
q0 -16 11.5 -28t24.5 -18t44 -19l158 -62q111 -45 166 -109t55 -175q0 -157 -110.5 -238.5t-301.5 -81.5z" />
    <glyph glyph-name="t" unicode="t" horiz-adv-x="710" 
d="M500 1452v-434q0 -55 -15 -82l4 -4q25 14 93 14h104v-260h-104q-70 0 -93 14l-4 -4q15 -27 15 -116v-580h-310v580q0 89 15 116l-4 4q-23 -14 -92 -14h-86v260h86q67 0 92 -14l4 4q-15 27 -15 82v246l279 188h31z" />
    <glyph glyph-name="u" unicode="u" horiz-adv-x="1159" 
d="M1055 946v-946h-301q0 108 30 238l-8 2q-49 -135 -129 -203t-205 -68q-156 0 -252 100t-96 291v586h318v-493q0 -103 41.5 -153t115.5 -50q77 0 126.5 56t49.5 173v467h310z" />
    <glyph glyph-name="v" unicode="v" horiz-adv-x="1099" 
d="M1098 946l-492 -966h-110l-494 966h342l150 -354q3 -7 11.5 -26.5t11 -25.5t8.5 -22t8.5 -24.5t6 -22.5t5.5 -27.5t4 -29.5h4q4 36 12 66.5t16 49.5t27 62l150 354h340z" />
    <glyph glyph-name="w" unicode="w" horiz-adv-x="1583" 
d="M453 -20l-451 966h338l115 -287q32 -78 43.5 -112.5t17.5 -75.5h8q7 43 20.5 76t55.5 115l154 305h75l154 -305q42 -82 55.5 -115t20.5 -76h8q7 41 18 74.5t43 113.5l117 287h338l-453 -966h-83l-168 331q-5 10 -15.5 31.5t-14 28t-11.5 22.5t-10.5 22t-8 18.5t-7.5 19
t-5.5 16.5t-5.5 18.5t-4 18.5h-9q-10 -42 -25 -77.5t-56 -117.5l-170 -331h-84z" />
    <glyph glyph-name="x" unicode="x" horiz-adv-x="1163" 
d="M10 0l330 438q28 41 57 58v6q-37 26 -53 51l-299 393h367l110 -162q48 -67 58 -133h8q10 65 55 133l109 162h366l-299 -395q-26 -36 -55 -51v-6q27 -14 57 -58l330 -436h-365l-155 213q-39 54 -47 131h-9q-13 -76 -51 -131l-149 -213h-365z" />
    <glyph glyph-name="y" unicode="y" horiz-adv-x="1099" 
d="M1098 946l-604 -1356h-310l222 484l-404 872h332l158 -371q26 -63 37.5 -111.5t15.5 -121.5l8 2q6 92 43 180l170 422h332z" />
    <glyph glyph-name="z" unicode="z" horiz-adv-x="1024" 
d="M-4 0l-4 10l557 715l-6 6q-38 -22 -74 -30.5t-104 -8.5h-287l145 254h797l4 -10l-545 -713l8 -6q35 23 73.5 30t119.5 7h334l-156 -254h-862z" />
    <glyph glyph-name="braceleft" unicode="{" horiz-adv-x="823" 
d="M242 559q166 -10 244.5 -77t78.5 -195v-301q0 -87 44.5 -129.5t125.5 -42.5h76v-256h-80q-195 0 -305.5 99.5t-110.5 315.5v248q0 196 -262 209v266q262 13 262 209v244q0 216 110.5 316t305.5 100h80v-254h-53q-94 0 -143.5 -40.5t-49.5 -133.5v-295
q0 -130 -78.5 -197.5t-244.5 -77.5v-8z" />
    <glyph glyph-name="bar" unicode="|" horiz-adv-x="671" 
d="M207 -440v1929h258v-1929h-258z" />
    <glyph glyph-name="braceright" unicode="}" horiz-adv-x="823" 
d="M582 559v8q-166 10 -245 77.5t-79 195.5v297q0 93 -49 132.5t-143 39.5h-56v256h82q195 0 305.5 -100t110.5 -316v-244q0 -196 262 -209v-266q-262 -13 -262 -209v-248q0 -216 -110.5 -315.5t-305.5 -99.5h-82v256h78q81 0 125.5 42.5t44.5 129.5v299q0 129 78.5 196.5
t245.5 77.5z" />
    <glyph glyph-name="asciitilde" unicode="~" 
d="M403 823q67 0 132 -20t107.5 -43.5t96 -43.5t99.5 -20q21 0 39 2t37.5 10t30.5 12t32.5 18.5t28 18.5t33.5 24t32 24l129 -203q-193 -160 -371 -160q-65 0 -129 19t-106 42.5t-96 42.5t-103 19q-21 0 -40 -2t-38.5 -9.5t-31.5 -11.5t-33.5 -18t-28.5 -18.5t-33 -23.5
t-32 -23l-129 198q98 83 188 124.5t186 41.5z" />
    <glyph glyph-name="exclamdown" unicode="&#xa1;" horiz-adv-x="759" 
d="M209 1020h342v-363h-342v363zM270 551h222l83 -965h-391z" />
    <glyph glyph-name="cent" unicode="&#xa2;" horiz-adv-x="991" 
d="M578 -131v39q0 56 8 74l-2 2q-24 -17 -64 -11q-201 26 -323.5 162.5t-122.5 337.5q0 199 120.5 334.5t321.5 163.5q53 5 66 -6l2 2q-6 27 -6 61v62h61v-62q0 -40 -8 -61h2q15 12 49 6q151 -15 266 -88l-125 -248q-63 40 -137 53q-37 5 -51 17l-2 -2q6 -20 6 -78v-303
q0 -63 -12 -82l2 -2q7 5 18.5 8.5t28 6t20.5 3.5q64 9 127 51l125 -248q-111 -70 -254 -88q-41 -6 -61 11l-2 -2q8 -16 8 -74v-39h-61zM582 242l2 4q-6 14 -6 78v303q0 52 8 73l-2 2q-11 -13 -56 -24q-65 -25 -101 -79t-36 -126t35.5 -126t99.5 -79q45 -15 56 -26z" />
    <glyph glyph-name="sterling" unicode="&#xa3;" horiz-adv-x="1138" 
d="M731 -29q-68 0 -129 20.5t-108.5 41t-83.5 20.5q-64 0 -191 -69l-135 241q229 136 229 283q0 40 -16 77t-78 142h-156v61h62q50 0 70 -14l2 4q-27 35 -39 64q-35 87 -35 172q0 181 132 290t351 109q223 0 412 -125l-150 -256q-133 90 -262 90q-83 0 -128.5 -37.5
t-45.5 -105.5q0 -41 16.5 -82t61.5 -109h342v-61h-240q-62 0 -84 16l-2 -4q60 -74 60 -161q0 -92 -55.5 -162t-178.5 -135l4 -9q71 31 140 31q52 0 123 -22.5t112 -22.5q52 0 99.5 22t105.5 74l160 -243q-177 -140 -365 -140z" />
    <glyph glyph-name="currency" unicode="&#xa4;" 
d="M975 983q117 -130 117 -321q0 -189 -115 -320l115 -117l-41 -39l-115 115q-134 -115 -322 -115q-191 0 -321 117l-117 -117l-39 41l115 115q-115 134 -115 320q0 191 117 321l-117 117l41 41l117 -117q132 113 319 113q188 0 320 -113l117 117l41 -41zM614 453
q91 0 148 59.5t57 149.5q0 91 -56.5 149.5t-148.5 58.5q-91 0 -147.5 -58t-56.5 -150q0 -91 56.5 -150t147.5 -59z" />
    <glyph glyph-name="yen" unicode="&#xa5;" horiz-adv-x="1314" 
d="M518 0v428h-366v61h274q59 0 84 -10l2 2q-18 18 -39 56l-37 67h-284v62h190q48 0 76 -11l2 4q-13 15 -41 60l-346 663h350l203 -458q35 -76 49 -121t18 -101h9q4 54 18 98.5t49 123.5l203 458h350l-346 -663q-17 -34 -41 -60l2 -4q27 11 76 11h190v-62h-284l-37 -67
q-21 -38 -39 -56l2 -2q27 10 84 10h274v-61h-366v-428h-279z" />
    <glyph glyph-name="brokenbar" unicode="&#xa6;" horiz-adv-x="671" 
d="M207 680v809h258v-809h-258zM465 373v-813h-258v813h258z" />
    <glyph glyph-name="section" unicode="&#xa7;" horiz-adv-x="1196" 
d="M1094 553q0 -103 -48.5 -187.5t-132.5 -144.5q74 -87 74 -201q0 -160 -109.5 -253t-306.5 -93q-220 0 -389 119l137 232q64 -42 139 -66.5t140 -24.5q55 0 83 20t28 54q0 32 -33.5 60.5t-87 53t-118 52t-129.5 64.5t-118.5 82.5t-87 114t-33.5 151.5q0 103 48 187.5
t131 144.5q-74 87 -74 200q0 160 109.5 253t306.5 93q213 0 391 -110l-140 -240q-64 42 -137.5 66t-138.5 24q-55 0 -83 -20t-28 -54q0 -32 33.5 -60.5t87 -53t118 -52t129.5 -64t118.5 -82t87 -114t33.5 -151.5zM383 606q0 -26 13.5 -49.5t31 -40.5t53.5 -38t60.5 -33
t74 -35t74.5 -35q121 73 121 160q0 26 -13.5 49.5t-30.5 40t-53 37.5t-60.5 33t-74.5 34.5t-75 34.5q-121 -73 -121 -158z" />
    <glyph glyph-name="dieresis" unicode="&#xa8;" horiz-adv-x="839" 
d="M340 1434v-297h-238v297h238zM737 1434v-297h-237v297h237z" />
    <glyph glyph-name="copyright" unicode="&#xa9;" horiz-adv-x="1658" 
d="M829 -31q-209 0 -379 94.5t-268 266t-98 387.5t98 387.5t268 265.5t379 94q157 0 294.5 -55.5t237 -152.5t157 -237t57.5 -302q0 -216 -98 -387.5t-268.5 -266t-379.5 -94.5zM829 119q164 0 298 74.5t212 212t78 311.5t-78 311.5t-212 212t-298 74.5t-297.5 -74.5
t-211.5 -212t-78 -311.5t78 -311.5t211.5 -212t297.5 -74.5zM846 260q-208 0 -343.5 132.5t-135.5 332.5t135.5 332.5t343.5 132.5q165 0 309 -98l-100 -170q-108 67 -215 67q-114 0 -185 -73t-71 -191t71 -191t185 -73q111 0 215 69l100 -172q-144 -98 -309 -98z" />
    <glyph glyph-name="ordfeminine" unicode="&#xaa;" horiz-adv-x="774" 
d="M289 692q-104 0 -165 56.5t-61 154.5t64.5 154.5t173.5 56.5q134 0 203 -94l6 2q-6 24 -6 59q0 54 -32 78.5t-105 24.5q-48 0 -183 -23l-32 172q156 27 254 27q161 0 233 -62t72 -200v-385h-226q0 50 29 100l-8 4q-43 -66 -94.5 -95.5t-122.5 -29.5zM403 850
q34 0 56 19.5t22 50.5t-22 51t-56 20t-55.5 -20t-21.5 -51t21.5 -50.5t55.5 -19.5z" />
    <glyph glyph-name="guillemotleft" unicode="&#xab;" horiz-adv-x="1052" 
d="M621 858v-8l-175 -234q-62 -85 -85.5 -112.5t-41.5 -40.5v-4q18 -12 41 -40t86 -114l175 -233v-9h-304l-294 398l294 397h304zM1053 858v-8l-174 -234q-62 -85 -85.5 -112.5t-41.5 -40.5v-4q18 -12 41 -40t86 -114l174 -233v-9h-303l-295 398l295 397h303z" />
    <glyph glyph-name="logicalnot" unicode="&#xac;" 
d="M145 885h938v-135v-408h-139v408h-799v135z" />
    <glyph glyph-name="uni00AD" unicode="&#xad;" horiz-adv-x="819" 
d="M741 682v-276h-667v276h667z" />
    <glyph glyph-name="registered" unicode="&#xae;" horiz-adv-x="1105" 
d="M553 1464q211 0 350 -139t139 -354t-139 -354.5t-350 -139.5t-350.5 139.5t-139.5 354.5t139.5 354t350.5 139zM553 1343q-162 0 -262.5 -104t-100.5 -268t100.5 -269.5t262.5 -105.5q161 0 261.5 105.5t100.5 269.5t-100 268t-262 104zM588 1251q69 0 113 -39t44 -110
q0 -65 -35.5 -106t-99.5 -42v-4q19 -5 41 -37l127 -168v-10h-123l-147 213h-16v-213h-111v516h207zM571 1153h-79v-113h81q34 0 50 16t16 40q0 25 -17 41t-51 16z" />
    <glyph glyph-name="macron" unicode="&#xaf;" horiz-adv-x="835" 
d="M733 1384v-198h-631v198h631z" />
    <glyph glyph-name="degree" unicode="&#xb0;" horiz-adv-x="720" 
d="M360 1413q130 0 213.5 -83t83.5 -214q0 -132 -83.5 -214.5t-213.5 -82.5q-129 0 -213 82.5t-84 214.5q0 131 84 214t213 83zM360 1278q-69 0 -114 -45t-45 -117t45 -117t114 -45t114.5 45t45.5 117t-45.5 117t-114.5 45z" />
    <glyph glyph-name="plusminus" unicode="&#xb1;" 
d="M684 1063v-262h420v-129h-420v-262h-139v262h-420v129h420v262h139zM1104 319v-135h-979v135h979z" />
    <glyph glyph-name="uni00B2" unicode="&#xb2;" horiz-adv-x="856" 
d="M43 713l-8 14l348 438q66 83 91.5 124t25.5 63q0 47 -66 47q-48 0 -108 -20.5t-111 -53.5l-113 213q186 109 363 109q147 0 225 -66t78 -190q0 -62 -27.5 -117.5t-115.5 -169.5l-80 -98q-33 -38 -44 -50t-24 -20l2 -6q60 18 168 18h189l2 -2l-138 -233h-657z" />
    <glyph glyph-name="uni00B3" unicode="&#xb3;" horiz-adv-x="829" 
d="M362 694q-194 0 -315 62l90 239q109 -53 228 -53q135 0 135 74q0 42 -56 60t-190 18v190q197 0 197 72q0 53 -95 53q-101 0 -209 -57l-102 209q172 86 361 86q141 0 224 -62t83 -168q0 -61 -30 -108t-85 -72q-34 -17 -80 -23v-6q42 0 80 -12q75 -22 117.5 -79t42.5 -138
q0 -132 -106 -208.5t-290 -76.5z" />
    <glyph glyph-name="acute" unicode="&#xb4;" horiz-adv-x="724" 
d="M621 1448l2 -8l-306 -307h-213l-2 8l230 307h289z" />
    <glyph glyph-name="uni00B5" unicode="&#xb5;" horiz-adv-x="1167" 
d="M756 946h309v-946h-303q0 109 33 238l-11 2q-47 -135 -126.5 -203t-206.5 -68q-44 0 -80 8v-387h-277v1024h8v332h320v-493q0 -103 42 -153t114 -50q78 0 128 56t50 173v467z" />
    <glyph glyph-name="paragraph" unicode="&#xb6;" horiz-adv-x="1359" 
d="M1257 1434v-228h-135v-1423h-219v1423h-184v-1423h-219v852q-170 0 -284 113.5t-114 293.5q0 174 119 283t299 109h737z" />
    <glyph glyph-name="periodcentered" unicode="&#xb7;" horiz-adv-x="546" 
d="M102 584v362h342v-362h-342z" />
    <glyph glyph-name="cedilla" unicode="&#xb8;" horiz-adv-x="620" 
d="M385 70l-55 -142q188 -28 188 -145q0 -22 -6 -41.5t-20.5 -37t-29 -32t-41 -30t-45.5 -26t-54 -25.5t-56 -23t-61 -23.5t-60 -23.5l-43 96q96 49 132 74.5t36 48.5q0 45 -100 63l96 267h119z" />
    <glyph glyph-name="uni00B9" unicode="&#xb9;" horiz-adv-x="616" 
d="M227 713v446q0 55 13 90l-7 2q-17 -23 -47 -34l-123 -52v252l179 123l32 86h207v-913h-254z" />
    <glyph glyph-name="ordmasculine" unicode="&#xba;" horiz-adv-x="835" 
d="M418 1360q156 0 255 -93.5t99 -240.5t-99 -240.5t-255 -93.5t-255.5 93.5t-99.5 240.5t99.5 240.5t255.5 93.5zM418 1151q-55 0 -91 -34t-36 -91t36 -91t91 -34t91 34t36 91t-36 91t-91 34z" />
    <glyph glyph-name="guillemotright" unicode="&#xbb;" horiz-adv-x="1073" 
d="M20 858h304l294 -397l-294 -398h-304v9l175 233q63 86 86 114t41 40v4q-18 13 -41.5 40.5t-85.5 112.5l-175 234v8zM453 858h303l295 -397l-295 -398h-303v9l174 233q63 86 86 114t41 40v4q-18 13 -41.5 40.5t-85.5 112.5l-174 234v8z" />
    <glyph glyph-name="onequarter" unicode="&#xbc;" horiz-adv-x="1538" 
d="M276 592v467q0 57 9 92l-4 2q-16 -23 -43 -33l-111 -43v135l160 95l22 75h109v-790h-142zM260 0l811 1382h158l-811 -1382h-158zM1204 0v115q0 8 1 18.5t1 11.5v5q-7 -7 -26 -7h-365v115l395 533h133v-484q0 -22 -6 -28l2 -5q14 7 29 7h117l-43 -138h-74q-15 0 -29 7
l-2 -5q6 -6 6 -28v-117h-139zM961 268q23 13 81 13h138q17 0 24 -7l2 5q-2 4 -2 28v195q0 60 6 106h-2q-4 -14 -11.5 -26t-19.5 -28t-18 -26l-149 -200q-35 -45 -52 -58z" />
    <glyph glyph-name="onehalf" unicode="&#xbd;" horiz-adv-x="1595" 
d="M276 592v467q0 57 9 92l-4 2q-16 -23 -43 -33l-111 -43v135l160 95l22 75h109v-790h-142zM264 0l811 1382h158l-811 -1382h-158zM924 0l-4 6l337 424q36 44 55 77.5t19 70.5q0 45 -30 71.5t-78 26.5q-86 0 -201 -64l-61 117q140 80 280 80q109 0 173.5 -58.5t64.5 -158.5
q0 -61 -27 -114.5t-80 -117.5l-127 -157q-46 -55 -76 -76l2 -4q69 12 127 12h222l2 -2l-78 -133h-520z" />
    <glyph glyph-name="threequarters" unicode="&#xbe;" horiz-adv-x="1646" 
d="M336 573q-141 0 -252 54l49 131q99 -47 197 -47q77 0 120.5 31t43.5 92q0 63 -55 90.5t-183 27.5v127q89 0 139.5 25.5t50.5 77.5q0 39 -30 61.5t-80 22.5q-87 0 -184 -54l-58 121q125 68 262 68q115 0 176.5 -53.5t61.5 -139.5q0 -71 -45.5 -117t-128.5 -59v-4
q96 0 157.5 -57t61.5 -152q0 -109 -78 -177.5t-225 -68.5zM362 0l812 1382h157l-809 -1382h-160zM1311 0v115q0 8 1 18.5t1 11.5v5q-7 -7 -27 -7h-364v115l395 533h133v-484q0 -22 -6 -28l2 -5q14 7 29 7h116l-43 -138h-73q-15 0 -29 7l-2 -5q6 -6 6 -28v-117h-139z
M1067 268q23 13 82 13h137q18 0 25 -7l2 5q-2 4 -2 28v195q0 60 6 106h-2q-4 -14 -11.5 -26t-19.5 -28t-18 -26l-150 -200q-37 -47 -51 -58z" />
    <glyph glyph-name="questiondown" unicode="&#xbf;" horiz-adv-x="731" 
d="M514 1024v-362h-342v362h342zM336 -440q-166 0 -255 68.5t-89 187.5q0 75 30.5 129.5t81.5 103.5l115 119q49 49 49 88q0 31 -25 56.5t-79 54.5l102 213q57 -20 97.5 -37t85 -44t71 -57t44.5 -74.5t18 -97.5q0 -59 -24 -107.5t-81 -103.5l-74 -73q-75 -73 -75 -115
q0 -22 19 -36.5t59 -14.5q82 0 215 80l120 -228q-210 -112 -405 -112z" />
    <glyph glyph-name="Agrave" unicode="&#xc0;" horiz-adv-x="1499" 
d="M633 1747l229 -217l-2 -8h-215l-340 217l2 8h326zM10 0l707 1460h65l707 -1460h-348l-133 299h-514l-136 -299h-348zM565 524q32 11 92 11h185q60 0 92 -11l2 2q-27 30 -55 97l-82 194q-42 102 -45 148h-9q-3 -52 -43 -148l-81 -194q-31 -67 -58 -97z" />
    <glyph glyph-name="Aacute" unicode="&#xc1;" horiz-adv-x="1499" 
d="M1194 1747l2 -8l-342 -217h-213l-2 8l229 217h326zM10 0l707 1460h65l707 -1460h-348l-133 299h-514l-136 -299h-348zM565 524q32 11 92 11h185q60 0 92 -11l2 2q-27 30 -55 97l-82 194q-42 102 -45 148h-9q-3 -52 -43 -148l-81 -194q-31 -67 -58 -97z" />
    <glyph glyph-name="Acircumflex" unicode="&#xc2;" horiz-adv-x="1499" 
d="M362 1522v6l240 239h299l238 -239v-6h-269l-57 59q-47 45 -57 86h-8q-13 -41 -58 -86l-59 -59h-269zM10 0l707 1460h65l707 -1460h-348l-133 299h-514l-136 -299h-348zM565 524q32 11 92 11h185q60 0 92 -11l2 2q-27 30 -55 97l-82 194q-42 102 -45 148h-9
q-3 -52 -43 -148l-81 -194q-31 -67 -58 -97z" />
    <glyph glyph-name="Atilde" unicode="&#xc3;" horiz-adv-x="1499" 
d="M469 1507l-96 39q33 112 87.5 174t149.5 62q63 0 195.5 -35t167.5 -35q63 0 110 76l97 -39q-35 -114 -89 -176t-149 -62q-64 0 -195.5 36t-166.5 36q-64 0 -111 -76zM10 0l707 1460h65l707 -1460h-348l-133 299h-514l-136 -299h-348zM565 524q32 11 92 11h185
q60 0 92 -11l2 2q-27 30 -55 97l-82 194q-42 102 -45 148h-9q-3 -52 -43 -148l-81 -194q-31 -67 -58 -97z" />
    <glyph glyph-name="Adieresis" unicode="&#xc4;" horiz-adv-x="1499" 
d="M426 1776h236v-254h-236v254zM838 1776h237v-254h-237v254zM10 0l707 1460h65l707 -1460h-348l-133 299h-514l-136 -299h-348zM565 524q32 11 92 11h185q60 0 92 -11l2 2q-27 30 -55 97l-82 194q-42 102 -45 148h-9q-3 -52 -43 -148l-81 -194q-31 -67 -58 -97z" />
    <glyph glyph-name="Aring" unicode="&#xc5;" horiz-adv-x="1499" 
d="M827 1370l662 -1370h-348l-133 299h-514l-136 -299h-348l664 1370q-75 23 -116 85.5t-34 143.5q9 95 78.5 150.5t167.5 46.5q99 -9 156.5 -76.5t48.5 -163.5q-6 -68 -46 -117.5t-102 -68.5zM645 1589q-6 -42 19.5 -74t72.5 -38q47 -4 79 21.5t38 68.5q5 42 -20.5 74
t-71.5 38q-47 4 -79.5 -21.5t-37.5 -68.5zM934 524l2 2q-27 30 -55 97l-82 194q-42 102 -45 148h-9q-3 -52 -43 -148l-81 -194q-31 -67 -58 -97l2 -2q32 11 92 11h185q60 0 92 -11z" />
    <glyph glyph-name="AE" unicode="&#xc6;" horiz-adv-x="1990" 
d="M1434 283h473v-283h-815v242q0 46 10 63l-4 4q-17 -10 -56 -10h-458l-191 -299h-383l973 1434h913v-283h-462q-38 0 -58 10l-4 -4q10 -17 10 -63v-142q0 -46 -10 -63l4 -4q20 10 58 10h411v-279h-411q-36 0 -58 11l-4 -4q10 -17 10 -64v-219q0 -47 -10 -64l4 -4
q22 11 58 11zM1102 528q-10 17 -10 64v407q0 86 14 160h-4q-22 -64 -76 -155l-250 -400q-34 -52 -80 -82l2 -4q64 17 125 17h219q38 0 56 -11z" />
    <glyph glyph-name="Ccedilla" unicode="&#xc7;" horiz-adv-x="1392" 
d="M1352 129q-209 -147 -486 -160l-16 -41q188 -28 188 -145q0 -22 -6 -41.5t-20.5 -37t-29 -32t-40.5 -30t-45 -26t-54 -25.5t-56 -23t-61 -23.5t-60 -23.5l-43 96q96 49 132 74.5t36 48.5q0 44 -101 63l62 168q-311 26 -505 232t-194 514q0 216 98 386t275.5 265.5
t402.5 95.5q294 0 523 -159l-162 -258q-171 110 -354 110q-200 0 -324.5 -122t-124.5 -318q0 -195 125 -318t324 -123q181 0 354 111z" />
    <glyph glyph-name="Egrave" unicode="&#xc8;" horiz-adv-x="1114" 
d="M485 1747l230 -217l-2 -8h-215l-340 217l2 8h325zM1024 1434v-283h-520q-41 0 -58 10l-4 -4q11 -18 11 -61v-144q0 -45 -11 -63l4 -4q17 10 58 10h465v-279h-465q-40 0 -58 11l-4 -4q11 -18 11 -62v-223q0 -44 -11 -62l4 -4q18 11 58 11h528v-283h-897v1434h889z" />
    <glyph glyph-name="Eacute" unicode="&#xc9;" horiz-adv-x="1114" 
d="M1049 1747l2 -8l-342 -217h-213l-2 8l229 217h326zM1024 1434v-283h-520q-41 0 -58 10l-4 -4q11 -18 11 -61v-144q0 -45 -11 -63l4 -4q17 10 58 10h465v-279h-465q-40 0 -58 11l-4 -4q11 -18 11 -62v-223q0 -44 -11 -62l4 -4q18 11 58 11h528v-283h-897v1434h889z" />
    <glyph glyph-name="Ecircumflex" unicode="&#xca;" horiz-adv-x="1114" 
d="M215 1522v6l240 239h299l237 -239v-6h-268l-57 59q-48 46 -58 86h-8q-14 -43 -57 -86l-60 -59h-268zM1024 1434v-283h-520q-41 0 -58 10l-4 -4q11 -18 11 -61v-144q0 -45 -11 -63l4 -4q17 10 58 10h465v-279h-465q-40 0 -58 11l-4 -4q11 -18 11 -62v-223q0 -44 -11 -62
l4 -4q18 11 58 11h528v-283h-897v1434h889z" />
    <glyph glyph-name="Edieresis" unicode="&#xcb;" horiz-adv-x="1114" 
d="M281 1776h235v-254h-235v254zM692 1776h238v-254h-238v254zM1024 1434v-283h-520q-41 0 -58 10l-4 -4q11 -18 11 -61v-144q0 -45 -11 -63l4 -4q17 10 58 10h465v-279h-465q-40 0 -58 11l-4 -4q11 -18 11 -62v-223q0 -44 -11 -62l4 -4q18 11 58 11h528v-283h-897v1434h889
z" />
    <glyph glyph-name="Igrave" unicode="&#xcc;" horiz-adv-x="587" 
d="M176 1747l230 -217l-3 -8h-215l-340 217l2 8h326zM453 1434v-1434h-318v1434h318z" />
    <glyph glyph-name="Iacute" unicode="&#xcd;" horiz-adv-x="587" 
d="M737 1747l2 -8l-342 -217h-213l-2 8l230 217h325zM453 1434v-1434h-318v1434h318z" />
    <glyph glyph-name="Icircumflex" unicode="&#xce;" horiz-adv-x="587" 
d="M-94 1522v6l239 239h299l238 -239v-6h-268l-58 59q-47 45 -57 86h-8q-13 -41 -58 -86l-59 -59h-268zM453 1434v-1434h-318v1434h318z" />
    <glyph glyph-name="Idieresis" unicode="&#xcf;" horiz-adv-x="587" 
d="M-31 1776h236v-254h-236v254zM381 1776h237v-254h-237v254zM453 1434v-1434h-318v1434h318z" />
    <glyph glyph-name="Eth" unicode="&#xd0;" horiz-adv-x="1437" 
d="M614 1434q223 0 396.5 -85.5t272.5 -249t99 -382.5t-99 -382.5t-272.5 -249t-396.5 -85.5h-464v539q0 44 10 61l-4 4q-20 -10 -58 -10h-116v254h116q42 0 58 -8l4 4q-10 17 -10 61v529h464zM639 283q185 0 299.5 112.5t114.5 321.5t-114.5 321.5t-299.5 112.5h-121
q-40 0 -57 10l-4 -4q10 -17 10 -63v-189q0 -44 -10 -61l4 -4q13 8 57 8h266v-254h-266q-40 0 -57 10l-4 -4q10 -17 10 -61v-199q0 -47 -10 -64l4 -4q18 11 57 11h121z" />
    <glyph glyph-name="Ntilde" unicode="&#xd1;" horiz-adv-x="1478" 
d="M463 1507l-96 39q33 112 87.5 174t149.5 62q63 0 195.5 -35t167.5 -35q63 0 110 76l97 -39q-35 -114 -89 -176t-149 -62q-64 0 -196 36t-167 36q-63 0 -110 -76zM203 1454l747 -747q60 -59 94 -127l9 2q-23 77 -23 249v603h313v-1454h-69l-748 747q-36 36 -54 61.5
t-40 67.5l-8 -2q25 -73 25 -252v-602h-314v1454h68z" />
    <glyph glyph-name="Ograve" unicode="&#xd2;" horiz-adv-x="1615" 
d="M690 1747l230 -217l-2 -8h-216l-340 217l3 8h325zM809 1464q162 0 302 -56t239.5 -154.5t156 -237.5t56.5 -299q0 -214 -96.5 -385t-269 -267t-388.5 -96q-217 0 -390 96t-269.5 267t-96.5 385q0 161 56.5 299.5t156 237t240 154.5t303.5 56zM809 1157
q-192 0 -311 -122.5t-119 -317.5t119 -318t311 -123q190 0 309 123t119 318t-119 317.5t-309 122.5z" />
    <glyph glyph-name="Oacute" unicode="&#xd3;" horiz-adv-x="1615" 
d="M1251 1747l2 -8l-342 -217h-213l-2 8l230 217h325zM809 1464q162 0 302 -56t239.5 -154.5t156 -237.5t56.5 -299q0 -214 -96.5 -385t-269 -267t-388.5 -96q-217 0 -390 96t-269.5 267t-96.5 385q0 161 56.5 299.5t156 237t240 154.5t303.5 56zM809 1157
q-192 0 -311 -122.5t-119 -317.5t119 -318t311 -123q190 0 309 123t119 318t-119 317.5t-309 122.5z" />
    <glyph glyph-name="Ocircumflex" unicode="&#xd4;" horiz-adv-x="1615" 
d="M420 1522v6l239 239h299l238 -239v-6h-268l-58 59q-47 45 -57 86h-8q-14 -43 -57 -86l-60 -59h-268zM809 1464q162 0 302 -56t239.5 -154.5t156 -237.5t56.5 -299q0 -214 -96.5 -385t-269 -267t-388.5 -96q-217 0 -390 96t-269.5 267t-96.5 385q0 161 56.5 299.5t156 237
t240 154.5t303.5 56zM809 1157q-192 0 -311 -122.5t-119 -317.5t119 -318t311 -123q190 0 309 123t119 318t-119 317.5t-309 122.5z" />
    <glyph glyph-name="Otilde" unicode="&#xd5;" horiz-adv-x="1615" 
d="M528 1507l-96 39q33 112 88 174t150 62q63 0 195 -35t167 -35q64 0 111 76l96 -39q-35 -114 -89 -176t-149 -62q-64 0 -195.5 36t-166.5 36q-64 0 -111 -76zM809 1464q162 0 302 -56t239.5 -154.5t156 -237.5t56.5 -299q0 -214 -96.5 -385t-269 -267t-388.5 -96
q-217 0 -390 96t-269.5 267t-96.5 385q0 161 56.5 299.5t156 237t240 154.5t303.5 56zM809 1157q-192 0 -311 -122.5t-119 -317.5t119 -318t311 -123q190 0 309 123t119 318t-119 317.5t-309 122.5z" />
    <glyph glyph-name="Odieresis" unicode="&#xd6;" horiz-adv-x="1615" 
d="M483 1776h236v-254h-236v254zM895 1776h238v-254h-238v254zM809 1464q162 0 302 -56t239.5 -154.5t156 -237.5t56.5 -299q0 -214 -96.5 -385t-269 -267t-388.5 -96q-217 0 -390 96t-269.5 267t-96.5 385q0 161 56.5 299.5t156 237t240 154.5t303.5 56zM809 1157
q-192 0 -311 -122.5t-119 -317.5t119 -318t311 -123q190 0 309 123t119 318t-119 317.5t-309 122.5z" />
    <glyph glyph-name="multiply" unicode="&#xd7;" 
d="M973 1065l96 -96l-356 -359l356 -358l-96 -96l-359 356l-358 -356l-96 96l356 358l-356 359l96 96l358 -356z" />
    <glyph glyph-name="Oslash" unicode="&#xd8;" horiz-adv-x="1597" 
d="M1274 1319q137 -101 213 -257t76 -345q0 -214 -96.5 -385t-269 -267t-388.5 -96q-234 0 -414 111l-76 -109l-67 43l78 109q-131 101 -204 255t-73 339q0 161 56.5 299.5t156 237t240 154.5t303.5 56q221 0 399 -102l70 100l68 -45zM379 717q0 -103 35.5 -188.5
t99.5 -145.5l512 723q-97 51 -217 51q-192 0 -311 -122.5t-119 -317.5zM809 276q190 0 309 123t119 318q0 216 -145 342l-514 -723q102 -60 231 -60z" />
    <glyph glyph-name="Ugrave" unicode="&#xd9;" horiz-adv-x="1456" 
d="M610 1747l230 -217l-2 -8h-215l-340 217l2 8h325zM1333 1434v-861q0 -286 -158.5 -443t-445.5 -157q-288 0 -447 157.5t-159 442.5v861h323v-844q0 -142 76 -224.5t207 -82.5q130 0 206.5 82.5t76.5 224.5v844h321z" />
    <glyph glyph-name="Uacute" unicode="&#xda;" horiz-adv-x="1456" 
d="M1174 1747l2 -8l-342 -217h-213l-3 8l230 217h326zM1333 1434v-861q0 -286 -158.5 -443t-445.5 -157q-288 0 -447 157.5t-159 442.5v861h323v-844q0 -142 76 -224.5t207 -82.5q130 0 206.5 82.5t76.5 224.5v844h321z" />
    <glyph glyph-name="Ucircumflex" unicode="&#xdb;" horiz-adv-x="1456" 
d="M340 1522v6l240 239h299l237 -239v-6h-268l-57 59q-48 46 -58 86h-8q-14 -43 -57 -86l-60 -59h-268zM1333 1434v-861q0 -286 -158.5 -443t-445.5 -157q-288 0 -447 157.5t-159 442.5v861h323v-844q0 -142 76 -224.5t207 -82.5q130 0 206.5 82.5t76.5 224.5v844h321z" />
    <glyph glyph-name="Udieresis" unicode="&#xdc;" horiz-adv-x="1456" 
d="M403 1776h236v-254h-236v254zM815 1776h238v-254h-238v254zM1333 1434v-861q0 -286 -158.5 -443t-445.5 -157q-288 0 -447 157.5t-159 442.5v861h323v-844q0 -142 76 -224.5t207 -82.5q130 0 206.5 82.5t76.5 224.5v844h321z" />
    <glyph glyph-name="Yacute" unicode="&#xdd;" horiz-adv-x="1374" 
d="M1133 1747l2 -8l-342 -217h-213l-2 8l229 217h326zM1364 1434l-518 -926v-508h-318v508l-518 926h377l221 -465q7 -14 19 -38.5t16 -33.5t11.5 -25.5t10.5 -24.5t7.5 -21t7.5 -24.5t6 -25.5h4q3 14 5 25t7 25l7.5 21t10.5 25t11.5 25t16 33.5t18.5 38.5l221 465h377z" />
    <glyph glyph-name="Thorn" unicode="&#xde;" horiz-adv-x="1146" 
d="M420 1434v-213q0 -50 -4 -58l4 -4q9 6 41 6h172q241 0 365 -112t124 -316t-124 -316t-365 -112h-172q-32 0 -41 6l-4 -4q4 -8 4 -57v-254h-285v1434h285zM420 901l-4 -4q4 -10 4 -47v-225q0 -37 -4 -47l4 -5q14 7 39 7h178q93 0 142.5 40.5t49.5 116.5t-50 117t-142 41
h-178q-27 0 -39 6z" />
    <glyph glyph-name="germandbls" unicode="&#xdf;" horiz-adv-x="1234" 
d="M776 813q194 -5 300 -96t106 -277q0 -222 -152 -336t-428 -114h-100v268h82q156 0 221 48.5t65 152.5q0 126 -82 177.5t-247 51.5v232q106 0 161.5 39t55.5 114q0 69 -45 104t-117 35q-87 0 -134.5 -50t-47.5 -152v-1276h-310v1249q0 223 127.5 352t384.5 129
q211 0 326 -89t115 -257q0 -257 -281 -297v-8z" />
    <glyph glyph-name="agrave" unicode="&#xe0;" horiz-adv-x="1083" 
d="M154 1448l284 -29l213 -278l-14 -8l-225 28l-281 279zM532 977q244 0 350.5 -88t106.5 -289v-600h-309q0 106 33 188l-11 7q-99 -226 -331 -226q-153 0 -245.5 91t-92.5 241q0 148 93.5 236t248.5 88q221 0 323 -176l9 4q-17 52 -17 151q0 57 -52.5 90t-143.5 33
q-119 0 -289 -31l-43 246q187 35 370 35zM496 442q-58 0 -94.5 -33.5t-36.5 -86.5q0 -54 36.5 -87.5t94.5 -33.5t95.5 34t37.5 87t-37.5 86.5t-95.5 33.5z" />
    <glyph glyph-name="aacute" unicode="&#xe1;" horiz-adv-x="1083" 
d="M934 1448l2 -8l-305 -307h-213l-2 8l229 307h289zM532 977q244 0 350.5 -88t106.5 -289v-600h-309q0 106 33 188l-11 7q-99 -226 -331 -226q-153 0 -245.5 91t-92.5 241q0 148 93.5 236t248.5 88q221 0 323 -176l9 4q-17 52 -17 151q0 57 -52.5 90t-143.5 33
q-119 0 -289 -31l-43 246q187 35 370 35zM496 442q-58 0 -94.5 -33.5t-36.5 -86.5q0 -54 36.5 -87.5t94.5 -33.5t95.5 34t37.5 87t-37.5 86.5t-95.5 33.5z" />
    <glyph glyph-name="acircumflex" unicode="&#xe2;" horiz-adv-x="1083" 
d="M680 1448l238 -305v-10h-248l-68 88q-35 44 -49 72.5t-18 66.5h-7q-4 -38 -17.5 -66t-47.5 -73l-70 -88h-246v10l238 305h295zM532 977q244 0 350.5 -88t106.5 -289v-600h-309q0 106 33 188l-11 7q-99 -226 -331 -226q-153 0 -245.5 91t-92.5 241q0 148 93.5 236
t248.5 88q221 0 323 -176l9 4q-17 52 -17 151q0 57 -52.5 90t-143.5 33q-119 0 -289 -31l-43 246q187 35 370 35zM496 442q-58 0 -94.5 -33.5t-36.5 -86.5q0 -54 36.5 -87.5t94.5 -33.5t95.5 34t37.5 87t-37.5 86.5t-95.5 33.5z" />
    <glyph glyph-name="atilde" unicode="&#xe3;" horiz-adv-x="1083" 
d="M393 1446q53 0 122 -23t129.5 -46t90.5 -23q65 0 111 94l117 -39q-32 -129 -87.5 -200.5t-148.5 -71.5q-53 0 -122 23.5t-129.5 47t-90.5 23.5q-65 0 -111 -96l-116 41q32 129 87 199.5t148 70.5zM532 977q244 0 350.5 -88t106.5 -289v-600h-309q0 106 33 188l-11 7
q-99 -226 -331 -226q-153 0 -245.5 91t-92.5 241q0 148 93.5 236t248.5 88q221 0 323 -176l9 4q-17 52 -17 151q0 57 -52.5 90t-143.5 33q-119 0 -289 -31l-43 246q187 35 370 35zM496 442q-58 0 -94.5 -33.5t-36.5 -86.5q0 -54 36.5 -87.5t94.5 -33.5t95.5 34t37.5 87
t-37.5 86.5t-95.5 33.5z" />
    <glyph glyph-name="adieresis" unicode="&#xe4;" horiz-adv-x="1083" 
d="M453 1434v-297h-236v297h236zM852 1434v-297h-238v297h238zM532 977q244 0 350.5 -88t106.5 -289v-600h-309q0 106 33 188l-11 7q-99 -226 -331 -226q-153 0 -245.5 91t-92.5 241q0 148 93.5 236t248.5 88q221 0 323 -176l9 4q-17 52 -17 151q0 57 -52.5 90t-143.5 33
q-119 0 -289 -31l-43 246q187 35 370 35zM496 442q-58 0 -94.5 -33.5t-36.5 -86.5q0 -54 36.5 -87.5t94.5 -33.5t95.5 34t37.5 87t-37.5 86.5t-95.5 33.5z" />
    <glyph glyph-name="aring" unicode="&#xe5;" horiz-adv-x="1083" 
d="M535 1530q107 0 176 -68t69 -172t-69 -171.5t-176 -67.5t-176.5 67.5t-69.5 171.5t69.5 172t176.5 68zM535 1403q-51 0 -83 -32.5t-32 -80.5t31.5 -80t83.5 -32q51 0 82.5 32t31.5 80t-31.5 80.5t-82.5 32.5zM532 977q244 0 350.5 -88t106.5 -289v-600h-309q0 106 33 188
l-11 7q-99 -226 -331 -226q-153 0 -245.5 91t-92.5 241q0 148 93.5 236t248.5 88q221 0 323 -176l9 4q-17 52 -17 151q0 57 -52.5 90t-143.5 33q-119 0 -289 -31l-43 246q187 35 370 35zM496 442q-58 0 -94.5 -33.5t-36.5 -86.5q0 -54 36.5 -87.5t94.5 -33.5t95.5 34
t37.5 87t-37.5 86.5t-95.5 33.5z" />
    <glyph glyph-name="ae" unicode="&#xe6;" horiz-adv-x="1683" 
d="M381 -31q-164 0 -256 95t-92 241q0 150 95.5 235t252.5 85q214 0 319 -176l7 4q-17 64 -17 151q-4 123 -211 123q-75 0 -274 -31l-43 246q188 35 364 35q128 0 197 -34.5t113 -115.5h2q122 148 338 148q212 0 339 -132t127 -366v-82h-561q-42 0 -65 4.5t-45 18.5l-4 -6
l8 -19q18 -81 76.5 -125.5t156.5 -44.5q148 0 277 84l102 -235q-174 -103 -366 -103q-155 0 -265 63.5t-168 174.5h-4q-49 -104 -157.5 -171t-245.5 -67zM965 565q23 17 90 17h205q60 0 77 -17l4 4q-4 86 -52 131t-128 45q-82 0 -135 -46t-65 -128zM496 201q58 0 95.5 33
t37.5 88t-37.5 87.5t-95.5 32.5q-57 0 -94 -33t-37 -87q0 -55 37 -88t94 -33z" />
    <glyph glyph-name="ccedilla" unicode="&#xe7;" horiz-adv-x="944" 
d="M920 61q-140 -83 -304 -92l-16 -41q188 -28 188 -145q0 -22 -6 -41.5t-20.5 -37t-29 -32t-40.5 -30t-45 -26t-54 -25.5t-56 -23t-61 -23.5t-60 -23.5l-43 96q96 49 132 74.5t36 48.5q0 44 -101 63l62 170q-202 23 -326.5 160t-124.5 340q0 223 147 363.5t380 140.5
q187 0 342 -92l-125 -248q-92 57 -203 57q-101 0 -165.5 -61.5t-64.5 -159.5q0 -97 64.5 -159t165.5 -62q111 0 203 57z" />
    <glyph glyph-name="egrave" unicode="&#xe8;" horiz-adv-x="1064" 
d="M174 1448l285 -29l213 -278l-15 -8l-225 28l-280 279zM553 975q220 0 344.5 -130.5t124.5 -367.5v-82h-561q-44 0 -66.5 4.5t-44.5 20.5l-4 -6l8 -23q42 -168 236 -168q145 0 274 84l103 -235q-174 -103 -375 -103q-248 0 -394.5 135t-146.5 371q0 230 139.5 365
t362.5 135zM541 745q-82 0 -135.5 -46.5t-63.5 -129.5l4 -6q16 19 86 19h207q63 0 78 -17l4 4q-4 86 -52 131t-128 45z" />
    <glyph glyph-name="eacute" unicode="&#xe9;" horiz-adv-x="1064" 
d="M954 1448l2 -8l-305 -307h-213l-2 8l230 307h288zM553 975q220 0 344.5 -130.5t124.5 -367.5v-82h-561q-44 0 -66.5 4.5t-44.5 20.5l-4 -6l8 -23q42 -168 236 -168q145 0 274 84l103 -235q-174 -103 -375 -103q-248 0 -394.5 135t-146.5 371q0 230 139.5 365t362.5 135z
M541 745q-82 0 -135.5 -46.5t-63.5 -129.5l4 -6q16 19 86 19h207q63 0 78 -17l4 4q-4 86 -52 131t-128 45z" />
    <glyph glyph-name="ecircumflex" unicode="&#xea;" horiz-adv-x="1064" 
d="M700 1448l238 -305v-10h-248l-67 88q-36 45 -50 73t-18 66h-6q-4 -38 -18 -66t-48 -73l-69 -88h-246v10l238 305h294zM553 975q220 0 344.5 -130.5t124.5 -367.5v-82h-561q-44 0 -66.5 4.5t-44.5 20.5l-4 -6l8 -23q42 -168 236 -168q145 0 274 84l103 -235
q-174 -103 -375 -103q-248 0 -394.5 135t-146.5 371q0 230 139.5 365t362.5 135zM541 745q-82 0 -135.5 -46.5t-63.5 -129.5l4 -6q16 19 86 19h207q63 0 78 -17l4 4q-4 86 -52 131t-128 45z" />
    <glyph glyph-name="edieresis" unicode="&#xeb;" horiz-adv-x="1064" 
d="M473 1434v-297h-235v297h235zM872 1434v-297h-237v297h237zM553 975q220 0 344.5 -130.5t124.5 -367.5v-82h-561q-44 0 -66.5 4.5t-44.5 20.5l-4 -6l8 -23q42 -168 236 -168q145 0 274 84l103 -235q-174 -103 -375 -103q-248 0 -394.5 135t-146.5 371q0 230 139.5 365
t362.5 135zM541 745q-82 0 -135.5 -46.5t-63.5 -129.5l4 -6q16 19 86 19h207q63 0 78 -17l4 4q-4 86 -52 131t-128 45z" />
    <glyph glyph-name="igrave" unicode="&#xec;" horiz-adv-x="518" 
d="M-37 1448h287l127 -307l-2 -8h-213l-201 307zM414 946v-946h-310v946h310z" />
    <glyph glyph-name="iacute" unicode="&#xed;" horiz-adv-x="518" 
d="M573 1448l2 -8l-200 -307h-213l-2 8l127 307h286zM414 946v-946h-310v946h310z" />
    <glyph glyph-name="icircumflex" unicode="&#xee;" horiz-adv-x="518" 
d="M406 1448l137 -305v-10h-207l-35 88q-32 74 -39 139h-6q-5 -44 -11 -67.5t-26 -71.5l-37 -88h-207v10l138 305h293zM414 946v-946h-310v946h310z" />
    <glyph glyph-name="idieresis" unicode="&#xef;" horiz-adv-x="518" 
d="M219 1434v-297h-235v297h235zM537 1434v-297h-238v297h238zM414 946v-946h-310v946h310z" />
    <glyph glyph-name="eth" unicode="&#xf0;" horiz-adv-x="1189" 
d="M813 1309q303 -203 303 -672q0 -143 -30 -258t-82 -190.5t-123.5 -125.5t-151.5 -72t-170 -22q-161 0 -279.5 67.5t-177.5 181t-59 257.5q0 217 131.5 350t335.5 133q273 0 354 -253h8q-11 132 -59 229q-69 135 -195 205l-157 -142l-96 97l110 100q-105 27 -242 33
l27 237q241 -12 424 -86l119 107l96 -99zM561 248q99 0 163 62.5t64 166.5q0 102 -64.5 163.5t-164.5 61.5q-104 0 -165.5 -61.5t-61.5 -163.5q0 -103 64 -166t165 -63z" />
    <glyph glyph-name="ntilde" unicode="&#xf1;" horiz-adv-x="1173" 
d="M475 1446q53 0 122 -23t129.5 -46t90.5 -23q65 0 111 94l116 -39q-32 -130 -87 -201t-148 -71q-53 0 -122 23.5t-129.5 47t-90.5 23.5q-65 0 -111 -96l-116 41q32 129 87 199.5t148 70.5zM745 977q160 0 246 -97.5t86 -287.5v-592h-307v506q0 100 -42 150.5t-118 50.5
q-196 0 -196 -250v-457h-310v946h306q0 -123 -19 -213l8 -4q102 248 346 248z" />
    <glyph glyph-name="ograve" unicode="&#xf2;" horiz-adv-x="1167" 
d="M203 1448l284 -29l213 -278l-14 -8l-225 28l-281 279zM584 977q231 0 380.5 -139.5t149.5 -364.5t-149.5 -364.5t-380.5 -139.5q-233 0 -383 139.5t-150 364.5t150 364.5t383 139.5zM584 694q-96 0 -159 -61t-63 -160t63 -160t159 -61t158.5 60.5t62.5 160.5t-62.5 160.5
t-158.5 60.5z" />
    <glyph glyph-name="oacute" unicode="&#xf3;" horiz-adv-x="1167" 
d="M983 1448l2 -8l-305 -307h-213l-2 8l229 307h289zM584 977q231 0 380.5 -139.5t149.5 -364.5t-149.5 -364.5t-380.5 -139.5q-233 0 -383 139.5t-150 364.5t150 364.5t383 139.5zM584 694q-96 0 -159 -61t-63 -160t63 -160t159 -61t158.5 60.5t62.5 160.5t-62.5 160.5
t-158.5 60.5z" />
    <glyph glyph-name="ocircumflex" unicode="&#xf4;" horiz-adv-x="1167" 
d="M731 1448l238 -305v-10h-248l-68 88q-35 44 -49 72.5t-18 66.5h-6q-4 -38 -18 -66t-48 -73l-70 -88h-245v10l237 305h295zM584 977q231 0 380.5 -139.5t149.5 -364.5t-149.5 -364.5t-380.5 -139.5q-233 0 -383 139.5t-150 364.5t150 364.5t383 139.5zM584 694
q-96 0 -159 -61t-63 -160t63 -160t159 -61t158.5 60.5t62.5 160.5t-62.5 160.5t-158.5 60.5z" />
    <glyph glyph-name="otilde" unicode="&#xf5;" horiz-adv-x="1167" 
d="M442 1446q53 0 122 -23t129.5 -46t90.5 -23q65 0 111 94l117 -39q-32 -129 -87.5 -200.5t-148.5 -71.5q-53 0 -122 23.5t-129.5 47t-90.5 23.5q-35 0 -61 -24t-49 -72l-117 41q32 129 87 199.5t148 70.5zM584 977q231 0 380.5 -139.5t149.5 -364.5t-149.5 -364.5
t-380.5 -139.5q-233 0 -383 139.5t-150 364.5t150 364.5t383 139.5zM584 694q-96 0 -159 -61t-63 -160t63 -160t159 -61t158.5 60.5t62.5 160.5t-62.5 160.5t-158.5 60.5z" />
    <glyph glyph-name="odieresis" unicode="&#xf6;" horiz-adv-x="1167" 
d="M502 1434v-297h-236v297h236zM901 1434v-297h-237v297h237zM584 977q231 0 380.5 -139.5t149.5 -364.5t-149.5 -364.5t-380.5 -139.5q-233 0 -383 139.5t-150 364.5t150 364.5t383 139.5zM584 694q-96 0 -159 -61t-63 -160t63 -160t159 -61t158.5 60.5t62.5 160.5
t-62.5 160.5t-158.5 60.5z" />
    <glyph glyph-name="divide" unicode="&#xf7;" 
d="M713 1051v-201h-197v201h197zM1145 676v-129h-1061v129h1061zM713 373v-201h-197v201h197z" />
    <glyph glyph-name="oslash" unicode="&#xf8;" horiz-adv-x="1167" 
d="M954 846q160 -141 160 -373q0 -225 -149.5 -364.5t-380.5 -139.5q-185 0 -322 92l-80 -90l-59 47l80 91q-152 142 -152 364q0 225 150 364.5t383 139.5q173 0 309 -84l74 84l59 -49zM362 473q0 -82 41 -135l291 330q-48 26 -110 26q-96 0 -159 -61t-63 -160zM584 252
q96 0 158.5 60.5t62.5 160.5q0 86 -49 148l-297 -336q61 -33 125 -33z" />
    <glyph glyph-name="ugrave" unicode="&#xf9;" horiz-adv-x="1159" 
d="M199 1448l284 -29l213 -278l-14 -8l-225 28l-281 279zM1055 946v-946h-301q0 108 30 238l-8 2q-49 -135 -129 -203t-205 -68q-156 0 -252 100t-96 291v586h318v-493q0 -103 41.5 -153t115.5 -50q77 0 126.5 56t49.5 173v467h310z" />
    <glyph glyph-name="uacute" unicode="&#xfa;" horiz-adv-x="1159" 
d="M979 1448l2 -8l-305 -307h-213l-2 8l229 307h289zM1055 946v-946h-301q0 108 30 238l-8 2q-49 -135 -129 -203t-205 -68q-156 0 -252 100t-96 291v586h318v-493q0 -103 41.5 -153t115.5 -50q77 0 126.5 56t49.5 173v467h310z" />
    <glyph glyph-name="ucircumflex" unicode="&#xfb;" horiz-adv-x="1159" 
d="M727 1448l238 -305v-10h-248l-68 88q-35 44 -49 72.5t-18 66.5h-7q-4 -38 -17.5 -66t-47.5 -73l-70 -88h-245v10l237 305h295zM1055 946v-946h-301q0 108 30 238l-8 2q-49 -135 -129 -203t-205 -68q-156 0 -252 100t-96 291v586h318v-493q0 -103 41.5 -153t115.5 -50
q77 0 126.5 56t49.5 173v467h310z" />
    <glyph glyph-name="udieresis" unicode="&#xfc;" horiz-adv-x="1159" 
d="M498 1434v-297h-236v297h236zM897 1434v-297h-238v297h238zM1055 946v-946h-301q0 108 30 238l-8 2q-49 -135 -129 -203t-205 -68q-156 0 -252 100t-96 291v586h318v-493q0 -103 41.5 -153t115.5 -50q77 0 126.5 56t49.5 173v467h310z" />
    <glyph glyph-name="yacute" unicode="&#xfd;" horiz-adv-x="1099" 
d="M950 1448l2 -8l-305 -307h-213l-2 8l230 307h288zM1098 946l-604 -1356h-310l222 484l-404 872h332l158 -371q26 -63 37.5 -111.5t15.5 -121.5l8 2q6 92 43 180l170 422h332z" />
    <glyph glyph-name="thorn" unicode="&#xfe;" horiz-adv-x="1230" 
d="M104 -410v1844h310v-488q0 -112 -27 -211l8 -4q108 246 348 246q193 0 315 -137.5t122 -368.5q0 -229 -120.5 -365.5t-314.5 -136.5q-121 0 -211.5 61.5t-136.5 184.5l-8 -4q19 -103 19 -188v-433h-304zM643 252q95 0 157 60t62 161q0 100 -63 160.5t-156 60.5
q-96 0 -158.5 -60.5t-62.5 -160.5t62.5 -160.5t158.5 -60.5z" />
    <glyph glyph-name="ydieresis" unicode="&#xff;" horiz-adv-x="1099" 
d="M469 1434v-297h-236v297h236zM868 1434v-297h-237v297h237zM1098 946l-604 -1356h-310l222 484l-404 872h332l158 -371q26 -63 37.5 -111.5t15.5 -121.5l8 2q6 92 43 180l170 422h332z" />
    <glyph glyph-name="Amacron" unicode="&#x100;" horiz-adv-x="1499" 
d="M418 1726h663v-192h-663v192zM10 0l707 1460h65l707 -1460h-348l-133 299h-514l-136 -299h-348zM565 524q32 11 92 11h185q60 0 92 -11l2 2q-27 30 -55 97l-82 194q-42 102 -45 148h-9q-3 -52 -43 -148l-81 -194q-31 -67 -58 -97z" />
    <glyph glyph-name="amacron" unicode="&#x101;" horiz-adv-x="1083" 
d="M848 1384v-198h-631v198h631zM532 977q244 0 350.5 -88t106.5 -289v-600h-309q0 106 33 188l-11 7q-99 -226 -331 -226q-153 0 -245.5 91t-92.5 241q0 148 93.5 236t248.5 88q221 0 323 -176l9 4q-17 52 -17 151q0 57 -52.5 90t-143.5 33q-119 0 -289 -31l-43 246
q187 35 370 35zM496 442q-58 0 -94.5 -33.5t-36.5 -86.5q0 -54 36.5 -87.5t94.5 -33.5t95.5 34t37.5 87t-37.5 86.5t-95.5 33.5z" />
    <glyph glyph-name="Abreve" unicode="&#x102;" horiz-adv-x="1499" 
d="M1087 1767q-3 -120 -96.5 -191t-240.5 -71q-145 0 -239 71t-97 191h213q2 -38 35.5 -63t87.5 -25q55 0 88.5 25t35.5 63h213zM10 0l707 1460h65l707 -1460h-348l-133 299h-514l-136 -299h-348zM565 524q32 11 92 11h185q60 0 92 -11l2 2q-27 30 -55 97l-82 194
q-42 102 -45 148h-9q-3 -52 -43 -148l-81 -194q-31 -67 -58 -97z" />
    <glyph glyph-name="abreve" unicode="&#x103;" horiz-adv-x="1083" 
d="M870 1462q0 -148 -96 -240t-242 -92q-144 0 -239.5 92.5t-95.5 239.5h192q8 -141 143 -141q73 0 107 39.5t37 101.5h194zM532 977q244 0 350.5 -88t106.5 -289v-600h-309q0 106 33 188l-11 7q-99 -226 -331 -226q-153 0 -245.5 91t-92.5 241q0 148 93.5 236t248.5 88
q221 0 323 -176l9 4q-17 52 -17 151q0 57 -52.5 90t-143.5 33q-119 0 -289 -31l-43 246q187 35 370 35zM496 442q-58 0 -94.5 -33.5t-36.5 -86.5q0 -54 36.5 -87.5t94.5 -33.5t95.5 34t37.5 87t-37.5 86.5t-95.5 33.5z" />
    <glyph glyph-name="Aogonek" unicode="&#x104;" horiz-adv-x="1499" 
d="M1196 -238q27 0 80 11l27 -191q-133 -18 -146 -18q-107 0 -167 43.5t-60 132.5q0 66 50 133t150 152l-122 274h-514l-136 -299h-348l707 1460h65l707 -1460h-199q-149 -139 -149 -193q0 -21 15.5 -33t39.5 -12zM934 524l2 2q-27 30 -55 97l-82 194q-42 102 -45 148h-9
q-3 -52 -43 -148l-81 -194q-31 -67 -58 -97l2 -2q32 11 92 11h185q60 0 92 -11z" />
    <glyph glyph-name="aogonek" unicode="&#x105;" horiz-adv-x="1083" 
d="M834 0q-150 -140 -150 -193q0 -21 15.5 -33t39.5 -12q25 0 78 11l29 -191q-133 -18 -146 -18q-107 0 -167 43.5t-60 132.5q0 67 51 134t156 159q6 81 33 155l-11 7q-99 -226 -331 -226q-153 0 -245.5 91t-92.5 241q0 148 93.5 236t248.5 88q221 0 323 -176l9 4
q-17 52 -17 151q0 57 -52.5 90t-143.5 33q-119 0 -289 -31l-43 246q187 35 370 35q244 0 350.5 -88t106.5 -289v-600h-155zM496 201q58 0 95.5 34t37.5 87t-37.5 86.5t-95.5 33.5t-94.5 -33.5t-36.5 -86.5q0 -54 36.5 -87.5t94.5 -33.5z" />
    <glyph glyph-name="Cacute" unicode="&#x106;" horiz-adv-x="1392" 
d="M1245 1747l2 -8l-342 -217h-213l-2 8l230 217h325zM829 -31q-169 0 -313.5 56t-246 154.5t-159 237t-57.5 300.5q0 216 98 386t275.5 265.5t402.5 95.5q294 0 523 -159l-162 -258q-171 110 -354 110q-200 0 -324.5 -122t-124.5 -318q0 -195 125 -318t324 -123
q181 0 354 111l162 -258q-231 -160 -523 -160z" />
    <glyph glyph-name="cacute" unicode="&#x107;" horiz-adv-x="944" 
d="M952 1448l2 -8l-305 -307h-213l-2 8l230 307h288zM578 -31q-233 0 -380 140.5t-147 363.5t147 363.5t380 140.5q187 0 342 -92l-125 -248q-92 57 -203 57q-101 0 -165.5 -61.5t-64.5 -159.5q0 -97 64.5 -159t165.5 -62q111 0 203 57l125 -248q-155 -92 -342 -92z" />
    <glyph glyph-name="Ccircumflex" unicode="&#x108;" horiz-adv-x="1392" 
d="M414 1522v6l239 239h299l238 -239v-6h-268l-58 59q-47 45 -57 86h-8q-13 -41 -58 -86l-59 -59h-268zM829 -31q-169 0 -313.5 56t-246 154.5t-159 237t-57.5 300.5q0 216 98 386t275.5 265.5t402.5 95.5q294 0 523 -159l-162 -258q-171 110 -354 110q-200 0 -324.5 -122
t-124.5 -318q0 -195 125 -318t324 -123q181 0 354 111l162 -258q-231 -160 -523 -160z" />
    <glyph glyph-name="ccircumflex" unicode="&#x109;" horiz-adv-x="944" 
d="M698 1448l238 -305v-10h-248l-67 88q-36 45 -50 73t-18 66h-6q-4 -38 -18 -66t-48 -73l-69 -88h-246v10l237 305h295zM578 -31q-233 0 -380 140.5t-147 363.5t147 363.5t380 140.5q187 0 342 -92l-125 -248q-92 57 -203 57q-101 0 -165.5 -61.5t-64.5 -159.5
q0 -97 64.5 -159t165.5 -62q111 0 203 57l125 -248q-155 -92 -342 -92z" />
    <glyph glyph-name="Cdotaccent" unicode="&#x10a;" horiz-adv-x="1392" 
d="M948 1794v-272h-295v272h295zM829 -31q-169 0 -313.5 56t-246 154.5t-159 237t-57.5 300.5q0 216 98 386t275.5 265.5t402.5 95.5q294 0 523 -159l-162 -258q-171 110 -354 110q-200 0 -324.5 -122t-124.5 -318q0 -195 125 -318t324 -123q181 0 354 111l162 -258
q-231 -160 -523 -160z" />
    <glyph glyph-name="cdotaccent" unicode="&#x10b;" horiz-adv-x="944" 
d="M719 1434v-344h-334v344h334zM578 -31q-233 0 -380 140.5t-147 363.5t147 363.5t380 140.5q187 0 342 -92l-125 -248q-92 57 -203 57q-101 0 -165.5 -61.5t-64.5 -159.5q0 -97 64.5 -159t165.5 -62q111 0 203 57l125 -248q-155 -92 -342 -92z" />
    <glyph glyph-name="Ccaron" unicode="&#x10c;" horiz-adv-x="1392" 
d="M1190 1767v-6l-238 -239h-299l-239 239v6h268l59 -59q45 -45 58 -86h8q10 41 57 86l58 59h268zM829 -31q-169 0 -313.5 56t-246 154.5t-159 237t-57.5 300.5q0 216 98 386t275.5 265.5t402.5 95.5q294 0 523 -159l-162 -258q-171 110 -354 110q-200 0 -324.5 -122
t-124.5 -318q0 -195 125 -318t324 -123q181 0 354 111l162 -258q-231 -160 -523 -160z" />
    <glyph glyph-name="ccaron" unicode="&#x10d;" horiz-adv-x="944" 
d="M418 1133l-238 305v10h248l68 -88q36 -47 49.5 -74t17.5 -65h6q4 39 17.5 66t48.5 73l70 88h245v-10l-237 -305h-295zM578 -31q-233 0 -380 140.5t-147 363.5t147 363.5t380 140.5q187 0 342 -92l-125 -248q-92 57 -203 57q-101 0 -165.5 -61.5t-64.5 -159.5
q0 -97 64.5 -159t165.5 -62q111 0 203 57l125 -248q-155 -92 -342 -92z" />
    <glyph glyph-name="Dcaron" unicode="&#x10e;" horiz-adv-x="1419" 
d="M987 1767v-6l-237 -239h-299l-240 239v6h268l60 -59q43 -43 57 -86h8q10 40 58 86l57 59h268zM600 1434q355 0 560.5 -192.5t205.5 -524.5t-205.5 -524.5t-560.5 -192.5h-465v1434h465zM446 1161l-4 -4q11 -18 11 -63v-754q0 -46 -11 -64l4 -4q16 11 58 11h121
q192 0 300.5 115.5t108.5 318.5t-108.5 318.5t-300.5 115.5h-121q-43 0 -58 10z" />
    <glyph glyph-name="dcaron" unicode="&#x10f;" horiz-adv-x="1591" 
d="M1303 1495h317l-215 -442h-197zM487 -31q-198 0 -317 137.5t-119 364.5t120 366.5t316 139.5q251 0 351 -246l8 2q-29 101 -29 271v460h309v-1464h-301q0 113 19 213l-8 2q-41 -117 -132.5 -181.5t-216.5 -64.5zM600 246q105 0 168 62t63 165t-63 165t-168 62t-168 -61.5
t-63 -165.5t62.5 -165.5t168.5 -61.5z" />
    <glyph glyph-name="Dcroat" unicode="&#x110;" horiz-adv-x="1437" 
d="M614 1434q223 0 396.5 -85.5t272.5 -249t99 -382.5t-99 -382.5t-272.5 -249t-396.5 -85.5h-464v539q0 44 10 61l-4 4q-20 -10 -58 -10h-116v254h116q42 0 58 -8l4 4q-10 17 -10 61v529h464zM639 283q185 0 299.5 112.5t114.5 321.5t-114.5 321.5t-299.5 112.5h-121
q-40 0 -57 10l-4 -4q10 -17 10 -63v-189q0 -44 -10 -61l4 -4q13 8 57 8h266v-254h-266q-40 0 -57 10l-4 -4q10 -17 10 -61v-199q0 -47 -10 -64l4 -4q18 11 57 11h121z" />
    <glyph glyph-name="dcroat" unicode="&#x111;" horiz-adv-x="1222" 
d="M1176 1309h65v-179h-65q-40 0 -58 9l-2 -2q10 -20 10 -54v-1083h-301q0 101 17 213l-8 2q-41 -121 -134.5 -183.5t-214.5 -62.5q-194 0 -314 136.5t-120 365.5q0 231 121.5 368.5t312.5 137.5q252 0 351 -246l8 2q-27 125 -27 271v79q0 34 10 54l-2 2q-18 -9 -57 -9h-256
v179h256q39 0 57 -9l2 3q-10 20 -10 53v108h309v-108q0 -33 -10 -53l2 -3q18 9 58 9zM592 252q93 0 155 61t62 160t-62 160t-155 61q-92 0 -152.5 -60.5t-60.5 -160.5t60.5 -160.5t152.5 -60.5z" />
    <glyph glyph-name="Emacron" unicode="&#x112;" horiz-adv-x="1114" 
d="M272 1726h664v-192h-664v192zM1024 1434v-283h-520q-41 0 -58 10l-4 -4q11 -18 11 -61v-144q0 -45 -11 -63l4 -4q17 10 58 10h465v-279h-465q-40 0 -58 11l-4 -4q11 -18 11 -62v-223q0 -44 -11 -62l4 -4q18 11 58 11h528v-283h-897v1434h889z" />
    <glyph glyph-name="emacron" unicode="&#x113;" horiz-adv-x="1064" 
d="M868 1384v-198h-630v198h630zM553 975q220 0 344.5 -130.5t124.5 -367.5v-82h-561q-44 0 -66.5 4.5t-44.5 20.5l-4 -6l8 -23q42 -168 236 -168q145 0 274 84l103 -235q-174 -103 -375 -103q-248 0 -394.5 135t-146.5 371q0 230 139.5 365t362.5 135zM541 745
q-82 0 -135.5 -46.5t-63.5 -129.5l4 -6q16 19 86 19h207q63 0 78 -17l4 4q-4 86 -52 131t-128 45z" />
    <glyph glyph-name="Ebreve" unicode="&#x114;" horiz-adv-x="1114" 
d="M942 1767q-3 -120 -97 -191t-241 -71q-145 0 -239 71t-97 191h213q2 -38 35.5 -63t87.5 -25q56 0 89.5 25t35.5 63h213zM1024 1434v-283h-520q-41 0 -58 10l-4 -4q11 -18 11 -61v-144q0 -45 -11 -63l4 -4q17 10 58 10h465v-279h-465q-40 0 -58 11l-4 -4q11 -18 11 -62
v-223q0 -44 -11 -62l4 -4q18 11 58 11h528v-283h-897v1434h889z" />
    <glyph glyph-name="ebreve" unicode="&#x115;" horiz-adv-x="1064" 
d="M891 1462q0 -148 -96 -240t-242 -92q-145 0 -240.5 92.5t-95.5 239.5h193q8 -141 143 -141t143 141h195zM553 975q220 0 344.5 -130.5t124.5 -367.5v-82h-561q-44 0 -66.5 4.5t-44.5 20.5l-4 -6l8 -23q42 -168 236 -168q145 0 274 84l103 -235q-174 -103 -375 -103
q-248 0 -394.5 135t-146.5 371q0 230 139.5 365t362.5 135zM541 745q-82 0 -135.5 -46.5t-63.5 -129.5l4 -6q16 19 86 19h207q63 0 78 -17l4 4q-4 86 -52 131t-128 45z" />
    <glyph glyph-name="Edotaccent" unicode="&#x116;" horiz-adv-x="1114" 
d="M752 1794v-272h-295v272h295zM1024 1434v-283h-520q-41 0 -58 10l-4 -4q11 -18 11 -61v-144q0 -45 -11 -63l4 -4q17 10 58 10h465v-279h-465q-40 0 -58 11l-4 -4q11 -18 11 -62v-223q0 -44 -11 -62l4 -4q18 11 58 11h528v-283h-897v1434h889z" />
    <glyph glyph-name="edotaccent" unicode="&#x117;" horiz-adv-x="1064" 
d="M721 1434v-344h-334v344h334zM553 975q220 0 344.5 -130.5t124.5 -367.5v-82h-561q-44 0 -66.5 4.5t-44.5 20.5l-4 -6l8 -23q42 -168 236 -168q145 0 274 84l103 -235q-174 -103 -375 -103q-248 0 -394.5 135t-146.5 371q0 230 139.5 365t362.5 135zM541 745
q-82 0 -135.5 -46.5t-63.5 -129.5l4 -6q16 19 86 19h207q63 0 78 -17l4 4q-4 86 -52 131t-128 45z" />
    <glyph glyph-name="Eogonek" unicode="&#x118;" horiz-adv-x="1114" 
d="M979 0q-150 -140 -150 -193q0 -21 16 -33t40 -12q25 0 78 11l28 -191q-133 -18 -145 -18q-107 0 -167.5 43.5t-60.5 132.5q0 61 42.5 122t127.5 138h-653v1434h889v-283h-520q-41 0 -58 10l-4 -4q11 -18 11 -61v-144q0 -45 -11 -63l4 -4q17 10 58 10h465v-279h-465
q-40 0 -58 11l-4 -4q11 -18 11 -62v-223q0 -44 -11 -62l4 -4q18 11 58 11h528v-283h-53z" />
    <glyph glyph-name="eogonek" unicode="&#x119;" horiz-adv-x="1064" 
d="M461 395q-44 0 -66.5 4.5t-44.5 20.5l-4 -6l8 -23q42 -168 236 -168q145 0 274 84l103 -235q-54 -31 -97 -47l21 -5q-172 -155 -172 -213q0 -21 15.5 -33t39.5 -12q25 0 78 11l29 -191q-133 -18 -146 -18q-107 0 -167 43.5t-60 132.5q0 55 35 110t104 121q-18 -2 -55 -2
q-248 0 -394.5 135t-146.5 371q0 230 139.5 365t362.5 135q220 0 344.5 -130.5t124.5 -367.5v-82h-561zM346 563q16 19 86 19h207q63 0 78 -17l4 4q-4 86 -52 131t-128 45q-82 0 -135.5 -46.5t-63.5 -129.5z" />
    <glyph glyph-name="Ecaron" unicode="&#x11a;" horiz-adv-x="1114" 
d="M991 1767v-6l-237 -239h-299l-240 239v6h268l60 -59q43 -43 57 -86h8q10 40 58 86l57 59h268zM1024 1434v-283h-520q-41 0 -58 10l-4 -4q11 -18 11 -61v-144q0 -45 -11 -63l4 -4q17 10 58 10h465v-279h-465q-40 0 -58 11l-4 -4q11 -18 11 -62v-223q0 -44 -11 -62l4 -4
q18 11 58 11h528v-283h-897v1434h889z" />
    <glyph glyph-name="ecaron" unicode="&#x11b;" horiz-adv-x="1064" 
d="M420 1133l-238 305v10h248l68 -88q36 -47 49.5 -74t17.5 -65h6q4 39 17.5 66t48.5 73l70 88h245v-10l-237 -305h-295zM553 975q220 0 344.5 -130.5t124.5 -367.5v-82h-561q-44 0 -66.5 4.5t-44.5 20.5l-4 -6l8 -23q42 -168 236 -168q145 0 274 84l103 -235
q-174 -103 -375 -103q-248 0 -394.5 135t-146.5 371q0 230 139.5 365t362.5 135zM541 745q-82 0 -135.5 -46.5t-63.5 -129.5l4 -6q16 19 86 19h207q63 0 78 -17l4 4q-4 86 -52 131t-128 45z" />
    <glyph glyph-name="Gcircumflex" unicode="&#x11c;" horiz-adv-x="1566" 
d="M393 1522v6l240 239h299l237 -239v-6h-268l-57 59q-48 46 -58 86h-8q-14 -43 -57 -86l-59 -59h-269zM825 1464q312 0 555 -178l-180 -258q-83 61 -184 95t-201 34q-195 0 -315.5 -120t-120.5 -314q0 -201 117.5 -324t310.5 -123q97 0 172 25.5t120 70t69.5 95.5t31.5 111
l-4 4q-32 -23 -131 -23h-262v266h713v-65q0 -171 -43.5 -314t-128.5 -250t-220.5 -167t-308.5 -60q-340 0 -551 207t-211 543q0 220 96 389.5t271.5 262.5t404.5 93z" />
    <glyph glyph-name="gcircumflex" unicode="&#x11d;" horiz-adv-x="1230" 
d="M760 1448l237 -305v-10h-247l-68 88q-36 45 -50 73t-18 66h-6q-4 -38 -17.5 -66t-47.5 -73l-70 -88h-246v10l238 305h295zM487 977q243 0 349 -246l8 2q-27 100 -27 213h309v-864q0 -141 -39.5 -244t-113.5 -163t-170 -88.5t-219 -28.5q-277 0 -484 120l131 252
q169 -88 330 -88q126 0 195 53t69 162v17q0 42 19 139l-8 2q-61 -117 -146.5 -172t-204.5 -55q-195 0 -314.5 130.5t-119.5 352.5q0 230 121.5 368t314.5 138zM588 694q-95 0 -157 -60t-62 -161t62 -161t157 -60q96 0 159.5 61t63.5 160t-63.5 160t-159.5 61z" />
    <glyph glyph-name="Gbreve" unicode="&#x11e;" horiz-adv-x="1566" 
d="M1118 1767q-3 -120 -97 -191t-241 -71q-145 0 -239 71t-97 191h213q2 -38 35.5 -63t87.5 -25q56 0 89.5 25t35.5 63h213zM825 1464q312 0 555 -178l-180 -258q-83 61 -184 95t-201 34q-195 0 -315.5 -120t-120.5 -314q0 -201 117.5 -324t310.5 -123q97 0 172 25.5t120 70
t69.5 95.5t31.5 111l-4 4q-32 -23 -131 -23h-262v266h713v-65q0 -171 -43.5 -314t-128.5 -250t-220.5 -167t-308.5 -60q-340 0 -551 207t-211 543q0 220 96 389.5t271.5 262.5t404.5 93z" />
    <glyph glyph-name="gbreve" unicode="&#x11f;" horiz-adv-x="1230" 
d="M950 1462q0 -148 -96 -240t-242 -92q-145 0 -240.5 92.5t-95.5 239.5h193q8 -141 143 -141q73 0 107 39.5t37 101.5h194zM487 977q243 0 349 -246l8 2q-27 100 -27 213h309v-864q0 -141 -39.5 -244t-113.5 -163t-170 -88.5t-219 -28.5q-277 0 -484 120l131 252
q169 -88 330 -88q126 0 195 53t69 162v17q0 42 19 139l-8 2q-61 -117 -146.5 -172t-204.5 -55q-195 0 -314.5 130.5t-119.5 352.5q0 230 121.5 368t314.5 138zM588 694q-95 0 -157 -60t-62 -161t62 -161t157 -60q96 0 159.5 61t63.5 160t-63.5 160t-159.5 61z" />
    <glyph glyph-name="Gdotaccent" unicode="&#x120;" horiz-adv-x="1566" 
d="M930 1794v-272h-295v272h295zM825 1464q312 0 555 -178l-180 -258q-83 61 -184 95t-201 34q-195 0 -315.5 -120t-120.5 -314q0 -201 117.5 -324t310.5 -123q97 0 172 25.5t120 70t69.5 95.5t31.5 111l-4 4q-32 -23 -131 -23h-262v266h713v-65q0 -171 -43.5 -314
t-128.5 -250t-220.5 -167t-308.5 -60q-340 0 -551 207t-211 543q0 220 96 389.5t271.5 262.5t404.5 93z" />
    <glyph glyph-name="gdotaccent" unicode="&#x121;" horiz-adv-x="1230" 
d="M780 1434v-344h-334v344h334zM487 977q243 0 349 -246l8 2q-27 100 -27 213h309v-864q0 -141 -39.5 -244t-113.5 -163t-170 -88.5t-219 -28.5q-277 0 -484 120l131 252q169 -88 330 -88q126 0 195 53t69 162v17q0 42 19 139l-8 2q-61 -117 -146.5 -172t-204.5 -55
q-195 0 -314.5 130.5t-119.5 352.5q0 230 121.5 368t314.5 138zM588 694q-95 0 -157 -60t-62 -161t62 -161t157 -60q96 0 159.5 61t63.5 160t-63.5 160t-159.5 61z" />
    <glyph glyph-name="Gcommaaccent" unicode="&#x122;" horiz-adv-x="1566" 
d="M825 1464q312 0 555 -178l-180 -258q-83 61 -184 95t-201 34q-195 0 -315.5 -120t-120.5 -314q0 -201 117.5 -324t310.5 -123q97 0 172 25.5t120 70t69.5 95.5t31.5 111l-4 4q-32 -23 -131 -23h-262v266h713v-65q0 -171 -43.5 -314t-128.5 -250t-220.5 -167t-308.5 -60
q-340 0 -551 207t-211 543q0 220 96 389.5t271.5 262.5t404.5 93zM922 -104l-205 -336h-150l56 336h299z" />
    <glyph glyph-name="gcommaaccent" unicode="&#x123;" horiz-adv-x="1230" 
d="M762 1133h-332l248 374h158zM487 977q243 0 349 -246l8 2q-27 100 -27 213h309v-864q0 -141 -39.5 -244t-113.5 -163t-170 -88.5t-219 -28.5q-277 0 -484 120l131 252q169 -88 330 -88q126 0 195 53t69 162v17q0 42 19 139l-8 2q-61 -117 -146.5 -172t-204.5 -55
q-195 0 -314.5 130.5t-119.5 352.5q0 230 121.5 368t314.5 138zM588 694q-95 0 -157 -60t-62 -161t62 -161t157 -60q96 0 159.5 61t63.5 160t-63.5 160t-159.5 61z" />
    <glyph glyph-name="Hcircumflex" unicode="&#x124;" horiz-adv-x="1509" 
d="M367 1522v6l239 239h299l238 -239v-6h-269l-57 59q-47 45 -57 86h-8q-13 -41 -58 -86l-59 -59h-268zM1374 1434v-1434h-317v557q0 44 10 61l-4 5q-22 -11 -57 -11h-502q-40 0 -58 11l-4 -5q11 -18 11 -61v-557h-318v1434h318v-476q0 -45 -11 -63l4 -4q17 10 58 10h502
q37 0 57 -10l4 4q-10 17 -10 63v476h317z" />
    <glyph glyph-name="hcircumflex" unicode="&#x125;" horiz-adv-x="1173" 
d="M-129 1522v6l240 239h299l237 -239v-6h-268l-57 59q-48 46 -58 86h-8q-14 -43 -57 -86l-60 -59h-268zM414 1464v-436q0 -169 -23 -293l8 -4q50 119 128.5 182.5t207.5 63.5q161 0 251.5 -98t90.5 -287v-592h-307v506q0 108 -41.5 154.5t-120.5 46.5q-88 0 -141 -61
t-53 -189v-457h-310v1464h310z" />
    <glyph glyph-name="Hbar" unicode="&#x126;" horiz-adv-x="1476" 
d="M125 0v1001q0 38 4 50l-4 4q-12 -6 -41 -6h-102v239h102q29 0 41 -6l4 4q-4 10 -4 51v97h317v-97q0 -41 -4 -51l4 -4q12 6 41 6h512q27 0 39 -6l4 4q-4 10 -4 51v97h318v-97q0 -41 -4 -51l4 -4q12 6 41 6h102v-239h-102q-29 0 -41 6l-4 -4q4 -12 4 -50v-1001h-318v547
q0 46 10 63l-4 4q-17 -10 -55 -10h-493q-39 0 -56 10l-4 -4q10 -17 10 -63v-547h-317zM436 891q17 10 56 10h493q38 0 55 -10l4 4q-10 13 -10 51v55q0 26 4 50l-4 4q-12 -6 -39 -6h-512q-29 0 -41 6l-4 -4q4 -24 4 -50v-55q0 -38 -10 -51z" />
    <glyph glyph-name="hbar" unicode="&#x127;" horiz-adv-x="1165" 
d="M727 977q161 0 251.5 -98t90.5 -287v-592h-307v506q0 108 -41.5 154.5t-120.5 46.5q-87 0 -140.5 -60t-53.5 -190v-457h-310v1083q0 34 10 54l-2 2q-18 -9 -57 -9h-65v179h65q39 0 57 -9l2 3q-10 20 -10 53v108h310v-108q0 -31 -11 -53l2 -3q18 9 58 9h256v-179h-256
q-40 0 -58 9l-2 -2q11 -22 11 -54v-55q0 -169 -23 -293l8 -4q48 118 127 182t209 64z" />
    <glyph glyph-name="Itilde" unicode="&#x128;" horiz-adv-x="587" 
d="M14 1507l-96 39q33 112 88 174t150 62q63 0 195 -35t167 -35q64 0 111 76l96 -39q-35 -114 -89 -176t-149 -62q-64 0 -195.5 36t-166.5 36q-64 0 -111 -76zM453 1434v-1434h-318v1434h318z" />
    <glyph glyph-name="itilde" unicode="&#x129;" horiz-adv-x="518" 
d="M172 1446q48 0 95.5 -23t84.5 -46t62 -23q56 0 96 94l117 -39q-68 -272 -230 -272q-37 0 -74 14.5t-61.5 32.5t-52 32.5t-49.5 14.5q-58 0 -99 -96l-116 41q67 270 227 270zM414 946v-946h-310v946h310z" />
    <glyph glyph-name="Imacron" unicode="&#x12a;" horiz-adv-x="587" 
d="M-39 1726h664v-192h-664v192zM453 1434v-1434h-318v1434h318z" />
    <glyph glyph-name="imacron" unicode="&#x12b;" horiz-adv-x="518" 
d="M494 1384v-198h-467v198h467zM414 946v-946h-310v946h310z" />
    <glyph glyph-name="Ibreve" unicode="&#x12c;" horiz-adv-x="587" 
d="M631 1767q-3 -120 -97 -191t-241 -71q-145 0 -239 71t-97 191h213q2 -38 35.5 -63t87.5 -25q56 0 89.5 25t35.5 63h213zM453 1434v-1434h-318v1434h318z" />
    <glyph glyph-name="ibreve" unicode="&#x12d;" horiz-adv-x="518" 
d="M547 1462q0 -163 -80.5 -247.5t-206.5 -84.5q-125 0 -206 85t-81 247h193q1 -74 24.5 -107.5t69.5 -33.5q47 0 69 33t23 108h195zM414 946v-946h-310v946h310z" />
    <glyph glyph-name="Iogonek" unicode="&#x12e;" horiz-adv-x="587" 
d="M303 0q-149 -139 -149 -193q0 -21 15.5 -33t39.5 -12q25 0 78 11l28 -191q-133 -18 -145 -18q-107 0 -167 43.5t-60 132.5q0 65 47.5 129.5t144.5 148.5v1416h318v-1434h-150z" />
    <glyph glyph-name="iogonek" unicode="&#x12f;" horiz-adv-x="518" 
d="M92 1434h334v-344h-334v344zM104 0v946h310v-946h-115q-149 -139 -149 -193q0 -21 15.5 -33t39.5 -12q25 0 78 11l28 -191q-133 -18 -145 -18q-107 0 -167 43.5t-60 132.5q0 61 42.5 122t127.5 138h-5z" />
    <glyph glyph-name="Idotaccent" unicode="&#x130;" horiz-adv-x="587" 
d="M442 1794v-272h-295v272h295zM453 1434v-1434h-318v1434h318z" />
    <glyph glyph-name="dotlessi" unicode="&#x131;" horiz-adv-x="518" 
d="M414 946v-946h-310v946h310z" />
    <glyph glyph-name="IJ" unicode="&#x132;" horiz-adv-x="1288" 
d="M453 1434v-1434h-318v1434h318zM1153 1434v-1037q0 -209 -92.5 -308t-284.5 -99q-42 0 -155 10v291q53 -6 110 -6q54 0 79.5 34t25.5 107v1008h317z" />
    <glyph glyph-name="ij" unicode="&#x133;" horiz-adv-x="1036" 
d="M426 1434v-344h-334v344h334zM944 1434v-344h-334v344h334zM414 946v-946h-310v946h310zM932 946v-975q0 -411 -432 -411h-29v284h18q134 0 134 146v956h309z" />
    <glyph glyph-name="Jcircumflex" unicode="&#x134;" horiz-adv-x="700" 
d="M18 1522v6l240 239h299l238 -239v-6h-269l-57 59q-47 45 -57 86h-9q-14 -43 -57 -86l-59 -59h-269zM565 1434v-1037q0 -209 -92.5 -308t-284.5 -99q-42 0 -155 10v291q52 -6 110 -6q54 0 79.5 34t25.5 107v1008h317z" />
    <glyph glyph-name="jcircumflex" unicode="&#x135;" horiz-adv-x="518" 
d="M406 1448l137 -305v-10h-207l-35 88q-32 74 -39 139h-6q-5 -44 -11 -67.5t-26 -71.5l-37 -88h-207v10l138 305h293zM414 946v-975q0 -411 -432 -411h-29v284h18q133 0 133 146v956h310z" />
    <glyph glyph-name="Kcommaaccent" unicode="&#x136;" horiz-adv-x="1456" 
d="M1358 1434l-467 -543q-80 -92 -133 -125v-8q32 -18 56.5 -41t68.5 -74l571 -643h-430l-588 702l-6 -2q23 -78 23 -184v-516h-318v1434h318v-441q0 -115 -23 -190l6 -4l504 635h418zM852 -104l-205 -336h-149l55 336h299z" />
    <glyph glyph-name="kcommaaccent" unicode="&#x137;" horiz-adv-x="1134" 
d="M414 1464v-702q0 -151 -35 -232l6 -2l354 418h371l-326 -352q-67 -70 -102 -78v-8q32 -8 84 -68l369 -440h-392l-358 467l-6 -4q35 -72 35 -213v-250h-310v1464h310zM739 -104l-204 -336h-150l55 336h299z" />
    <glyph glyph-name="kgreenlandic" unicode="&#x138;" horiz-adv-x="1132" 
d="M104 0v946h310v-184q0 -151 -35 -232l6 -2l350 418h373l-324 -352q-67 -70 -102 -78v-8q32 -8 84 -68l367 -440h-392l-356 467l-6 -4q35 -72 35 -213v-250h-310z" />
    <glyph glyph-name="Lacute" unicode="&#x139;" horiz-adv-x="1038" 
d="M737 1747l2 -8l-342 -217h-213l-2 8l230 217h325zM453 1434v-1090q0 -43 -11 -61l4 -4q17 10 58 10h524v-289h-893v1434h318z" />
    <glyph glyph-name="lacute" unicode="&#x13a;" horiz-adv-x="518" 
d="M705 1751l2 -8l-342 -217h-213l-2 8l229 217h326zM414 1464v-1464h-310v1464h310z" />
    <glyph glyph-name="Lcommaaccent" unicode="&#x13b;" horiz-adv-x="1038" 
d="M453 1434v-1090q0 -43 -11 -61l4 -4q17 10 58 10h524v-289h-893v1434h318zM745 -104l-204 -336h-150l55 336h299z" />
    <glyph glyph-name="lcommaaccent" unicode="&#x13c;" horiz-adv-x="518" 
d="M414 1464v-1464h-310v1464h310zM408 -104l-205 -336h-150l56 336h299z" />
    <glyph glyph-name="Lcaron" unicode="&#x13d;" horiz-adv-x="1038" 
d="M692 1495h318l-215 -580h-197zM453 1434v-1090q0 -43 -11 -61l4 -4q17 10 58 10h524v-289h-893v1434h318z" />
    <glyph glyph-name="lcaron" unicode="&#x13e;" horiz-adv-x="878" 
d="M592 1495h315l-215 -442h-194zM414 1464v-1464h-310v1464h310z" />
    <glyph glyph-name="Ldot" unicode="&#x13f;" horiz-adv-x="1038" 
d="M453 1434v-1090q0 -43 -11 -61l4 -4q17 10 58 10h524v-289h-893v1434h318zM627 612v363h342v-363h-342z" />
    <glyph glyph-name="ldot" unicode="&#x140;" horiz-adv-x="839" 
d="M414 1464v-1464h-310v1464h310zM498 584v362h342v-362h-342z" />
    <glyph glyph-name="Lslash" unicode="&#x141;" horiz-adv-x="1040" 
d="M137 0v483q0 69 19 117l-4 4q-30 -41 -84 -67l-88 -45v186l157 80v676h318v-437q0 -60 -23 -102l6 -2q47 47 88 68l269 139v-187l-340 -176v-393q0 -43 -11 -61l5 -4q17 10 57 10h524v-289h-893z" />
    <glyph glyph-name="lslash" unicode="&#x142;" horiz-adv-x="641" 
d="M164 0v520q0 54 24 101l-6 2q-29 -37 -67 -56l-95 -49v215l144 76v655h309v-405q0 -73 -27 -119l5 -4q37 44 81 65l89 43v-215l-148 -75v-754h-309z" />
    <glyph glyph-name="Nacute" unicode="&#x143;" horiz-adv-x="1478" 
d="M1188 1747l2 -8l-342 -217h-213l-2 8l229 217h326zM203 1454l747 -747q60 -59 94 -127l9 2q-23 77 -23 249v603h313v-1454h-69l-748 747q-36 36 -54 61.5t-40 67.5l-8 -2q25 -73 25 -252v-602h-314v1454h68z" />
    <glyph glyph-name="nacute" unicode="&#x144;" horiz-adv-x="1173" 
d="M1016 1448l2 -8l-305 -307h-213l-2 8l229 307h289zM745 977q160 0 246 -97.5t86 -287.5v-592h-307v506q0 100 -42 150.5t-118 50.5q-196 0 -196 -250v-457h-310v946h306q0 -123 -19 -213l8 -4q102 248 346 248z" />
    <glyph glyph-name="Ncommaaccent" unicode="&#x145;" horiz-adv-x="1478" 
d="M203 1454l747 -747q60 -59 94 -127l9 2q-23 77 -23 249v603h313v-1454h-69l-748 747q-36 36 -54 61.5t-40 67.5l-8 -2q25 -73 25 -252v-602h-314v1454h68zM975 -104l-205 -336h-149l55 336h299z" />
    <glyph glyph-name="ncommaaccent" unicode="&#x146;" horiz-adv-x="1173" 
d="M745 977q160 0 246 -97.5t86 -287.5v-592h-307v506q0 100 -42 150.5t-118 50.5q-196 0 -196 -250v-457h-310v946h306q0 -123 -19 -213l8 -4q102 248 346 248zM741 -104l-204 -336h-150l55 336h299z" />
    <glyph glyph-name="Ncaron" unicode="&#x147;" horiz-adv-x="1478" 
d="M1130 1767v-6l-237 -239h-299l-240 239v6h269l59 -59q43 -43 57 -86h9q10 41 57 86l57 59h268zM203 1454l747 -747q60 -59 94 -127l9 2q-23 77 -23 249v603h313v-1454h-69l-748 747q-36 36 -54 61.5t-40 67.5l-8 -2q25 -73 25 -252v-602h-314v1454h68z" />
    <glyph glyph-name="ncaron" unicode="&#x148;" horiz-adv-x="1173" 
d="M483 1133l-237 305v10h248l67 -88q36 -47 50 -74t18 -65h6q4 39 17 66.5t48 72.5l70 88h246v-10l-238 -305h-295zM745 977q160 0 246 -97.5t86 -287.5v-592h-307v506q0 100 -42 150.5t-118 50.5q-196 0 -196 -250v-457h-310v946h306q0 -123 -19 -213l8 -4
q102 248 346 248z" />
    <glyph glyph-name="napostrophe" unicode="&#x149;" horiz-adv-x="1173" 
d="M-86 1495h317l-215 -580h-196zM745 977q160 0 246 -97.5t86 -287.5v-592h-307v506q0 100 -42 150.5t-118 50.5q-196 0 -196 -250v-457h-310v946h306q0 -123 -19 -213l8 -4q102 248 346 248z" />
    <glyph glyph-name="Eng" unicode="&#x14a;" horiz-adv-x="1478" 
d="M1343 -25q0 -189 -115 -287t-321 -98h-104v299h96q127 0 127 129v209l-500 500q-36 36 -54 61.5t-40 67.5l-8 -2q25 -73 25 -252v-602h-314v1454h68l747 -747q60 -59 94 -127l9 2q-23 77 -23 249v603h313v-1459z" />
    <glyph glyph-name="eng" unicode="&#x14b;" horiz-adv-x="1173" 
d="M1077 592v-592v-16q0 -394 -428 -394h-94v285h84q129 0 129 141v23h2v467q0 100 -42 150.5t-118 50.5q-196 0 -196 -250v-457h-310v946h306q0 -123 -19 -213l8 -4q102 248 346 248q160 0 246 -97.5t86 -287.5z" />
    <glyph glyph-name="Omacron" unicode="&#x14c;" horiz-adv-x="1615" 
d="M475 1726h664v-192h-664v192zM809 1464q162 0 302 -56t239.5 -154.5t156 -237.5t56.5 -299q0 -214 -96.5 -385t-269 -267t-388.5 -96q-217 0 -390 96t-269.5 267t-96.5 385q0 161 56.5 299.5t156 237t240 154.5t303.5 56zM809 1157q-192 0 -311 -122.5t-119 -317.5
t119 -318t311 -123q190 0 309 123t119 318t-119 317.5t-309 122.5z" />
    <glyph glyph-name="omacron" unicode="&#x14d;" horiz-adv-x="1167" 
d="M899 1384v-198h-631v198h631zM584 977q231 0 380.5 -139.5t149.5 -364.5t-149.5 -364.5t-380.5 -139.5q-233 0 -383 139.5t-150 364.5t150 364.5t383 139.5zM584 694q-96 0 -159 -61t-63 -160t63 -160t159 -61t158.5 60.5t62.5 160.5t-62.5 160.5t-158.5 60.5z" />
    <glyph glyph-name="Obreve" unicode="&#x14e;" horiz-adv-x="1615" 
d="M1145 1767q-3 -120 -97 -191t-241 -71q-145 0 -239 71t-97 191h213q2 -38 35.5 -63t87.5 -25q56 0 89.5 25t35.5 63h213zM809 1464q162 0 302 -56t239.5 -154.5t156 -237.5t56.5 -299q0 -214 -96.5 -385t-269 -267t-388.5 -96q-217 0 -390 96t-269.5 267t-96.5 385
q0 161 56.5 299.5t156 237t240 154.5t303.5 56zM809 1157q-192 0 -311 -122.5t-119 -317.5t119 -318t311 -123q190 0 309 123t119 318t-119 317.5t-309 122.5z" />
    <glyph glyph-name="obreve" unicode="&#x14f;" horiz-adv-x="1167" 
d="M920 1462q0 -148 -96 -240t-242 -92q-145 0 -240.5 92.5t-95.5 239.5h192q3 -62 37 -101.5t107 -39.5q135 0 143 141h195zM584 977q231 0 380.5 -139.5t149.5 -364.5t-149.5 -364.5t-380.5 -139.5q-233 0 -383 139.5t-150 364.5t150 364.5t383 139.5zM584 694
q-96 0 -159 -61t-63 -160t63 -160t159 -61t158.5 60.5t62.5 160.5t-62.5 160.5t-158.5 60.5z" />
    <glyph glyph-name="Ohungarumlaut" unicode="&#x150;" horiz-adv-x="1615" 
d="M993 1747l2 -4l-256 -221h-202l-2 4l235 221h223zM834 1526l235 221h221l2 -4l-254 -221h-202zM809 1464q162 0 302 -56t239.5 -154.5t156 -237.5t56.5 -299q0 -214 -96.5 -385t-269 -267t-388.5 -96q-217 0 -390 96t-269.5 267t-96.5 385q0 161 56.5 299.5t156 237
t240 154.5t303.5 56zM809 1157q-192 0 -311 -122.5t-119 -317.5t119 -318t311 -123q190 0 309 123t119 318t-119 317.5t-309 122.5z" />
    <glyph glyph-name="ohungarumlaut" unicode="&#x151;" horiz-adv-x="1167" 
d="M279 1133l-3 4l240 311h236l2 -4l-262 -311h-213zM639 1133l-2 4l240 311h235l2 -4l-262 -311h-213zM584 977q231 0 380.5 -139.5t149.5 -364.5t-149.5 -364.5t-380.5 -139.5q-233 0 -383 139.5t-150 364.5t150 364.5t383 139.5zM584 694q-96 0 -159 -61t-63 -160
t63 -160t159 -61t158.5 60.5t62.5 160.5t-62.5 160.5t-158.5 60.5z" />
    <glyph glyph-name="OE" unicode="&#x152;" horiz-adv-x="2191" 
d="M799 -31q-210 0 -380.5 94.5t-268 266t-97.5 387.5q0 162 57 302t156.5 237t237.5 152.5t295 55.5q138 0 253.5 -47.5t161.5 -107.5l5 2q-9 44 -9 90v33h889v-283h-520q-40 0 -57 10l-4 -4q10 -17 10 -63v-142q0 -46 -10 -63l4 -4q17 10 57 10h465v-279h-465
q-39 0 -57 11l-4 -4q10 -17 10 -64v-219q0 -47 -10 -64l4 -4q18 11 57 11h528v-283h-897v41q0 34 9 80l-7 2q-44 -52 -158.5 -103t-254.5 -51zM801 279q191 0 309.5 116t118.5 322t-118.5 322t-309.5 116q-185 0 -300.5 -116t-115.5 -322t115.5 -322t300.5 -116z" />
    <glyph glyph-name="oe" unicode="&#x153;" horiz-adv-x="1830" 
d="M580 -31q-109 0 -206 36.5t-168.5 101t-113 159.5t-41.5 207q0 149 71 265t191.5 177.5t268.5 61.5q122 0 217.5 -44t154.5 -126h9q134 168 376 168q204 0 326.5 -132t122.5 -366v-82h-563q-75 0 -113 21l-4 -6l8 -19q41 -155 236 -155q146 0 274 75l107 -239
q-186 -103 -387 -103q-126 0 -226 44.5t-159 129.5h-9q-57 -86 -153.5 -130t-218.5 -44zM1112 563q16 19 86 19h207q63 0 78 -17l4 4q-4 88 -51.5 133.5t-130.5 45.5q-79 0 -133.5 -49t-63.5 -130zM590 256q95 0 158 59t63 158t-63 158t-158 59t-158 -59t-63 -158t63 -158
t158 -59z" />
    <glyph glyph-name="Racute" unicode="&#x154;" horiz-adv-x="1341" 
d="M1022 1747l2 -8l-342 -217h-213l-2 8l229 217h326zM680 1434q229 0 356 -108t127 -302q0 -168 -100 -283.5t-240 -115.5q-31 0 -43 2v-4q85 -23 160 -119l401 -504h-387l-442 592q-23 0 -41 6q-21 6 -33 12l-4 -4q19 -46 19 -108v-498h-318v1434h545zM446 1171l-4 -4
q11 -18 11 -61v-207q0 -45 -11 -63l4 -5q16 11 58 11h174q78 0 122 43t44 119q0 72 -44 114.5t-122 42.5h-174q-43 0 -58 10z" />
    <glyph glyph-name="racute" unicode="&#x155;" horiz-adv-x="763" 
d="M819 1448l2 -8l-305 -307h-213l-2 8l229 307h289zM678 975q34 0 74 -4v-303q-47 4 -93 4q-121 0 -183 -67t-62 -220v-385h-310v946h293q0 -161 -28 -311l8 -2q70 342 301 342z" />
    <glyph glyph-name="Rcommaaccent" unicode="&#x156;" horiz-adv-x="1341" 
d="M680 1434q229 0 356 -108t127 -302q0 -168 -100 -283.5t-240 -115.5q-31 0 -43 2v-4q85 -23 160 -119l401 -504h-387l-442 592q-23 0 -41 6q-21 6 -33 12l-4 -4q19 -46 19 -108v-498h-318v1434h545zM446 1171l-4 -4q11 -18 11 -61v-207q0 -45 -11 -63l4 -5q16 11 58 11
h174q78 0 122 43t44 119q0 72 -44 114.5t-122 42.5h-174q-43 0 -58 10zM842 -104l-205 -336h-150l56 336h299z" />
    <glyph glyph-name="rcommaaccent" unicode="&#x157;" horiz-adv-x="763" 
d="M678 975q34 0 74 -4v-303q-47 4 -93 4q-121 0 -183 -67t-62 -220v-385h-310v946h293q0 -161 -28 -311l8 -2q70 342 301 342zM408 -104l-205 -336h-150l56 336h299z" />
    <glyph glyph-name="Rcaron" unicode="&#x158;" horiz-adv-x="1341" 
d="M965 1767v-6l-238 -239h-299l-240 239v6h269l59 -59q43 -43 57 -86h9q10 41 57 86l57 59h269zM680 1434q229 0 356 -108t127 -302q0 -168 -100 -283.5t-240 -115.5q-31 0 -43 2v-4q85 -23 160 -119l401 -504h-387l-442 592q-23 0 -41 6q-21 6 -33 12l-4 -4
q19 -46 19 -108v-498h-318v1434h545zM446 1171l-4 -4q11 -18 11 -61v-207q0 -45 -11 -63l4 -5q16 11 58 11h174q78 0 122 43t44 119q0 72 -44 114.5t-122 42.5h-174q-43 0 -58 10z" />
    <glyph glyph-name="rcaron" unicode="&#x159;" horiz-adv-x="763" 
d="M285 1133l-238 305v10h248l67 -88q36 -47 50 -74t18 -65h6q4 39 17.5 66t48.5 73l69 88h246v-10l-237 -305h-295zM678 975q34 0 74 -4v-303q-47 4 -93 4q-121 0 -183 -67t-62 -220v-385h-310v946h293q0 -161 -28 -311l8 -2q70 342 301 342z" />
    <glyph glyph-name="Sacute" unicode="&#x15a;" horiz-adv-x="1118" 
d="M1024 1747l2 -8l-342 -217h-213l-2 8l229 217h326zM586 1464q234 0 452 -110l-139 -277q-169 94 -311 94q-137 0 -137 -81q0 -34 22 -60t86 -65l240 -154q143 -91 205.5 -187.5t62.5 -228.5q0 -205 -135.5 -315.5t-384.5 -110.5q-280 0 -527 144l144 284
q203 -133 395 -133q87 0 134.5 31t47.5 86q0 40 -30.5 75.5t-106.5 82.5l-221 141q-258 164 -258 405q0 177 122.5 278t338.5 101z" />
    <glyph glyph-name="sacute" unicode="&#x15b;" horiz-adv-x="876" 
d="M856 1448l2 -8l-305 -307h-213l-2 8l229 307h289zM432 -31q-232 0 -420 99l115 243q159 -100 326 -100q49 0 70.5 10t21.5 35q0 5 -1 10t-3.5 9t-4 7t-6.5 6t-7.5 5t-9.5 5t-9.5 4t-11 4.5t-11.5 4.5l-170 70q-223 88 -223 293q0 140 101.5 221.5t293.5 81.5
q162 0 342 -62l-88 -239q-145 65 -270 65q-82 0 -82 -41q0 -16 11.5 -28t24.5 -18t44 -19l158 -62q111 -45 166 -109t55 -175q0 -157 -110.5 -238.5t-301.5 -81.5z" />
    <glyph glyph-name="Scircumflex" unicode="&#x15c;" horiz-adv-x="1118" 
d="M193 1522v6l239 239h299l238 -239v-6h-269l-57 59q-47 45 -57 86h-8q-13 -41 -58 -86l-59 -59h-268zM586 1464q234 0 452 -110l-139 -277q-169 94 -311 94q-137 0 -137 -81q0 -34 22 -60t86 -65l240 -154q143 -91 205.5 -187.5t62.5 -228.5q0 -205 -135.5 -315.5
t-384.5 -110.5q-280 0 -527 144l144 284q203 -133 395 -133q87 0 134.5 31t47.5 86q0 40 -30.5 75.5t-106.5 82.5l-221 141q-258 164 -258 405q0 177 122.5 278t338.5 101z" />
    <glyph glyph-name="scircumflex" unicode="&#x15d;" horiz-adv-x="876" 
d="M602 1448l238 -305v-10h-248l-68 88q-35 44 -49 72.5t-18 66.5h-6q-4 -38 -18 -66t-48 -73l-70 -88h-245v10l237 305h295zM432 -31q-232 0 -420 99l115 243q159 -100 326 -100q49 0 70.5 10t21.5 35q0 5 -1 10t-3.5 9t-4 7t-6.5 6t-7.5 5t-9.5 5t-9.5 4t-11 4.5
t-11.5 4.5l-170 70q-223 88 -223 293q0 140 101.5 221.5t293.5 81.5q162 0 342 -62l-88 -239q-145 65 -270 65q-82 0 -82 -41q0 -16 11.5 -28t24.5 -18t44 -19l158 -62q111 -45 166 -109t55 -175q0 -157 -110.5 -238.5t-301.5 -81.5z" />
    <glyph glyph-name="Scedilla" unicode="&#x15e;" horiz-adv-x="1118" 
d="M1067 395q0 -196 -124.5 -305.5t-352.5 -120.5l-17 -41q189 -28 189 -145q0 -22 -6 -41.5t-20.5 -37t-29 -32t-41 -30t-45.5 -26t-54 -25.5t-56 -23t-61 -23.5t-60 -23.5l-43 96q96 49 132 74.5t36 48.5q0 45 -100 63l61 168q-249 18 -455 142l144 284q203 -133 395 -133
q87 0 134.5 31t47.5 86q0 40 -30.5 75.5t-106.5 82.5l-221 141q-258 164 -258 405q0 177 122.5 278t338.5 101q234 0 452 -110l-139 -277q-169 94 -311 94q-137 0 -137 -81q0 -34 22 -60t86 -65l240 -154q143 -91 205.5 -187.5t62.5 -228.5z" />
    <glyph glyph-name="scedilla" unicode="&#x15f;" horiz-adv-x="876" 
d="M844 289q0 -146 -95 -226.5t-262 -91.5l-16 -43q188 -28 188 -145q0 -22 -6 -41.5t-20.5 -37t-29 -32t-40.5 -30t-45 -26t-54 -25.5t-56 -23t-61 -23.5t-60 -23.5l-43 96q96 49 132 74.5t36 48.5q0 44 -101 63l62 168q-196 14 -361 97l115 243q159 -100 326 -100
q49 0 70.5 10t21.5 35q0 5 -1 10t-3.5 9t-4 7t-6.5 6t-7.5 5t-9.5 5t-9.5 4t-11 4.5t-11.5 4.5l-170 70q-223 88 -223 293q0 140 101.5 221.5t293.5 81.5q162 0 342 -62l-88 -239q-145 65 -270 65q-82 0 -82 -41q0 -16 11.5 -28t24.5 -18t44 -19l158 -62q111 -45 166 -109
t55 -175z" />
    <glyph glyph-name="Scaron" unicode="&#x160;" horiz-adv-x="1118" 
d="M969 1767v-6l-238 -239h-299l-239 239v6h268l59 -59q45 -45 58 -86h8q10 41 57 86l57 59h269zM586 1464q234 0 452 -110l-139 -277q-169 94 -311 94q-137 0 -137 -81q0 -34 22 -60t86 -65l240 -154q143 -91 205.5 -187.5t62.5 -228.5q0 -205 -135.5 -315.5t-384.5 -110.5
q-280 0 -527 144l144 284q203 -133 395 -133q87 0 134.5 31t47.5 86q0 40 -30.5 75.5t-106.5 82.5l-221 141q-258 164 -258 405q0 177 122.5 278t338.5 101z" />
    <glyph glyph-name="scaron" unicode="&#x161;" horiz-adv-x="876" 
d="M322 1133l-238 305v10h248l67 -88q36 -47 50 -74t18 -65h6q4 39 17.5 66t48.5 73l69 88h246v-10l-238 -305h-294zM432 -31q-232 0 -420 99l115 243q159 -100 326 -100q49 0 70.5 10t21.5 35q0 5 -1 10t-3.5 9t-4 7t-6.5 6t-7.5 5t-9.5 5t-9.5 4t-11 4.5t-11.5 4.5
l-170 70q-223 88 -223 293q0 140 101.5 221.5t293.5 81.5q162 0 342 -62l-88 -239q-145 65 -270 65q-82 0 -82 -41q0 -16 11.5 -28t24.5 -18t44 -19l158 -62q111 -45 166 -109t55 -175q0 -157 -110.5 -238.5t-301.5 -81.5z" />
    <glyph glyph-name="uni0162" unicode="&#x162;" horiz-adv-x="1110" 
d="M764 1145q-36 0 -53 10l-4 -4q6 -15 6 -61v-1090h-97l-28 -72q188 -28 188 -145q0 -22 -6 -41.5t-20.5 -37t-29 -32t-41 -30t-45.5 -26t-54 -25.5t-56 -23t-61 -23.5t-60 -23.5l-43 96q96 49 132 74.5t36 48.5q0 45 -100 63l72 197h-105v1090q0 41 8 61l-4 4
q-17 -10 -53 -10h-336v289h1088v-289h-334z" />
    <glyph glyph-name="uni0163" unicode="&#x163;" horiz-adv-x="710" 
d="M582 946h104v-260h-104q-70 0 -93 14l-4 -4q15 -27 15 -116v-580h-92l-29 -72q188 -28 188 -145q0 -22 -6 -41.5t-20.5 -37t-29 -32t-40.5 -30t-45 -26t-54 -25.5t-56 -23t-61 -23.5t-60 -23.5l-43 96q96 49 131.5 74t35.5 49q0 45 -100 63l72 197h-101v580q0 89 15 116
l-4 4q-23 -14 -92 -14h-86v260h86q67 0 92 -14l4 4q-15 27 -15 82v246l279 188h31v-434q0 -55 -15 -82l4 -4q25 14 93 14z" />
    <glyph glyph-name="Tcaron" unicode="&#x164;" horiz-adv-x="1110" 
d="M942 1767v-6l-237 -239h-299l-240 239v6h268l60 -59q43 -43 57 -86h8q10 41 57 86l58 59h268zM1098 1434v-289h-334q-36 0 -53 10l-4 -4q6 -15 6 -61v-1090h-318v1090q0 41 8 61l-4 4q-17 -10 -53 -10h-336v289h1088z" />
    <glyph glyph-name="tcaron" unicode="&#x165;" horiz-adv-x="1017" 
d="M709 1495h317l-217 -442h-195zM500 1452v-434q0 -55 -15 -82l4 -4q25 14 93 14h104v-260h-104q-70 0 -93 14l-4 -4q15 -27 15 -116v-580h-310v580q0 89 15 116l-4 4q-23 -14 -92 -14h-86v260h86q67 0 92 -14l4 4q-15 27 -15 82v246l279 188h31z" />
    <glyph glyph-name="Tbar" unicode="&#x166;" horiz-adv-x="1114" 
d="M766 1137q-37 0 -57 10l-4 -4q10 -17 10 -64v-84q0 -41 -4 -51l4 -4q12 6 41 6h196v-239h-196q-29 0 -41 6l-4 -4q4 -24 4 -50v-659h-318v659q0 38 4 50l-4 4q-12 -6 -39 -6h-198v239h198q27 0 39 -6l4 4q-4 10 -4 51v84q0 46 11 64l-5 4q-17 -10 -55 -10h-338v297h1092
v-297h-336z" />
    <glyph glyph-name="tbar" unicode="&#x167;" horiz-adv-x="710" 
d="M190 0v307q0 70 11 90l-4 4q-18 -10 -84 -10h-84v178h84q64 0 84 -10l4 4q-11 22 -11 55v23q0 33 19 59l-4 5q-19 -13 -38 -16t-58 -3h-86v260h86q67 0 96 -18l4 4q-19 31 -19 90v242l279 188h31v-430q0 -56 -19 -90l6 -4q27 18 95 18h104v-260h-104q-40 0 -59 3t-36 16
l-6 -5q19 -26 19 -59v-25q0 -31 -11 -53l5 -4q20 10 84 10h96v-178h-96q-66 0 -84 10l-5 -4q11 -20 11 -90v-307h-310z" />
    <glyph glyph-name="Utilde" unicode="&#x168;" horiz-adv-x="1456" 
d="M449 1507l-97 39q33 112 88 174t150 62q63 0 195 -35t167 -35q64 0 111 76l96 -39q-35 -115 -88.5 -176.5t-148.5 -61.5q-64 0 -196 36t-167 36q-63 0 -110 -76zM1333 1434v-861q0 -286 -158.5 -443t-445.5 -157q-288 0 -447 157.5t-159 442.5v861h323v-844
q0 -142 76 -224.5t207 -82.5q130 0 206.5 82.5t76.5 224.5v844h321z" />
    <glyph glyph-name="utilde" unicode="&#x169;" horiz-adv-x="1159" 
d="M438 1446q53 0 122 -23t129.5 -46t90.5 -23q65 0 111 94l117 -39q-32 -129 -87.5 -200.5t-148.5 -71.5q-53 0 -122 23.5t-129.5 47t-90.5 23.5q-65 0 -111 -96l-116 41q32 129 87 199.5t148 70.5zM1055 946v-946h-301q0 108 30 238l-8 2q-49 -135 -129 -203t-205 -68
q-156 0 -252 100t-96 291v586h318v-493q0 -103 41.5 -153t115.5 -50q77 0 126.5 56t49.5 173v467h310z" />
    <glyph glyph-name="Umacron" unicode="&#x16a;" horiz-adv-x="1456" 
d="M395 1726h664v-192h-664v192zM1333 1434v-861q0 -286 -158.5 -443t-445.5 -157q-288 0 -447 157.5t-159 442.5v861h323v-844q0 -142 76 -224.5t207 -82.5q130 0 206.5 82.5t76.5 224.5v844h321z" />
    <glyph glyph-name="umacron" unicode="&#x16b;" horiz-adv-x="1159" 
d="M895 1384v-198h-631v198h631zM1055 946v-946h-301q0 108 30 238l-8 2q-49 -135 -129 -203t-205 -68q-156 0 -252 100t-96 291v586h318v-493q0 -103 41.5 -153t115.5 -50q77 0 126.5 56t49.5 173v467h310z" />
    <glyph glyph-name="Ubreve" unicode="&#x16c;" horiz-adv-x="1456" 
d="M1065 1767q-3 -120 -97 -191t-241 -71q-145 0 -239 71t-97 191h213q2 -38 35.5 -63t87.5 -25q56 0 89.5 25t35.5 63h213zM1333 1434v-861q0 -286 -158.5 -443t-445.5 -157q-288 0 -447 157.5t-159 442.5v861h323v-844q0 -142 76 -224.5t207 -82.5q130 0 206.5 82.5
t76.5 224.5v844h321z" />
    <glyph glyph-name="ubreve" unicode="&#x16d;" horiz-adv-x="1159" 
d="M915 1462q0 -148 -95.5 -240t-241.5 -92q-145 0 -240.5 92.5t-95.5 239.5h192q3 -62 37 -101.5t107 -39.5q135 0 143 141h194zM1055 946v-946h-301q0 108 30 238l-8 2q-49 -135 -129 -203t-205 -68q-156 0 -252 100t-96 291v586h318v-493q0 -103 41.5 -153t115.5 -50
q77 0 126.5 56t49.5 173v467h310z" />
    <glyph glyph-name="Uring" unicode="&#x16e;" horiz-adv-x="1456" 
d="M954 1556q-9 -95 -78 -150t-169 -46q-98 9 -155 76.5t-48 162.5t78.5 150.5t167.5 46.5q99 -9 156 -76.5t48 -163.5zM834 1567q5 42 -21 74t-72 38q-47 4 -79 -21.5t-37 -68.5q-6 -42 19.5 -74t72.5 -38q47 -4 79 21.5t38 68.5zM1333 1434v-861q0 -286 -158.5 -443
t-445.5 -157q-288 0 -447 157.5t-159 442.5v861h323v-844q0 -142 76 -224.5t207 -82.5q130 0 206.5 82.5t76.5 224.5v844h321z" />
    <glyph glyph-name="uring" unicode="&#x16f;" horiz-adv-x="1159" 
d="M582 1530q107 0 176 -68t69 -172t-69 -171.5t-176 -67.5t-176.5 67.5t-69.5 171.5t69.5 172t176.5 68zM582 1403q-51 0 -83 -32.5t-32 -80.5t31.5 -80t83.5 -32q51 0 82.5 32t31.5 80t-31.5 80.5t-82.5 32.5zM1055 946v-946h-301q0 108 30 238l-8 2q-49 -135 -129 -203
t-205 -68q-156 0 -252 100t-96 291v586h318v-493q0 -103 41.5 -153t115.5 -50q77 0 126.5 56t49.5 173v467h310z" />
    <glyph glyph-name="Uhungarumlaut" unicode="&#x170;" horiz-adv-x="1456" 
d="M913 1747l2 -4l-256 -221h-202l-2 4l235 221h223zM754 1526l235 221h221l2 -4l-254 -221h-202zM1333 1434v-861q0 -286 -158.5 -443t-445.5 -157q-288 0 -447 157.5t-159 442.5v861h323v-844q0 -142 76 -224.5t207 -82.5q130 0 206.5 82.5t76.5 224.5v844h321z" />
    <glyph glyph-name="uhungarumlaut" unicode="&#x171;" horiz-adv-x="1159" 
d="M274 1133l-2 4l240 311h236l2 -4l-263 -311h-213zM635 1133l-2 4l239 311h236l2 -4l-262 -311h-213zM1055 946v-946h-301q0 108 30 238l-8 2q-49 -135 -129 -203t-205 -68q-156 0 -252 100t-96 291v586h318v-493q0 -103 41.5 -153t115.5 -50q77 0 126.5 56t49.5 173v467
h310z" />
    <glyph glyph-name="Uogonek" unicode="&#x172;" horiz-adv-x="1456" 
d="M1012 1434h321v-861q0 -215 -92.5 -359.5t-263.5 -203.5q-162 -146 -162 -203q0 -21 15.5 -33t39.5 -12q25 0 78 11l29 -191q-133 -18 -146 -18q-107 0 -167 43.5t-60 132.5q0 55 35 110t106 123h-16q-288 0 -447 157.5t-159 442.5v861h323v-844q0 -142 76 -224.5
t207 -82.5q130 0 206.5 82.5t76.5 224.5v844z" />
    <glyph glyph-name="uogonek" unicode="&#x173;" horiz-adv-x="1159" 
d="M889 0q-150 -140 -150 -193q0 -21 16 -33t40 -12t77 11l29 -191q-133 -18 -145 -18q-107 0 -167.5 43.5t-60.5 132.5q0 69 55.5 139t172.5 170q2 78 28 189l-8 2q-49 -135 -129 -203t-205 -68q-156 0 -252 100t-96 291v586h318v-493q0 -103 41.5 -153t115.5 -50
q77 0 126.5 56t49.5 173v467h310v-946h-166z" />
    <glyph glyph-name="Wcircumflex" unicode="&#x174;" horiz-adv-x="2045" 
d="M635 1522v6l239 239h300l237 -239v-6h-268l-58 59q-47 45 -57 86h-8q-14 -43 -57 -86l-60 -59h-268zM1044 1454l299 -666q26 -59 36.5 -91.5t17.5 -88.5h8q12 98 43 187l225 639h363l-588 -1448h-66l-307 680q-36 81 -47 157h-8q-10 -69 -49 -157l-307 -680h-66
l-588 1448h365l223 -639q34 -98 45 -187h8q7 56 17.5 88.5t36.5 91.5l296 666h43z" />
    <glyph glyph-name="wcircumflex" unicode="&#x175;" horiz-adv-x="1583" 
d="M938 1448l238 -305v-10h-248l-68 88q-35 44 -49 72.5t-18 66.5h-7q-4 -38 -17.5 -66t-47.5 -73l-70 -88h-245v10l237 305h295zM453 -20l-451 966h338l115 -287q32 -78 43.5 -112.5t17.5 -75.5h8q7 43 20.5 76t55.5 115l154 305h75l154 -305q42 -82 55.5 -115t20.5 -76h8
q7 41 18 74.5t43 113.5l117 287h338l-453 -966h-83l-168 331q-5 10 -15.5 31.5t-14 28t-11.5 22.5t-10.5 22t-8 18.5t-7.5 19t-5.5 16.5t-5.5 18.5t-4 18.5h-9q-10 -42 -25 -77.5t-56 -117.5l-170 -331h-84z" />
    <glyph glyph-name="Ycircumflex" unicode="&#x176;" horiz-adv-x="1374" 
d="M299 1522v6l240 239h299l237 -239v-6h-268l-57 59q-48 46 -58 86h-8q-14 -43 -57 -86l-60 -59h-268zM1364 1434l-518 -926v-508h-318v508l-518 926h377l221 -465q7 -14 19 -38.5t16 -33.5t11.5 -25.5t10.5 -24.5t7.5 -21t7.5 -24.5t6 -25.5h4q3 14 5 25t7 25l7.5 21
t10.5 25t11.5 25t16 33.5t18.5 38.5l221 465h377z" />
    <glyph glyph-name="ycircumflex" unicode="&#x177;" horiz-adv-x="1099" 
d="M698 1448l238 -305v-10h-248l-67 88q-36 45 -50 73t-18 66h-6q-4 -38 -18 -66t-48 -73l-69 -88h-246v10l237 305h295zM1098 946l-604 -1356h-310l222 484l-404 872h332l158 -371q26 -63 37.5 -111.5t15.5 -121.5l8 2q6 92 43 180l170 422h332z" />
    <glyph glyph-name="Ydieresis" unicode="&#x178;" horiz-adv-x="1374" 
d="M362 1776h236v-254h-236v254zM774 1776h238v-254h-238v254zM1364 1434l-518 -926v-508h-318v508l-518 926h377l221 -465q7 -14 19 -38.5t16 -33.5t11.5 -25.5t10.5 -24.5t7.5 -21t7.5 -24.5t6 -25.5h4q3 14 5 25t7 25l7.5 21t10.5 25t11.5 25t16 33.5t18.5 38.5l221 465
h377z" />
    <glyph glyph-name="Zacute" unicode="&#x179;" horiz-adv-x="1349" 
d="M1171 1747l3 -8l-343 -217h-213l-2 8l230 217h325zM1321 1434l4 -11l-793 -1161l9 -4q39 23 84.5 31t122.5 8h589l-157 -297h-1164l-6 10l801 1164l-6 4q-63 -39 -209 -39h-494l152 295h1067z" />
    <glyph glyph-name="zacute" unicode="&#x17a;" horiz-adv-x="1024" 
d="M971 1448l2 -8l-305 -307h-213l-2 8l229 307h289zM-4 0l-4 10l557 715l-6 6q-38 -22 -74 -30.5t-104 -8.5h-287l145 254h797l4 -10l-545 -713l8 -6q35 23 73.5 30t119.5 7h334l-156 -254h-862z" />
    <glyph glyph-name="Zdotaccent" unicode="&#x17b;" horiz-adv-x="1349" 
d="M877 1794v-272h-295v272h295zM1321 1434l4 -11l-793 -1161l9 -4q39 23 84.5 31t122.5 8h589l-157 -297h-1164l-6 10l801 1164l-6 4q-63 -39 -209 -39h-494l152 295h1067z" />
    <glyph glyph-name="zdotaccent" unicode="&#x17c;" horiz-adv-x="1024" 
d="M739 1434v-344h-333v344h333zM-4 0l-4 10l557 715l-6 6q-38 -22 -74 -30.5t-104 -8.5h-287l145 254h797l4 -10l-545 -713l8 -6q35 23 73.5 30t119.5 7h334l-156 -254h-862z" />
    <glyph glyph-name="Zcaron" unicode="&#x17d;" horiz-adv-x="1349" 
d="M1116 1767v-6l-237 -239h-299l-240 239v6h268l60 -59q43 -43 57 -86h8q10 40 58 86l57 59h268zM1321 1434l4 -11l-793 -1161l9 -4q39 23 84.5 31t122.5 8h589l-157 -297h-1164l-6 10l801 1164l-6 4q-63 -39 -209 -39h-494l152 295h1067z" />
    <glyph glyph-name="zcaron" unicode="&#x17e;" horiz-adv-x="1024" 
d="M438 1133l-237 305v10h248l67 -88q36 -47 50 -74t18 -65h6q4 39 17 66.5t48 72.5l70 88h246v-10l-238 -305h-295zM-4 0l-4 10l557 715l-6 6q-38 -22 -74 -30.5t-104 -8.5h-287l145 254h797l4 -10l-545 -713l8 -6q35 23 73.5 30t119.5 7h334l-156 -254h-862z" />
    <glyph glyph-name="florin" unicode="&#x192;" horiz-adv-x="792" 
d="M674 1403q40 0 96 -6v-269q-11 1 -27 2t-27 2t-20 1q-161 0 -161 -136v-8q0 -30 -5 -47l2 -2q18 6 58 6h180v-61h-180q-22 0 -58 6l-2 -2q5 -46 5 -103v-753q0 -105 -25.5 -186t-64.5 -128.5t-92.5 -78.5t-102 -41.5t-100.5 -10.5q-54 0 -121 9v268q33 -4 84 -4
q59 0 94 36t35 115v774q0 66 4 103l-2 2q-30 -6 -62 -6h-157v61h157q47 0 62 -6l2 2q-4 14 -4 45v8q0 96 28.5 170.5t73 118t104 71.5t114.5 38t112 10z" />
    <glyph glyph-name="AEacute" unicode="&#x1fc;" horiz-adv-x="1990" 
d="M1530 1522h-213l-2 8l229 217h326l2 -8zM1434 283h473v-283h-815v242q0 46 10 63l-4 4q-17 -10 -56 -10h-458l-191 -299h-383l973 1434h913v-283h-462q-38 0 -58 10l-4 -4q10 -17 10 -63v-142q0 -46 -10 -63l4 -4q20 10 58 10h411v-279h-411q-36 0 -58 11l-4 -4
q10 -17 10 -64v-219q0 -47 -10 -64l4 -4q22 11 58 11zM1102 528q-10 17 -10 64v407q0 86 14 160h-4q-22 -64 -76 -155l-250 -400q-34 -52 -80 -82l2 -4q64 17 125 17h219q38 0 56 -11z" />
    <glyph glyph-name="aeacute" unicode="&#x1fd;" horiz-adv-x="1683" 
d="M1278 1448l2 -8l-305 -307h-213l-2 8l229 307h289zM381 -31q-164 0 -256 95t-92 241q0 150 95.5 235t252.5 85q214 0 319 -176l7 4q-17 64 -17 151q-4 123 -211 123q-75 0 -274 -31l-43 246q188 35 364 35q128 0 197 -34.5t113 -115.5h2q122 148 338 148q212 0 339 -132
t127 -366v-82h-561q-42 0 -65 4.5t-45 18.5l-4 -6l8 -19q18 -81 76.5 -125.5t156.5 -44.5q148 0 277 84l102 -235q-174 -103 -366 -103q-155 0 -265 63.5t-168 174.5h-4q-49 -104 -157.5 -171t-245.5 -67zM965 565q23 17 90 17h205q60 0 77 -17l4 4q-4 86 -52 131t-128 45
q-82 0 -135 -46t-65 -128zM496 201q58 0 95.5 33t37.5 88t-37.5 87.5t-95.5 32.5q-57 0 -94 -33t-37 -87q0 -55 37 -88t94 -33z" />
    <glyph glyph-name="Oslashacute" unicode="&#x1fe;" horiz-adv-x="1597" 
d="M903 1522h-213l-2 8l230 217h325l2 -8zM1274 1319q137 -101 213 -257t76 -345q0 -214 -96.5 -385t-269 -267t-388.5 -96q-234 0 -414 111l-76 -109l-67 43l78 109q-131 101 -204 255t-73 339q0 161 56.5 299.5t156 237t240 154.5t303.5 56q221 0 399 -102l70 100l68 -45z
M379 717q0 -103 35.5 -188.5t99.5 -145.5l512 723q-97 51 -217 51q-192 0 -311 -122.5t-119 -317.5zM809 276q190 0 309 123t119 318q0 216 -145 342l-514 -723q102 -60 231 -60z" />
    <glyph glyph-name="oslashacute" unicode="&#x1ff;" horiz-adv-x="1167" 
d="M672 1133h-213l-2 8l229 307h289l2 -8zM954 846q160 -141 160 -373q0 -225 -149.5 -364.5t-380.5 -139.5q-185 0 -322 92l-80 -90l-59 47l80 91q-152 142 -152 364q0 225 150 364.5t383 139.5q173 0 309 -84l74 84l59 -49zM362 473q0 -82 41 -135l291 330q-48 26 -110 26
q-96 0 -159 -61t-63 -160zM584 252q96 0 158.5 60.5t62.5 160.5q0 86 -49 148l-297 -336q61 -33 125 -33z" />
    <glyph glyph-name="Scommaaccent" unicode="&#x218;" horiz-adv-x="1118" 
d="M586 1464q234 0 452 -110l-139 -277q-169 94 -311 94q-137 0 -137 -81q0 -34 22 -60t86 -65l240 -154q143 -91 205.5 -187.5t62.5 -228.5q0 -205 -135.5 -315.5t-384.5 -110.5q-280 0 -527 144l144 284q203 -133 395 -133q87 0 134.5 31t47.5 86q0 40 -30.5 75.5
t-106.5 82.5l-221 141q-258 164 -258 405q0 177 122.5 278t338.5 101zM690 -104l-205 -336h-149l55 336h299z" />
    <glyph glyph-name="scommaaccent" unicode="&#x219;" horiz-adv-x="876" 
d="M432 -31q-232 0 -420 99l115 243q159 -100 326 -100q49 0 70.5 10t21.5 35q0 5 -1 10t-3.5 9t-4 7t-6.5 6t-7.5 5t-9.5 5t-9.5 4t-11 4.5t-11.5 4.5l-170 70q-223 88 -223 293q0 140 101.5 221.5t293.5 81.5q162 0 342 -62l-88 -239q-145 65 -270 65q-82 0 -82 -41
q0 -16 11.5 -28t24.5 -18t44 -19l158 -62q111 -45 166 -109t55 -175q0 -157 -110.5 -238.5t-301.5 -81.5zM586 -104l-205 -336h-150l56 336h299z" />
    <glyph glyph-name="uni021A" unicode="&#x21a;" horiz-adv-x="1110" 
d="M1098 1434v-289h-334q-36 0 -53 10l-4 -4q6 -15 6 -61v-1090h-318v1090q0 41 8 61l-4 4q-17 -10 -53 -10h-336v289h1088zM705 -104l-205 -336h-150l56 336h299z" />
    <glyph glyph-name="uni021B" unicode="&#x21b;" horiz-adv-x="710" 
d="M500 1452v-434q0 -55 -15 -82l4 -4q25 14 93 14h104v-260h-104q-70 0 -93 14l-4 -4q15 -27 15 -116v-580h-310v580q0 89 15 116l-4 4q-23 -14 -92 -14h-86v260h86q67 0 92 -14l4 4q-15 27 -15 82v246l279 188h31zM494 -104l-205 -336h-150l56 336h299z" />
    <glyph glyph-name="uni0237" unicode="&#x237;" horiz-adv-x="518" 
d="M414 946v-975q0 -411 -432 -411h-29v284h18q133 0 133 146v956h310z" />
    <glyph glyph-name="uni02BC" unicode="&#x2bc;" horiz-adv-x="487" 
d="M147 1495h318l-215 -580h-197z" />
    <glyph glyph-name="circumflex" unicode="&#x2c6;" horiz-adv-x="974" 
d="M635 1448l237 -305v-10h-247l-68 88q-36 45 -50 73t-18 66h-6q-4 -38 -17.5 -66t-47.5 -73l-70 -88h-246v10l238 305h295z" />
    <glyph glyph-name="caron" unicode="&#x2c7;" horiz-adv-x="974" 
d="M340 1133l-238 305v10h248l68 -88q36 -45 49.5 -72.5t17.5 -66.5h7q4 39 17 66.5t48 72.5l70 88h245v-10l-237 -305h-295z" />
    <glyph glyph-name="breve" unicode="&#x2d8;" horiz-adv-x="878" 
d="M776 1462q0 -148 -96 -240t-242 -92q-145 0 -240.5 92.5t-95.5 239.5h193q8 -141 143 -141q73 0 107 39.5t37 101.5h194z" />
    <glyph glyph-name="dotaccent" unicode="&#x2d9;" horiz-adv-x="538" 
d="M436 1434v-344h-334v344h334z" />
    <glyph glyph-name="ring" unicode="&#x2da;" horiz-adv-x="696" 
d="M348 1530q107 0 176.5 -68t69.5 -172t-69.5 -171.5t-176.5 -67.5t-176.5 67.5t-69.5 171.5t69.5 172t176.5 68zM348 1403q-51 0 -83 -32.5t-32 -80.5t31.5 -80t83.5 -32t83.5 32t31.5 80t-32 80.5t-83 32.5z" />
    <glyph glyph-name="ogonek" unicode="&#x2db;" horiz-adv-x="587" 
d="M330 49l155 -29q-172 -155 -172 -213q0 -21 16 -33t40 -12q27 0 80 11l26 -191q-133 -18 -145 -18q-107 0 -167.5 43.5t-60.5 132.5q0 69 55.5 139t172.5 170z" />
    <glyph glyph-name="tilde" unicode="&#x2dc;" horiz-adv-x="1009" 
d="M338 1446q53 0 122 -23t129.5 -46t90.5 -23q65 0 111 94l116 -39q-32 -130 -87 -201t-148 -71q-53 0 -122 23.5t-129.5 47t-90.5 23.5q-65 0 -111 -96l-117 41q32 129 87.5 199.5t148.5 70.5z" />
    <glyph glyph-name="hungarumlaut" unicode="&#x2dd;" horiz-adv-x="1042" 
d="M104 1133l-2 4l240 311h236l2 -4l-263 -311h-213zM465 1133l-2 4l239 311h236l2 -4l-262 -311h-213z" />
    <glyph glyph-name="gravecomb" unicode="&#x300;" horiz-adv-x="0" 
d="M-600 1448l285 -29l213 -278l-15 -8l-225 28l-281 279z" />
    <glyph glyph-name="acutecomb" unicode="&#x301;" horiz-adv-x="0" 
d="M-104 1448l2 -8l-306 -307h-213l-2 8l230 307h289z" />
    <glyph glyph-name="uni0302" unicode="&#x302;" horiz-adv-x="0" 
d="M-340 1448l238 -305v-10h-248l-68 88q-35 44 -49 72.5t-18 66.5h-7q-4 -38 -17.5 -66t-47.5 -73l-70 -88h-245v10l237 305h295z" />
    <glyph glyph-name="tildecomb" unicode="&#x303;" horiz-adv-x="0" 
d="M-672 1446q53 0 122 -23t129.5 -46t90.5 -23q65 0 111 94l117 -39q-32 -129 -87.5 -200.5t-148.5 -71.5q-53 0 -122 23.5t-129.5 47t-90.5 23.5q-65 0 -111 -96l-116 41q32 129 87 199.5t148 70.5z" />
    <glyph glyph-name="uni0304" unicode="&#x304;" horiz-adv-x="0" 
d="M-102 1384v-198h-631v198h631z" />
    <glyph glyph-name="uni0306" unicode="&#x306;" horiz-adv-x="0" 
d="M-102 1462q0 -148 -96 -240t-242 -92q-145 0 -240.5 92.5t-95.5 239.5h192q3 -62 37 -101.5t107 -39.5q135 0 143 141h195z" />
    <glyph glyph-name="uni0307" unicode="&#x307;" horiz-adv-x="0" 
d="M-102 1434v-344h-334v344h334z" />
    <glyph glyph-name="uni0308" unicode="&#x308;" horiz-adv-x="0" 
d="M-500 1434v-297h-237v297h237zM-102 1434v-297h-238v297h238z" />
    <glyph glyph-name="uni030A" unicode="&#x30a;" horiz-adv-x="0" 
d="M-348 1530q107 0 176.5 -68t69.5 -172t-69.5 -171.5t-176.5 -67.5t-176.5 67.5t-69.5 171.5t69.5 172t176.5 68zM-348 1403q-51 0 -83 -32.5t-32 -80.5t31.5 -80t83.5 -32t83.5 32t31.5 80t-32 80.5t-83 32.5z" />
    <glyph glyph-name="uni030B" unicode="&#x30b;" horiz-adv-x="0" 
d="M-938 1133l-2 4l240 311h235l2 -4l-262 -311h-213zM-578 1133l-2 4l240 311h236l2 -4l-263 -311h-213z" />
    <glyph glyph-name="uni030C" unicode="&#x30c;" horiz-adv-x="0" 
d="M-635 1133l-237 305v10h247l68 -88q36 -46 50 -73t18 -66h6q4 39 17 66.5t48 72.5l70 88h246v-10l-238 -305h-295z" />
    <glyph glyph-name="uni0326" unicode="&#x326;" horiz-adv-x="0" 
d="M-102 -104l-205 -336h-150l56 336h299z" />
    <glyph glyph-name="uni0327" unicode="&#x327;" horiz-adv-x="0" 
d="M-236 70l-55 -142q189 -28 189 -145q0 -22 -6 -41.5t-20.5 -37t-29 -32t-41 -30t-45.5 -26t-54 -25.5t-56 -23t-61 -23.5t-60 -23.5l-43 96q96 49 132 74.5t36 48.5q0 44 -101 63l97 267h118z" />
    <glyph glyph-name="uni0328" unicode="&#x328;" horiz-adv-x="0" 
d="M-258 49l156 -29q-172 -155 -172 -213q0 -21 15.5 -33t39.5 -12q27 0 80 11l26 -191q-133 -18 -145 -18q-107 0 -167 43.5t-60 132.5q0 70 55.5 140t171.5 169z" />
    <glyph glyph-name="uni0394" unicode="&#x394;" horiz-adv-x="1286" 
d="M735 1434l510 -1434h-1204l510 1434h184zM643 969l-242 -764h484z" />
    <glyph glyph-name="uni03A9" unicode="&#x3a9;" horiz-adv-x="1527" 
d="M764 1464q210 0 370.5 -83t246 -227.5t85.5 -326.5q0 -118 -40 -218.5t-108 -169t-150 -113.5t-175 -66v-6q110 14 172 14h277v-268h-596v446q137 21 224 120.5t87 242.5q0 158 -106 258t-287 100q-180 0 -285.5 -100t-105.5 -258q0 -143 86.5 -243t222.5 -120v-446h-594
v268h277q60 0 170 -14v6q-92 21 -174 66t-150.5 113.5t-109 169t-40.5 218.5q0 136 50 253.5t140.5 202t222.5 133t290 48.5z" />
    <glyph glyph-name="pi" unicode="&#x3c0;" horiz-adv-x="1310" 
d="M1249 977v-268h-186v-709h-279v709h-198l-160 -709h-283l160 707q-133 -6 -242 -39v268q121 41 320 41h868z" />
    <glyph glyph-name="uni0401" unicode="&#x401;" horiz-adv-x="1114" 
d="M281 1776h235v-254h-235v254zM692 1776h238v-254h-238v254zM1024 1434v-283h-520q-41 0 -58 10l-4 -4q11 -18 11 -61v-144q0 -45 -11 -63l4 -4q17 10 58 10h465v-279h-465q-40 0 -58 11l-4 -4q11 -18 11 -62v-223q0 -44 -11 -62l4 -4q18 11 58 11h528v-283h-897v1434h889
z" />
    <glyph glyph-name="uni0402" unicode="&#x402;" horiz-adv-x="1536" 
d="M1085 893q205 0 322 -103.5t117 -285.5v-109q0 -203 -103 -299t-321 -96h-152v297h94q90 0 127 29t37 100v33q0 64 -51 99.5t-143 35.5q-164 0 -340 -53v-541h-318v1087q0 39 6 60l-4 4q-13 -10 -53 -10h-293v293h1112v-293h-401q-38 0 -53 10l-4 -4q8 -28 8 -60v-135
q0 -73 -19 -125l4 -4q203 70 428 70z" />
    <glyph glyph-name="uni0403" unicode="&#x403;" horiz-adv-x="1019" 
d="M987 1747l2 -8l-342 -217h-213l-2 8l230 217h325zM1010 1434v-289h-506q-41 0 -58 10l-4 -4q11 -18 11 -61v-1090h-318v1434h875z" />
    <glyph glyph-name="uni0404" unicode="&#x404;" horiz-adv-x="1384" 
d="M807 -31q-223 0 -394.5 93.5t-265.5 263.5t-94 391t94 390.5t265.5 263t394.5 93.5q305 0 536 -155l-155 -265q-174 111 -385 111q-146 0 -246 -66t-141 -190q-10 -26 -27 -43l4 -4q31 10 84 10h471v-291h-471q-50 0 -84 11l-4 -4q17 -17 27 -43q41 -124 141 -190
t246 -66q212 0 385 110l155 -264q-232 -156 -536 -156z" />
    <glyph glyph-name="uni0405" unicode="&#x405;" horiz-adv-x="1118" 
d="M586 1464q234 0 452 -110l-139 -277q-169 94 -311 94q-137 0 -137 -81q0 -34 22 -60t86 -65l240 -154q143 -91 205.5 -187.5t62.5 -228.5q0 -205 -135.5 -315.5t-384.5 -110.5q-280 0 -527 144l144 284q203 -133 395 -133q87 0 134.5 31t47.5 86q0 40 -30.5 75.5
t-106.5 82.5l-221 141q-258 164 -258 405q0 177 122.5 278t338.5 101z" />
    <glyph glyph-name="uni0406" unicode="&#x406;" horiz-adv-x="587" 
d="M453 1434v-1434h-318v1434h318z" />
    <glyph glyph-name="uni0407" unicode="&#x407;" horiz-adv-x="587" 
d="M-31 1776h236v-254h-236v254zM381 1776h237v-254h-237v254zM453 1434v-1434h-318v1434h318z" />
    <glyph glyph-name="uni0408" unicode="&#x408;" horiz-adv-x="700" 
d="M565 1434v-1037q0 -209 -92.5 -308t-284.5 -99q-42 0 -155 10v291q52 -6 110 -6q54 0 79.5 34t25.5 107v1008h317z" />
    <glyph glyph-name="uni0409" unicode="&#x409;" horiz-adv-x="2164" 
d="M1642 918q235 0 367.5 -120.5t132.5 -334.5q0 -218 -132.5 -340.5t-367.5 -122.5h-569v1024v66q0 44 10 61l-4 4q-15 -10 -57 -10h-401q-41 0 -56 10l-4 -4q10 -17 10 -61v-689q0 -213 -90.5 -312t-283.5 -99q-47 0 -164 10v295q52 -6 119 -6q102 0 102 141v1004h1137
v-461q0 -44 -11 -62l4 -4q16 11 58 11h200zM1599 279q109 0 166.5 47.5t57.5 136.5q0 83 -58.5 128.5t-165.5 45.5h-157q-43 0 -58 10l-4 -4q11 -18 11 -61v-246q0 -46 -11 -64l4 -4q16 11 58 11h157z" />
    <glyph glyph-name="uni040A" unicode="&#x40a;" horiz-adv-x="2107" 
d="M135 0v1434h318v-461q0 -44 -11 -62l4 -4q16 11 58 11h461q38 0 57 -11l4 4q-10 17 -10 62v461h317v-461q0 -45 -10 -62l4 -4q17 11 57 11h201q235 0 367.5 -120.5t132.5 -334.5q0 -218 -132.5 -340.5t-367.5 -122.5h-569v584q0 42 10 59l-4 4q-18 -10 -57 -10h-461
q-43 0 -58 10l-4 -4q11 -18 11 -59v-584h-318zM1327 268q17 11 57 11h158q107 0 165 47.5t58 136.5q0 83 -58 128.5t-165 45.5h-158q-42 0 -57 10l-4 -4q10 -17 10 -61v-246q0 -47 -10 -64z" />
    <glyph glyph-name="uni040B" unicode="&#x40b;" horiz-adv-x="1497" 
d="M1010 893q218 0 346.5 -130.5t128.5 -365.5v-397h-318v352q0 119 -62.5 180.5t-168.5 61.5q-140 0 -305 -53v-541h-318v1087q0 37 9 60l-5 4q-17 -10 -53 -10h-254v293h1088v-293h-416q-36 0 -53 10l-4 -4q6 -15 6 -60v-135q0 -84 -17 -125l4 -4q181 70 392 70z" />
    <glyph glyph-name="uni040C" unicode="&#x40c;" horiz-adv-x="1347" 
d="M1118 1747l2 -8l-342 -217h-213l-2 8l230 217h325zM1165 -12q-282 0 -325 215l-52 250q-17 89 -59.5 128.5t-120.5 39.5h-104q-43 0 -58 10l-4 -4q11 -22 11 -66v-561h-318v1434h318v-504q0 -44 -11 -66l4 -4q15 10 58 10h104q72 0 114 40.5t64 131.5l56 209
q25 103 97.5 149t207.5 46q93 0 156 -8v-287q-31 4 -82 4q-43 0 -66.5 -18t-34.5 -58l-47 -166q-17 -65 -51.5 -98t-101.5 -47t-195 -16v-9q195 -3 272 -43t97 -147l30 -133q14 -72 38.5 -98.5t78.5 -26.5q15 0 84 6v-305q-99 -8 -160 -8z" />
    <glyph glyph-name="uni040E" unicode="&#x40e;" horiz-adv-x="1445" 
d="M1065 1769q-8 -134 -94 -210t-242 -76q-155 0 -241 75.5t-95 210.5h211q2 -55 34 -88.5t91 -33.5q60 0 91.5 33.5t33.5 88.5h211zM399 -14q-104 0 -219 16l2 289q104 -17 185 -17q108 0 184 101l-541 1059h389l263 -572q10 -21 28 -60.5t24 -53t15.5 -37t13.5 -40.5
t7 -36h8q7 67 19 106t48 127l240 566h371l-484 -1024q-96 -220 -225 -322t-328 -102z" />
    <glyph glyph-name="uni040F" unicode="&#x40f;" horiz-adv-x="1499" 
d="M600 -287v232q0 41 8 61l-4 4q-17 -10 -55 -10h-414v1434h318v-1090q0 -43 -11 -61l4 -4q17 10 58 10h491q41 0 58 -10l4 4q-10 17 -10 61v1090h317v-1434h-414q-38 0 -55 10l-4 -4q8 -20 8 -61v-232h-299z" />
    <glyph glyph-name="uni0410" unicode="&#x410;" horiz-adv-x="1499" 
d="M10 0l707 1460h65l707 -1460h-348l-133 299h-514l-136 -299h-348zM565 524q32 11 92 11h185q60 0 92 -11l2 2q-27 30 -55 97l-82 194q-42 102 -45 148h-9q-3 -52 -43 -148l-81 -194q-31 -67 -58 -97z" />
    <glyph glyph-name="uni0411" unicode="&#x411;" horiz-adv-x="1298" 
d="M725 918q238 0 373 -120t135 -335q0 -219 -134.5 -341t-373.5 -122h-590v1022v412h1018v-289h-649q-43 0 -58 10l-4 -4q11 -18 11 -61v-117q0 -44 -11 -62l4 -4q16 11 58 11h221zM682 279q223 0 223 184q0 83 -58 128.5t-165 45.5h-178q-43 0 -58 10l-4 -4q11 -18 11 -61
v-246q0 -46 -11 -64l4 -4q16 11 58 11h178z" />
    <glyph glyph-name="uni0412" unicode="&#x412;" horiz-adv-x="1290" 
d="M135 0v1434h596q189 0 300.5 -95t111.5 -256q0 -116 -54 -195t-153 -108q-65 -19 -123 -22v-8q61 0 127 -13q287 -60 287 -340q0 -186 -125.5 -291.5t-345.5 -105.5h-621zM446 860q16 8 58 8h151q85 0 130.5 40.5t45.5 115.5q0 71 -45 108t-131 37h-151q-42 0 -58 11
l-4 -4q11 -18 11 -60v-192q0 -42 -11 -60zM446 254q2 0 20.5 5t39.5 5h184q103 0 156 45t53 133q0 164 -211 164h-184q-43 0 -58 10l-4 -4q11 -18 11 -63v-230q0 -43 -11 -61z" />
    <glyph glyph-name="uni0413" unicode="&#x413;" horiz-adv-x="1019" 
d="M1010 1434v-289h-506q-41 0 -58 10l-4 -4q11 -18 11 -61v-1090h-318v1434h875z" />
    <glyph glyph-name="uni0414" unicode="&#x414;" horiz-adv-x="1492" 
d="M10 -287v541h123q40 0 57 -10l5 4q0 43 14 61q135 306 135 756v369h934v-1125q0 -41 -8 -61l4 -4q17 10 55 10h131v-541h-297v201q0 45 11 63l-5 5q-22 -11 -57 -11h-754q-37 0 -55 11l-4 -5q8 -20 8 -63v-201h-297zM520 244q17 10 55 10h340q41 0 58 -10l4 4
q-10 17 -10 61v789q0 46 10 63l-4 4q-17 -10 -58 -10h-208q-39 0 -56 10l-4 -4q8 -20 8 -63v-103q0 -221 -40.5 -428.5t-98.5 -318.5z" />
    <glyph glyph-name="uni0415" unicode="&#x415;" horiz-adv-x="1114" 
d="M1024 1434v-283h-520q-41 0 -58 10l-4 -4q11 -18 11 -61v-144q0 -45 -11 -63l4 -4q17 10 58 10h465v-279h-465q-40 0 -58 11l-4 -4q11 -18 11 -62v-223q0 -44 -11 -62l4 -4q18 11 58 11h528v-283h-897v1434h889z" />
    <glyph glyph-name="uni0416" unicode="&#x416;" horiz-adv-x="2043" 
d="M166 -12q-62 0 -143 8v303q75 -6 83 -6q51 0 78 25t41 98l33 141q24 109 101 146t262 42v9q-185 3 -255 33t-94 126l-43 168q-19 78 -104 78q-39 0 -82 -4v283q73 8 137 8q133 0 206 -43t106 -152l63 -213q24 -94 61.5 -130t120.5 -36h82q41 0 58 -10l4 4q-11 22 -11 66
v502h304v-502q0 -44 -11 -66l4 -4q17 10 58 10h82q83 0 120.5 36t61.5 130l63 213q31 109 105 152t207 43q64 0 137 -8v-283q-43 4 -82 4q-85 0 -104 -78l-43 -168q-24 -96 -93.5 -126t-255.5 -33v-9q186 -5 262.5 -42t100.5 -146l31 -141q16 -73 43 -98t77 -25q13 0 82 6
v-303q-79 -8 -143 -8q-145 0 -224 54.5t-108 176.5l-55 238q-20 96 -58.5 130t-123.5 34h-82q-41 0 -58 10l-4 -4q11 -22 11 -66v-561h-304v561q0 44 11 66l-4 4q-17 -10 -58 -10h-82q-85 0 -123.5 -34t-58.5 -130l-55 -238q-29 -122 -108.5 -176.5t-225.5 -54.5z" />
    <glyph glyph-name="uni0417" unicode="&#x417;" horiz-adv-x="1204" 
d="M582 -31q-295 0 -541 117l121 266q213 -86 411 -86q252 0 252 158q0 164 -299 164h-194v293h198q114 0 173 38.5t59 112.5q0 135 -211 135q-166 0 -361 -65l-98 287q263 75 481 75q253 0 381.5 -93.5t128.5 -276.5q0 -122 -58 -195.5t-187 -116.5q-59 -21 -144 -24v-8
q60 0 142 -15q158 -31 231.5 -114.5t73.5 -231.5q0 -207 -141.5 -313.5t-417.5 -106.5z" />
    <glyph glyph-name="uni0418" unicode="&#x418;" horiz-adv-x="1478" 
d="M1274 1454h69v-1454h-313v623q0 172 23 249l-9 2q-18 -36 -36.5 -61.5t-57.5 -64.5l-747 -768h-68v1454h314v-623q0 -177 -25 -250l8 -2q21 40 39 65t55 62z" />
    <glyph glyph-name="uni0419" unicode="&#x419;" horiz-adv-x="1478" 
d="M1133 1769q-8 -134 -94 -210t-242 -76q-155 0 -241 75.5t-95 210.5h211q2 -55 34 -88.5t91 -33.5q60 0 91.5 33.5t33.5 88.5h211zM1274 1454h69v-1454h-313v623q0 172 23 249l-9 2q-18 -36 -36.5 -61.5t-57.5 -64.5l-747 -768h-68v1454h314v-623q0 -177 -25 -250l8 -2
q21 40 39 65t55 62z" />
    <glyph glyph-name="uni041A" unicode="&#x41a;" horiz-adv-x="1347" 
d="M1165 -12q-282 0 -325 215l-52 250q-17 89 -59.5 128.5t-120.5 39.5h-104q-43 0 -58 10l-4 -4q11 -22 11 -66v-561h-318v1434h318v-504q0 -44 -11 -66l4 -4q15 10 58 10h104q72 0 114 40.5t64 131.5l56 209q25 103 97.5 149t207.5 46q93 0 156 -8v-287q-31 4 -82 4
q-43 0 -66.5 -18t-34.5 -58l-47 -166q-17 -65 -51.5 -98t-101.5 -47t-195 -16v-9q195 -3 272 -43t97 -147l30 -133q14 -72 38.5 -98.5t78.5 -26.5q15 0 84 6v-305q-99 -8 -160 -8z" />
    <glyph glyph-name="uni041B" unicode="&#x41b;" horiz-adv-x="1556" 
d="M1421 1434v-1434h-317v1090q0 44 10 61l-4 4q-15 -10 -57 -10h-432q-41 0 -56 10l-4 -4q10 -17 10 -61v-689q0 -213 -90.5 -312t-283.5 -99q-47 0 -164 10v295q52 -6 119 -6q102 0 102 141v1004h1167z" />
    <glyph glyph-name="uni041C" unicode="&#x41c;" horiz-adv-x="1974" 
d="M965 -14l-312 641q-27 59 -36.5 93t-12.5 79h-8q-6 -84 -35 -176l-205 -623h-346l533 1454h57l346 -772q18 -40 25 -68t12 -73h8q4 31 6.5 47.5t10 41t20.5 52.5l346 772h56l532 -1454h-344l-205 623q-29 92 -35 176h-8q-3 -46 -13 -79.5t-38 -92.5l-309 -641h-45z" />
    <glyph glyph-name="uni041D" unicode="&#x41d;" horiz-adv-x="1509" 
d="M1374 1434v-1434h-317v557q0 44 10 61l-4 5q-22 -11 -57 -11h-502q-40 0 -58 11l-4 -5q11 -18 11 -61v-557h-318v1434h318v-476q0 -45 -11 -63l4 -4q17 10 58 10h502q37 0 57 -10l4 4q-10 17 -10 63v476h317z" />
    <glyph glyph-name="uni041E" unicode="&#x41e;" horiz-adv-x="1615" 
d="M809 1464q162 0 302 -56t239.5 -154.5t156 -237.5t56.5 -299q0 -214 -96.5 -385t-269 -267t-388.5 -96q-217 0 -390 96t-269.5 267t-96.5 385q0 161 56.5 299.5t156 237t240 154.5t303.5 56zM809 1157q-192 0 -311 -122.5t-119 -317.5t119 -318t311 -123q190 0 309 123
t119 318t-119 317.5t-309 122.5z" />
    <glyph glyph-name="uni041F" unicode="&#x41f;" horiz-adv-x="1517" 
d="M1382 1434v-1434h-317v1090q0 44 10 61l-4 4q-17 -10 -57 -10h-510q-41 0 -58 10l-4 -4q11 -18 11 -61v-1090h-318v1434h1247z" />
    <glyph glyph-name="uni0420" unicode="&#x420;" horiz-adv-x="1196" 
d="M666 1434q242 0 375 -116t133 -327t-129.5 -327.5t-362.5 -116.5h-178q-43 0 -58 10l-4 -4q11 -18 11 -61v-492h-318v1434h531zM446 1171l-4 -4q11 -18 11 -61v-229q0 -46 -11 -64l4 -4q15 10 58 10h172q84 0 134 47t50 125t-49.5 124t-134.5 46h-172q-43 0 -58 10z" />
    <glyph glyph-name="uni0421" unicode="&#x421;" horiz-adv-x="1392" 
d="M829 -31q-169 0 -313.5 56t-246 154.5t-159 237t-57.5 300.5q0 216 98 386t275.5 265.5t402.5 95.5q294 0 523 -159l-162 -258q-171 110 -354 110q-200 0 -324.5 -122t-124.5 -318q0 -195 125 -318t324 -123q181 0 354 111l162 -258q-231 -160 -523 -160z" />
    <glyph glyph-name="uni0422" unicode="&#x422;" horiz-adv-x="1110" 
d="M1098 1434v-289h-334q-36 0 -53 10l-4 -4q6 -15 6 -61v-1090h-318v1090q0 41 8 61l-4 4q-17 -10 -53 -10h-336v289h1088z" />
    <glyph glyph-name="uni0423" unicode="&#x423;" horiz-adv-x="1445" 
d="M399 -14q-104 0 -219 16l2 289q104 -17 185 -17q108 0 184 101l-541 1059h389l263 -572q10 -21 28 -60.5t24 -53t15.5 -37t13.5 -40.5t7 -36h8q7 67 19 106t48 127l240 566h371l-484 -1024q-96 -220 -225 -322t-328 -102z" />
    <glyph glyph-name="uni0424" unicode="&#x424;" horiz-adv-x="1755" 
d="M725 -82v111q0 48 10 63l-4 4q-15 -10 -69 -10q-173 0 -312.5 82t-218 226t-78.5 323t78.5 323t218 226t312.5 82q52 0 69 -11l4 4q-10 15 -10 64v111h307v-111q0 -44 -10 -64l4 -4q16 11 68 11q129 0 242 -48t193.5 -131.5t126.5 -200.5t46 -251t-46 -251t-126.5 -200.5
t-193.5 -131.5t-242 -48q-53 0 -68 10l-4 -4q10 -20 10 -63v-111h-307zM741 352l4 4q-10 15 -10 64v594q0 48 10 63l-4 4q-12 -7 -59 -10q-141 -4 -221 -98.5t-80 -255.5t80 -256t221 -99q47 -3 59 -10zM1016 352q13 8 57 10q141 4 221 99t80 256t-80 255.5t-221 98.5
q-44 2 -57 10l-4 -4q10 -20 10 -63v-594q0 -44 -10 -64z" />
    <glyph glyph-name="uni0425" unicode="&#x425;" horiz-adv-x="1503" 
d="M1440 1434l-404 -564q-59 -88 -90 -112v-6q5 -3 9.5 -7.5t11 -11.5t10.5 -12t12.5 -16.5t13 -17.5t15.5 -21.5t16 -22.5l457 -643h-404l-278 422q-50 73 -61 137h-9q-10 -60 -57 -137l-268 -422h-404l455 655q67 95 90 111v8q-28 20 -92 109l-400 551h404l223 -340
q57 -88 64 -138h8q7 52 63 138l209 340h406z" />
    <glyph glyph-name="uni0426" unicode="&#x426;" horiz-adv-x="1579" 
d="M1247 -287v230q0 46 10 63l-4 4q-17 -10 -57 -10h-1061v1434h318v-1090q0 -43 -11 -61l4 -4q17 10 58 10h489q41 0 58 -10l4 4q-11 18 -11 61v1090h318v-1090q0 -44 -10 -61l4 -4q20 10 57 10h133v-576h-299z" />
    <glyph glyph-name="uni0427" unicode="&#x427;" horiz-adv-x="1318" 
d="M866 0v461q0 67 17 127l-4 4q-176 -72 -392 -72q-222 0 -348.5 133t-126.5 365v416h318v-371q0 -115 61.5 -178.5t171.5 -63.5q141 0 303 51v562h318v-1434h-318z" />
    <glyph glyph-name="uni0428" unicode="&#x428;" horiz-adv-x="2265" 
d="M135 0v1434h318v-1090q0 -43 -11 -61l4 -4q17 10 58 10h420q38 0 55 -10l4 4q-10 17 -10 61v1090h317v-1090q0 -41 -8 -61l4 -4q17 10 55 10h420q41 0 58 -10l4 4q-11 18 -11 61v1090h318v-1434h-1995z" />
    <glyph glyph-name="uni0429" unicode="&#x429;" horiz-adv-x="2347" 
d="M2181 289h131v-576h-297v230q0 46 10 63l-4 4q-17 -10 -57 -10h-1829v1434h318v-1090q0 -43 -11 -61l4 -4q17 10 58 10h420q38 0 55 -10l4 4q-10 17 -10 61v1090h317v-1090q0 -41 -8 -61l4 -4q17 10 55 10h420q41 0 58 -10l4 4q-11 18 -11 61v1090h318v-1090
q0 -44 -10 -61l4 -4q17 10 57 10z" />
    <glyph glyph-name="uni042A" unicode="&#x42a;" horiz-adv-x="1476" 
d="M956 918q235 0 366.5 -120.5t131.5 -334.5q0 -218 -131.5 -340.5t-366.5 -122.5h-591v1090q0 44 10 61l-4 4q-15 -10 -58 -10h-303v289h672v-461q0 -45 -10 -62l4 -4q19 11 57 11h223zM913 279q108 0 166 47.5t58 136.5q0 83 -58.5 128.5t-165.5 45.5h-180q-39 0 -57 10
l-4 -4q10 -17 10 -61v-246q0 -47 -10 -64l4 -4q19 11 57 11h180z" />
    <glyph glyph-name="uni042B" unicode="&#x42b;" horiz-adv-x="1777" 
d="M725 918q235 0 367.5 -120.5t132.5 -334.5q0 -218 -132.5 -340.5t-367.5 -122.5h-590v1077v357h318v-461q0 -44 -11 -62l4 -4q16 11 58 11h221zM1325 1434h317v-1434h-317v1434zM682 279q109 0 166 47.5t57 136.5q0 83 -58 128.5t-165 45.5h-178q-43 0 -58 10l-4 -4
q11 -18 11 -61v-246q0 -46 -11 -64l4 -4q16 11 58 11h178z" />
    <glyph glyph-name="uni042C" unicode="&#x42c;" horiz-adv-x="1247" 
d="M725 918q235 0 367.5 -120.5t132.5 -334.5q0 -218 -132.5 -340.5t-367.5 -122.5h-590v1077v357h318v-461q0 -44 -11 -62l4 -4q16 11 58 11h221zM682 279q109 0 166 47.5t57 136.5q0 83 -58 128.5t-165 45.5h-178q-43 0 -58 10l-4 -4q11 -18 11 -61v-246q0 -46 -11 -64
l4 -4q16 11 58 11h178z" />
    <glyph glyph-name="uni042D" unicode="&#x42d;" horiz-adv-x="1384" 
d="M578 -31q-305 0 -537 156l156 264q173 -110 385 -110q146 0 246 66t141 190q10 27 26 43l-4 4q-34 -11 -84 -11h-471v291h471q53 0 84 -10l4 4q-16 16 -26 43q-41 124 -141 190t-246 66q-211 0 -385 -111l-156 265q231 155 537 155q223 0 394.5 -93.5t265 -263
t93.5 -390.5q0 -165 -54.5 -304.5t-152.5 -237t-238.5 -152t-307.5 -54.5z" />
    <glyph glyph-name="uni042E" unicode="&#x42e;" horiz-adv-x="2172" 
d="M1364 1464q163 0 303.5 -56t240 -154.5t156 -237t56.5 -299.5q0 -214 -96.5 -385t-269.5 -267t-390 -96q-289 0 -491 166t-250 436h-119q-43 0 -58 9l-4 -5q11 -18 11 -61v-514h-318v1434h318v-519q0 -45 -11 -63l4 -4q17 10 58 10h119q44 271 247.5 438.5t493.5 167.5z
M1364 276q192 0 310 122t118 319q0 196 -118.5 318t-309.5 122q-190 0 -309 -122.5t-119 -317.5q0 -196 118.5 -318.5t309.5 -122.5z" />
    <glyph glyph-name="uni042F" unicode="&#x42f;" horiz-adv-x="1363" 
d="M662 1434h567v-1434h-318v498q0 59 17 108l-4 4q-8 -6 -31 -12q-27 -6 -64 -6l-442 -592h-387l403 504q40 50 76.5 78t81.5 41v4q-14 -2 -43 -2q-62 0 -122 27.5t-109 77t-79 126.5t-30 168q0 189 125 299.5t359 110.5zM918 1171q-17 -10 -58 -10h-184
q-79 0 -123.5 -41.5t-44.5 -115.5q0 -77 44.5 -119.5t123.5 -42.5h184q40 0 58 -11l4 5q-11 18 -11 63v207q0 43 11 61z" />
    <glyph glyph-name="uni0430" unicode="&#x430;" horiz-adv-x="1083" 
d="M532 977q244 0 350.5 -88t106.5 -289v-600h-309q0 106 33 188l-11 7q-99 -226 -331 -226q-153 0 -245.5 91t-92.5 241q0 148 93.5 236t248.5 88q221 0 323 -176l9 4q-17 52 -17 151q0 57 -52.5 90t-143.5 33q-119 0 -289 -31l-43 246q187 35 370 35zM496 442
q-58 0 -94.5 -33.5t-36.5 -86.5q0 -54 36.5 -87.5t94.5 -33.5t95.5 34t37.5 87t-37.5 86.5t-95.5 33.5z" />
    <glyph glyph-name="uni0431" unicode="&#x431;" horiz-adv-x="1187" 
d="M614 -31q-94 0 -176.5 23t-154 73t-123 125t-80.5 185t-29 246q0 242 68 386t209 222q44 23 117 49t149 50t98 32q47 17 63.5 36.5t18.5 47.5h313q0 -224 -174 -287q-38 -15 -205 -57.5t-233 -71.5q-109 -50 -149.5 -136.5t-40.5 -234.5h6q36 147 145 220t252 73
q199 0 324 -130t125 -347q0 -226 -142.5 -365t-380.5 -139zM600 252q93 0 156 61t63 160t-63 160t-156 61q-94 0 -156.5 -61t-62.5 -160t62.5 -160t156.5 -61z" />
    <glyph glyph-name="uni0432" unicode="&#x432;" horiz-adv-x="1054" 
d="M870 471q58 -21 96 -72t38 -135q0 -58 -18 -103.5t-48.5 -75.5t-73.5 -49.5t-89 -27.5t-99 -8h-572v649v297h580q295 0 295 -227q0 -74 -26 -118t-83 -71q-60 -28 -174 -30v-8q116 0 174 -21zM403 731q11 -22 11 -53v-53q0 -32 -11 -54l3 -2q18 9 57 9h115q42 0 66 19.5
t24 55.5q0 35 -24 53.5t-66 18.5h-115q-41 0 -57 8zM592 221q47 0 74.5 21t27.5 63q0 82 -102 82h-129q-41 0 -57 8l-3 -2q11 -22 11 -51v-74q0 -31 -11 -53l3 -2q16 8 57 8h129z" />
    <glyph glyph-name="uni0433" unicode="&#x433;" horiz-adv-x="794" 
d="M104 0v946h680v-268h-321q-41 0 -57 8l-3 -2q11 -22 11 -53v-631h-310z" />
    <glyph glyph-name="uni0434" unicode="&#x434;" horiz-adv-x="1263" 
d="M20 -287v518h97q35 0 51 -8l2 2q0 26 14 54q103 169 103 481v186h800v-667q0 -34 -10 -54l2 -2q16 8 58 8h94v-518h-277v221q0 32 11 54l-2 2q-16 -8 -58 -8h-557q-43 0 -57 8l-2 -2q10 -27 10 -54v-221h-279zM463 223q16 8 57 8h225q42 0 58 -8l2 2q-10 20 -10 54v370
q0 33 10 53l-2 3q-18 -9 -58 -9h-139q-39 0 -57 9l-2 -3q10 -20 10 -53v-49q0 -93 -27 -198.5t-69 -176.5z" />
    <glyph glyph-name="uni0435" unicode="&#x435;" horiz-adv-x="1064" 
d="M553 975q220 0 344.5 -130.5t124.5 -367.5v-82h-561q-44 0 -66.5 4.5t-44.5 20.5l-4 -6l8 -23q42 -168 236 -168q145 0 274 84l103 -235q-174 -103 -375 -103q-248 0 -394.5 135t-146.5 371q0 230 139.5 365t362.5 135zM541 745q-82 0 -135.5 -46.5t-63.5 -129.5l4 -6
q16 19 86 19h207q63 0 78 -17l4 4q-4 86 -52 131t-128 45z" />
    <glyph glyph-name="uni0436" unicode="&#x436;" horiz-adv-x="1536" 
d="M37 -6v239h26q32 0 48.5 12t35.5 46l33 84q24 60 68 86.5t151 27.5v9q-74 1 -118 13t-64 31.5t-35 55.5l-30 68q-31 47 -84 47h-35v239h166q74 0 120 -26.5t70 -85.5l60 -133q20 -54 39.5 -74.5t58.5 -20.5h31q47 0 63 -4l2 2q-10 38 -10 82v254h270v-254q0 -44 -10 -82
l2 -2q20 4 63 4h31q39 0 60 21t41 74l59 133q23 59 68.5 85.5t121.5 26.5h166v-239h-37q-53 0 -84 -47l-30 -68q-15 -36 -35 -55.5t-64 -31.5t-118 -13v-9q108 -1 151.5 -27.5t67.5 -86.5l33 -84q19 -34 35.5 -46t48.5 -12h26v-239h-174q-149 0 -192 123l-48 145
q-17 63 -35 88t-61 25h-31q-43 0 -63 4l-2 -2q10 -38 10 -86v-291h-270v291q0 48 10 86l-2 2q-16 -4 -63 -4h-31q-41 0 -58.5 -24t-37.5 -89l-48 -145q-43 -123 -190 -123h-176z" />
    <glyph glyph-name="uni0437" unicode="&#x437;" horiz-adv-x="950" 
d="M459 -31q-255 0 -447 80l99 230q163 -70 315 -70q95 0 135.5 22t40.5 66q0 76 -133 76h-141v217h125q106 0 106 72q0 75 -151 75q-138 0 -293 -61l-88 231q229 70 426 70q100 0 173 -12.5t128 -41t82.5 -78.5t27.5 -122q0 -206 -250 -223v-8q134 -6 208.5 -65t74.5 -175
q0 -142 -107.5 -212.5t-330.5 -70.5z" />
    <glyph glyph-name="uni0438" unicode="&#x438;" horiz-adv-x="1153" 
d="M104 -12v958h310v-268q0 -67 -0.5 -90t-4.5 -53.5t-14 -61.5l8 -2q4 7 9 14t9.5 12.5t12 13l12 12t15 13.5t15.5 13t19 16t21 17l451 376h80v-958h-308v268q0 67 0.5 90t4.5 53.5t14 61.5l-8 2l-8 -12t-9.5 -12t-9.5 -10.5t-11.5 -11.5t-11 -10.5t-13.5 -12t-14.5 -12
t-17.5 -14t-18 -15.5l-451 -377h-82z" />
    <glyph glyph-name="uni0439" unicode="&#x439;" horiz-adv-x="1153" 
d="M967 1360q0 -148 -96 -240t-242 -92q-145 0 -240.5 92.5t-95.5 239.5h192q3 -62 37 -101.5t107 -39.5q135 0 143 141h195zM104 -12v958h310v-268q0 -67 -0.5 -90t-4.5 -53.5t-14 -61.5l8 -2q4 7 9 14t9.5 12.5t12 13l12 12t15 13.5t15.5 13t19 16t21 17l451 376h80v-958
h-308v268q0 67 0.5 90t4.5 53.5t14 61.5l-8 2l-8 -12t-9.5 -12t-9.5 -10.5t-11.5 -11.5t-11 -10.5t-13.5 -12t-14.5 -12t-17.5 -14t-18 -15.5l-451 -377h-82z" />
    <glyph glyph-name="uni043A" unicode="&#x43a;" horiz-adv-x="1071" 
d="M860 -6q-83 0 -127.5 31t-64.5 92l-47 145q-18 61 -41 87t-66 26h-45q-47 0 -63 4l-3 -2q11 -42 11 -86v-291h-310v946h310v-254q0 -40 -11 -82l3 -2q16 4 63 4h45q40 0 65 22t44 73l59 133q25 59 70.5 85.5t121.5 26.5h166v-239h-18q-82 0 -109 -47l-30 -68
q-20 -53 -63 -76t-148 -24v-9q103 -1 147 -28t66 -86l33 -84q21 -34 39 -46t51 -12h26v-239h-174z" />
    <glyph glyph-name="uni043B" unicode="&#x43b;" horiz-adv-x="1167" 
d="M1063 946v-946h-309v631q0 33 10 53l-2 2q-16 -8 -57 -8h-156q-41 0 -57 8l-3 -2q11 -22 11 -53v-262q0 -369 -369 -369h-121v268h76q55 0 79.5 27t24.5 100v551h873z" />
    <glyph glyph-name="uni043C" unicode="&#x43c;" horiz-adv-x="1523" 
d="M725 -18l-174 346q-2 5 -14 29t-15.5 33.5t-9.5 29.5t-8 39h-8q-1 -17 -3 -31.5t-7 -30.5t-7 -23.5t-10 -28.5t-10 -28l-125 -317h-332l424 965h78l209 -406q38 -68 45 -115h8q7 47 45 115l209 406h78l424 -965h-332l-123 317q-33 84 -37 142h-8q-1 -9 -2.5 -17.5
t-3.5 -17t-4 -14.5t-5.5 -14.5t-5.5 -13t-7 -14t-6.5 -12.5t-7.5 -14t-7 -14l-172 -346h-76z" />
    <glyph glyph-name="uni043D" unicode="&#x43d;" horiz-adv-x="1169" 
d="M756 946h309v-946h-309v324q0 33 10 53l-2 2q-16 -8 -57 -8h-244q-41 0 -57 8l-3 -2q11 -22 11 -53v-324h-310v946h310v-260q0 -31 -11 -53l3 -2q16 8 57 8h244q41 0 57 -8l2 2q-10 20 -10 53v260z" />
    <glyph glyph-name="uni043E" unicode="&#x43e;" horiz-adv-x="1167" 
d="M584 977q231 0 380.5 -139.5t149.5 -364.5t-149.5 -364.5t-380.5 -139.5q-233 0 -383 139.5t-150 364.5t150 364.5t383 139.5zM584 694q-96 0 -159 -61t-63 -160t63 -160t159 -61t158.5 60.5t62.5 160.5t-62.5 160.5t-158.5 60.5z" />
    <glyph glyph-name="uni043F" unicode="&#x43f;" horiz-adv-x="1173" 
d="M1069 946v-946h-309v631q0 33 10 53l-2 2q-16 -8 -57 -8h-248q-41 0 -57 8l-3 -2q11 -22 11 -53v-631h-310v946h965z" />
    <glyph glyph-name="uni0440" unicode="&#x440;" horiz-adv-x="1230" 
d="M743 977q193 0 315 -138t122 -368q0 -229 -120 -365.5t-315 -136.5q-121 0 -212 62t-136 184l-8 -2q19 -117 19 -184v-439h-304v1356h306q0 -122 -23 -213l8 -2q106 246 348 246zM631 700q-105 0 -168.5 -61.5t-63.5 -165.5t63.5 -165.5t168.5 -61.5t168 61t63 166
t-63.5 166t-167.5 61z" />
    <glyph glyph-name="uni0441" unicode="&#x441;" horiz-adv-x="944" 
d="M578 -31q-233 0 -380 140.5t-147 363.5t147 363.5t380 140.5q187 0 342 -92l-125 -248q-92 57 -203 57q-101 0 -165.5 -61.5t-64.5 -159.5q0 -97 64.5 -159t165.5 -62q111 0 203 57l125 -248q-155 -92 -342 -92z" />
    <glyph glyph-name="uni0442" unicode="&#x442;" horiz-adv-x="935" 
d="M10 946h916v-268h-254q-42 0 -58 8l-2 -2q11 -22 11 -53v-631h-310v631q0 31 11 53l-2 2q-16 -8 -58 -8h-254v268z" />
    <glyph glyph-name="uni0443" unicode="&#x443;" horiz-adv-x="1099" 
d="M1098 946l-604 -1356h-310l222 484l-404 872h332l158 -371q26 -63 37.5 -111.5t15.5 -121.5l8 2q6 92 43 180l170 422h332z" />
    <glyph glyph-name="uni0444" unicode="&#x444;" horiz-adv-x="1779" 
d="M741 -410v410q0 150 31 252l-8 4q-46 -142 -126 -214.5t-210 -72.5q-162 0 -264.5 137t-102.5 367t102.5 367t264.5 137q130 0 210 -72.5t126 -214.5l8 4q-31 102 -31 252v440h297v-440q0 -152 -28 -252l8 -4q47 142 125.5 214.5t208.5 72.5q163 0 264.5 -136.5
t101.5 -367.5t-101.5 -367.5t-264.5 -136.5q-130 0 -208.5 72.5t-125.5 214.5l-8 -4q28 -100 28 -252v-410h-297zM563 252q82 0 135.5 60.5t53.5 160.5t-53.5 160.5t-135.5 60.5q-78 0 -130.5 -60t-53.5 -161q1 -101 53.5 -161t130.5 -60zM1217 252q79 0 131.5 60.5
t52.5 160.5t-52.5 160.5t-131.5 60.5q-80 0 -134.5 -60.5t-54.5 -160.5t54.5 -160.5t134.5 -60.5z" />
    <glyph glyph-name="uni0445" unicode="&#x445;" horiz-adv-x="1163" 
d="M10 0l330 438q28 41 57 58v6q-37 26 -53 51l-299 393h367l110 -162q48 -67 58 -133h8q10 65 55 133l109 162h366l-299 -395q-26 -36 -55 -51v-6q27 -14 57 -58l330 -436h-365l-155 213q-39 54 -47 131h-9q-13 -76 -51 -131l-149 -213h-365z" />
    <glyph glyph-name="uni0446" unicode="&#x446;" horiz-adv-x="1243" 
d="M936 -287v240q0 33 10 53l-2 2q-16 -8 -57 -8h-783v946h310v-631q0 -31 -11 -53l3 -2q16 8 57 8h246q41 0 57 -8l2 2q-10 20 -10 53v631h309v-631q0 -33 -10 -53l2 -2q16 8 57 8h96v-555h-276z" />
    <glyph glyph-name="uni0447" unicode="&#x447;" horiz-adv-x="1064" 
d="M651 946h310v-719v-227h-310v283q0 58 19 98l-4 4q-151 -80 -291 -80q-176 0 -270.5 97.5t-94.5 314.5v229h309v-215q0 -147 148 -147q76 0 184 41v321z" />
    <glyph glyph-name="uni0448" unicode="&#x448;" horiz-adv-x="1779" 
d="M1366 946h307v-946h-1569v946h310v-631q0 -31 -11 -53l3 -2q16 8 57 8h223q41 0 57 -8l2 2q-10 20 -10 53v631h309v-631q0 -33 -10 -53l2 -2q16 8 58 8h223q41 0 57 -8l2 2q-10 20 -10 53v631z" />
    <glyph glyph-name="uni0449" unicode="&#x449;" horiz-adv-x="1849" 
d="M1540 -287v240q0 33 10 53l-2 2q-16 -8 -57 -8h-1387v946h310v-631q0 -31 -11 -53l3 -2q16 8 57 8h223q41 0 57 -8l2 2q-10 20 -10 53v631h309v-631q0 -33 -10 -53l2 -2q16 8 58 8h223q41 0 57 -8l2 2q-10 20 -10 53v631h307v-631q0 -33 -10 -53l2 -2q16 8 57 8h95v-555
h-277z" />
    <glyph glyph-name="uni044A" unicode="&#x44a;" horiz-adv-x="1175" 
d="M797 688q170 0 268 -86t98 -258q0 -171 -99 -257.5t-267 -86.5h-518v614v17q0 33 10 53l-2 2q-16 -8 -58 -8h-219v268h578v-211q0 -26 -10 -53l2 -2q14 8 57 8h160zM731 238q55 0 85 27t30 79t-30.5 80.5t-84.5 28.5h-94q-43 0 -57 8l-2 -2q10 -27 10 -53v-121
q0 -27 -10 -54l2 -2q16 9 57 9h94z" />
    <glyph glyph-name="uni044B" unicode="&#x44b;" horiz-adv-x="1470" 
d="M614 688q173 0 274 -86t101 -258q0 -171 -101 -257.5t-274 -86.5h-510v778v168h310v-211q0 -31 -11 -53l3 -2q16 8 57 8h151zM1057 946h309v-946h-309v946zM559 238q53 0 83 27t30 79t-30 80.5t-83 28.5h-96q-41 0 -57 8l-3 -2q11 -22 11 -53v-121q0 -32 -11 -54l3 -2
q18 9 57 9h96z" />
    <glyph glyph-name="uni044C" unicode="&#x44c;" horiz-adv-x="1001" 
d="M614 688q173 0 274 -86t101 -258q0 -171 -101 -257.5t-274 -86.5h-510v778v168h310v-211q0 -31 -11 -53l3 -2q16 8 57 8h151zM559 238q53 0 83 27t30 79t-30 80.5t-83 28.5h-96q-41 0 -57 8l-3 -2q11 -22 11 -53v-121q0 -32 -11 -54l3 -2q18 9 57 9h96z" />
    <glyph glyph-name="uni044D" unicode="&#x44d;" horiz-adv-x="942" 
d="M377 -31q-186 0 -354 84l108 232q111 -58 225 -58q166 0 203 125q3 4 8 16.5t8 16.5l-2 4q-21 -8 -61 -8h-238v184h238q40 0 61 -8l2 4q-3 4 -8 16.5t-8 16.5q-37 125 -203 125q-116 0 -225 -57l-108 231q168 84 354 84q230 0 367 -132.5t137 -371.5t-137 -371.5
t-367 -132.5z" />
    <glyph glyph-name="uni044E" unicode="&#x44e;" horiz-adv-x="1677" 
d="M1096 977q231 0 380.5 -139.5t149.5 -364.5t-149.5 -364.5t-380.5 -139.5q-195 0 -336 101.5t-182 273.5h-119q-42 0 -58 8l-2 -2q11 -22 11 -53v-297h-306v946h306v-297q0 -31 -11 -53l2 -2q16 8 58 8h119q41 172 182 273.5t336 101.5zM1096 252q94 0 157.5 61t63.5 160
t-63.5 160t-157.5 61q-96 0 -159 -61t-63 -160t63 -160t159 -61z" />
    <glyph glyph-name="uni044F" unicode="&#x44f;" horiz-adv-x="1107" 
d="M1001 946v-735v-211h-307v274q0 32 11 54l-3 2q-16 -8 -57 -8h-16l-242 -322h-367v12l207 234q41 47 68.5 67.5t66.5 32.5v6q-71 -9 -104 2q-97 31 -141.5 108.5t-44.5 168.5q0 150 92 232.5t266 82.5h571zM705 510q-11 22 -11 53v119q0 31 11 53l-3 2q-16 -8 -57 -8
h-110q-136 0 -136 -106q0 -107 136 -107h110q36 0 57 -8z" />
    <glyph glyph-name="uni0451" unicode="&#x451;" horiz-adv-x="1064" 
d="M475 1331v-297h-225v297h225zM856 1331v-297h-223v297h223zM553 975q220 0 344.5 -130.5t124.5 -367.5v-82h-561q-44 0 -66.5 4.5t-44.5 20.5l-4 -6l8 -23q42 -168 236 -168q145 0 274 84l103 -235q-174 -103 -375 -103q-248 0 -394.5 135t-146.5 371q0 230 139.5 365
t362.5 135zM541 745q-82 0 -135.5 -46.5t-63.5 -129.5l4 -6q16 19 86 19h207q63 0 78 -17l4 4q-4 86 -52 131t-128 45z" />
    <glyph glyph-name="uni0452" unicode="&#x452;" horiz-adv-x="1165" 
d="M1069 592v-592v-16q0 -394 -428 -394h-94v285h84q129 0 129 141v23h2v467q0 108 -41.5 154.5t-120.5 46.5q-87 0 -140.5 -60t-53.5 -190v-457h-310v1083q0 34 10 54l-2 2q-18 -9 -57 -9h-65v179h65q39 0 57 -9l2 3q-10 20 -10 53v108h310v-108q0 -31 -11 -53l2 -3
q18 9 58 9h256v-179h-256q-40 0 -58 9l-2 -2q11 -22 11 -54v-55q0 -169 -23 -293l8 -4q48 118 127 182t209 64q161 0 251.5 -98t90.5 -287z" />
    <glyph glyph-name="uni0453" unicode="&#x453;" horiz-adv-x="794" 
d="M913 1346l2 -9l-344 -307h-213l-2 8l230 308h327zM104 0v946h680v-268h-321q-41 0 -57 8l-3 -2q11 -22 11 -53v-631h-310z" />
    <glyph glyph-name="uni0454" unicode="&#x454;" horiz-adv-x="942" 
d="M565 -31q-230 0 -367 132.5t-137 371.5t137 371.5t367 132.5q187 0 355 -84l-109 -231q-109 57 -225 57q-166 0 -203 -125q-3 -4 -8 -16.5t-8 -16.5l2 -4q21 8 61 8h238v-184h-238q-40 0 -61 8l-2 -4q3 -4 8 -16.5t8 -16.5q37 -125 203 -125q114 0 225 58l109 -232
q-168 -84 -355 -84z" />
    <glyph glyph-name="uni0455" unicode="&#x455;" horiz-adv-x="876" 
d="M432 -31q-232 0 -420 99l115 243q159 -100 326 -100q49 0 70.5 10t21.5 35q0 5 -1 10t-3.5 9t-4 7t-6.5 6t-7.5 5t-9.5 5t-9.5 4t-11 4.5t-11.5 4.5l-170 70q-223 88 -223 293q0 140 101.5 221.5t293.5 81.5q162 0 342 -62l-88 -239q-145 65 -270 65q-82 0 -82 -41
q0 -16 11.5 -28t24.5 -18t44 -19l158 -62q111 -45 166 -109t55 -175q0 -157 -110.5 -238.5t-301.5 -81.5z" />
    <glyph glyph-name="uni0456" unicode="&#x456;" horiz-adv-x="518" 
d="M426 1434v-344h-334v344h334zM414 946v-946h-310v946h310z" />
    <glyph glyph-name="uni0457" unicode="&#x457;" horiz-adv-x="643" 
d="M229 1331v-297h-225v297h225zM610 1331v-297h-225v297h225zM414 946v-946h-310v946h310z" />
    <glyph glyph-name="uni0458" unicode="&#x458;" horiz-adv-x="518" 
d="M426 1434v-344h-334v344h334zM414 946v-975q0 -411 -432 -411h-29v284h18q133 0 133 146v956h310z" />
    <glyph glyph-name="uni0459" unicode="&#x459;" horiz-adv-x="1619" 
d="M1233 688q173 0 274 -86t101 -258q0 -171 -101 -257.5t-274 -86.5h-488v631q0 31 11 53l-2 2q-16 -8 -58 -8h-139q-41 0 -57 8l-2 -2q10 -20 10 -53v-117v-145q0 -369 -367 -369h-131v268h84q57 0 81 26.5t24 100.5v119v432h854v-211q0 -31 -11 -53l2 -2q16 8 58 8h131z
M1178 238q53 0 82.5 27t29.5 79t-29.5 80.5t-82.5 28.5h-76q-42 0 -58 8l-2 -2q11 -22 11 -53v-121q0 -32 -11 -54l2 -2q18 9 58 9h76z" />
    <glyph glyph-name="uni045A" unicode="&#x45a;" horiz-adv-x="1607" 
d="M104 0v946h310v-229q0 -31 -11 -53l3 -2q16 8 57 8h219q41 0 57 -8l2 2q-10 20 -10 53v229h309v-229q0 -33 -10 -53l2 -2q16 8 58 8h131q374 0 374 -334q0 -167 -101 -251.5t-273 -84.5h-490v365q0 33 10 53l-2 2q-16 -8 -57 -8h-219q-41 0 -57 8l-3 -2q11 -22 11 -53
v-365h-310zM1032 229q18 9 58 9h67q60 0 90.5 22.5t30.5 75.5t-30.5 75.5t-90.5 22.5h-67q-42 0 -58 8l-2 -2q10 -20 10 -53v-102q0 -34 -10 -54z" />
    <glyph glyph-name="uni045B" unicode="&#x45b;" horiz-adv-x="1165" 
d="M727 977q161 0 251.5 -98t90.5 -287v-592h-307v506q0 108 -41.5 154.5t-120.5 46.5q-87 0 -140.5 -60t-53.5 -190v-457h-310v1083q0 34 10 54l-2 2q-18 -9 -57 -9h-65v179h65q39 0 57 -9l2 3q-10 20 -10 53v108h310v-108q0 -31 -11 -53l2 -3q18 9 58 9h256v-179h-256
q-40 0 -58 9l-2 -2q11 -22 11 -54v-55q0 -169 -23 -293l8 -4q48 118 127 182t209 64z" />
    <glyph glyph-name="uni045C" unicode="&#x45c;" horiz-adv-x="1071" 
d="M999 1346l2 -9l-344 -307h-213l-2 8l230 308h327zM860 -6q-83 0 -127.5 31t-64.5 92l-47 145q-18 61 -41 87t-66 26h-45q-47 0 -63 4l-3 -2q11 -42 11 -86v-291h-310v946h310v-254q0 -40 -11 -82l3 -2q16 4 63 4h45q40 0 65 22t44 73l59 133q25 59 70.5 85.5t121.5 26.5
h166v-239h-18q-82 0 -109 -47l-30 -68q-20 -53 -63 -76t-148 -24v-9q103 -1 147 -28t66 -86l33 -84q21 -34 39 -46t51 -12h26v-239h-174z" />
    <glyph glyph-name="uni045E" unicode="&#x45e;" horiz-adv-x="1099" 
d="M889 1360q0 -148 -96 -240t-242 -92q-145 0 -240.5 92.5t-95.5 239.5h193q8 -141 143 -141t143 141h195zM1098 946l-604 -1356h-310l222 484l-404 872h332l158 -371q26 -63 37.5 -111.5t15.5 -121.5l8 2q6 92 43 180l170 422h332z" />
    <glyph glyph-name="uni045F" unicode="&#x45f;" horiz-adv-x="1165" 
d="M444 -287v240q0 31 11 53l-2 2q-16 -8 -58 -8h-291v946h310v-620q0 -32 -11 -54l3 -2q18 9 57 9h239q40 0 58 -9l2 2q-10 20 -10 54v620h309v-946h-291q-41 0 -57 8l-2 -2q10 -20 10 -53v-240h-277z" />
    <glyph glyph-name="uni0462" unicode="&#x462;" horiz-adv-x="1355" 
d="M834 918q235 0 367 -120.5t132 -334.5q0 -218 -132 -340.5t-367 -122.5h-590v983q0 44 10 61l-4 5q-17 -11 -57 -11h-203v242h203q42 0 57 -10l4 4q-10 17 -10 63v97h317v-97q0 -46 -10 -63l4 -4q15 10 57 10h355v-242h-355q-40 0 -57 11l-4 -5q10 -17 10 -61v-14
q0 -41 -10 -58l4 -4q17 11 57 11h222zM791 279q109 0 166 47.5t57 136.5q0 83 -58 128.5t-165 45.5h-179q-42 0 -57 10l-4 -4q10 -17 10 -61v-246q0 -47 -10 -64l4 -4q17 11 57 11h179z" />
    <glyph glyph-name="uni0463" unicode="&#x463;" horiz-adv-x="1034" 
d="M647 688q173 0 274 -86t101 -258q0 -171 -101.5 -257.5t-273.5 -86.5h-510v760v20q0 34 10 54l-2 2q-18 -9 -57 -9h-106v220h106q39 0 57 -9l2 2q-10 20 -10 54v370h309v-370q0 -34 -10 -54l2 -2q18 9 58 9h297v-220h-297q-40 0 -58 9l-2 -2q10 -20 10 -54v-45
q0 -33 -10 -53l2 -2q16 8 58 8h151zM590 238q55 0 85 27t30 79t-30.5 80.5t-84.5 28.5h-94q-42 0 -58 8l-2 -2q10 -20 10 -53v-121q0 -34 -10 -54l2 -2q18 9 58 9h94z" />
    <glyph glyph-name="uni0472" unicode="&#x472;" horiz-adv-x="1615" 
d="M809 1464q162 0 302 -56t239.5 -154.5t156 -237.5t56.5 -299q0 -214 -96.5 -385t-269 -267t-388.5 -96q-217 0 -390 96t-269.5 267t-96.5 385q0 161 56.5 299.5t156 237t240 154.5t303.5 56zM1233 827l4 7q-17 34 -27 61q-40 128 -145.5 199t-255.5 71q-151 0 -257 -70.5
t-146 -199.5q-10 -27 -27 -61l4 -7q25 11 78 11h694q53 0 78 -11zM1210 539q10 27 27 61l-4 6q-23 -10 -78 -10h-694q-55 0 -78 10l-4 -6q17 -34 27 -61q40 -129 146 -200t257 -71q150 0 255.5 71t145.5 200z" />
    <glyph glyph-name="uni0473" unicode="&#x473;" horiz-adv-x="1165" 
d="M584 977q231 0 380.5 -139.5t149.5 -364.5t-149.5 -364.5t-380.5 -139.5q-233 0 -383 139.5t-150 364.5t150 364.5t383 139.5zM807 518l4 4q-6 87 -70 138t-157 51t-158 -51t-72 -138l4 -4q17 17 82 17h285q67 0 82 -17zM584 236q93 0 157 50.5t70 137.5l-4 4
q-14 -16 -82 -16h-285q-66 0 -82 16l-4 -4q7 -87 72 -137.5t158 -50.5z" />
    <glyph glyph-name="uni0474" unicode="&#x474;" horiz-adv-x="1394" 
d="M1296 1454q54 0 119 -6v-293q-30 6 -67 6q-57 0 -90.5 -27.5t-67.5 -101.5l-467 -1046h-61l-662 1448h375l254 -678q4 -10 12.5 -33t11.5 -30t9 -24t7.5 -23.5t5.5 -19.5t5.5 -22t3.5 -20.5t4 -24.5h8q3 20 7 38.5t11 40.5t12 35t16 42.5t16 42.5l162 413
q64 161 145.5 222t230.5 61z" />
    <glyph glyph-name="uni0475" unicode="&#x475;" horiz-adv-x="1075" 
d="M1036 965h47v-285h-39q-83 0 -114 -64l-326 -636h-110l-492 966h342l148 -354q19 -41 26.5 -59t15.5 -50t11 -69h8q4 37 12.5 69.5t15.5 50.5t25 58l74 162q50 108 135 159.5t221 51.5z" />
    <glyph glyph-name="uni048E" unicode="&#x48e;" horiz-adv-x="1196" 
d="M1174 991q0 -252 -181 -366l92 -131l-104 -72l-107 151q-93 -26 -192 -26h-178q-43 0 -58 10l-4 -4q11 -18 11 -61v-492h-318v1434h531q242 0 375 -116t133 -327zM676 819q16 0 24 2l-104 148l104 71l117 -168q43 49 43 119q0 78 -49.5 124t-134.5 46h-172q-43 0 -58 10
l-4 -4q11 -18 11 -61v-229q0 -46 -11 -64l4 -4q15 10 58 10h172z" />
    <glyph glyph-name="uni048F" unicode="&#x48f;" horiz-adv-x="1230" 
d="M1180 471q0 -136 -44 -242t-124 -172l82 -98l-90 -78l-97 117q-79 -29 -162 -29q-121 0 -212 62t-136 184l-8 -2q19 -117 19 -184v-439h-304v1356h306q0 -122 -23 -213l8 -2q106 246 348 246q193 0 315 -138t122 -368zM631 246q33 0 67 6l-98 119l90 78l113 -138
q59 62 59 162q0 105 -63.5 166t-167.5 61q-105 0 -168.5 -61.5t-63.5 -165.5t63.5 -165.5t168.5 -61.5z" />
    <glyph glyph-name="uni0490" unicode="&#x490;" horiz-adv-x="1050" 
d="M741 1720h297v-575h-534q-41 0 -58 10l-4 -4q11 -18 11 -61v-1090h-318v1434h555q40 0 58 -11l4 4q-11 18 -11 64v229z" />
    <glyph glyph-name="uni0491" unicode="&#x491;" horiz-adv-x="866" 
d="M545 1233h309v-555h-391q-41 0 -57 8l-3 -2q11 -22 11 -53v-631h-310v946h392q41 0 57 -8l2 2q-10 20 -10 53v240z" />
    <glyph glyph-name="uni0492" unicode="&#x492;" horiz-adv-x="1128" 
d="M610 1145q-38 0 -55 10l-4 -4q8 -20 8 -61v-216q0 -41 -8 -61l4 -4q17 10 55 10h377v-280h-377q-38 0 -55 10l-4 -4q8 -20 8 -62v-483h-317v483q0 45 10 62l-4 4q-17 -10 -58 -10h-180v280h180q41 0 58 -10l4 4q-10 17 -10 61v560h874v-289h-506z" />
    <glyph glyph-name="uni0493" unicode="&#x493;" horiz-adv-x="864" 
d="M532 678q-41 0 -57 8l-2 -2q10 -20 10 -53v-66q0 -33 -10 -53l2 -2q16 8 57 8h259v-242h-259q-39 0 -57 9l-2 -2q10 -20 10 -54v-229h-309v229q0 34 10 54l-2 2q-18 -9 -57 -9h-102v242h102q41 0 57 -8l2 2q-10 20 -10 53v381h680v-268h-322z" />
    <glyph glyph-name="uni0494" unicode="&#x494;" horiz-adv-x="1417" 
d="M866 893q201 0 319 -112t118 -316v-457q0 -222 -113.5 -320t-327.5 -98h-149v297h112q86 0 123 39t37 133v361q0 87 -51.5 130.5t-142.5 43.5q-156 0 -338 -53v-541h-318v1434h946v-289h-577q-41 0 -58 10l-4 -4q11 -18 11 -61v-138q0 -79 -19 -125l4 -4q200 70 428 70z
" />
    <glyph glyph-name="uni0495" unicode="&#x495;" horiz-adv-x="1103" 
d="M543 -410v279h86q60 0 87 38t27 116v86q0 147 -147 147q-74 0 -182 -41v-215h-310v946h752v-260h-393q-36 0 -57 8l-3 -2q11 -22 11 -53v-82q0 -58 -19 -98l4 -4q151 80 291 80q174 0 267.5 -97.5t93.5 -314.5v-100q0 -215 -105.5 -324t-283.5 -109h-119z" />
    <glyph glyph-name="uni0496" unicode="&#x496;" horiz-adv-x="2211" 
d="M2019 227h191v-514h-297v277q-14 -2 -37 -2q-145 0 -224 54.5t-108 176.5l-55 238q-20 96 -58.5 130t-123.5 34h-82q-41 0 -58 10l-4 -4q11 -22 11 -66v-561h-304v561q0 44 11 66l-4 4q-17 -10 -58 -10h-82q-85 0 -123.5 -34t-58.5 -130l-55 -238q-29 -122 -108.5 -176.5
t-225.5 -54.5q-62 0 -143 8v303q75 -6 83 -6q51 0 78 25t41 98l33 141q24 109 101 146t262 42v9q-185 3 -255 33t-94 126l-43 168q-19 78 -104 78q-39 0 -82 -4v283q73 8 137 8q133 0 206 -43t106 -152l63 -213q24 -94 61.5 -130t120.5 -36h82q41 0 58 -10l4 4
q-11 22 -11 66v502h304v-502q0 -44 -11 -66l4 -4q17 10 58 10h82q83 0 120.5 36t61.5 130l63 213q31 109 105 152t207 43q64 0 137 -8v-283q-43 4 -82 4q-85 0 -104 -78l-43 -168q-24 -96 -93.5 -126t-255.5 -33v-9q186 -5 262.5 -42t100.5 -146l31 -141q16 -73 43 -98
t77 -25q13 0 82 6v-72z" />
    <glyph glyph-name="uni0497" unicode="&#x497;" horiz-adv-x="1644" 
d="M1499 152h135v-439h-276v281h-33q-149 0 -192 123l-48 145q-17 63 -35 88t-61 25h-31q-43 0 -63 4l-2 -2q10 -38 10 -86v-291h-270v291q0 48 10 86l-2 2q-16 -4 -63 -4h-31q-41 0 -58.5 -24t-37.5 -89l-48 -145q-43 -123 -190 -123h-176v239h26q32 0 48.5 12t35.5 46
l33 84q24 60 68 86.5t151 27.5v9q-74 1 -118 13t-64 31.5t-35 55.5l-30 68q-31 47 -84 47h-35v239h166q74 0 120 -26.5t70 -85.5l60 -133q20 -54 39.5 -74.5t58.5 -20.5h31q47 0 63 -4l2 2q-10 38 -10 82v254h270v-254q0 -44 -10 -82l2 -2q20 4 63 4h31q39 0 60 21t41 74
l59 133q23 59 68.5 85.5t121.5 26.5h166v-239h-37q-53 0 -84 -47l-30 -68q-15 -36 -35 -55.5t-64 -31.5t-118 -13v-9q108 -1 151.5 -27.5t67.5 -86.5l33 -84q19 -34 35.5 -46t48.5 -12h26v-81z" />
    <glyph glyph-name="uni0498" unicode="&#x498;" horiz-adv-x="1204" 
d="M1141 389q0 -195 -126 -301.5t-372 -116.5l-16 -43q188 -28 188 -145q0 -22 -6 -41.5t-20.5 -37t-29 -32t-41 -30t-45.5 -26t-54 -25.5t-56 -23t-61 -23.5t-60 -23.5l-43 96q96 49 132 74.5t36 48.5q0 45 -100 63l59 166q-268 12 -485 117l121 266q213 -86 411 -86
q252 0 252 158q0 164 -299 164h-194v293h198q114 0 173 38.5t59 112.5q0 135 -211 135q-166 0 -361 -65l-98 287q263 75 481 75q253 0 381.5 -93.5t128.5 -276.5q0 -122 -58 -195.5t-187 -116.5q-59 -21 -144 -24v-8q60 0 142 -15q158 -31 231.5 -114.5t73.5 -231.5z" />
    <glyph glyph-name="uni0499" unicode="&#x499;" horiz-adv-x="950" 
d="M897 252q0 -131 -90.5 -201t-278.5 -80l-16 -43q188 -28 188 -145q0 -22 -6 -41.5t-20.5 -37t-29 -32t-40.5 -30t-45 -26t-54 -25.5t-56 -23t-61 -23.5t-60 -23.5l-43 96q96 49 132 74.5t36 48.5q0 44 -101 63l60 166q-228 10 -400 80l99 230q163 -70 315 -70
q95 0 135.5 22t40.5 66q0 76 -133 76h-141v217h125q106 0 106 72q0 75 -151 75q-138 0 -293 -61l-88 231q229 70 426 70q100 0 173 -12.5t128 -41t82.5 -78.5t27.5 -122q0 -206 -250 -223v-8q134 -6 208.5 -65t74.5 -175z" />
    <glyph glyph-name="uni049A" unicode="&#x49a;" horiz-adv-x="1507" 
d="M1325 227h180v-514h-297v275h-43q-282 0 -325 215l-52 250q-17 89 -59.5 128.5t-120.5 39.5h-104q-43 0 -58 10l-4 -4q11 -22 11 -66v-561h-318v1434h318v-504q0 -44 -11 -66l4 -4q15 10 58 10h104q72 0 114 40.5t64 131.5l56 209q25 103 97.5 149t207.5 46q93 0 156 -8
v-287q-31 4 -82 4q-43 0 -66.5 -18t-34.5 -58l-47 -166q-17 -65 -51.5 -98t-101.5 -47t-195 -16v-9q195 -3 272 -43t97 -147l30 -133q14 -72 38.5 -98.5t78.5 -26.5q15 0 84 6v-74z" />
    <glyph glyph-name="uni049B" unicode="&#x49b;" horiz-adv-x="1181" 
d="M1034 152h135v-439h-276v281h-33q-83 0 -127.5 31t-64.5 92l-47 145q-18 61 -41 87t-66 26h-45q-47 0 -63 4l-3 -2q11 -42 11 -86v-291h-310v946h310v-254q0 -40 -11 -82l3 -2q16 4 63 4h45q40 0 65 22t44 73l59 133q25 59 70.5 85.5t121.5 26.5h166v-239h-18
q-82 0 -109 -47l-30 -68q-20 -53 -63 -76t-148 -24v-9q103 -1 147 -28t66 -86l33 -84q21 -34 39 -46t51 -12h26v-81z" />
    <glyph glyph-name="uni049C" unicode="&#x49c;" horiz-adv-x="1347" 
d="M1241 295q15 0 84 6v-305q-99 -8 -160 -8q-282 0 -325 215l-52 250q-14 75 -46 114.5t-89 48.5v-264h-121v269h-28q-43 0 -58 10l-4 -4q11 -22 11 -66v-561h-318v1434h318v-504q0 -44 -11 -66l4 -4q15 10 58 10h28v287h121v-283q52 12 83 52t50 116l56 209
q25 103 97.5 149t207.5 46q93 0 156 -8v-287q-31 4 -82 4q-43 0 -66.5 -18t-34.5 -58l-47 -166q-17 -65 -51.5 -98t-101.5 -47t-195 -16v-9q195 -3 272 -43t97 -147l30 -133q14 -72 38.5 -98.5t78.5 -26.5z" />
    <glyph glyph-name="uni049D" unicode="&#x49d;" horiz-adv-x="1071" 
d="M883 598q-20 -53 -63 -76t-148 -24v-9q103 -1 147 -28t66 -86l33 -84q21 -34 39 -46t51 -12h26v-239h-174q-83 0 -127.5 31t-64.5 92l-47 145q-16 56 -36.5 82t-56.5 29v-191h-61v193q-45 0 -61 4l-3 -2q11 -42 11 -86v-291h-310v946h310v-254q0 -40 -11 -82l3 -2
q16 4 61 4v185h61v-185q34 4 55.5 26.5t39.5 68.5l59 133q25 59 70.5 85.5t121.5 26.5h166v-239h-18q-82 0 -109 -47z" />
    <glyph glyph-name="uni049E" unicode="&#x49e;" horiz-adv-x="1458" 
d="M1352 295q15 0 84 6v-305q-91 -8 -162 -8q-134 0 -218.5 53t-107.5 162l-49 250q-19 86 -62 119.5t-118 33.5h-105q-40 0 -57 10l-4 -4q10 -20 10 -65v-547h-317v985q0 45 10 62l-4 4q-18 -9 -57 -9h-185v240h185q37 0 57 -10l4 4q-10 17 -10 61v97h317v-97
q0 -44 -10 -61l4 -4q17 10 57 10h197v-240h-197q-42 0 -57 9l-4 -4q10 -17 10 -62v-41q0 -45 -10 -65l4 -5q18 11 57 11h105q71 0 113 36.5t65 120.5l53 209q26 103 98.5 149t208.5 46q77 0 156 -8v-287q-43 4 -82 4q-41 0 -65.5 -17.5t-34.5 -58.5l-47 -166
q-26 -98 -94 -128t-254 -33v-9q188 -3 267.5 -41.5t100.5 -148.5l31 -133q13 -74 39.5 -99.5t77.5 -25.5z" />
    <glyph glyph-name="uni049F" unicode="&#x49f;" horiz-adv-x="1122" 
d="M934 598q-20 -53 -63 -76t-148 -24v-9q103 -1 147 -28t66 -86l33 -84q21 -34 39 -46t51 -12h26v-239h-174q-83 0 -127.5 31t-64.5 92l-47 145q-18 61 -41 87t-66 26h-45q-47 0 -63 4l-2 -2q10 -38 10 -86v-291h-309v946v137q0 34 10 54l-2 2q-18 -9 -58 -9h-124v179h124
q40 0 58 -9l2 3q-10 20 -10 53v108h309v-108q0 -33 -10 -53l2 -3q18 9 57 9h279v-179h-279q-39 0 -57 9l-2 -2q10 -20 10 -54v-137v-254q0 -44 -10 -82l2 -2q16 4 63 4h45q40 0 65 22t44 73l59 133q24 59 70.5 85.5t122.5 26.5h166v-239h-19q-81 0 -108 -47z" />
    <glyph glyph-name="uni04A0" unicode="&#x4a0;" horiz-adv-x="1579" 
d="M1473 295q14 0 83 6v-305q-93 -8 -161 -8q-134 0 -218.5 53t-107.5 162l-51 250q-18 86 -60 119.5t-118 33.5h-107q-40 0 -57 10l-4 -4q10 -20 10 -65v-547h-317v1090q0 44 10 61l-4 4q-17 -10 -58 -10h-303v289h672v-490q0 -45 -10 -65l4 -5q18 11 57 11h107
q71 0 112.5 36.5t63.5 120.5l55 209q28 103 104.5 149t219.5 46q68 0 139 -8v-287q-43 4 -82 4q-42 0 -66 -17t-34 -59l-49 -166q-26 -97 -96 -127.5t-253 -33.5v-9q191 -3 269.5 -41t99.5 -149l31 -133q14 -75 40.5 -100t78.5 -25z" />
    <glyph glyph-name="uni04A1" unicode="&#x4a1;" horiz-adv-x="1243" 
d="M1079 598q-23 -53 -71 -76t-166 -24v-9q117 -1 165 -27.5t74 -86.5l33 -84q14 -34 27 -46t37 -12h28v-239h-176q-151 0 -190 123l-49 145q-16 55 -39 79t-66 24h-45q-47 0 -63 4l-3 -2q11 -42 11 -86v-281h-310v631q0 31 11 53l-2 2q-16 -8 -58 -8h-217v268h576v-244
q0 -39 -11 -81l3 -3q20 5 63 5h45q41 0 65.5 19.5t43.5 64.5l59 133q24 59 70 85.5t120 26.5h166v-239h-16q-63 0 -84 -47z" />
    <glyph glyph-name="uni04A2" unicode="&#x4a2;" horiz-adv-x="1556" 
d="M1374 227h178v-514h-297v287h-198v557q0 44 10 61l-4 5q-22 -11 -57 -11h-502q-40 0 -58 11l-4 -5q11 -18 11 -61v-557h-318v1434h318v-476q0 -45 -11 -63l4 -4q17 10 58 10h502q37 0 57 -10l4 4q-10 17 -10 63v476h317v-1207z" />
    <glyph glyph-name="uni04A3" unicode="&#x4a3;" horiz-adv-x="1208" 
d="M1065 152h131v-439h-276v287h-164v324q0 33 10 53l-2 2q-16 -8 -57 -8h-244q-41 0 -57 8l-3 -2q11 -22 11 -53v-324h-310v946h310v-260q0 -31 -11 -53l3 -2q16 8 57 8h244q41 0 57 -8l2 2q-10 20 -10 53v260h309v-794z" />
    <glyph glyph-name="uni04A4" unicode="&#x4a4;" horiz-adv-x="1896" 
d="M1016 1434h870v-289h-502q-38 0 -55 10l-4 -4q8 -13 8 -64v-1087h-317v557q0 44 10 61l-4 5q-18 -11 -55 -11h-463q-36 0 -58 11l-4 -5q11 -18 11 -61v-557h-318v1434h318v-476q0 -45 -11 -63l4 -4q20 10 58 10h463q38 0 55 -10l4 4q-10 17 -10 63v476z" />
    <glyph glyph-name="uni04A5" unicode="&#x4a5;" horiz-adv-x="1392" 
d="M733 946h649v-260h-290q-42 0 -58 8l-2 -2q10 -20 10 -53v-639h-309v334q0 33 10 53l-2 2q-16 -8 -57 -8h-221q-41 0 -57 8l-3 -2q11 -22 11 -53v-334h-310v946h310v-260q0 -31 -11 -53l3 -2q16 8 57 8h221q41 0 57 -8l2 2q-10 20 -10 53v260z" />
    <glyph glyph-name="uni04A6" unicode="&#x4a6;" horiz-adv-x="2230" 
d="M1780 893q201 0 319.5 -102t118.5 -287v-109q0 -214 -108.5 -304.5t-317.5 -90.5h-152v297h95q90 0 128 29t38 100v33q0 66 -53.5 100.5t-143.5 34.5q-158 0 -340 -53v-541h-317v1090q0 44 10 61l-4 4q-20 -10 -58 -10h-491q-41 0 -58 10l-4 -4q11 -18 11 -61v-1090h-318
v1434h1229v-482q0 -82 -18 -125l4 -4q200 70 430 70z" />
    <glyph glyph-name="uni04A7" unicode="&#x4a7;" horiz-adv-x="1738" 
d="M1346 643q174 0 268 -97.5t94 -314.5v-208q0 -215 -106.5 -324t-284.5 -109h-119v279h88q59 0 86 38t27 116v192q0 150 -146 150q-76 0 -184 -43v-322h-307v604v27q0 33 10 53l-2 2q-16 -8 -57 -8h-250q-41 0 -57 8l-3 -2q11 -22 11 -53v-631h-310v946h965v-280
q0 -68 -16 -99l4 -4q147 80 289 80z" />
    <glyph glyph-name="uni04A8" unicode="&#x4a8;" horiz-adv-x="1701" 
d="M764 -31q-204 0 -361 94.5t-243 266t-86 393.5q0 344 211.5 542.5t576.5 198.5q121 0 223 -22l-69 -279q-49 11 -125 11q-230 0 -349.5 -117.5t-119.5 -343.5q0 -172 69 -289.5t197 -163.5q56 -20 129 -35l2 4q-56 34 -88 86q-37 62 -58.5 144.5t-21.5 161.5
q0 199 121.5 320.5t321.5 121.5q194 0 309 -117t115 -315q0 -189 -101 -330q-24 -33 -44 -49.5t-50 -28.5v-4q37 4 72 4q71 1 117 10.5t108 34.5l72 -235q-150 -64 -324 -64q-103 0 -183 24.5t-95 61.5h-5q-114 -86 -321 -86zM1061 279h4q36 32 82 102q32 41 51 106t19 131
q0 156 -123 156q-129 0 -129 -174q0 -135 57 -217q3 -5 11 -17.5t12.5 -19.5t11 -21.5t6 -22.5t-1.5 -23z" />
    <glyph glyph-name="uni04A9" unicode="&#x4a9;" horiz-adv-x="1239" 
d="M582 -31q-238 0 -384.5 139t-146.5 377q0 125 44 220.5t123 154t183 88t230 29.5q101 0 227 -21l-51 -233q-67 12 -131 12q-320 0 -320 -270q0 -174 146 -256q21 -14 69 -23l2 4q-30 17 -45 56q-26 53 -26 135q0 143 94.5 221t241.5 78q140 0 224.5 -72.5t84.5 -208.5
q0 -107 -45 -174q-38 -54 -94 -75l2 -5q35 2 69 9q42 8 95 34l55 -172q-110 -47 -213 -47q-67 0 -117 15.5t-61 44.5h-4q-37 -26 -104 -43t-148 -17zM795 195h4q123 65 123 174q0 46 -22.5 75t-63.5 29q-40 0 -66.5 -31t-26.5 -88t35 -104q17 -27 17 -55z" />
    <glyph glyph-name="uni04AA" unicode="&#x4aa;" horiz-adv-x="1392" 
d="M1352 129q-209 -147 -486 -160l-16 -41q188 -28 188 -145q0 -22 -6 -41.5t-20.5 -37t-29 -32t-40.5 -30t-45 -26t-54 -25.5t-56 -23t-61 -23.5t-60 -23.5l-43 96q96 49 132 74.5t36 48.5q0 44 -101 63l62 168q-311 26 -505 232t-194 514q0 216 98 386t275.5 265.5
t402.5 95.5q294 0 523 -159l-162 -258q-171 110 -354 110q-200 0 -324.5 -122t-124.5 -318q0 -195 125 -318t324 -123q181 0 354 111z" />
    <glyph glyph-name="uni04AB" unicode="&#x4ab;" horiz-adv-x="944" 
d="M920 61q-140 -83 -304 -92l-16 -41q188 -28 188 -145q0 -22 -6 -41.5t-20.5 -37t-29 -32t-40.5 -30t-45 -26t-54 -25.5t-56 -23t-61 -23.5t-60 -23.5l-43 96q96 49 132 74.5t36 48.5q0 44 -101 63l62 170q-202 23 -326.5 160t-124.5 340q0 223 147 363.5t380 140.5
q187 0 342 -92l-125 -248q-92 57 -203 57q-101 0 -165.5 -61.5t-64.5 -159.5q0 -97 64.5 -159t165.5 -62q111 0 203 57z" />
    <glyph glyph-name="uni04AC" unicode="&#x4ac;" horiz-adv-x="1110" 
d="M764 1145q-36 0 -53 10l-4 -4q6 -15 6 -61v-863h190v-514h-297v287h-211v1090q0 41 8 61l-4 4q-17 -10 -53 -10h-336v289h1088v-289h-334z" />
    <glyph glyph-name="uni04AD" unicode="&#x4ad;" horiz-adv-x="935" 
d="M672 678q-42 0 -58 8l-2 -2q11 -22 11 -53v-479h141v-439h-277v287h-174v631q0 31 11 53l-2 2q-16 -8 -58 -8h-254v268h916v-268h-254z" />
    <glyph glyph-name="uni04AE" unicode="&#x4ae;" horiz-adv-x="1374" 
d="M1364 1434l-518 -926v-508h-318v508l-518 926h377l221 -465q7 -14 19 -38.5t16 -33.5t11.5 -25.5t10.5 -24.5t7.5 -21t7.5 -24.5t6 -25.5h4q3 14 5 25t7 25l7.5 21t10.5 25t11.5 25t16 33.5t18.5 38.5l221 465h377z" />
    <glyph glyph-name="uni04AF" unicode="&#x4af;" horiz-adv-x="1099" 
d="M1098 946l-402 -788v-568h-309v603l-385 753h342l150 -354q3 -7 11.5 -26.5t11 -25.5t8.5 -22t8.5 -24.5t6 -22.5t5.5 -27.5t4 -29.5h4q4 36 12 66.5t16 49.5t27 62l150 354h340z" />
    <glyph glyph-name="uni04B0" unicode="&#x4b0;" horiz-adv-x="1374" 
d="M850 504q17 10 57 10h180v-240h-190q-39 0 -57 11l-4 -4q10 -17 10 -62v-219h-318v219q0 44 11 62l-4 4q-18 -11 -58 -11h-190v240h180q40 0 57 -10l4 4l-518 926h377l221 -465q55 -116 68 -159q4 -16 8 -34h8q6 32 17 63.5t19.5 50.5t37.5 79l221 465h377l-518 -926z
" />
    <glyph glyph-name="uni04B1" unicode="&#x4b1;" horiz-adv-x="1140" 
d="M719 154q16 8 57 8h170v-271h-172q-39 0 -57 9l-2 -2q10 -20 10 -54v-254h-309v254q0 34 10 54l-2 2q-18 -9 -57 -9h-172v271h172q41 0 57 -8l2 2l-403 790h342l149 -354q20 -46 26.5 -62.5t15 -48t13.5 -67.5h4q4 36 12.5 67.5t15.5 48.5t28 62l149 354h340l-401 -790z
" />
    <glyph glyph-name="uni04B2" unicode="&#x4b2;" horiz-adv-x="1556" 
d="M1329 227h225v-514h-299v287h-168l-278 422q-50 73 -61 137h-9q-10 -60 -57 -137l-268 -422h-404l455 655q67 95 90 111v8q-28 20 -92 109l-400 551h404l223 -340q57 -88 64 -138h8q7 52 63 138l209 340h406l-404 -564q-59 -88 -90 -112v-6q5 -3 9.5 -7.5t11 -11.5
t10.5 -12t12.5 -16.5t13 -17.5t15.5 -21.5t16 -22.5z" />
    <glyph glyph-name="uni04B3" unicode="&#x4b3;" horiz-adv-x="1208" 
d="M1036 152h162v-439h-278v287h-134l-155 213q-39 54 -47 131h-9q-13 -76 -51 -131l-149 -213h-365l330 438q28 41 57 58v6q-37 26 -53 51l-299 393h367l110 -162q48 -67 58 -133h8q10 65 55 133l109 162h366l-299 -395q-26 -36 -55 -51v-6q27 -14 57 -58z" />
    <glyph glyph-name="uni04B4" unicode="&#x4b4;" horiz-adv-x="1830" 
d="M1665 289h131v-576h-297v230q0 46 10 63l-4 4q-17 -10 -57 -10h-1030v1087q0 40 8 60l-4 4q-17 -10 -55 -10h-357v293h1069v-293h-293q-35 0 -55 10l-4 -4q8 -20 8 -60v-743q0 -44 -10 -61l4 -4q20 10 57 10h459q41 0 58 -10l4 4q-11 18 -11 61v1090h318v-1090
q0 -44 -10 -61l4 -4q17 10 57 10z" />
    <glyph glyph-name="uni04B5" unicode="&#x4b5;" horiz-adv-x="1419" 
d="M1294 268h95v-555h-279v240q0 33 10 53l-2 2q-16 -8 -57 -8h-774v621q0 33 10 53l-2 2q-16 -8 -57 -8h-228v278h785v-278h-152q-41 0 -57 8l-2 -2q10 -20 10 -53v-306q0 -33 -10 -53l2 -2q16 8 57 8h246q41 0 57 -8l2 2q-10 20 -10 53v631h307v-631q0 -33 -10 -53l2 -2
q16 8 57 8z" />
    <glyph glyph-name="uni04B6" unicode="&#x4b6;" horiz-adv-x="1376" 
d="M1184 227h188v-514h-297v287h-209v461q0 67 17 127l-4 4q-176 -72 -392 -72q-222 0 -348.5 133t-126.5 365v416h318v-371q0 -115 61.5 -178.5t171.5 -63.5q141 0 303 51v562h318v-1207z" />
    <glyph glyph-name="uni04B7" unicode="&#x4b7;" horiz-adv-x="1114" 
d="M961 152h141v-439h-277v287h-174v283q0 58 19 98l-4 4q-151 -80 -291 -80q-176 0 -270.5 97.5t-94.5 314.5v229h309v-215q0 -147 148 -147q76 0 184 41v321h310v-719v-75z" />
    <glyph glyph-name="uni04B8" unicode="&#x4b8;" horiz-adv-x="1318" 
d="M866 1434h318v-1434h-318v461q0 67 17 127l-4 4q-86 -37 -213 -57v-216h-121v203q-9 0 -29 -1t-29 -1q-222 0 -348.5 133t-126.5 365v416h318v-371q0 -110 56 -174t159 -68v303h121v-297q98 12 200 45v562z" />
    <glyph glyph-name="uni04B9" unicode="&#x4b9;" horiz-adv-x="1064" 
d="M651 946h310v-719v-227h-310v283q0 58 19 98l-4 4q-73 -40 -146 -61v-144h-61v131q-41 -6 -84 -6q-176 0 -270.5 97.5t-94.5 314.5v229h309v-215q0 -144 140 -147v202h61v-198q46 7 131 37v321z" />
    <glyph glyph-name="uni04BA" unicode="&#x4ba;" horiz-adv-x="1318" 
d="M453 1434v-461q0 -68 -17 -127l4 -4q174 71 391 71q223 0 349.5 -132.5t126.5 -364.5v-416h-318v371q0 115 -61 178t-172 63q-141 0 -303 -51v-561h-318v1434h318z" />
    <glyph glyph-name="uni04BB" unicode="&#x4bb;" horiz-adv-x="1173" 
d="M414 1464v-436q0 -169 -23 -293l8 -4q50 119 128.5 182.5t207.5 63.5q161 0 251.5 -98t90.5 -287v-592h-307v506q0 108 -41.5 154.5t-120.5 46.5q-88 0 -141 -61t-53 -189v-457h-310v1464h310z" />
    <glyph glyph-name="uni04BC" unicode="&#x4bc;" horiz-adv-x="1935" 
d="M1202 -31q-169 0 -300.5 38t-222 111.5t-148 173t-87.5 230.5q-8 41 -2 62l-4 8q-16 -4 -67 -4q-175 0 -268 84t-93 252q0 91 21 174h272q-18 -71 -18 -127q0 -50 23 -79.5t81 -33.5q16 -3 20.5 -4t12 -4.5t16.5 -11.5l4 4q-2 31 7 67q62 255 248.5 405t473.5 150
q225 0 387.5 -94.5t243 -257.5t80.5 -377v-151h-1024q-56 0 -96 16l-6 -6q9 -14 14.5 -27t11 -31t6.5 -22q89 -238 416 -238q93 0 179 21.5t138 46.5t128 70l149 -275q-262 -170 -596 -170zM772 836q19 14 62 14h620q59 0 82 -14l8 4q-2 6 -5 11.5t-6 14.5t-7 29
q-10 39 -20 67.5t-37 69.5t-62.5 67.5t-98.5 46t-143 19.5q-75 0 -136 -17t-99.5 -42t-68.5 -63t-45.5 -70t-29.5 -72l-2.5 -7.5t-5.5 -18t-10 -35.5z" />
    <glyph glyph-name="uni04BD" unicode="&#x4bd;" horiz-adv-x="1316" 
d="M836 -31q-210 0 -349.5 97.5t-177.5 271.5q-9 36 -2 65l-4 3q-32 -11 -57 -11q-264 0 -264 283q0 54 16 104h192q-12 -47 -12 -102q0 -52 20 -73.5t68 -24.5q10 -1 47 -11l2 4q-2 31 9 74q42 148 168 237t305 89q217 0 343 -131t126 -367v-82h-559q-45 0 -67.5 4.5
t-45.5 20.5l-4 -6l8 -23q42 -168 236 -168q145 0 274 84l102 -235q-174 -103 -374 -103zM590 563q16 19 86 19h207q63 0 78 -17l4 4q-4 86 -53 131t-134 45q-77 0 -129.5 -47t-62.5 -129z" />
    <glyph glyph-name="uni04BE" unicode="&#x4be;" horiz-adv-x="1935" 
d="M858 584q-56 0 -96 16l-6 -6q9 -14 14.5 -27t11 -31t6.5 -22q89 -238 416 -238q93 0 179 21.5t138 46.5t128 70l149 -275q-111 -71 -237 -116l12 -3q-172 -155 -172 -213q0 -21 15.5 -33t39.5 -12q27 0 80 11l27 -191q-133 -18 -146 -18q-107 0 -167 43.5t-60 132.5
q0 56 36.5 112t108.5 123q-64 -6 -133 -6q-169 0 -300.5 38t-222 111.5t-148 173t-87.5 230.5q-8 41 -2 62l-4 8q-16 -4 -67 -4q-175 0 -268 84t-93 252q0 91 21 174h272q-18 -71 -18 -127q0 -50 23 -79.5t81 -33.5q16 -3 20.5 -4t12 -4.5t16.5 -11.5l4 4q-2 31 7 67
q62 255 248.5 405t473.5 150q225 0 387.5 -94.5t243 -257.5t80.5 -377v-151h-1024zM786 901l-2.5 -7.5t-5.5 -18t-10 -35.5l4 -4q19 14 62 14h620q59 0 82 -14l8 4q-2 6 -5 11.5t-6 14.5t-7 29q-10 39 -20 67.5t-37 69.5t-62.5 67.5t-98.5 46t-143 19.5q-75 0 -136 -17
t-99.5 -42t-68.5 -63t-45.5 -70t-29.5 -72z" />
    <glyph glyph-name="uni04BF" unicode="&#x4bf;" horiz-adv-x="1316" 
d="M707 395q-45 0 -67.5 4.5t-45.5 20.5l-4 -6l8 -23q42 -168 236 -168q145 0 274 84l102 -235q-77 -42 -102 -52h2q-172 -155 -172 -213q0 -21 15.5 -33t39.5 -12q23 0 80 11l27 -191q-133 -18 -146 -18q-107 0 -167 43.5t-60 132.5q0 54 34.5 108t102.5 121h-28
q-210 0 -349.5 97.5t-177.5 271.5q-9 36 -2 65l-4 3q-32 -11 -57 -11q-264 0 -264 283q0 54 16 104h192q-12 -47 -12 -102q0 -52 20 -73.5t68 -24.5q10 -1 47 -11l2 4q-2 31 9 74q42 148 168 237t305 89q217 0 343 -131t126 -367v-82h-559zM590 563q16 19 86 19h207
q63 0 78 -17l4 4q-4 86 -53 131t-134 45q-77 0 -129.5 -47t-62.5 -129z" />
    <glyph glyph-name="uni04C0" unicode="&#x4c0;" horiz-adv-x="587" 
d="M453 1434v-1434h-318v1434h318z" />
    <glyph glyph-name="uni04C1" unicode="&#x4c1;" horiz-adv-x="2043" 
d="M1358 1769q-8 -134 -94 -210t-242 -76q-155 0 -241 75.5t-95 210.5h211q2 -55 34 -88.5t91 -33.5q60 0 91.5 33.5t33.5 88.5h211zM166 -12q-62 0 -143 8v303q75 -6 83 -6q51 0 78 25t41 98l33 141q24 109 101 146t262 42v9q-185 3 -255 33t-94 126l-43 168
q-19 78 -104 78q-39 0 -82 -4v283q73 8 137 8q133 0 206 -43t106 -152l63 -213q24 -94 61.5 -130t120.5 -36h82q41 0 58 -10l4 4q-11 22 -11 66v502h304v-502q0 -44 -11 -66l4 -4q17 10 58 10h82q83 0 120.5 36t61.5 130l63 213q31 109 105 152t207 43q64 0 137 -8v-283
q-43 4 -82 4q-85 0 -104 -78l-43 -168q-24 -96 -93.5 -126t-255.5 -33v-9q186 -5 262.5 -42t100.5 -146l31 -141q16 -73 43 -98t77 -25q13 0 82 6v-303q-79 -8 -143 -8q-145 0 -224 54.5t-108 176.5l-55 238q-20 96 -58.5 130t-123.5 34h-82q-41 0 -58 10l-4 -4
q11 -22 11 -66v-561h-304v561q0 44 11 66l-4 4q-17 -10 -58 -10h-82q-85 0 -123.5 -34t-58.5 -130l-55 -238q-29 -122 -108.5 -176.5t-225.5 -54.5z" />
    <glyph glyph-name="uni04C2" unicode="&#x4c2;" horiz-adv-x="1536" 
d="M1106 1360q0 -148 -96 -240t-242 -92q-145 0 -240.5 92.5t-95.5 239.5h193q8 -141 143 -141t143 141h195zM37 -6v239h26q32 0 48.5 12t35.5 46l33 84q24 60 68 86.5t151 27.5v9q-74 1 -118 13t-64 31.5t-35 55.5l-30 68q-31 47 -84 47h-35v239h166q74 0 120 -26.5
t70 -85.5l60 -133q20 -54 39.5 -74.5t58.5 -20.5h31q47 0 63 -4l2 2q-10 38 -10 82v254h270v-254q0 -44 -10 -82l2 -2q20 4 63 4h31q39 0 60 21t41 74l59 133q23 59 68.5 85.5t121.5 26.5h166v-239h-37q-53 0 -84 -47l-30 -68q-15 -36 -35 -55.5t-64 -31.5t-118 -13v-9
q108 -1 151.5 -27.5t67.5 -86.5l33 -84q19 -34 35.5 -46t48.5 -12h26v-239h-174q-149 0 -192 123l-48 145q-17 63 -35 88t-61 25h-31q-43 0 -63 4l-2 -2q10 -38 10 -86v-291h-270v291q0 48 10 86l-2 2q-16 -4 -63 -4h-31q-41 0 -58.5 -24t-37.5 -89l-48 -145
q-43 -123 -190 -123h-176z" />
    <glyph glyph-name="uni04C3" unicode="&#x4c3;" horiz-adv-x="1468" 
d="M782 758q283 -6 426.5 -114.5t143.5 -332.5v-301q0 -222 -114 -320t-329 -98h-149v297h114q86 0 123 38.5t37 131.5v252q0 162 -121 227.5t-409 65.5q-38 0 -58 8l-4 -4q11 -18 11 -63v-545h-318v1434h318v-504q0 -44 -11 -66l4 -4q17 10 58 10h104q71 0 113.5 40.5
t64.5 131.5l54 209q28 103 104.5 149t220.5 46q67 0 138 -8v-287q-43 4 -82 4q-41 0 -65 -17t-36 -59l-47 -164q-20 -68 -86 -102t-205 -49v-6z" />
    <glyph glyph-name="uni04C4" unicode="&#x4c4;" horiz-adv-x="1105" 
d="M651 489q89 -2 161.5 -19t133.5 -53t95 -100t34 -151v-143q0 -215 -106.5 -324t-284.5 -109h-119v279h88q65 0 94 38t29 116v139q0 110 -60.5 160.5t-183.5 50.5h-63q-47 0 -63 4l-3 -2q11 -42 11 -86v-289h-310v946h310v-254q0 -40 -11 -82l3 -2q16 4 63 4h43
q45 0 67 22t44 73l59 133q26 62 70.5 87t119.5 25h166v-239h-18q-86 0 -107 -47l-30 -68q-16 -34 -36.5 -52t-67.5 -31t-128 -17v-9z" />
    <glyph glyph-name="uni04C5" unicode="&#x4c5;" horiz-adv-x="1656" 
d="M1421 231h226l-187 -518h-248l93 287h-201v1090q0 44 10 61l-4 4q-15 -10 -57 -10h-432q-41 0 -56 10l-4 -4q10 -17 10 -61v-689q0 -213 -90.5 -312t-283.5 -99q-47 0 -164 10v295q52 -6 119 -6q102 0 102 141v1004h1167v-1203z" />
    <glyph glyph-name="uni04C6" unicode="&#x4c6;" horiz-adv-x="1286" 
d="M1063 231h213l-186 -518h-250l92 287h-178v631q0 33 10 53l-2 2q-16 -8 -57 -8h-156q-41 0 -57 8l-3 -2q11 -22 11 -53v-262q0 -369 -369 -369h-121v268h76q55 0 79.5 27t24.5 100v551h873v-715z" />
    <glyph glyph-name="uni04C7" unicode="&#x4c7;" horiz-adv-x="1509" 
d="M1374 -25q0 -189 -115 -287t-321 -98h-104v299h96q60 0 91.5 26.5t35.5 84.5v557q0 44 10 61l-4 5q-22 -11 -57 -11h-502q-40 0 -58 11l-4 -5q11 -18 11 -61v-557h-318v1434h318v-476q0 -45 -11 -63l4 -4q17 10 58 10h502q37 0 57 -10l4 4q-10 17 -10 63v476h317v-1459z
" />
    <glyph glyph-name="uni04C8" unicode="&#x4c8;" horiz-adv-x="1169" 
d="M1065 -16q0 -394 -428 -394h-94v285h84q123 0 129 129v320q0 33 10 53l-2 2q-16 -8 -57 -8h-244q-41 0 -57 8l-3 -2q11 -22 11 -53v-324h-310v946h310v-260q0 -31 -11 -53l3 -2q16 8 57 8h244q41 0 57 -8l2 2q-10 20 -10 53v260h309v-962z" />
    <glyph glyph-name="uni04C9" unicode="&#x4c9;" horiz-adv-x="1603" 
d="M1374 231h219l-188 -518h-248l92 287h-192v557q0 44 10 61l-4 5q-22 -11 -57 -11h-502q-40 0 -58 11l-4 -5q11 -18 11 -61v-557h-318v1434h318v-476q0 -45 -11 -63l4 -4q17 10 58 10h502q37 0 57 -10l4 4q-10 17 -10 63v476h317v-1203z" />
    <glyph glyph-name="uni04CA" unicode="&#x4ca;" horiz-adv-x="1306" 
d="M1065 231h231l-186 -518h-248l92 287h-198v324q0 33 10 53l-2 2q-16 -8 -57 -8h-244q-41 0 -57 8l-3 -2q11 -22 11 -53v-324h-310v946h310v-260q0 -31 -11 -53l3 -2q16 8 57 8h244q41 0 57 -8l2 2q-10 20 -10 53v260h309v-715z" />
    <glyph glyph-name="uni04CB" unicode="&#x4cb;" horiz-adv-x="1318" 
d="M1184 1434v-1434h-238v-287h-297v514h217v234q0 67 17 127l-4 4q-176 -72 -392 -72q-222 0 -348.5 133t-126.5 365v416h318v-371q0 -115 61.5 -178.5t171.5 -63.5q141 0 303 51v562h318z" />
    <glyph glyph-name="uni04CC" unicode="&#x4cc;" horiz-adv-x="1064" 
d="M651 946h310v-719v-227h-211v-287h-277v439h178v131q0 58 19 98l-4 4q-151 -80 -291 -80q-176 0 -270.5 97.5t-94.5 314.5v229h309v-215q0 -147 148 -147q76 0 184 41v321z" />
    <glyph glyph-name="uni04CD" unicode="&#x4cd;" horiz-adv-x="2091" 
d="M1878 231h203l-189 -518h-247l92 287h-119l-205 623q-29 92 -35 176h-8q-3 -46 -13 -79.5t-38 -92.5l-309 -641h-45l-312 641q-27 59 -36.5 93t-12.5 79h-8q-6 -84 -35 -176l-205 -623h-346l533 1454h57l346 -772q18 -40 25 -68t12 -73h8q4 31 6.5 47.5t10 41t20.5 52.5
l346 772h56z" />
    <glyph glyph-name="uni04CE" unicode="&#x4ce;" horiz-adv-x="1638" 
d="M1421 231h207l-186 -518h-248l92 287h-96l-123 317q-33 84 -37 142h-8q-1 -9 -2.5 -17.5t-3.5 -17t-4 -14.5t-5.5 -14.5t-5.5 -13t-7 -14t-6.5 -12.5t-7.5 -14t-7 -14l-172 -346h-76l-174 346q-2 5 -14 29t-15.5 33.5t-9.5 29.5t-8 39h-8q-1 -17 -3 -31.5t-7 -30.5
t-7 -23.5t-10 -28.5t-10 -28l-125 -317h-332l424 965h78l209 -406q38 -68 45 -115h8q7 47 45 115l209 406h78z" />
    <glyph glyph-name="uni04CF" unicode="&#x4cf;" horiz-adv-x="518" 
d="M414 946v-946h-310v946h310z" />
    <glyph glyph-name="uni04D0" unicode="&#x4d0;" horiz-adv-x="1499" 
d="M1085 1769q-8 -134 -93.5 -210t-241.5 -76q-155 0 -241 75.5t-95 210.5h211q2 -55 34 -88.5t91 -33.5q60 0 91 33.5t33 88.5h211zM10 0l707 1460h65l707 -1460h-348l-133 299h-514l-136 -299h-348zM565 524q32 11 92 11h185q60 0 92 -11l2 2q-27 30 -55 97l-82 194
q-42 102 -45 148h-9q-3 -52 -43 -148l-81 -194q-31 -67 -58 -97z" />
    <glyph glyph-name="uni04D1" unicode="&#x4d1;" horiz-adv-x="1083" 
d="M870 1360q0 -148 -96 -240t-242 -92q-144 0 -239.5 92.5t-95.5 239.5h192q8 -141 143 -141q73 0 107 39.5t37 101.5h194zM532 977q244 0 350.5 -88t106.5 -289v-600h-309q0 106 33 188l-11 7q-99 -226 -331 -226q-153 0 -245.5 91t-92.5 241q0 148 93.5 236t248.5 88
q221 0 323 -176l9 4q-17 52 -17 151q0 57 -52.5 90t-143.5 33q-119 0 -289 -31l-43 246q187 35 370 35zM496 442q-58 0 -94.5 -33.5t-36.5 -86.5q0 -54 36.5 -87.5t94.5 -33.5t95.5 34t37.5 87t-37.5 86.5t-95.5 33.5z" />
    <glyph glyph-name="uni04D2" unicode="&#x4d2;" horiz-adv-x="1499" 
d="M426 1776h236v-254h-236v254zM838 1776h237v-254h-237v254zM10 0l707 1460h65l707 -1460h-348l-133 299h-514l-136 -299h-348zM565 524q32 11 92 11h185q60 0 92 -11l2 2q-27 30 -55 97l-82 194q-42 102 -45 148h-9q-3 -52 -43 -148l-81 -194q-31 -67 -58 -97z" />
    <glyph glyph-name="uni04D3" unicode="&#x4d3;" horiz-adv-x="1083" 
d="M455 1331v-297h-226v297h226zM836 1331v-297h-224v297h224zM532 977q244 0 350.5 -88t106.5 -289v-600h-309q0 106 33 188l-11 7q-99 -226 -331 -226q-153 0 -245.5 91t-92.5 241q0 148 93.5 236t248.5 88q221 0 323 -176l9 4q-17 52 -17 151q0 57 -52.5 90t-143.5 33
q-119 0 -289 -31l-43 246q187 35 370 35zM496 442q-58 0 -94.5 -33.5t-36.5 -86.5q0 -54 36.5 -87.5t94.5 -33.5t95.5 34t37.5 87t-37.5 86.5t-95.5 33.5z" />
    <glyph glyph-name="uni04D4" unicode="&#x4d4;" horiz-adv-x="1990" 
d="M1434 283h473v-283h-815v242q0 46 10 63l-4 4q-17 -10 -56 -10h-458l-191 -299h-383l973 1434h913v-283h-462q-38 0 -58 10l-4 -4q10 -17 10 -63v-142q0 -46 -10 -63l4 -4q20 10 58 10h411v-279h-411q-36 0 -58 11l-4 -4q10 -17 10 -64v-219q0 -47 -10 -64l4 -4
q22 11 58 11zM1102 528q-10 17 -10 64v407q0 86 14 160h-4q-22 -64 -76 -155l-250 -400q-34 -52 -80 -82l2 -4q64 17 125 17h219q38 0 56 -11z" />
    <glyph glyph-name="uni04D5" unicode="&#x4d5;" horiz-adv-x="1683" 
d="M381 -31q-164 0 -256 95t-92 241q0 150 95.5 235t252.5 85q214 0 319 -176l7 4q-17 64 -17 151q-4 123 -211 123q-75 0 -274 -31l-43 246q188 35 364 35q128 0 197 -34.5t113 -115.5h2q122 148 338 148q212 0 339 -132t127 -366v-82h-561q-42 0 -65 4.5t-45 18.5l-4 -6
l8 -19q18 -81 76.5 -125.5t156.5 -44.5q148 0 277 84l102 -235q-174 -103 -366 -103q-155 0 -265 63.5t-168 174.5h-4q-49 -104 -157.5 -171t-245.5 -67zM965 565q23 17 90 17h205q60 0 77 -17l4 4q-4 86 -52 131t-128 45q-82 0 -135 -46t-65 -128zM496 201q58 0 95.5 33
t37.5 88t-37.5 87.5t-95.5 32.5q-57 0 -94 -33t-37 -87q0 -55 37 -88t94 -33z" />
    <glyph glyph-name="uni04D6" unicode="&#x4d6;" horiz-adv-x="1114" 
d="M940 1769q-8 -134 -94 -210t-242 -76q-155 0 -241 75.5t-95 210.5h211q2 -55 34 -88.5t91 -33.5q60 0 91.5 33.5t33.5 88.5h211zM1024 1434v-283h-520q-41 0 -58 10l-4 -4q11 -18 11 -61v-144q0 -45 -11 -63l4 -4q17 10 58 10h465v-279h-465q-40 0 -58 11l-4 -4
q11 -18 11 -62v-223q0 -44 -11 -62l4 -4q18 11 58 11h528v-283h-897v1434h889z" />
    <glyph glyph-name="uni04D7" unicode="&#x4d7;" horiz-adv-x="1064" 
d="M891 1360q0 -148 -96 -240t-242 -92q-145 0 -240.5 92.5t-95.5 239.5h193q8 -141 143 -141t143 141h195zM553 975q220 0 344.5 -130.5t124.5 -367.5v-82h-561q-44 0 -66.5 4.5t-44.5 20.5l-4 -6l8 -23q42 -168 236 -168q145 0 274 84l103 -235q-174 -103 -375 -103
q-248 0 -394.5 135t-146.5 371q0 230 139.5 365t362.5 135zM541 745q-82 0 -135.5 -46.5t-63.5 -129.5l4 -6q16 19 86 19h207q63 0 78 -17l4 4q-4 86 -52 131t-128 45z" />
    <glyph glyph-name="uni04D8" unicode="&#x4d8;" horiz-adv-x="1568" 
d="M748 1464q166 0 305 -46.5t243 -137t162 -232.5t58 -323q0 -226 -87.5 -396.5t-255.5 -265t-397 -94.5q-228 0 -392.5 95t-247.5 262.5t-83 390.5v133h1039q58 0 96 -16l6 6q-7 11 -12.5 23t-8.5 19.5t-6.5 20t-5.5 17.5q-43 117 -143.5 177t-280.5 60
q-96 0 -180.5 -19.5t-135.5 -43t-130 -66.5l-141 275q270 161 598 161zM1178 598q-25 -14 -82 -14h-615q-46 0 -63 2t-31 12l-8 -4q13 -16 20 -49q6 -33 19 -66t42 -73.5t68.5 -70.5t105 -50.5t146.5 -20.5q326 0 383 271q8 39 21 59z" />
    <glyph glyph-name="uni04D9" unicode="&#x4d9;" horiz-adv-x="1064" 
d="M512 -29q-220 0 -344.5 130.5t-124.5 367.5v82h561q44 0 66.5 -4.5t44.5 -20.5l4 6l-8 23q-42 168 -236 168q-145 0 -274 -84l-103 235q174 103 375 103q248 0 394.5 -135t146.5 -371q0 -230 -139.5 -365t-362.5 -135zM524 201q82 0 135.5 46.5t63.5 129.5l-4 6
q-15 -18 -86 -18h-207q-64 0 -78 16l-4 -4q4 -86 52 -131t128 -45z" />
    <glyph glyph-name="uni04DA" unicode="&#x4da;" horiz-adv-x="1568" 
d="M444 1776h236v-254h-236v254zM856 1776h238v-254h-238v254zM748 1464q166 0 305 -46.5t243 -137t162 -232.5t58 -323q0 -226 -87.5 -396.5t-255.5 -265t-397 -94.5q-228 0 -392.5 95t-247.5 262.5t-83 390.5v133h1039q58 0 96 -16l6 6q-7 11 -12.5 23t-8.5 19.5t-6.5 20
t-5.5 17.5q-43 117 -143.5 177t-280.5 60q-96 0 -180.5 -19.5t-135.5 -43t-130 -66.5l-141 275q270 161 598 161zM1178 598q-25 -14 -82 -14h-615q-46 0 -63 2t-31 12l-8 -4q13 -16 20 -49q6 -33 19 -66t42 -73.5t68.5 -70.5t105 -50.5t146.5 -20.5q326 0 383 271
q8 39 21 59z" />
    <glyph glyph-name="uni04DB" unicode="&#x4db;" horiz-adv-x="1064" 
d="M453 1331v-297h-226v297h226zM834 1331v-297h-224v297h224zM512 -29q-220 0 -344.5 130.5t-124.5 367.5v82h561q44 0 66.5 -4.5t44.5 -20.5l4 6l-8 23q-42 168 -236 168q-145 0 -274 -84l-103 235q174 103 375 103q248 0 394.5 -135t146.5 -371q0 -230 -139.5 -365
t-362.5 -135zM524 201q82 0 135.5 46.5t63.5 129.5l-4 6q-15 -18 -86 -18h-207q-64 0 -78 16l-4 -4q4 -86 52 -131t128 -45z" />
    <glyph glyph-name="uni04DC" unicode="&#x4dc;" horiz-adv-x="2043" 
d="M698 1776h236v-254h-236v254zM1110 1776h238v-254h-238v254zM166 -12q-62 0 -143 8v303q75 -6 83 -6q51 0 78 25t41 98l33 141q24 109 101 146t262 42v9q-185 3 -255 33t-94 126l-43 168q-19 78 -104 78q-39 0 -82 -4v283q73 8 137 8q133 0 206 -43t106 -152l63 -213
q24 -94 61.5 -130t120.5 -36h82q41 0 58 -10l4 4q-11 22 -11 66v502h304v-502q0 -44 -11 -66l4 -4q17 10 58 10h82q83 0 120.5 36t61.5 130l63 213q31 109 105 152t207 43q64 0 137 -8v-283q-43 4 -82 4q-85 0 -104 -78l-43 -168q-24 -96 -93.5 -126t-255.5 -33v-9
q186 -5 262.5 -42t100.5 -146l31 -141q16 -73 43 -98t77 -25q13 0 82 6v-303q-79 -8 -143 -8q-145 0 -224 54.5t-108 176.5l-55 238q-20 96 -58.5 130t-123.5 34h-82q-41 0 -58 10l-4 -4q11 -22 11 -66v-561h-304v561q0 44 11 66l-4 4q-17 -10 -58 -10h-82q-85 0 -123.5 -34
t-58.5 -130l-55 -238q-29 -122 -108.5 -176.5t-225.5 -54.5z" />
    <glyph glyph-name="uni04DD" unicode="&#x4dd;" horiz-adv-x="1536" 
d="M690 1331v-297h-225v297h225zM1071 1331v-297h-223v297h223zM37 -6v239h26q32 0 48.5 12t35.5 46l33 84q24 60 68 86.5t151 27.5v9q-74 1 -118 13t-64 31.5t-35 55.5l-30 68q-31 47 -84 47h-35v239h166q74 0 120 -26.5t70 -85.5l60 -133q20 -54 39.5 -74.5t58.5 -20.5h31
q47 0 63 -4l2 2q-10 38 -10 82v254h270v-254q0 -44 -10 -82l2 -2q20 4 63 4h31q39 0 60 21t41 74l59 133q23 59 68.5 85.5t121.5 26.5h166v-239h-37q-53 0 -84 -47l-30 -68q-15 -36 -35 -55.5t-64 -31.5t-118 -13v-9q108 -1 151.5 -27.5t67.5 -86.5l33 -84q19 -34 35.5 -46
t48.5 -12h26v-239h-174q-149 0 -192 123l-48 145q-17 63 -35 88t-61 25h-31q-43 0 -63 4l-2 -2q10 -38 10 -86v-291h-270v291q0 48 10 86l-2 2q-16 -4 -63 -4h-31q-41 0 -58.5 -24t-37.5 -89l-48 -145q-43 -123 -190 -123h-176z" />
    <glyph glyph-name="uni04DE" unicode="&#x4de;" horiz-adv-x="1204" 
d="M268 1776h236v-254h-236v254zM680 1776h238v-254h-238v254zM582 -31q-295 0 -541 117l121 266q213 -86 411 -86q252 0 252 158q0 164 -299 164h-194v293h198q114 0 173 38.5t59 112.5q0 135 -211 135q-166 0 -361 -65l-98 287q263 75 481 75q253 0 381.5 -93.5
t128.5 -276.5q0 -122 -58 -195.5t-187 -116.5q-59 -21 -144 -24v-8q60 0 142 -15q158 -31 231.5 -114.5t73.5 -231.5q0 -207 -141.5 -313.5t-417.5 -106.5z" />
    <glyph glyph-name="uni04DF" unicode="&#x4df;" horiz-adv-x="950" 
d="M393 1331v-297h-225v297h225zM774 1331v-297h-223v297h223zM459 -31q-255 0 -447 80l99 230q163 -70 315 -70q95 0 135.5 22t40.5 66q0 76 -133 76h-141v217h125q106 0 106 72q0 75 -151 75q-138 0 -293 -61l-88 231q229 70 426 70q100 0 173 -12.5t128 -41t82.5 -78.5
t27.5 -122q0 -206 -250 -223v-8q134 -6 208.5 -65t74.5 -175q0 -142 -107.5 -212.5t-330.5 -70.5z" />
    <glyph glyph-name="uni04E0" unicode="&#x4e0;" horiz-adv-x="1157" 
d="M545 -31q-326 0 -553 135l141 273q219 -107 389 -107q121 0 179.5 41.5t58.5 112.5q0 178 -322 178h-139v250l363 317l-3 9q-56 -33 -149 -33h-397v289h942v-258l-469 -379l2 -6q34 18 57 24t64 6q171 0 278 -101.5t107 -301.5q0 -96 -29.5 -174.5t-92 -141.5t-171.5 -98
t-256 -35z" />
    <glyph glyph-name="uni04E1" unicode="&#x4e1;" horiz-adv-x="954" 
d="M412 -440q-261 0 -482 100l103 266q190 -94 362 -94q127 0 186.5 47t59.5 127q0 174 -244 174h-215v230l344 297l-2 8q-56 -33 -149 -33h-361v264h871v-258l-424 -332l2 -6q28 13 39 17.5t32.5 9t47.5 4.5q162 0 267 -103t105 -282q0 -73 -18 -136.5t-59 -119.5
t-103 -95.5t-154.5 -62t-207.5 -22.5z" />
    <glyph glyph-name="uni04E2" unicode="&#x4e2;" horiz-adv-x="1478" 
d="M465 1726h663v-192h-663v192zM1274 1454h69v-1454h-313v623q0 172 23 249l-9 2q-18 -36 -36.5 -61.5t-57.5 -64.5l-747 -768h-68v1454h314v-623q0 -177 -25 -250l8 -2q21 40 39 65t55 62z" />
    <glyph glyph-name="uni04E3" unicode="&#x4e3;" horiz-adv-x="1153" 
d="M944 1384v-198h-631v198h631zM104 -12v958h310v-268q0 -67 -0.5 -90t-4.5 -53.5t-14 -61.5l8 -2q4 7 9 14t9.5 12.5t12 13l12 12t15 13.5t15.5 13t19 16t21 17l451 376h80v-958h-308v268q0 67 0.5 90t4.5 53.5t14 61.5l-8 2l-8 -12t-9.5 -12t-9.5 -10.5t-11.5 -11.5
t-11 -10.5t-13.5 -12t-14.5 -12t-17.5 -14t-18 -15.5l-451 -377h-82z" />
    <glyph glyph-name="uni04E4" unicode="&#x4e4;" horiz-adv-x="1478" 
d="M473 1776h236v-254h-236v254zM885 1776h237v-254h-237v254zM1274 1454h69v-1454h-313v623q0 172 23 249l-9 2q-18 -36 -36.5 -61.5t-57.5 -64.5l-747 -768h-68v1454h314v-623q0 -177 -25 -250l8 -2q21 40 39 65t55 62z" />
    <glyph glyph-name="uni04E5" unicode="&#x4e5;" horiz-adv-x="1153" 
d="M551 1331v-297h-225v297h225zM932 1331v-297h-223v297h223zM104 -12v958h310v-268q0 -67 -0.5 -90t-4.5 -53.5t-14 -61.5l8 -2q4 7 9 14t9.5 12.5t12 13l12 12t15 13.5t15.5 13t19 16t21 17l451 376h80v-958h-308v268q0 67 0.5 90t4.5 53.5t14 61.5l-8 2l-8 -12t-9.5 -12
t-9.5 -10.5t-11.5 -11.5t-11 -10.5t-13.5 -12t-14.5 -12t-17.5 -14t-18 -15.5l-451 -377h-82z" />
    <glyph glyph-name="uni04E6" unicode="&#x4e6;" horiz-adv-x="1615" 
d="M483 1776h236v-254h-236v254zM895 1776h238v-254h-238v254zM809 1464q162 0 302 -56t239.5 -154.5t156 -237.5t56.5 -299q0 -214 -96.5 -385t-269 -267t-388.5 -96q-217 0 -390 96t-269.5 267t-96.5 385q0 161 56.5 299.5t156 237t240 154.5t303.5 56zM809 1157
q-192 0 -311 -122.5t-119 -317.5t119 -318t311 -123q190 0 309 123t119 318t-119 317.5t-309 122.5z" />
    <glyph glyph-name="uni04E7" unicode="&#x4e7;" horiz-adv-x="1167" 
d="M506 1331v-297h-225v297h225zM887 1331v-297h-223v297h223zM584 977q231 0 380.5 -139.5t149.5 -364.5t-149.5 -364.5t-380.5 -139.5q-233 0 -383 139.5t-150 364.5t150 364.5t383 139.5zM584 694q-96 0 -159 -61t-63 -160t63 -160t159 -61t158.5 60.5t62.5 160.5
t-62.5 160.5t-158.5 60.5z" />
    <glyph glyph-name="uni04E8" unicode="&#x4e8;" horiz-adv-x="1615" 
d="M809 1464q162 0 302 -56t239.5 -154.5t156 -237.5t56.5 -299q0 -214 -96.5 -385t-269 -267t-388.5 -96q-217 0 -390 96t-269.5 267t-96.5 385q0 161 56.5 299.5t156 237t240 154.5t303.5 56zM1233 827l4 7q-17 34 -27 61q-40 128 -145.5 199t-255.5 71q-151 0 -257 -70.5
t-146 -199.5q-10 -27 -27 -61l4 -7q25 11 78 11h694q53 0 78 -11zM1210 539q10 27 27 61l-4 6q-23 -10 -78 -10h-694q-55 0 -78 10l-4 -6q17 -34 27 -61q40 -129 146 -200t257 -71q150 0 255.5 71t145.5 200z" />
    <glyph glyph-name="uni04E9" unicode="&#x4e9;" horiz-adv-x="1165" 
d="M584 977q231 0 380.5 -139.5t149.5 -364.5t-149.5 -364.5t-380.5 -139.5q-233 0 -383 139.5t-150 364.5t150 364.5t383 139.5zM807 518l4 4q-6 87 -70 138t-157 51t-158 -51t-72 -138l4 -4q17 17 82 17h285q67 0 82 -17zM584 236q93 0 157 50.5t70 137.5l-4 4
q-14 -16 -82 -16h-285q-66 0 -82 16l-4 -4q7 -87 72 -137.5t158 -50.5z" />
    <glyph glyph-name="uni04EA" unicode="&#x4ea;" horiz-adv-x="1615" 
d="M711 1776v-254h-236v254h236zM1124 1776v-254h-237v254h237zM809 1464q162 0 302 -56t239.5 -154.5t156 -237.5t56.5 -299q0 -214 -96.5 -385t-269 -267t-388.5 -96q-217 0 -390 96t-269.5 267t-96.5 385q0 161 56.5 299.5t156 237t240 154.5t303.5 56zM1233 827l4 7
q-17 34 -27 61q-40 128 -145.5 199t-255.5 71q-151 0 -257 -70.5t-146 -199.5q-10 -27 -27 -61l4 -7q25 11 78 11h694q53 0 78 -11zM1210 539q10 27 27 61l-4 6q-23 -10 -78 -10h-694q-55 0 -78 10l-4 -6q17 -34 27 -61q40 -129 146 -200t257 -71q150 0 255.5 71t145.5 200z
" />
    <glyph glyph-name="uni04EB" unicode="&#x4eb;" horiz-adv-x="1165" 
d="M496 1331v-297h-226v297h226zM877 1331v-297h-224v297h224zM584 977q231 0 380.5 -139.5t149.5 -364.5t-149.5 -364.5t-380.5 -139.5q-233 0 -383 139.5t-150 364.5t150 364.5t383 139.5zM807 518l4 4q-6 87 -70 138t-157 51t-158 -51t-72 -138l4 -4q17 17 82 17h285
q67 0 82 -17zM584 236q93 0 157 50.5t70 137.5l-4 4q-14 -16 -82 -16h-285q-66 0 -82 16l-4 -4q7 -87 72 -137.5t158 -50.5z" />
    <glyph glyph-name="uni04EC" unicode="&#x4ec;" horiz-adv-x="1384" 
d="M283 1776h235v-254h-235v254zM694 1776h238v-254h-238v254zM578 -31q-305 0 -537 156l156 264q173 -110 385 -110q146 0 246 66t141 190q10 27 26 43l-4 4q-34 -11 -84 -11h-471v291h471q53 0 84 -10l4 4q-16 16 -26 43q-41 124 -141 190t-246 66q-211 0 -385 -111
l-156 265q231 155 537 155q223 0 394.5 -93.5t265 -263t93.5 -390.5q0 -165 -54.5 -304.5t-152.5 -237t-238.5 -152t-307.5 -54.5z" />
    <glyph glyph-name="uni04ED" unicode="&#x4ed;" horiz-adv-x="942" 
d="M371 1331v-297h-226v297h226zM752 1331v-297h-224v297h224zM377 -31q-186 0 -354 84l108 232q111 -58 225 -58q166 0 203 125q3 4 8 16.5t8 16.5l-2 4q-21 -8 -61 -8h-238v184h238q40 0 61 -8l2 4q-3 4 -8 16.5t-8 16.5q-37 125 -203 125q-116 0 -225 -57l-108 231
q168 84 354 84q230 0 367 -132.5t137 -371.5t-137 -371.5t-367 -132.5z" />
    <glyph glyph-name="uni04EE" unicode="&#x4ee;" horiz-adv-x="1445" 
d="M395 1726h664v-192h-664v192zM399 -14q-104 0 -219 16l2 289q104 -17 185 -17q108 0 184 101l-541 1059h389l263 -572q10 -21 28 -60.5t24 -53t15.5 -37t13.5 -40.5t7 -36h8q7 67 19 106t48 127l240 566h371l-484 -1024q-96 -220 -225 -322t-328 -102z" />
    <glyph glyph-name="uni04EF" unicode="&#x4ef;" horiz-adv-x="1099" 
d="M866 1280v-201h-630v201h630zM1098 946l-604 -1356h-310l222 484l-404 872h332l158 -371q26 -63 37.5 -111.5t15.5 -121.5l8 2q6 92 43 180l170 422h332z" />
    <glyph glyph-name="uni04F0" unicode="&#x4f0;" horiz-adv-x="1445" 
d="M403 1776h236v-254h-236v254zM815 1776h238v-254h-238v254zM399 -14q-104 0 -219 16l2 289q104 -17 185 -17q108 0 184 101l-541 1059h389l263 -572q10 -21 28 -60.5t24 -53t15.5 -37t13.5 -40.5t7 -36h8q7 67 19 106t48 127l240 566h371l-484 -1024q-96 -220 -225 -322
t-328 -102z" />
    <glyph glyph-name="uni04F1" unicode="&#x4f1;" horiz-adv-x="1099" 
d="M473 1331v-297h-225v297h225zM854 1331v-297h-223v297h223zM1098 946l-604 -1356h-310l222 484l-404 872h332l158 -371q26 -63 37.5 -111.5t15.5 -121.5l8 2q6 92 43 180l170 422h332z" />
    <glyph glyph-name="uni04F2" unicode="&#x4f2;" horiz-adv-x="1445" 
d="M913 1747l2 -4l-256 -221h-202l-2 4l235 221h223zM754 1526l235 221h221l2 -4l-254 -221h-202zM399 -14q-104 0 -219 16l2 289q104 -17 185 -17q108 0 184 101l-541 1059h389l263 -572q10 -21 28 -60.5t24 -53t15.5 -37t13.5 -40.5t7 -36h8q7 67 19 106t48 127l240 566
h371l-484 -1024q-96 -220 -225 -322t-328 -102z" />
    <glyph glyph-name="uni04F3" unicode="&#x4f3;" horiz-adv-x="1099" 
d="M299 1030l-2 4l258 312h236l2 -5l-281 -311h-213zM629 1030l-2 4l258 312h233l2 -5l-278 -311h-213zM1098 946l-604 -1356h-310l222 484l-404 872h332l158 -371q26 -63 37.5 -111.5t15.5 -121.5l8 2q6 92 43 180l170 422h332z" />
    <glyph glyph-name="uni04F4" unicode="&#x4f4;" horiz-adv-x="1318" 
d="M315 1776h236v-254h-236v254zM727 1776h238v-254h-238v254zM866 0v461q0 67 17 127l-4 4q-176 -72 -392 -72q-222 0 -348.5 133t-126.5 365v416h318v-371q0 -115 61.5 -178.5t171.5 -63.5q141 0 303 51v562h318v-1434h-318z" />
    <glyph glyph-name="uni04F5" unicode="&#x4f5;" horiz-adv-x="1064" 
d="M410 1331v-297h-226v297h226zM791 1331v-297h-224v297h224zM651 946h310v-719v-227h-310v283q0 58 19 98l-4 4q-151 -80 -291 -80q-176 0 -270.5 97.5t-94.5 314.5v229h309v-215q0 -147 148 -147q76 0 184 41v321z" />
    <glyph glyph-name="uni04F8" unicode="&#x4f8;" horiz-adv-x="1777" 
d="M807 1776v-254h-236v254h236zM1221 1776v-254h-238v254h238zM725 918q235 0 367.5 -120.5t132.5 -334.5q0 -218 -132.5 -340.5t-367.5 -122.5h-590v1077v357h318v-461q0 -44 -11 -62l4 -4q16 11 58 11h221zM1325 1434h317v-1434h-317v1434zM682 279q109 0 166 47.5
t57 136.5q0 83 -58 128.5t-165 45.5h-178q-43 0 -58 10l-4 -4q11 -18 11 -61v-246q0 -46 -11 -64l4 -4q16 11 58 11h178z" />
    <glyph glyph-name="uni04F9" unicode="&#x4f9;" horiz-adv-x="1470" 
d="M645 1331v-297h-225v297h225zM803 1034v297h223v-297h-223zM614 688q173 0 274 -86t101 -258q0 -171 -101 -257.5t-274 -86.5h-510v778v168h310v-211q0 -31 -11 -53l3 -2q16 8 57 8h151zM1057 946h309v-946h-309v946zM559 238q53 0 83 27t30 79t-30 80.5t-83 28.5h-96
q-41 0 -57 8l-3 -2q11 -22 11 -53v-121q0 -32 -11 -54l3 -2q18 9 57 9h96z" />
    <glyph glyph-name="uni04FC" unicode="&#x4fc;" horiz-adv-x="1452" 
d="M1249 328q150 -214 150 -381q0 -183 -98.5 -270t-307.5 -87h-123l2 289h105q61 0 92 22.5t31 61.5q0 37 -25.5 83.5t-85.5 127.5l-180 248q-51 67 -61 137h-9q-10 -63 -57 -137l-268 -422h-404l453 649q45 67 60.5 87t31.5 30v8q-19 13 -37 35t-59 82l-396 543h406
l221 -338q56 -86 64 -140h8q10 56 63 140l209 338h406l-402 -560q-72 -99 -96 -118v-8q27 -17 92 -113z" />
    <glyph glyph-name="uni04FD" unicode="&#x4fd;" horiz-adv-x="1101" 
d="M668 -410v246h43q57 0 83.5 28t26.5 73q0 34 -30.5 79.5t-110.5 139.5l-53 63q-42 46 -54 133h-8q-8 -47 -18 -75t-31 -58l-156 -219h-350l330 438q34 46 57 58v6q-29 15 -55 51l-297 393h350l119 -168q46 -64 57 -137h7q11 68 57 137l115 168h350l-295 -395
q-24 -32 -55 -51v-6q8 -4 15.5 -10.5t12 -11.5t14 -16.5t15.5 -19.5l102 -127q110 -130 155.5 -217.5t45.5 -193.5q0 -62 -19 -114t-60.5 -97t-118.5 -71t-183 -26h-61z" />
    <glyph glyph-name="uni0510" unicode="&#x510;" horiz-adv-x="1206" 
d="M625 -31q-277 0 -419.5 106.5t-142.5 313.5q0 148 74 231.5t232 114.5q83 15 141 15v8q-83 3 -143 24q-129 43 -187.5 117t-58.5 195q0 183 129 276.5t381 93.5q217 0 483 -75l-98 -287q-195 65 -363 65q-209 0 -209 -135q0 -74 59 -112.5t171 -38.5h198v-293h-194
q-299 0 -299 -164q0 -158 252 -158q198 0 411 86l121 -266q-246 -117 -538 -117z" />
    <glyph glyph-name="uni0511" unicode="&#x511;" horiz-adv-x="950" 
d="M492 -31q-223 0 -331 70.5t-108 212.5q0 116 74.5 175t208.5 65v8q-250 17 -250 223q0 58 18.5 101.5t52.5 72.5t86 47t114 25.5t141 7.5q197 0 426 -70l-88 -231q-155 61 -293 61q-152 0 -152 -75q0 -72 107 -72h125v-217h-142q-133 0 -133 -76q0 -44 40.5 -66
t135.5 -22q153 0 316 70l98 -230q-192 -80 -446 -80z" />
    <glyph glyph-name="uni0512" unicode="&#x512;" horiz-adv-x="1556" 
d="M1421 1434v-1434v-25q0 -189 -115 -287t-321 -98h-104v299h96q127 0 127 129v256v816q0 44 10 61l-4 4q-15 -10 -57 -10h-432q-41 0 -56 10l-4 -4q10 -17 10 -61v-689q0 -213 -90.5 -312t-283.5 -99q-47 0 -164 10v295q52 -6 119 -6q102 0 102 141v1004h1167z" />
    <glyph glyph-name="uni0513" unicode="&#x513;" horiz-adv-x="1167" 
d="M1063 946v-946v-16q0 -394 -428 -394h-94v285h84q129 0 129 141v23v592q0 33 10 53l-2 2q-16 -8 -57 -8h-156q-41 0 -57 8l-3 -2q11 -22 11 -53v-262q0 -369 -369 -369h-121v268h76q55 0 79.5 27t24.5 100v551h873z" />
    <glyph glyph-name="uni051C" unicode="&#x51c;" horiz-adv-x="2045" 
d="M1044 1454l299 -666q26 -59 36.5 -91.5t17.5 -88.5h8q12 98 43 187l225 639h363l-588 -1448h-66l-307 680q-36 81 -47 157h-8q-10 -69 -49 -157l-307 -680h-66l-588 1448h365l223 -639q34 -98 45 -187h8q7 56 17.5 88.5t36.5 91.5l296 666h43z" />
    <glyph glyph-name="uni051D" unicode="&#x51d;" horiz-adv-x="1583" 
d="M453 -20l-451 966h338l115 -287q32 -78 43.5 -112.5t17.5 -75.5h8q7 43 20.5 76t55.5 115l154 305h75l154 -305q42 -82 55.5 -115t20.5 -76h8q7 41 18 74.5t43 113.5l117 287h338l-453 -966h-83l-168 331q-5 10 -15.5 31.5t-14 28t-11.5 22.5t-10.5 22t-8 18.5t-7.5 19
t-5.5 16.5t-5.5 18.5t-4 18.5h-9q-10 -42 -25 -77.5t-56 -117.5l-170 -331h-84z" />
    <glyph glyph-name="uni0524" unicode="&#x524;" horiz-adv-x="1564" 
d="M1382 227h181v-514h-299v287h-199v1090q0 44 10 61l-4 4q-17 -10 -57 -10h-510q-41 0 -58 10l-4 -4q11 -18 11 -61v-1090h-318v1434h1247v-1207z" />
    <glyph glyph-name="uni0525" unicode="&#x525;" horiz-adv-x="1208" 
d="M1069 152h129v-439h-278v287h-158v631q0 33 10 53l-2 2q-16 -8 -57 -8h-250q-41 0 -57 8l-3 -2q11 -22 11 -53v-631h-310v946h965v-794z" />
    <glyph glyph-name="uni0526" unicode="&#x526;" horiz-adv-x="1509" 
d="M1307 227h198v-514h-297v287h-219v371q0 115 -61 178t-172 63q-141 0 -303 -51v-561h-318v1434h318v-461q0 -68 -17 -127l4 -4q174 71 391 71q223 0 349.5 -132.5t126.5 -364.5v-189z" />
    <glyph glyph-name="uni0527" unicode="&#x527;" horiz-adv-x="1222" 
d="M1077 152h133v-439h-276v287h-164v506q0 108 -41.5 154.5t-120.5 46.5q-88 0 -141 -61t-53 -189v-457h-310v1464h310v-436q0 -169 -23 -293l8 -4q50 119 128.5 182.5t207.5 63.5q161 0 251.5 -98t90.5 -287v-440z" />
    <glyph glyph-name="uni0E3F" unicode="&#xe3f;" horiz-adv-x="1169" 
d="M569 -178v123q0 39 9 61l-5 4q-17 -10 -53 -10h-385v1382h385q36 0 53 -10l5 4q-9 23 -9 62v123h62v-123q0 -41 -6 -62l2 -2q8 8 41 8q178 0 286.5 -93.5t108.5 -256.5q0 -159 -76.5 -242t-206.5 -94v-8q162 -11 244 -90.5t82 -237.5q0 -170 -118.5 -265t-317.5 -95
q-30 0 -43 8l-4 -4q8 -24 8 -59v-123h-62zM408 805q13 8 55 8h57q40 0 53 -8l5 4q-9 23 -9 59v215q0 39 9 62l-5 4q-17 -10 -53 -10h-57q-38 0 -55 10l-5 -4q11 -18 11 -62v-215q0 -41 -11 -59zM625 807q151 16 151 174q0 150 -149 166l-4 -4q8 -21 8 -51v-232
q0 -22 -10 -49zM408 231q18 11 55 11h57q35 0 53 -11l5 5q-9 22 -9 61v215q0 38 9 61l-5 5q-14 -11 -53 -11h-57q-39 0 -55 11l-5 -5q11 -18 11 -61v-215q0 -43 -11 -61zM627 233q96 5 144 45.5t48 124.5q0 161 -192 170l-4 -4q8 -24 8 -55v-219q0 -37 -8 -57z" />
    </font>
</defs>
</svg>
