<?xml version="1.0" standalone="no"?>
<!DOCTYPE svg PUBLIC "-//W3C//DTD SVG 1.1//EN" "http://www.w3.org/Graphics/SVG/1.1/DTD/svg11.dtd" >
<svg xmlns="http://www.w3.org/2000/svg" xmlns:xlink="http://www.w3.org/1999/xlink" version="1.1">
<metadata>
Created by FontForge 20170731 at Sat Jul 23 01:25:02 2022
 By Aleksey,,,
Copyright (c) 2015 by Reto Moser. All rights reserved.
</metadata>
<defs>
<font id="GTEestiProDisplay-UltraLightItalic" horiz-adv-x="1228" >
  <font-face 
    font-family="GT Eesti Pro Display UltraLight"
    font-weight="250"
    font-style="italic"
    font-stretch="normal"
    units-per-em="2048"
    panose-1="0 0 3 0 0 0 0 0 0 0"
    ascent="1536"
    descent="-512"
    x-height="946"
    cap-height="1434"
    bbox="-621 -510 2537 1835"
    underline-thickness="102"
    underline-position="-307"
    slope="-11"
    unicode-range="U+000D-FB02"
  />
<missing-glyph horiz-adv-x="1609" 
d="M852 -31q-213 0 -384 96.5t-267.5 267.5t-96.5 384q0 214 96.5 385t267.5 266.5t384 95.5q160 0 299 -56t237.5 -154.5t154.5 -237.5t56 -299q0 -213 -95.5 -384t-266.5 -267.5t-385 -96.5zM852 20q199 0 359 91t250.5 253t90.5 363l-104 133l-143 -61l-140 184l-161 -90
l-152 242l-152 -242l-161 90l-140 -184l-143 61l-104 -133q0 -201 90.5 -363t250.5 -253t359 -91zM641 651q-31 0 -51.5 20.5t-20.5 51.5t20.5 51.5t51.5 20.5t51.5 -20.5t20.5 -51.5t-20.5 -51.5t-51.5 -20.5zM1061 651q-31 0 -51.5 20.5t-20.5 51.5t20.5 51.5t51.5 20.5
t51.5 -20.5t20.5 -51.5t-20.5 -51.5t-51.5 -20.5zM766 522l74 207q3 17 22 10q6 -2 9.5 -8.5t0.5 -13.5l-57 -160h70q7 0 12.5 -5.5t5.5 -12.5q0 -6 -5.5 -11.5t-12.5 -5.5h-119zM449 350q-61 0 -101.5 40t-40.5 102q0 61 40 101t102 40q61 0 101 -39.5t40 -101.5t-40 -102
t-101 -40zM1253 350q-61 0 -101 40t-40 102t40 101.5t101 39.5q62 0 102 -40t40 -101q0 -62 -40.5 -102t-101.5 -40zM852 395q-96 0 -127 -61q-6 -12 -18 -12q-17 0 -17 18q0 35 50 63.5t112 28.5t112 -28.5t50 -63.5q0 -18 -17 -18q-12 0 -18 12q-31 61 -127 61z" />
    <glyph glyph-name="fi" unicode="fi" horiz-adv-x="995" 
d="M475 1139l-37 -193h244l-12 -65h-246l-172 -881h-78l172 881h-205l13 65h204l39 195q33 171 123.5 242t233.5 71h26l-14 -74h-29q-216 0 -262 -241zM946 1413h107l-49 -246h-107zM692 0l185 946h77l-184 -946h-78z" />
    <glyph glyph-name="fl" unicode="fl" horiz-adv-x="1036" 
d="M475 1139l-37 -193h244l-12 -65h-246l-172 -881h-78l172 881h-205l13 65h204l39 195q33 171 123.5 242t233.5 71h26l-14 -74h-29q-216 0 -262 -241zM991 1434h78l-278 -1434h-78z" />
    <glyph glyph-name="f_f" unicode="ff" horiz-adv-x="1302" 
d="M397 1141q33 171 123.5 242t233.5 71h26l-14 -74h-29q-216 0 -262 -241l-37 -193h244l-12 -65h-246l-172 -881h-78l172 881h-205l13 65h204zM1405 1454h27l-15 -74h-28q-217 0 -263 -241l-36 -193h243l-12 -65h-246l-172 -881h-78l172 881h-204l12 65h205l39 195
q33 171 123 242t233 71z" />
    <glyph glyph-name="f_f_i" unicode="ffi" horiz-adv-x="1646" 
d="M397 1141q33 171 123.5 242t233.5 71h26l-14 -74h-29q-216 0 -262 -241l-37 -193h244l-12 -65h-246l-172 -881h-78l172 881h-205l13 65h204zM1126 1139l-36 -193h243l-12 -65h-246l-172 -881h-78l172 881h-204l12 65h205l39 195q33 171 123 242t233 71h27l-15 -74h-28
q-217 0 -263 -241zM1597 1413h107l-49 -246h-107zM1343 0l185 946h78l-185 -946h-78z" />
    <glyph glyph-name="f_f_l" unicode="ffl" horiz-adv-x="1687" 
d="M397 1141q33 171 123.5 242t233.5 71h26l-14 -74h-29q-216 0 -262 -241l-37 -193h244l-12 -65h-246l-172 -881h-78l172 881h-205l13 65h204zM1126 1139l-36 -193h243l-12 -65h-246l-172 -881h-78l172 881h-204l12 65h205l39 195q33 171 123 242t233 71h27l-15 -74h-28
q-217 0 -263 -241zM1642 1434h78l-278 -1434h-78z" />
    <glyph glyph-name=".notdef" horiz-adv-x="1609" 
d="M852 -31q-213 0 -384 96.5t-267.5 267.5t-96.5 384q0 214 96.5 385t267.5 266.5t384 95.5q160 0 299 -56t237.5 -154.5t154.5 -237.5t56 -299q0 -213 -95.5 -384t-266.5 -267.5t-385 -96.5zM852 20q199 0 359 91t250.5 253t90.5 363l-104 133l-143 -61l-140 184l-161 -90
l-152 242l-152 -242l-161 90l-140 -184l-143 61l-104 -133q0 -201 90.5 -363t250.5 -253t359 -91zM641 651q-31 0 -51.5 20.5t-20.5 51.5t20.5 51.5t51.5 20.5t51.5 -20.5t20.5 -51.5t-20.5 -51.5t-51.5 -20.5zM1061 651q-31 0 -51.5 20.5t-20.5 51.5t20.5 51.5t51.5 20.5
t51.5 -20.5t20.5 -51.5t-20.5 -51.5t-51.5 -20.5zM766 522l74 207q3 17 22 10q6 -2 9.5 -8.5t0.5 -13.5l-57 -160h70q7 0 12.5 -5.5t5.5 -12.5q0 -6 -5.5 -11.5t-12.5 -5.5h-119zM449 350q-61 0 -101.5 40t-40.5 102q0 61 40 101t102 40q61 0 101 -39.5t40 -101.5t-40 -102
t-101 -40zM1253 350q-61 0 -101 40t-40 102t40 101.5t101 39.5q62 0 102 -40t40 -101q0 -62 -40.5 -102t-101.5 -40zM852 395q-96 0 -127 -61q-6 -12 -18 -12q-17 0 -17 18q0 35 50 63.5t112 28.5t112 -28.5t50 -63.5q0 -18 -17 -18q-12 0 -18 12q-31 61 -127 61z" />
    <glyph glyph-name=".null" horiz-adv-x="0" 
 />
    <glyph glyph-name="nonmarkingreturn" horiz-adv-x="682" 
 />
    <glyph glyph-name="CR" unicode="&#xd;" horiz-adv-x="0" 
 />
    <glyph glyph-name="CR" horiz-adv-x="0" 
 />
    <glyph glyph-name="space" unicode=" " horiz-adv-x="634" 
 />
    <glyph glyph-name="exclam" unicode="!" horiz-adv-x="573" 
d="M520 1434l-227 -1031h-53l182 1031h98zM113 0l32 164h164l-33 -164h-163z" />
    <glyph glyph-name="quotedbl" unicode="&#x22;" horiz-adv-x="479" 
d="M221 946l74 518h90l-127 -518h-37zM406 946l73 518h90l-127 -518h-36z" />
    <glyph glyph-name="numbersign" unicode="#" horiz-adv-x="1290" 
d="M1280 946h-264l-156 -414h266l-12 -61h-278l-177 -471h-71l176 471h-328l-176 -471h-72l177 471h-263l13 61h274l156 414h-277l13 62h286l160 426h72l-160 -426h328l159 426h72l-160 -426h254zM788 532l156 414h-328l-155 -414h327z" />
    <glyph glyph-name="dollar" unicode="$" horiz-adv-x="1038" 
d="M737 1409q152 -19 239 -96.5t87 -196.5q0 -34 -4 -57h-74q2 8 2 41q0 98 -70.5 160.5t-193.5 74.5l-113 -577q46 -24 70.5 -38t65.5 -40t64 -47t52.5 -53.5t44.5 -65.5t26 -77t11 -93q0 -177 -122.5 -276t-340.5 -99h-24l-25 -127h-57l24 131q-171 15 -269.5 97
t-98.5 209q0 29 6 67h76q-4 -29 -4 -53q0 -102 81.5 -168t223.5 -80l129 662q-41 22 -66 36t-61 37.5t-58 43t-47.5 48t-39.5 58t-23.5 67.5t-9.5 80q0 155 111.5 245.5t303.5 90.5h27l29 148h57zM557 784l109 555h-7q-157 0 -248.5 -70.5t-91.5 -191.5q0 -54 18 -98
t55 -79.5t73 -60t92 -55.5zM862 346q0 63 -20.5 114.5t-62 91t-82.5 66.5t-103 60l-123 -635h10q180 0 280.5 80t100.5 223z" />
    <glyph glyph-name="percent" unicode="%" horiz-adv-x="1521" 
d="M512 809q-122 0 -203.5 70t-81.5 200q0 149 104 257t259 108q121 0 202.5 -70t81.5 -200q0 -149 -103.5 -257t-258.5 -108zM260 0l995 1382h74l-995 -1382h-74zM516 879q123 0 204 89t81 203q0 98 -61.5 150.5t-153.5 52.5q-123 0 -204 -89.5t-81 -203.5q0 -98 61.5 -150
t153.5 -52zM1026 -10q-122 0 -203.5 70t-81.5 200q0 149 104 257t259 108q121 0 203 -70.5t82 -200.5q0 -149 -104 -256.5t-259 -107.5zM1030 59q123 0 204 89.5t81 203.5q0 98 -61.5 150.5t-153.5 52.5q-123 0 -204 -89.5t-81 -203.5q0 -98 61.5 -150.5t153.5 -52.5z" />
    <glyph glyph-name="ampersand" unicode="&#x26;" horiz-adv-x="1378" 
d="M1268 643q-95 -247 -215 -405l151 -238h-88l-115 176q-191 -207 -471 -207q-201 0 -324.5 107.5t-123.5 296.5q0 191 128.5 315t346.5 170q-90 151 -90 277q0 121 82 199.5t231 78.5q148 0 303 -94l-45 -70q-143 86 -260 86q-107 0 -166 -55t-59 -147q0 -109 86 -246
l369 -578q103 140 190 367zM530 47q246 0 426 199l-356 545q-95 -20 -171 -53.5t-135 -83t-91.5 -119t-32.5 -154.5q0 -152 98 -243t262 -91z" />
    <glyph glyph-name="quotesingle" unicode="'" horiz-adv-x="294" 
d="M385 1464l-127 -518h-37l74 518h90z" />
    <glyph glyph-name="parenleft" unicode="(" horiz-adv-x="591" 
d="M309 -440q-176 324 -176 733q0 162 26 308t71.5 269t116.5 243t151.5 222.5t187.5 214.5l66 -47q-287 -305 -410 -586t-123 -614q0 -397 160 -704z" />
    <glyph glyph-name="parenright" unicode=")" horiz-adv-x="591" 
d="M313 1546q176 -324 176 -733q0 -201 -37.5 -376t-114 -328t-171.5 -282t-229 -271l-66 47q287 305 409.5 586t122.5 614q0 399 -159 704z" />
    <glyph glyph-name="asterisk" unicode="*" horiz-adv-x="811" 
d="M889 1190l-309 -86l200 -252l-57 -41l-176 268l-178 -270l-58 43l201 250l-311 86l22 67l299 -112l-14 321h72l-15 -319l301 112z" />
    <glyph glyph-name="plus" unicode="+" 
d="M672 1108v-469h469v-57h-469v-469h-62v469h-469v57h469v469h62z" />
    <glyph glyph-name="comma" unicode="," horiz-adv-x="413" 
d="M-27 -246l158 246h-86l33 164h164l-33 -164l-180 -246h-56z" />
    <glyph glyph-name="hyphen" unicode="-" horiz-adv-x="679" 
d="M100 520l17 82h495l-16 -82h-496z" />
    <glyph glyph-name="period" unicode="." horiz-adv-x="389" 
d="M20 0l33 164h164l-33 -164h-164z" />
    <glyph glyph-name="slash" unicode="/" horiz-adv-x="1077" 
d="M-2 -170l-55 33l1226 1712l54 -33z" />
    <glyph glyph-name="zero" unicode="0" horiz-adv-x="1183" 
d="M549 -31q-205 0 -314.5 135.5t-109.5 389.5q0 194 45.5 364.5t124.5 292t189.5 192t236.5 70.5q205 0 314.5 -135t109.5 -389q0 -258 -77.5 -469t-214 -331t-304.5 -120zM547 43q140 0 259 113.5t188 308.5t69 426q0 217 -88 332.5t-252 115.5q-140 0 -259 -113
t-188 -308t-69 -426q0 -217 88 -333t252 -116z" />
    <glyph glyph-name="one" unicode="1" horiz-adv-x="602" 
d="M532 1382l-268 -1382h-74l256 1313h-139l12 69h213z" />
    <glyph glyph-name="two" unicode="2" horiz-adv-x="1032" 
d="M664 1413q180 0 283.5 -87t103.5 -239q0 -118 -68 -227.5t-225 -243.5l-635 -546h739l-14 -70h-848l14 70l676 587q151 130 215 228t64 196q0 117 -83 186.5t-222 69.5q-154 0 -252.5 -79t-126.5 -224h-82q32 186 149.5 282.5t311.5 96.5z" />
    <glyph glyph-name="three" unicode="3" horiz-adv-x="1097" 
d="M702 745q137 -19 209 -104t72 -227q0 -207 -134.5 -326t-369.5 -119q-198 0 -309 79t-111 220q0 35 4 62h82q-1 -9 -2 -27.5t-2 -26.5q0 -109 90 -170t250 -61q198 0 309 98t111 273q0 160 -105.5 227.5t-357.5 67.5l15 69q510 0 510 307q0 120 -75 185t-214 65
q-151 0 -244 -70t-108 -196h-82q22 161 135.5 251.5t296.5 90.5q174 0 274.5 -85t100.5 -234q0 -138 -91 -229.5t-254 -116.5v-3z" />
    <glyph glyph-name="four" unicode="4" horiz-adv-x="1128" 
d="M1036 365l-14 -72h-201l-57 -293h-74l58 293h-742l12 61l897 1028h117l-196 -1017h200zM123 365h639l182 929h-8z" />
    <glyph glyph-name="five" unicode="5" horiz-adv-x="1081" 
d="M580 899q187 0 298 -113.5t111 -304.5q0 -231 -146.5 -371.5t-387.5 -140.5q-177 0 -292 79t-159 231l68 30q41 -134 136.5 -199t250.5 -65q206 0 327 117.5t121 316.5q0 162 -89.5 253t-248.5 91q-223 0 -358 -188h-74l228 747h675l-14 -69h-614l-170 -568h6
q54 74 140.5 114t191.5 40z" />
    <glyph glyph-name="six" unicode="6" horiz-adv-x="1101" 
d="M494 -31q-198 0 -314.5 109t-116.5 295q0 138 66 267.5t215 281.5l459 471h106l-598 -611l4 -4q162 137 342 137q183 0 292.5 -109t109.5 -292q0 -113 -44 -214.5t-119.5 -173.5t-180 -114.5t-221.5 -42.5zM496 45q203 0 342 135.5t139 333.5q0 152 -88 240t-242 88
q-135 0 -251.5 -64.5t-185.5 -173.5t-69 -235q0 -148 97 -236t258 -88z" />
    <glyph glyph-name="seven" unicode="7" horiz-adv-x="864" 
d="M1020 1382l-14 -73l-865 -1313h-88l865 1311h-736l15 75h823z" />
    <glyph glyph-name="eight" unicode="8" horiz-adv-x="1136" 
d="M520 -31q-205 0 -321.5 96.5t-116.5 266.5q0 152 96.5 262.5t257.5 142.5v4q-178 81 -178 279q0 177 125.5 285t329.5 108q185 0 289 -85.5t104 -237.5q0 -128 -80.5 -220t-224.5 -129v-4q100 -31 155.5 -115t55.5 -208q0 -204 -133 -324.5t-359 -120.5zM629 774
q173 0 284 89.5t111 228.5q0 115 -82.5 180t-228.5 65q-167 0 -270 -87.5t-103 -229.5q0 -119 75 -182.5t214 -63.5zM524 45q189 0 297.5 98.5t108.5 268.5q0 284 -324 284q-197 0 -319.5 -101.5t-122.5 -264.5q0 -134 95.5 -209.5t264.5 -75.5z" />
    <glyph glyph-name="nine" unicode="9" horiz-adv-x="1060" 
d="M248 0l618 594l-6 4q-153 -123 -338 -123q-178 0 -285.5 110.5t-107.5 293.5q0 110 43 209t116 170.5t174.5 113t213.5 41.5q197 0 316.5 -113.5t119.5 -300.5q0 -264 -272 -530l-482 -469h-110zM549 551q130 0 241.5 61.5t176.5 166.5t65 227q0 149 -96.5 240t-253.5 91
q-195 0 -333 -133t-138 -323q0 -152 91.5 -241t246.5 -89z" />
    <glyph glyph-name="colon" unicode=":" horiz-adv-x="389" 
d="M172 782l33 164h164l-33 -164h-164zM20 0l33 164h164l-33 -164h-164z" />
    <glyph glyph-name="semicolon" unicode=";" horiz-adv-x="413" 
d="M172 782l33 164h164l-33 -164h-164zM-27 -246l158 246h-86l33 164h164l-33 -164l-180 -246h-56z" />
    <glyph glyph-name="less" unicode="&#x3c;" 
d="M1044 1030v-69l-802 -349l802 -348v-69l-880 389v57z" />
    <glyph glyph-name="equal" unicode="=" 
d="M1159 809v-57h-1036v57h1036zM1159 471v-57h-1036v57h1036z" />
    <glyph glyph-name="greater" unicode="&#x3e;" 
d="M238 1030l880 -389v-57l-880 -389v69l802 348l-802 349v69z" />
    <glyph glyph-name="question" unicode="?" horiz-adv-x="948" 
d="M385 403l10 52q20 99 84.5 179.5t220.5 201.5q107 86 157 163.5t50 159.5q0 107 -76 167t-213 60q-148 0 -236.5 -69t-113.5 -203h-82q29 173 139.5 261.5t295.5 88.5q175 0 273.5 -80t98.5 -221q0 -103 -58 -196.5t-185 -192.5q-4 -3 -49 -38t-59 -46.5t-50.5 -45.5
t-53 -56.5t-35 -56.5t-24.5 -66l-12 -62h-82zM281 0l32 164h164l-33 -164h-163z" />
    <glyph glyph-name="at" unicode="@" horiz-adv-x="1935" 
d="M936 -307q-124 0 -239 27.5t-220 89.5t-182.5 152.5t-123.5 224.5t-46 298q0 269 117.5 480t334 329.5t496.5 118.5q238 0 418.5 -85t278.5 -241t98 -360q0 -109 -29 -214.5t-79.5 -189.5t-128 -136t-167.5 -52q-93 0 -131.5 53.5t-25.5 145.5h-7q-149 -228 -387 -228
q-166 0 -269 106.5t-103 287.5q0 146 69.5 261.5t182 176.5t245.5 61t221 -63t121 -174h6l41 207h66l-119 -613q-6 -27 -6 -49q0 -106 109 -106q90 0 164.5 74.5t115.5 193t41 250.5q0 193 -94 336.5t-256.5 217t-370.5 73.5q-186 0 -348 -62t-279.5 -173t-185 -273
t-67.5 -353q0 -148 41 -270t110.5 -204.5t164.5 -139.5t200.5 -83t220.5 -26q235 0 444 97l23 -66q-221 -100 -465 -100zM918 176q119 0 220.5 59t160.5 161t59 222q0 142 -84.5 227t-233.5 85q-185 0 -304.5 -125t-119.5 -309q0 -144 79 -232t223 -88z" />
    <glyph glyph-name="A" unicode="A" horiz-adv-x="1304" 
d="M1096 0l-88 418h-725l-242 -418h-102l837 1434h92l314 -1434h-86zM326 496h665l-178 843z" />
    <glyph glyph-name="B" unicode="B" horiz-adv-x="1255" 
d="M856 758q136 -22 208.5 -107.5t72.5 -220.5q0 -103 -43 -186t-115.5 -135.5t-165 -80.5t-195.5 -28h-546l278 1434h451q176 0 275.5 -80t99.5 -228q0 -133 -83 -233t-237 -131v-4zM422 1356l-111 -561h361q205 0 310 87t105 238q0 116 -71 176t-228 60h-366zM616 78
q192 0 313.5 96t121.5 254q0 136 -89.5 212.5t-252.5 76.5h-412l-125 -639h444z" />
    <glyph glyph-name="C" unicode="C" horiz-adv-x="1443" 
d="M780 -31q-308 0 -480.5 174t-172.5 473q0 182 64.5 339.5t178 269.5t274.5 175.5t347 63.5q279 0 494 -164l-53 -69q-195 149 -451 149q-217 0 -393 -102t-274.5 -275.5t-98.5 -381.5q0 -266 152.5 -417t427.5 -151q133 0 242 38.5t223 111.5l47 -72
q-125 -83 -251 -122.5t-276 -39.5z" />
    <glyph glyph-name="D" unicode="D" horiz-adv-x="1413" 
d="M72 0l278 1434h424q279 0 443.5 -161t164.5 -446q0 -189 -69.5 -346.5t-188 -261.5t-275.5 -161.5t-333 -57.5h-444zM172 78h338q157 0 298 50.5t249.5 142.5t172.5 234t64 314q0 254 -144.5 395.5t-389.5 141.5h-338z" />
    <glyph glyph-name="E" unicode="E" horiz-adv-x="1048" 
d="M1118 1356h-696l-100 -510h641l-15 -78h-641l-135 -690h707l-15 -78h-792l278 1434h783z" />
    <glyph glyph-name="F" unicode="F" horiz-adv-x="1017" 
d="M1128 1356h-706l-107 -549h648l-17 -78h-647l-141 -729h-86l278 1434h793z" />
    <glyph glyph-name="G" unicode="G" horiz-adv-x="1656" 
d="M961 727h673l-6 -35q-22 -127 -62 -233.5t-105.5 -198.5t-152.5 -155.5t-207 -99.5t-265 -36q-323 0 -514 179.5t-191 488.5q0 176 62.5 329t172 262.5t266.5 172.5t339 63q180 0 310 -49.5t247 -140.5l-64 -70q-97 80 -215.5 128t-283.5 48q-120 0 -232 -34t-205 -99.5
t-162.5 -154.5t-108 -205.5t-38.5 -245.5q0 -269 164.5 -428.5t452.5 -159.5q131 0 239 33t182 88t130.5 134t89 161.5t51.5 179.5h-582z" />
    <glyph glyph-name="H" unicode="H" horiz-adv-x="1363" 
d="M1300 1434h86l-278 -1434h-86l141 731h-864l-141 -731h-86l278 1434h86l-121 -625h865z" />
    <glyph glyph-name="I" unicode="I" horiz-adv-x="413" 
d="M72 0l278 1434h86l-278 -1434h-86z" />
    <glyph glyph-name="J" unicode="J" horiz-adv-x="550" 
d="M-53 -10l16 82h47q106 0 168 48.5t84 162.5l225 1151h86l-225 -1151q-32 -159 -113.5 -226t-234.5 -67h-53z" />
    <glyph glyph-name="K" unicode="K" horiz-adv-x="1191" 
d="M1223 1434l-807 -656l674 -778h-123l-658 776l-151 -776h-86l278 1434h86l-125 -641l774 641h138z" />
    <glyph glyph-name="L" unicode="L" horiz-adv-x="993" 
d="M72 0l278 1434h86l-264 -1356h723l-14 -78h-809z" />
    <glyph glyph-name="M" unicode="M" horiz-adv-x="1714" 
d="M-61 0l628 1434h86l185 -1057h4l594 1057h86l69 -1434h-88l-57 1264h-4l-582 -1022h-80l-188 1024h-4l-551 -1266h-98z" />
    <glyph glyph-name="N" unicode="N" horiz-adv-x="1413" 
d="M72 0l278 1434h96l646 -1307h4l254 1307h86l-279 -1434h-96l-645 1307h-4l-254 -1307h-86z" />
    <glyph glyph-name="O" unicode="O" horiz-adv-x="1714" 
d="M842 -31q-320 0 -514.5 185t-194.5 495q0 168 61 317.5t168.5 259.5t264.5 174t340 64q320 0 514 -185t194 -495q0 -168 -61 -317.5t-168.5 -259.5t-264 -174t-339.5 -64zM842 53q164 0 305 60t236.5 161t149.5 236t54 283q0 180 -82 314.5t-221.5 203.5t-316.5 69
q-164 0 -305 -59.5t-237 -161t-150 -236t-54 -282.5q0 -180 82 -315t222 -204t317 -69z" />
    <glyph glyph-name="P" unicode="P" horiz-adv-x="1124" 
d="M770 1434q186 0 291.5 -103t105.5 -270q0 -192 -135 -317.5t-370 -125.5h-383l-121 -618h-86l278 1434h420zM664 696q188 0 301.5 95t113.5 262q0 145 -84.5 224t-228.5 79h-344l-129 -660h371z" />
    <glyph glyph-name="Q" unicode="Q" horiz-adv-x="1730" 
d="M1675 784q0 -186 -72.5 -347.5t-205.5 -274.5l168 -178h-113l-123 129q-210 -144 -487 -144q-320 0 -514.5 185t-194.5 495q0 168 61 317.5t168.5 259.5t264.5 174t340 64q320 0 514 -185t194 -495zM842 53q238 0 426 125l-283 299h113l235 -250q121 103 187.5 251
t66.5 315q0 180 -82 314.5t-221.5 203.5t-316.5 69q-164 0 -305 -59.5t-237 -161t-150 -236t-54 -282.5q0 -180 82 -315t222 -204t317 -69z" />
    <glyph glyph-name="R" unicode="R" horiz-adv-x="1144" 
d="M1167 1081q0 -91 -31.5 -169.5t-91.5 -139t-153 -96t-209 -37.5l319 -639l-102 2l-311 637h-305l-125 -639h-86l278 1434h445q176 0 274 -97.5t98 -255.5zM672 717q182 0 294.5 94.5t112.5 261.5q0 135 -77.5 209t-210.5 74h-369l-125 -639h375z" />
    <glyph glyph-name="S" unicode="S" horiz-adv-x="1064" 
d="M524 -31q-303 0 -528 221l59 66q216 -203 473 -203q159 0 244.5 72t85.5 203q0 55 -15.5 102.5t-46.5 88t-62.5 71t-78.5 67.5l-149 119q-109 86 -166 171.5t-57 195.5q0 140 92.5 230.5t269.5 90.5q119 0 219.5 -38t208.5 -115l-57 -76q-81 67 -178.5 106t-194.5 39
q-131 0 -201.5 -66t-70.5 -171q0 -154 180 -293l172 -133q107 -82 165 -172t58 -215q0 -172 -111.5 -266.5t-310.5 -94.5z" />
    <glyph glyph-name="T" unicode="T" horiz-adv-x="1064" 
d="M1221 1434l-15 -78h-458l-265 -1356h-86l265 1356h-459l14 78h1004z" />
    <glyph glyph-name="U" unicode="U" horiz-adv-x="1431" 
d="M1454 1434l-178 -916q-23 -119 -66.5 -214t-115.5 -172.5t-183 -120t-254 -42.5q-239 0 -366 115.5t-127 321.5q0 70 14 141l174 887h90l-174 -895q-14 -79 -14 -131q0 -166 105 -260.5t298 -94.5q224 0 356 128t177 358l174 895h90z" />
    <glyph glyph-name="V" unicode="V" horiz-adv-x="1173" 
d="M453 0l-256 1434h96l219 -1305h4l727 1305h107l-811 -1434h-86z" />
    <glyph glyph-name="W" unicode="W" horiz-adv-x="1972" 
d="M2128 1434l-725 -1434h-90l-164 1294h-4l-672 -1294h-90l-166 1434h98l129 -1293h5l667 1293h98l164 -1293h4l637 1293h109z" />
    <glyph glyph-name="X" unicode="X" horiz-adv-x="1208" 
d="M1309 1434l-592 -682l358 -752h-98l-326 680l-588 -680h-114l659 762l-319 672h98l287 -603l520 603h115z" />
    <glyph glyph-name="Y" unicode="Y" horiz-adv-x="1069" 
d="M1235 1434l-643 -885l-107 -549h-86l107 547l-299 887h98l252 -797h4l565 797h109z" />
    <glyph glyph-name="Z" unicode="Z" horiz-adv-x="1132" 
d="M1241 1434l-14 -80l-1137 -1274h903l-14 -80h-1008l15 80l1134 1274h-803l15 80h909z" />
    <glyph glyph-name="bracketleft" unicode="[" horiz-adv-x="561" 
d="M745 1526l-14 -70h-262l-354 -1827h262l-15 -69h-335l383 1966h335z" />
    <glyph glyph-name="backslash" unicode="\" horiz-adv-x="1107" 
d="M868 -170l-600 1712l56 21l602 -1713z" />
    <glyph glyph-name="bracketright" unicode="]" horiz-adv-x="561" 
d="M-158 -440l15 69h262l354 1827h-262l14 70h336l-383 -1966h-336z" />
    <glyph glyph-name="asciicircum" unicode="^" 
d="M727 1464l305 -659h-80l-274 600l-275 -600h-79l305 659h98z" />
    <glyph glyph-name="underscore" unicode="_" horiz-adv-x="1091" 
d="M-92 -102l14 71h1051l-15 -71h-1050z" />
    <glyph glyph-name="grave" unicode="`" horiz-adv-x="512" 
d="M406 1448l133 -315h-68l-178 315h113z" />
    <glyph glyph-name="a" unicode="a" horiz-adv-x="1200" 
d="M510 -31q-195 0 -311.5 121t-116.5 324q0 157 70 286.5t193 203t273 73.5q153 0 262.5 -72.5t149.5 -199.5h4l47 241h78l-184 -946h-78l37 184h-4q-156 -215 -420 -215zM532 45q203 0 338.5 140.5t135.5 351.5q0 167 -104 265.5t-281 98.5q-193 0 -325 -142t-132 -349
q0 -167 99.5 -266t268.5 -99z" />
    <glyph glyph-name="b" unicode="b" horiz-adv-x="1218" 
d="M584 -31q-156 0 -257.5 72t-138.5 190h-4l-45 -231h-78l279 1434h78l-129 -672h4q67 94 179.5 154.5t246.5 60.5q186 0 303 -116.5t117 -317.5q0 -153 -68 -283.5t-196.5 -210.5t-290.5 -80zM580 45q111 0 203 42.5t150.5 113t91 159t32.5 183.5q0 164 -93 261t-255 97
q-135 0 -249 -69t-179.5 -184.5t-65.5 -248.5q0 -162 98 -258t267 -96z" />
    <glyph glyph-name="c" unicode="c" horiz-adv-x="1021" 
d="M563 -31q-217 0 -347 128.5t-130 340.5q0 233 155 386t398 153q204 0 358 -125l-47 -64q-147 113 -313 113q-203 0 -336 -133.5t-133 -329.5q0 -178 112.5 -285.5t284.5 -107.5q142 0 287 92l41 -69q-156 -99 -330 -99z" />
    <glyph glyph-name="d" unicode="d" horiz-adv-x="1220" 
d="M1174 1434h77l-276 -1434h-78l37 184h-4q-156 -215 -420 -215q-195 0 -311.5 121t-116.5 324q0 157 70 286.5t193 203t273 73.5q153 0 262.5 -72.5t149.5 -199.5h4zM532 45q203 0 338.5 140.5t135.5 351.5q0 167 -104 265.5t-281 98.5q-193 0 -325 -142t-132 -349
q0 -167 99.5 -266t268.5 -99z" />
    <glyph glyph-name="e" unicode="e" horiz-adv-x="1122" 
d="M1040 473h-872q-6 -37 -6 -78q0 -170 92.5 -261t261.5 -91q131 0 221.5 49.5t177.5 140.5l58 -59q-38 -36 -59.5 -55t-69 -53t-90 -52t-107.5 -32.5t-135 -14.5q-205 0 -318.5 111t-113.5 315q0 163 70.5 296t201.5 210.5t297 77.5q199 0 304.5 -106t105.5 -265
q0 -48 -19 -133zM643 901q-174 0 -297 -101.5t-166 -260.5h791q6 30 6 61q0 136 -87.5 218.5t-246.5 82.5z" />
    <glyph glyph-name="f" unicode="f" horiz-adv-x="651" 
d="M754 1454h26l-14 -74h-29q-216 0 -262 -241l-37 -193h244l-12 -65h-246l-172 -881h-78l172 881h-205l13 65h204l39 195q33 171 123.5 242t233.5 71z" />
    <glyph glyph-name="g" unicode="g" horiz-adv-x="1200" 
d="M1081 946h78l-184 -946q-44 -233 -160.5 -335.5t-337.5 -102.5q-192 0 -391 92l35 76q188 -92 360 -92q182 0 280.5 86t135.5 276l37 184h-4q-156 -215 -420 -215q-195 0 -311.5 121t-116.5 324q0 157 70 286.5t193 203t273 73.5q153 0 262.5 -72.5t149.5 -199.5h4z
M532 45q203 0 338.5 140.5t135.5 351.5q0 167 -104 265.5t-281 98.5q-193 0 -325 -142t-132 -349q0 -167 99.5 -266t268.5 -99z" />
    <glyph glyph-name="h" unicode="h" horiz-adv-x="1120" 
d="M61 0l279 1434h78l-142 -725h5q70 134 167 201t238 67q150 0 236 -81t86 -243q0 -50 -11 -106l-102 -547h-78l103 547q10 62 10 98q0 129 -66 192.5t-188 63.5q-78 0 -146.5 -26.5t-130 -82t-108.5 -152t-72 -226.5l-80 -414h-78z" />
    <glyph glyph-name="i" unicode="i" horiz-adv-x="344" 
d="M401 1413l-49 -246h-106l49 246h106zM41 0l184 946h78l-184 -946h-78z" />
    <glyph glyph-name="j" unicode="j" horiz-adv-x="346" 
d="M403 1413l-49 -246h-106l49 246h106zM-250 -344h49q83 0 139 48t74 140l215 1102h78l-215 -1102q-28 -142 -105 -202t-200 -60h-49z" />
    <glyph glyph-name="k" unicode="k" horiz-adv-x="897" 
d="M909 946l-577 -438l452 -508h-112l-436 498l-97 -498h-78l279 1434h78l-176 -912l532 424h135z" />
    <glyph glyph-name="l" unicode="l" horiz-adv-x="385" 
d="M61 0l279 1434h78l-279 -1434h-78z" />
    <glyph glyph-name="m" unicode="m" horiz-adv-x="1650" 
d="M41 0l184 946h78l-41 -209h2q122 240 357 240q246 0 270 -246h4q119 246 369 246q83 0 145 -25t101.5 -87t39.5 -158q0 -63 -14 -134l-111 -573h-77l112 575q13 73 13 117q0 105 -56 157t-155 52q-154 0 -254.5 -100t-139.5 -303l-96 -498h-78l105 539q14 71 14 137
q0 225 -209 225q-151 0 -252 -112.5t-145 -337.5l-88 -451h-78z" />
    <glyph glyph-name="n" unicode="n" horiz-adv-x="1101" 
d="M41 0l184 946h78l-49 -237h4q73 139 173 203.5t237 64.5q159 0 242 -79t83 -220q0 -72 -16 -158l-103 -520h-77l102 520q14 69 14 139q0 125 -62.5 183.5t-188.5 58.5q-369 0 -463 -487l-80 -414h-78z" />
    <glyph glyph-name="o" unicode="o" horiz-adv-x="1193" 
d="M543 -31q-209 0 -335 115t-126 328q0 114 42 217t115.5 180t180.5 122.5t231 45.5q209 0 335 -114.5t126 -327.5q0 -114 -42 -217t-115.5 -180.5t-180.5 -123t-231 -45.5zM551 45q139 0 250 71t170 183.5t59 241.5q0 167 -104 263.5t-283 96.5q-139 0 -250 -70.5
t-170 -183t-59 -241.5q0 -167 104 -264t283 -97z" />
    <glyph glyph-name="p" unicode="p" horiz-adv-x="1196" 
d="M-39 -410l264 1356h78l-39 -196h4q73 104 185.5 165.5t246.5 61.5q189 0 303.5 -112.5t114.5 -303.5q0 -130 -46 -241.5t-123.5 -187.5t-181 -119.5t-218.5 -43.5q-152 0 -251.5 72t-129.5 182h-4l-125 -633h-78zM553 45q206 0 344.5 147.5t138.5 364.5q0 155 -92 249.5
t-252 94.5q-140 0 -254 -67.5t-178.5 -184.5t-64.5 -260q0 -155 95.5 -249.5t262.5 -94.5z" />
    <glyph glyph-name="q" unicode="q" horiz-adv-x="1200" 
d="M1081 946h78l-264 -1356h-78l117 594h-4q-156 -215 -420 -215q-195 0 -311.5 121t-116.5 324q0 157 70 286.5t193 203t273 73.5q153 0 262.5 -72.5t149.5 -199.5h4zM532 45q203 0 338.5 140.5t135.5 351.5q0 167 -104 265.5t-281 98.5q-193 0 -325 -142t-132 -349
q0 -167 99.5 -266t268.5 -99z" />
    <glyph glyph-name="r" unicode="r" horiz-adv-x="622" 
d="M41 0l184 946h78l-43 -219h4q42 110 134.5 179t217.5 69q24 0 52 -4l-17 -86q-20 4 -45 4q-156 0 -257 -110t-138 -300l-92 -479h-78z" />
    <glyph glyph-name="s" unicode="s" horiz-adv-x="806" 
d="M43 201q166 -156 354 -156q110 0 159.5 44.5t49.5 119.5q0 59 -33 104t-100 90l-113 76q-42 29 -67.5 49.5t-55.5 53.5t-44.5 73t-14.5 88q0 109 74 171.5t203 62.5q154 0 311 -105l-47 -69q-135 98 -266 98q-93 0 -143 -43.5t-50 -118.5q0 -33 10 -60t33.5 -51
t42.5 -38.5t57 -40.5l111 -76q43 -29 67.5 -49.5t52.5 -52.5t41 -71.5t13 -88.5q0 -125 -80 -183.5t-215 -58.5q-224 0 -407 168z" />
    <glyph glyph-name="t" unicode="t" horiz-adv-x="593" 
d="M406 881l-123 -629q-7 -47 -7 -74q0 -46 29 -75t84 -29h64l-15 -78h-63q-82 0 -130 47.5t-48 126.5q0 34 8 80l123 631h-207l12 65h207l74 379h78l-74 -379h227l-12 -65h-227z" />
    <glyph glyph-name="u" unicode="u" horiz-adv-x="1069" 
d="M412 -31q-152 0 -235 78.5t-83 216.5q0 56 15 133l108 549h82l-109 -555q-12 -61 -12 -112q0 -116 61 -175t177 -59q165 0 282 121.5t170 386.5l78 393h82l-184 -946h-78l45 221h-4q-27 -51 -61.5 -93t-82.5 -79.5t-112.5 -58.5t-138.5 -21z" />
    <glyph glyph-name="v" unicode="v" horiz-adv-x="921" 
d="M887 946h96l-575 -946h-78l-207 946h88l170 -854z" />
    <glyph glyph-name="w" unicode="w" horiz-adv-x="1507" 
d="M1475 946h94l-508 -946h-84l-137 854l-475 -854h-82l-140 946h88l105 -852l469 852h92l135 -850z" />
    <glyph glyph-name="x" unicode="x" horiz-adv-x="933" 
d="M963 946l-443 -452l291 -494h-86l-258 438l-428 -438h-100l489 502l-262 444h86l229 -389l381 389h101z" />
    <glyph glyph-name="y" unicode="y" horiz-adv-x="907" 
d="M881 946h88l-881 -1356h-86l344 529l-223 827h84l192 -747z" />
    <glyph glyph-name="z" unicode="z" horiz-adv-x="915" 
d="M913 946l-14 -67l-811 -805h688l-14 -74h-793l15 70l809 804h-594l14 72h700z" />
    <glyph glyph-name="braceleft" unicode="{" horiz-adv-x="704" 
d="M889 1526l-15 -76h-45q-119 0 -189 -62t-97 -198l-64 -320q-28 -138 -82 -200t-161 -74v-4q147 -20 147 -170q0 -38 -10 -96l-82 -430q-10 -55 -10 -89q0 -89 48.5 -130.5t145.5 -41.5h45l-14 -75h-41q-127 0 -195.5 58.5t-68.5 178.5q0 47 12 105l82 420q8 41 8 79
q0 81 -50 116t-165 40l16 82q76 3 121 12.5t82.5 35t58 69.5t35.5 118l64 312q37 188 126.5 264t256.5 76h41z" />
    <glyph glyph-name="bar" unicode="|" horiz-adv-x="512" 
d="M47 -440l375 1929h61l-374 -1929h-62z" />
    <glyph glyph-name="braceright" unicode="}" horiz-adv-x="704" 
d="M-158 -440l15 75h45q119 0 189 62.5t97 198.5l64 319q28 138 82 200t162 74v5q-148 20 -148 170q0 38 10 96l82 430q11 60 11 88q0 89 -49 130.5t-146 41.5h-45l14 76h41q126 0 195 -59t69 -179q0 -46 -12 -104l-82 -420q-8 -41 -8 -80q0 -81 50 -116t165 -40l-16 -82
q-76 -3 -121 -12.5t-82.5 -35t-58 -69.5t-35.5 -118l-64 -311q-37 -188 -126.5 -264t-256.5 -76h-41z" />
    <glyph glyph-name="asciitilde" unicode="~" 
d="M403 760q55 0 109 -19.5t99 -47t88 -55.5t92.5 -47.5t97.5 -19.5q120 0 250 113l45 -66q-154 -124 -301 -124q-67 0 -135.5 29.5t-117 64.5t-112 64.5t-121.5 29.5q-120 0 -250 -113l-45 66q155 125 301 125z" />
    <glyph glyph-name="exclamdown" unicode="&#xa1;" horiz-adv-x="573" 
d="M477 1024l-33 -164h-163l32 164h164zM70 -410l227 1031h53l-182 -1031h-98z" />
    <glyph glyph-name="cent" unicode="&#xa2;" horiz-adv-x="974" 
d="M963 838q-144 65 -271 65l-166 -860h17q119 0 278 76l-14 -86q-146 -64 -277 -64h-18l-20 -100h-58l21 104q-168 23 -265.5 139t-97.5 294q0 242 154.5 399.5t402.5 169.5l23 112h57l-22 -110q155 -3 270 -64zM174 401q0 -147 78 -239.5t217 -112.5l166 852
q-205 -19 -333 -157t-128 -343z" />
    <glyph glyph-name="sterling" unicode="&#xa3;" horiz-adv-x="1044" 
d="M750 1413q167 0 260.5 -74.5t93.5 -208.5q0 -34 -6 -71h-74q2 10 2 47q0 233 -278 233q-166 0 -267.5 -97t-101.5 -257q0 -81 35 -217h448l-12 -61h-418q49 -165 49 -254q0 -115 -76 -207t-239 -174l-2 -4h737l-12 -68h-834l17 82q180 95 254.5 179t74.5 190q0 39 -9 88
t-16.5 76t-27.5 92h-221l12 61h191q-33 125 -33 219q0 193 123.5 309.5t329.5 116.5z" />
    <glyph glyph-name="currency" unicode="&#xa4;" 
d="M211 186l-39 41l115 115q-115 134 -115 322q0 187 115 321l-115 115l41 41l115 -115q136 113 321 113q186 0 322 -113l114 115l41 -41l-114 -115q114 -133 114 -321q0 -190 -116 -322l116 -117l-41 -39l-114 115q-136 -113 -322 -113q-190 0 -321 115zM649 260
q182 0 293 113t111 291t-111 290.5t-293 112.5t-292.5 -112.5t-110.5 -290.5q0 -179 111 -291.5t292 -112.5z" />
    <glyph glyph-name="yen" unicode="&#xa5;" horiz-adv-x="995" 
d="M1120 1382l-444 -661h299l-12 -62h-328l-78 -114h383l-12 -62h-391l-95 -483h-73l94 483h-391l12 62h383l-33 114h-328l13 62h297l-189 661h78l213 -782l512 782h90z" />
    <glyph glyph-name="brokenbar" unicode="&#xa6;" horiz-adv-x="514" 
d="M485 1489l-155 -795h-62l156 795h61zM49 -438l158 809h61l-157 -809h-62z" />
    <glyph glyph-name="section" unicode="&#xa7;" horiz-adv-x="1087" 
d="M680 1389q-151 0 -231 -68t-80 -174q0 -54 21.5 -96t57.5 -70t83 -51t99 -42t104 -38.5t99 -45.5t83 -58.5t57.5 -81.5t21.5 -111q0 -123 -75.5 -197.5t-206.5 -119.5q127 -85 127 -242q0 -143 -100 -231.5t-291 -88.5q-108 0 -214.5 29.5t-185.5 81.5l45 70
q165 -105 352 -105q151 0 231.5 68t80.5 174q0 54 -21.5 96t-57.5 70t-83.5 51t-99 42t-103.5 38.5t-99.5 45.5t-83.5 58.5t-57.5 81.5t-21.5 111q0 123 76 197.5t207 119.5q-127 85 -127 242q0 143 100 231t291 88q108 0 214 -29t185 -81l-45 -70q-168 105 -352 105z
M913 553q0 48 -20 86.5t-51 63t-78 47.5t-90 38t-99.5 36t-95.5 40q-266 -93 -266 -278q0 -48 20 -86.5t51 -63.5t78 -48t90 -37.5t99.5 -36t95.5 -40.5q47 16 87.5 37t84 54.5t69 82t25.5 105.5z" />
    <glyph glyph-name="dieresis" unicode="&#xa8;" horiz-adv-x="690" 
d="M242 1188l45 225h106l-45 -225h-106zM618 1188l46 225h106l-45 -225h-107z" />
    <glyph glyph-name="copyright" unicode="&#xa9;" horiz-adv-x="1728" 
d="M911 -31q-209 0 -379 94.5t-268 266t-98 387.5t98 387.5t268 265.5t379 94q157 0 294.5 -55.5t237 -152.5t157 -237t57.5 -302q0 -216 -98 -387.5t-268.5 -266t-379.5 -94.5zM911 31q190 0 345 86t245 243.5t90 356.5t-90 356.5t-245 243.5t-345 86t-345 -86t-245 -243.5
t-90 -356.5t90 -356.5t245 -243.5t345 -86zM913 258q-209 0 -338 129.5t-129 335.5q0 207 129 336t338 129q172 0 314 -101l-41 -59q-120 86 -275 86q-175 0 -281 -106.5t-106 -284.5t106 -284.5t281 -106.5q155 0 275 86l43 -62q-143 -98 -316 -98z" />
    <glyph glyph-name="ordfeminine" unicode="&#xaa;" horiz-adv-x="862" 
d="M504 692q-130 0 -210.5 83.5t-80.5 221.5q0 156 100 259.5t254 103.5q97 0 166.5 -43t95.5 -119h5l26 141h68l-123 -626h-68l25 112h-4q-96 -133 -254 -133zM510 762q125 0 212 88t87 213q0 108 -67.5 167.5t-172.5 59.5q-128 0 -204 -85t-76 -208q0 -107 59 -171
t162 -64z" />
    <glyph glyph-name="guillemotleft" unicode="&#xab;" horiz-adv-x="677" 
d="M264 174l-221 305l340 305h104l-354 -313l219 -297h-88zM496 174l-222 305l340 305h105l-354 -313l219 -297h-88z" />
    <glyph glyph-name="logicalnot" unicode="&#xac;" 
d="M174 885h936v-58v-485h-61v485h-875v58z" />
    <glyph glyph-name="uni00AD" unicode="&#xad;" horiz-adv-x="679" 
d="M100 520l17 82h495l-16 -82h-496z" />
    <glyph glyph-name="registered" unicode="&#xae;" horiz-adv-x="1167" 
d="M684 1464q208 0 339.5 -132t131.5 -343t-131.5 -343t-339.5 -132t-339.5 132t-131.5 343t131.5 343t339.5 132zM684 565q182 0 299 116.5t117 307.5t-117 307.5t-299 116.5t-299 -116.5t-117 -307.5t117 -307.5t299 -116.5zM881 1110q0 -65 -38 -106.5t-98 -49.5
l150 -223h-70l-147 221h-90v-221h-58v533h191q70 0 115 -40.5t45 -113.5zM588 1210v-204h117q57 0 86.5 27.5t29.5 76.5q0 48 -30 74t-86 26h-117z" />
    <glyph glyph-name="macron" unicode="&#xaf;" horiz-adv-x="761" 
d="M825 1331l-14 -65h-555l14 65h555z" />
    <glyph glyph-name="degree" unicode="&#xb0;" horiz-adv-x="733" 
d="M496 1413q121 0 199.5 -77.5t78.5 -200.5q0 -124 -78.5 -201.5t-199.5 -77.5t-200 78t-79 201t79 200.5t200 77.5zM496 1356q-95 0 -157.5 -61.5t-62.5 -159.5q0 -99 62.5 -160.5t157.5 -61.5t157 61.5t62 160.5t-62 160t-157 61z" />
    <glyph glyph-name="plusminus" unicode="&#xb1;" 
d="M651 1069v-301h459v-57h-459v-301h-61v301h-459v57h459v301h61zM1110 313v-57h-979v57h979z" />
    <glyph glyph-name="uni00B2" unicode="&#xb2;" horiz-adv-x="774" 
d="M606 1647q124 0 188 -58.5t64 -158.5q0 -90 -52.5 -165.5t-139.5 -148.5l-400 -334h475l-16 -69h-586l13 59l438 375q39 33 53.5 45.5t48.5 47.5t49 58.5t29 58t14 68.5q0 67 -45.5 109.5t-132.5 42.5q-86 0 -148.5 -47t-86.5 -141h-76q57 258 311 258z" />
    <glyph glyph-name="uni00B3" unicode="&#xb3;" horiz-adv-x="788" 
d="M461 690q-128 0 -205.5 52t-77.5 151q0 19 2 37h72q-2 -20 -2 -31q0 -64 59 -101.5t156 -37.5q118 0 184 56.5t66 166.5q0 99 -61 145t-195 46l14 65q132 0 207.5 49.5t75.5 145.5q0 72 -45.5 108.5t-132.5 36.5q-82 0 -137 -40t-72 -120h-74q21 114 97.5 172t189.5 58
q118 0 182.5 -55t64.5 -152q0 -89 -53.5 -153.5t-163.5 -82.5v-2q77 -10 126.5 -65t49.5 -158q0 -61 -18.5 -112t-56 -92t-102 -64t-150.5 -23z" />
    <glyph glyph-name="acute" unicode="&#xb4;" horiz-adv-x="518" 
d="M231 1133l256 315h119l-301 -315h-74z" />
    <glyph glyph-name="paragraph" unicode="&#xb6;" horiz-adv-x="1171" 
d="M1255 1434l-14 -70h-113l-307 -1581h-73l307 1581h-301l-308 -1581h-73l166 852q-147 0 -237.5 97.5t-90.5 256.5q0 83 27 155t74 124.5t110.5 90t138 56.5t154.5 19h540z" />
    <glyph glyph-name="periodcentered" unicode="&#xb7;" horiz-adv-x="389" 
d="M172 782l33 164h164l-33 -164h-164z" />
    <glyph glyph-name="cedilla" unicode="&#xb8;" horiz-adv-x="466" 
d="M-49 -434l-17 41q118 52 165.5 85t47.5 75q0 28 -29.5 43t-99.5 30l101 174h53l-68 -112q27 -7 44.5 -13.5t38.5 -19t31.5 -33.5t10.5 -49q-1 -31 -16 -58t-35 -46t-60 -41t-68 -34.5t-82 -34.5q-4 -2 -6 -2.5t-5 -2t-6 -2.5z" />
    <glyph glyph-name="uni00B9" unicode="&#xb9;" horiz-adv-x="540" 
d="M518 1626l-178 -913h-70l164 839h-82l15 74h151z" />
    <glyph glyph-name="ordmasculine" unicode="&#xba;" horiz-adv-x="897" 
d="M592 1360q140 0 225.5 -76t85.5 -217q0 -160 -105 -267.5t-278 -107.5q-140 0 -225.5 76t-85.5 217q0 160 105 267.5t278 107.5zM594 1290q-132 0 -220.5 -85t-88.5 -216q0 -108 64.5 -167.5t168.5 -59.5q132 0 220.5 85t88.5 216q0 108 -64.5 167.5t-168.5 59.5z" />
    <glyph glyph-name="guillemotright" unicode="&#xbb;" horiz-adv-x="677" 
d="M186 784l222 -305l-340 -305h-105l354 313l-219 297h88zM418 784l221 -305l-340 -305h-104l354 313l-219 297h88z" />
    <glyph glyph-name="onequarter" unicode="&#xbc;" horiz-adv-x="1445" 
d="M1155 1382h74l-996 -1382h-73zM356 592h-65l141 723h-104l12 67h170zM1325 791l-111 -574h91l-13 -59h-90l-31 -158h-65l31 158h-432l12 59l524 574h84zM791 217h358l96 494h-2z" />
    <glyph glyph-name="onehalf" unicode="&#xbd;" horiz-adv-x="1460" 
d="M160 0l995 1382h74l-996 -1382h-73zM291 592l141 723h-104l12 67h170l-154 -790h-65zM766 0l12 59l357 320q83 74 123 126.5t40 112.5q0 55 -37 91t-112 36q-74 0 -124 -37.5t-67 -109.5h-69q20 103 87 157t173 54q108 0 164.5 -53t56.5 -135q0 -41 -13 -78t-43.5 -74.5
t-54.5 -61t-71 -65.5l-311 -276h391l-13 -66h-489z" />
    <glyph glyph-name="threequarters" unicode="&#xbe;" horiz-adv-x="1662" 
d="M707 831q0 -49 -15 -92.5t-47.5 -82t-90.5 -61t-136 -22.5q-118 0 -182 51.5t-64 131.5q0 21 2 37h68q-2 -12 -2 -25q0 -65 50 -98t128 -33q98 0 159.5 47.5t61.5 142.5q0 46 -18 77t-54.5 47t-80.5 22t-107 6l12 63q291 6 291 172q0 61 -43 92t-115 31q-80 0 -136 -32.5
t-69 -102.5h-65q12 96 85.5 147.5t184.5 51.5q104 0 166 -50t62 -137q0 -81 -56 -131.5t-149 -66.5l-2 -2q74 -8 118 -56t44 -127zM1372 1382h74l-995 -1382h-74zM1542 791l-110 -574h90l-13 -59h-90l-30 -158h-66l31 158h-432l12 59l524 574h84zM1008 217h358l96 494h-2z
" />
    <glyph glyph-name="questiondown" unicode="&#xbf;" horiz-adv-x="825" 
d="M641 1022l-33 -164h-164l33 164h164zM537 618l-11 -51q-20 -99 -84.5 -179.5t-220.5 -201.5q-107 -86 -157 -163.5t-50 -159.5q0 -107 76.5 -167.5t212.5 -60.5q147 0 236 69.5t114 203.5h82q-29 -173 -139 -261.5t-295 -88.5q-175 0 -274 80t-99 221q0 103 58.5 196
t185.5 193q8 7 42 32.5t49 38t45 38.5t47 45.5t37.5 46t32 53.5t17.5 55l13 61h82z" />
    <glyph glyph-name="Agrave" unicode="&#xc0;" horiz-adv-x="1304" 
d="M872 1522h-63l-178 245h102zM1096 0l-88 418h-725l-242 -418h-102l837 1434h92l314 -1434h-86zM326 496h665l-178 843z" />
    <glyph glyph-name="Aacute" unicode="&#xc1;" horiz-adv-x="1304" 
d="M1174 1767l-295 -245h-80l256 245h119zM1096 0l-88 418h-725l-242 -418h-102l837 1434h92l314 -1434h-86zM326 496h665l-178 843z" />
    <glyph glyph-name="Acircumflex" unicode="&#xc2;" horiz-adv-x="1304" 
d="M877 1718l-263 -196h-116l329 245h99l213 -245h-103zM1096 0l-88 418h-725l-242 -418h-102l837 1434h92l314 -1434h-86zM326 496h665l-178 843z" />
    <glyph glyph-name="Atilde" unicode="&#xc3;" horiz-adv-x="1304" 
d="M723 1690q-73 0 -133 -97l-45 21q37 69 79.5 110t104.5 41q49 0 114.5 -29.5t125 -59t92.5 -29.5q74 0 133 96l45 -21q-37 -69 -79.5 -110t-104.5 -41q-49 0 -114.5 30t-125 59.5t-92.5 29.5zM776 1434h92l314 -1434h-86l-88 418h-725l-242 -418h-102zM326 496h665
l-178 843z" />
    <glyph glyph-name="Adieresis" unicode="&#xc4;" horiz-adv-x="1304" 
d="M739 1716l-39 -194h-106l39 194h106zM1116 1716l-39 -194h-106l39 194h106zM1096 0l-88 418h-725l-242 -418h-102l837 1434h92l314 -1434h-86zM326 496h665l-178 843z" />
    <glyph glyph-name="Aring" unicode="&#xc5;" horiz-adv-x="1304" 
d="M1096 0l-88 418h-725l-242 -418h-102l809 1384q-74 17 -114 70.5t-40 134.5q0 106 71 176t177 70t165.5 -56.5t59.5 -156.5q0 -90 -52 -155.5t-136 -84.5l303 -1382h-86zM655 1593q0 -76 43 -117.5t123 -41.5t132.5 52.5t52.5 131.5q0 77 -43.5 118.5t-122.5 41.5
q-80 0 -132.5 -53t-52.5 -132zM326 496h665l-178 843z" />
    <glyph glyph-name="AE" unicode="&#xc6;" horiz-adv-x="1886" 
d="M1956 1356h-619l-100 -510h563l-14 -78h-563l-136 -690h629l-14 -78h-698h-17l82 418h-647l-371 -418h-112l1282 1434h131h618zM492 496h591l166 852z" />
    <glyph glyph-name="Ccedilla" unicode="&#xc7;" horiz-adv-x="1443" 
d="M981 1380q-217 0 -393 -102t-274.5 -275.5t-98.5 -381.5q0 -266 152.5 -417t427.5 -151q133 0 242 38.5t223 111.5l47 -72q-121 -80 -241.5 -119.5t-262.5 -42.5l-41 -67q27 -7 44.5 -13.5t38.5 -19t31.5 -33.5t10.5 -49q-1 -50 -43.5 -92t-82 -61.5t-135.5 -59.5
q-12 -5 -18 -8l-16 41q118 52 165.5 85t47.5 75q0 28 -29.5 43t-99.5 30l74 129q-294 9 -458.5 182.5t-164.5 464.5q0 182 64.5 339.5t178 269.5t274.5 175.5t347 63.5q279 0 494 -164l-53 -69q-195 149 -451 149z" />
    <glyph glyph-name="Egrave" unicode="&#xc8;" horiz-adv-x="1048" 
d="M809 1522h-64l-178 245h103zM1118 1356h-696l-100 -510h641l-15 -78h-641l-135 -690h707l-15 -78h-792l278 1434h783z" />
    <glyph glyph-name="Eacute" unicode="&#xc9;" horiz-adv-x="1048" 
d="M1110 1767l-295 -245h-80l256 245h119zM1118 1356h-696l-100 -510h641l-15 -78h-641l-135 -690h707l-15 -78h-792l278 1434h783z" />
    <glyph glyph-name="Ecircumflex" unicode="&#xca;" horiz-adv-x="1048" 
d="M813 1718l-262 -196h-117l330 245h98l213 -245h-102zM1118 1356h-696l-100 -510h641l-15 -78h-641l-135 -690h707l-15 -78h-792l278 1434h783z" />
    <glyph glyph-name="Edieresis" unicode="&#xcb;" horiz-adv-x="1048" 
d="M676 1716l-39 -194h-107l39 194h107zM1053 1716l-39 -194h-107l39 194h107zM1118 1356h-696l-100 -510h641l-15 -78h-641l-135 -690h707l-15 -78h-792l278 1434h783z" />
    <glyph glyph-name="Igrave" unicode="&#xcc;" horiz-adv-x="413" 
d="M305 1767l139 -245h-63l-178 245h102zM72 0l278 1434h86l-278 -1434h-86z" />
    <glyph glyph-name="Iacute" unicode="&#xcd;" horiz-adv-x="413" 
d="M371 1522l256 245h118l-294 -245h-80zM72 0l278 1434h86l-278 -1434h-86z" />
    <glyph glyph-name="Icircumflex" unicode="&#xce;" horiz-adv-x="413" 
d="M70 1522l329 245h99l213 -245h-103l-159 196l-263 -196h-116zM72 0l278 1434h86l-278 -1434h-86z" />
    <glyph glyph-name="Idieresis" unicode="&#xcf;" horiz-adv-x="413" 
d="M166 1522l39 194h106l-39 -194h-106zM543 1522l39 194h106l-39 -194h-106zM72 0l278 1434h86l-278 -1434h-86z" />
    <glyph glyph-name="Eth" unicode="&#xd0;" horiz-adv-x="1476" 
d="M838 1434q279 0 443.5 -161t164.5 -446q0 -189 -69.5 -346.5t-188 -261.5t-275.5 -161.5t-333 -57.5h-445l141 723h-206l12 61h205l127 650h424zM573 78q125 0 241 31.5t215 94.5t172.5 150.5t115 207t41.5 257.5q0 254 -145 395.5t-390 141.5h-338l-112 -572h385
l-13 -61h-383l-126 -645h337z" />
    <glyph glyph-name="Ntilde" unicode="&#xd1;" horiz-adv-x="1413" 
d="M1133 1571q-49 0 -114.5 30t-125 59.5t-92.5 29.5q-73 0 -133 -97l-45 21q37 69 79.5 110t104.5 41q49 0 114.5 -29.5t125 -59t92.5 -29.5q74 0 133 96l45 -21q-37 -69 -79.5 -110t-104.5 -41zM72 0l278 1434h96l646 -1307h4l254 1307h86l-279 -1434h-96l-645 1307h-4
l-254 -1307h-86z" />
    <glyph glyph-name="Ograve" unicode="&#xd2;" horiz-adv-x="1714" 
d="M901 1767l139 -245h-63l-178 245h102zM842 -31q-320 0 -514.5 185t-194.5 495q0 168 61 317.5t168.5 259.5t264.5 174t340 64q320 0 514 -185t194 -495q0 -168 -61 -317.5t-168.5 -259.5t-264 -174t-339.5 -64zM842 53q164 0 305 60t236.5 161t149.5 236t54 283
q0 180 -82 314.5t-221.5 203.5t-316.5 69q-164 0 -305 -59.5t-237 -161t-150 -236t-54 -282.5q0 -180 82 -315t222 -204t317 -69z" />
    <glyph glyph-name="Oacute" unicode="&#xd3;" horiz-adv-x="1714" 
d="M967 1522l256 245h118l-294 -245h-80zM842 -31q-320 0 -514.5 185t-194.5 495q0 168 61 317.5t168.5 259.5t264.5 174t340 64q320 0 514 -185t194 -495q0 -168 -61 -317.5t-168.5 -259.5t-264 -174t-339.5 -64zM842 53q164 0 305 60t236.5 161t149.5 236t54 283
q0 180 -82 314.5t-221.5 203.5t-316.5 69q-164 0 -305 -59.5t-237 -161t-150 -236t-54 -282.5q0 -180 82 -315t222 -204t317 -69z" />
    <glyph glyph-name="Ocircumflex" unicode="&#xd4;" horiz-adv-x="1714" 
d="M666 1522l329 245h99l213 -245h-103l-160 196l-262 -196h-116zM842 -31q-320 0 -514.5 185t-194.5 495q0 168 61 317.5t168.5 259.5t264.5 174t340 64q320 0 514 -185t194 -495q0 -168 -61 -317.5t-168.5 -259.5t-264 -174t-339.5 -64zM842 53q164 0 305 60t236.5 161
t149.5 236t54 283q0 180 -82 314.5t-221.5 203.5t-316.5 69q-164 0 -305 -59.5t-237 -161t-150 -236t-54 -282.5q0 -180 82 -315t222 -204t317 -69z" />
    <glyph glyph-name="Otilde" unicode="&#xd5;" horiz-adv-x="1714" 
d="M1223 1571q-49 0 -114.5 30t-125 59.5t-92.5 29.5q-73 0 -133 -97l-45 21q37 69 79.5 110t104.5 41q49 0 114.5 -29.5t125 -59t92.5 -29.5q74 0 133 96l45 -21q-37 -69 -79.5 -110t-104.5 -41zM842 -31q-320 0 -514.5 185t-194.5 495q0 168 61 317.5t168.5 259.5
t264.5 174t340 64q320 0 514 -185t194 -495q0 -168 -61 -317.5t-168.5 -259.5t-264 -174t-339.5 -64zM842 53q164 0 305 60t236.5 161t149.5 236t54 283q0 180 -82 314.5t-221.5 203.5t-316.5 69q-164 0 -305 -59.5t-237 -161t-150 -236t-54 -282.5q0 -180 82 -315t222 -204
t317 -69z" />
    <glyph glyph-name="Odieresis" unicode="&#xd6;" horiz-adv-x="1714" 
d="M762 1522l39 194h106l-39 -194h-106zM1139 1522l39 194h106l-39 -194h-106zM842 -31q-320 0 -514.5 185t-194.5 495q0 168 61 317.5t168.5 259.5t264.5 174t340 64q320 0 514 -185t194 -495q0 -168 -61 -317.5t-168.5 -259.5t-264 -174t-339.5 -64zM842 53q164 0 305 60
t236.5 161t149.5 236t54 283q0 180 -82 314.5t-221.5 203.5t-316.5 69q-164 0 -305 -59.5t-237 -161t-150 -236t-54 -282.5q0 -180 82 -315t222 -204t317 -69z" />
    <glyph glyph-name="multiply" unicode="&#xd7;" 
d="M1026 1038l43 -43l-385 -385l385 -385l-43 -43l-385 385l-385 -385l-43 43l385 385l-385 385l43 43l385 -385z" />
    <glyph glyph-name="Oslash" unicode="&#xd8;" horiz-adv-x="1714" 
d="M1495 1266q180 -183 180 -482q0 -168 -61 -317.5t-168.5 -259.5t-264 -174t-339.5 -64q-287 0 -477 154l-150 -152l-39 39l148 148q-191 188 -191 491q0 168 61 317.5t168.5 259.5t264.5 174t340 64q297 0 487 -161l158 159l41 -37zM221 641q0 -259 164 -420l1008 1018
q-170 141 -426 141q-164 0 -305 -59.5t-237 -161t-150 -236t-54 -282.5zM842 53q164 0 305 60t236.5 161t149.5 236t54 283q0 251 -155 409l-1006 -1016q169 -133 416 -133z" />
    <glyph glyph-name="Ugrave" unicode="&#xd9;" horiz-adv-x="1431" 
d="M815 1767l139 -245h-63l-178 245h102zM1454 1434l-178 -916q-23 -119 -66.5 -214t-115.5 -172.5t-183 -120t-254 -42.5q-239 0 -366 115.5t-127 321.5q0 70 14 141l174 887h90l-174 -895q-14 -79 -14 -131q0 -166 105 -260.5t298 -94.5q224 0 356 128t177 358l174 895h90
z" />
    <glyph glyph-name="Uacute" unicode="&#xda;" horiz-adv-x="1431" 
d="M881 1522l256 245h118l-294 -245h-80zM1454 1434l-178 -916q-23 -119 -66.5 -214t-115.5 -172.5t-183 -120t-254 -42.5q-239 0 -366 115.5t-127 321.5q0 70 14 141l174 887h90l-174 -895q-14 -79 -14 -131q0 -166 105 -260.5t298 -94.5q224 0 356 128t177 358l174 895h90
z" />
    <glyph glyph-name="Ucircumflex" unicode="&#xdb;" horiz-adv-x="1431" 
d="M580 1522l329 245h99l213 -245h-103l-160 196l-262 -196h-116zM1454 1434l-178 -916q-23 -119 -66.5 -214t-115.5 -172.5t-183 -120t-254 -42.5q-239 0 -366 115.5t-127 321.5q0 70 14 141l174 887h90l-174 -895q-14 -79 -14 -131q0 -166 105 -260.5t298 -94.5
q224 0 356 128t177 358l174 895h90z" />
    <glyph glyph-name="Udieresis" unicode="&#xdc;" horiz-adv-x="1431" 
d="M676 1522l39 194h106l-39 -194h-106zM1053 1522l39 194h106l-39 -194h-106zM1454 1434l-178 -916q-23 -119 -66.5 -214t-115.5 -172.5t-183 -120t-254 -42.5q-239 0 -366 115.5t-127 321.5q0 70 14 141l174 887h90l-174 -895q-14 -79 -14 -131q0 -166 105 -260.5
t298 -94.5q224 0 356 128t177 358l174 895h90z" />
    <glyph glyph-name="Yacute" unicode="&#xdd;" horiz-adv-x="1069" 
d="M1065 1767l-295 -245h-80l256 245h119zM1235 1434l-643 -885l-107 -549h-86l107 547l-299 887h98l252 -797h4l565 797h109z" />
    <glyph glyph-name="Thorn" unicode="&#xde;" horiz-adv-x="1142" 
d="M735 1135q176 0 275.5 -99t99.5 -260q0 -198 -135.5 -327.5t-368.5 -129.5h-387l-61 -319h-86l278 1434h84l-57 -299h358zM608 397q188 0 301 98.5t113 272.5q0 137 -79 213t-212 76h-369l-129 -660h375z" />
    <glyph glyph-name="germandbls" unicode="&#xdf;" horiz-adv-x="1146" 
d="M711 815q340 -30 340 -358q0 -226 -159 -346.5t-466 -120.5h-143l14 71h137q254 0 394.5 97.5t140.5 296.5q0 169 -106.5 247t-321.5 78l12 68q185 0 299.5 86t114.5 229q0 106 -66 166t-188 60q-64 0 -119 -17.5t-104.5 -55t-85.5 -104t-54 -157.5l-262 -1321h-78
l260 1325q81 405 441 405q88 0 155 -24.5t106 -66.5t58 -93.5t19 -110.5q0 -133 -92.5 -229t-245.5 -121v-4z" />
    <glyph glyph-name="agrave" unicode="&#xe0;" horiz-adv-x="1200" 
d="M610 1448l133 -315h-67l-178 315h112zM510 -31q-195 0 -311.5 121t-116.5 324q0 157 70 286.5t193 203t273 73.5q153 0 262.5 -72.5t149.5 -199.5h4l47 241h78l-184 -946h-78l37 184h-4q-156 -215 -420 -215zM532 45q203 0 338.5 140.5t135.5 351.5q0 167 -104 265.5
t-281 98.5q-193 0 -325 -142t-132 -349q0 -167 99.5 -266t268.5 -99z" />
    <glyph glyph-name="aacute" unicode="&#xe1;" horiz-adv-x="1200" 
d="M657 1133l256 315h119l-301 -315h-74zM510 -31q-195 0 -311.5 121t-116.5 324q0 157 70 286.5t193 203t273 73.5q153 0 262.5 -72.5t149.5 -199.5h4l47 241h78l-184 -946h-78l37 184h-4q-156 -215 -420 -215zM532 45q203 0 338.5 140.5t135.5 351.5q0 167 -104 265.5
t-281 98.5q-193 0 -325 -142t-132 -349q0 -167 99.5 -266t268.5 -99z" />
    <glyph glyph-name="acircumflex" unicode="&#xe2;" horiz-adv-x="1200" 
d="M373 1133l334 315h98l207 -315h-92l-166 260l-273 -260h-108zM510 -31q-195 0 -311.5 121t-116.5 324q0 157 70 286.5t193 203t273 73.5q153 0 262.5 -72.5t149.5 -199.5h4l47 241h78l-184 -946h-78l37 184h-4q-156 -215 -420 -215zM532 45q203 0 338.5 140.5
t135.5 351.5q0 167 -104 265.5t-281 98.5q-193 0 -325 -142t-132 -349q0 -167 99.5 -266t268.5 -99z" />
    <glyph glyph-name="atilde" unicode="&#xe3;" horiz-adv-x="1200" 
d="M907 1227q-49 0 -114.5 30t-125 59.5t-92.5 29.5q-73 0 -133 -97l-45 21q37 68 80 109.5t105 41.5q49 0 114.5 -29.5t124.5 -59t92 -29.5q75 0 134 96l45 -21q-37 -68 -80 -109.5t-105 -41.5zM510 -31q-195 0 -311.5 121t-116.5 324q0 157 70 286.5t193 203t273 73.5
q153 0 262.5 -72.5t149.5 -199.5h4l47 241h78l-184 -946h-78l37 184h-4q-156 -215 -420 -215zM532 45q203 0 338.5 140.5t135.5 351.5q0 167 -104 265.5t-281 98.5q-193 0 -325 -142t-132 -349q0 -167 99.5 -266t268.5 -99z" />
    <glyph glyph-name="adieresis" unicode="&#xe4;" horiz-adv-x="1200" 
d="M463 1188l45 225h106l-45 -225h-106zM840 1188l45 225h106l-45 -225h-106zM510 -31q-195 0 -311.5 121t-116.5 324q0 157 70 286.5t193 203t273 73.5q153 0 262.5 -72.5t149.5 -199.5h4l47 241h78l-184 -946h-78l37 184h-4q-156 -215 -420 -215zM532 45
q203 0 338.5 140.5t135.5 351.5q0 167 -104 265.5t-281 98.5q-193 0 -325 -142t-132 -349q0 -167 99.5 -266t268.5 -99z" />
    <glyph glyph-name="aring" unicode="&#xe5;" horiz-adv-x="1200" 
d="M733 1530q104 0 163.5 -62t59.5 -159q0 -110 -73.5 -184t-188.5 -74q-106 0 -165.5 62t-59.5 159q0 110 73.5 184t190.5 74zM729 1473q-90 0 -144.5 -56t-54.5 -143q0 -77 44.5 -121.5t123.5 -44.5q88 0 142.5 56t54.5 143q0 77 -44 121.5t-122 44.5zM510 -31
q-195 0 -311.5 121t-116.5 324q0 157 70 286.5t193 203t273 73.5q153 0 262.5 -72.5t149.5 -199.5h4l47 241h78l-184 -946h-78l37 184h-4q-156 -215 -420 -215zM532 45q203 0 338.5 140.5t135.5 351.5q0 167 -104 265.5t-281 98.5q-193 0 -325 -142t-132 -349
q0 -167 99.5 -266t268.5 -99z" />
    <glyph glyph-name="ae" unicode="&#xe6;" horiz-adv-x="1873" 
d="M391 -31q-166 0 -267 87t-101 233q0 162 125 268.5t317 106.5q135 0 228 -53t136 -152h2q35 144 35 217q0 120 -64 172.5t-196 52.5q-149 0 -342 -43l-16 76q199 43 356 43q171 0 254.5 -66.5t83.5 -203.5h4q64 128 184 199t267 71q108 0 189.5 -31t128 -85.5t69 -121
t22.5 -145.5q0 -56 -14 -125h-858q-8 -44 -8 -92q0 -153 90.5 -242.5t247.5 -89.5q68 0 127.5 15t108.5 44t85.5 59t77.5 73l57 -60q-27 -26 -40.5 -38.5t-45.5 -38.5t-55 -40.5t-61.5 -34t-74.5 -30t-84 -18t-99 -7.5q-167 0 -276.5 82.5t-131.5 220.5h-4
q-58 -147 -177.5 -225t-279.5 -78zM948 539h774q2 18 2 55q0 141 -81.5 224t-247.5 83q-157 0 -277.5 -92.5t-169.5 -269.5zM399 45q164 0 271.5 92t107.5 213q0 108 -88 173t-219 65q-154 0 -260.5 -87t-106.5 -214q0 -106 80 -174t215 -68z" />
    <glyph glyph-name="ccedilla" unicode="&#xe7;" horiz-adv-x="1021" 
d="M637 901q-203 0 -336 -133.5t-133 -329.5q0 -178 112.5 -285.5t284.5 -107.5q142 0 287 92l41 -69q-153 -99 -326 -99l-41 -67q27 -7 44.5 -13.5t38.5 -19t31.5 -33.5t10.5 -49q-1 -31 -16 -58t-35 -46t-60 -41t-68 -34.5t-82 -34.5q-4 -2 -6 -2.5t-5 -2t-6 -2.5l-17 41
q118 52 165.5 85t47.5 75q0 28 -29.5 43t-99.5 30l76 131q-197 13 -313.5 140.5t-116.5 326.5q0 233 155 386t398 153q204 0 358 -125l-47 -64q-147 113 -313 113z" />
    <glyph glyph-name="egrave" unicode="&#xe8;" horiz-adv-x="1122" 
d="M741 1133h-67l-178 315h112zM1040 473h-872q-6 -37 -6 -78q0 -170 92.5 -261t261.5 -91q131 0 221.5 49.5t177.5 140.5l58 -59q-38 -36 -59.5 -55t-69 -53t-90 -52t-107.5 -32.5t-135 -14.5q-205 0 -318.5 111t-113.5 315q0 163 70.5 296t201.5 210.5t297 77.5
q199 0 304.5 -106t105.5 -265q0 -48 -19 -133zM643 901q-174 0 -297 -101.5t-166 -260.5h791q6 30 6 61q0 136 -87.5 218.5t-246.5 82.5z" />
    <glyph glyph-name="eacute" unicode="&#xe9;" horiz-adv-x="1122" 
d="M1030 1448l-301 -315h-74l256 315h119zM1040 473h-872q-6 -37 -6 -78q0 -170 92.5 -261t261.5 -91q131 0 221.5 49.5t177.5 140.5l58 -59q-38 -36 -59.5 -55t-69 -53t-90 -52t-107.5 -32.5t-135 -14.5q-205 0 -318.5 111t-113.5 315q0 163 70.5 296t201.5 210.5t297 77.5
q199 0 304.5 -106t105.5 -265q0 -48 -19 -133zM643 901q-174 0 -297 -101.5t-166 -260.5h791q6 30 6 61q0 136 -87.5 218.5t-246.5 82.5z" />
    <glyph glyph-name="ecircumflex" unicode="&#xea;" horiz-adv-x="1122" 
d="M752 1393l-273 -260h-108l334 315h98l207 -315h-92zM1040 473h-872q-6 -37 -6 -78q0 -170 92.5 -261t261.5 -91q131 0 221.5 49.5t177.5 140.5l58 -59q-38 -36 -59.5 -55t-69 -53t-90 -52t-107.5 -32.5t-135 -14.5q-205 0 -318.5 111t-113.5 315q0 163 70.5 296
t201.5 210.5t297 77.5q199 0 304.5 -106t105.5 -265q0 -48 -19 -133zM643 901q-174 0 -297 -101.5t-166 -260.5h791q6 30 6 61q0 136 -87.5 218.5t-246.5 82.5z" />
    <glyph glyph-name="edieresis" unicode="&#xeb;" horiz-adv-x="1122" 
d="M612 1413l-45 -225h-106l45 225h106zM989 1413l-45 -225h-106l45 225h106zM1040 473h-872q-6 -37 -6 -78q0 -170 92.5 -261t261.5 -91q131 0 221.5 49.5t177.5 140.5l58 -59q-38 -36 -59.5 -55t-69 -53t-90 -52t-107.5 -32.5t-135 -14.5q-205 0 -318.5 111t-113.5 315
q0 163 70.5 296t201.5 210.5t297 77.5q199 0 304.5 -106t105.5 -265q0 -48 -19 -133zM643 901q-174 0 -297 -101.5t-166 -260.5h791q6 30 6 61q0 136 -87.5 218.5t-246.5 82.5z" />
    <glyph glyph-name="igrave" unicode="&#xec;" horiz-adv-x="344" 
d="M258 1448l72 -315h-74l-90 315h92zM41 0l184 946h78l-184 -946h-78z" />
    <glyph glyph-name="iacute" unicode="&#xed;" horiz-adv-x="344" 
d="M258 1133l174 315h98l-190 -315h-82zM41 0l184 946h78l-184 -946h-78z" />
    <glyph glyph-name="icircumflex" unicode="&#xee;" horiz-adv-x="344" 
d="M72 1133l229 315h98l105 -315h-82l-74 264l-184 -264h-92zM41 0l184 946h78l-184 -946h-78z" />
    <glyph glyph-name="idieresis" unicode="&#xef;" horiz-adv-x="344" 
d="M152 1188l45 225h106l-45 -225h-106zM365 1188l45 225h106l-45 -225h-106zM41 0l184 946h78l-184 -946h-78z" />
    <glyph glyph-name="eth" unicode="&#xf0;" horiz-adv-x="1259" 
d="M977 1376q215 -188 215 -585q0 -165 -33.5 -302t-92 -232t-139 -161t-172.5 -96.5t-194 -30.5q-216 0 -345.5 129.5t-129.5 339.5q0 145 62.5 266.5t187 197t287.5 75.5q96 0 178 -27t148 -80.5t105.5 -143.5t43.5 -208h4q18 95 18 283q-3 361 -202 530l-252 -194l-35 45
l239 186q-138 95 -368 133l20 66q262 -51 408 -154l188 146l33 -48zM567 45q205 0 336 136t131 333q0 176 -109.5 281.5t-295.5 105.5q-112 0 -202.5 -40.5t-145.5 -107.5t-84 -148.5t-29 -168.5q0 -178 110 -284.5t289 -106.5z" />
    <glyph glyph-name="ntilde" unicode="&#xf1;" horiz-adv-x="1101" 
d="M903 1227q-49 0 -114.5 30t-125 59.5t-92.5 29.5q-73 0 -133 -97l-45 21q37 68 80 109.5t105 41.5q49 0 114.5 -29.5t124.5 -59t92 -29.5q74 0 133 96l45 -21q-37 -69 -79.5 -110t-104.5 -41zM41 0l184 946h78l-49 -237h4q73 139 173 203.5t237 64.5q159 0 242 -79
t83 -220q0 -72 -16 -158l-103 -520h-77l102 520q14 69 14 139q0 125 -62.5 183.5t-188.5 58.5q-369 0 -463 -487l-80 -414h-78z" />
    <glyph glyph-name="ograve" unicode="&#xf2;" horiz-adv-x="1193" 
d="M610 1448l133 -315h-67l-178 315h112zM543 -31q-209 0 -335 115t-126 328q0 114 42 217t115.5 180t180.5 122.5t231 45.5q209 0 335 -114.5t126 -327.5q0 -114 -42 -217t-115.5 -180.5t-180.5 -123t-231 -45.5zM551 45q139 0 250 71t170 183.5t59 241.5q0 167 -104 263.5
t-283 96.5q-139 0 -250 -70.5t-170 -183t-59 -241.5q0 -167 104 -264t283 -97z" />
    <glyph glyph-name="oacute" unicode="&#xf3;" horiz-adv-x="1193" 
d="M657 1133l256 315h119l-301 -315h-74zM543 -31q-209 0 -335 115t-126 328q0 114 42 217t115.5 180t180.5 122.5t231 45.5q209 0 335 -114.5t126 -327.5q0 -114 -42 -217t-115.5 -180.5t-180.5 -123t-231 -45.5zM551 45q139 0 250 71t170 183.5t59 241.5q0 167 -104 263.5
t-283 96.5q-139 0 -250 -70.5t-170 -183t-59 -241.5q0 -167 104 -264t283 -97z" />
    <glyph glyph-name="ocircumflex" unicode="&#xf4;" horiz-adv-x="1193" 
d="M373 1133l334 315h98l207 -315h-92l-166 260l-273 -260h-108zM543 -31q-209 0 -335 115t-126 328q0 114 42 217t115.5 180t180.5 122.5t231 45.5q209 0 335 -114.5t126 -327.5q0 -114 -42 -217t-115.5 -180.5t-180.5 -123t-231 -45.5zM551 45q139 0 250 71t170 183.5
t59 241.5q0 167 -104 263.5t-283 96.5q-139 0 -250 -70.5t-170 -183t-59 -241.5q0 -167 104 -264t283 -97z" />
    <glyph glyph-name="otilde" unicode="&#xf5;" horiz-adv-x="1193" 
d="M907 1227q-49 0 -114.5 30t-125 59.5t-92.5 29.5q-73 0 -133 -97l-45 21q37 68 80 109.5t105 41.5q49 0 114.5 -29.5t124.5 -59t92 -29.5q75 0 134 96l45 -21q-37 -68 -80 -109.5t-105 -41.5zM543 -31q-209 0 -335 115t-126 328q0 114 42 217t115.5 180t180.5 122.5
t231 45.5q209 0 335 -114.5t126 -327.5q0 -114 -42 -217t-115.5 -180.5t-180.5 -123t-231 -45.5zM551 45q139 0 250 71t170 183.5t59 241.5q0 167 -104 263.5t-283 96.5q-139 0 -250 -70.5t-170 -183t-59 -241.5q0 -167 104 -264t283 -97z" />
    <glyph glyph-name="odieresis" unicode="&#xf6;" horiz-adv-x="1193" 
d="M463 1188l45 225h106l-45 -225h-106zM840 1188l45 225h106l-45 -225h-106zM543 -31q-209 0 -335 115t-126 328q0 114 42 217t115.5 180t180.5 122.5t231 45.5q209 0 335 -114.5t126 -327.5q0 -114 -42 -217t-115.5 -180.5t-180.5 -123t-231 -45.5zM551 45q139 0 250 71
t170 183.5t59 241.5q0 167 -104 263.5t-283 96.5q-139 0 -250 -70.5t-170 -183t-59 -241.5q0 -167 104 -264t283 -97z" />
    <glyph glyph-name="divide" unicode="&#xf7;" 
d="M700 983v-143h-116v143h116zM1171 639v-57h-1060v57h1060zM700 381v-145h-116v145h116z" />
    <glyph glyph-name="oslash" unicode="&#xf8;" horiz-adv-x="1193" 
d="M1114 938l-104 -100q102 -111 102 -303q0 -114 -42 -217t-115.5 -180.5t-180.5 -123t-231 -45.5q-207 0 -332 113l-117 -111l-37 37l117 111q-92 115 -92 293q0 114 42 217t115.5 180t180.5 122.5t231 45.5q199 0 320 -100l106 100zM164 406q0 -141 72 -228l673 639
q-101 84 -266 84q-139 0 -250 -70.5t-170 -183t-59 -241.5zM1030 541q0 148 -82 239l-678 -641q105 -94 281 -94q139 0 250 71t170 183.5t59 241.5z" />
    <glyph glyph-name="ugrave" unicode="&#xf9;" horiz-adv-x="1069" 
d="M575 1448l134 -315h-68l-178 315h112zM412 -31q-152 0 -235 78.5t-83 216.5q0 56 15 133l108 549h82l-109 -555q-12 -61 -12 -112q0 -116 61 -175t177 -59q165 0 282 121.5t170 386.5l78 393h82l-184 -946h-78l45 221h-4q-27 -51 -61.5 -93t-82.5 -79.5t-112.5 -58.5
t-138.5 -21z" />
    <glyph glyph-name="uacute" unicode="&#xfa;" horiz-adv-x="1069" 
d="M623 1133l256 315h118l-301 -315h-73zM412 -31q-152 0 -235 78.5t-83 216.5q0 56 15 133l108 549h82l-109 -555q-12 -61 -12 -112q0 -116 61 -175t177 -59q165 0 282 121.5t170 386.5l78 393h82l-184 -946h-78l45 221h-4q-27 -51 -61.5 -93t-82.5 -79.5t-112.5 -58.5
t-138.5 -21z" />
    <glyph glyph-name="ucircumflex" unicode="&#xfb;" horiz-adv-x="1069" 
d="M338 1133l334 315h98l207 -315h-92l-166 260l-273 -260h-108zM412 -31q-152 0 -235 78.5t-83 216.5q0 56 15 133l108 549h82l-109 -555q-12 -61 -12 -112q0 -116 61 -175t177 -59q165 0 282 121.5t170 386.5l78 393h82l-184 -946h-78l45 221h-4q-27 -51 -61.5 -93
t-82.5 -79.5t-112.5 -58.5t-138.5 -21z" />
    <glyph glyph-name="udieresis" unicode="&#xfc;" horiz-adv-x="1069" 
d="M428 1188l45 225h107l-45 -225h-107zM805 1188l45 225h106l-45 -225h-106zM412 -31q-152 0 -235 78.5t-83 216.5q0 56 15 133l108 549h82l-109 -555q-12 -61 -12 -112q0 -116 61 -175t177 -59q165 0 282 121.5t170 386.5l78 393h82l-184 -946h-78l45 221h-4
q-27 -51 -61.5 -93t-82.5 -79.5t-112.5 -58.5t-138.5 -21z" />
    <glyph glyph-name="yacute" unicode="&#xfd;" horiz-adv-x="907" 
d="M907 1448l-301 -315h-74l256 315h119zM881 946h88l-881 -1356h-86l344 529l-223 827h84l192 -747z" />
    <glyph glyph-name="thorn" unicode="&#xfe;" horiz-adv-x="1216" 
d="M721 977q189 0 303.5 -112.5t114.5 -303.5q0 -130 -46 -241.5t-124 -187.5t-181.5 -119.5t-218.5 -43.5q-152 0 -251.5 72t-129.5 182h-4l-125 -633h-77l264 1356l94 488h78l-94 -488l-39 -196h4q73 104 185.5 165.5t246.5 61.5zM573 45q136 0 247 67.5t174 184.5t63 260
q0 155 -92 249.5t-252 94.5q-213 0 -355.5 -147.5t-142.5 -364.5q0 -155 95.5 -249.5t262.5 -94.5z" />
    <glyph glyph-name="ydieresis" unicode="&#xff;" horiz-adv-x="907" 
d="M489 1413l-45 -225h-106l45 225h106zM866 1413l-45 -225h-106l45 225h106zM881 946h88l-881 -1356h-86l344 529l-223 827h84l192 -747z" />
    <glyph glyph-name="Amacron" unicode="&#x100;" horiz-adv-x="1304" 
d="M1120 1659l-14 -66h-555l14 66h555zM1096 0l-88 418h-725l-242 -418h-102l837 1434h92l314 -1434h-86zM326 496h665l-178 843z" />
    <glyph glyph-name="amacron" unicode="&#x101;" horiz-adv-x="1200" 
d="M1008 1331l-15 -65h-555l15 65h555zM510 -31q-195 0 -311.5 121t-116.5 324q0 157 70 286.5t193 203t273 73.5q153 0 262.5 -72.5t149.5 -199.5h4l47 241h78l-184 -946h-78l37 184h-4q-156 -215 -420 -215zM532 45q203 0 338.5 140.5t135.5 351.5q0 167 -104 265.5
t-281 98.5q-193 0 -325 -142t-132 -349q0 -167 99.5 -266t268.5 -99z" />
    <glyph glyph-name="Abreve" unicode="&#x102;" horiz-adv-x="1304" 
d="M834 1522q-107 0 -170.5 48.5t-63.5 135.5q0 26 6 61h68q-4 -36 -4 -51q0 -60 43 -93.5t125 -33.5q99 0 163.5 47t88.5 131h73q-24 -114 -113.5 -179.5t-215.5 -65.5zM1096 0l-88 418h-725l-242 -418h-102l837 1434h92l314 -1434h-86zM326 496h665l-178 843z" />
    <glyph glyph-name="abreve" unicode="&#x103;" horiz-adv-x="1200" 
d="M1030 1434q-25 -137 -109 -212t-214 -75q-110 0 -175 57t-65 158q0 34 6 72h70q-4 -36 -4 -54q0 -79 44 -122.5t126 -43.5q199 0 249 220h72zM510 -31q-195 0 -311.5 121t-116.5 324q0 157 70 286.5t193 203t273 73.5q153 0 262.5 -72.5t149.5 -199.5h4l47 241h78
l-184 -946h-78l37 184h-4q-156 -215 -420 -215zM532 45q203 0 338.5 140.5t135.5 351.5q0 167 -104 265.5t-281 98.5q-193 0 -325 -142t-132 -349q0 -167 99.5 -266t268.5 -99z" />
    <glyph glyph-name="Aogonek" unicode="&#x104;" horiz-adv-x="1304" 
d="M1022 -319q52 0 106 14l5 -66q-63 -18 -119 -18q-75 0 -126.5 33t-51.5 100q0 142 249 303l-77 371h-725l-242 -418h-102l837 1434h92l314 -1434h-72q-103 -74 -151 -131t-48 -113q0 -75 111 -75zM326 496h665l-178 843z" />
    <glyph glyph-name="aogonek" unicode="&#x105;" horiz-adv-x="1200" 
d="M944 0q-103 -74 -151 -131t-48 -113q0 -75 111 -75q53 0 107 14l4 -66q-63 -18 -119 -18q-75 0 -126.5 33t-51.5 100q0 139 235 293l29 147h-4q-156 -215 -420 -215q-195 0 -311.5 121t-116.5 324q0 157 70 286.5t193 203t273 73.5q153 0 262.5 -72.5t149.5 -199.5h4
l47 241h78l-184 -946h-31zM532 45q203 0 338.5 140.5t135.5 351.5q0 167 -104 265.5t-281 98.5q-193 0 -325 -142t-132 -349q0 -167 99.5 -266t268.5 -99z" />
    <glyph glyph-name="Cacute" unicode="&#x106;" horiz-adv-x="1443" 
d="M969 1522l256 245h118l-294 -245h-80zM780 -31q-308 0 -480.5 174t-172.5 473q0 182 64.5 339.5t178 269.5t274.5 175.5t347 63.5q279 0 494 -164l-53 -69q-195 149 -451 149q-217 0 -393 -102t-274.5 -275.5t-98.5 -381.5q0 -266 152.5 -417t427.5 -151q133 0 242 38.5
t223 111.5l47 -72q-125 -83 -251 -122.5t-276 -39.5z" />
    <glyph glyph-name="cacute" unicode="&#x107;" horiz-adv-x="1021" 
d="M629 1133l256 315h119l-302 -315h-73zM563 -31q-217 0 -347 128.5t-130 340.5q0 233 155 386t398 153q204 0 358 -125l-47 -64q-147 113 -313 113q-203 0 -336 -133.5t-133 -329.5q0 -178 112.5 -285.5t284.5 -107.5q142 0 287 92l41 -69q-156 -99 -330 -99z" />
    <glyph glyph-name="Ccircumflex" unicode="&#x108;" horiz-adv-x="1443" 
d="M668 1522l329 245h99l213 -245h-103l-159 196l-263 -196h-116zM780 -31q-308 0 -480.5 174t-172.5 473q0 182 64.5 339.5t178 269.5t274.5 175.5t347 63.5q279 0 494 -164l-53 -69q-195 149 -451 149q-217 0 -393 -102t-274.5 -275.5t-98.5 -381.5q0 -266 152.5 -417
t427.5 -151q133 0 242 38.5t223 111.5l47 -72q-125 -83 -251 -122.5t-276 -39.5z" />
    <glyph glyph-name="ccircumflex" unicode="&#x109;" horiz-adv-x="1021" 
d="M344 1133l334 315h98l207 -315h-92l-166 260l-272 -260h-109zM563 -31q-217 0 -347 128.5t-130 340.5q0 233 155 386t398 153q204 0 358 -125l-47 -64q-147 113 -313 113q-203 0 -336 -133.5t-133 -329.5q0 -178 112.5 -285.5t284.5 -107.5q142 0 287 92l41 -69
q-156 -99 -330 -99z" />
    <glyph glyph-name="Cdotaccent" unicode="&#x10a;" horiz-adv-x="1443" 
d="M1106 1747l-45 -225h-107l45 225h107zM780 -31q-308 0 -480.5 174t-172.5 473q0 182 64.5 339.5t178 269.5t274.5 175.5t347 63.5q279 0 494 -164l-53 -69q-195 149 -451 149q-217 0 -393 -102t-274.5 -275.5t-98.5 -381.5q0 -266 152.5 -417t427.5 -151q133 0 242 38.5
t223 111.5l47 -72q-125 -83 -251 -122.5t-276 -39.5z" />
    <glyph glyph-name="cdotaccent" unicode="&#x10b;" horiz-adv-x="1021" 
d="M778 1413l-49 -246h-106l49 246h106zM563 -31q-217 0 -347 128.5t-130 340.5q0 233 155 386t398 153q204 0 358 -125l-47 -64q-147 113 -313 113q-203 0 -336 -133.5t-133 -329.5q0 -178 112.5 -285.5t284.5 -107.5q142 0 287 92l41 -69q-156 -99 -330 -99z" />
    <glyph glyph-name="Ccaron" unicode="&#x10c;" horiz-adv-x="1443" 
d="M946 1522l-211 245h101l161 -198l263 198h118l-334 -245h-98zM780 -31q-308 0 -480.5 174t-172.5 473q0 182 64.5 339.5t178 269.5t274.5 175.5t347 63.5q279 0 494 -164l-53 -69q-195 149 -451 149q-217 0 -393 -102t-274.5 -275.5t-98.5 -381.5q0 -266 152.5 -417
t427.5 -151q133 0 242 38.5t223 111.5l47 -72q-125 -83 -251 -122.5t-276 -39.5z" />
    <glyph glyph-name="ccaron" unicode="&#x10d;" horiz-adv-x="1021" 
d="M600 1112l-207 315h92l166 -260l273 260h108l-334 -315h-98zM563 -31q-217 0 -347 128.5t-130 340.5q0 233 155 386t398 153q204 0 358 -125l-47 -64q-147 113 -313 113q-203 0 -336 -133.5t-133 -329.5q0 -178 112.5 -285.5t284.5 -107.5q142 0 287 92l41 -69
q-156 -99 -330 -99z" />
    <glyph glyph-name="Dcaron" unicode="&#x10e;" horiz-adv-x="1413" 
d="M729 1522l-211 245h100l162 -198l262 198h119l-334 -245h-98zM72 0l278 1434h424q279 0 443.5 -161t164.5 -446q0 -189 -69.5 -346.5t-188 -261.5t-275.5 -161.5t-333 -57.5h-444zM172 78h338q157 0 298 50.5t249.5 142.5t172.5 234t64 314q0 254 -144.5 395.5
t-389.5 141.5h-338z" />
    <glyph glyph-name="dcaron" unicode="&#x10f;" horiz-adv-x="1357" 
d="M1391 1464h149l-29 -149l-184 -271h-53l158 271h-70zM1034 705l140 729h77l-276 -1434h-78l37 184h-4q-156 -215 -420 -215q-195 0 -311.5 121t-116.5 324q0 157 70 286.5t193 203t273 73.5q153 0 262.5 -72.5t149.5 -199.5h4zM532 45q203 0 338.5 140.5t135.5 351.5
q0 167 -104 265.5t-281 98.5q-193 0 -325 -142t-132 -349q0 -167 99.5 -266t268.5 -99z" />
    <glyph glyph-name="Dcroat" unicode="&#x110;" horiz-adv-x="1476" 
d="M838 1434q279 0 443.5 -161t164.5 -446q0 -189 -69.5 -346.5t-188 -261.5t-275.5 -161.5t-333 -57.5h-445l141 723h-206l12 61h205l127 650h424zM573 78q125 0 241 31.5t215 94.5t172.5 150.5t115 207t41.5 257.5q0 254 -145 395.5t-390 141.5h-338l-112 -572h385
l-13 -61h-383l-126 -645h337z" />
    <glyph glyph-name="dcroat" unicode="&#x111;" horiz-adv-x="1253" 
d="M1403 1247l-12 -61h-187l-229 -1186h-78l37 184h-4q-156 -215 -420 -215q-195 0 -311.5 121t-116.5 324q0 157 70 286.5t193 203t273 73.5q153 0 262.5 -72.5t149.5 -199.5h4l92 481h-311l12 61h312l35 187h77l-37 -187h189zM532 45q203 0 338.5 140.5t135.5 351.5
q0 167 -104 265.5t-281 98.5q-193 0 -325 -142t-132 -349q0 -167 99.5 -266t268.5 -99z" />
    <glyph glyph-name="Emacron" unicode="&#x112;" horiz-adv-x="1048" 
d="M1057 1659l-15 -66h-555l15 66h555zM1118 1356h-696l-100 -510h641l-15 -78h-641l-135 -690h707l-15 -78h-792l278 1434h783z" />
    <glyph glyph-name="emacron" unicode="&#x113;" horiz-adv-x="1122" 
d="M1006 1331l-15 -65h-555l15 65h555zM1040 473h-872q-6 -37 -6 -78q0 -170 92.5 -261t261.5 -91q131 0 221.5 49.5t177.5 140.5l58 -59q-38 -36 -59.5 -55t-69 -53t-90 -52t-107.5 -32.5t-135 -14.5q-205 0 -318.5 111t-113.5 315q0 163 70.5 296t201.5 210.5t297 77.5
q199 0 304.5 -106t105.5 -265q0 -48 -19 -133zM643 901q-174 0 -297 -101.5t-166 -260.5h791q6 30 6 61q0 136 -87.5 218.5t-246.5 82.5z" />
    <glyph glyph-name="Ebreve" unicode="&#x114;" horiz-adv-x="1048" 
d="M770 1522q-107 0 -170 48.5t-63 135.5q0 26 6 61h67q-4 -36 -4 -51q0 -60 43 -93.5t125 -33.5q99 0 163.5 47t88.5 131h74q-24 -114 -114 -179.5t-216 -65.5zM1118 1356h-696l-100 -510h641l-15 -78h-641l-135 -690h707l-15 -78h-792l278 1434h783z" />
    <glyph glyph-name="ebreve" unicode="&#x115;" horiz-adv-x="1122" 
d="M705 1147q-110 0 -175 57t-65 158q0 34 6 72h70q-4 -36 -4 -54q0 -79 44 -122.5t126 -43.5q199 0 249 220h72q-25 -137 -109 -212t-214 -75zM1040 473h-872q-6 -37 -6 -78q0 -170 92.5 -261t261.5 -91q131 0 221.5 49.5t177.5 140.5l58 -59q-38 -36 -59.5 -55t-69 -53
t-90 -52t-107.5 -32.5t-135 -14.5q-205 0 -318.5 111t-113.5 315q0 163 70.5 296t201.5 210.5t297 77.5q199 0 304.5 -106t105.5 -265q0 -48 -19 -133zM643 901q-174 0 -297 -101.5t-166 -260.5h791q6 30 6 61q0 136 -87.5 218.5t-246.5 82.5z" />
    <glyph glyph-name="Edotaccent" unicode="&#x116;" horiz-adv-x="1048" 
d="M872 1747l-45 -225h-106l45 225h106zM1118 1356h-696l-100 -510h641l-15 -78h-641l-135 -690h707l-15 -78h-792l278 1434h783z" />
    <glyph glyph-name="edotaccent" unicode="&#x117;" horiz-adv-x="1122" 
d="M805 1413l-49 -246h-107l49 246h107zM1040 473h-872q-6 -37 -6 -78q0 -170 92.5 -261t261.5 -91q131 0 221.5 49.5t177.5 140.5l58 -59q-38 -36 -59.5 -55t-69 -53t-90 -52t-107.5 -32.5t-135 -14.5q-205 0 -318.5 111t-113.5 315q0 163 70.5 296t201.5 210.5t297 77.5
q199 0 304.5 -106t105.5 -265q0 -48 -19 -133zM643 901q-174 0 -297 -101.5t-166 -260.5h791q6 30 6 61q0 136 -87.5 218.5t-246.5 82.5z" />
    <glyph glyph-name="Eogonek" unicode="&#x118;" horiz-adv-x="1048" 
d="M1118 1356h-696l-100 -510h641l-15 -78h-641l-135 -690h707l-11 -53l6 -5q-4 -4 -8 -6l-2 -14h-18q-103 -74 -151 -131t-48 -113q0 -75 111 -75q52 0 106 14l4 -66q-63 -18 -118 -18q-75 0 -127 33t-52 100q0 122 181 256h-680l278 1434h783z" />
    <glyph glyph-name="eogonek" unicode="&#x119;" horiz-adv-x="1122" 
d="M1040 473h-872q-6 -37 -6 -78q0 -170 92.5 -261t261.5 -91q131 0 221.5 49.5t177.5 140.5l58 -59q-37 -36 -59.5 -56t-67.5 -51t-90 -51q-115 -81 -168 -141t-53 -119q0 -75 110 -75q53 0 107 14l4 -66q-63 -18 -119 -18q-75 0 -126.5 33t-51.5 100q0 112 147 229
q-44 -6 -94 -6q-205 0 -318.5 111t-113.5 315q0 163 70.5 296t201.5 210.5t297 77.5q199 0 304.5 -106t105.5 -265q0 -48 -19 -133zM643 901q-174 0 -297 -101.5t-166 -260.5h791q6 30 6 61q0 136 -87.5 218.5t-246.5 82.5z" />
    <glyph glyph-name="Ecaron" unicode="&#x11a;" horiz-adv-x="1048" 
d="M811 1522h-98l-211 245h100l162 -198l262 198h119zM72 0l278 1434h783l-15 -78h-696l-100 -510h641l-15 -78h-641l-135 -690h707l-15 -78h-792z" />
    <glyph glyph-name="ecaron" unicode="&#x11b;" horiz-adv-x="1122" 
d="M725 1112h-98l-207 315h92l166 -260l272 260h109zM649 977q199 0 304.5 -106t105.5 -265q0 -48 -19 -133h-872q-6 -37 -6 -78q0 -170 92.5 -261t261.5 -91q131 0 221.5 49.5t177.5 140.5l58 -59q-38 -36 -59.5 -55t-69 -53t-90 -52t-107.5 -32.5t-135 -14.5
q-205 0 -318.5 111t-113.5 315q0 163 70.5 296t201.5 210.5t297 77.5zM971 539q6 30 6 61q0 136 -87.5 218.5t-246.5 82.5q-174 0 -297 -101.5t-166 -260.5h791z" />
    <glyph glyph-name="Gcircumflex" unicode="&#x11c;" horiz-adv-x="1656" 
d="M1055 1718l-262 -196h-117l330 245h98l213 -245h-103zM961 727h673l-6 -35q-22 -127 -62 -233.5t-105.5 -198.5t-152.5 -155.5t-207 -99.5t-265 -36q-323 0 -514 179.5t-191 488.5q0 176 62.5 329t172 262.5t266.5 172.5t339 63q180 0 310 -49.5t247 -140.5l-64 -70
q-97 80 -215.5 128t-283.5 48q-120 0 -232 -34t-205 -99.5t-162.5 -154.5t-108 -205.5t-38.5 -245.5q0 -269 164.5 -428.5t452.5 -159.5q131 0 239 33t182 88t130.5 134t89 161.5t51.5 179.5h-582z" />
    <glyph glyph-name="gcircumflex" unicode="&#x11d;" horiz-adv-x="1200" 
d="M348 1133l334 315h98l207 -315h-92l-166 260l-272 -260h-109zM1081 946h78l-184 -946q-44 -233 -160.5 -335.5t-337.5 -102.5q-192 0 -391 92l35 76q188 -92 360 -92q182 0 280.5 86t135.5 276l37 184h-4q-156 -215 -420 -215q-195 0 -311.5 121t-116.5 324
q0 157 70 286.5t193 203t273 73.5q153 0 262.5 -72.5t149.5 -199.5h4zM532 45q203 0 338.5 140.5t135.5 351.5q0 167 -104 265.5t-281 98.5q-193 0 -325 -142t-132 -349q0 -167 99.5 -266t268.5 -99z" />
    <glyph glyph-name="Gbreve" unicode="&#x11e;" horiz-adv-x="1656" 
d="M1012 1522q-107 0 -170.5 48.5t-63.5 135.5q0 26 6 61h68q-4 -36 -4 -51q0 -60 43 -93.5t125 -33.5q99 0 163.5 47t88.5 131h73q-24 -114 -113.5 -179.5t-215.5 -65.5zM961 727h673l-6 -35q-22 -127 -62 -233.5t-105.5 -198.5t-152.5 -155.5t-207 -99.5t-265 -36
q-323 0 -514 179.5t-191 488.5q0 176 62.5 329t172 262.5t266.5 172.5t339 63q180 0 310 -49.5t247 -140.5l-64 -70q-97 80 -215.5 128t-283.5 48q-120 0 -232 -34t-205 -99.5t-162.5 -154.5t-108 -205.5t-38.5 -245.5q0 -269 164.5 -428.5t452.5 -159.5q131 0 239 33
t182 88t130.5 134t89 161.5t51.5 179.5h-582z" />
    <glyph glyph-name="gbreve" unicode="&#x11f;" horiz-adv-x="1200" 
d="M1006 1434q-25 -137 -109.5 -212t-214.5 -75q-110 0 -175 57t-65 158q0 28 7 72h69q-4 -36 -4 -54q0 -79 44 -122.5t126 -43.5q200 0 250 220h72zM1081 946h78l-184 -946q-44 -233 -160.5 -335.5t-337.5 -102.5q-192 0 -391 92l35 76q188 -92 360 -92q182 0 280.5 86
t135.5 276l37 184h-4q-156 -215 -420 -215q-195 0 -311.5 121t-116.5 324q0 157 70 286.5t193 203t273 73.5q153 0 262.5 -72.5t149.5 -199.5h4zM532 45q203 0 338.5 140.5t135.5 351.5q0 167 -104 265.5t-281 98.5q-193 0 -325 -142t-132 -349q0 -167 99.5 -266t268.5 -99z
" />
    <glyph glyph-name="Gdotaccent" unicode="&#x120;" horiz-adv-x="1656" 
d="M1114 1747l-45 -225h-106l45 225h106zM961 727h673l-6 -35q-22 -127 -62 -233.5t-105.5 -198.5t-152.5 -155.5t-207 -99.5t-265 -36q-323 0 -514 179.5t-191 488.5q0 176 62.5 329t172 262.5t266.5 172.5t339 63q180 0 310 -49.5t247 -140.5l-64 -70q-97 80 -215.5 128
t-283.5 48q-120 0 -232 -34t-205 -99.5t-162.5 -154.5t-108 -205.5t-38.5 -245.5q0 -269 164.5 -428.5t452.5 -159.5q131 0 239 33t182 88t130.5 134t89 161.5t51.5 179.5h-582z" />
    <glyph glyph-name="gdotaccent" unicode="&#x121;" horiz-adv-x="1200" 
d="M782 1413l-49 -246h-106l49 246h106zM1081 946h78l-184 -946q-44 -233 -160.5 -335.5t-337.5 -102.5q-192 0 -391 92l35 76q188 -92 360 -92q182 0 280.5 86t135.5 276l37 184h-4q-156 -215 -420 -215q-195 0 -311.5 121t-116.5 324q0 157 70 286.5t193 203t273 73.5
q153 0 262.5 -72.5t149.5 -199.5h4zM532 45q203 0 338.5 140.5t135.5 351.5q0 167 -104 265.5t-281 98.5q-193 0 -325 -142t-132 -349q0 -167 99.5 -266t268.5 -99z" />
    <glyph glyph-name="Gcommaaccent" unicode="&#x122;" horiz-adv-x="1656" 
d="M961 727h673l-6 -35q-22 -127 -62 -233.5t-105.5 -198.5t-152.5 -155.5t-207 -99.5t-265 -36q-323 0 -514 179.5t-191 488.5q0 176 62.5 329t172 262.5t266.5 172.5t339 63q180 0 310 -49.5t247 -140.5l-64 -70q-97 80 -215.5 128t-283.5 48q-120 0 -232 -34t-205 -99.5
t-162.5 -154.5t-108 -205.5t-38.5 -245.5q0 -269 164.5 -428.5t452.5 -159.5q131 0 239 33t182 88t130.5 134t89 161.5t51.5 179.5h-582zM707 -246l28 150h150l-29 -150l-156 -164h-45l117 164h-65z" />
    <glyph glyph-name="gcommaaccent" unicode="&#x123;" horiz-adv-x="1200" 
d="M786 1255l-28 -149h-150l29 149l156 164h45l-117 -164h65zM1081 946h78l-184 -946q-44 -233 -160.5 -335.5t-337.5 -102.5q-192 0 -391 92l35 76q188 -92 360 -92q182 0 280.5 86t135.5 276l37 184h-4q-156 -215 -420 -215q-195 0 -311.5 121t-116.5 324q0 157 70 286.5
t193 203t273 73.5q153 0 262.5 -72.5t149.5 -199.5h4zM532 45q203 0 338.5 140.5t135.5 351.5q0 167 -104 265.5t-281 98.5q-193 0 -325 -142t-132 -349q0 -167 99.5 -266t268.5 -99z" />
    <glyph glyph-name="Hcircumflex" unicode="&#x124;" horiz-adv-x="1363" 
d="M924 1718l-262 -196h-117l329 245h99l213 -245h-103zM1300 1434h86l-278 -1434h-86l141 731h-864l-141 -731h-86l278 1434h86l-121 -625h865z" />
    <glyph glyph-name="hcircumflex" unicode="&#x125;" horiz-adv-x="1120" 
d="M57 1522l330 245h98l213 -245h-102l-160 196l-262 -196h-117zM61 0l279 1434h78l-142 -725h5q70 134 167 201t238 67q150 0 236 -81t86 -243q0 -50 -11 -106l-102 -547h-78l103 547q10 62 10 98q0 129 -66 192.5t-188 63.5q-78 0 -146.5 -26.5t-130 -82t-108.5 -152
t-72 -226.5l-80 -414h-78z" />
    <glyph glyph-name="Hbar" unicode="&#x126;" horiz-adv-x="1351" 
d="M1485 1157l-15 -72h-155l-211 -1085h-86l141 731h-864l-141 -731h-86l211 1085h-160l14 72h160l53 277h86l-53 -277h864l53 277h86l-53 -277h156zM1176 809l53 276h-864l-54 -276h865z" />
    <glyph glyph-name="hbar" unicode="&#x127;" horiz-adv-x="1122" 
d="M688 977q150 0 236 -81t86 -243q0 -50 -11 -106l-102 -547h-78l103 547q10 62 10 98q0 129 -66 192.5t-188 63.5q-78 0 -146.5 -26.5t-130 -82t-108.5 -152t-72 -226.5l-80 -414h-78l230 1186h-154l13 61h153l37 187h78l-37 -187h344l-12 -61h-344l-92 -477h4
q70 134 167 201t238 67z" />
    <glyph glyph-name="Itilde" unicode="&#x128;" horiz-adv-x="413" 
d="M627 1571q-49 0 -114.5 30t-125 59.5t-92.5 29.5q-73 0 -133 -97l-45 21q37 69 79.5 110t104.5 41q49 0 114.5 -29.5t125 -59t92.5 -29.5q74 0 133 96l45 -21q-37 -69 -79.5 -110t-104.5 -41zM72 0l278 1434h86l-278 -1434h-86z" />
    <glyph glyph-name="itilde" unicode="&#x129;" horiz-adv-x="344" 
d="M242 1411q36 0 69.5 -19.5t54.5 -43t46 -43t47 -19.5q42 0 94 84l43 -24q-15 -28 -27.5 -46.5t-33 -42.5t-47 -36.5t-56.5 -12.5q-36 0 -69.5 19.5t-54.5 43t-46 43t-47 19.5q-42 0 -94 -84l-43 25q15 28 27.5 46.5t33 42t47 36t56.5 12.5zM41 0l184 946h78l-184 -946
h-78z" />
    <glyph glyph-name="Imacron" unicode="&#x12a;" horiz-adv-x="413" 
d="M692 1659l-14 -66h-555l14 66h555zM72 0l278 1434h86l-278 -1434h-86z" />
    <glyph glyph-name="imacron" unicode="&#x12b;" horiz-adv-x="344" 
d="M530 1331l-14 -65h-391l14 65h391zM41 0l184 946h78l-184 -946h-78z" />
    <glyph glyph-name="Ibreve" unicode="&#x12c;" horiz-adv-x="413" 
d="M406 1522q-107 0 -170.5 48.5t-63.5 135.5q0 26 6 61h68q-4 -36 -4 -51q0 -60 43 -93.5t125 -33.5q99 0 163.5 47t88.5 131h73q-24 -114 -113.5 -179.5t-215.5 -65.5zM72 0l278 1434h86l-278 -1434h-86z" />
    <glyph glyph-name="ibreve" unicode="&#x12d;" horiz-adv-x="344" 
d="M555 1434q-23 -151 -81 -219t-159 -68q-87 0 -136.5 49t-49.5 150q0 44 8 88h70q-8 -44 -8 -86q0 -134 116 -134q73 0 110.5 53t57.5 167h72zM41 0l184 946h78l-184 -946h-78z" />
    <glyph glyph-name="Iogonek" unicode="&#x12e;" horiz-adv-x="413" 
d="M350 1434h86l-278 -1434h-6q-119 -82 -173.5 -143t-54.5 -121q0 -76 111 -76q52 0 106 14l4 -65q-66 -19 -118 -19q-75 0 -127 33.5t-52 100.5q0 132 226 286z" />
    <glyph glyph-name="iogonek" unicode="&#x12f;" horiz-adv-x="344" 
d="M295 1413h106l-49 -246h-106zM225 946h78l-180 -926l-4 -20h-25q-102 -73 -150 -130t-48 -114q0 -75 110 -75q53 0 107 14l4 -66q-63 -18 -119 -18q-75 0 -126.5 33t-51.5 100q0 135 227 289z" />
    <glyph glyph-name="Idotaccent" unicode="&#x130;" horiz-adv-x="413" 
d="M508 1747l-45 -225h-107l45 225h107zM72 0l278 1434h86l-278 -1434h-86z" />
    <glyph glyph-name="dotlessi" unicode="&#x131;" horiz-adv-x="344" 
d="M41 0l184 946h78l-184 -946h-78z" />
    <glyph glyph-name="IJ" unicode="&#x132;" horiz-adv-x="964" 
d="M72 0l278 1434h86l-278 -1434h-86zM360 -10l17 82h47q106 0 168 48.5t84 162.5l225 1151h86l-225 -1151q-32 -159 -113.5 -226t-234.5 -67h-54z" />
    <glyph glyph-name="ij" unicode="&#x133;" horiz-adv-x="690" 
d="M401 1413l-49 -246h-106l49 246h106zM748 1413l-50 -246h-106l49 246h107zM41 0l184 946h78l-184 -946h-78zM94 -344h49q83 0 139 48t74 140l215 1102h78l-215 -1102q-28 -142 -105 -202t-200 -60h-49z" />
    <glyph glyph-name="Jcircumflex" unicode="&#x134;" horiz-adv-x="550" 
d="M207 1522l330 245h98l213 -245h-103l-159 196l-262 -196h-117zM-53 -10l16 82h47q106 0 168 48.5t84 162.5l225 1151h86l-225 -1151q-32 -159 -113.5 -226t-234.5 -67h-53z" />
    <glyph glyph-name="jcircumflex" unicode="&#x135;" horiz-adv-x="346" 
d="M74 1133l229 315h98l105 -315h-82l-74 264l-184 -264h-92zM-250 -344h49q83 0 139 48t74 140l215 1102h78l-215 -1102q-28 -142 -105 -202t-200 -60h-49z" />
    <glyph glyph-name="Kcommaaccent" unicode="&#x136;" horiz-adv-x="1191" 
d="M1223 1434l-807 -656l674 -778h-123l-658 776l-151 -776h-86l278 1434h86l-125 -641l774 641h138zM412 -246l28 150h150l-29 -150l-155 -164h-46l117 164h-65z" />
    <glyph glyph-name="kcommaaccent" unicode="&#x137;" horiz-adv-x="897" 
d="M909 946l-577 -438l452 -508h-112l-436 498l-97 -498h-78l279 1434h78l-176 -912l532 424h135zM289 -246l28 150h150l-29 -150l-155 -164h-45l116 164h-65z" />
    <glyph glyph-name="kgreenlandic" unicode="&#x138;" horiz-adv-x="868" 
d="M881 946l-578 -438l453 -508h-109l-436 498l-96 -498h-74l184 946h74l-82 -424l533 424h131z" />
    <glyph glyph-name="Lacute" unicode="&#x139;" horiz-adv-x="993" 
d="M371 1522l256 245h118l-294 -245h-80zM72 0l278 1434h86l-264 -1356h723l-14 -78h-809z" />
    <glyph glyph-name="lacute" unicode="&#x13a;" horiz-adv-x="385" 
d="M356 1518l256 245h119l-295 -245h-80zM61 0l279 1434h78l-279 -1434h-78z" />
    <glyph glyph-name="Lcommaaccent" unicode="&#x13b;" horiz-adv-x="993" 
d="M172 78h723l-14 -78h-809l278 1434h86zM344 -246l29 150h149l-28 -150l-156 -164h-45l117 164h-66z" />
    <glyph glyph-name="lcommaaccent" unicode="&#x13c;" horiz-adv-x="385" 
d="M418 1434l-279 -1434h-78l279 1434h78zM-16 -246l28 150h150l-29 -150l-156 -164h-45l117 164h-65z" />
    <glyph glyph-name="Lcaron" unicode="&#x13d;" horiz-adv-x="993" 
d="M827 1464h150l-29 -149l-184 -271h-53l168 271h-80zM436 1434l-264 -1356h723l-14 -78h-809l278 1434h86z" />
    <glyph glyph-name="lcaron" unicode="&#x13e;" horiz-adv-x="526" 
d="M559 1464h150l-29 -149l-184 -271h-54l158 271h-70zM61 0l279 1434h78l-279 -1434h-78z" />
    <glyph glyph-name="Ldot" unicode="&#x13f;" horiz-adv-x="993" 
d="M72 0l278 1434h86l-264 -1356h723l-14 -78h-809zM727 782l33 164h164l-33 -164h-164z" />
    <glyph glyph-name="ldot" unicode="&#x140;" horiz-adv-x="520" 
d="M61 0l279 1434h78l-279 -1434h-78zM406 782l32 164h164l-33 -164h-163z" />
    <glyph glyph-name="Lslash" unicode="&#x141;" horiz-adv-x="1024" 
d="M203 78h723l-15 -78h-809l129 662l-211 -84l13 65l211 84l137 707h86l-131 -670l436 174l-10 -66l-438 -174z" />
    <glyph glyph-name="lslash" unicode="&#x142;" horiz-adv-x="464" 
d="M535 954l-11 -65l-188 -88l-156 -801h-78l148 762l-191 -90l13 65l190 90l119 607h78l-111 -568z" />
    <glyph glyph-name="Nacute" unicode="&#x143;" horiz-adv-x="1413" 
d="M877 1522l256 245h118l-295 -245h-79zM72 0l278 1434h96l646 -1307h4l254 1307h86l-279 -1434h-96l-645 1307h-4l-254 -1307h-86z" />
    <glyph glyph-name="nacute" unicode="&#x144;" horiz-adv-x="1101" 
d="M653 1133l256 315h119l-301 -315h-74zM41 0l184 946h78l-49 -237h4q73 139 173 203.5t237 64.5q159 0 242 -79t83 -220q0 -72 -16 -158l-103 -520h-77l102 520q14 69 14 139q0 125 -62.5 183.5t-188.5 58.5q-369 0 -463 -487l-80 -414h-78z" />
    <glyph glyph-name="Ncommaaccent" unicode="&#x145;" horiz-adv-x="1413" 
d="M1350 1434h86l-279 -1434h-96l-645 1307h-4l-254 -1307h-86l278 1434h96l646 -1307h4zM494 -246l28 150h150l-29 -150l-156 -164h-45l117 164h-65z" />
    <glyph glyph-name="ncommaaccent" unicode="&#x146;" horiz-adv-x="1101" 
d="M668 977q159 0 242 -79t83 -220q0 -72 -16 -158l-103 -520h-77l102 520q14 69 14 139q0 125 -62.5 183.5t-188.5 58.5q-369 0 -463 -487l-80 -414h-78l184 946h78l-49 -237h4q73 139 173 203.5t237 64.5zM369 -246l28 150h150l-29 -150l-156 -164h-45l117 164h-65z" />
    <glyph glyph-name="Ncaron" unicode="&#x147;" horiz-adv-x="1413" 
d="M854 1522l-211 245h100l162 -198l262 198h119l-334 -245h-98zM72 0l278 1434h96l646 -1307h4l254 1307h86l-279 -1434h-96l-645 1307h-4l-254 -1307h-86z" />
    <glyph glyph-name="ncaron" unicode="&#x148;" horiz-adv-x="1101" 
d="M625 1112l-207 315h92l166 -260l272 260h109l-334 -315h-98zM41 0l184 946h78l-49 -237h4q73 139 173 203.5t237 64.5q159 0 242 -79t83 -220q0 -72 -16 -158l-103 -520h-77l102 520q14 69 14 139q0 125 -62.5 183.5t-188.5 58.5q-369 0 -463 -487l-80 -414h-78z" />
    <glyph glyph-name="napostrophe" unicode="&#x149;" horiz-adv-x="1101" 
d="M156 1044h-54l168 271h-80l29 149h150l-29 -149zM668 977q159 0 242 -79t83 -220q0 -72 -16 -158l-103 -520h-77l102 520q14 69 14 139q0 125 -62.5 183.5t-188.5 58.5q-369 0 -463 -487l-80 -414h-78l184 946h78l-49 -237h4q73 139 173 203.5t237 64.5z" />
    <glyph glyph-name="Eng" unicode="&#x14a;" horiz-adv-x="1413" 
d="M1350 1434h86l-279 -1434l-33 -164q-26 -127 -90.5 -186.5t-173.5 -59.5h-78l15 78h82q66 0 105.5 38t57.5 130l33 164l-659 1307h-4l-254 -1307h-86l278 1434h96l646 -1303h4z" />
    <glyph glyph-name="eng" unicode="&#x14b;" horiz-adv-x="1101" 
d="M668 977q159 0 242 -79t83 -220q0 -72 -16 -158l-103 -520l-32 -172q-46 -238 -287 -238h-63l14 70h53q86 0 136 41t71 143l31 156l102 520q14 69 14 139q0 125 -62.5 183.5t-188.5 58.5q-369 0 -463 -487l-80 -414h-78l184 946h78l-49 -237h4q73 139 173 203.5t237 64.5
z" />
    <glyph glyph-name="Omacron" unicode="&#x14c;" horiz-adv-x="1714" 
d="M1288 1659l-14 -66h-555l14 66h555zM842 -31q-320 0 -514.5 185t-194.5 495q0 168 61 317.5t168.5 259.5t264.5 174t340 64q320 0 514 -185t194 -495q0 -168 -61 -317.5t-168.5 -259.5t-264 -174t-339.5 -64zM842 53q164 0 305 60t236.5 161t149.5 236t54 283
q0 180 -82 314.5t-221.5 203.5t-316.5 69q-164 0 -305 -59.5t-237 -161t-150 -236t-54 -282.5q0 -180 82 -315t222 -204t317 -69z" />
    <glyph glyph-name="omacron" unicode="&#x14d;" horiz-adv-x="1193" 
d="M1008 1331l-15 -65h-555l15 65h555zM543 -31q-209 0 -335 115t-126 328q0 114 42 217t115.5 180t180.5 122.5t231 45.5q209 0 335 -114.5t126 -327.5q0 -114 -42 -217t-115.5 -180.5t-180.5 -123t-231 -45.5zM551 45q139 0 250 71t170 183.5t59 241.5q0 167 -104 263.5
t-283 96.5q-139 0 -250 -70.5t-170 -183t-59 -241.5q0 -167 104 -264t283 -97z" />
    <glyph glyph-name="Obreve" unicode="&#x14e;" horiz-adv-x="1714" 
d="M1001 1522q-107 0 -170 48.5t-63 135.5q0 26 6 61h68q-4 -36 -4 -51q0 -60 43 -93.5t125 -33.5q98 0 162.5 47t88.5 131h74q-24 -114 -114 -179.5t-216 -65.5zM842 -31q-320 0 -514.5 185t-194.5 495q0 168 61 317.5t168.5 259.5t264.5 174t340 64q320 0 514 -185
t194 -495q0 -168 -61 -317.5t-168.5 -259.5t-264 -174t-339.5 -64zM842 53q164 0 305 60t236.5 161t149.5 236t54 283q0 180 -82 314.5t-221.5 203.5t-316.5 69q-164 0 -305 -59.5t-237 -161t-150 -236t-54 -282.5q0 -180 82 -315t222 -204t317 -69z" />
    <glyph glyph-name="obreve" unicode="&#x14f;" horiz-adv-x="1193" 
d="M1030 1434q-25 -137 -109 -212t-214 -75q-110 0 -175 57t-65 158q0 34 6 72h70q-4 -36 -4 -54q0 -79 44 -122.5t126 -43.5q199 0 249 220h72zM543 -31q-209 0 -335 115t-126 328q0 114 42 217t115.5 180t180.5 122.5t231 45.5q209 0 335 -114.5t126 -327.5
q0 -114 -42 -217t-115.5 -180.5t-180.5 -123t-231 -45.5zM551 45q139 0 250 71t170 183.5t59 241.5q0 167 -104 263.5t-283 96.5q-139 0 -250 -70.5t-170 -183t-59 -241.5q0 -167 104 -264t283 -97z" />
    <glyph glyph-name="Ohungarumlaut" unicode="&#x150;" horiz-adv-x="1714" 
d="M1225 1767l-295 -245h-72l275 245h92zM1403 1767l-293 -245h-72l275 245h90zM842 -31q-320 0 -514.5 185t-194.5 495q0 168 61 317.5t168.5 259.5t264.5 174t340 64q320 0 514 -185t194 -495q0 -168 -61 -317.5t-168.5 -259.5t-264 -174t-339.5 -64zM842 53q164 0 305 60
t236.5 161t149.5 236t54 283q0 180 -82 314.5t-221.5 203.5t-316.5 69q-164 0 -305 -59.5t-237 -161t-150 -236t-54 -282.5q0 -180 82 -315t222 -204t317 -69z" />
    <glyph glyph-name="ohungarumlaut" unicode="&#x151;" horiz-adv-x="1193" 
d="M905 1448l-295 -315h-71l274 315h92zM1083 1448l-292 -315h-72l274 315h90zM543 -31q-209 0 -335 115t-126 328q0 114 42 217t115.5 180t180.5 122.5t231 45.5q209 0 335 -114.5t126 -327.5q0 -114 -42 -217t-115.5 -180.5t-180.5 -123t-231 -45.5zM551 45q139 0 250 71
t170 183.5t59 241.5q0 167 -104 263.5t-283 96.5q-139 0 -250 -70.5t-170 -183t-59 -241.5q0 -167 104 -264t283 -97z" />
    <glyph glyph-name="OE" unicode="&#x152;" horiz-adv-x="2426" 
d="M2497 1356h-697l-100 -510h641l-14 -78h-641l-136 -690h707l-14 -78h-793l53 272q-111 -142 -282 -222.5t-379 -80.5q-320 0 -514.5 185t-194.5 495q0 168 61 317.5t168.5 259.5t264.5 174t340 64q258 0 437 -121.5t241 -336.5l84 428h782zM842 53q160 0 300.5 60
t237 161t152 236t55.5 283q0 180 -82 314.5t-221.5 203.5t-316.5 69q-213 0 -385.5 -102t-266.5 -270.5t-94 -366.5q0 -180 82 -315t222 -204t317 -69z" />
    <glyph glyph-name="oe" unicode="&#x153;" horiz-adv-x="2068" 
d="M1987 473h-873q-6 -37 -6 -78q0 -170 92.5 -261t261.5 -91q69 0 129 14.5t109 43.5t85 59t77 73l57 -59q-38 -36 -59.5 -55t-69 -53t-90 -52t-107.5 -32.5t-135 -14.5q-167 0 -274.5 74.5t-141.5 214.5q-73 -132 -203 -209.5t-296 -77.5q-209 0 -335 115t-126 328
q0 114 42 217t115.5 180t180.5 122.5t231 45.5q169 0 285.5 -75.5t157.5 -219.5q71 136 201.5 215.5t299.5 79.5q199 0 304.5 -106t105.5 -265q0 -52 -18 -133zM551 45q139 0 250 71t170 183.5t59 241.5q0 167 -104 263.5t-283 96.5q-139 0 -250 -70.5t-170 -183t-59 -241.5
q0 -167 104 -264t283 -97zM1589 901q-174 0 -297 -101.5t-166 -260.5h791q6 30 6 61q0 136 -87.5 218.5t-246.5 82.5z" />
    <glyph glyph-name="Racute" unicode="&#x154;" horiz-adv-x="1144" 
d="M1081 1767l-295 -245h-79l256 245h118zM1167 1081q0 -91 -31.5 -169.5t-91.5 -139t-153 -96t-209 -37.5l319 -639l-102 2l-311 637h-305l-125 -639h-86l278 1434h445q176 0 274 -97.5t98 -255.5zM672 717q182 0 294.5 94.5t112.5 261.5q0 135 -77.5 209t-210.5 74h-369
l-125 -639h375z" />
    <glyph glyph-name="racute" unicode="&#x155;" horiz-adv-x="622" 
d="M422 1133l256 315h119l-301 -315h-74zM41 0l184 946h78l-43 -219h4q42 110 134.5 179t217.5 69q24 0 52 -4l-17 -86q-20 4 -45 4q-156 0 -257 -110t-138 -300l-92 -479h-78z" />
    <glyph glyph-name="Rcommaaccent" unicode="&#x156;" horiz-adv-x="1144" 
d="M1167 1081q0 -91 -31.5 -169.5t-91.5 -139t-153 -96t-209 -37.5l319 -639l-102 2l-311 637h-305l-125 -639h-86l278 1434h445q176 0 274 -97.5t98 -255.5zM672 717q182 0 294.5 94.5t112.5 261.5q0 135 -77.5 209t-210.5 74h-369l-125 -639h375zM373 -246l28 150h150
l-29 -150l-155 -164h-45l116 164h-65z" />
    <glyph glyph-name="rcommaaccent" unicode="&#x157;" horiz-adv-x="622" 
d="M616 975q24 0 52 -4l-17 -86q-20 4 -45 4q-156 0 -257 -110t-138 -300l-92 -479h-78l184 946h78l-43 -219h4q42 110 134.5 179t217.5 69zM-37 -246l29 150h149l-28 -150l-156 -164h-45l117 164h-66z" />
    <glyph glyph-name="Rcaron" unicode="&#x158;" horiz-adv-x="1144" 
d="M782 1522h-98l-211 245h100l162 -198l262 198h119zM1167 1081q0 -91 -31.5 -169.5t-91.5 -139t-153 -96t-209 -37.5l319 -639l-102 2l-311 637h-305l-125 -639h-86l278 1434h445q176 0 274 -97.5t98 -255.5zM672 717q182 0 294.5 94.5t112.5 261.5q0 135 -77.5 209
t-210.5 74h-369l-125 -639h375z" />
    <glyph glyph-name="rcaron" unicode="&#x159;" horiz-adv-x="622" 
d="M393 1112l-207 315h93l165 -260l273 260h108l-333 -315h-99zM41 0l184 946h78l-43 -219h4q42 110 134.5 179t217.5 69q24 0 52 -4l-17 -86q-20 4 -45 4q-156 0 -257 -110t-138 -300l-92 -479h-78z" />
    <glyph glyph-name="Sacute" unicode="&#x15a;" horiz-adv-x="1064" 
d="M674 1522l256 245h119l-295 -245h-80zM524 -31q-303 0 -528 221l59 66q216 -203 473 -203q159 0 244.5 72t85.5 203q0 55 -15.5 102.5t-46.5 88t-62.5 71t-78.5 67.5l-149 119q-109 86 -166 171.5t-57 195.5q0 140 92.5 230.5t269.5 90.5q119 0 219.5 -38t208.5 -115
l-57 -76q-81 67 -178.5 106t-194.5 39q-131 0 -201.5 -66t-70.5 -171q0 -154 180 -293l172 -133q107 -82 165 -172t58 -215q0 -172 -111.5 -266.5t-310.5 -94.5z" />
    <glyph glyph-name="sacute" unicode="&#x15b;" horiz-adv-x="806" 
d="M492 1133l256 315h118l-301 -315h-73zM43 201q166 -156 354 -156q110 0 159.5 44.5t49.5 119.5q0 59 -33 104t-100 90l-113 76q-42 29 -67.5 49.5t-55.5 53.5t-44.5 73t-14.5 88q0 109 74 171.5t203 62.5q154 0 311 -105l-47 -69q-135 98 -266 98q-93 0 -143 -43.5
t-50 -118.5q0 -33 10 -60t33.5 -51t42.5 -38.5t57 -40.5l111 -76q43 -29 67.5 -49.5t52.5 -52.5t41 -71.5t13 -88.5q0 -125 -80 -183.5t-215 -58.5q-224 0 -407 168z" />
    <glyph glyph-name="Scircumflex" unicode="&#x15c;" horiz-adv-x="1064" 
d="M373 1522l329 245h99l213 -245h-103l-159 196l-263 -196h-116zM524 -31q-303 0 -528 221l59 66q216 -203 473 -203q159 0 244.5 72t85.5 203q0 55 -15.5 102.5t-46.5 88t-62.5 71t-78.5 67.5l-149 119q-109 86 -166 171.5t-57 195.5q0 140 92.5 230.5t269.5 90.5
q119 0 219.5 -38t208.5 -115l-57 -76q-81 67 -178.5 106t-194.5 39q-131 0 -201.5 -66t-70.5 -171q0 -154 180 -293l172 -133q107 -82 165 -172t58 -215q0 -172 -111.5 -266.5t-310.5 -94.5z" />
    <glyph glyph-name="scircumflex" unicode="&#x15d;" horiz-adv-x="806" 
d="M207 1133l334 315h98l207 -315h-92l-166 260l-273 -260h-108zM43 201q166 -156 354 -156q110 0 159.5 44.5t49.5 119.5q0 59 -33 104t-100 90l-113 76q-42 29 -67.5 49.5t-55.5 53.5t-44.5 73t-14.5 88q0 109 74 171.5t203 62.5q154 0 311 -105l-47 -69q-135 98 -266 98
q-93 0 -143 -43.5t-50 -118.5q0 -33 10 -60t33.5 -51t42.5 -38.5t57 -40.5l111 -76q43 -29 67.5 -49.5t52.5 -52.5t41 -71.5t13 -88.5q0 -125 -80 -183.5t-215 -58.5q-224 0 -407 168z" />
    <glyph glyph-name="Scedilla" unicode="&#x15e;" horiz-adv-x="1064" 
d="M643 1380q-131 0 -201.5 -66t-70.5 -171q0 -154 180 -293l172 -133q107 -82 165 -172t58 -215q0 -172 -111.5 -266.5t-310.5 -94.5h-4l-41 -67q27 -7 44.5 -13.5t38.5 -19t31.5 -33.5t10.5 -49q-1 -31 -16 -58t-35 -46t-60 -41t-68 -34.5t-82 -34.5q-4 -2 -6 -2.5t-5 -2
t-6 -2.5l-17 41q118 52 165.5 85t47.5 75q0 28 -29.5 43t-99.5 30l76 131q-268 17 -473 219l59 66q216 -203 473 -203q159 0 244.5 72t85.5 203q0 55 -15.5 102.5t-46.5 88t-62.5 71t-78.5 67.5l-149 119q-109 86 -166 171.5t-57 195.5q0 140 92.5 230.5t269.5 90.5
q119 0 219.5 -38t208.5 -115l-57 -76q-81 67 -178.5 106t-194.5 39z" />
    <glyph glyph-name="scedilla" unicode="&#x15f;" horiz-adv-x="806" 
d="M453 901q-93 0 -143 -43.5t-50 -118.5q0 -33 10 -60t33.5 -51t42.5 -38.5t57 -40.5l111 -76q43 -29 67.5 -49.5t52.5 -52.5t41 -71.5t13 -88.5q0 -125 -80 -183.5t-215 -58.5h-20l-41 -67q27 -7 44.5 -13.5t38.5 -19t31.5 -33.5t10.5 -49q-1 -50 -43.5 -92t-82 -61.5
t-135.5 -59.5q-12 -5 -18 -8l-16 41q118 52 165.5 85t47.5 75q0 28 -29.5 43t-99.5 30l76 133q-182 20 -336 164l57 64q166 -156 354 -156q110 0 159.5 44.5t49.5 119.5q0 59 -33 104t-100 90l-113 76q-42 29 -67.5 49.5t-55.5 53.5t-44.5 73t-14.5 88q0 109 74 171.5
t203 62.5q154 0 311 -105l-47 -69q-135 98 -266 98z" />
    <glyph glyph-name="Scaron" unicode="&#x160;" horiz-adv-x="1064" 
d="M651 1522l-211 245h101l161 -198l263 198h118l-333 -245h-99zM524 -31q-303 0 -528 221l59 66q216 -203 473 -203q159 0 244.5 72t85.5 203q0 55 -15.5 102.5t-46.5 88t-62.5 71t-78.5 67.5l-149 119q-109 86 -166 171.5t-57 195.5q0 140 92.5 230.5t269.5 90.5
q119 0 219.5 -38t208.5 -115l-57 -76q-81 67 -178.5 106t-194.5 39q-131 0 -201.5 -66t-70.5 -171q0 -154 180 -293l172 -133q107 -82 165 -172t58 -215q0 -172 -111.5 -266.5t-310.5 -94.5z" />
    <glyph glyph-name="scaron" unicode="&#x161;" horiz-adv-x="806" 
d="M463 1112l-207 315h92l166 -260l272 260h109l-334 -315h-98zM43 201q166 -156 354 -156q110 0 159.5 44.5t49.5 119.5q0 59 -33 104t-100 90l-113 76q-42 29 -67.5 49.5t-55.5 53.5t-44.5 73t-14.5 88q0 109 74 171.5t203 62.5q154 0 311 -105l-47 -69q-135 98 -266 98
q-93 0 -143 -43.5t-50 -118.5q0 -33 10 -60t33.5 -51t42.5 -38.5t57 -40.5l111 -76q43 -29 67.5 -49.5t52.5 -52.5t41 -71.5t13 -88.5q0 -125 -80 -183.5t-215 -58.5q-224 0 -407 168z" />
    <glyph glyph-name="uni0162" unicode="&#x162;" horiz-adv-x="1064" 
d="M483 0h-18l-59 -98q27 -7 44.5 -13.5t38 -19t31 -33.5t10.5 -49q-1 -31 -16 -58t-35 -46t-60 -41t-68 -34.5t-82 -34.5q-4 -2 -6 -2.5t-5 -2t-6 -2.5l-16 41q118 52 165.5 85t47.5 75q0 28 -30 43t-100 30l93 160h-15l265 1356h-459l14 78h1004l-15 -78h-458z" />
    <glyph glyph-name="uni0163" unicode="&#x163;" horiz-adv-x="593" 
d="M406 881l-123 -629q-7 -47 -7 -74q0 -46 29 -75t84 -29h64l-15 -78h-63h-21l-57 -94q27 -7 44.5 -13.5t38.5 -19t31.5 -33.5t10.5 -49q-1 -50 -43.5 -92t-82 -61.5t-135.5 -59.5q-12 -5 -18 -8l-16 41q118 52 165.5 85t47.5 75q0 28 -29.5 43t-99.5 30l96 166
q-52 17 -81 60.5t-29 103.5q0 34 8 80l123 631h-207l12 65h207l74 379h78l-74 -379h227l-12 -65h-227z" />
    <glyph glyph-name="Tcaron" unicode="&#x164;" horiz-adv-x="1064" 
d="M793 1522h-99l-211 245h101l161 -198l263 198h118zM1221 1434l-15 -78h-458l-265 -1356h-86l265 1356h-459l14 78h1004z" />
    <glyph glyph-name="tcaron" unicode="&#x165;" horiz-adv-x="720" 
d="M702 1464h150l-29 -149l-184 -271h-53l157 271h-69zM492 1325l-74 -379h227l-12 -65h-227l-123 -629q-7 -47 -7 -74q0 -46 29 -75t84 -29h64l-15 -78h-63q-82 0 -130 47.5t-48 126.5q0 34 8 80l123 631h-207l12 65h207l74 379h78z" />
    <glyph glyph-name="Tbar" unicode="&#x166;" horiz-adv-x="1064" 
d="M1206 1356h-458l-66 -342h313l-12 -64h-313l-187 -950h-86l187 950h-301l14 64h299l66 342h-459l14 78h1004z" />
    <glyph glyph-name="tbar" unicode="&#x167;" horiz-adv-x="593" 
d="M633 881h-227l-46 -228h226l-13 -61h-225l-65 -340q-7 -47 -7 -74q0 -46 29 -75t84 -29h64l-15 -78h-63q-82 0 -130 47.5t-48 126.5q0 34 8 80l65 342h-200l12 61h201l45 228h-207l12 65h207l74 379h78l-74 -379h227z" />
    <glyph glyph-name="Utilde" unicode="&#x168;" horiz-adv-x="1431" 
d="M1137 1571q-49 0 -114.5 30t-125 59.5t-92.5 29.5q-73 0 -133 -97l-45 21q37 69 79.5 110t104.5 41q49 0 114.5 -29.5t125 -59t92.5 -29.5q74 0 133 96l45 -21q-37 -69 -79.5 -110t-104.5 -41zM1454 1434l-178 -916q-23 -119 -66.5 -214t-115.5 -172.5t-183 -120
t-254 -42.5q-239 0 -366 115.5t-127 321.5q0 70 14 141l174 887h90l-174 -895q-14 -79 -14 -131q0 -166 105 -260.5t298 -94.5q224 0 356 128t177 358l174 895h90z" />
    <glyph glyph-name="utilde" unicode="&#x169;" horiz-adv-x="1069" 
d="M872 1227q-49 0 -114.5 30t-124.5 59.5t-92 29.5q-73 0 -133 -97l-46 21q37 68 80 109.5t105 41.5q49 0 114.5 -29.5t125 -59t92.5 -29.5q74 0 133 96l45 -21q-37 -68 -80 -109.5t-105 -41.5zM412 -31q-152 0 -235 78.5t-83 216.5q0 56 15 133l108 549h82l-109 -555
q-12 -61 -12 -112q0 -116 61 -175t177 -59q165 0 282 121.5t170 386.5l78 393h82l-184 -946h-78l45 221h-4q-27 -51 -61.5 -93t-82.5 -79.5t-112.5 -58.5t-138.5 -21z" />
    <glyph glyph-name="Umacron" unicode="&#x16a;" horiz-adv-x="1431" 
d="M1202 1659l-14 -66h-555l14 66h555zM1454 1434l-178 -916q-23 -119 -66.5 -214t-115.5 -172.5t-183 -120t-254 -42.5q-239 0 -366 115.5t-127 321.5q0 70 14 141l174 887h90l-174 -895q-14 -79 -14 -131q0 -166 105 -260.5t298 -94.5q224 0 356 128t177 358l174 895h90z
" />
    <glyph glyph-name="umacron" unicode="&#x16b;" horiz-adv-x="1069" 
d="M973 1331l-15 -65h-555l15 65h555zM412 -31q-152 0 -235 78.5t-83 216.5q0 56 15 133l108 549h82l-109 -555q-12 -61 -12 -112q0 -116 61 -175t177 -59q165 0 282 121.5t170 386.5l78 393h82l-184 -946h-78l45 221h-4q-27 -51 -61.5 -93t-82.5 -79.5t-112.5 -58.5
t-138.5 -21z" />
    <glyph glyph-name="Ubreve" unicode="&#x16c;" horiz-adv-x="1431" 
d="M915 1522q-107 0 -170 48.5t-63 135.5q0 26 6 61h68q-4 -36 -4 -51q0 -60 43 -93.5t125 -33.5q98 0 162.5 47t88.5 131h74q-24 -114 -114 -179.5t-216 -65.5zM1454 1434l-178 -916q-23 -119 -66.5 -214t-115.5 -172.5t-183 -120t-254 -42.5q-239 0 -366 115.5t-127 321.5
q0 70 14 141l174 887h90l-174 -895q-14 -79 -14 -131q0 -166 105 -260.5t298 -94.5q224 0 356 128t177 358l174 895h90z" />
    <glyph glyph-name="ubreve" unicode="&#x16d;" horiz-adv-x="1069" 
d="M995 1434q-25 -137 -109 -212t-214 -75q-110 0 -175 57t-65 158q0 34 6 72h70q-4 -36 -4 -54q0 -79 44 -122.5t126 -43.5q200 0 250 220h71zM412 -31q-152 0 -235 78.5t-83 216.5q0 56 15 133l108 549h82l-109 -555q-12 -61 -12 -112q0 -116 61 -175t177 -59
q165 0 282 121.5t170 386.5l78 393h82l-184 -946h-78l45 221h-4q-27 -51 -61.5 -93t-82.5 -79.5t-112.5 -58.5t-138.5 -21z" />
    <glyph glyph-name="Uring" unicode="&#x16e;" horiz-adv-x="1431" 
d="M901 1376q-106 0 -165.5 56.5t-59.5 156.5q0 106 71 176t177 70t165.5 -56.5t59.5 -156.5q0 -106 -71 -176t-177 -70zM903 1434q79 0 131.5 52t52.5 132q0 77 -43 118.5t-122 41.5q-80 0 -132.5 -53t-52.5 -132q0 -76 43 -117.5t123 -41.5zM1454 1434l-178 -916
q-23 -119 -66.5 -214t-115.5 -172.5t-183 -120t-254 -42.5q-239 0 -366 115.5t-127 321.5q0 70 14 141l174 887h90l-174 -895q-14 -79 -14 -131q0 -166 105 -260.5t298 -94.5q224 0 356 128t177 358l174 895h90z" />
    <glyph glyph-name="uring" unicode="&#x16f;" horiz-adv-x="1069" 
d="M698 1530q104 0 164 -62t60 -159q0 -110 -73.5 -184t-189.5 -74q-106 0 -165.5 62t-59.5 159q0 110 73.5 184t190.5 74zM694 1473q-90 0 -144 -56t-54 -143q0 -77 44.5 -121.5t123.5 -44.5q88 0 142 56t54 143q0 77 -44 121.5t-122 44.5zM412 -31q-152 0 -235 78.5
t-83 216.5q0 56 15 133l108 549h82l-109 -555q-12 -61 -12 -112q0 -116 61 -175t177 -59q165 0 282 121.5t170 386.5l78 393h82l-184 -946h-78l45 221h-4q-27 -51 -61.5 -93t-82.5 -79.5t-112.5 -58.5t-138.5 -21z" />
    <glyph glyph-name="Uhungarumlaut" unicode="&#x170;" horiz-adv-x="1431" 
d="M1139 1767l-295 -245h-72l275 245h92zM1317 1767l-293 -245h-72l275 245h90zM1454 1434l-178 -916q-23 -119 -66.5 -214t-115.5 -172.5t-183 -120t-254 -42.5q-239 0 -366 115.5t-127 321.5q0 70 14 141l174 887h90l-174 -895q-14 -79 -14 -131q0 -166 105 -260.5
t298 -94.5q224 0 356 128t177 358l174 895h90z" />
    <glyph glyph-name="uhungarumlaut" unicode="&#x171;" horiz-adv-x="1069" 
d="M870 1448l-295 -315h-71l274 315h92zM1049 1448l-293 -315h-72l274 315h91zM412 -31q-152 0 -235 78.5t-83 216.5q0 56 15 133l108 549h82l-109 -555q-12 -61 -12 -112q0 -116 61 -175t177 -59q165 0 282 121.5t170 386.5l78 393h82l-184 -946h-78l45 221h-4
q-27 -51 -61.5 -93t-82.5 -79.5t-112.5 -58.5t-138.5 -21z" />
    <glyph glyph-name="Uogonek" unicode="&#x172;" horiz-adv-x="1431" 
d="M1364 1434h90l-178 -916q-99 -517 -561 -547q-82 -63 -121 -113.5t-39 -101.5q0 -75 111 -75q52 0 106 14l4 -66q-63 -18 -119 -18q-75 0 -126.5 33t-51.5 100q0 106 144 225q-223 9 -341 124t-118 313q0 70 14 141l174 887h90l-174 -895q-14 -79 -14 -131
q0 -166 105 -260.5t298 -94.5q224 0 356 128t177 358z" />
    <glyph glyph-name="uogonek" unicode="&#x173;" horiz-adv-x="1069" 
d="M815 0q-103 -74 -151 -131t-48 -113q0 -75 111 -75q53 0 107 14l4 -66q-63 -18 -119 -18q-75 0 -126.5 33t-51.5 100q0 136 233 293l37 184h-4q-27 -51 -61.5 -93t-82.5 -79.5t-112.5 -58.5t-138.5 -21q-152 0 -235 78.5t-83 216.5q0 56 15 133l108 549h82l-109 -555
q-12 -61 -12 -112q0 -116 61 -175t177 -59q165 0 282 121.5t170 386.5l78 393h82l-184 -946h-29z" />
    <glyph glyph-name="Wcircumflex" unicode="&#x174;" horiz-adv-x="1972" 
d="M842 1522l329 245h99l213 -245h-103l-159 196l-263 -196h-116zM2128 1434l-725 -1434h-90l-164 1294h-4l-672 -1294h-90l-166 1434h98l129 -1293h5l667 1293h98l164 -1293h4l637 1293h109z" />
    <glyph glyph-name="wcircumflex" unicode="&#x175;" horiz-adv-x="1507" 
d="M936 1393l-272 -260h-109l334 315h98l207 -315h-92zM1475 946h94l-508 -946h-84l-137 854l-475 -854h-82l-140 946h88l105 -852l469 852h92l135 -850z" />
    <glyph glyph-name="Ycircumflex" unicode="&#x176;" horiz-adv-x="1069" 
d="M768 1718l-262 -196h-117l330 245h98l213 -245h-102zM1235 1434l-643 -885l-107 -549h-86l107 547l-299 887h98l252 -797h4l565 797h109z" />
    <glyph glyph-name="ycircumflex" unicode="&#x177;" horiz-adv-x="907" 
d="M629 1393l-273 -260h-108l334 315h98l207 -315h-92zM881 946h88l-881 -1356h-86l344 529l-223 827h84l192 -747z" />
    <glyph glyph-name="Ydieresis" unicode="&#x178;" horiz-adv-x="1069" 
d="M631 1716l-39 -194h-107l39 194h107zM1008 1716l-39 -194h-107l39 194h107zM1235 1434l-643 -885l-107 -549h-86l107 547l-299 887h98l252 -797h4l565 797h109z" />
    <glyph glyph-name="Zacute" unicode="&#x179;" horiz-adv-x="1132" 
d="M1139 1767l-295 -245h-80l256 245h119zM1241 1434l-14 -80l-1137 -1274h903l-14 -80h-1008l15 80l1134 1274h-803l15 80h909z" />
    <glyph glyph-name="zacute" unicode="&#x17a;" horiz-adv-x="915" 
d="M926 1448l-301 -315h-74l256 315h119zM199 874l14 72h700l-14 -67l-811 -805h688l-14 -74h-793l15 70l809 804h-594z" />
    <glyph glyph-name="Zdotaccent" unicode="&#x17b;" horiz-adv-x="1132" 
d="M901 1747l-45 -225h-106l45 225h106zM1241 1434l-14 -80l-1137 -1274h903l-14 -80h-1008l15 80l1134 1274h-803l15 80h909z" />
    <glyph glyph-name="zdotaccent" unicode="&#x17c;" horiz-adv-x="915" 
d="M700 1413l-49 -246h-106l49 246h106zM913 946l-14 -67l-811 -805h688l-14 -74h-793l15 70l809 804h-594l14 72h700z" />
    <glyph glyph-name="Zcaron" unicode="&#x17d;" horiz-adv-x="1132" 
d="M840 1522h-99l-211 245h101l162 -198l262 198h119zM1241 1434l-14 -80l-1137 -1274h903l-14 -80h-1008l15 80l1134 1274h-803l15 80h909z" />
    <glyph glyph-name="zcaron" unicode="&#x17e;" horiz-adv-x="915" 
d="M621 1112h-99l-207 315h93l165 -260l273 260h108zM199 874l14 72h700l-14 -67l-811 -805h688l-14 -74h-793l15 70l809 804h-594z" />
    <glyph glyph-name="florin" unicode="&#x192;" horiz-adv-x="778" 
d="M813 1329q-99 2 -170.5 -58t-97.5 -196l-25 -129h309l-12 -61h-309l-195 -1004q-58 -291 -327 -291h-117l14 74h121q83 0 146 56t88 178l192 987h-270l12 61h270l25 131q34 176 124.5 251t233.5 75h93l-15 -74h-90z" />
    <glyph glyph-name="AEacute" unicode="&#x1fc;" horiz-adv-x="1886" 
d="M1935 1767l-295 -245h-79l256 245h118zM1956 1356h-619l-100 -510h563l-14 -78h-563l-136 -690h629l-14 -78h-698h-17l82 418h-647l-371 -418h-112l1282 1434h131h618zM492 496h591l166 852z" />
    <glyph glyph-name="aeacute" unicode="&#x1fd;" horiz-adv-x="1873" 
d="M1001 1133l256 315h119l-301 -315h-74zM391 -31q-166 0 -267 87t-101 233q0 162 125 268.5t317 106.5q135 0 228 -53t136 -152h2q35 144 35 217q0 120 -64 172.5t-196 52.5q-149 0 -342 -43l-16 76q199 43 356 43q171 0 254.5 -66.5t83.5 -203.5h4q64 128 184 199t267 71
q108 0 189.5 -31t128 -85.5t69 -121t22.5 -145.5q0 -56 -14 -125h-858q-8 -44 -8 -92q0 -153 90.5 -242.5t247.5 -89.5q68 0 127.5 15t108.5 44t85.5 59t77.5 73l57 -60q-27 -26 -40.5 -38.5t-45.5 -38.5t-55 -40.5t-61.5 -34t-74.5 -30t-84 -18t-99 -7.5
q-167 0 -276.5 82.5t-131.5 220.5h-4q-58 -147 -177.5 -225t-279.5 -78zM948 539h774q2 18 2 55q0 141 -81.5 224t-247.5 83q-157 0 -277.5 -92.5t-169.5 -269.5zM399 45q164 0 271.5 92t107.5 213q0 108 -88 173t-219 65q-154 0 -260.5 -87t-106.5 -214q0 -106 80 -174
t215 -68z" />
    <glyph glyph-name="Oslashacute" unicode="&#x1fe;" horiz-adv-x="1714" 
d="M1370 1767l-295 -245h-80l256 245h119zM1495 1266q180 -183 180 -482q0 -168 -61 -317.5t-168.5 -259.5t-264 -174t-339.5 -64q-287 0 -477 154l-150 -152l-39 39l148 148q-191 188 -191 491q0 168 61 317.5t168.5 259.5t264.5 174t340 64q297 0 487 -161l158 159l41 -37
zM221 641q0 -259 164 -420l1008 1018q-170 141 -426 141q-164 0 -305 -59.5t-237 -161t-150 -236t-54 -282.5zM842 53q164 0 305 60t236.5 161t149.5 236t54 283q0 251 -155 409l-1006 -1016q169 -133 416 -133z" />
    <glyph glyph-name="oslashacute" unicode="&#x1ff;" horiz-adv-x="1193" 
d="M1034 1448l-301 -315h-74l256 315h119zM1114 938l-104 -100q102 -111 102 -303q0 -114 -42 -217t-115.5 -180.5t-180.5 -123t-231 -45.5q-207 0 -332 113l-117 -111l-37 37l117 111q-92 115 -92 293q0 114 42 217t115.5 180t180.5 122.5t231 45.5q199 0 320 -100l106 100
zM164 406q0 -141 72 -228l673 639q-101 84 -266 84q-139 0 -250 -70.5t-170 -183t-59 -241.5zM1030 541q0 148 -82 239l-678 -641q105 -94 281 -94q139 0 250 71t170 183.5t59 241.5z" />
    <glyph glyph-name="Scommaaccent" unicode="&#x218;" horiz-adv-x="1064" 
d="M643 1380q-131 0 -201.5 -66t-70.5 -171q0 -154 180 -293l172 -133q107 -82 165 -172t58 -215q0 -172 -111.5 -266.5t-310.5 -94.5q-303 0 -528 221l59 66q216 -203 473 -203q159 0 244.5 72t85.5 203q0 55 -15.5 102.5t-46.5 88t-62.5 71t-78.5 67.5l-149 119
q-109 86 -166 171.5t-57 195.5q0 140 92.5 230.5t269.5 90.5q119 0 219.5 -38t208.5 -115l-57 -76q-81 67 -178.5 106t-194.5 39zM397 -246l29 150h149l-28 -150l-156 -164h-45l117 164h-66z" />
    <glyph glyph-name="scommaaccent" unicode="&#x219;" horiz-adv-x="806" 
d="M453 901q-93 0 -143 -43.5t-50 -118.5q0 -33 10 -60t33.5 -51t42.5 -38.5t57 -40.5l111 -76q43 -29 67.5 -49.5t52.5 -52.5t41 -71.5t13 -88.5q0 -125 -80 -183.5t-215 -58.5q-224 0 -407 168l57 64q166 -156 354 -156q110 0 159.5 44.5t49.5 119.5q0 59 -33 104t-100 90
l-113 76q-42 29 -67.5 49.5t-55.5 53.5t-44.5 73t-14.5 88q0 109 74 171.5t203 62.5q154 0 311 -105l-47 -69q-135 98 -266 98zM250 -246l29 150h149l-29 -150l-155 -164h-45l116 164h-65z" />
    <glyph glyph-name="uni021A" unicode="&#x21a;" horiz-adv-x="1064" 
d="M1221 1434l-15 -78h-458l-265 -1356h-86l265 1356h-459l14 78h1004zM324 -246l28 150h150l-29 -150l-156 -164h-45l117 164h-65z" />
    <glyph glyph-name="uni021B" unicode="&#x21b;" horiz-adv-x="593" 
d="M406 881l-123 -629q-7 -47 -7 -74q0 -46 29 -75t84 -29h64l-15 -78h-63q-82 0 -130 47.5t-48 126.5q0 34 8 80l123 631h-207l12 65h207l74 379h78l-74 -379h227l-12 -65h-227zM215 -246l29 150h149l-28 -150l-156 -164h-45l117 164h-66z" />
    <glyph glyph-name="uni0237" unicode="&#x237;" horiz-adv-x="346" 
d="M-250 -344h49q83 0 139 48t74 140l215 1102h78l-215 -1102q-28 -142 -105 -202t-200 -60h-49z" />
    <glyph glyph-name="uni02BC" unicode="&#x2bc;" horiz-adv-x="317" 
d="M299 1464h150l-29 -149l-184 -271h-54l168 271h-80z" />
    <glyph glyph-name="circumflex" unicode="&#x2c6;" horiz-adv-x="843" 
d="M231 1133l334 315h99l206 -315h-92l-166 260l-272 -260h-109z" />
    <glyph glyph-name="caron" unicode="&#x2c7;" horiz-adv-x="843" 
d="M496 1112l-207 315h92l166 -260l272 260h109l-334 -315h-98z" />
    <glyph glyph-name="breve" unicode="&#x2d8;" horiz-adv-x="761" 
d="M846 1434q-25 -137 -109.5 -212t-214.5 -75q-110 0 -174.5 56.5t-64.5 158.5q0 34 6 72h69q-4 -36 -4 -54q0 -79 44 -122.5t126 -43.5q200 0 250 220h72z" />
    <glyph glyph-name="dotaccent" unicode="&#x2d9;" horiz-adv-x="313" 
d="M393 1413l-49 -246h-106l49 246h106z" />
    <glyph glyph-name="ring" unicode="&#x2da;" horiz-adv-x="694" 
d="M526 1530q104 0 164 -62t60 -159q0 -110 -73.5 -184t-189.5 -74q-106 0 -165.5 62t-59.5 159q0 110 73.5 184t190.5 74zM522 1473q-90 0 -144 -56t-54 -143q0 -77 44.5 -121.5t123.5 -44.5q88 0 142 56t54 143q0 77 -44 121.5t-122 44.5z" />
    <glyph glyph-name="ogonek" unicode="&#x2db;" horiz-adv-x="528" 
d="M217 55l51 -28q-118 -82 -172.5 -143t-54.5 -122q0 -75 111 -75q52 0 106 14l4 -66q-63 -18 -119 -18q-75 0 -126.5 33t-51.5 100q0 73 62.5 147t189.5 158z" />
    <glyph glyph-name="tilde" unicode="&#x2dc;" horiz-adv-x="878" 
d="M768 1227q-49 0 -114.5 30t-125 59.5t-92.5 29.5q-73 0 -133 -97l-45 21q37 69 79.5 110t104.5 41q49 0 114.5 -29.5t125 -59t92.5 -29.5q74 0 133 96l45 -21q-37 -69 -79.5 -110t-104.5 -41z" />
    <glyph glyph-name="hungarumlaut" unicode="&#x2dd;" horiz-adv-x="688" 
d="M598 1448l-295 -315h-72l275 315h92zM776 1448l-293 -315h-71l274 315h90z" />
    <glyph glyph-name="gravecomb" unicode="&#x300;" horiz-adv-x="0" 
d="M-106 1448l133 -315h-68l-178 315h113z" />
    <glyph glyph-name="acutecomb" unicode="&#x301;" horiz-adv-x="0" 
d="M-287 1133l256 315h119l-301 -315h-74z" />
    <glyph glyph-name="uni0302" unicode="&#x302;" horiz-adv-x="0" 
d="M-612 1133l333 315h99l207 -315h-93l-165 260l-273 -260h-108z" />
    <glyph glyph-name="tildecomb" unicode="&#x303;" horiz-adv-x="0" 
d="M-111 1227q-49 0 -114.5 30t-124.5 59.5t-92 29.5q-73 0 -133 -97l-46 21q37 68 80 109.5t105 41.5q49 0 114.5 -29.5t125 -59t92.5 -29.5q74 0 133 96l45 -21q-37 -68 -80 -109.5t-105 -41.5z" />
    <glyph glyph-name="uni0304" unicode="&#x304;" horiz-adv-x="0" 
d="M63 1331l-14 -65h-555l14 65h555z" />
    <glyph glyph-name="uni0306" unicode="&#x306;" horiz-adv-x="0" 
d="M84 1434q-25 -137 -109.5 -212t-214.5 -75q-110 0 -174.5 56.5t-64.5 158.5q0 34 6 72h70q-5 -45 -5 -54q0 -79 44 -122.5t126 -43.5q200 0 250 220h72z" />
    <glyph glyph-name="uni0307" unicode="&#x307;" horiz-adv-x="0" 
d="M80 1413l-49 -246h-107l49 246h107z" />
    <glyph glyph-name="uni0308" unicode="&#x308;" horiz-adv-x="0" 
d="M-449 1188l46 225h106l-45 -225h-107zM-72 1188l45 225h107l-45 -225h-107z" />
    <glyph glyph-name="uni030A" unicode="&#x30a;" horiz-adv-x="0" 
d="M-168 1530q104 0 163.5 -62t59.5 -159q0 -110 -73.5 -184t-188.5 -74q-106 0 -165.5 62t-59.5 159q0 110 73.5 184t190.5 74zM-172 1473q-90 0 -144.5 -56t-54.5 -143q0 -77 44.5 -121.5t123.5 -44.5q88 0 142.5 56t54.5 143q0 77 -44 121.5t-122 44.5z" />
    <glyph glyph-name="uni030B" unicode="&#x30b;" horiz-adv-x="0" 
d="M-90 1448l-295 -315h-72l275 315h92zM88 1448l-293 -315h-71l274 315h90z" />
    <glyph glyph-name="uni030C" unicode="&#x30c;" horiz-adv-x="0" 
d="M-348 1112l-207 315h92l166 -260l272 260h109l-334 -315h-98z" />
    <glyph glyph-name="uni0326" unicode="&#x326;" horiz-adv-x="0" 
d="M-362 -96h149l-29 -150l-155 -164h-45l116 164h-65z" />
    <glyph glyph-name="uni0327" unicode="&#x327;" horiz-adv-x="0" 
d="M-516 -434l-16 41q118 52 165.5 85t47.5 75q0 28 -30 43t-100 30l101 174h53l-67 -112q27 -7 44.5 -13.5t38 -19t31 -33.5t10.5 -49q-1 -31 -16 -58t-35 -46t-60 -41t-68 -34.5t-82 -34.5q-4 -2 -6 -2.5t-5 -2t-6 -2.5z" />
    <glyph glyph-name="uni0328" unicode="&#x328;" horiz-adv-x="0" 
d="M-311 55l51 -28q-118 -82 -172.5 -143t-54.5 -122q0 -75 110 -75q53 0 107 14l4 -66q-63 -18 -119 -18q-75 0 -126.5 33t-51.5 100q0 73 62.5 147t189.5 158z" />
    <glyph glyph-name="uni0394" unicode="&#x394;" horiz-adv-x="1286" 
d="M596 1434l557 -1434h-1204l557 1434h90zM551 1358l-496 -1317h992z" />
    <glyph glyph-name="uni03A9" unicode="&#x3a9;" horiz-adv-x="1753" 
d="M891 1464q167 0 306 -53t233 -146.5t146 -224t52 -284.5q0 -269 -159 -446.5t-427 -229.5v-6h537v-74h-606v123q264 41 418.5 211.5t154.5 415.5q0 136 -45 252.5t-128 202.5t-207 135t-275 49t-275 -49t-207 -135t-128 -202.5t-45 -252.5q0 -245 154.5 -415.5
t418.5 -211.5v-123h-606v74h536v6q-267 52 -426 229.5t-159 446.5q0 154 52 284.5t146 224t233 146.5t306 53z" />
    <glyph glyph-name="uni03BC" unicode="&#x3bc;" horiz-adv-x="1069" 
d="M946 946h82l-184 -946h-78l45 221h-4q-27 -51 -61.5 -93t-82.5 -79.5t-112.5 -58.5t-138.5 -21q-210 0 -285 146l-102 -525h-74l266 1356h82l-109 -555q-12 -61 -12 -112q0 -116 61 -175t177 -59q165 0 282 121.5t170 386.5z" />
    <glyph glyph-name="pi" unicode="&#x3c0;" horiz-adv-x="1234" 
d="M1272 977l-15 -72h-235l-176 -905h-74l176 905h-403l-377 -905h-80l377 905h-25q-170 0 -303 -41l15 72q125 41 290 41h830z" />
    <glyph glyph-name="uni0401" unicode="&#x401;" horiz-adv-x="1048" 
d="M676 1716l-39 -194h-107l39 194h107zM1053 1716l-39 -194h-107l39 194h107zM1118 1356h-696l-100 -510h641l-15 -78h-641l-135 -690h707l-15 -78h-792l278 1434h783z" />
    <glyph glyph-name="uni0402" unicode="&#x402;" horiz-adv-x="1439" 
d="M1055 811q67 0 117 -5.5t95.5 -20t74 -39t45 -63.5t16.5 -93q0 -35 -10 -90l-27 -140q-35 -186 -133.5 -273t-300.5 -87h-162l14 78h164q159 0 231 66t101 216l27 140q8 54 8 69q0 51 -19.5 84.5t-59.5 50.5t-85.5 23t-112.5 6q-179 0 -440 -24l-137 -709h-86l264 1356
h-436l14 78h1065l-14 -78h-543l-111 -570q290 25 441 25z" />
    <glyph glyph-name="uni0403" unicode="&#x403;" horiz-adv-x="993" 
d="M1071 1767l-295 -245h-80l256 245h119zM1149 1434l-14 -78h-713l-264 -1356h-86l278 1434h799z" />
    <glyph glyph-name="uni0404" unicode="&#x404;" horiz-adv-x="1443" 
d="M981 1380q-145 0 -275 -48t-227.5 -131t-163.5 -198t-88 -247h734l-15 -78h-729q-2 -18 -2 -57q0 -266 152.5 -417t427.5 -151q133 0 242 38.5t223 111.5l47 -72q-125 -83 -251 -122.5t-276 -39.5q-308 0 -480.5 174t-172.5 473q0 182 64.5 339.5t178 269.5t274.5 175.5
t347 63.5q279 0 494 -164l-53 -69q-195 149 -451 149z" />
    <glyph glyph-name="uni0405" unicode="&#x405;" horiz-adv-x="1064" 
d="M524 -31q-303 0 -528 221l59 66q216 -203 473 -203q159 0 244.5 72t85.5 203q0 55 -15.5 102.5t-46.5 88t-62.5 71t-78.5 67.5l-149 119q-109 86 -166 171.5t-57 195.5q0 140 92.5 230.5t269.5 90.5q119 0 219.5 -38t208.5 -115l-57 -76q-81 67 -178.5 106t-194.5 39
q-131 0 -201.5 -66t-70.5 -171q0 -154 180 -293l172 -133q107 -82 165 -172t58 -215q0 -172 -111.5 -266.5t-310.5 -94.5z" />
    <glyph glyph-name="uni0406" unicode="&#x406;" horiz-adv-x="413" 
d="M72 0l278 1434h86l-278 -1434h-86z" />
    <glyph glyph-name="uni0407" unicode="&#x407;" horiz-adv-x="413" 
d="M166 1522l39 194h106l-39 -194h-106zM543 1522l39 194h106l-39 -194h-106zM72 0l278 1434h86l-278 -1434h-86z" />
    <glyph glyph-name="uni0408" unicode="&#x408;" horiz-adv-x="550" 
d="M-53 -10l16 82h47q106 0 168 48.5t84 162.5l225 1151h86l-225 -1151q-32 -159 -113.5 -226t-234.5 -67h-53z" />
    <glyph glyph-name="uni0409" unicode="&#x409;" horiz-adv-x="2226" 
d="M1772 795q196 0 297.5 -90t101.5 -256q0 -204 -145.5 -326.5t-395.5 -122.5h-465l265 1356h-830l-211 -1075q-31 -154 -113.5 -222.5t-234.5 -68.5h-94l16 82h88q106 0 169.5 56.5t90.5 193.5l217 1112h86h891h25l-125 -639h367zM1624 78q225 0 342 101t117 265
q0 273 -326 273h-366l-125 -639h358z" />
    <glyph glyph-name="uni040A" unicode="&#x40a;" horiz-adv-x="2117" 
d="M1663 795q196 0 297.5 -90t101.5 -256q0 -204 -145 -326.5t-395 -122.5h-465l139 717h-899l-139 -717h-86l278 1434h86l-125 -639h899l125 639h86l-125 -639h367zM1516 78q225 0 341.5 101t116.5 265q0 273 -325 273h-367l-125 -639h359z" />
    <glyph glyph-name="uni040B" unicode="&#x40b;" horiz-adv-x="1406" 
d="M1071 791q154 0 224.5 -51t70.5 -165q0 -47 -12 -112l-90 -463h-86l96 500q6 38 6 65q0 80 -51 114t-158 34h-500l-139 -713h-86l264 1356h-407l14 78h494h571l-14 -78h-572l-110 -565h485z" />
    <glyph glyph-name="uni040C" unicode="&#x40c;" horiz-adv-x="1191" 
d="M1077 1767l-295 -245h-80l256 245h119zM1223 1434l-807 -656l674 -778h-123l-658 776l-151 -776h-86l278 1434h86l-125 -641l774 641h138z" />
    <glyph glyph-name="uni040E" unicode="&#x40e;" horiz-adv-x="1218" 
d="M852 1501q-112 0 -179 52.5t-67 146.5q0 21 8 67h66q-4 -32 -4 -47q0 -72 43.5 -111.5t132.5 -39.5q102 0 163.5 52.5t82.5 145.5h69q-23 -127 -104.5 -196.5t-210.5 -69.5zM1288 1434h96l-974 -1434h-97l250 369l-356 1065h90l326 -979z" />
    <glyph glyph-name="uni040F" unicode="&#x40f;" horiz-adv-x="1400" 
d="M1423 1434l-278 -1434h-494l-55 -287h-86l55 287h-493l278 1434h86l-264 -1356h901l264 1356h86z" />
    <glyph glyph-name="uni0410" unicode="&#x410;" horiz-adv-x="1304" 
d="M1096 0l-88 418h-725l-242 -418h-102l837 1434h92l314 -1434h-86zM326 496h665l-178 843z" />
    <glyph glyph-name="uni0411" unicode="&#x411;" horiz-adv-x="1132" 
d="M1137 1356h-715l-111 -561h367q196 0 297.5 -90t101.5 -256q0 -204 -145 -326.5t-395 -122.5h-465l278 1434h86h715zM664 717h-367l-125 -639h358q225 0 342 101t117 265q0 273 -325 273z" />
    <glyph glyph-name="uni0412" unicode="&#x412;" horiz-adv-x="1255" 
d="M856 758q136 -22 208.5 -107.5t72.5 -220.5q0 -103 -43 -186t-115.5 -135.5t-165 -80.5t-195.5 -28h-546l278 1434h451q176 0 275.5 -80t99.5 -228q0 -133 -83 -233t-237 -131v-4zM422 1356l-111 -561h361q205 0 310 87t105 238q0 116 -71 176t-228 60h-366zM616 78
q192 0 313.5 96t121.5 254q0 136 -89.5 212.5t-252.5 76.5h-412l-125 -639h444z" />
    <glyph glyph-name="uni0413" unicode="&#x413;" horiz-adv-x="993" 
d="M1149 1434l-14 -78h-713l-264 -1356h-86l278 1434h799z" />
    <glyph glyph-name="uni0414" unicode="&#x414;" horiz-adv-x="1329" 
d="M1317 1434l-264 -1356h116l-69 -365h-82l55 287h-1042l-56 -287h-81l69 365h105q56 65 101.5 141.5t75.5 147t57.5 165t44 169t38.5 184.5l107 549h825zM467 885q-28 -143 -49 -231.5t-57 -201t-86.5 -203.5t-118.5 -171h815l250 1278h-662z" />
    <glyph glyph-name="uni0415" unicode="&#x415;" horiz-adv-x="1048" 
d="M1118 1356h-696l-100 -510h641l-15 -78h-641l-135 -690h707l-15 -78h-792l278 1434h783z" />
    <glyph glyph-name="uni0416" unicode="&#x416;" horiz-adv-x="1665" 
d="M1757 1434l-743 -684l549 -750h-111l-528 743l-144 -743h-80l144 741l-805 -741h-121l844 770l-481 664h106l463 -662l129 662h80l-129 -662l704 662h123z" />
    <glyph glyph-name="uni0417" unicode="&#x417;" horiz-adv-x="1198" 
d="M537 -31q-171 0 -293 41.5t-238 112.5l55 72q64 -40 117.5 -66.5t151.5 -51t205 -24.5q99 0 178 19t141.5 59t96.5 109t34 163q0 164 -102.5 245t-280.5 81h-264l14 72h262q198 0 324.5 87t126.5 240q0 126 -90 189t-242 63q-222 0 -454 -88l-33 78q87 29 147.5 46.5
t154.5 32.5t187 15q198 0 308 -86t110 -241q0 -163 -101 -256t-315 -113v-2q336 -33 336 -363q0 -200 -136.5 -317t-399.5 -117z" />
    <glyph glyph-name="uni0418" unicode="&#x418;" horiz-adv-x="1413" 
d="M72 0l278 1434h86l-254 -1293h4l1153 1293h97l-279 -1434h-86l254 1292h-4l-1153 -1292h-96z" />
    <glyph glyph-name="uni0419" unicode="&#x419;" horiz-adv-x="1413" 
d="M1217 1767q-23 -127 -104.5 -196.5t-211.5 -69.5q-112 0 -179 52.5t-67 146.5q0 15 9 67h65q-4 -32 -4 -47q0 -72 43.5 -111.5t132.5 -39.5q102 0 163.5 52.5t82.5 145.5h70zM72 0l278 1434h86l-254 -1293h4l1153 1293h97l-279 -1434h-86l254 1292h-4l-1153 -1292h-96z
" />
    <glyph glyph-name="uni041A" unicode="&#x41a;" horiz-adv-x="1191" 
d="M1223 1434l-807 -656l674 -778h-123l-658 776l-151 -776h-86l278 1434h86l-125 -641l774 641h138z" />
    <glyph glyph-name="uni041B" unicode="&#x41b;" horiz-adv-x="1501" 
d="M1524 1434l-279 -1434h-86l264 1356h-829l-201 -1034q-33 -173 -114.5 -252.5t-237.5 -79.5h-94l16 82h88q209 0 256 250l215 1112h1002z" />
    <glyph glyph-name="uni041C" unicode="&#x41c;" horiz-adv-x="1714" 
d="M-61 0l628 1434h86l185 -1057h4l594 1057h86l69 -1434h-88l-57 1264h-4l-582 -1022h-80l-188 1024h-4l-551 -1266h-98z" />
    <glyph glyph-name="uni041D" unicode="&#x41d;" horiz-adv-x="1363" 
d="M1300 1434h86l-278 -1434h-86l141 731h-864l-141 -731h-86l278 1434h86l-121 -625h865z" />
    <glyph glyph-name="uni041E" unicode="&#x41e;" horiz-adv-x="1714" 
d="M842 -31q-320 0 -514.5 185t-194.5 495q0 168 61 317.5t168.5 259.5t264.5 174t340 64q320 0 514 -185t194 -495q0 -168 -61 -317.5t-168.5 -259.5t-264 -174t-339.5 -64zM842 53q164 0 305 60t236.5 161t149.5 236t54 283q0 180 -82 314.5t-221.5 203.5t-316.5 69
q-164 0 -305 -59.5t-237 -161t-150 -236t-54 -282.5q0 -180 82 -315t222 -204t317 -69z" />
    <glyph glyph-name="uni041F" unicode="&#x41f;" horiz-adv-x="1400" 
d="M1423 1434l-278 -1434h-86l264 1356h-901l-264 -1356h-86l278 1434h1073z" />
    <glyph glyph-name="uni0420" unicode="&#x420;" horiz-adv-x="1124" 
d="M770 1434q186 0 291.5 -103t105.5 -270q0 -192 -135 -317.5t-370 -125.5h-383l-121 -618h-86l278 1434h420zM664 696q188 0 301.5 95t113.5 262q0 145 -84.5 224t-228.5 79h-344l-129 -660h371z" />
    <glyph glyph-name="uni0421" unicode="&#x421;" horiz-adv-x="1443" 
d="M780 -31q-308 0 -480.5 174t-172.5 473q0 182 64.5 339.5t178 269.5t274.5 175.5t347 63.5q279 0 494 -164l-53 -69q-195 149 -451 149q-217 0 -393 -102t-274.5 -275.5t-98.5 -381.5q0 -266 152.5 -417t427.5 -151q133 0 242 38.5t223 111.5l47 -72
q-125 -83 -251 -122.5t-276 -39.5z" />
    <glyph glyph-name="uni0422" unicode="&#x422;" horiz-adv-x="1064" 
d="M1221 1434l-15 -78h-458l-265 -1356h-86l265 1356h-459l14 78h1004z" />
    <glyph glyph-name="uni0423" unicode="&#x423;" horiz-adv-x="1218" 
d="M1288 1434h96l-974 -1434h-97l250 369l-356 1065h90l326 -979z" />
    <glyph glyph-name="uni0424" unicode="&#x424;" horiz-adv-x="1742" 
d="M1094 1356q280 -21 443 -177t163 -419q0 -174 -58.5 -306.5t-166 -215.5t-251.5 -124.5t-321 -41.5h-76l-26 -123h-86l26 125q-279 22 -441.5 179t-162.5 421q0 172 58.5 304t166 214.5t251.5 124t321 41.5h76l26 127h86zM225 676q0 -235 139.5 -371t397.5 -153l235 1128
h-77q-122 0 -226 -21.5t-191.5 -68.5t-148.5 -117t-95 -171t-34 -226zM918 150q154 0 278 35t218.5 107t146 190.5t51.5 275.5q0 234 -139.5 368.5t-399.5 151.5l-233 -1128h78z" />
    <glyph glyph-name="uni0425" unicode="&#x425;" horiz-adv-x="1208" 
d="M1309 1434l-592 -682l358 -752h-98l-326 680l-588 -680h-114l659 762l-319 672h98l287 -603l520 603h115z" />
    <glyph glyph-name="uni0426" unicode="&#x426;" horiz-adv-x="1366" 
d="M1055 -287l55 287h-1038l278 1434h86l-264 -1356h840l264 1356h86l-264 -1356h108l-69 -365h-82z" />
    <glyph glyph-name="uni0427" unicode="&#x427;" horiz-adv-x="1132" 
d="M1069 1434h86l-278 -1434h-86l124 643h-485q-154 0 -224.5 50.5t-70.5 164.5q0 48 12 113l91 463h86l-97 -500q-6 -38 -6 -66q0 -80 51 -113.5t158 -33.5h500z" />
    <glyph glyph-name="uni0428" unicode="&#x428;" horiz-adv-x="2129" 
d="M72 0l278 1434h86l-264 -1356h772l264 1356h86l-264 -1356h772l264 1356h86l-278 -1434h-1802z" />
    <glyph glyph-name="uni0429" unicode="&#x429;" horiz-adv-x="2156" 
d="M1888 78h109l-70 -365h-82l56 287h-1829l278 1434h86l-264 -1356h772l264 1356h86l-264 -1356h772l264 1356h86z" />
    <glyph glyph-name="uni042A" unicode="&#x42a;" horiz-adv-x="1429" 
d="M975 795q196 0 297.5 -90t101.5 -256q0 -204 -145 -326.5t-395 -122.5h-465l264 1356h-430l14 78h516l-125 -639h367zM827 78q225 0 342 101t117 265q0 273 -325 273h-367l-125 -639h358z" />
    <glyph glyph-name="uni042B" unicode="&#x42b;" horiz-adv-x="1476" 
d="M678 795q196 0 297.5 -90t101.5 -256q0 -204 -145 -326.5t-395 -122.5h-465l278 1434h86l-125 -639h367zM1413 1434h86l-278 -1434h-86zM530 78q225 0 342 101t117 265q0 273 -325 273h-367l-125 -639h358z" />
    <glyph glyph-name="uni042C" unicode="&#x42c;" horiz-adv-x="1132" 
d="M678 795q196 0 297.5 -90t101.5 -256q0 -204 -145 -326.5t-395 -122.5h-465l278 1434h86l-125 -639h367zM530 78q225 0 342 101t117 265q0 273 -325 273h-367l-125 -639h358z" />
    <glyph glyph-name="uni042D" unicode="&#x42d;" horiz-adv-x="1439" 
d="M760 1464q305 0 473 -174.5t168 -490.5q0 -252 -107.5 -440.5t-303 -289t-453.5 -100.5q-308 0 -525 162l62 74q97 -73 207.5 -112.5t259.5 -39.5q313 0 520 168.5t244 456.5h-748l14 78h742v41q0 273 -146 428t-411 155q-253 0 -482 -131l-36 76q239 139 522 139z" />
    <glyph glyph-name="uni042E" unicode="&#x42e;" horiz-adv-x="2105" 
d="M1358 1464q320 0 514 -185t194 -495q0 -168 -61 -317.5t-168.5 -259.5t-264 -174t-339.5 -64q-320 0 -514.5 185t-194.5 495q0 43 2 66h-229l-139 -715h-86l278 1434h86l-125 -641h226q24 143 93 266t174 213t248 141t306 51zM1233 53q164 0 305 60t236.5 161t149.5 236
t54 283q0 180 -82 314.5t-221.5 203.5t-316.5 69q-164 0 -305 -59.5t-237 -161t-150 -236t-54 -282.5q0 -180 82 -315t222 -204t317 -69z" />
    <glyph glyph-name="uni042F" unicode="&#x42f;" horiz-adv-x="1185" 
d="M727 1436h481l-278 -1436h-86l125 645h-291l-582 -643l-116 -2l587 647q-155 9 -247.5 99t-92.5 251q0 107 40.5 192t110 138t159 81t190.5 28zM608 723h377l123 635h-377q-184 0 -300 -97.5t-116 -261.5q0 -130 78 -203t215 -73z" />
    <glyph glyph-name="uni0430" unicode="&#x430;" horiz-adv-x="1200" 
d="M510 -31q-195 0 -311.5 121t-116.5 324q0 157 70 286.5t193 203t273 73.5q153 0 262.5 -72.5t149.5 -199.5h4l47 241h78l-184 -946h-78l37 184h-4q-156 -215 -420 -215zM532 45q203 0 338.5 140.5t135.5 351.5q0 167 -104 265.5t-281 98.5q-193 0 -325 -142t-132 -349
q0 -167 99.5 -266t268.5 -99z" />
    <glyph glyph-name="uni0431" unicode="&#x431;" horiz-adv-x="1222" 
d="M575 -31q-80 0 -148 16t-129 53t-103.5 94t-67.5 144t-25 197q0 76 10.5 155t40 172t74.5 172.5t120 151t171 111.5q52 22 124.5 40.5t126 28t123 20t85.5 13.5q62 12 101 37t52 74h76q-13 -72 -60.5 -111.5t-137.5 -60.5q-35 -8 -127.5 -23.5t-176 -35t-151.5 -46.5
q-156 -65 -239.5 -193t-112.5 -316h6q46 103 126.5 172t169.5 98t187 29q200 0 324.5 -119.5t124.5 -325.5q0 -109 -37.5 -207t-107 -174t-178 -121t-241.5 -45zM582 45q137 0 246 63.5t169 172t60 239.5q0 174 -103.5 269.5t-267.5 95.5q-130 0 -244.5 -57.5t-187 -166
t-72.5 -243.5q0 -172 113.5 -272.5t286.5 -100.5z" />
    <glyph glyph-name="uni0432" unicode="&#x432;" horiz-adv-x="1019" 
d="M739 498q158 -29 158 -207q0 -132 -95.5 -211.5t-256.5 -79.5h-504l184 946h473q112 0 180 -54.5t68 -156.5q0 -90 -56.5 -152t-150.5 -83v-2zM289 877l-66 -345h385q135 0 195.5 57t60.5 142q0 146 -192 146h-383zM547 70q137 0 202.5 63.5t65.5 157.5q0 85 -49 128.5
t-158 43.5h-399l-76 -393h414z" />
    <glyph glyph-name="uni0433" unicode="&#x433;" horiz-adv-x="739" 
d="M821 946l-14 -69h-518l-170 -877h-78l184 946h596z" />
    <glyph glyph-name="uni0434" unicode="&#x434;" horiz-adv-x="1097" 
d="M1022 946l-172 -880h117l-64 -332h-72l52 266h-863l-51 -266h-71l63 332h117q164 161 209 397l94 483h78h530h33zM365 463q-46 -241 -199 -397h606l158 811h-486z" />
    <glyph glyph-name="uni0435" unicode="&#x435;" horiz-adv-x="1122" 
d="M1040 473h-872q-6 -37 -6 -78q0 -170 92.5 -261t261.5 -91q131 0 221.5 49.5t177.5 140.5l58 -59q-38 -36 -59.5 -55t-69 -53t-90 -52t-107.5 -32.5t-135 -14.5q-205 0 -318.5 111t-113.5 315q0 163 70.5 296t201.5 210.5t297 77.5q199 0 304.5 -106t105.5 -265
q0 -48 -19 -133zM643 901q-174 0 -297 -101.5t-166 -260.5h791q6 30 6 61q0 136 -87.5 218.5t-246.5 82.5z" />
    <glyph glyph-name="uni0436" unicode="&#x436;" horiz-adv-x="1286" 
d="M1311 946l-539 -444l402 -502h-109l-379 496l-96 -496h-78l96 498l-555 -498h-125l600 516l-368 430h110l344 -426l82 426h78l-82 -422l496 422h123z" />
    <glyph glyph-name="uni0437" unicode="&#x437;" horiz-adv-x="937" 
d="M383 -31q-236 0 -422 97l41 69q80 -41 167.5 -65.5t211.5 -24.5q76 0 137 12.5t109.5 39.5t75 74t26.5 112q0 99 -63 139.5t-193 40.5h-197l13 74h198q289 0 289 194q0 91 -64 130.5t-196 39.5q-191 0 -356 -57l-25 76q188 57 381 57q342 0 342 -232q0 -106 -69 -169.5
t-207 -73.5v-4q229 -12 229 -219q0 -142 -105 -226t-323 -84z" />
    <glyph glyph-name="uni0438" unicode="&#x438;" horiz-adv-x="1085" 
d="M41 0l184 946h78l-166 -842h4l803 842h100l-184 -946h-78l164 842h-4l-801 -842h-100z" />
    <glyph glyph-name="uni0439" unicode="&#x439;" horiz-adv-x="1085" 
d="M948 1311q-25 -137 -109 -212t-214 -75q-110 0 -175 57t-65 158q0 35 6 72h70q-4 -36 -4 -54q0 -79 43.5 -122t126.5 -43q200 0 250 219h71zM41 0l184 946h78l-166 -842h4l803 842h100l-184 -946h-78l164 842h-4l-801 -842h-100z" />
    <glyph glyph-name="uni043A" unicode="&#x43a;" horiz-adv-x="868" 
d="M881 946l-578 -438l453 -508h-109l-436 498l-96 -498h-74l184 946h74l-82 -424l533 424h131z" />
    <glyph glyph-name="uni043B" unicode="&#x43b;" horiz-adv-x="1087" 
d="M1047 946l-185 -946h-78l170 877h-594l-135 -699q-17 -85 -77.5 -131.5t-149.5 -46.5h-80l14 74h80q115 0 144 149l141 723h750z" />
    <glyph glyph-name="uni043C" unicode="&#x43c;" horiz-adv-x="1314" 
d="M-51 0l450 946h76l143 -667h5l399 667h78l82 -946h-80l-68 807h-4l-385 -637h-78l-143 641h-4l-383 -811h-88z" />
    <glyph glyph-name="uni043D" unicode="&#x43d;" horiz-adv-x="1067" 
d="M948 946h78l-184 -946h-78l94 479h-645l-94 -479h-78l184 946h78l-78 -401h645z" />
    <glyph glyph-name="uni043E" unicode="&#x43e;" horiz-adv-x="1193" 
d="M543 -31q-209 0 -335 115t-126 328q0 114 42 217t115.5 180t180.5 122.5t231 45.5q209 0 335 -114.5t126 -327.5q0 -114 -42 -217t-115.5 -180.5t-180.5 -123t-231 -45.5zM551 45q139 0 250 71t170 183.5t59 241.5q0 167 -104 263.5t-283 96.5q-139 0 -250 -70.5
t-170 -183t-59 -241.5q0 -167 104 -264t283 -97z" />
    <glyph glyph-name="uni043F" unicode="&#x43f;" horiz-adv-x="1087" 
d="M1047 946l-185 -946h-78l170 877h-665l-170 -877h-78l184 946h78h744z" />
    <glyph glyph-name="uni0440" unicode="&#x440;" horiz-adv-x="1196" 
d="M-39 -410l264 1356h78l-39 -196h4q73 104 185.5 165.5t246.5 61.5q189 0 303.5 -112.5t114.5 -303.5q0 -130 -46 -241.5t-123.5 -187.5t-181 -119.5t-218.5 -43.5q-152 0 -251.5 72t-129.5 182h-4l-125 -633h-78zM553 45q206 0 344.5 147.5t138.5 364.5q0 155 -92 249.5
t-252 94.5q-140 0 -254 -67.5t-178.5 -184.5t-64.5 -260q0 -155 95.5 -249.5t262.5 -94.5z" />
    <glyph glyph-name="uni0441" unicode="&#x441;" horiz-adv-x="1021" 
d="M563 -31q-217 0 -347 128.5t-130 340.5q0 233 155 386t398 153q204 0 358 -125l-47 -64q-147 113 -313 113q-203 0 -336 -133.5t-133 -329.5q0 -178 112.5 -285.5t284.5 -107.5q142 0 287 92l41 -69q-156 -99 -330 -99z" />
    <glyph glyph-name="uni0442" unicode="&#x442;" horiz-adv-x="919" 
d="M999 946l-12 -69h-407l-172 -877h-78l172 877h-412l12 69h897z" />
    <glyph glyph-name="uni0443" unicode="&#x443;" horiz-adv-x="907" 
d="M881 946h88l-881 -1356h-86l344 529l-223 827h84l192 -747z" />
    <glyph glyph-name="uni0444" unicode="&#x444;" horiz-adv-x="1746" 
d="M666 -410l120 619h-4q-67 -125 -150 -182.5t-202 -57.5q-164 0 -251 105.5t-87 310.5q0 168 56 302t162.5 212t244.5 78q128 0 214.5 -68t111.5 -192h4l129 665h73l-124 -645h4q128 240 362 240q159 0 243.5 -104t84.5 -306q0 -171 -57.5 -307t-165 -213.5t-246.5 -77.5
q-135 0 -216 73t-104 194h-4l-125 -646h-73zM428 45q119 0 217 70t152.5 186t54.5 250q0 160 -78.5 255t-216.5 95q-117 0 -205.5 -71.5t-133 -189t-44.5 -261.5q0 -334 254 -334zM1190 45q117 0 205.5 73t134 193t45.5 267q0 323 -246 323q-121 0 -221 -70.5t-155.5 -186.5
t-55.5 -249q0 -158 78.5 -254t214.5 -96z" />
    <glyph glyph-name="uni0445" unicode="&#x445;" horiz-adv-x="933" 
d="M963 946l-443 -452l291 -494h-86l-258 438l-428 -438h-100l489 502l-262 444h86l229 -389l381 389h101z" />
    <glyph glyph-name="uni0446" unicode="&#x446;" horiz-adv-x="1067" 
d="M1016 946l-170 -876h92l-66 -336h-73l51 266h-96h-676h-37l184 946h78l-170 -876h635l170 876h78z" />
    <glyph glyph-name="uni0447" unicode="&#x447;" horiz-adv-x="854" 
d="M739 946h74l-184 -946h-74l80 412h-367q-102 0 -155.5 38t-53.5 128q0 28 11 92l53 276h74l-56 -276q-8 -39 -8 -72q0 -65 38 -91t112 -26h366z" />
    <glyph glyph-name="uni0448" unicode="&#x448;" horiz-adv-x="1626" 
d="M1507 946h78l-184 -946h-78h-641h-604h-37l184 946h78l-170 -876h563l170 876h78l-170 -876h563z" />
    <glyph glyph-name="uni0449" unicode="&#x449;" horiz-adv-x="1636" 
d="M1585 946l-170 -876h90l-63 -336h-74l51 266h-96h-641h-604h-37l184 946h78l-170 -876h563l170 876h78l-170 -876h563l170 876h78z" />
    <glyph glyph-name="uni044A" unicode="&#x44a;" horiz-adv-x="1193" 
d="M836 582q282 0 282 -248q0 -152 -100 -243t-264 -91h-457l170 877h-377l12 69h457h2l-12 -69h-4l-58 -295h349zM758 70q128 0 203 77t75 187q0 178 -213 178h-348l-86 -442h369z" />
    <glyph glyph-name="uni044B" unicode="&#x44b;" horiz-adv-x="1230" 
d="M580 582q282 0 282 -248q0 -152 -100 -243t-264 -91h-457l184 946h78l-72 -364h349zM1112 946h78l-184 -946h-78zM502 70q128 0 203 77t75 187q0 178 -213 178h-348l-86 -442h369z" />
    <glyph glyph-name="uni044C" unicode="&#x44c;" horiz-adv-x="937" 
d="M580 582q282 0 282 -248q0 -152 -100 -243t-264 -91h-457l184 946h78l-72 -364h349zM502 70q128 0 203 77t75 187q0 178 -213 178h-348l-86 -442h369z" />
    <glyph glyph-name="uni044D" unicode="&#x44d;" horiz-adv-x="987" 
d="M469 977q214 0 321 -115.5t107 -314.5q0 -164 -70 -295t-202.5 -207t-305.5 -76q-192 0 -342 101l48 61q134 -86 290 -86q194 0 325 113.5t165 281.5h-490l13 66h485q2 12 2 39q0 158 -91 257t-257 99q-143 0 -301 -67l-31 71q162 72 334 72z" />
    <glyph glyph-name="uni044E" unicode="&#x44e;" horiz-adv-x="1460" 
d="M918 977q209 0 334.5 -114.5t125.5 -327.5q0 -114 -42 -217t-115.5 -180.5t-180.5 -123t-231 -45.5q-209 0 -335 115t-126 328v28h-143l-86 -440h-78l184 946h78l-86 -440h139q32 202 186 336.5t376 134.5zM817 45q139 0 250 71t170 183.5t59 241.5q0 167 -104 263.5
t-283 96.5q-139 0 -250 -70.5t-170 -183t-59 -241.5q0 -167 104 -264t283 -97z" />
    <glyph glyph-name="uni044F" unicode="&#x44f;" horiz-adv-x="923" 
d="M444 946h439l-185 -946h-77l79 410h-264l-387 -410h-98l387 410q-114 0 -185 61.5t-71 175.5q0 142 102 220.5t260 78.5zM362 479h351l78 398h-351q-127 0 -201.5 -64t-74.5 -164q0 -82 51.5 -126t146.5 -44z" />
    <glyph glyph-name="uni0451" unicode="&#x451;" horiz-adv-x="1122" 
d="M639 1290l-43 -225h-107l43 225h107zM934 1290l-43 -225h-107l43 225h107zM1040 473h-872q-6 -37 -6 -78q0 -170 92.5 -261t261.5 -91q131 0 221.5 49.5t177.5 140.5l58 -59q-38 -36 -59.5 -55t-69 -53t-90 -52t-107.5 -32.5t-135 -14.5q-205 0 -318.5 111t-113.5 315
q0 163 70.5 296t201.5 210.5t297 77.5q199 0 304.5 -106t105.5 -265q0 -48 -19 -133zM643 901q-174 0 -297 -101.5t-166 -260.5h791q6 30 6 61q0 136 -87.5 218.5t-246.5 82.5z" />
    <glyph glyph-name="uni0452" unicode="&#x452;" horiz-adv-x="1122" 
d="M688 977q150 0 236 -81t86 -243q0 -50 -11 -106l-102 -547l-33 -172q-46 -238 -286 -238h-64l14 70h54q86 0 135.5 41t70.5 143l31 156l103 547q10 62 10 98q0 129 -66 192.5t-188 63.5q-78 0 -146.5 -26.5t-130 -82t-108.5 -152t-72 -226.5l-80 -414h-78l230 1186h-154
l13 61h153l37 187h78l-37 -187h344l-12 -61h-344l-92 -477h4q70 134 167 201t238 67z" />
    <glyph glyph-name="uni0453" unicode="&#x453;" horiz-adv-x="739" 
d="M895 1346l-301 -316h-74l256 316h119zM821 946l-14 -69h-518l-170 -877h-78l184 946h596z" />
    <glyph glyph-name="uni0454" unicode="&#x454;" horiz-adv-x="1032" 
d="M586 901q-176 0 -298.5 -111t-146.5 -284h500l-12 -66h-492v-2q0 -178 113 -285.5t285 -107.5q141 0 286 92l41 -69q-156 -99 -330 -99q-217 0 -347 128.5t-130 340.5q0 233 150 386t383 153q217 0 379 -125l-47 -64q-155 113 -334 113z" />
    <glyph glyph-name="uni0455" unicode="&#x455;" horiz-adv-x="806" 
d="M43 201q166 -156 354 -156q110 0 159.5 44.5t49.5 119.5q0 59 -33 104t-100 90l-113 76q-42 29 -67.5 49.5t-55.5 53.5t-44.5 73t-14.5 88q0 109 74 171.5t203 62.5q154 0 311 -105l-47 -69q-135 98 -266 98q-93 0 -143 -43.5t-50 -118.5q0 -33 10 -60t33.5 -51
t42.5 -38.5t57 -40.5l111 -76q43 -29 67.5 -49.5t52.5 -52.5t41 -71.5t13 -88.5q0 -125 -80 -183.5t-215 -58.5q-224 0 -407 168z" />
    <glyph glyph-name="uni0456" unicode="&#x456;" horiz-adv-x="344" 
d="M401 1413l-49 -246h-106l49 246h106zM41 0l184 946h78l-184 -946h-78z" />
    <glyph glyph-name="uni0457" unicode="&#x457;" horiz-adv-x="344" 
d="M279 1290l-43 -225h-107l43 225h107zM492 1290l-43 -225h-107l43 225h107zM41 0l184 946h78l-184 -946h-78z" />
    <glyph glyph-name="uni0458" unicode="&#x458;" horiz-adv-x="346" 
d="M403 1413l-49 -246h-106l49 246h106zM-250 -344h49q83 0 139 48t74 140l215 1102h78l-215 -1102q-28 -142 -105 -202t-200 -60h-49z" />
    <glyph glyph-name="uni0459" unicode="&#x459;" horiz-adv-x="1671" 
d="M1313 582q282 0 282 -248q0 -152 -100 -243t-264 -91h-457l170 877h-584l-135 -699q-17 -85 -77.5 -131.5t-149.5 -46.5h-80l14 74h80q115 0 144 149l141 723h78h624h37l-71 -364h348zM1235 70q128 0 203 77t75 187q0 178 -213 178h-348l-86 -442h369z" />
    <glyph glyph-name="uni045A" unicode="&#x45a;" horiz-adv-x="1650" 
d="M1292 582q283 0 283 -248q0 -151 -100.5 -242.5t-264.5 -91.5h-456l100 512h-635l-100 -512h-78l184 946h78l-72 -364h635l72 364h78l-72 -364h348zM1214 70q128 0 203.5 77t75.5 187q0 178 -213 178h-348l-86 -442h368z" />
    <glyph glyph-name="uni045B" unicode="&#x45b;" horiz-adv-x="1122" 
d="M688 977q150 0 236 -81t86 -243q0 -50 -11 -106l-102 -547h-78l103 547q10 62 10 98q0 129 -66 192.5t-188 63.5q-78 0 -146.5 -26.5t-130 -82t-108.5 -152t-72 -226.5l-80 -414h-78l230 1186h-154l13 61h153l37 187h78l-37 -187h344l-12 -61h-344l-92 -477h4
q70 134 167 201t238 67z" />
    <glyph glyph-name="uni045C" unicode="&#x45c;" horiz-adv-x="868" 
d="M877 1346l-302 -316h-73l256 316h119zM881 946l-578 -438l453 -508h-109l-436 498l-96 -498h-74l184 946h74l-82 -424l533 424h131z" />
    <glyph glyph-name="uni045E" unicode="&#x45e;" horiz-adv-x="907" 
d="M555 1024q-110 0 -175 57t-65 158q0 28 7 72h69q-4 -36 -4 -54q0 -79 43.5 -122t126.5 -43q200 0 250 219h72q-25 -137 -109.5 -212t-214.5 -75zM881 946h88l-881 -1356h-86l344 529l-223 827h84l192 -747z" />
    <glyph glyph-name="uni045F" unicode="&#x45f;" horiz-adv-x="1048" 
d="M930 946h78l-185 -946h-354l-51 -266h-74l51 266h-354l184 946h78l-170 -876h627z" />
    <glyph glyph-name="uni0462" unicode="&#x462;" horiz-adv-x="1247" 
d="M793 795q196 0 297.5 -90t101.5 -256q0 -204 -145.5 -326.5t-395.5 -122.5h-465l213 1096h-247l14 71h248l51 267h86l-51 -267h510l-15 -71h-510l-59 -301h367zM645 78q225 0 342 101t117 265q0 273 -326 273h-366l-125 -639h358z" />
    <glyph glyph-name="uni0463" unicode="&#x463;" horiz-adv-x="978" 
d="M621 582q282 0 282 -248q0 -152 -100 -243t-264 -91h-457l172 885h-172l10 61h174l94 488h78l-94 -488h406l-11 -61h-407l-60 -303h349zM543 70q128 0 203 77t75 187q0 178 -213 178h-348l-86 -442h369z" />
    <glyph glyph-name="uni0472" unicode="&#x472;" horiz-adv-x="1714" 
d="M967 1464q320 0 514 -185t194 -495q0 -168 -61 -317.5t-168.5 -259.5t-264 -174t-339.5 -64q-320 0 -514.5 185t-194.5 495q0 168 61 317.5t168.5 259.5t264.5 174t340 64zM967 1380q-149 0 -279 -49t-223.5 -133.5t-155 -198.5t-80.5 -245h1358v39q0 180 -82 314.5
t-221.5 203.5t-316.5 69zM842 53q149 0 279 49.5t224 134.5t155 199.5t79 245.5h-1356q-2 -14 -2 -41q0 -180 82 -315t222 -204t317 -69z" />
    <glyph glyph-name="uni0473" unicode="&#x473;" horiz-adv-x="1193" 
d="M651 977q209 0 335 -114.5t126 -327.5q0 -114 -42 -217t-115.5 -180.5t-180.5 -123t-231 -45.5q-209 0 -335 115t-126 328q0 114 42 217t115.5 180t180.5 122.5t231 45.5zM643 901q-181 0 -309 -114.5t-160 -282.5h854q2 12 2 37q0 167 -104 263.5t-283 96.5zM551 45
q181 0 309 114.5t160 282.5h-854q-2 -12 -2 -36q0 -167 104 -264t283 -97z" />
    <glyph glyph-name="uni0474" unicode="&#x474;" horiz-adv-x="1294" 
d="M1153 1153l-625 -1153h-86l-245 1434h96l209 -1315h4l549 1036q45 86 75.5 134t71.5 89t88.5 57.5t112.5 16.5q36 0 72 -4l-17 -84q-32 4 -63 4q-71 0 -124.5 -48.5t-117.5 -166.5z" />
    <glyph glyph-name="uni0475" unicode="&#x475;" horiz-adv-x="1026" 
d="M1073 965h19l-17 -84h-22q-110 0 -172 -103l-473 -778h-80l-2 6l-203 940h88l168 -850l426 713q52 87 112 121.5t156 34.5z" />
    <glyph glyph-name="uni048E" unicode="&#x48e;" horiz-adv-x="1124" 
d="M1167 1061q0 -137 -71 -243.5t-201 -158.5l133 -178l-45 -35l-145 195q-87 -23 -176 -23h-383l-121 -618h-86l278 1434h420q186 0 291.5 -103t105.5 -270zM846 725q109 37 171 122t62 206q0 145 -84.5 224t-228.5 79h-344l-129 -660h371q59 0 122 13l-168 223l46 35z" />
    <glyph glyph-name="uni048F" unicode="&#x48f;" 
d="M1118 561q0 -157 -64.5 -283.5t-176.5 -205.5l151 -205l-45 -31l-152 207q-132 -74 -282 -74q-152 0 -251.5 72t-129.5 182h-4l-125 -633h-78l264 1356h78l-39 -196h4q73 104 185.5 165.5t246.5 61.5q189 0 303.5 -112.5t114.5 -303.5zM553 45q127 0 233 59l-129 175
l45 30l129 -176q95 70 150 181.5t55 242.5q0 155 -92 249.5t-252 94.5q-140 0 -254 -67.5t-178.5 -184.5t-64.5 -260q0 -155 95.5 -249.5t262.5 -94.5z" />
    <glyph glyph-name="uni0490" unicode="&#x490;" horiz-adv-x="993" 
d="M72 0l278 1434h713l55 286h86l-69 -364h-713l-264 -1356h-86z" />
    <glyph glyph-name="uni0491" unicode="&#x491;" horiz-adv-x="739" 
d="M799 1233h78l-70 -356h-518l-170 -877h-78l184 946h518z" />
    <glyph glyph-name="uni0492" unicode="&#x492;" horiz-adv-x="1075" 
d="M1217 1356h-713l-113 -580h563l-12 -71h-565l-137 -705h-86l137 705h-213l12 71h215l127 658h799z" />
    <glyph glyph-name="uni0493" unicode="&#x493;" horiz-adv-x="811" 
d="M879 877h-519l-67 -349h381l-17 -69h-378l-89 -459h-77l90 459h-164l16 69h160l82 418h596z" />
    <glyph glyph-name="uni0494" unicode="&#x494;" horiz-adv-x="1171" 
d="M1135 1356h-713l-113 -572q331 27 498 27q79 0 134 -10t99.5 -35.5t66 -73.5t21.5 -121q0 -40 -10 -98l-92 -481q-39 -206 -144 -304t-300 -98h-119l16 78h103q163 0 245 81t113 243l92 481q8 54 8 76q0 49 -12 83.5t-31 54t-53.5 30t-67.5 13.5t-85 3q-213 0 -496 -28
l-137 -705h-86l278 1434h799z" />
    <glyph glyph-name="uni0495" unicode="&#x495;" horiz-adv-x="952" 
d="M846 877h-561l-76 -388q220 35 344 35q274 0 274 -217q0 -53 -12 -117l-53 -276q-62 -324 -356 -324h-113l14 74h105q227 0 276 254l53 270q11 60 11 99q0 91 -55 127.5t-156 36.5q-146 0 -346 -35l-80 -416h-74l184 946h635z" />
    <glyph glyph-name="uni0496" unicode="&#x496;" horiz-adv-x="1748" 
d="M1014 750l518 -709h82l-66 -338h-82l58 297h-72l-528 743l-144 -743h-80l144 741l-805 -741h-121l844 770l-481 664h106l463 -662l129 662h80l-129 -662l704 662h123z" />
    <glyph glyph-name="uni0497" unicode="&#x497;" horiz-adv-x="1341" 
d="M772 502l371 -463h63l-59 -305h-74l51 266h-59l-379 496l-96 -496h-78l96 498l-555 -498h-125l600 516l-368 430h110l344 -426l82 426h78l-82 -422l496 422h123z" />
    <glyph glyph-name="uni0498" unicode="&#x498;" horiz-adv-x="1198" 
d="M737 766q336 -33 336 -363q0 -195 -130.5 -311.5t-383.5 -122.5l-41 -67q27 -7 44.5 -13.5t38.5 -19t31.5 -33.5t10.5 -49q-1 -31 -16 -58t-35 -46t-60 -41t-68 -34.5t-82 -34.5q-4 -2 -6 -2.5t-5 -2t-6 -2.5l-17 41q118 52 165.5 85t47.5 75q0 28 -29.5 43t-99.5 30
l74 129q-159 4 -274 45t-226 109l55 72q64 -40 117.5 -66.5t151.5 -51t205 -24.5q99 0 178 19t141.5 59t96.5 109t34 163q0 164 -102.5 245t-280.5 81h-264l14 72h262q198 0 324.5 87t126.5 240q0 126 -90 189t-242 63q-222 0 -454 -88l-33 78q87 29 147.5 46.5t154.5 32.5
t187 15q198 0 308 -86t110 -241q0 -163 -101 -256t-315 -113v-2z" />
    <glyph glyph-name="uni0499" unicode="&#x499;" horiz-adv-x="937" 
d="M582 498q229 -12 229 -219q0 -140 -101.5 -223.5t-314.5 -86.5l-41 -67q27 -7 44.5 -13.5t38.5 -19t31.5 -33.5t10.5 -49q-1 -31 -16 -58t-35 -46t-60 -41t-68 -34.5t-82 -34.5q-4 -2 -6 -2.5t-5 -2t-6 -2.5l-17 41q118 52 165.5 85t47.5 75q0 28 -29.5 43t-99.5 30
l76 129q-207 7 -383 97l41 69q80 -41 167.5 -65.5t211.5 -24.5q76 0 137 12.5t109.5 39.5t75 74t26.5 112q0 99 -63 139.5t-193 40.5h-197l13 74h198q289 0 289 194q0 91 -64 130.5t-196 39.5q-191 0 -356 -57l-25 76q188 57 381 57q342 0 342 -232q0 -106 -69 -169.5
t-207 -73.5v-4z" />
    <glyph glyph-name="uni049A" unicode="&#x49a;" horiz-adv-x="1255" 
d="M416 778l639 -737h65l-65 -338h-82l57 297h-63l-658 776l-151 -776h-86l278 1434h86l-125 -641l774 641h138z" />
    <glyph glyph-name="uni049B" unicode="&#x49b;" horiz-adv-x="870" 
d="M303 508l418 -469h65l-59 -305h-74l52 266h-58l-436 498l-96 -498h-74l184 946h74l-82 -424l533 424h131z" />
    <glyph glyph-name="uni049C" unicode="&#x49c;" horiz-adv-x="1275" 
d="M1327 1434l-709 -656l556 -778h-113l-522 748h-80l-64 -328h-61l63 328h-94l-145 -748h-86l278 1434h86l-119 -609h95l63 322h62l-64 -322h82l645 609h127z" />
    <glyph glyph-name="uni049D" unicode="&#x49d;" horiz-adv-x="917" 
d="M942 946l-467 -438l330 -508h-90l-299 475h-66l-53 -274h-57l53 274h-82l-92 -475h-78l184 946h78l-78 -401h82l51 268h58l-51 -268h43l415 401h119z" />
    <glyph glyph-name="uni049E" unicode="&#x49e;" horiz-adv-x="1327" 
d="M1358 1434l-807 -656l674 -778h-123l-658 776l-151 -776h-86l225 1157h-268l14 72h268l39 205h86l-39 -205h267l-15 -72h-266l-72 -364l775 641h137z" />
    <glyph glyph-name="uni049F" unicode="&#x49f;" horiz-adv-x="899" 
d="M911 946l-577 -438l452 -508h-112l-436 498l-97 -498h-78l230 1186h-154l13 61h153l37 187h78l-37 -187h344l-12 -61h-344l-127 -664l532 424h135z" />
    <glyph glyph-name="uni04A0" unicode="&#x4a0;" horiz-adv-x="1488" 
d="M1520 1434l-807 -656l673 -778h-122l-658 776l-151 -776h-86l264 1356h-430l14 78h516l-125 -641l774 641h138z" />
    <glyph glyph-name="uni04A1" unicode="&#x4a1;" horiz-adv-x="1126" 
d="M1139 946l-578 -438l453 -508h-109l-436 498l-96 -498h-74l170 877h-379l12 69h422h33l-82 -424l533 424h131z" />
    <glyph glyph-name="uni04A2" unicode="&#x4a2;" horiz-adv-x="1314" 
d="M1386 1434l-270 -1393h64l-66 -338h-82l58 297h-68l141 731h-864l-141 -731h-86l278 1434h86l-121 -625h865l120 625h86z" />
    <glyph glyph-name="uni04A3" unicode="&#x4a3;" horiz-adv-x="1044" 
d="M1026 946l-176 -907h59l-59 -305h-74l51 266h-63l94 479h-645l-94 -479h-78l184 946h78l-78 -401h645l78 401h78z" />
    <glyph glyph-name="uni04A4" unicode="&#x4a4;" horiz-adv-x="1841" 
d="M1997 1434l-15 -78h-610l-264 -1356h-86l141 731h-864l-141 -731h-86l278 1434h86l-121 -625h865l120 625h697z" />
    <glyph glyph-name="uni04A5" unicode="&#x4a5;" horiz-adv-x="1421" 
d="M1501 946l-12 -69h-477l-170 -877h-78l94 479h-645l-94 -479h-78l184 946h78l-78 -401h645l78 401h78h475z" />
    <glyph glyph-name="uni04A6" unicode="&#x4a6;" horiz-adv-x="2154" 
d="M1769 811q67 0 117 -5.5t95.5 -20t74.5 -39t45.5 -64t16.5 -92.5q0 -30 -11 -90l-26 -140q-35 -186 -133.5 -273t-300.5 -87h-162l14 78h164q159 0 231 66t101 216l26 140q9 61 9 69q0 51 -19.5 84.5t-59.5 50.5t-85.5 23t-112.5 6q-181 0 -471 -26l-137 -707h-86
l264 1356h-901l-264 -1356h-86l278 1434h1073l-127 -650q317 27 473 27z" />
    <glyph glyph-name="uni04A7" unicode="&#x4a7;" horiz-adv-x="1675" 
d="M1323 553q274 0 274 -217q0 -52 -12 -117l-59 -305q-63 -324 -357 -324h-112l14 74h105q107 0 178 56.5t98 197.5l59 299q11 61 11 98q0 91 -55 127.5t-156 36.5q-161 0 -363 -39l8 43l-94 -483h-78l170 877h-665l-170 -877h-78l184 946h78h723h21l-84 -430
q222 37 360 37z" />
    <glyph glyph-name="uni04A8" unicode="&#x4a8;" horiz-adv-x="1583" 
d="M1210 45q103 0 211 59l25 -69q-129 -66 -254 -66q-123 0 -209 47q-112 -47 -248 -47q-94 0 -176.5 20.5t-158.5 68t-130 119.5t-86 181.5t-32 247.5q0 125 23.5 241.5t80.5 230.5t142 198t219 136t301 52q165 0 294 -53l-36 -74q-123 45 -265 45q-123 0 -226 -34
t-174.5 -93.5t-125 -135.5t-84.5 -165.5t-46 -177t-15 -176.5q0 -141 37 -248t104.5 -172t155.5 -97t196 -32q77 0 170 21q-85 74 -130.5 207t-45.5 282q0 84 15 164.5t50 157t85.5 133t127 91t169.5 34.5q158 0 238.5 -96t80.5 -271q0 -91 -21 -187.5t-65 -196.5
t-125 -187.5t-188 -139.5q56 -18 116 -18zM811 559q0 -150 51 -268.5t142 -181.5q183 83 291 258.5t108 386.5q0 159 -63 232t-171 73q-109 0 -191.5 -68t-124.5 -180.5t-42 -251.5z" />
    <glyph glyph-name="uni04A9" unicode="&#x4a9;" horiz-adv-x="1128" 
d="M997 84l23 -64q-111 -51 -217 -51q-95 0 -160 35q-56 -35 -160 -35q-191 0 -297 110t-106 308q0 265 157 427.5t414 162.5q133 0 240 -45l-37 -70q-78 41 -199 41q-224 0 -360.5 -141.5t-136.5 -372.5q0 -168 84.5 -259t242.5 -91q43 0 86 6q-118 92 -118 274
q0 163 87.5 267t225.5 104q118 0 182 -65t64 -185q0 -132 -69 -233.5t-198 -163.5q30 -6 70 -6q77 0 182 47zM528 319q0 -178 136 -249q123 46 197.5 146.5t74.5 225.5q0 87 -43.5 133t-126.5 46q-104 0 -171 -84.5t-67 -217.5z" />
    <glyph glyph-name="uni04AA" unicode="&#x4aa;" horiz-adv-x="1454" 
d="M981 1380q-217 0 -393 -102t-274.5 -275.5t-98.5 -381.5q0 -266 152.5 -417t427.5 -151q133 0 242 38.5t223 111.5l47 -72q-121 -80 -241.5 -119.5t-262.5 -42.5l-41 -67q27 -7 44.5 -13.5t38.5 -19t31.5 -33.5t10.5 -49q-1 -50 -43.5 -92t-82 -61.5t-135.5 -59.5
q-12 -5 -18 -8l-16 41q118 52 165.5 85t47.5 75q0 28 -29.5 43t-99.5 30l74 129q-294 9 -458.5 182.5t-164.5 464.5q0 182 64.5 339.5t178 269.5t274.5 175.5t347 63.5q279 0 494 -164l-53 -69q-195 149 -451 149z" />
    <glyph glyph-name="uni04AB" unicode="&#x4ab;" horiz-adv-x="1021" 
d="M637 901q-203 0 -336 -133.5t-133 -329.5q0 -178 112.5 -285.5t284.5 -107.5q142 0 287 92l41 -69q-153 -99 -326 -99l-41 -67q27 -7 44.5 -13.5t38.5 -19t31.5 -33.5t10.5 -49q-1 -31 -16 -58t-35 -46t-60 -41t-68 -34.5t-82 -34.5q-4 -2 -6 -2.5t-5 -2t-6 -2.5l-17 41
q118 52 165.5 85t47.5 75q0 28 -29.5 43t-99.5 30l76 131q-197 13 -313.5 140.5t-116.5 326.5q0 233 155 386t398 153q204 0 358 -125l-47 -64q-147 113 -313 113z" />
    <glyph glyph-name="uni04AC" unicode="&#x4ac;" horiz-adv-x="1064" 
d="M1206 1356h-458l-256 -1315h65l-65 -338h-82l57 297h-70l265 1356h-459l14 78h1004z" />
    <glyph glyph-name="uni04AD" unicode="&#x4ad;" horiz-adv-x="919" 
d="M987 877h-407l-164 -838h55l-59 -305h-74l51 266h-59l172 877h-412l12 69h897z" />
    <glyph glyph-name="uni04AE" unicode="&#x4ae;" horiz-adv-x="1048" 
d="M1225 1434l-643 -885l-107 -549h-86l107 547l-299 887h98l252 -797h4l565 797h109z" />
    <glyph glyph-name="uni04AF" unicode="&#x4af;" horiz-adv-x="921" 
d="M983 946l-575 -942l-80 -414h-78l80 416l-207 940h82l178 -852l504 852h96z" />
    <glyph glyph-name="uni04B0" unicode="&#x4b0;" horiz-adv-x="1069" 
d="M1235 1434l-629 -865h369l-14 -71h-379l-97 -498h-86l97 498h-359l15 71h346l-291 865h98l252 -797h4l565 797h109z" />
    <glyph glyph-name="uni04B1" unicode="&#x4b1;" horiz-adv-x="921" 
d="M983 946l-565 -926h252l-13 -63h-258l-71 -367h-78l72 367h-259l13 63h252l-205 926h82l178 -852l504 852h96z" />
    <glyph glyph-name="uni04B2" unicode="&#x4b2;" horiz-adv-x="1255" 
d="M717 752l338 -711h65l-65 -338h-82l57 297h-53l-326 680l-588 -680h-114l659 762l-319 672h98l287 -603l520 603h115z" />
    <glyph glyph-name="uni04B3" unicode="&#x4b3;" horiz-adv-x="987" 
d="M520 494l268 -455h64l-59 -305h-74l51 266h-45l-258 438l-428 -438h-100l489 502l-262 444h86l229 -389l381 389h101z" />
    <glyph glyph-name="uni04B4" unicode="&#x4b4;" horiz-adv-x="1722" 
d="M1718 1434l-264 -1356h109l-70 -365h-82l55 287h-1038l264 1356h-489l14 78h576h387l-15 -78h-387l-250 -1278h840l264 1356h86z" />
    <glyph glyph-name="uni04B5" unicode="&#x4b5;" horiz-adv-x="1306" 
d="M1255 946l-170 -876h93l-66 -336h-74l52 266h-97h-676h-36l170 877h-361l12 69h441h288l-12 -69h-291l-155 -807h635l170 876h77z" />
    <glyph glyph-name="uni04B6" unicode="&#x4b6;" horiz-adv-x="1083" 
d="M1155 1434l-270 -1393h63l-65 -338h-82l57 297h-67l124 643h-485q-154 0 -224.5 50.5t-70.5 164.5q0 48 12 113l91 463h86l-97 -500q-6 -38 -6 -66q0 -80 51 -113.5t158 -33.5h500l139 713h86z" />
    <glyph glyph-name="uni04B7" unicode="&#x4b7;" horiz-adv-x="831" 
d="M813 946l-176 -907h59l-59 -305h-74l51 266h-59l80 412h-367q-102 0 -155.5 38t-53.5 128q0 28 11 92l53 276h74l-56 -276q-8 -39 -8 -72q0 -65 38 -91t112 -26h366l90 465h74z" />
    <glyph glyph-name="uni04B8" unicode="&#x4b8;" horiz-adv-x="1132" 
d="M1069 1434h86l-278 -1434h-86l124 643h-317l-59 -305h-62l60 305h-107q-154 0 -224.5 50.5t-70.5 164.5q0 48 12 113l91 463h86l-97 -500q-6 -38 -6 -66q0 -80 51 -113.5t158 -33.5h121l67 344h62l-68 -344h318z" />
    <glyph glyph-name="uni04B9" unicode="&#x4b9;" horiz-adv-x="854" 
d="M739 946h74l-184 -946h-74l80 412h-227l-39 -207h-58l39 207h-82q-102 0 -155.5 38t-53.5 128q0 28 11 92l53 276h74l-56 -276q-8 -39 -8 -72q0 -65 38 -91t112 -26h82l45 234h57l-45 -234h227z" />
    <glyph glyph-name="uni04BA" unicode="&#x4ba;" horiz-adv-x="1132" 
d="M797 791q154 0 224.5 -51t70.5 -165q0 -42 -13 -112l-90 -463h-86l96 500q7 44 7 65q0 80 -51 114t-158 34h-500l-139 -713h-86l278 1434h86l-125 -643h486z" />
    <glyph glyph-name="uni04BB" unicode="&#x4bb;" horiz-adv-x="1120" 
d="M61 0l279 1434h78l-142 -725h5q70 134 167 201t238 67q150 0 236 -81t86 -243q0 -50 -11 -106l-102 -547h-78l103 547q10 62 10 98q0 129 -66 192.5t-188 63.5q-78 0 -146.5 -26.5t-130 -82t-108.5 -152t-72 -226.5l-80 -414h-78z" />
    <glyph glyph-name="uni04BC" unicode="&#x4bc;" horiz-adv-x="1896" 
d="M1235 1464q299 0 473 -156.5t174 -416.5q0 -71 -27 -209h-86h-1327q-2 -20 -2 -59q0 -174 76.5 -304.5t209.5 -198t302 -67.5q175 0 334 71t274 195l62 -67q-133 -136 -304.5 -209.5t-363.5 -73.5q-304 0 -491 177.5t-187 476.5q0 39 2 59h-47q-94 0 -145 44.5t-51 131.5
q0 78 47 174h84q-49 -106 -49 -162t31.5 -83t99.5 -27h38q33 201 152 360.5t307.5 251.5t413.5 92zM453 760h1331q10 61 10 119q0 227 -149.5 364t-411.5 137q-150 0 -284.5 -48t-234.5 -131.5t-168 -197t-93 -243.5z" />
    <glyph glyph-name="uni04BD" unicode="&#x4bd;" horiz-adv-x="1280" 
d="M1198 473h-872q-7 -44 -7 -78q0 -170 93 -261t262 -91q131 0 221.5 49.5t177.5 140.5l57 -59q-27 -26 -40.5 -38.5t-45.5 -38.5t-55 -40.5t-61.5 -34t-74.5 -30t-84 -18t-99 -7.5q-205 0 -318.5 111t-113.5 315q0 26 4 76h-49q-80 0 -117 32.5t-37 96.5q0 30 8 61h66
q0 -3 -3.5 -19t-3.5 -24q0 -40 20 -58.5t69 -18.5h59q44 195 193 316.5t360 121.5q199 0 304.5 -106t105.5 -265q0 -48 -19 -133zM801 901q-174 0 -297 -101.5t-166 -260.5h790q7 35 7 61q0 136 -87.5 218.5t-246.5 82.5z" />
    <glyph glyph-name="uni04BE" unicode="&#x4be;" horiz-adv-x="1896" 
d="M1235 1464q299 0 473 -156.5t174 -416.5q0 -71 -27 -209h-86h-1327q-2 -20 -2 -59q0 -174 76.5 -304.5t209.5 -198t302 -67.5q175 0 334 71t274 195l62 -67q-168 -171 -391 -242q-110 -78 -161.5 -136.5t-51.5 -117.5q0 -75 110 -75q53 0 107 14l4 -66q-63 -18 -119 -18
q-75 0 -126.5 33t-51.5 100q0 111 156 236q-86 -11 -144 -11q-304 0 -491 177.5t-187 476.5q0 39 2 59h-47q-94 0 -145 44.5t-51 131.5q0 78 47 174h84q-49 -106 -49 -162t31.5 -83t99.5 -27h38q33 201 152 360.5t307.5 251.5t413.5 92zM453 760h1331q10 61 10 119
q0 227 -149.5 364t-411.5 137q-150 0 -284.5 -48t-234.5 -131.5t-168 -197t-93 -243.5z" />
    <glyph glyph-name="uni04BF" unicode="&#x4bf;" horiz-adv-x="1280" 
d="M1198 473h-872q-7 -44 -7 -78q0 -170 93 -261t262 -91q131 0 221.5 49.5t177.5 140.5l57 -59q-124 -120 -233 -166q-105 -74 -154 -131t-49 -115q0 -75 111 -75q52 0 106 14l4 -66q-63 -18 -118 -18q-75 0 -127 33t-52 100q0 104 140 223q-43 -6 -88 -6
q-205 0 -318.5 111t-113.5 315q0 26 4 76h-49q-80 0 -117 32.5t-37 96.5q0 30 8 61h66q0 -3 -3.5 -19t-3.5 -24q0 -40 20 -58.5t69 -18.5h59q44 195 193 316.5t360 121.5q199 0 304.5 -106t105.5 -265q0 -48 -19 -133zM801 901q-174 0 -297 -101.5t-166 -260.5h790
q7 35 7 61q0 136 -87.5 218.5t-246.5 82.5z" />
    <glyph glyph-name="uni04C0" unicode="&#x4c0;" horiz-adv-x="413" 
d="M72 0l278 1434h86l-278 -1434h-86z" />
    <glyph glyph-name="uni04C1" unicode="&#x4c1;" horiz-adv-x="1665" 
d="M1032 1501q-112 0 -179 52.5t-67 146.5q0 15 9 67h65q-4 -32 -4 -47q0 -72 43.5 -111.5t132.5 -39.5q102 0 163.5 52.5t82.5 145.5h70q-23 -127 -104.5 -196.5t-211.5 -69.5zM1757 1434l-743 -684l549 -750h-111l-528 743l-144 -743h-80l144 741l-805 -741h-121l844 770
l-481 664h106l463 -662l129 662h80l-129 -662l704 662h123z" />
    <glyph glyph-name="uni04C2" unicode="&#x4c2;" horiz-adv-x="1286" 
d="M745 1024q-110 0 -174.5 56.5t-64.5 158.5q0 35 6 72h70q-4 -36 -4 -54q0 -79 43.5 -122t126.5 -43q105 0 165 56t84 163h72q-25 -137 -109.5 -212t-214.5 -75zM1311 946l-539 -444l402 -502h-109l-379 496l-96 -496h-78l96 498l-555 -498h-125l600 516l-368 430h110
l344 -426l82 426h78l-82 -422l496 422h123z" />
    <glyph glyph-name="uni04C3" unicode="&#x4c3;" horiz-adv-x="1153" 
d="M778 770q63 0 110.5 -6t90 -22t69.5 -42.5t42.5 -69t15.5 -100.5q0 -34 -10 -92l-90 -446q-37 -197 -143 -299.5t-302 -102.5h-119l17 78h102q163 0 245.5 81.5t113.5 242.5l92 446q8 54 8 70q0 58 -18 96t-55 56.5t-79.5 25t-105.5 6.5q-182 0 -475 -26l-129 -666h-86
l278 1434h86l-135 -691h6l801 691h135l-815 -680q246 16 350 16z" />
    <glyph glyph-name="uni04C4" unicode="&#x4c4;" horiz-adv-x="892" 
d="M508 500q293 0 293 -244q0 -49 -10 -98l-48 -244q-32 -166 -119.5 -245t-234.5 -79h-115l15 74h102q114 0 183 58t96 196l47 238q10 55 10 92q0 100 -60 139t-173 39q-116 0 -301 -25l-78 -401h-74l184 946h74l-90 -465l557 465h119l-590 -471q131 25 213 25z" />
    <glyph glyph-name="uni04C5" unicode="&#x4c5;" horiz-adv-x="1503" 
d="M1524 1434l-260 -1338h73l-217 -362h-80l156 266h-37l264 1356h-829l-201 -1034q-33 -173 -114.5 -252.5t-237.5 -79.5h-94l16 82h88q209 0 256 250l215 1112h86h916z" />
    <glyph glyph-name="uni04C6" unicode="&#x4c6;" horiz-adv-x="1107" 
d="M1047 946l-166 -850h71l-217 -362h-80l156 266h-27l170 877h-594l-135 -699q-17 -85 -77.5 -131.5t-149.5 -46.5h-80l14 74h80q115 0 144 149l141 723h78h672z" />
    <glyph glyph-name="uni04C7" unicode="&#x4c7;" horiz-adv-x="1400" 
d="M1337 1434h86l-311 -1598q-48 -246 -270 -246h-119l16 82h123q65 0 107 42.5t57 121.5l174 895h-901l-141 -731h-86l278 1434h86l-121 -625h902z" />
    <glyph glyph-name="uni04C8" unicode="&#x4c8;" horiz-adv-x="1067" 
d="M948 946h78l-184 -946l-33 -172q-46 -238 -287 -238h-63l14 70h53q86 0 136 41t71 143l31 156l94 479h-645l-94 -479h-78l184 946h78l-78 -401h645z" />
    <glyph glyph-name="uni04C9" unicode="&#x4c9;" horiz-adv-x="1366" 
d="M1386 1434l-260 -1338h74l-217 -362h-80l156 266h-37l141 731h-864l-141 -731h-86l278 1434h86l-121 -625h865l120 625h86z" />
    <glyph glyph-name="uni04CA" unicode="&#x4ca;" horiz-adv-x="1099" 
d="M1026 946l-166 -850h84l-217 -362h-80l156 266h-39l94 479h-645l-94 -479h-78l184 946h78l-78 -401h645l78 401h78z" />
    <glyph glyph-name="uni04CB" unicode="&#x4cb;" horiz-adv-x="1132" 
d="M1155 1434l-278 -1434h-64l-55 -287h-82l65 338h60l114 592h-485q-154 0 -224.5 50.5t-70.5 164.5q0 48 12 113l91 463h86l-97 -500q-6 -38 -6 -66q0 -80 51 -113.5t158 -33.5h500l139 713h86z" />
    <glyph glyph-name="uni04CC" unicode="&#x4cc;" horiz-adv-x="854" 
d="M813 946l-184 -946h-66l-51 -266h-74l60 305h65l72 373h-367q-102 0 -155.5 38t-53.5 128q0 28 11 92l53 276h74l-56 -276q-8 -39 -8 -72q0 -65 38 -91t112 -26h366l90 465h74z" />
    <glyph glyph-name="uni04CD" unicode="&#x4cd;" horiz-adv-x="1742" 
d="M1587 96h72l-217 -362h-80l156 266h-15l-57 1264h-4l-582 -1022h-80l-188 1024h-4l-551 -1266h-98l628 1434h86l185 -1057h4l594 1057h86z" />
    <glyph glyph-name="uni04CE" unicode="&#x4ce;" horiz-adv-x="1339" 
d="M1174 96h81l-217 -362h-80l156 266h-12l-68 807h-4l-385 -637h-78l-143 641h-4l-383 -811h-88l450 946h76l143 -667h5l399 667h78z" />
    <glyph glyph-name="uni04CF" unicode="&#x4cf;" horiz-adv-x="344" 
d="M41 0l184 946h78l-184 -946h-78z" />
    <glyph glyph-name="uni04D0" unicode="&#x4d0;" horiz-adv-x="1304" 
d="M834 1501q-112 0 -179 52.5t-67 146.5q0 21 8 67h66q-5 -40 -5 -47q0 -72 44 -111.5t133 -39.5q102 0 163 52.5t82 145.5h70q-23 -127 -104.5 -196.5t-210.5 -69.5zM1096 0l-88 418h-725l-242 -418h-102l837 1434h92l314 -1434h-86zM326 496h665l-178 843z" />
    <glyph glyph-name="uni04D1" unicode="&#x4d1;" horiz-adv-x="1200" 
d="M1004 1311q-25 -137 -109.5 -212t-214.5 -75q-110 0 -175 57t-65 158q0 35 6 72h70q-4 -36 -4 -54q0 -79 43.5 -122t126.5 -43q200 0 250 219h72zM510 -31q-195 0 -311.5 121t-116.5 324q0 157 70 286.5t193 203t273 73.5q153 0 262.5 -72.5t149.5 -199.5h4l47 241h78
l-184 -946h-78l37 184h-4q-156 -215 -420 -215zM532 45q203 0 338.5 140.5t135.5 351.5q0 167 -104 265.5t-281 98.5q-193 0 -325 -142t-132 -349q0 -167 99.5 -266t268.5 -99z" />
    <glyph glyph-name="uni04D2" unicode="&#x4d2;" horiz-adv-x="1304" 
d="M739 1716l-39 -194h-106l39 194h106zM1116 1716l-39 -194h-106l39 194h106zM1096 0l-88 418h-725l-242 -418h-102l837 1434h92l314 -1434h-86zM326 496h665l-178 843z" />
    <glyph glyph-name="uni04D3" unicode="&#x4d3;" horiz-adv-x="1200" 
d="M641 1290l-43 -225h-106l43 225h106zM936 1290l-43 -225h-107l43 225h107zM510 -31q-195 0 -311.5 121t-116.5 324q0 157 70 286.5t193 203t273 73.5q153 0 262.5 -72.5t149.5 -199.5h4l47 241h78l-184 -946h-78l37 184h-4q-156 -215 -420 -215zM532 45
q203 0 338.5 140.5t135.5 351.5q0 167 -104 265.5t-281 98.5q-193 0 -325 -142t-132 -349q0 -167 99.5 -266t268.5 -99z" />
    <glyph glyph-name="uni04D4" unicode="&#x4d4;" horiz-adv-x="1886" 
d="M1956 1356h-619l-100 -510h563l-14 -78h-563l-136 -690h629l-14 -78h-698h-17l82 418h-647l-371 -418h-112l1282 1434h131h618zM492 496h591l166 852z" />
    <glyph glyph-name="uni04D5" unicode="&#x4d5;" horiz-adv-x="1873" 
d="M391 -31q-166 0 -267 87t-101 233q0 162 125 268.5t317 106.5q135 0 228 -53t136 -152h2q35 144 35 217q0 120 -64 172.5t-196 52.5q-149 0 -342 -43l-16 76q199 43 356 43q171 0 254.5 -66.5t83.5 -203.5h4q64 128 184 199t267 71q108 0 189.5 -31t128 -85.5t69 -121
t22.5 -145.5q0 -56 -14 -125h-858q-8 -44 -8 -92q0 -153 90.5 -242.5t247.5 -89.5q68 0 127.5 15t108.5 44t85.5 59t77.5 73l57 -60q-27 -26 -40.5 -38.5t-45.5 -38.5t-55 -40.5t-61.5 -34t-74.5 -30t-84 -18t-99 -7.5q-167 0 -276.5 82.5t-131.5 220.5h-4
q-58 -147 -177.5 -225t-279.5 -78zM948 539h774q2 18 2 55q0 141 -81.5 224t-247.5 83q-157 0 -277.5 -92.5t-169.5 -269.5zM399 45q164 0 271.5 92t107.5 213q0 108 -88 173t-219 65q-154 0 -260.5 -87t-106.5 -214q0 -106 80 -174t215 -68z" />
    <glyph glyph-name="uni04D6" unicode="&#x4d6;" horiz-adv-x="1048" 
d="M770 1501q-112 0 -179 52.5t-67 146.5q0 21 8 67h66q-4 -32 -4 -47q0 -72 43.5 -111.5t132.5 -39.5q102 0 163.5 52.5t82.5 145.5h69q-23 -127 -104.5 -196.5t-210.5 -69.5zM1118 1356h-696l-100 -510h641l-15 -78h-641l-135 -690h707l-15 -78h-792l278 1434h783z" />
    <glyph glyph-name="uni04D7" unicode="&#x4d7;" horiz-adv-x="1122" 
d="M678 1024q-110 0 -175 57t-65 158q0 35 6 72h70q-4 -36 -4 -54q0 -79 43.5 -122t126.5 -43q200 0 250 219h71q-25 -137 -109 -212t-214 -75zM1040 473h-872q-6 -37 -6 -78q0 -170 92.5 -261t261.5 -91q131 0 221.5 49.5t177.5 140.5l58 -59q-38 -36 -59.5 -55t-69 -53
t-90 -52t-107.5 -32.5t-135 -14.5q-205 0 -318.5 111t-113.5 315q0 163 70.5 296t201.5 210.5t297 77.5q199 0 304.5 -106t105.5 -265q0 -48 -19 -133zM643 901q-174 0 -297 -101.5t-166 -260.5h791q6 30 6 61q0 136 -87.5 218.5t-246.5 82.5z" />
    <glyph glyph-name="uni04D8" unicode="&#x4d8;" horiz-adv-x="1671" 
d="M983 1464q309 0 483 -173t174 -466q0 -177 -65.5 -334.5t-180 -272.5t-278 -182t-350.5 -67q-297 0 -476 158t-179 422q0 82 26 203h86h1325q4 50 4 75q0 254 -150 403.5t-413 149.5q-183 0 -346 -71.5t-287 -194.5l-63 64q134 135 311.5 210.5t378.5 75.5zM762 53
q149 0 282 48t232.5 131.5t167.5 197t94 244.5h-1329q-10 -61 -10 -121q0 -228 153 -364t410 -136z" />
    <glyph glyph-name="uni04D9" unicode="&#x4d9;" horiz-adv-x="1122" 
d="M610 979q205 0 318.5 -111t113.5 -315q0 -163 -70.5 -296t-201.5 -210.5t-297 -77.5q-199 0 -304.5 106t-105.5 265q0 48 19 133h872q7 44 7 78q0 170 -93 261t-262 91q-131 0 -221.5 -49.5t-177.5 -140.5l-57 59q27 26 40.5 38.5t45.5 38.5t55 40.5t61.5 34t74.5 30
t84 18t99 7.5zM479 45q174 0 297 102t166 261h-790q-7 -35 -7 -62q0 -136 87.5 -218.5t246.5 -82.5z" />
    <glyph glyph-name="uni04DA" unicode="&#x4da;" horiz-adv-x="1671" 
d="M913 1716l-39 -194h-106l39 194h106zM1290 1716l-39 -194h-106l39 194h106zM983 1464q309 0 483 -173t174 -466q0 -177 -65.5 -334.5t-180 -272.5t-278 -182t-350.5 -67q-297 0 -476 158t-179 422q0 82 26 203h86h1325q4 50 4 75q0 254 -150 403.5t-413 149.5
q-183 0 -346 -71.5t-287 -194.5l-63 64q134 135 311.5 210.5t378.5 75.5zM762 53q149 0 282 48t232.5 131.5t167.5 197t94 244.5h-1329q-10 -61 -10 -121q0 -228 153 -364t410 -136z" />
    <glyph glyph-name="uni04DB" unicode="&#x4db;" horiz-adv-x="1122" 
d="M614 1290l-43 -225h-106l43 225h106zM909 1290l-43 -225h-106l43 225h106zM610 979q205 0 318.5 -111t113.5 -315q0 -163 -70.5 -296t-201.5 -210.5t-297 -77.5q-199 0 -304.5 106t-105.5 265q0 48 19 133h872q7 44 7 78q0 170 -93 261t-262 91q-131 0 -221.5 -49.5
t-177.5 -140.5l-57 59q27 26 40.5 38.5t45.5 38.5t55 40.5t61.5 34t74.5 30t84 18t99 7.5zM479 45q174 0 297 102t166 261h-790q-7 -35 -7 -62q0 -136 87.5 -218.5t246.5 -82.5z" />
    <glyph glyph-name="uni04DC" unicode="&#x4dc;" horiz-adv-x="1665" 
d="M938 1716l-39 -194h-106l38 194h107zM1315 1716l-39 -194h-107l39 194h107zM1757 1434l-743 -684l549 -750h-111l-528 743l-144 -743h-80l144 741l-805 -741h-121l844 770l-481 664h106l463 -662l129 662h80l-129 -662l704 662h123z" />
    <glyph glyph-name="uni04DD" unicode="&#x4dd;" horiz-adv-x="1286" 
d="M707 1290l-43 -225h-107l43 225h107zM1001 1290l-43 -225h-106l43 225h106zM1311 946l-539 -444l402 -502h-109l-379 496l-96 -496h-78l96 498l-555 -498h-125l600 516l-368 430h110l344 -426l82 426h78l-82 -422l496 422h123z" />
    <glyph glyph-name="uni04DE" unicode="&#x4de;" horiz-adv-x="1198" 
d="M539 1522l39 194h106l-39 -194h-106zM915 1522l39 194h107l-39 -194h-107zM537 -31q-171 0 -293 41.5t-238 112.5l55 72q64 -40 117.5 -66.5t151.5 -51t205 -24.5q99 0 178 19t141.5 59t96.5 109t34 163q0 164 -102.5 245t-280.5 81h-264l14 72h262q198 0 324.5 87
t126.5 240q0 126 -90 189t-242 63q-222 0 -454 -88l-33 78q87 29 147.5 46.5t154.5 32.5t187 15q198 0 308 -86t110 -241q0 -163 -101 -256t-315 -113v-2q336 -33 336 -363q0 -200 -136.5 -317t-399.5 -117z" />
    <glyph glyph-name="uni04DF" unicode="&#x4df;" horiz-adv-x="937" 
d="M496 1290l-43 -225h-107l43 225h107zM791 1290l-43 -225h-107l43 225h107zM383 -31q-236 0 -422 97l41 69q80 -41 167.5 -65.5t211.5 -24.5q76 0 137 12.5t109.5 39.5t75 74t26.5 112q0 99 -63 139.5t-193 40.5h-197l13 74h198q289 0 289 194q0 91 -64 130.5t-196 39.5
q-191 0 -356 -57l-25 76q188 57 381 57q342 0 342 -232q0 -106 -69 -169.5t-207 -73.5v-4q229 -12 229 -219q0 -142 -105 -226t-323 -84z" />
    <glyph glyph-name="uni04E0" unicode="&#x4e0;" horiz-adv-x="1150" 
d="M446 -31q-271 0 -477 131l58 78q90 -57 187.5 -91t234.5 -34q228 0 363.5 103.5t135.5 304.5q0 166 -101.5 232.5t-322.5 66.5h-153l14 80l653 516h-723l17 78h854l-15 -74l-679 -529q68 5 96 5q448 0 448 -375q0 -104 -35.5 -192t-106 -155.5t-185 -106t-263.5 -38.5z
" />
    <glyph glyph-name="uni04E1" unicode="&#x4e1;" horiz-adv-x="886" 
d="M231 -440q-256 0 -448 114l43 72q196 -111 405 -111t332 101t123 297q0 151 -84.5 217.5t-247.5 66.5h-252l15 76l631 479h-650l15 74h764l-15 -74l-649 -487q82 4 123 4q434 0 434 -356q0 -100 -31.5 -184t-95 -149.5t-169 -102.5t-243.5 -37z" />
    <glyph glyph-name="uni04E2" unicode="&#x4e2;" horiz-adv-x="1413" 
d="M1188 1659l-14 -66h-556l15 66h555zM72 0l278 1434h86l-254 -1293h4l1153 1293h97l-279 -1434h-86l254 1292h-4l-1153 -1292h-96z" />
    <glyph glyph-name="uni04E3" unicode="&#x4e3;" horiz-adv-x="1085" 
d="M936 1174l-14 -70h-555l14 70h555zM41 0l184 946h78l-166 -842h4l803 842h100l-184 -946h-78l164 842h-4l-801 -842h-100z" />
    <glyph glyph-name="uni04E4" unicode="&#x4e4;" horiz-adv-x="1413" 
d="M662 1522l38 194h107l-39 -194h-106zM1038 1522l39 194h107l-39 -194h-107zM72 0l278 1434h86l-254 -1293h4l1153 1293h97l-279 -1434h-86l254 1292h-4l-1153 -1292h-96z" />
    <glyph glyph-name="uni04E5" unicode="&#x4e5;" horiz-adv-x="1085" 
d="M586 1290l-43 -225h-107l43 225h107zM881 1290l-43 -225h-107l43 225h107zM41 0l184 946h78l-166 -842h4l803 842h100l-184 -946h-78l164 842h-4l-801 -842h-100z" />
    <glyph glyph-name="uni04E6" unicode="&#x4e6;" horiz-adv-x="1714" 
d="M762 1522l39 194h106l-39 -194h-106zM1139 1522l39 194h106l-39 -194h-106zM842 -31q-320 0 -514.5 185t-194.5 495q0 168 61 317.5t168.5 259.5t264.5 174t340 64q320 0 514 -185t194 -495q0 -168 -61 -317.5t-168.5 -259.5t-264 -174t-339.5 -64zM842 53q164 0 305 60
t236.5 161t149.5 236t54 283q0 180 -82 314.5t-221.5 203.5t-316.5 69q-164 0 -305 -59.5t-237 -161t-150 -236t-54 -282.5q0 -180 82 -315t222 -204t317 -69z" />
    <glyph glyph-name="uni04E7" unicode="&#x4e7;" horiz-adv-x="1193" 
d="M641 1290l-43 -225h-106l43 225h106zM936 1290l-43 -225h-107l43 225h107zM543 -31q-209 0 -335 115t-126 328q0 114 42 217t115.5 180t180.5 122.5t231 45.5q209 0 335 -114.5t126 -327.5q0 -114 -42 -217t-115.5 -180.5t-180.5 -123t-231 -45.5zM551 45q139 0 250 71
t170 183.5t59 241.5q0 167 -104 263.5t-283 96.5q-139 0 -250 -70.5t-170 -183t-59 -241.5q0 -167 104 -264t283 -97z" />
    <glyph glyph-name="uni04E8" unicode="&#x4e8;" horiz-adv-x="1714" 
d="M967 1464q320 0 514 -185t194 -495q0 -168 -61 -317.5t-168.5 -259.5t-264 -174t-339.5 -64q-320 0 -514.5 185t-194.5 495q0 168 61 317.5t168.5 259.5t264.5 174t340 64zM967 1380q-149 0 -279 -49t-223.5 -133.5t-155 -198.5t-80.5 -245h1358v39q0 180 -82 314.5
t-221.5 203.5t-316.5 69zM842 53q149 0 279 49.5t224 134.5t155 199.5t79 245.5h-1356q-2 -14 -2 -41q0 -180 82 -315t222 -204t317 -69z" />
    <glyph glyph-name="uni04E9" unicode="&#x4e9;" horiz-adv-x="1193" 
d="M651 977q209 0 335 -114.5t126 -327.5q0 -114 -42 -217t-115.5 -180.5t-180.5 -123t-231 -45.5q-209 0 -335 115t-126 328q0 114 42 217t115.5 180t180.5 122.5t231 45.5zM643 901q-181 0 -309 -114.5t-160 -282.5h854q2 12 2 37q0 167 -104 263.5t-283 96.5zM551 45
q181 0 309 114.5t160 282.5h-854q-2 -12 -2 -36q0 -167 104 -264t283 -97z" />
    <glyph glyph-name="uni04EA" unicode="&#x4ea;" horiz-adv-x="1714" 
d="M907 1716l-39 -194h-106l39 194h106zM1284 1716l-39 -194h-106l39 194h106zM967 1464q320 0 514 -185t194 -495q0 -168 -61 -317.5t-168.5 -259.5t-264 -174t-339.5 -64q-320 0 -514.5 185t-194.5 495q0 168 61 317.5t168.5 259.5t264.5 174t340 64zM967 1380
q-149 0 -279 -49t-223.5 -133.5t-155 -198.5t-80.5 -245h1358v39q0 180 -82 314.5t-221.5 203.5t-316.5 69zM842 53q149 0 279 49.5t224 134.5t155 199.5t79 245.5h-1356q-2 -14 -2 -41q0 -180 82 -315t222 -204t317 -69z" />
    <glyph glyph-name="uni04EB" unicode="&#x4eb;" horiz-adv-x="1193" 
d="M631 1290l-43 -225h-107l43 225h107zM926 1290l-43 -225h-107l43 225h107zM651 977q209 0 335 -114.5t126 -327.5q0 -114 -42 -217t-115.5 -180.5t-180.5 -123t-231 -45.5q-209 0 -335 115t-126 328q0 114 42 217t115.5 180t180.5 122.5t231 45.5zM643 901
q-181 0 -309 -114.5t-160 -282.5h854q2 12 2 37q0 167 -104 263.5t-283 96.5zM551 45q181 0 309 114.5t160 282.5h-854q-2 -12 -2 -36q0 -167 104 -264t283 -97z" />
    <glyph glyph-name="uni04EC" unicode="&#x4ec;" horiz-adv-x="1439" 
d="M729 1716l-39 -194h-106l39 194h106zM1106 1716l-39 -194h-106l38 194h107zM760 1464q305 0 473 -174.5t168 -490.5q0 -252 -107.5 -440.5t-303 -289t-453.5 -100.5q-308 0 -525 162l62 74q97 -73 207.5 -112.5t259.5 -39.5q313 0 520 168.5t244 456.5h-748l14 78h742v41
q0 273 -146 428t-411 155q-253 0 -482 -131l-36 76q239 139 522 139z" />
    <glyph glyph-name="uni04ED" unicode="&#x4ed;" horiz-adv-x="987" 
d="M483 1290l-43 -225h-106l43 225h106zM778 1290l-43 -225h-106l43 225h106zM469 977q214 0 321 -115.5t107 -314.5q0 -164 -70 -295t-202.5 -207t-305.5 -76q-192 0 -342 101l48 61q134 -86 290 -86q194 0 325 113.5t165 281.5h-490l13 66h485q2 12 2 39q0 158 -91 257
t-257 99q-143 0 -301 -67l-31 71q162 72 334 72z" />
    <glyph glyph-name="uni04EE" unicode="&#x4ee;" horiz-adv-x="1218" 
d="M1139 1659l-15 -66h-555l15 66h555zM1288 1434h96l-974 -1434h-97l250 369l-356 1065h90l326 -979z" />
    <glyph glyph-name="uni04EF" unicode="&#x4ef;" horiz-adv-x="907" 
d="M866 1174l-14 -70h-555l14 70h555zM881 946h88l-881 -1356h-86l344 529l-223 827h84l192 -747z" />
    <glyph glyph-name="uni04F0" unicode="&#x4f0;" horiz-adv-x="1218" 
d="M758 1716l-39 -194h-107l39 194h107zM1135 1716l-39 -194h-107l39 194h107zM1288 1434h96l-974 -1434h-97l250 369l-356 1065h90l326 -979z" />
    <glyph glyph-name="uni04F1" unicode="&#x4f1;" horiz-adv-x="907" 
d="M516 1290l-43 -225h-106l43 225h106zM811 1290l-43 -225h-106l43 225h106zM881 946h88l-881 -1356h-86l344 529l-223 827h84l192 -747z" />
    <glyph glyph-name="uni04F2" unicode="&#x4f2;" horiz-adv-x="1218" 
d="M1075 1767l-295 -245h-71l274 245h92zM961 1522h-72l274 245h90zM1288 1434h96l-974 -1434h-97l250 369l-356 1065h90l326 -979z" />
    <glyph glyph-name="uni04F3" unicode="&#x4f3;" horiz-adv-x="907" 
d="M788 1346l-294 -316h-72l274 316h92zM674 1030h-72l275 316h90zM881 946h88l-881 -1356h-86l344 529l-223 827h84l192 -747z" />
    <glyph glyph-name="uni04F4" unicode="&#x4f4;" horiz-adv-x="1132" 
d="M614 1716l-39 -194h-106l39 194h106zM991 1716l-39 -194h-106l39 194h106zM1069 1434h86l-278 -1434h-86l124 643h-485q-154 0 -224.5 50.5t-70.5 164.5q0 48 12 113l91 463h86l-97 -500q-6 -38 -6 -66q0 -80 51 -113.5t158 -33.5h500z" />
    <glyph glyph-name="uni04F5" unicode="&#x4f5;" horiz-adv-x="854" 
d="M440 1290l-43 -225h-106l43 225h106zM735 1290l-43 -225h-106l43 225h106zM739 946h74l-184 -946h-74l80 412h-367q-102 0 -155.5 38t-53.5 128q0 28 11 92l53 276h74l-56 -276q-8 -39 -8 -72q0 -65 38 -91t112 -26h366z" />
    <glyph glyph-name="uni04F8" unicode="&#x4f8;" horiz-adv-x="1476" 
d="M827 1716l-39 -194h-106l39 194h106zM1204 1716l-39 -194h-106l39 194h106zM678 795q196 0 297.5 -90t101.5 -256q0 -204 -145 -326.5t-395 -122.5h-465l278 1434h86l-125 -639h367zM1413 1434h86l-278 -1434h-86zM530 78q225 0 342 101t117 265q0 273 -325 273h-367
l-125 -639h358z" />
    <glyph glyph-name="uni04F9" unicode="&#x4f9;" horiz-adv-x="1230" 
d="M657 1290l-43 -225h-106l43 225h106zM846 1290h106l-43 -225h-106zM580 582q282 0 282 -248q0 -152 -100 -243t-264 -91h-457l184 946h78l-72 -364h349zM1112 946h78l-184 -946h-78zM502 70q128 0 203 77t75 187q0 178 -213 178h-348l-86 -442h369z" />
    <glyph glyph-name="uni04FC" unicode="&#x4fc;" horiz-adv-x="1243" 
d="M700 748l285 -584q88 -185 88 -316q0 -125 -71.5 -191.5t-194.5 -66.5h-111l15 76h94q83 0 133.5 47.5t50.5 139.5q0 115 -96 311l-250 516l-588 -680h-106l655 760l-321 674h90l291 -609l526 609h106z" />
    <glyph glyph-name="uni04FD" unicode="&#x4fd;" horiz-adv-x="923" 
d="M449 -410l14 70h96q82 0 128 55t46 148q0 63 -23.5 130.5t-78.5 162.5l-166 282l-428 -438h-98l487 502l-262 444h86l229 -389l381 389h101l-443 -452l191 -324q50 -84 75 -154t25 -147q0 -124 -66 -201.5t-182 -77.5h-112z" />
    <glyph glyph-name="uni0510" unicode="&#x510;" horiz-adv-x="1202" 
d="M780 1464q146 0 274 -41t224 -106l-51 -72q-196 135 -447 135q-191 0 -294 -83.5t-103 -215.5q0 -134 108 -207t304 -73h118l-14 -72h-121q-296 0 -449 -86.5t-153 -280.5q0 -84 29 -144.5t82.5 -96t121.5 -52t154 -16.5q239 0 467 123l27 -82q-231 -125 -492 -125
q-237 0 -357 103t-120 282q0 84 27 153t71.5 115t106 79t126.5 49t136 20v2q-123 30 -191.5 110t-68.5 203q0 164 123.5 271.5t361.5 107.5z" />
    <glyph glyph-name="uni0511" unicode="&#x511;" horiz-adv-x="931" 
d="M395 -31q-173 0 -263.5 69.5t-90.5 190.5q0 117 83.5 194.5t242.5 78.5l2 4q-189 24 -189 196q0 132 98 203.5t277 71.5q173 0 379 -80l-43 -72q-170 78 -338 78q-134 0 -213.5 -49.5t-79.5 -151.5q0 -82 51.5 -124.5t143.5 -42.5h239l-12 -70h-238q-321 0 -321 -217
q0 -205 278 -205q112 0 201 29.5t178 77.5l25 -70q-198 -111 -410 -111z" />
    <glyph glyph-name="uni0512" unicode="&#x512;" horiz-adv-x="1519" 
d="M1542 1434l-311 -1598q-25 -129 -88 -187.5t-178 -58.5h-109l14 82h101q70 0 114.5 42.5t59.5 121.5l295 1520h-860l-211 -1073q-32 -159 -111 -226t-229 -67h-82l16 82h68q106 0 168 48.5t84 162.5l225 1151h1034z" />
    <glyph glyph-name="uni0513" unicode="&#x513;" horiz-adv-x="1087" 
d="M1047 946l-185 -946l-33 -172q-46 -238 -286 -238h-64l15 70h53q86 0 136 41t71 143l30 156l170 877h-594l-135 -699q-17 -85 -77.5 -131.5t-149.5 -46.5h-80l14 74h80q115 0 144 149l141 723h750z" />
    <glyph glyph-name="uni051C" unicode="&#x51c;" horiz-adv-x="1972" 
d="M2128 1434l-725 -1434h-90l-164 1294h-4l-672 -1294h-90l-166 1434h98l129 -1293h5l667 1293h98l164 -1293h4l637 1293h109z" />
    <glyph glyph-name="uni051D" unicode="&#x51d;" horiz-adv-x="1507" 
d="M1475 946h94l-508 -946h-84l-137 854l-475 -854h-82l-140 946h88l105 -852l469 852h92l135 -850z" />
    <glyph glyph-name="uni0524" unicode="&#x524;" horiz-adv-x="1351" 
d="M1423 1434l-270 -1393h64l-66 -338h-82l57 297h-67l264 1356h-901l-264 -1356h-86l278 1434h1073z" />
    <glyph glyph-name="uni0525" unicode="&#x525;" horiz-adv-x="1064" 
d="M1047 946l-177 -907h60l-60 -305h-73l51 266h-64l170 877h-665l-170 -877h-78l184 946h78h723h21z" />
    <glyph glyph-name="uni0526" unicode="&#x526;" horiz-adv-x="1196" 
d="M1092 575q0 -42 -13 -112l-82 -422h64l-66 -338h-82l58 297h-68l96 500q7 44 7 65q0 80 -51 114t-158 34h-500l-139 -713h-86l278 1434h86l-125 -643h486q154 0 224.5 -51t70.5 -165z" />
    <glyph glyph-name="uni0527" unicode="&#x527;" horiz-adv-x="1087" 
d="M1008 653q0 -50 -11 -106l-94 -508h49l-59 -305h-74l51 266h-53l103 547q10 62 10 98q0 129 -66 192.5t-188 63.5q-78 0 -146.5 -26.5t-130 -82t-108.5 -152t-72 -226.5l-80 -414h-78l279 1434h78l-142 -725h5q70 134 167 201t238 67q150 0 236 -81t86 -243z" />
    <glyph glyph-name="uni0E3F" unicode="&#xe3f;" horiz-adv-x="1019" 
d="M1016 1063q0 -156 -91.5 -250.5t-252.5 -124.5l-2 -6q120 -23 181.5 -96.5t61.5 -190.5q0 -195 -127 -295t-342 -100h-34l-35 -178h-58l35 178h-362l268 1382h363l34 179h58l-35 -179q157 -5 247.5 -83.5t90.5 -235.5zM322 1311l-113 -584h285l112 584h-284zM551 727
q180 9 281.5 99t101.5 237q0 125 -72.5 186.5t-197.5 61.5zM82 72h285l112 583h-284zM831 395q0 116 -75 183.5t-219 76.5l-113 -583h20q182 0 284.5 83t102.5 240z" />
    <glyph glyph-name="Wgrave" unicode="&#x1e80;" horiz-adv-x="1972" 
d="M1077 1767l140 -245h-64l-178 245h102zM2128 1434l-725 -1434h-90l-164 1294h-4l-672 -1294h-90l-166 1434h98l129 -1293h5l667 1293h98l164 -1293h4l637 1293h109z" />
    <glyph glyph-name="wgrave" unicode="&#x1e81;" horiz-adv-x="1507" 
d="M926 1133h-68l-178 315h113zM1475 946h94l-508 -946h-84l-137 854l-475 -854h-82l-140 946h88l105 -852l469 852h92l135 -850z" />
    <glyph glyph-name="Wacute" unicode="&#x1e82;" horiz-adv-x="1972" 
d="M1143 1522l256 245h119l-295 -245h-80zM2128 1434l-725 -1434h-90l-164 1294h-4l-672 -1294h-90l-166 1434h98l129 -1293h5l667 1293h98l164 -1293h4l637 1293h109z" />
    <glyph glyph-name="wacute" unicode="&#x1e83;" horiz-adv-x="1507" 
d="M1214 1448l-301 -315h-73l256 315h118zM1475 946h94l-508 -946h-84l-137 854l-475 -854h-82l-140 946h88l105 -852l469 852h92l135 -850z" />
    <glyph glyph-name="Wdieresis" unicode="&#x1e84;" horiz-adv-x="1972" 
d="M938 1522l39 194h106l-39 -194h-106zM1315 1522l39 194h106l-39 -194h-106zM2128 1434l-725 -1434h-90l-164 1294h-4l-672 -1294h-90l-166 1434h98l129 -1293h5l667 1293h98l164 -1293h4l637 1293h109z" />
    <glyph glyph-name="wdieresis" unicode="&#x1e85;" horiz-adv-x="1507" 
d="M797 1413l-45 -225h-107l45 225h107zM1174 1413l-46 -225h-106l45 225h107zM1475 946h94l-508 -946h-84l-137 854l-475 -854h-82l-140 946h88l105 -852l469 852h92l135 -850z" />
    <glyph glyph-name="Ygrave" unicode="&#x1ef2;" horiz-adv-x="1069" 
d="M764 1522h-64l-178 245h103zM1235 1434l-643 -885l-107 -549h-86l107 547l-299 887h98l252 -797h4l565 797h109z" />
    <glyph glyph-name="ygrave" unicode="&#x1ef3;" horiz-adv-x="907" 
d="M618 1133h-67l-178 315h112zM881 946h88l-881 -1356h-86l344 529l-223 827h84l192 -747z" />
    <glyph glyph-name="endash" unicode="&#x2013;" horiz-adv-x="1540" 
d="M1462 602l-14 -76h-1335l14 76h1335z" />
    <glyph glyph-name="emdash" unicode="&#x2014;" horiz-adv-x="2363" 
d="M2286 602l-15 -74h-2158l14 74h2159z" />
    <glyph glyph-name="quoteleft" unicode="&#x2018;" horiz-adv-x="317" 
d="M434 1444l-168 -270h80l-29 -150h-149l29 150l184 270h53z" />
    <glyph glyph-name="quoteright" unicode="&#x2019;" horiz-adv-x="317" 
d="M299 1464h150l-29 -149l-184 -271h-54l168 271h-80z" />
    <glyph glyph-name="quotesinglbase" unicode="&#x201a;" horiz-adv-x="317" 
d="M43 150h150l-29 -150l-184 -270h-54l168 270h-80z" />
    <glyph glyph-name="quotedblleft" unicode="&#x201c;" horiz-adv-x="534" 
d="M434 1444l-168 -270h80l-29 -150h-149l29 150l184 270h53zM651 1444l-168 -270h80l-28 -150h-150l29 150l184 270h53z" />
    <glyph glyph-name="quotedblright" unicode="&#x201d;" horiz-adv-x="534" 
d="M449 1464l-29 -149l-184 -271h-54l168 271h-80l29 149h150zM516 1464h150l-29 -149l-184 -271h-54l168 271h-80z" />
    <glyph glyph-name="quotedblbase" unicode="&#x201e;" horiz-adv-x="534" 
d="M193 150l-29 -150l-184 -270h-54l168 270h-80l29 150h150zM260 150h150l-29 -150l-184 -270h-54l168 270h-80z" />
    <glyph glyph-name="dagger" unicode="&#x2020;" horiz-adv-x="995" 
d="M989 967l-14 -74h-357l-210 -1083h-78l211 1083h-357l15 74h356l90 467h78l-90 -467h356z" />
    <glyph glyph-name="daggerdbl" unicode="&#x2021;" horiz-adv-x="995" 
d="M975 893h-357l-106 -543h356l-14 -74h-356l-90 -466h-78l90 466h-357l15 74h356l107 543h-357l15 74h356l90 467h78l-90 -467h356z" />
    <glyph glyph-name="bullet" unicode="&#x2022;" horiz-adv-x="600" 
d="M362 956q69 0 116.5 -47t47.5 -116t-47.5 -116.5t-116.5 -47.5t-116 47.5t-47 116.5t47 116t116 47z" />
    <glyph glyph-name="ellipsis" unicode="&#x2026;" horiz-adv-x="1232" 
d="M20 0l33 164h164l-33 -164h-164zM442 0l33 164h164l-33 -164h-164zM864 0l33 164h164l-33 -164h-164z" />
    <glyph glyph-name="perthousand" unicode="&#x2030;" horiz-adv-x="2267" 
d="M512 809q-122 0 -203.5 70t-81.5 200q0 149 104 257t259 108q121 0 202.5 -70t81.5 -200q0 -149 -103.5 -257t-258.5 -108zM260 0l995 1382h74l-995 -1382h-74zM516 879q123 0 204 89t81 203q0 98 -61.5 150.5t-153.5 52.5q-123 0 -204 -89.5t-81 -203.5q0 -98 61.5 -150
t153.5 -52zM1026 -10q-122 0 -203.5 70t-81.5 200q0 149 104 257t259 108q121 0 203 -70.5t82 -200.5q0 -149 -104 -256.5t-259 -107.5zM1772 -10q-122 0 -203.5 70t-81.5 200q0 149 103.5 257t258.5 108q121 0 203 -70.5t82 -200.5q0 -149 -103.5 -256.5t-258.5 -107.5z
M1030 59q123 0 204 89.5t81 203.5q0 98 -61.5 150.5t-153.5 52.5q-123 0 -204 -89.5t-81 -203.5q0 -98 61.5 -150.5t153.5 -52.5zM1776 59q123 0 203.5 89.5t80.5 203.5q0 98 -61.5 150.5t-153.5 52.5q-123 0 -203.5 -89.5t-80.5 -203.5q0 -98 61.5 -150.5t153.5 -52.5z" />
    <glyph glyph-name="guilsinglleft" unicode="&#x2039;" horiz-adv-x="446" 
d="M264 174l-221 305l340 305h104l-354 -313l219 -297h-88z" />
    <glyph glyph-name="guilsinglright" unicode="&#x203a;" horiz-adv-x="446" 
d="M186 784l222 -305l-340 -305h-105l354 313l-219 297h88z" />
    <glyph glyph-name="fraction" unicode="&#x2044;" horiz-adv-x="104" 
d="M-440 0l995 1382h74l-996 -1382h-73z" />
    <glyph glyph-name="uni2070" unicode="&#x2070;" horiz-adv-x="888" 
d="M653 1647q134 0 210.5 -89t76.5 -266q0 -82 -16 -164.5t-51 -161.5t-84.5 -139.5t-123 -97.5t-159.5 -37q-134 0 -210.5 89t-76.5 266q0 82 16 164.5t51 161.5t84.5 139.5t123 97.5t159.5 37zM647 1577q-86 0 -156 -51t-111.5 -131.5t-64 -170t-22.5 -175.5
q0 -137 58 -212t161 -75q86 0 156 51t111.5 131.5t64 170t22.5 175.5q0 137 -58 212t-161 75z" />
    <glyph glyph-name="uni2074" unicode="&#x2074;" horiz-adv-x="796" 
d="M825 1626l-127 -659h123l-14 -70h-123l-35 -184h-71l34 184h-489l12 59l606 670h84zM231 967h396l106 553h-4z" />
    <glyph glyph-name="uni2075" unicode="&#x2075;" horiz-adv-x="755" 
d="M508 1309q114 0 190 -71t76 -206q0 -147 -91.5 -242.5t-248.5 -95.5q-246 0 -311 203l67 27q25 -76 83.5 -118t164.5 -42q70 0 122.5 23.5t82 63t43.5 85t14 96.5q0 101 -55 154t-149 53q-134 0 -215 -104h-72l149 491h490l-14 -67h-422l-107 -330h4q76 80 199 80z" />
    <glyph glyph-name="uni2076" unicode="&#x2076;" horiz-adv-x="776" 
d="M467 692q-128 0 -209.5 71t-81.5 214q0 180 178 352l310 311h96l-410 -403l2 -2q106 88 223 88t191 -77t74 -204q0 -147 -107 -248.5t-266 -101.5zM469 762q125 0 211 81t86 199q0 100 -55.5 155.5t-147.5 55.5q-137 0 -225 -82.5t-88 -199.5q0 -94 59 -151.5t160 -57.5z
" />
    <glyph glyph-name="uni2077" unicode="&#x2077;" horiz-adv-x="604" 
d="M807 1626l-12 -63l-568 -850h-86l572 843h-482l15 70h561z" />
    <glyph glyph-name="uni2078" unicode="&#x2078;" horiz-adv-x="819" 
d="M481 692q-136 0 -210 67.5t-74 174.5q0 103 65 174t168 92v2q-117 55 -117 191q0 111 82.5 182.5t220.5 71.5q120 0 188 -57t68 -156q0 -93 -60 -151.5t-142 -80.5v-2q65 -21 102 -80.5t37 -138.5q0 -123 -88 -206t-240 -83zM557 1233q104 0 173 56t69 143
q0 70 -47.5 107.5t-130.5 37.5q-111 0 -172.5 -52t-61.5 -134q0 -73 43.5 -115.5t126.5 -42.5zM483 762q113 0 182.5 59.5t69.5 163.5q0 83 -48.5 130.5t-147.5 47.5q-121 0 -195 -65t-74 -160q0 -84 57.5 -130t155.5 -46z" />
    <glyph glyph-name="uni2079" unicode="&#x2079;" horiz-adv-x="735" 
d="M268 713l412 389l-4 2q-96 -78 -209 -78q-117 0 -187.5 77t-70.5 200q0 148 99 246t251 98q59 0 112 -17t96 -50t68 -89t25 -127q0 -176 -174 -342l-324 -309h-94zM496 1096q125 0 208.5 80t83.5 192q0 95 -62.5 152t-164.5 57q-120 0 -199 -77t-79 -197q0 -97 56 -152
t157 -55z" />
    <glyph glyph-name="uni2080" unicode="&#x2080;" horiz-adv-x="888" 
d="M471 709q134 0 210.5 -89t76.5 -266q0 -82 -16 -164.5t-51 -161.5t-84.5 -139.5t-123 -97.5t-159.5 -37q-134 0 -210.5 89t-76.5 266q0 82 16 164.5t51 161.5t84.5 139.5t123 97.5t159.5 37zM465 639q-86 0 -156 -51t-111.5 -131.5t-64 -170t-22.5 -175.5q0 -137 58 -212
t161 -75q86 0 156 51t111.5 131.5t64 170t22.5 175.5q0 137 -58 212t-161 75z" />
    <glyph glyph-name="uni2081" unicode="&#x2081;" horiz-adv-x="540" 
d="M336 688l-178 -913h-70l164 839h-82l14 74h152z" />
    <glyph glyph-name="uni2082" unicode="&#x2082;" horiz-adv-x="774" 
d="M424 709q124 0 188 -58.5t64 -158.5q0 -90 -52.5 -165.5t-140.5 -148.5l-399 -334h475l-16 -69h-586l12 59l439 375q39 33 53.5 45.5t48.5 47.5t49 58.5t29 58t14 68.5q0 67 -45.5 109.5t-132.5 42.5q-86 0 -149 -47t-87 -141h-75q57 258 311 258z" />
    <glyph glyph-name="uni2083" unicode="&#x2083;" horiz-adv-x="788" 
d="M279 -248q-128 0 -205.5 52t-77.5 151q0 19 2 37h72q-2 -20 -2 -31q0 -64 59 -101.5t156 -37.5q118 0 183.5 56.5t65.5 166.5q0 99 -61 145t-195 46l15 65q132 0 207 49.5t75 145.5q0 72 -45.5 108.5t-132.5 36.5q-82 0 -137 -40t-72 -120h-73q21 114 97 172t189 58
q118 0 183 -55t65 -152q0 -89 -53.5 -153.5t-163.5 -82.5v-2q77 -10 126.5 -65t49.5 -158q0 -61 -18.5 -112t-56 -92t-102 -64t-150.5 -23z" />
    <glyph glyph-name="uni2084" unicode="&#x2084;" horiz-adv-x="796" 
d="M643 688l-127 -659h123l-14 -70h-123l-35 -184h-72l35 184h-489l12 59l606 670h84zM49 29h395l107 553h-4z" />
    <glyph glyph-name="uni2085" unicode="&#x2085;" horiz-adv-x="755" 
d="M326 371q114 0 190 -71t76 -206q0 -147 -91.5 -242.5t-248.5 -95.5q-246 0 -311 203l67 27q25 -76 83.5 -118t164.5 -42q70 0 122.5 23.5t82 63t43.5 85t14 96.5q0 100 -55 153.5t-150 53.5q-134 0 -215 -104h-71l149 491h490l-15 -67h-422l-106 -330h4q76 80 199 80z
" />
    <glyph glyph-name="uni2086" unicode="&#x2086;" horiz-adv-x="776" 
d="M285 -246q-128 0 -209.5 71t-81.5 214q0 180 178 352l309 311h97l-410 -403l2 -2q106 88 223 88t190.5 -76.5t73.5 -204.5q0 -147 -106.5 -248.5t-265.5 -101.5zM287 -176q125 0 211 81t86 199q0 100 -55.5 155.5t-147.5 55.5q-137 0 -225 -82.5t-88 -199.5
q0 -94 59 -151.5t160 -57.5z" />
    <glyph glyph-name="uni2087" unicode="&#x2087;" horiz-adv-x="604" 
d="M625 688l-13 -63l-567 -850h-86l571 843h-481l14 70h562z" />
    <glyph glyph-name="uni2088" unicode="&#x2088;" horiz-adv-x="819" 
d="M299 -246q-136 0 -210.5 67.5t-74.5 174.5q0 103 65.5 174t168.5 92v2q-117 55 -117 191q0 111 82.5 182.5t220.5 71.5q120 0 188 -57t68 -156q0 -48 -18 -89t-48.5 -68.5t-64.5 -46t-72 -28.5v-2q65 -22 102.5 -81t37.5 -138q0 -123 -88 -206t-240 -83zM375 295
q104 0 172.5 56t68.5 143q0 70 -47.5 107.5t-130.5 37.5q-111 0 -172 -52t-61 -134q0 -73 43.5 -115.5t126.5 -42.5zM301 -176q113 0 182.5 59.5t69.5 163.5q0 83 -49 130.5t-148 47.5q-121 0 -194.5 -65t-73.5 -160q0 -84 57.5 -130t155.5 -46z" />
    <glyph glyph-name="uni2089" unicode="&#x2089;" horiz-adv-x="735" 
d="M86 -225l412 389l-4 2q-96 -78 -209 -78q-117 0 -187.5 77t-70.5 200q0 148 99 246t251 98q59 0 112 -17t96 -50t68 -89t25 -127q0 -176 -174 -342l-324 -309h-94zM313 158q126 0 209.5 80t83.5 192q0 95 -62.5 152t-164.5 57q-121 0 -200 -77.5t-79 -196.5
q0 -97 56 -152t157 -55z" />
    <glyph glyph-name="TRY" unicode="&#x20a4;" horiz-adv-x="1179" 
d="M1055 670h82q-63 -320 -266 -495t-513 -175h-77l116 598l-307 -123l12 64l308 123l30 159l-315 -127l12 64l316 127l96 497h78l-90 -464l430 174l-13 -64l-430 -174l-30 -158l438 176l-12 -63l-439 -176l-108 -557q267 0 447.5 159t234.5 435z" />
    <glyph glyph-name="uni20A9" unicode="&#x20a9;" horiz-adv-x="1863" 
d="M1960 1434l-252 -551h195l-13 -62h-209l-63 -139h246l-13 -61h-262l-282 -621h-113l-41 621h-385l-283 -621h-112l-41 621h-262l12 61h246l-11 139h-208l12 62h192l-37 551h82l31 -551h418l250 551h114l35 -551h418l248 551h88zM1102 1354l-215 -471h250l-31 471h-4z
M393 821l8 -139h314l63 139h-385zM797 682h352l-8 139h-281zM1536 682l61 139h-387l11 -139h315zM440 76l248 545h-282l30 -545h4zM1264 76l243 545h-282l35 -545h4z" />
    <glyph glyph-name="Euro" unicode="&#x20ac;" horiz-adv-x="1341" 
d="M1049 1337q-239 0 -407.5 -141t-231.5 -373h731l-43 -61h-705q-11 -75 -16 -121h651l-43 -61h-610v-15q0 -250 114.5 -384t331.5 -134q160 0 318 72l-15 -82q-139 -66 -305 -66q-134 0 -236.5 44.5t-165 125t-93.5 187t-31 237.5v15h-262l43 61h221q8 82 16 121h-235
l43 61h205q33 128 97 235t156 186.5t215.5 124t266.5 44.5q221 0 385 -115l-47 -67q-154 106 -348 106z" />
    <glyph glyph-name="uni20AE" unicode="&#x20ae;" horiz-adv-x="1087" 
d="M1208 1311h-463l-77 -408l352 164l-12 -63l-353 -164l-22 -115l352 164l-12 -64l-352 -163l-129 -662h-78l121 621l-355 -164l13 63l354 164l22 115l-354 -164l12 63l355 164l86 449h-463l14 71h1004z" />
    <glyph glyph-name="uni20B4" unicode="&#x20b4;" horiz-adv-x="991" 
d="M737 809q-37 -25 -41 -27l-176 -112h469l-12 -62h-553q-144 -95 -204 -173t-60 -171q0 -99 69.5 -159t202.5 -60q62 0 134 17.5t114.5 33.5t150.5 60l-16 -86q-111 -48 -201 -74.5t-186 -26.5q-74 0 -135.5 16.5t-110.5 50t-76.5 90.5t-27.5 132q0 117 57.5 198
t159.5 152h-227l12 62h307l29 18l186 121h-496l13 61h577q109 73 165.5 140.5t56.5 154.5q0 82 -55 127t-167 45q-132 0 -348 -88l14 84q197 80 340 80q297 0 297 -246q0 -93 -44.5 -163.5t-127.5 -133.5h201l-12 -61h-279z" />
    <glyph glyph-name="uni20B8" unicode="&#x20b8;" horiz-adv-x="1087" 
d="M219 1382h1004l-15 -71h-1003zM166 1112l14 72h1004l-15 -72h-462l-218 -1112h-77l217 1112h-463z" />
    <glyph glyph-name="uni20B9" unicode="&#x20b9;" horiz-adv-x="1044" 
d="M1139 1382l-58 -61h-352q74 -45 115 -122.5t41 -178.5v-4h182l-57 -62h-129q-26 -171 -171 -270.5t-362 -99.5h-151l424 -584h-97l-420 584l15 71h235q196 0 309 82.5t136 216.5h-623l12 62h615q0 133 -82.5 214t-239.5 81h-235l14 71h879z" />
    <glyph glyph-name="uni20BD" unicode="&#x20bd;" horiz-adv-x="1157" 
d="M657 614h-266l-35 -184h478l-13 -61h-477l-72 -369h-77l71 369h-205l13 61h205l34 184h-204l18 72h201l135 696h328q189 0 288 -89t99 -242q0 -203 -133.5 -320t-387.5 -117zM526 1311l-120 -625h258q203 0 317.5 92t114.5 262q0 133 -80.5 202t-222.5 69h-267z" />
    <glyph glyph-name="uni2113" unicode="&#x2113;" horiz-adv-x="958" 
d="M1012 1204q0 -356 -664 -588q-20 -153 -20 -286q0 -157 35.5 -220t138.5 -63q62 0 123 19.5t155 66.5l-14 -84q-7 -3 -37.5 -15.5t-37 -15t-31 -12t-33 -11.5t-28.5 -8t-33 -7.5t-31.5 -3t-36.5 -1.5q-62 0 -107 18t-71.5 47.5t-42 77t-20.5 96.5t-5 116q0 121 16 262
q-118 -37 -174 -51l15 69q9 3 172 54q24 151 69.5 282t110 237.5t154.5 168t194 61.5q99 0 151 -55t52 -154zM801 1339q-103 0 -193.5 -88.5t-152 -233t-95.5 -327.5q576 211 576 504q0 145 -135 145z" />
    <glyph glyph-name="uni2116" unicode="&#x2116;" horiz-adv-x="2398" 
d="M72 0l278 1434h96l646 -1307h4l254 1307h86l-279 -1434h-96l-645 1307h-4l-254 -1307h-86zM1870 268q-181 0 -286 100t-105 265q0 135 64.5 247.5t175 176t241.5 63.5q181 0 285 -99.5t104 -264.5q0 -103 -38 -194t-102.5 -155t-152.5 -101.5t-186 -37.5zM1870 342
q164 0 282.5 121t118.5 293q0 131 -83.5 211t-229.5 80q-164 0 -281.5 -121t-117.5 -293q0 -131 83 -211t228 -80zM1399 0l14 72h825l-14 -72h-825z" />
    <glyph glyph-name="trademark" unicode="&#x2122;" horiz-adv-x="1699" 
d="M852 1403h-272l-156 -801h-66l156 801h-272l12 61h610zM1622 1464l41 -862h-68l-34 748l-353 -617h-57l-111 617l-321 -748h-72l377 862h68l108 -626l354 626h68z" />
    <glyph glyph-name="estimated" unicode="&#x212e;" horiz-adv-x="1619" 
d="M123 623q0 176 96.5 325t262 235.5t360.5 86.5q196 0 362 -86.5t262.5 -235.5t96.5 -325v-19h-1176v-287q0 -68 28 -124.5t79 -88.5q139 -92 352 -92q151 0 285 57t223 158h59q-101 -118 -252.5 -185t-318.5 -67q-146 0 -279.5 51.5t-229.5 138t-153 206.5t-57 252z
M1208 1130q-133 103 -362 103q-216 0 -352 -94q-107 -72 -107 -174v-324h911v311q0 109 -90 178z" />
    <glyph glyph-name="uni2153" unicode="&#x2153;" horiz-adv-x="1480" 
d="M160 0l995 1382h74l-996 -1382h-73zM291 592l141 723h-104l12 67h170l-154 -790h-65zM1028 -18q-118 0 -182 51t-64 131q0 21 2 37h68q-2 -12 -2 -25q0 -65 50 -98t128 -33q98 0 159.5 48t61.5 143q0 46 -18 77t-54.5 46.5t-80 21.5t-107.5 6l12 64q291 6 291 172
q0 61 -42.5 91.5t-114.5 30.5q-80 0 -136 -32.5t-69 -102.5h-66q12 95 86 147t185 52q104 0 165.5 -49.5t61.5 -136.5q0 -81 -56.5 -132t-148.5 -67l-2 -2q75 -8 118.5 -56t43.5 -126q0 -49 -15 -92.5t-47.5 -82t-90.5 -61t-136 -22.5z" />
    <glyph glyph-name="uni2154" unicode="&#x2154;" horiz-adv-x="1697" 
d="M135 592l12 59l357 320q84 75 124 127t40 112q0 55 -37.5 91t-112.5 36q-73 0 -123 -37.5t-67 -109.5h-70q20 103 87 157t173 54q108 0 164.5 -53t56.5 -136q0 -41 -13 -77.5t-44 -74t-54.5 -61t-70.5 -65.5l-311 -277h391l-12 -65h-490zM377 0l995 1382h74l-995 -1382
h-74zM1245 -18q-118 0 -182 51t-64 131q0 21 2 37h68q-2 -12 -2 -25q0 -65 50 -98t128 -33q98 0 159.5 48t61.5 143q0 46 -18 77t-54.5 46.5t-80 21.5t-107.5 6l13 64q290 6 290 172q0 61 -42.5 91.5t-114.5 30.5q-80 0 -136 -32.5t-69 -102.5h-66q12 95 86 147t185 52
q104 0 165.5 -49.5t61.5 -136.5q0 -81 -56.5 -132t-148.5 -67l-2 -2q75 -8 118.5 -56t43.5 -126q0 -49 -15 -92.5t-47.5 -82t-90.5 -61t-136 -22.5z" />
    <glyph glyph-name="oneeighth" unicode="&#x215b;" horiz-adv-x="1482" 
d="M160 0l995 1382h74l-996 -1382h-73zM291 592l141 723h-104l12 67h170l-154 -790h-65zM1018 -18q-117 0 -179.5 55.5t-62.5 148.5q0 89 55 152.5t152 83.5v4q-46 13 -76 53.5t-30 106.5q0 97 69 160t195 63q104 0 162.5 -49t58.5 -135q0 -84 -51 -134t-125 -65v-4
q57 -18 90 -66t33 -120q0 -109 -74.5 -181.5t-216.5 -72.5zM1090 457q87 0 144.5 47.5t57.5 118.5q0 56 -40 89t-113 33q-83 0 -138 -40.5t-55 -118.5q0 -60 37 -94.5t107 -34.5zM1022 45q98 0 157.5 48.5t59.5 135.5q0 71 -42 112.5t-124 41.5q-98 0 -162.5 -51t-64.5 -137
q0 -69 45.5 -109.5t130.5 -40.5z" />
    <glyph glyph-name="threeeighths" unicode="&#x215c;" horiz-adv-x="1699" 
d="M418 573q-118 0 -182 51.5t-64 131.5q0 21 2 37h68q-2 -12 -2 -25q0 -65 50 -98t128 -33q98 0 159.5 47.5t61.5 142.5q0 46 -18 77t-54.5 47t-80.5 22t-107 6l12 63q291 6 291 172q0 61 -43 92t-115 31q-80 0 -136 -32.5t-69 -102.5h-65q12 96 85.5 147.5t184.5 51.5
q104 0 166 -50t62 -137q0 -81 -56 -131.5t-149 -66.5l-2 -2q74 -8 118 -56t44 -127q0 -49 -15 -92.5t-47.5 -82t-90.5 -61t-136 -22.5zM377 0l995 1382h74l-995 -1382h-74zM1235 -18q-117 0 -179.5 55.5t-62.5 148.5q0 89 55 152.5t152 83.5v4q-46 13 -76 53.5t-30 106.5
q0 97 69 160t195 63q104 0 162.5 -49t58.5 -135q0 -84 -51 -134t-125 -65v-4q57 -18 90 -66t33 -120q0 -109 -74.5 -181.5t-216.5 -72.5zM1307 457q87 0 144.5 47.5t57.5 118.5q0 56 -40 89t-113 33q-83 0 -138 -40.5t-55 -118.5q0 -60 37 -94.5t107 -34.5zM1239 45
q98 0 157.5 48.5t59.5 135.5q0 71 -42 112.5t-124 41.5q-98 0 -162.5 -51t-64.5 -137q0 -69 45.5 -109.5t130.5 -40.5z" />
    <glyph glyph-name="fiveeighths" unicode="&#x215d;" horiz-adv-x="1671" 
d="M367 573q-102 0 -171 48t-81 131l61 20q11 -61 61 -97t132 -36q115 0 176 67t61 164q0 91 -46 132.5t-124 41.5q-106 0 -180 -77h-61l129 415h405l-12 -63h-350l-86 -277h4q68 68 170 68q41 0 78.5 -12.5t70.5 -39.5t52.5 -75t19.5 -113q0 -129 -84.5 -213t-224.5 -84z
M348 0l995 1382h74l-995 -1382h-74zM1206 -18q-117 0 -179 55.5t-62 148.5q0 90 55 153t151 83v4q-46 13 -76 53.5t-30 106.5q0 97 69 160t195 63q104 0 162.5 -49t58.5 -135q0 -84 -51 -134t-125 -65v-4q57 -18 90 -66t33 -120q0 -109 -74.5 -181.5t-216.5 -72.5zM1278 457
q87 0 145 47.5t58 118.5q0 56 -40.5 89t-113.5 33q-83 0 -137.5 -40.5t-54.5 -118.5q0 -60 36.5 -94.5t106.5 -34.5zM1210 45q98 0 157.5 48.5t59.5 135.5q0 72 -41.5 113t-123.5 41q-98 0 -163 -51t-65 -137q0 -69 45.5 -109.5t130.5 -40.5z" />
    <glyph glyph-name="seveneighths" unicode="&#x215e;" horiz-adv-x="1452" 
d="M123 592l498 727h-416l12 63h488l-13 -61l-493 -729h-76zM129 0l995 1382h74l-995 -1382h-74zM987 -18q-117 0 -179.5 55.5t-62.5 148.5q0 89 55 152.5t152 83.5v4q-46 13 -76 53.5t-30 106.5q0 97 69 160t195 63q104 0 162.5 -49t58.5 -135q0 -84 -51 -134t-125 -65v-4
q57 -18 90 -66t33 -120q0 -109 -74.5 -181.5t-216.5 -72.5zM1059 457q87 0 145 47.5t58 118.5q0 56 -40.5 89t-113.5 33q-83 0 -138 -40.5t-55 -118.5q0 -60 37 -94.5t107 -34.5zM991 45q98 0 157.5 48.5t59.5 135.5q0 71 -42 112.5t-124 41.5q-98 0 -162.5 -51t-64.5 -137
q0 -69 45.5 -109.5t130.5 -40.5z" />
    <glyph glyph-name="arrowleft" unicode="&#x2190;" horiz-adv-x="1683" 
d="M1612 635l-17 -82h-1331l422 -547l-72 -57l-489 645l735 645l55 -61l-634 -543h1331z" />
    <glyph glyph-name="arrowup" unicode="&#x2191;" horiz-adv-x="1486" 
d="M1427 696l-63 -57l-438 535l-260 -1336h-82l258 1325l-645 -524l-50 63l764 615z" />
    <glyph glyph-name="arrowright" unicode="&#x2192;" horiz-adv-x="1683" 
d="M1110 1235l496 -639l-740 -645l-53 61l625 543h-1319l16 82h1338l-433 543z" />
    <glyph glyph-name="arrowdown" unicode="&#x2193;" horiz-adv-x="1490" 
d="M1341 551l50 -64l-764 -614l-521 623l68 55l438 -537l260 1338h82l-258 -1323z" />
    <glyph glyph-name="arrowboth" unicode="&#x2194;" horiz-adv-x="2584" 
d="M2009 1233l496 -639l-740 -645l-53 61l625 543h-1319h-754l422 -547l-72 -57l-489 645l735 645l55 -61l-634 -543h1331h760l-433 543z" />
    <glyph glyph-name="arrowupdn" unicode="&#x2195;" horiz-adv-x="1495" 
d="M557 -510l-520 623l67 55l439 -537l379 1948l-646 -524l-49 63l764 615l516 -621l-63 -57l-438 534l-379 -1943l645 522l49 -64z" />
    <glyph glyph-name="uni2196" unicode="&#x2196;" horiz-adv-x="1300" 
d="M1143 1128l-17 -88l-759 -10l757 -940l-67 -59l-760 942l-156 -758h-88l195 891z" />
    <glyph glyph-name="uni2197" unicode="&#x2197;" horiz-adv-x="1300" 
d="M412 1118l888 -12l-151 -891l-88 -2l133 756l-1118 -938l-49 57l1132 946l-764 4z" />
    <glyph glyph-name="uni2198" unicode="&#x2198;" horiz-adv-x="1300" 
d="M1206 973h88l-194 -891l-895 -14l14 79l762 11l-758 940l68 59l758 -942z" />
    <glyph glyph-name="uni2199" unicode="&#x2199;" horiz-adv-x="1302" 
d="M1321 1100l-1137 -950h766l-16 -78l-887 10l152 891l88 2l-137 -758l1122 940z" />
    <glyph glyph-name="partialdiff" unicode="&#x2202;" horiz-adv-x="1179" 
d="M659 1464q233 0 359.5 -153.5t126.5 -460.5q0 -128 -21.5 -250t-70 -237.5t-120 -202t-179.5 -139t-240 -52.5q-200 0 -318 114.5t-118 313.5q0 104 34.5 198t100 168t169 117.5t232.5 43.5q150 0 262 -63.5t177 -182.5q10 95 10 166q0 124 -24 223t-72.5 171.5
t-126.5 111.5t-181 39q-81 0 -171 -21.5t-158 -52.5l-29 74q192 75 358 75zM526 45q104 0 190.5 41t147 113t101 159t65.5 191q-10 36 -27.5 73t-52 79t-79 73.5t-111.5 52.5t-146 21q-141 0 -246.5 -64.5t-156.5 -164.5t-51 -218q0 -166 101.5 -261t264.5 -95z" />
    <glyph glyph-name="emptyset" unicode="&#x2205;" 
d="M1149 1100l-123 -119q123 -132 123 -317q0 -199 -143 -337.5t-355 -138.5q-192 0 -334 119l-124 -121l-39 41l122 119q-122 131 -122 318q0 199 142.5 337t354.5 138q192 0 332 -117l125 119zM227 664q0 -157 101 -269l604 578q-118 94 -281 94q-184 0 -304 -115.5
t-120 -287.5zM1075 664q0 160 -102 268l-602 -576q113 -96 280 -96q184 0 304 116t120 288z" />
    <glyph glyph-name="product" unicode="&#x220f;" horiz-adv-x="1468" 
d="M1599 1434v-74h-303v-1520h-77v1520h-611v-1520h-78v1520h-303v74h1372z" />
    <glyph glyph-name="summation" unicode="&#x2211;" horiz-adv-x="1449" 
d="M1233 1434v-76h-860l620 -754l-620 -754h860v-75h-965v78l623 751l-623 752v78h965z" />
    <glyph glyph-name="minus" unicode="&#x2212;" 
d="M1128 639v-57h-976v57h976z" />
    <glyph glyph-name="radical" unicode="&#x221a;" horiz-adv-x="1060" 
d="M1137 1464h75l-501 -1464h-74l-346 870h-158v76h213l326 -844z" />
    <glyph glyph-name="infinity" unicode="&#x221e;" horiz-adv-x="1568" 
d="M1223 922q138 0 231.5 -88.5t93.5 -225.5q0 -136 -93.5 -224.5t-231.5 -88.5q-64 0 -122 20.5t-111 63.5t-90 81.5t-89 100.5q-52 -62 -89 -100.5t-90 -81.5t-111 -63.5t-122 -20.5q-138 0 -231.5 88.5t-93.5 224.5q0 137 93.5 225.5t231.5 88.5q52 0 102 -16t87.5 -38
t81 -61.5t72 -71t69.5 -80.5q41 49 69.5 80.5t72 71t81 61.5t87.5 38t102 16zM399 864q-108 0 -186 -74t-78 -182t78 -182t186 -74q56 0 107 19.5t99.5 60.5t82.5 77.5t84 98.5q-50 62 -84 98.5t-82.5 77.5t-99.5 60.5t-107 19.5zM1223 864q-56 0 -107 -19.5t-99.5 -60.5
t-82.5 -77.5t-84 -98.5q50 -62 84 -98.5t82.5 -77.5t99.5 -60.5t107 -19.5q108 0 186 74t78 182t-78 182t-186 74z" />
    <glyph glyph-name="integral" unicode="&#x222b;" horiz-adv-x="778" 
d="M889 1464l-15 -71q-134 0 -218 -79.5t-113 -232.5l-224 -1142q-39 -200 -140.5 -289.5t-274.5 -89.5l14 71q130 2 211.5 75t114.5 237l223 1142q39 200 144 289.5t278 89.5z" />
    <glyph glyph-name="approxequal" unicode="&#x2248;" 
d="M389 911q57 0 161 -34.5t205 -68.5t150 -34t88 32t60 95h61q-24 -93 -78.5 -141.5t-128.5 -48.5q-73 0 -266 68.5t-250 68.5q-49 0 -87.5 -32t-59.5 -95h-62q24 94 80 142t127 48zM389 584q57 0 161 -34.5t205 -69t150 -34.5t88 32t60 95h61q-24 -93 -78.5 -141.5
t-128.5 -48.5q-73 0 -266 68.5t-250 68.5q-49 0 -87.5 -32t-59.5 -95h-62q24 94 80 142.5t127 48.5z" />
    <glyph glyph-name="notequal" unicode="&#x2260;" 
d="M1159 752h-407l-164 -281h571v-57h-604l-129 -224h-57l129 224h-375v57h407l164 281h-571v57h604l129 223h57l-129 -223h375v-57z" />
    <glyph glyph-name="lessequal" unicode="&#x2264;" 
d="M1051 1001v-61l-787 -231l787 -232v-61l-881 264v57zM1067 324v-58h-897v58h897z" />
    <glyph glyph-name="greaterequal" unicode="&#x2265;" 
d="M205 1001l880 -264v-57l-880 -264v61l786 232l-786 231v61zM188 324h897v-58h-897v58z" />
    <glyph glyph-name="uni2460" unicode="&#x2460;" horiz-adv-x="1732" 
d="M913 -31q-217 0 -387.5 96.5t-265 267t-94.5 384.5t94.5 384.5t265 266.5t387.5 96q163 0 302.5 -56.5t237 -155t153 -237t55.5 -298.5q0 -214 -94.5 -384.5t-265.5 -267t-388 -96.5zM913 10q201 0 362 91.5t251 253t90 362.5t-90 362t-251 252.5t-362 91.5t-361.5 -91.5
t-250.5 -252.5t-90 -362t90 -362.5t250.5 -253t361.5 -91.5zM911 334v723h-104v67h170v-790h-66z" />
    <glyph glyph-name="uni2461" unicode="&#x2461;" horiz-adv-x="1732" 
d="M913 -31q-217 0 -387.5 96.5t-265 267t-94.5 384.5t94.5 384.5t265 266.5t387.5 96q163 0 302.5 -56.5t237 -155t153 -237t55.5 -298.5q0 -214 -94.5 -384.5t-265.5 -267t-388 -96.5zM913 10q201 0 362 91.5t251 253t90 362.5t-90 362t-251 252.5t-362 91.5t-361.5 -91.5
t-250.5 -252.5t-90 -362t90 -362.5t250.5 -253t361.5 -91.5zM666 360v60l295 319q116 123 116 226q0 60 -41.5 100.5t-122.5 40.5q-77 0 -121.5 -37.5t-48.5 -110.5h-71q4 101 69 156t174 55q116 0 175 -57t59 -149q0 -128 -129 -261l-262 -276h397v-66h-489z" />
    <glyph glyph-name="uni2462" unicode="&#x2462;" horiz-adv-x="1732" 
d="M913 -31q-217 0 -387.5 96.5t-265 267t-94.5 384.5t94.5 384.5t265 266.5t387.5 96q163 0 302.5 -56.5t237 -155t153 -237t55.5 -298.5q0 -214 -94.5 -384.5t-265.5 -267t-388 -96.5zM913 10q201 0 362 91.5t251 253t90 362.5t-90 362t-251 252.5t-362 91.5t-361.5 -91.5
t-250.5 -252.5t-90 -362t90 -362.5t250.5 -253t361.5 -91.5zM918 342q-111 0 -183 56.5t-78 162.5h68q4 -77 60.5 -116t132.5 -39q94 0 149 41.5t55 130.5q0 42 -13.5 72.5t-35 49t-55 29.5t-67.5 15t-77 4v63q218 7 218 154q0 141 -170 141q-81 0 -130.5 -36.5
t-56.5 -111.5h-67q4 100 74 155.5t182 55.5q110 0 172.5 -52t62.5 -146q0 -69 -43 -118.5t-115 -64.5v-2q87 -9 138 -63t51 -145q0 -104 -66 -170t-206 -66z" />
    <glyph glyph-name="uni2463" unicode="&#x2463;" horiz-adv-x="1732" 
d="M913 1464q163 0 302.5 -56.5t237 -155t153 -237t55.5 -298.5q0 -214 -94.5 -384.5t-265.5 -267t-388 -96.5t-387.5 96.5t-265 267t-94.5 384.5t94.5 384.5t265 266.5t387.5 96zM913 10q201 0 362 91.5t251 253t90 362.5t-90 362t-251 252.5t-362 91.5t-361.5 -91.5
t-250.5 -252.5t-90 -362t90 -362.5t250.5 -253t361.5 -91.5zM1067 1139v-574h90v-59h-90v-158h-66v158h-432v59l414 574h84zM643 565h358v477h-4z" />
    <glyph glyph-name="uni2464" unicode="&#x2464;" horiz-adv-x="1732" 
d="M913 -31q-217 0 -387.5 96.5t-265 267t-94.5 384.5t94.5 384.5t265 266.5t387.5 96q163 0 302.5 -56.5t237 -155t153 -237t55.5 -298.5q0 -214 -94.5 -384.5t-265.5 -267t-388 -96.5zM913 10q201 0 362 91.5t251 253t90 362.5t-90 362t-251 252.5t-362 91.5t-361.5 -91.5
t-250.5 -252.5t-90 -362t90 -362.5t250.5 -253t361.5 -91.5zM918 311q-99 0 -170 46.5t-97 131.5l64 25q23 -64 75.5 -100.5t131.5 -36.5q97 0 147.5 55.5t50.5 149.5q0 102 -56.5 151t-139.5 49q-53 0 -100 -20t-72 -57h-62l47 415h406v-63h-350l-33 -277h4q23 32 69.5 50
t98.5 18q48 0 91.5 -14.5t81.5 -44.5t60.5 -83t22.5 -122q0 -125 -72.5 -199t-197.5 -74z" />
    <glyph glyph-name="uni2465" unicode="&#x2465;" horiz-adv-x="1732" 
d="M913 -31q-217 0 -387.5 96.5t-265 267t-94.5 384.5t94.5 384.5t265 266.5t387.5 96q163 0 302.5 -56.5t237 -155t153 -237t55.5 -298.5q0 -214 -94.5 -384.5t-265.5 -267t-388 -96.5zM913 10q201 0 362 91.5t251 253t90 362.5t-90 362t-251 252.5t-362 91.5t-361.5 -91.5
t-250.5 -252.5t-90 -362t90 -362.5t250.5 -253t361.5 -91.5zM909 322q-120 0 -199 70t-79 196q0 110 35.5 186.5t117.5 169.5l166 203h86l-309 -367l2 -4q72 82 186 82q118 0 193.5 -74t75.5 -194q0 -121 -78.5 -194.5t-196.5 -73.5zM913 385q93 0 148 54.5t55 150.5
q0 95 -57.5 150t-147.5 55q-94 0 -152.5 -55t-58.5 -150q0 -96 58 -150.5t155 -54.5z" />
    </font>
</defs>
</svg>
