<?xml version="1.0" standalone="no"?>
<!DOCTYPE svg PUBLIC "-//W3C//DTD SVG 1.1//EN" "http://www.w3.org/Graphics/SVG/1.1/DTD/svg11.dtd" >
<svg xmlns="http://www.w3.org/2000/svg" xmlns:xlink="http://www.w3.org/1999/xlink" version="1.1">
<metadata>
Created by FontForge 20170731 at Sat Jul 23 01:25:03 2022
 By Aleksey,,,
Copyright (c) 2015 by Reto Moser. All rights reserved.
</metadata>
<defs>
<font id="GTEestiProDisplay-UltraLight" horiz-adv-x="1228" >
  <font-face 
    font-family="GT Eesti Pro Display UltraLight"
    font-weight="250"
    font-stretch="normal"
    units-per-em="2048"
    panose-1="0 0 3 0 0 0 0 0 0 0"
    ascent="1536"
    descent="-512"
    x-height="946"
    cap-height="1434"
    bbox="-768 -510 2480 1835"
    underline-thickness="102"
    underline-position="-307"
    unicode-range="U+0020-FB02"
  />
<missing-glyph horiz-adv-x="1576" 
d="M788 -31q-213 0 -384 96.5t-267 267.5t-96 384q0 160 56.5 299t155 237.5t237 154.5t298.5 56q214 0 385 -95.5t267 -266.5t96 -385q0 -213 -96 -384t-267 -267.5t-385 -96.5zM788 20q149 0 279 53.5t223 146.5t146 224.5t53 282.5l-105 133l-143 -61l-139 184l-162 -90
l-152 242l-151 -242l-162 90l-139 -184l-143 61l-105 -133q0 -201 90.5 -363t250.5 -253t359 -91zM578 651q-31 0 -51.5 20.5t-20.5 51.5t20.5 51.5t51.5 20.5t51 -20.5t20 -51.5t-20 -51.5t-51 -20.5zM997 651q-31 0 -51 20.5t-20 51.5t20 51.5t51 20.5t51.5 -20.5
t20.5 -51.5t-20.5 -51.5t-51.5 -20.5zM702 522l74 207q1 7 8.5 10t14.5 0q6 -2 9.5 -8.5t0.5 -13.5l-57 -160h69q8 0 13.5 -5.5t5.5 -12.5q0 -6 -6 -11.5t-13 -5.5h-119zM385 350q-61 0 -101 40t-40 102t40 101.5t101 39.5t101 -39.5t40 -101.5t-40 -102t-101 -40zM1190 350
q-61 0 -101 40t-40 102t39.5 101.5t101.5 39.5t101.5 -39.5t39.5 -101.5t-40 -102t-101 -40zM788 395q-95 0 -126 -61q-6 -12 -19 -12q-16 0 -16 18q0 35 49.5 63.5t111.5 28.5t112 -28.5t50 -63.5q0 -18 -16 -18q-13 0 -19 12q-31 61 -127 61z" />
    <glyph glyph-name="fi" unicode="fi" horiz-adv-x="991" 
d="M266 1139q0 315 297 315h27v-74h-21q-109 0 -169 -56.5t-60 -188.5v-189h250v-69h-250v-877h-74v877h-205v69h205v193zM768 1413h106v-246h-106v246zM784 0v946h74v-946h-74z" />
    <glyph glyph-name="fl" unicode="fl" horiz-adv-x="1011" 
d="M266 1139q0 315 297 315h27v-74h-21q-109 0 -169 -56.5t-60 -188.5v-189h250v-69h-250v-877h-74v877h-205v69h205v193zM795 1434h73v-1434h-73v1434z" />
    <glyph glyph-name="f_f" unicode="ff" horiz-adv-x="1302" 
d="M266 1139q0 315 297 315h27v-74h-21q-109 0 -169 -56.5t-60 -188.5v-189h250v-69h-250v-877h-74v877h-205v69h205v193zM1221 1380q-109 0 -169.5 -56.5t-60.5 -188.5v-189h250v-69h-250v-877h-73v877h-205v69h205v193q0 315 296 315h27v-74h-20z" />
    <glyph glyph-name="f_f_i" unicode="ffi" horiz-adv-x="1642" 
d="M266 1139q0 315 297 315h27v-74h-21q-109 0 -169 -56.5t-60 -188.5v-189h250v-69h-250v-877h-74v877h-205v69h205v193zM918 1139q0 315 296 315h27v-74h-20q-109 0 -169.5 -56.5t-60.5 -188.5v-189h250v-69h-250v-877h-73v877h-205v69h205v193zM1419 1413h107v-246h-107
v246zM1436 0v946h73v-946h-73z" />
    <glyph glyph-name="f_f_l" unicode="ffl" horiz-adv-x="1662" 
d="M266 1139q0 315 297 315h27v-74h-21q-109 0 -169 -56.5t-60 -188.5v-189h250v-69h-250v-877h-74v877h-205v69h205v193zM918 1139q0 315 296 315h27v-74h-20q-109 0 -169.5 -56.5t-60.5 -188.5v-189h250v-69h-250v-877h-73v877h-205v69h205v193zM1446 1434h74v-1434h-74
v1434z" />
    <glyph glyph-name=".notdef" horiz-adv-x="1576" 
d="M788 -31q-213 0 -384 96.5t-267 267.5t-96 384q0 160 56.5 299t155 237.5t237 154.5t298.5 56q214 0 385 -95.5t267 -266.5t96 -385q0 -213 -96 -384t-267 -267.5t-385 -96.5zM788 20q149 0 279 53.5t223 146.5t146 224.5t53 282.5l-105 133l-143 -61l-139 184l-162 -90
l-152 242l-151 -242l-162 90l-139 -184l-143 61l-105 -133q0 -201 90.5 -363t250.5 -253t359 -91zM578 651q-31 0 -51.5 20.5t-20.5 51.5t20.5 51.5t51.5 20.5t51 -20.5t20 -51.5t-20 -51.5t-51 -20.5zM997 651q-31 0 -51 20.5t-20 51.5t20 51.5t51 20.5t51.5 -20.5
t20.5 -51.5t-20.5 -51.5t-51.5 -20.5zM702 522l74 207q1 7 8.5 10t14.5 0q6 -2 9.5 -8.5t0.5 -13.5l-57 -160h69q8 0 13.5 -5.5t5.5 -12.5q0 -6 -6 -11.5t-13 -5.5h-119zM385 350q-61 0 -101 40t-40 102t40 101.5t101 39.5t101 -39.5t40 -101.5t-40 -102t-101 -40zM1190 350
q-61 0 -101 40t-40 102t39.5 101.5t101.5 39.5t101.5 -39.5t39.5 -101.5t-40 -102t-101 -40zM788 395q-95 0 -126 -61q-6 -12 -19 -12q-16 0 -16 18q0 35 49.5 63.5t111.5 28.5t112 -28.5t50 -63.5q0 -18 -16 -18q-13 0 -19 12q-31 61 -127 61z" />
    <glyph glyph-name=".null" horiz-adv-x="0" 
 />
    <glyph glyph-name="nonmarkingreturn" horiz-adv-x="682" 
 />
    <glyph glyph-name="NULL" horiz-adv-x="0" 
 />
    <glyph glyph-name="NULL" horiz-adv-x="0" 
 />
    <glyph glyph-name="space" unicode=" " horiz-adv-x="634" 
 />
    <glyph glyph-name="exclam" unicode="!" horiz-adv-x="573" 
d="M260 403l-16 1031h86l-17 -1031h-53zM369 164v-164h-164v164h164z" />
    <glyph glyph-name="quotedbl" unicode="&#x22;" horiz-adv-x="475" 
d="M129 946l-27 518h91l-27 -518h-37zM309 946l-26 518h90l-27 -518h-37z" />
    <glyph glyph-name="numbersign" unicode="#" horiz-adv-x="1296" 
d="M1194 946h-270l-76 -414h266v-61h-276l-86 -471h-72l86 471h-328l-86 -471h-71l86 471h-265v61h275l76 414h-271v62h281l78 426h71l-77 -426h327l78 426h72l-78 -426h260v-62zM776 532l76 414h-328l-75 -414h327z" />
    <glyph glyph-name="dollar" unicode="$" horiz-adv-x="1019" 
d="M958 342q0 -170 -106.5 -266t-296.5 -105v-129h-57v127q-197 3 -315 99.5t-122 277.5h78q4 -147 100 -223.5t259 -79.5v662q-49 19 -79.5 31t-74 33.5t-70.5 40.5t-57.5 48t-47.5 60t-28.5 73t-11.5 90q0 155 100.5 239.5t268.5 92.5v148h57v-148q83 -2 151 -23t122 -62
t84.5 -109.5t31.5 -159.5h-78q-14 270 -311 280v-575q55 -21 85.5 -33t79.5 -35.5t77.5 -44.5t63 -53.5t53 -68t31.5 -83.5t13 -104zM207 1085q0 -62 22 -110t66.5 -83t89.5 -57.5t113 -48.5v553q-134 -8 -212.5 -72t-78.5 -182zM555 45q163 9 244.5 91t81.5 208
q0 58 -18.5 105.5t-46 80t-74.5 62.5t-86.5 48t-100.5 42v-637z" />
    <glyph glyph-name="percent" unicode="%" horiz-adv-x="1521" 
d="M420 1413q138 0 227.5 -89.5t89.5 -227.5t-89.5 -228t-227.5 -90t-228 90t-90 228t90 227.5t228 89.5zM299 0l809 1382h74l-809 -1382h-74zM420 1343q-110 0 -177 -67.5t-67 -179.5t67 -180t177 -68t177 68t67 180t-67 179.5t-177 67.5zM1102 625q138 0 227.5 -90
t89.5 -228t-89.5 -227.5t-227.5 -89.5t-228 89.5t-90 227.5t90 228t228 90zM1102 555q-110 0 -177 -68t-67 -180t67 -180t177 -68t177 68t67 180t-67 180t-177 68z" />
    <glyph glyph-name="ampersand" unicode="&#x26;" horiz-adv-x="1378" 
d="M1296 0h-102l-166 195q-187 -226 -461 -226q-208 0 -341.5 118.5t-133.5 322.5q0 165 93.5 285t263.5 182q-130 166 -130 292q0 107 77 175.5t220 68.5q135 0 283 -63l-33 -74q-131 59 -250 59q-100 0 -155 -46t-55 -122q0 -63 37 -127.5t102 -142.5l477 -571
q91 140 154 329l77 -26q-78 -228 -176 -369zM565 47q240 0 410 211l-469 549q-328 -113 -328 -393q0 -169 108 -268t279 -99z" />
    <glyph glyph-name="quotesingle" unicode="'" horiz-adv-x="294" 
d="M193 1464l-27 -518h-37l-27 518h91z" />
    <glyph glyph-name="parenleft" unicode="(" horiz-adv-x="536" 
d="M432 1550l64 -47q-168 -218 -247 -441.5t-79 -488.5q0 -277 78.5 -507.5t247.5 -458.5l-64 -47q-109 148 -180 289t-115.5 327t-44.5 397q0 298 87 529.5t253 447.5z" />
    <glyph glyph-name="parenright" unicode=")" horiz-adv-x="536" 
d="M104 -440l-63 47q169 228 247.5 458.5t78.5 507.5q0 265 -79 488.5t-247 441.5l63 47q166 -216 253 -447.5t87 -529.5q0 -211 -44.5 -397t-115.5 -327t-180 -289z" />
    <glyph glyph-name="asterisk" unicode="*" horiz-adv-x="811" 
d="M750 1190l-310 -86l201 -252l-57 -41l-176 268l-179 -270l-57 43l201 250l-312 86l23 67l299 -112l-14 321h71l-14 -319l301 112z" />
    <glyph glyph-name="plus" unicode="+" 
d="M645 1110v-471h469v-57h-469v-471h-61v471h-469v57h469v471h61z" />
    <glyph glyph-name="comma" unicode="," horiz-adv-x="389" 
d="M276 164v-164l-108 -287h-55l94 287h-94v164h163z" />
    <glyph glyph-name="hyphen" unicode="-" horiz-adv-x="679" 
d="M588 602v-82h-496v82h496z" />
    <glyph glyph-name="period" unicode="." horiz-adv-x="389" 
d="M276 164v-164h-163v164h163z" />
    <glyph glyph-name="slash" unicode="/" horiz-adv-x="1118" 
d="M995 1575l62 -33l-934 -1712l-62 33z" />
    <glyph glyph-name="zero" unicode="0" horiz-adv-x="1159" 
d="M580 1413q218 0 352.5 -192t134.5 -529t-134.5 -530t-352.5 -193t-353 193t-135 530q0 336 135 528.5t353 192.5zM580 1339q-183 0 -296.5 -177t-113.5 -470t113.5 -471t296.5 -178t296 178t113 471t-113 470t-296 177z" />
    <glyph glyph-name="one" unicode="1" horiz-adv-x="602" 
d="M356 1382v-1382h-73v1313h-140v69h213z" />
    <glyph glyph-name="two" unicode="2" horiz-adv-x="1030" 
d="M92 0v70l563 589q91 96 144 185.5t53 187.5q0 133 -90 220t-244 87q-142 0 -242 -80.5t-106 -236.5h-74q3 181 118 286t304 105q193 0 302.5 -103.5t109.5 -275.5q0 -202 -207 -416l-530 -546h745v-72h-846z" />
    <glyph glyph-name="three" unicode="3" horiz-adv-x="1081" 
d="M528 1413q187 0 289.5 -93t102.5 -253q0 -123 -69.5 -208.5t-211.5 -110.5v-3q161 -8 255.5 -105t94.5 -267q0 -89 -26 -161t-78 -127t-138 -85.5t-200 -30.5q-199 0 -318.5 91t-136.5 270h78q13 -133 104 -210t271 -77q175 0 270.5 83t95.5 255q0 171 -105 247.5
t-349 76.5h-88v69h88q181 0 283 71.5t102 217.5q0 130 -82.5 203t-227.5 73q-138 0 -230.5 -67.5t-98.5 -200.5h-78q9 161 116.5 251.5t286.5 90.5z" />
    <glyph glyph-name="four" unicode="4" horiz-adv-x="1150" 
d="M1079 360v-71h-200v-289h-74v289h-764v65l721 1028h117v-1022h200zM135 360h670v947h-4z" />
    <glyph glyph-name="five" unicode="5" horiz-adv-x="1064" 
d="M535 899q94 0 173.5 -28t141.5 -83t97.5 -146t35.5 -208q0 -212 -123 -338.5t-350 -126.5q-177 0 -297.5 79t-171.5 226l65 29q55 -126 149.5 -193t252.5 -67q107 0 186 31t124 86t66 123t21 151q0 193 -104.5 292t-272.5 99q-222 0 -354 -190h-70l103 747h665v-69h-604
l-78 -559h7q130 145 338 145z" />
    <glyph glyph-name="six" unicode="6" horiz-adv-x="1060" 
d="M545 -31q-92 0 -175 29.5t-150.5 86t-107.5 149.5t-40 210q0 236 180 461l395 492h94l-495 -615l6 -4q73 66 148.5 93.5t170.5 27.5q202 0 325.5 -127t123.5 -332q0 -208 -134 -339.5t-341 -131.5zM549 43q171 0 282 108t111 283q0 172 -107 281.5t-276 109.5
q-176 0 -290.5 -111t-114.5 -280q0 -173 109 -282t286 -109z" />
    <glyph glyph-name="seven" unicode="7" horiz-adv-x="876" 
d="M856 1382v-69l-614 -1313h-78l614 1309h-747v73h825z" />
    <glyph glyph-name="eight" unicode="8" horiz-adv-x="1118" 
d="M559 -31q-217 0 -337 112t-120 290q0 135 76 235t199 131v4q-100 33 -167 114t-67 210q0 158 110 253t306 95t306 -95t110 -253q0 -129 -67 -210t-167 -114v-4q123 -31 199 -131t76 -235q0 -178 -120 -290t-337 -112zM559 772q153 0 245.5 80.5t92.5 208.5
q0 127 -92 202.5t-246 75.5t-246 -75.5t-92 -202.5q0 -128 92.5 -208.5t245.5 -80.5zM559 43q176 0 277.5 86t101.5 238q0 148 -97.5 239.5t-281.5 91.5t-281.5 -91.5t-97.5 -239.5q0 -152 101.5 -238t277.5 -86z" />
    <glyph glyph-name="nine" unicode="9" horiz-adv-x="1040" 
d="M334 0l495 602l-6 4q-131 -123 -315 -123q-203 0 -330 130.5t-127 328.5q0 216 131.5 343.5t343.5 127.5q99 0 183.5 -29t149.5 -86t102.5 -149.5t37.5 -210.5q0 -242 -180 -461l-391 -477h-94zM520 557q177 0 291.5 111t114.5 280q0 173 -111.5 282t-290.5 109
q-171 0 -283 -109t-112 -284q0 -172 109.5 -280.5t281.5 -108.5z" />
    <glyph glyph-name="colon" unicode=":" horiz-adv-x="389" 
d="M276 946v-164h-163v164h163zM276 164v-164h-163v164h163z" />
    <glyph glyph-name="semicolon" unicode=";" horiz-adv-x="389" 
d="M276 946v-164h-163v164h163zM276 164v-164l-108 -287h-55l94 287h-94v164h163z" />
    <glyph glyph-name="less" unicode="&#x3c;" 
d="M1055 1030v-67l-803 -351l803 -350v-67l-881 389v57z" />
    <glyph glyph-name="equal" unicode="=" 
d="M1133 809v-57h-1037v57h1037zM1133 471v-57h-1037v57h1037z" />
    <glyph glyph-name="greater" unicode="&#x3e;" 
d="M174 1030l881 -389v-57l-881 -389v67l803 350l-803 351v67z" />
    <glyph glyph-name="question" unicode="?" horiz-adv-x="935" 
d="M465 1464q185 0 287 -95.5t102 -254.5q0 -104 -44.5 -179.5t-127.5 -154.5q-98 -92 -127 -126q-82 -96 -82 -189v-62h-82v62q0 45 14 89t31 75.5t54 74t61.5 66.5t73.5 70q143 136 143 278q0 114 -77 191t-226 77q-153 0 -237.5 -84t-84.5 -227h-82q0 185 107 287
t297 102zM510 164v-164h-164v164h164z" />
    <glyph glyph-name="at" unicode="@" horiz-adv-x="1896" 
d="M971 1413q235 0 420.5 -93.5t294 -275t108.5 -423.5q0 -97 -18.5 -183.5t-54.5 -154.5t-95 -108t-133 -40q-73 0 -125.5 45t-60.5 154h-7q-113 -228 -360 -228q-186 0 -309 122t-123 325t122 324.5t308 121.5q123 0 215.5 -57.5t142.5 -161.5h7v189h65v-613
q0 -80 36 -117.5t95 -37.5q106 0 166.5 118t60.5 295q0 173 -61.5 314t-166 231t-240 138.5t-287.5 48.5q-124 0 -240.5 -31.5t-218 -97t-177.5 -159t-119.5 -225t-43.5 -286.5q0 -156 47 -287.5t126 -221.5t184.5 -153.5t221 -93t236.5 -29.5q232 0 428 97l29 -66
q-211 -100 -459 -100q-130 0 -254 31.5t-239 99.5t-201 166t-137.5 241.5t-51.5 315.5q0 204 69 370t188 273.5t276 165t336 57.5zM940 930q-164 0 -261 -104.5t-97 -270.5t96 -272.5t262 -106.5q165 0 266 106t101 271q0 166 -101.5 271.5t-265.5 105.5z" />
    <glyph glyph-name="A" unicode="A" horiz-adv-x="1294" 
d="M1188 0l-170 418h-742l-170 -418h-86l584 1434h86l584 -1434h-86zM309 496h676l-338 831z" />
    <glyph glyph-name="B" unicode="B" horiz-adv-x="1232" 
d="M799 764q159 -19 250.5 -116t91.5 -251q0 -126 -65 -218t-168.5 -135.5t-231.5 -43.5h-512v1434h454q199 0 314 -93t115 -260q0 -121 -66 -204.5t-182 -108.5v-4zM600 1356h-354v-561h358q352 0 352 274q0 142 -84.5 214.5t-271.5 72.5zM670 78q177 0 280 88t103 237
q0 144 -105.5 229t-288.5 85h-413v-639h424z" />
    <glyph glyph-name="C" unicode="C" horiz-adv-x="1409" 
d="M846 -31q-230 0 -404 95t-267 264.5t-93 388.5t93 388t267 264t404 95q147 0 262.5 -41t228.5 -125l-51 -69q-101 76 -203.5 114.5t-238.5 38.5q-201 0 -355.5 -85.5t-237.5 -236.5t-83 -343q0 -144 48.5 -267t136 -211t214 -138t277.5 -50q135 0 237.5 39t204.5 115
l51 -70q-113 -84 -228.5 -125t-262.5 -41z" />
    <glyph glyph-name="D" unicode="D" horiz-adv-x="1396" 
d="M594 1434q156 0 289 -50t228.5 -141t149.5 -226.5t54 -299.5t-54 -299.5t-149.5 -226.5t-228.5 -141t-289 -50h-430v1434h430zM594 1356h-348v-1280h348q133 0 248 42.5t201.5 122t136 202.5t49.5 274t-49.5 273t-136 201.5t-201.5 122t-248 42.5z" />
    <glyph glyph-name="E" unicode="E" horiz-adv-x="1054" 
d="M246 78h706v-78h-788v1434h778v-78h-696v-510h641v-78h-641v-690z" />
    <glyph glyph-name="F" unicode="F" horiz-adv-x="1013" 
d="M952 1356h-706v-549h647v-78h-647v-729h-82v1434h788v-78z" />
    <glyph glyph-name="G" unicode="G" horiz-adv-x="1638" 
d="M913 727h654v-35q0 -103 -26 -203.5t-84 -195t-141 -166t-206 -115t-270 -43.5q-220 0 -393 94t-269 264t-96 386t95.5 387.5t268 267.5t390.5 96q167 0 293 -48t251 -140l-55 -72q-112 84 -226 131t-265 47q-188 0 -340 -85.5t-239 -239t-87 -344.5q0 -140 49 -262
t135.5 -210.5t213 -139t274.5 -50.5q111 0 207 28t164 76t120.5 108t84 128.5t48 133t17.5 124.5h-568v78z" />
    <glyph glyph-name="H" unicode="H" horiz-adv-x="1392" 
d="M1147 1434h82v-1434h-82v731h-901v-731h-82v1434h82v-625h901v625z" />
    <glyph glyph-name="I" unicode="I" horiz-adv-x="409" 
d="M246 1434v-1434h-82v1434h82z" />
    <glyph glyph-name="J" unicode="J" horiz-adv-x="542" 
d="M379 1434v-1112q0 -172 -67.5 -252t-217.5 -80h-53v82h47q106 0 157.5 56.5t51.5 193.5v1112h82z" />
    <glyph glyph-name="K" unicode="K" horiz-adv-x="1148" 
d="M1128 0h-127l-757 754v-754h-80v1434h80v-660l678 660h122l-698 -670z" />
    <glyph glyph-name="L" unicode="L" horiz-adv-x="999" 
d="M246 1434v-1356h723v-78h-805v1434h82z" />
    <glyph glyph-name="M" unicode="M" horiz-adv-x="1683" 
d="M1311 1434l352 -1434h-86l-307 1270h-4l-389 -1028h-70l-389 1028h-4l-308 -1270h-86l353 1434h73l394 -1065h4l393 1065h74z" />
    <glyph glyph-name="N" unicode="N" horiz-adv-x="1404" 
d="M1241 1434v-1434h-92l-899 1296h-4v-1296h-82v1434h92l899 -1297h4v1297h82z" />
    <glyph glyph-name="O" unicode="O" horiz-adv-x="1658" 
d="M829 1464q211 0 381.5 -94t268.5 -265.5t98 -387.5t-98 -387.5t-268.5 -266t-381.5 -94.5t-381.5 94.5t-268 266t-97.5 387.5q0 162 57 302t156.5 237t237.5 152.5t296 55.5zM829 1382q-142 0 -264.5 -49.5t-210 -136t-137 -211t-49.5 -268.5q0 -193 85 -345t236 -236.5
t340 -84.5q190 0 341 84.5t236 236.5t85 345q0 144 -50 268.5t-137 211t-210 136t-265 49.5z" />
    <glyph glyph-name="P" unicode="P" horiz-adv-x="1112" 
d="M637 1434q189 0 301.5 -115t112.5 -293t-112.5 -293t-301.5 -115h-391v-618h-82v1434h473zM639 696q146 0 236 86.5t90 243.5t-90 243.5t-236 86.5h-393v-660h393z" />
    <glyph glyph-name="Q" unicode="Q" horiz-adv-x="1679" 
d="M1577 717q0 -160 -54.5 -296.5t-154.5 -236.5l178 -184h-108l-127 131q-205 -162 -482 -162q-211 0 -381.5 94.5t-268 266t-97.5 387.5q0 162 57 302t156.5 237t237.5 152.5t296 55.5q211 0 381.5 -94t268.5 -265.5t98 -387.5zM829 51q247 0 422 139l-333 347h108
l285 -293q180 186 180 473q0 144 -50 268.5t-137 211t-210 136t-265 49.5t-264.5 -49.5t-210 -136t-137 -211t-49.5 -268.5q0 -193 85 -345t236 -236.5t340 -84.5z" />
    <glyph glyph-name="R" unicode="R" horiz-adv-x="1140" 
d="M985 0l-436 645h-303v-645h-82v1434h459q124 0 219.5 -42t154 -132.5t58.5 -219.5q0 -185 -114 -287t-294 -108l443 -645h-105zM246 1356v-633h377q159 0 252.5 84t93.5 233t-93.5 232.5t-252.5 83.5h-377z" />
    <glyph glyph-name="S" unicode="S" horiz-adv-x="1007" 
d="M514 1464q163 0 342 -84l-41 -80q-163 82 -297 82q-139 0 -214 -61t-75 -162q0 -48 16 -89.5t50.5 -78t64 -60t80.5 -59.5l207 -143q66 -45 110 -83t82.5 -86.5t57 -105t18.5 -124.5q0 -175 -117.5 -268t-310.5 -93q-111 0 -225 32.5t-211 96.5l45 74q190 -121 391 -121
q170 0 256 78t86 197q0 91 -53.5 165t-177.5 162l-221 156q-44 31 -72.5 53t-62.5 56t-53 66.5t-32.5 77.5t-13.5 95q0 142 95.5 224.5t275.5 82.5z" />
    <glyph glyph-name="T" unicode="T" horiz-adv-x="1044" 
d="M1024 1434v-78h-461v-1356h-82v1356h-461v78h1004z" />
    <glyph glyph-name="U" unicode="U" horiz-adv-x="1429" 
d="M1266 1434v-916q0 -163 -61.5 -285.5t-187 -193t-302.5 -70.5t-302.5 70.5t-187 193t-61.5 285.5v916h88v-895q0 -230 124 -358t339 -128t339 128t124 358v895h88z" />
    <glyph glyph-name="V" unicode="V" horiz-adv-x="1208" 
d="M1178 1434l-531 -1434h-86l-530 1434h98l473 -1311h4l473 1311h99z" />
    <glyph glyph-name="W" unicode="W" horiz-adv-x="1957" 
d="M1927 1434l-440 -1434h-86l-420 1303h-4l-420 -1303h-86l-440 1434h94l385 -1299h4l416 1299h98l416 -1299h4l385 1299h94z" />
    <glyph glyph-name="X" unicode="X" horiz-adv-x="1191" 
d="M1151 0h-98l-457 680l-457 -680h-98l506 754l-457 680h98l408 -607l408 607h98l-457 -680z" />
    <glyph glyph-name="Y" unicode="Y" horiz-adv-x="1069" 
d="M1049 1434l-474 -889v-545h-81v545l-474 889h99l413 -797h5l413 797h99z" />
    <glyph glyph-name="Z" unicode="Z" horiz-adv-x="1089" 
d="M131 78h918v-78h-1008v78l897 1278h-815v78h909v-78z" />
    <glyph glyph-name="bracketleft" unicode="[" horiz-adv-x="561" 
d="M541 1526v-70h-262v-1827h262v-69h-336v1966h336z" />
    <glyph glyph-name="backslash" unicode="\" horiz-adv-x="1118" 
d="M995 -170l-934 1712l62 33l934 -1712z" />
    <glyph glyph-name="bracketright" unicode="]" horiz-adv-x="561" 
d="M20 -440v69h263v1827h-263v70h336v-1966h-336z" />
    <glyph glyph-name="asciicircum" unicode="^" 
d="M664 1464l305 -659h-80l-275 600l-274 -600h-80l305 659h99z" />
    <glyph glyph-name="underscore" unicode="_" horiz-adv-x="1091" 
d="M1071 -31v-71h-1051v71h1051z" />
    <glyph glyph-name="grave" unicode="`" horiz-adv-x="518" 
d="M221 1448l195 -315h-74l-240 315h119z" />
    <glyph glyph-name="a" unicode="a" horiz-adv-x="1173" 
d="M551 -31q-209 0 -344 137.5t-135 366.5t135 366.5t344 137.5q143 0 248.5 -65t163.5 -175h4v209h73v-946h-73v209h-4q-58 -110 -163.5 -175t-248.5 -65zM561 43q186 0 299 120.5t113 309.5t-113 309.5t-299 120.5t-298.5 -120t-112.5 -310t112.5 -310t298.5 -120z" />
    <glyph glyph-name="b" unicode="b" horiz-adv-x="1183" 
d="M633 -31q-143 0 -248.5 65t-163.5 175h-4v-209h-74v1434h74v-697h4q58 110 163.5 175t248.5 65q209 0 344 -137.5t135 -366.5t-135 -366.5t-344 -137.5zM623 43q186 0 298.5 120t112.5 310t-112.5 310t-298.5 120t-299 -120.5t-113 -309.5t113 -309.5t299 -120.5z" />
    <glyph glyph-name="c" unicode="c" horiz-adv-x="960" 
d="M578 -31q-226 0 -366 140t-140 364t140 364t366 140q167 0 321 -92l-39 -68q-148 86 -287 86q-125 0 -223 -59t-149 -156.5t-51 -214.5t51 -214.5t149 -156.5t223 -59q139 0 287 86l39 -68q-154 -92 -321 -92z" />
    <glyph glyph-name="d" unicode="d" horiz-adv-x="1183" 
d="M551 -31q-209 0 -344 137.5t-135 366.5t135 366.5t344 137.5q143 0 248.5 -65t163.5 -175h4v697h73v-1434h-73v209h-4q-58 -110 -163.5 -175t-248.5 -65zM561 43q186 0 299 120.5t113 309.5t-113 309.5t-299 120.5t-298.5 -120t-112.5 -310t112.5 -310t298.5 -120z" />
    <glyph glyph-name="e" unicode="e" horiz-adv-x="1077" 
d="M549 977q98 0 176.5 -27.5t130 -73.5t86 -109.5t49.5 -132.5t15 -145v-20h-859q0 -198 113 -312t301 -114q59 0 110.5 13t86.5 30.5t70 48t55 53.5t47 58l57 -45q-30 -45 -63 -80t-84 -72.5t-122.5 -58.5t-156.5 -21q-223 0 -356 137.5t-133 364.5q0 238 134 372t343 134
zM547 903q-103 0 -188 -40t-142 -124t-67 -200h774q-14 173 -109.5 268.5t-267.5 95.5z" />
    <glyph glyph-name="f" unicode="f" horiz-adv-x="651" 
d="M569 1380q-109 0 -169 -56.5t-60 -188.5v-189h250v-69h-250v-877h-74v877h-205v69h205v193q0 315 297 315h27v-74h-21z" />
    <glyph glyph-name="g" unicode="g" horiz-adv-x="1173" 
d="M612 -440q-192 0 -364 41l18 75q193 -43 348 -43q353 0 353 353v223h-4q-58 -110 -163.5 -175t-248.5 -65q-209 0 -344 137.5t-135 366.5t135 366.5t344 137.5q143 0 248.5 -65t163.5 -175h4v209h73v-946q0 -107 -23 -186.5t-61 -127t-95 -77t-116 -39.5t-133 -10z
M561 43q186 0 299 120.5t113 309.5t-113 309.5t-299 120.5t-298.5 -120t-112.5 -310t112.5 -310t298.5 -120z" />
    <glyph glyph-name="h" unicode="h" horiz-adv-x="1101" 
d="M217 1434v-725h4q44 131 144.5 199.5t232.5 68.5q170 0 270.5 -102.5t100.5 -307.5v-567h-74v567q0 170 -81.5 253t-217.5 83q-58 0 -110.5 -14.5t-102.5 -50t-86 -90t-58 -140t-22 -194.5v-414h-74v1434h74z" />
    <glyph glyph-name="i" unicode="i" horiz-adv-x="339" 
d="M223 1413v-246h-106v246h106zM133 0v946h74v-946h-74z" />
    <glyph glyph-name="j" unicode="j" horiz-adv-x="339" 
d="M223 1413v-246h-106v246h106zM-102 -348h59q90 0 133 56t43 181v1057h74v-1057q0 -307 -250 -307h-59v70z" />
    <glyph glyph-name="k" unicode="k" horiz-adv-x="870" 
d="M850 0h-119l-514 498v-498h-74v1434h74v-914l467 426h119l-490 -436z" />
    <glyph glyph-name="l" unicode="l" horiz-adv-x="360" 
d="M217 1434v-1434h-74v1434h74z" />
    <glyph glyph-name="m" unicode="m" horiz-adv-x="1652" 
d="M143 0v946h74v-198h2q75 229 318 229q122 0 199.5 -57.5t117.5 -178.5h4q37 119 125 177.5t211 58.5q71 0 127.5 -19.5t102.5 -62t71 -117t25 -176.5v-602h-74v604q0 148 -67 223.5t-195 75.5q-146 0 -231 -98t-85 -307v-498h-73v539q0 364 -267 364q-147 0 -229 -112.5
t-82 -339.5v-451h-74z" />
    <glyph glyph-name="n" unicode="n" horiz-adv-x="1101" 
d="M596 977q174 0 273.5 -102.5t99.5 -307.5v-567h-74v567q0 169 -83 252.5t-220 83.5q-58 0 -110 -14.5t-101.5 -50t-85 -90t-57 -140t-21.5 -194.5v-414h-74v946h72v-237h4q47 133 143 200.5t234 67.5z" />
    <glyph glyph-name="o" unicode="o" horiz-adv-x="1150" 
d="M575 977q222 0 363 -141t141 -363t-141 -363t-363 -141q-221 0 -362 140.5t-141 363.5t141 363.5t362 140.5zM575 903q-182 0 -303.5 -119.5t-121.5 -310.5t121.5 -310.5t303.5 -119.5t304 120t122 310t-122 310t-304 120z" />
    <glyph glyph-name="p" unicode="p" horiz-adv-x="1183" 
d="M143 -410v1356h74v-209h4q58 110 163.5 175t248.5 65q209 0 344 -137.5t135 -366.5t-135 -366.5t-344 -137.5q-143 0 -248.5 65t-163.5 175h-4v-619h-74zM623 43q186 0 298.5 120t112.5 310t-112.5 310t-298.5 120t-299 -120.5t-113 -309.5t113 -309.5t299 -120.5z" />
    <glyph glyph-name="q" unicode="q" horiz-adv-x="1173" 
d="M967 -410v619h-4q-58 -110 -163.5 -175t-248.5 -65q-209 0 -344 137.5t-135 366.5t135 366.5t344 137.5q143 0 248.5 -65t163.5 -175h4v209h73v-1356h-73zM561 43q186 0 299 120.5t113 309.5t-113 309.5t-299 120.5t-298.5 -120t-112.5 -310t112.5 -310t298.5 -120z" />
    <glyph glyph-name="r" unicode="r" horiz-adv-x="614" 
d="M573 975v-82h-28q-151 0 -239.5 -114.5t-88.5 -299.5v-479h-74v946h74v-219h4q22 107 108.5 177.5t205.5 70.5h38z" />
    <glyph glyph-name="s" unicode="s" horiz-adv-x="841" 
d="M451 -31q-113 0 -217 34t-183 93l43 64q163 -117 361 -117q124 0 185.5 49.5t61.5 124.5q0 65 -45.5 109.5t-124.5 79.5l-180 81q-105 47 -159 107.5t-54 148.5q0 113 84 173.5t226 60.5q158 0 307 -76l-37 -70q-138 72 -270 72q-104 0 -168 -40t-64 -118
q0 -63 43.5 -106t130.5 -82l168 -76q50 -23 85 -44t68.5 -52.5t50.5 -73.5t17 -94q0 -120 -88 -184t-241 -64z" />
    <glyph glyph-name="t" unicode="t" horiz-adv-x="620" 
d="M559 877h-231v-646q0 -77 38.5 -119t106.5 -42h53v-74h-59q-96 0 -154.5 56t-58.5 165v660h-203v69h203v379h74v-379h231v-69z" />
    <glyph glyph-name="u" unicode="u" horiz-adv-x="1077" 
d="M492 -31q-164 0 -261.5 100.5t-97.5 307.5v569h74v-577q0 -168 80.5 -247t212.5 -79q59 0 110 15.5t98 52.5t80 94t52.5 146t19.5 202v393h74v-946h-72v221h-4q-19 -51 -48 -93.5t-72 -79.5t-106 -58t-140 -21z" />
    <glyph glyph-name="v" unicode="v" horiz-adv-x="901" 
d="M797 946h84l-392 -946h-77l-392 946h84l347 -854z" />
    <glyph glyph-name="w" unicode="w" horiz-adv-x="1466" 
d="M1364 946h82l-324 -946h-78l-311 858l-311 -858h-78l-324 946h82l281 -858l305 858h90l305 -858z" />
    <glyph glyph-name="x" unicode="x" horiz-adv-x="913" 
d="M799 0l-342 436l-342 -436h-95l392 496l-357 450h95l307 -393l307 393h94l-356 -450l391 -496h-94z" />
    <glyph glyph-name="y" unicode="y" horiz-adv-x="907" 
d="M801 946h86l-658 -1356h-82l263 525l-390 831h86l340 -756z" />
    <glyph glyph-name="z" unicode="z" horiz-adv-x="915" 
d="M158 74h696v-74h-793v70l650 804h-602v72h700v-67z" />
    <glyph glyph-name="braceleft" unicode="{" horiz-adv-x="702" 
d="M682 1526v-76h-45q-119 0 -177.5 -62t-58.5 -198v-354q0 -123 -43 -186t-145 -85v-4q102 -22 145 -84.5t43 -185.5v-395q0 -136 58.5 -198.5t177.5 -62.5h45v-75h-41q-163 0 -240 82t-77 258v387q0 117 -57.5 173t-194.5 62v82q137 6 194.5 62.5t57.5 173.5v346
q0 176 77 258t240 82h41z" />
    <glyph glyph-name="bar" unicode="|" horiz-adv-x="512" 
d="M287 1489v-1929h-62v1929h62z" />
    <glyph glyph-name="braceright" unicode="}" horiz-adv-x="702" 
d="M20 -440v75h46q119 0 177 62.5t58 198.5v395q0 123 43 185.5t145 84.5v4q-102 22 -145 85t-43 186v354q0 136 -58 198t-177 62h-46v76h41q163 0 240.5 -82t77.5 -258v-346q0 -117 57.5 -173.5t194.5 -62.5v-82q-137 -6 -194.5 -62t-57.5 -173v-387q0 -176 -77.5 -258
t-240.5 -82h-41z" />
    <glyph glyph-name="asciitilde" unicode="~" 
d="M373 739q67 0 136 -24t118 -52.5t113 -52.5t122 -24q121 0 250 112l45 -65q-155 -125 -301 -125q-67 0 -136 24t-118 53t-113 53t-122 24q-120 0 -250 -113l-45 65q155 125 301 125z" />
    <glyph glyph-name="exclamdown" unicode="&#xa1;" horiz-adv-x="573" 
d="M205 860v164h164v-164h-164zM244 -410l16 1031h53l17 -1031h-86z" />
    <glyph glyph-name="cent" unicode="&#xa2;" horiz-adv-x="942" 
d="M881 829q-85 42 -149 58t-134 16v-860q71 0 134 16t149 58v-80q-140 -68 -283 -68v-100h-57v102q-199 19 -324 155.5t-125 346.5t125 346.5t324 155.5v112h57v-110q151 0 283 -68v-80zM170 473q0 -182 105 -296t266 -132v856q-161 -18 -266 -132t-105 -296z" />
    <glyph glyph-name="sterling" unicode="&#xa3;" horiz-adv-x="1046" 
d="M242 76v-4h739v-72h-834v82q48 29 77.5 48t69 51.5t61.5 62.5t38.5 71.5t16.5 87.5q0 25 -5.5 52t-11.5 47.5t-20.5 52.5t-22.5 48t-28 53t-27 51h-213v61h182q-65 137 -65 260q0 173 106.5 279t292.5 106q172 0 279.5 -88.5t107.5 -265.5h-78q-9 280 -307 280
q-148 0 -236 -81.5t-88 -231.5q0 -114 72 -258h457v-61h-422q66 -123 83 -177q21 -64 21 -124q0 -52 -16.5 -99t-39.5 -79.5t-59.5 -63.5t-64 -49t-65.5 -39z" />
    <glyph glyph-name="currency" unicode="&#xa4;" 
d="M991 979q121 -134 121 -315q0 -182 -121 -316l121 -123l-41 -39l-121 121q-142 -119 -336 -119q-198 0 -335 121l-123 -123l-39 41l121 121q-121 134 -121 316q0 181 121 315l-121 121l41 41l121 -121q142 119 335 119q194 0 336 -119l121 121l41 -41zM190 664
q0 -172 120 -288t304 -116t304 116t120 288t-120 287.5t-304 115.5t-304 -115.5t-120 -287.5z" />
    <glyph glyph-name="yen" unicode="&#xa5;" horiz-adv-x="995" 
d="M944 1382l-317 -661h299v-62h-328l-55 -114h383v-62h-391v-483h-74v483h-391v62h383l-56 114h-327v62h299l-318 661h88l359 -776l358 776h88z" />
    <glyph glyph-name="brokenbar" unicode="&#xa6;" horiz-adv-x="512" 
d="M287 1489v-795h-62v795h62zM287 371v-811h-62v811h62z" />
    <glyph glyph-name="section" unicode="&#xa7;" horiz-adv-x="1067" 
d="M739 238q181 -89 181 -265q0 -131 -100.5 -215t-278.5 -84q-209 0 -377 111l43 65q88 -52 166 -76t168 -24q142 0 221.5 63t79.5 160q0 71 -41 121.5t-106 78.5t-144 51t-158 50t-144 63.5t-106 102.5t-41 158q0 104 65 180.5t161 122.5q-86 42 -133.5 105t-47.5 159
q0 131 100.5 215t278.5 84q210 0 377 -110l-43 -66q-89 52 -166.5 76.5t-167.5 24.5q-142 0 -221.5 -63.5t-79.5 -160.5q0 -71 41 -121.5t106 -78.5t144 -51t158 -49.5t144 -63t106 -102.5t41 -158q0 -104 -65.5 -181.5t-160.5 -121.5zM180 598q0 -46 14.5 -84t43.5 -65.5
t62 -48.5t81 -39t87.5 -30.5t95.5 -30t93 -30.5q36 16 70 37.5t73 54.5t63 78t24 95q0 54 -22 97.5t-53 70.5t-85 52.5t-97.5 39.5t-111.5 35.5t-108 35.5q-37 -17 -71 -38.5t-73 -55t-62.5 -79t-23.5 -95.5z" />
    <glyph glyph-name="dieresis" unicode="&#xa8;" horiz-adv-x="688" 
d="M209 1413v-225h-107v225h107zM586 1413v-225h-107v225h107z" />
    <glyph glyph-name="copyright" unicode="&#xa9;" horiz-adv-x="1695" 
d="M848 -31q-209 0 -379.5 94.5t-268.5 266t-98 387.5q0 162 57.5 302t157 237t237 152.5t294.5 55.5q209 0 379 -94t268 -265.5t98 -387.5t-98 -387.5t-268 -266t-379 -94.5zM848 31q190 0 345 86t245 243.5t90 356.5t-90 356.5t-245 243.5t-345 86t-345 -86t-245 -243.5
t-90 -356.5t90 -356.5t245 -243.5t345 -86zM850 258q-209 0 -338 129t-129 336t129 336t338 129q170 0 313 -98l-41 -62q-120 86 -274 86q-175 0 -281 -106.5t-106 -284.5t106 -284.5t281 -106.5q154 0 274 86l41 -62q-143 -98 -313 -98z" />
    <glyph glyph-name="ordfeminine" unicode="&#xaa;" horiz-adv-x="849" 
d="M418 692q-137 0 -226.5 92t-89.5 242t89.5 242t226.5 92q86 0 154.5 -38t103.5 -108h4v125h68v-626h-68v125h-4q-35 -70 -103.5 -108t-154.5 -38zM422 762q113 0 187.5 74.5t74.5 189.5t-74.5 189.5t-187.5 74.5q-111 0 -178.5 -73.5t-67.5 -190.5t67.5 -190.5
t178.5 -73.5z" />
    <glyph glyph-name="guillemotleft" unicode="&#xab;" horiz-adv-x="692" 
d="M420 784l-289 -305l289 -305h-98l-281 305l281 305h98zM672 784l-289 -305l289 -305h-99l-280 305l280 305h99z" />
    <glyph glyph-name="logicalnot" unicode="&#xac;" 
d="M145 885h938v-58v-485h-61v485h-877v58z" />
    <glyph glyph-name="uni00AD" unicode="&#xad;" horiz-adv-x="679" 
d="M588 602v-82h-496v82h496z" />
    <glyph glyph-name="registered" unicode="&#xae;" horiz-adv-x="1146" 
d="M573 1464q208 0 339.5 -132t131.5 -343t-131.5 -343t-339.5 -132t-339.5 132t-131.5 343t131.5 343t339.5 132zM573 565q182 0 299 116.5t117 307.5t-117 307.5t-299 116.5t-298.5 -116.5t-116.5 -307.5t116.5 -307.5t298.5 -116.5zM770 1110q0 -65 -37.5 -106.5
t-97.5 -49.5l149 -223h-69l-148 221h-90v-221h-57v533h190q70 0 115 -40.5t45 -113.5zM477 1210v-204h117q57 0 87 28t30 76t-30 74t-87 26h-117z" />
    <glyph glyph-name="macron" unicode="&#xaf;" horiz-adv-x="759" 
d="M657 1331v-69h-555v69h555z" />
    <glyph glyph-name="degree" unicode="&#xb0;" horiz-adv-x="720" 
d="M360 1413q121 0 200 -77.5t79 -200.5t-79 -201t-200 -78t-199.5 77.5t-78.5 201.5q0 123 78.5 200.5t199.5 77.5zM360 1356q-95 0 -157 -61t-62 -160t62 -160.5t157 -61.5t157.5 61.5t62.5 160.5q0 98 -62.5 159.5t-157.5 61.5z" />
    <glyph glyph-name="plusminus" unicode="&#xb1;" 
d="M645 1069v-301h459v-57h-459v-301h-61v301h-459v57h459v301h61zM1104 313v-57h-979v57h979z" />
    <glyph glyph-name="uni00B2" unicode="&#xb2;" horiz-adv-x="710" 
d="M82 713v59l358 381q123 137 123 248q0 78 -51.5 127t-144.5 49q-84 0 -142.5 -43.5t-62.5 -136.5h-74q1 65 25 114.5t64 78.5t88 43t104 14q127 0 197.5 -67t70.5 -179q0 -84 -38 -152t-101 -135l-316 -332h457v-69h-557z" />
    <glyph glyph-name="uni00B3" unicode="&#xb3;" horiz-adv-x="761" 
d="M375 692q-131 0 -210 60.5t-83 177.5h74q19 -168 223 -168q105 0 166 49t61 152q0 110 -70.5 155t-222.5 45v64q55 1 96 8.5t78 25.5t56.5 54t19.5 88q0 174 -188 174q-91 0 -148 -39.5t-61 -116.5h-74q6 101 81 163.5t200 62.5t194.5 -64t69.5 -168q0 -75 -41 -134
t-125 -81v-2q92 -13 150.5 -72.5t58.5 -167.5q0 -115 -76 -190.5t-229 -75.5z" />
    <glyph glyph-name="acute" unicode="&#xb4;" horiz-adv-x="518" 
d="M416 1448l-240 -315h-74l195 315h119z" />
    <glyph glyph-name="paragraph" unicode="&#xb6;" horiz-adv-x="1163" 
d="M1061 1434v-70h-113v-1581h-74v1581h-301v-1581h-73v852q-181 0 -289.5 111.5t-108.5 295.5q0 177 114 284.5t304 107.5h541z" />
    <glyph glyph-name="periodcentered" unicode="&#xb7;" horiz-adv-x="389" 
d="M276 946v-164h-163v164h163z" />
    <glyph glyph-name="cedilla" unicode="&#xb8;" horiz-adv-x="460" 
d="M256 14l-45 -112q32 -8 52 -15.5t45 -22.5t37.5 -40.5t12.5 -61.5q0 -26 -13 -49.5t-30.5 -40.5t-52.5 -37t-59.5 -32t-72.5 -33q-6 -3 -9 -4l-19 39q96 45 137.5 77.5t41.5 69.5t-29.5 54.5t-112.5 35.5l66 172h51z" />
    <glyph glyph-name="uni00B9" unicode="&#xb9;" horiz-adv-x="438" 
d="M205 713v839h-82v74h151v-913h-69z" />
    <glyph glyph-name="ordmasculine" unicode="&#xba;" horiz-adv-x="884" 
d="M442 1360q148 0 244 -92t96 -242t-96 -242t-244 -92t-244 92t-96 242t96 242t244 92zM442 1290q-116 0 -191 -71t-75 -193t75 -193t191 -71t191.5 71.5t75.5 192.5t-75.5 192.5t-191.5 71.5z" />
    <glyph glyph-name="guillemotright" unicode="&#xbb;" horiz-adv-x="692" 
d="M20 784h99l280 -305l-280 -305h-99l289 305zM272 784h99l280 -305l-280 -305h-99l289 305z" />
    <glyph glyph-name="onequarter" unicode="&#xbc;" horiz-adv-x="1179" 
d="M877 1382h73l-809 -1382h-73zM186 592v723h-104v67h170v-790h-66zM1118 217v-59h-90v-158h-65v158h-433v59l414 574h84v-574h90zM604 217h359v488h-5z" />
    <glyph glyph-name="onehalf" unicode="&#xbd;" horiz-adv-x="1234" 
d="M68 0l809 1382h73l-809 -1382h-73zM252 1382v-790h-66v723h-104v67h170zM924 809q116 0 174.5 -57.5t58.5 -149.5q0 -120 -129 -260l-258 -276h393v-66h-489v59l295 320q116 123 116 225q0 60 -41 100.5t-122 40.5q-76 0 -120.5 -41.5t-49.5 -115.5h-72q4 102 70 161.5
t174 59.5z" />
    <glyph glyph-name="threequarters" unicode="&#xbe;" horiz-adv-x="1439" 
d="M594 809q0 -104 -66 -170t-206 -66q-114 0 -184.5 56.5t-76.5 163.5h68q4 -77 60.5 -116.5t132.5 -39.5q94 0 149 41.5t55 130.5q0 52 -19 86.5t-55.5 52t-77 24.5t-95.5 7v63q223 7 223 154q0 141 -176 141q-83 0 -133.5 -36t-53.5 -111h-67q4 103 70 157t186 54
q113 0 177 -52t64 -147q0 -69 -44 -118t-119 -64v-2q87 -9 137.5 -63t50.5 -146zM1137 1382h73l-809 -1382h-73zM1378 217v-59h-90v-158h-65v158h-432v59l413 574h84v-574h90zM864 217h359v488h-4z" />
    <glyph glyph-name="questiondown" unicode="&#xbf;" horiz-adv-x="813" 
d="M385 860v164h164v-164h-164zM430 -440q-185 0 -287 95.5t-102 254.5q0 104 44.5 179.5t127.5 154.5q98 92 127 126q82 96 82 189v62h82v-62q0 -45 -14 -89t-31 -75.5t-54 -74t-61.5 -66.5t-73.5 -70q-143 -136 -143 -278q0 -114 76.5 -191t226.5 -77q153 0 237.5 84
t84.5 227h82q0 -185 -107 -287t-297 -102z" />
    <glyph glyph-name="Agrave" unicode="&#xc0;" horiz-adv-x="1294" 
d="M684 1522h-74l-239 245h118zM1188 0l-170 418h-742l-170 -418h-86l584 1434h86l584 -1434h-86zM309 496h676l-338 831z" />
    <glyph glyph-name="Aacute" unicode="&#xc1;" horiz-adv-x="1294" 
d="M926 1767l-240 -245h-74l195 245h119zM1188 0l-170 418h-742l-170 -418h-86l584 1434h86l584 -1434h-86zM309 496h676l-338 831z" />
    <glyph glyph-name="Acircumflex" unicode="&#xc2;" horiz-adv-x="1294" 
d="M647 1706l-194 -184h-111l256 245h98l256 -245h-110zM1188 0l-170 418h-742l-170 -418h-86l584 1434h86l584 -1434h-86zM309 496h676l-338 831z" />
    <glyph glyph-name="Atilde" unicode="&#xc3;" horiz-adv-x="1294" 
d="M492 1667q-66 0 -109 -98l-55 20q12 30 25 53t34 49t51 40t66 14q48 0 112 -31.5t122 -62.5t91 -31q66 0 109 98l55 -20q-12 -30 -25 -53t-34 -49t-51 -40t-66 -14q-38 0 -87 19.5t-87.5 43t-81 43t-69.5 19.5zM1188 0l-170 418h-742l-170 -418h-86l584 1434h86
l584 -1434h-86zM309 496h676l-338 831z" />
    <glyph glyph-name="Adieresis" unicode="&#xc4;" horiz-adv-x="1294" 
d="M512 1716v-194h-106v194h106zM889 1716v-194h-107v194h107zM1188 0l-170 418h-742l-170 -418h-86l584 1434h86l584 -1434h-86zM309 496h676l-338 831z" />
    <glyph glyph-name="Aring" unicode="&#xc5;" horiz-adv-x="1294" 
d="M1188 0l-170 418h-742l-170 -418h-86l564 1384q-76 19 -123 79.5t-47 142.5q0 100 66 164.5t167 64.5t167.5 -64.5t66.5 -164.5q0 -82 -47 -142.5t-123 -79.5l563 -1384h-86zM475 1606q0 -75 48 -123.5t124 -48.5t124 48.5t48 123.5t-48 123.5t-124 48.5t-124 -48.5
t-48 -123.5zM309 496h676l-338 831z" />
    <glyph glyph-name="AE" unicode="&#xc6;" horiz-adv-x="1882" 
d="M1147 78h633v-78h-699h-16v418h-649l-291 -418h-105l1004 1434h123h622v-78h-622v-510h567v-78h-567v-690zM469 496h596v856z" />
    <glyph glyph-name="Ccedilla" unicode="&#xc7;" horiz-adv-x="1409" 
d="M1337 135q-113 -84 -228.5 -125t-262.5 -41l-27 -67q25 -6 41.5 -11t38.5 -16t35.5 -25t23 -36.5t9.5 -51.5q0 -22 -7 -41t-26 -37t-33.5 -30t-48.5 -29.5t-51.5 -26t-60.5 -27.5q-7 -3 -11 -5l-18 39q96 45 137 77.5t41 69.5t-29 54.5t-112 35.5l49 129
q-326 15 -520.5 220.5t-194.5 525.5q0 219 93 388t267 264t404 95q147 0 262.5 -41t228.5 -125l-51 -69q-101 76 -203.5 114.5t-238.5 38.5q-201 0 -355.5 -85.5t-237.5 -236.5t-83 -343q0 -144 48.5 -267t136 -211t214 -138t277.5 -50q135 0 237.5 39t204.5 115z" />
    <glyph glyph-name="Egrave" unicode="&#xc8;" horiz-adv-x="1054" 
d="M625 1522h-74l-240 245h119zM246 78h706v-78h-788v1434h778v-78h-696v-510h641v-78h-641v-690z" />
    <glyph glyph-name="Eacute" unicode="&#xc9;" horiz-adv-x="1054" 
d="M866 1767l-239 -245h-74l195 245h118zM246 78h706v-78h-788v1434h778v-78h-696v-510h641v-78h-641v-690z" />
    <glyph glyph-name="Ecircumflex" unicode="&#xca;" horiz-adv-x="1054" 
d="M588 1706l-195 -184h-110l256 245h98l256 -245h-111zM246 78h706v-78h-788v1434h778v-78h-696v-510h641v-78h-641v-690z" />
    <glyph glyph-name="Edieresis" unicode="&#xcb;" horiz-adv-x="1054" 
d="M453 1716v-194h-107v194h107zM829 1716v-194h-106v194h106zM246 78h706v-78h-788v1434h778v-78h-696v-510h641v-78h-641v-690z" />
    <glyph glyph-name="Igrave" unicode="&#xcc;" horiz-adv-x="409" 
d="M47 1767l195 -245h-74l-240 245h119zM246 1434v-1434h-82v1434h82z" />
    <glyph glyph-name="Iacute" unicode="&#xcd;" horiz-adv-x="409" 
d="M483 1767l-239 -245h-74l195 245h118zM246 1434v-1434h-82v1434h82z" />
    <glyph glyph-name="Icircumflex" unicode="&#xce;" horiz-adv-x="409" 
d="M254 1767l256 -245h-111l-194 184l-195 -184h-110l256 245h98zM246 1434v-1434h-82v1434h82z" />
    <glyph glyph-name="Idieresis" unicode="&#xcf;" horiz-adv-x="409" 
d="M70 1716v-194h-107v194h107zM446 1716v-194h-106v194h106zM246 1434v-1434h-82v1434h82z" />
    <glyph glyph-name="Eth" unicode="&#xd0;" horiz-adv-x="1417" 
d="M614 1434q156 0 289 -50t228.5 -141t149.5 -226.5t54 -299.5t-54 -299.5t-149.5 -226.5t-228.5 -141t-289 -50h-430v709h-164v71h164v654h430zM614 76q133 0 248 42.5t201.5 122t136 202.5t49.5 274t-49.5 273t-136 201.5t-201.5 122t-248 42.5h-348v-576h447v-71h-447
v-633h348z" />
    <glyph glyph-name="Ntilde" unicode="&#xd1;" horiz-adv-x="1404" 
d="M891 1542q-38 0 -87 19.5t-88 43t-81.5 43t-69.5 19.5q-65 0 -108 -98l-56 20q64 156 177 156q48 0 112 -31.5t122 -62.5t91 -31q66 0 109 98l55 -20q-12 -30 -25 -53t-34 -49t-51 -40t-66 -14zM1241 1434v-1434h-92l-899 1296h-4v-1296h-82v1434h92l899 -1297h4v1297h82
z" />
    <glyph glyph-name="Ograve" unicode="&#xd2;" horiz-adv-x="1658" 
d="M672 1767l194 -245h-73l-240 245h119zM829 1464q211 0 381.5 -94t268.5 -265.5t98 -387.5t-98 -387.5t-268.5 -266t-381.5 -94.5t-381.5 94.5t-268 266t-97.5 387.5q0 162 57 302t156.5 237t237.5 152.5t296 55.5zM829 1382q-142 0 -264.5 -49.5t-210 -136t-137 -211
t-49.5 -268.5q0 -193 85 -345t236 -236.5t340 -84.5q190 0 341 84.5t236 236.5t85 345q0 144 -50 268.5t-137 211t-210 136t-265 49.5z" />
    <glyph glyph-name="Oacute" unicode="&#xd3;" horiz-adv-x="1658" 
d="M1108 1767l-240 -245h-73l194 245h119zM829 1464q211 0 381.5 -94t268.5 -265.5t98 -387.5t-98 -387.5t-268.5 -266t-381.5 -94.5t-381.5 94.5t-268 266t-97.5 387.5q0 162 57 302t156.5 237t237.5 152.5t296 55.5zM829 1382q-142 0 -264.5 -49.5t-210 -136t-137 -211
t-49.5 -268.5q0 -193 85 -345t236 -236.5t340 -84.5q190 0 341 84.5t236 236.5t85 345q0 144 -50 268.5t-137 211t-210 136t-265 49.5z" />
    <glyph glyph-name="Ocircumflex" unicode="&#xd4;" horiz-adv-x="1658" 
d="M879 1767l256 -245h-111l-195 184l-194 -184h-111l256 245h99zM829 1464q211 0 381.5 -94t268.5 -265.5t98 -387.5t-98 -387.5t-268.5 -266t-381.5 -94.5t-381.5 94.5t-268 266t-97.5 387.5q0 162 57 302t156.5 237t237.5 152.5t296 55.5zM829 1382q-142 0 -264.5 -49.5
t-210 -136t-137 -211t-49.5 -268.5q0 -193 85 -345t236 -236.5t340 -84.5q190 0 341 84.5t236 236.5t85 345q0 144 -50 268.5t-137 211t-210 136t-265 49.5z" />
    <glyph glyph-name="Otilde" unicode="&#xd5;" horiz-adv-x="1658" 
d="M999 1542q-38 0 -87 19.5t-87.5 43t-81 43t-69.5 19.5q-66 0 -109 -98l-55 20q12 30 25 53t34 49t51 40t66 14q48 0 112 -31.5t122.5 -62.5t91.5 -31q65 0 108 98l56 -20q-64 -156 -177 -156zM829 1464q211 0 381.5 -94t268.5 -265.5t98 -387.5t-98 -387.5t-268.5 -266
t-381.5 -94.5t-381.5 94.5t-268 266t-97.5 387.5q0 162 57 302t156.5 237t237.5 152.5t296 55.5zM829 1382q-142 0 -264.5 -49.5t-210 -136t-137 -211t-49.5 -268.5q0 -193 85 -345t236 -236.5t340 -84.5q190 0 341 84.5t236 236.5t85 345q0 144 -50 268.5t-137 211
t-210 136t-265 49.5z" />
    <glyph glyph-name="Odieresis" unicode="&#xd6;" horiz-adv-x="1658" 
d="M694 1716v-194h-106v194h106zM1071 1716v-194h-106v194h106zM829 1464q211 0 381.5 -94t268.5 -265.5t98 -387.5t-98 -387.5t-268.5 -266t-381.5 -94.5t-381.5 94.5t-268 266t-97.5 387.5q0 162 57 302t156.5 237t237.5 152.5t296 55.5zM829 1382q-142 0 -264.5 -49.5
t-210 -136t-137 -211t-49.5 -268.5q0 -193 85 -345t236 -236.5t340 -84.5q190 0 341 84.5t236 236.5t85 345q0 144 -50 268.5t-137 211t-210 136t-265 49.5z" />
    <glyph glyph-name="multiply" unicode="&#xd7;" 
d="M999 1038l43 -43l-385 -385l385 -385l-43 -43l-385 385l-385 -385l-43 43l385 385l-385 385l43 43l385 -385z" />
    <glyph glyph-name="Oslash" unicode="&#xd8;" horiz-adv-x="1658" 
d="M1290 1317q135 -100 211 -255t76 -345q0 -216 -98 -387.5t-268.5 -266t-381.5 -94.5q-231 0 -413 115l-80 -113l-49 31l82 115q-135 100 -211 255t-76 345q0 162 57 302t156.5 237t237.5 152.5t296 55.5q234 0 414 -114l80 112l49 -30zM168 717q0 -168 65.5 -306
t182.5 -227l780 1098q-158 100 -367 100q-142 0 -264.5 -49.5t-210 -136t-137 -211t-49.5 -268.5zM829 51q190 0 341 84.5t236 236.5t85 345q0 168 -65.5 305.5t-182.5 226.5l-780 -1097q159 -101 366 -101z" />
    <glyph glyph-name="Ugrave" unicode="&#xd9;" horiz-adv-x="1429" 
d="M557 1767l195 -245h-74l-240 245h119zM1266 1434v-916q0 -163 -61.5 -285.5t-187 -193t-302.5 -70.5t-302.5 70.5t-187 193t-61.5 285.5v916h88v-895q0 -230 124 -358t339 -128t339 128t124 358v895h88z" />
    <glyph glyph-name="Uacute" unicode="&#xda;" horiz-adv-x="1429" 
d="M993 1767l-239 -245h-74l194 245h119zM1266 1434v-916q0 -163 -61.5 -285.5t-187 -193t-302.5 -70.5t-302.5 70.5t-187 193t-61.5 285.5v916h88v-895q0 -230 124 -358t339 -128t339 128t124 358v895h88z" />
    <glyph glyph-name="Ucircumflex" unicode="&#xdb;" horiz-adv-x="1429" 
d="M764 1767l256 -245h-111l-194 184l-195 -184h-110l256 245h98zM1266 1434v-916q0 -163 -61.5 -285.5t-187 -193t-302.5 -70.5t-302.5 70.5t-187 193t-61.5 285.5v916h88v-895q0 -230 124 -358t339 -128t339 128t124 358v895h88z" />
    <glyph glyph-name="Udieresis" unicode="&#xdc;" horiz-adv-x="1429" 
d="M580 1716v-194h-107v194h107zM956 1716v-194h-106v194h106zM1266 1434v-916q0 -163 -61.5 -285.5t-187 -193t-302.5 -70.5t-302.5 70.5t-187 193t-61.5 285.5v916h88v-895q0 -230 124 -358t339 -128t339 128t124 358v895h88z" />
    <glyph glyph-name="Yacute" unicode="&#xdd;" horiz-adv-x="1069" 
d="M813 1767l-240 -245h-73l194 245h119zM1049 1434l-474 -889v-545h-81v545l-474 889h99l413 -797h5l413 797h99z" />
    <glyph glyph-name="Thorn" unicode="&#xde;" horiz-adv-x="1112" 
d="M244 1434v-297h377q187 0 298 -112.5t111 -287.5q0 -182 -114 -298.5t-304 -116.5h-368v-322h-80v1434h80zM621 1059h-377v-660h370q148 0 239 87.5t91 250.5q0 150 -89.5 236t-233.5 86z" />
    <glyph glyph-name="germandbls" unicode="&#xdf;" horiz-adv-x="1067" 
d="M567 821q428 -27 428 -401q0 -210 -133 -320t-393 -110h-143v69h137q455 0 455 361q0 192 -133.5 277t-417.5 85v66q201 0 307 76t106 215q0 117 -72 184.5t-196 67.5q-59 0 -110 -16.5t-93.5 -50.5t-67 -94t-24.5 -140v-1356h-74v1360q0 171 99 270.5t272 99.5
q88 0 156 -27t108 -73t60 -102.5t20 -120.5q0 -125 -74 -208.5t-217 -107.5v-4z" />
    <glyph glyph-name="agrave" unicode="&#xe0;" horiz-adv-x="1173" 
d="M403 1448l195 -315h-74l-239 315h118zM551 -31q-209 0 -344 137.5t-135 366.5t135 366.5t344 137.5q143 0 248.5 -65t163.5 -175h4v209h73v-946h-73v209h-4q-58 -110 -163.5 -175t-248.5 -65zM561 43q186 0 299 120.5t113 309.5t-113 309.5t-299 120.5t-298.5 -120
t-112.5 -310t112.5 -310t298.5 -120z" />
    <glyph glyph-name="aacute" unicode="&#xe1;" horiz-adv-x="1173" 
d="M838 1448l-240 -315h-74l195 315h119zM551 -31q-209 0 -344 137.5t-135 366.5t135 366.5t344 137.5q143 0 248.5 -65t163.5 -175h4v209h73v-946h-73v209h-4q-58 -110 -163.5 -175t-248.5 -65zM561 43q186 0 299 120.5t113 309.5t-113 309.5t-299 120.5t-298.5 -120
t-112.5 -310t112.5 -310t298.5 -120z" />
    <glyph glyph-name="acircumflex" unicode="&#xe2;" horiz-adv-x="1173" 
d="M610 1448l252 -315h-102l-199 256l-199 -256h-102l252 315h98zM551 -31q-209 0 -344 137.5t-135 366.5t135 366.5t344 137.5q143 0 248.5 -65t163.5 -175h4v209h73v-946h-73v209h-4q-58 -110 -163.5 -175t-248.5 -65zM561 43q186 0 299 120.5t113 309.5t-113 309.5
t-299 120.5t-298.5 -120t-112.5 -310t112.5 -310t298.5 -120z" />
    <glyph glyph-name="atilde" unicode="&#xe3;" horiz-adv-x="1173" 
d="M410 1411q48 0 112 -31.5t122 -62.5t91 -31q66 0 109 98l55 -20q-12 -30 -25 -53t-34 -49t-51 -40t-66 -14q-38 0 -87 19.5t-88 43t-81.5 43t-69.5 19.5q-65 0 -108 -98l-56 20q64 156 177 156zM551 -31q-209 0 -344 137.5t-135 366.5t135 366.5t344 137.5
q143 0 248.5 -65t163.5 -175h4v209h73v-946h-73v209h-4q-58 -110 -163.5 -175t-248.5 -65zM561 43q186 0 299 120.5t113 309.5t-113 309.5t-299 120.5t-298.5 -120t-112.5 -310t112.5 -310t298.5 -120z" />
    <glyph glyph-name="adieresis" unicode="&#xe4;" horiz-adv-x="1173" 
d="M426 1413v-225h-107v225h107zM803 1413v-225h-107v225h107zM551 -31q-209 0 -344 137.5t-135 366.5t135 366.5t344 137.5q143 0 248.5 -65t163.5 -175h4v209h73v-946h-73v209h-4q-58 -110 -163.5 -175t-248.5 -65zM561 43q186 0 299 120.5t113 309.5t-113 309.5
t-299 120.5t-298.5 -120t-112.5 -310t112.5 -310t298.5 -120z" />
    <glyph glyph-name="aring" unicode="&#xe5;" horiz-adv-x="1173" 
d="M561 1530q106 0 175 -68t69 -172t-69 -171.5t-175 -67.5t-175 67.5t-69 171.5t69 172t175 68zM561 1473q-84 0 -133 -49.5t-49 -133.5t49 -133t133 -49t133 49t49 133t-49 133.5t-133 49.5zM551 -31q-209 0 -344 137.5t-135 366.5t135 366.5t344 137.5q143 0 248.5 -65
t163.5 -175h4v209h73v-946h-73v209h-4q-58 -110 -163.5 -175t-248.5 -65zM561 43q186 0 299 120.5t113 309.5t-113 309.5t-299 120.5t-298.5 -120t-112.5 -310t112.5 -310t298.5 -120z" />
    <glyph glyph-name="ae" unicode="&#xe6;" horiz-adv-x="1855" 
d="M446 -31q-177 0 -286 93.5t-109 252.5q0 156 106.5 252.5t286.5 96.5q129 0 228.5 -54t150.5 -164h4v144q0 156 -85 234.5t-246 78.5q-134 0 -316 -45l-18 78q174 41 330 41q342 0 397 -270h4q54 127 169 198.5t265 71.5q114 0 204 -42.5t144 -113t81.5 -155.5t27.5 -177
v-20h-858q0 -191 115 -308.5t298 -117.5q68 0 126 17.5t103.5 50t76 63t63.5 72.5l57 -47q-161 -230 -426 -230q-165 0 -286.5 84t-171.5 228h-4q-40 -147 -153 -229.5t-278 -82.5zM928 539h774q-15 170 -113.5 267t-263.5 97q-160 0 -270 -95.5t-127 -268.5zM453 43
q158 0 250 79.5t92 192.5q0 123 -101.5 199t-244.5 76q-145 0 -232.5 -77.5t-87.5 -201.5t87 -196t237 -72z" />
    <glyph glyph-name="ccedilla" unicode="&#xe7;" horiz-adv-x="960" 
d="M899 61q-142 -86 -295 -92l-26 -67q32 -8 52 -15.5t45 -22.5t37.5 -40.5t12.5 -61.5q0 -22 -7 -41t-26 -37t-33.5 -30t-48.5 -29.5t-51.5 -26t-60.5 -27.5q-7 -3 -11 -5l-18 39q96 45 137 77.5t41 69.5t-29 54.5t-112 35.5l49 127q-217 7 -350 146.5t-133 357.5
q0 224 140 364t366 140q167 0 321 -92l-39 -68q-148 86 -287 86q-125 0 -223 -59t-149 -156.5t-51 -214.5t51 -214.5t149 -156.5t223 -59q139 0 287 86z" />
    <glyph glyph-name="egrave" unicode="&#xe8;" horiz-adv-x="1077" 
d="M391 1448l195 -315h-74l-240 315h119zM549 977q98 0 176.5 -27.5t130 -73.5t86 -109.5t49.5 -132.5t15 -145v-20h-859q0 -198 113 -312t301 -114q59 0 110.5 13t86.5 30.5t70 48t55 53.5t47 58l57 -45q-30 -45 -63 -80t-84 -72.5t-122.5 -58.5t-156.5 -21
q-223 0 -356 137.5t-133 364.5q0 238 134 372t343 134zM547 903q-103 0 -188 -40t-142 -124t-67 -200h774q-14 173 -109.5 268.5t-267.5 95.5z" />
    <glyph glyph-name="eacute" unicode="&#xe9;" horiz-adv-x="1077" 
d="M825 1448l-239 -315h-74l195 315h118zM549 977q98 0 176.5 -27.5t130 -73.5t86 -109.5t49.5 -132.5t15 -145v-20h-859q0 -198 113 -312t301 -114q59 0 110.5 13t86.5 30.5t70 48t55 53.5t47 58l57 -45q-30 -45 -63 -80t-84 -72.5t-122.5 -58.5t-156.5 -21
q-223 0 -356 137.5t-133 364.5q0 238 134 372t343 134zM547 903q-103 0 -188 -40t-142 -124t-67 -200h774q-14 173 -109.5 268.5t-267.5 95.5z" />
    <glyph glyph-name="ecircumflex" unicode="&#xea;" horiz-adv-x="1077" 
d="M598 1448l252 -315h-102l-199 256l-199 -256h-102l252 315h98zM549 977q98 0 176.5 -27.5t130 -73.5t86 -109.5t49.5 -132.5t15 -145v-20h-859q0 -198 113 -312t301 -114q59 0 110.5 13t86.5 30.5t70 48t55 53.5t47 58l57 -45q-30 -45 -63 -80t-84 -72.5t-122.5 -58.5
t-156.5 -21q-223 0 -356 137.5t-133 364.5q0 238 134 372t343 134zM547 903q-103 0 -188 -40t-142 -124t-67 -200h774q-14 173 -109.5 268.5t-267.5 95.5z" />
    <glyph glyph-name="edieresis" unicode="&#xeb;" horiz-adv-x="1077" 
d="M414 1413v-225h-107v225h107zM791 1413v-225h-107v225h107zM549 977q98 0 176.5 -27.5t130 -73.5t86 -109.5t49.5 -132.5t15 -145v-20h-859q0 -198 113 -312t301 -114q59 0 110.5 13t86.5 30.5t70 48t55 53.5t47 58l57 -45q-30 -45 -63 -80t-84 -72.5t-122.5 -58.5
t-156.5 -21q-223 0 -356 137.5t-133 364.5q0 238 134 372t343 134zM547 903q-103 0 -188 -40t-142 -124t-67 -200h774q-14 173 -109.5 268.5t-267.5 95.5z" />
    <glyph glyph-name="igrave" unicode="&#xec;" horiz-adv-x="339" 
d="M94 1448l113 -315h-74l-137 315h98zM133 0v946h74v-946h-74z" />
    <glyph glyph-name="iacute" unicode="&#xed;" horiz-adv-x="339" 
d="M133 1133l113 315h98l-137 -315h-74zM133 0v946h74v-946h-74z" />
    <glyph glyph-name="icircumflex" unicode="&#xee;" horiz-adv-x="339" 
d="M219 1448l143 -315h-86l-106 264l-107 -264h-86l144 315h98zM133 0v946h74v-946h-74z" />
    <glyph glyph-name="idieresis" unicode="&#xef;" horiz-adv-x="339" 
d="M117 1413v-225h-107v225h107zM330 1413v-225h-107v225h107zM133 0v946h74v-946h-74z" />
    <glyph glyph-name="eth" unicode="&#xf0;" horiz-adv-x="1193" 
d="M778 1378q324 -244 324 -755q0 -143 -30 -257t-80 -187t-118.5 -121.5t-141.5 -68.5t-154 -20q-232 0 -369 143.5t-137 364.5q0 152 67.5 267t181 174t254.5 59q182 0 298.5 -94.5t156.5 -274.5h8q0 488 -317 719l-209 -190l-45 45l201 182q-161 94 -373 131l16 70
q245 -44 414 -150l158 144l41 -48zM580 43q185 0 299 112.5t114 299.5q0 205 -115 326.5t-303 121.5q-190 0 -307.5 -117.5t-117.5 -310.5q0 -195 121 -313.5t309 -118.5z" />
    <glyph glyph-name="ntilde" unicode="&#xf1;" horiz-adv-x="1101" 
d="M416 1411q48 0 112 -31.5t122 -62.5t91 -31q66 0 109 98l55 -20q-12 -30 -25 -53t-34 -49t-51 -40t-66 -14q-38 0 -87 19.5t-88 43t-81.5 43t-69.5 19.5q-65 0 -108 -98l-55 20q12 30 25 53t34 49t51 40t66 14zM596 977q174 0 273.5 -102.5t99.5 -307.5v-567h-74v567
q0 169 -83 252.5t-220 83.5q-58 0 -110 -14.5t-101.5 -50t-85 -90t-57 -140t-21.5 -194.5v-414h-74v946h72v-237h4q47 133 143 200.5t234 67.5z" />
    <glyph glyph-name="ograve" unicode="&#xf2;" horiz-adv-x="1150" 
d="M418 1448l194 -315h-73l-240 315h119zM575 977q222 0 363 -141t141 -363t-141 -363t-363 -141q-221 0 -362 140.5t-141 363.5t141 363.5t362 140.5zM575 903q-182 0 -303.5 -119.5t-121.5 -310.5t121.5 -310.5t303.5 -119.5t304 120t122 310t-122 310t-304 120z" />
    <glyph glyph-name="oacute" unicode="&#xf3;" horiz-adv-x="1150" 
d="M852 1448l-240 -315h-73l194 315h119zM575 977q222 0 363 -141t141 -363t-141 -363t-363 -141q-221 0 -362 140.5t-141 363.5t141 363.5t362 140.5zM575 903q-182 0 -303.5 -119.5t-121.5 -310.5t121.5 -310.5t303.5 -119.5t304 120t122 310t-122 310t-304 120z" />
    <glyph glyph-name="ocircumflex" unicode="&#xf4;" horiz-adv-x="1150" 
d="M625 1448l252 -315h-103l-199 256l-198 -256h-103l252 315h99zM575 977q222 0 363 -141t141 -363t-141 -363t-363 -141q-221 0 -362 140.5t-141 363.5t141 363.5t362 140.5zM575 903q-182 0 -303.5 -119.5t-121.5 -310.5t121.5 -310.5t303.5 -119.5t304 120t122 310
t-122 310t-304 120z" />
    <glyph glyph-name="otilde" unicode="&#xf5;" horiz-adv-x="1150" 
d="M424 1411q48 0 112 -31.5t122.5 -62.5t91.5 -31q65 0 108 98l55 -20q-12 -30 -25 -53t-34 -49t-51 -40t-66 -14q-38 0 -87 19.5t-87.5 43t-81 43t-69.5 19.5q-66 0 -109 -98l-55 20q12 30 25 53t34 49t51 40t66 14zM575 977q222 0 363 -141t141 -363t-141 -363t-363 -141
q-221 0 -362 140.5t-141 363.5t141 363.5t362 140.5zM575 903q-182 0 -303.5 -119.5t-121.5 -310.5t121.5 -310.5t303.5 -119.5t304 120t122 310t-122 310t-304 120z" />
    <glyph glyph-name="odieresis" unicode="&#xf6;" horiz-adv-x="1150" 
d="M440 1413v-225h-106v225h106zM817 1413v-225h-106v225h106zM575 977q222 0 363 -141t141 -363t-141 -363t-363 -141q-221 0 -362 140.5t-141 363.5t141 363.5t362 140.5zM575 903q-182 0 -303.5 -119.5t-121.5 -310.5t121.5 -310.5t303.5 -119.5t304 120t122 310
t-122 310t-304 120z" />
    <glyph glyph-name="divide" unicode="&#xf7;" 
d="M674 983v-143h-119v143h119zM1145 639v-57h-1061v57h1061zM674 381v-145h-119v145h119z" />
    <glyph glyph-name="oslash" unicode="&#xf8;" horiz-adv-x="1150" 
d="M938 838q141 -144 141 -365q0 -222 -141 -363t-363 -141q-176 0 -307 92l-78 -90l-43 37l78 90q-153 143 -153 375q0 223 141 363.5t362 140.5q185 0 318 -100l86 100l45 -39zM150 473q0 -192 126 -315l566 659q-116 86 -267 86q-182 0 -303.5 -119.5t-121.5 -310.5z
M575 43q182 0 304 120t122 310q0 187 -116 303l-566 -653q113 -80 256 -80z" />
    <glyph glyph-name="ugrave" unicode="&#xf9;" horiz-adv-x="1077" 
d="M377 1448l194 -315h-73l-240 315h119zM492 -31q-164 0 -261.5 100.5t-97.5 307.5v569h74v-577q0 -168 80.5 -247t212.5 -79q59 0 110 15.5t98 52.5t80 94t52.5 146t19.5 202v393h74v-946h-72v221h-4q-19 -51 -48 -93.5t-72 -79.5t-106 -58t-140 -21z" />
    <glyph glyph-name="uacute" unicode="&#xfa;" horiz-adv-x="1077" 
d="M811 1448l-240 -315h-73l194 315h119zM492 -31q-164 0 -261.5 100.5t-97.5 307.5v569h74v-577q0 -168 80.5 -247t212.5 -79q59 0 110 15.5t98 52.5t80 94t52.5 146t19.5 202v393h74v-946h-72v221h-4q-19 -51 -48 -93.5t-72 -79.5t-106 -58t-140 -21z" />
    <glyph glyph-name="ucircumflex" unicode="&#xfb;" horiz-adv-x="1077" 
d="M584 1448l252 -315h-103l-198 256l-199 -256h-103l252 315h99zM492 -31q-164 0 -261.5 100.5t-97.5 307.5v569h74v-577q0 -168 80.5 -247t212.5 -79q59 0 110 15.5t98 52.5t80 94t52.5 146t19.5 202v393h74v-946h-72v221h-4q-19 -51 -48 -93.5t-72 -79.5t-106 -58
t-140 -21z" />
    <glyph glyph-name="udieresis" unicode="&#xfc;" horiz-adv-x="1077" 
d="M399 1413v-225h-106v225h106zM776 1413v-225h-106v225h106zM492 -31q-164 0 -261.5 100.5t-97.5 307.5v569h74v-577q0 -168 80.5 -247t212.5 -79q59 0 110 15.5t98 52.5t80 94t52.5 146t19.5 202v393h74v-946h-72v221h-4q-19 -51 -48 -93.5t-72 -79.5t-106 -58t-140 -21z
" />
    <glyph glyph-name="yacute" unicode="&#xfd;" horiz-adv-x="907" 
d="M731 1448l-239 -315h-74l194 315h119zM801 946h86l-658 -1356h-82l263 525l-390 831h86l340 -756z" />
    <glyph glyph-name="thorn" unicode="&#xfe;" horiz-adv-x="1183" 
d="M143 -410v1844h74v-697h4q58 110 163.5 175t248.5 65q209 0 344 -137.5t135 -366.5t-135 -366.5t-344 -137.5q-143 0 -248.5 65t-163.5 175h-4v-619h-74zM623 43q186 0 298.5 120t112.5 310t-112.5 310t-298.5 120t-299 -120.5t-113 -309.5t113 -309.5t299 -120.5z" />
    <glyph glyph-name="ydieresis" unicode="&#xff;" horiz-adv-x="907" 
d="M319 1413v-225h-106v225h106zM696 1413v-225h-106v225h106zM801 946h86l-658 -1356h-82l263 525l-390 831h86l340 -756z" />
    <glyph glyph-name="Amacron" unicode="&#x100;" horiz-adv-x="1294" 
d="M924 1686v-70h-555v70h555zM1188 0l-170 418h-742l-170 -418h-86l584 1434h86l584 -1434h-86zM309 496h676l-338 831z" />
    <glyph glyph-name="amacron" unicode="&#x101;" horiz-adv-x="1173" 
d="M838 1331v-69h-555v69h555zM551 -31q-209 0 -344 137.5t-135 366.5t135 366.5t344 137.5q143 0 248.5 -65t163.5 -175h4v209h73v-946h-73v209h-4q-58 -110 -163.5 -175t-248.5 -65zM561 43q186 0 299 120.5t113 309.5t-113 309.5t-299 120.5t-298.5 -120t-112.5 -310
t112.5 -310t298.5 -120z" />
    <glyph glyph-name="Abreve" unicode="&#x102;" horiz-adv-x="1294" 
d="M647 1522q-125 0 -201.5 64.5t-76.5 180.5h69q3 -84 58 -131t151 -47t151 47t58 131h70q0 -116 -77 -180.5t-202 -64.5zM1188 0l-170 418h-742l-170 -418h-86l584 1434h86l584 -1434h-86zM309 496h676l-338 831z" />
    <glyph glyph-name="abreve" unicode="&#x103;" horiz-adv-x="1173" 
d="M840 1434q0 -134 -77.5 -210.5t-201.5 -76.5t-201 76.5t-77 210.5h69q3 -103 58.5 -161.5t150.5 -58.5t150.5 58.5t58.5 161.5h70zM551 -31q-209 0 -344 137.5t-135 366.5t135 366.5t344 137.5q143 0 248.5 -65t163.5 -175h4v209h73v-946h-73v209h-4
q-58 -110 -163.5 -175t-248.5 -65zM561 43q186 0 299 120.5t113 309.5t-113 309.5t-299 120.5t-298.5 -120t-112.5 -310t112.5 -310t298.5 -120z" />
    <glyph glyph-name="Aogonek" unicode="&#x104;" horiz-adv-x="1294" 
d="M1126 -313q53 0 107 14l4 -66q-63 -18 -119 -18q-74 0 -126 33.5t-52 99.5q0 138 231 291l-153 377h-742l-170 -418h-86l584 1434h86l584 -1434h-62q-196 -142 -196 -238q0 -75 110 -75zM309 496h676l-338 831z" />
    <glyph glyph-name="aogonek" unicode="&#x105;" horiz-adv-x="1173" 
d="M997 0q-196 -142 -196 -238q0 -75 110 -75q53 0 107 14l4 -66q-63 -18 -119 -18q-74 0 -126 33.5t-52 99.5q0 139 242 299v160h-4q-58 -110 -163.5 -175t-248.5 -65q-209 0 -344 137.5t-135 366.5t135 366.5t344 137.5q143 0 248.5 -65t163.5 -175h4v209h73v-946h-43z
M561 43q186 0 299 120.5t113 309.5t-113 309.5t-299 120.5t-298.5 -120t-112.5 -310t112.5 -310t298.5 -120z" />
    <glyph glyph-name="Cacute" unicode="&#x106;" horiz-adv-x="1409" 
d="M1122 1767l-239 -245h-74l195 245h118zM846 -31q-230 0 -404 95t-267 264.5t-93 388.5t93 388t267 264t404 95q147 0 262.5 -41t228.5 -125l-51 -69q-101 76 -203.5 114.5t-238.5 38.5q-201 0 -355.5 -85.5t-237.5 -236.5t-83 -343q0 -144 48.5 -267t136 -211t214 -138
t277.5 -50q135 0 237.5 39t204.5 115l51 -70q-113 -84 -228.5 -125t-262.5 -41z" />
    <glyph glyph-name="cacute" unicode="&#x107;" horiz-adv-x="960" 
d="M844 1448l-240 -315h-74l195 315h119zM578 -31q-226 0 -366 140t-140 364t140 364t366 140q167 0 321 -92l-39 -68q-148 86 -287 86q-125 0 -223 -59t-149 -156.5t-51 -214.5t51 -214.5t149 -156.5t223 -59q139 0 287 86l39 -68q-154 -92 -321 -92z" />
    <glyph glyph-name="Ccircumflex" unicode="&#x108;" horiz-adv-x="1409" 
d="M893 1767l256 -245h-111l-194 184l-195 -184h-110l256 245h98zM846 -31q-230 0 -404 95t-267 264.5t-93 388.5t93 388t267 264t404 95q147 0 262.5 -41t228.5 -125l-51 -69q-101 76 -203.5 114.5t-238.5 38.5q-201 0 -355.5 -85.5t-237.5 -236.5t-83 -343
q0 -144 48.5 -267t136 -211t214 -138t277.5 -50q135 0 237.5 39t204.5 115l51 -70q-113 -84 -228.5 -125t-262.5 -41z" />
    <glyph glyph-name="ccircumflex" unicode="&#x109;" horiz-adv-x="960" 
d="M616 1448l252 -315h-102l-199 256l-198 -256h-103l252 315h98zM578 -31q-226 0 -366 140t-140 364t140 364t366 140q167 0 321 -92l-39 -68q-148 86 -287 86q-125 0 -223 -59t-149 -156.5t-51 -214.5t51 -214.5t149 -156.5t223 -59q139 0 287 86l39 -68
q-154 -92 -321 -92z" />
    <glyph glyph-name="Cdotaccent" unicode="&#x10a;" horiz-adv-x="1409" 
d="M897 1747v-225h-106v225h106zM846 -31q-230 0 -404 95t-267 264.5t-93 388.5t93 388t267 264t404 95q147 0 262.5 -41t228.5 -125l-51 -69q-101 76 -203.5 114.5t-238.5 38.5q-201 0 -355.5 -85.5t-237.5 -236.5t-83 -343q0 -144 48.5 -267t136 -211t214 -138t277.5 -50
q135 0 237.5 39t204.5 115l51 -70q-113 -84 -228.5 -125t-262.5 -41z" />
    <glyph glyph-name="cdotaccent" unicode="&#x10b;" horiz-adv-x="960" 
d="M621 1413v-246h-107v246h107zM578 -31q-226 0 -366 140t-140 364t140 364t366 140q167 0 321 -92l-39 -68q-148 86 -287 86q-125 0 -223 -59t-149 -156.5t-51 -214.5t51 -214.5t149 -156.5t223 -59q139 0 287 86l39 -68q-154 -92 -321 -92z" />
    <glyph glyph-name="Ccaron" unicode="&#x10c;" horiz-adv-x="1409" 
d="M893 1522h-98l-256 245h110l195 -184l194 184h111zM846 -31q-230 0 -404 95t-267 264.5t-93 388.5t93 388t267 264t404 95q147 0 262.5 -41t228.5 -125l-51 -69q-101 76 -203.5 114.5t-238.5 38.5q-201 0 -355.5 -85.5t-237.5 -236.5t-83 -343q0 -144 48.5 -267t136 -211
t214 -138t277.5 -50q135 0 237.5 39t204.5 115l51 -70q-113 -84 -228.5 -125t-262.5 -41z" />
    <glyph glyph-name="ccaron" unicode="&#x10d;" horiz-adv-x="960" 
d="M889 1434l-273 -316h-98l-272 316h102l219 -256l219 256h103zM578 -31q-226 0 -366 140t-140 364t140 364t366 140q167 0 321 -92l-39 -68q-148 86 -287 86q-125 0 -223 -59t-149 -156.5t-51 -214.5t51 -214.5t149 -156.5t223 -59q139 0 287 86l39 -68q-154 -92 -321 -92
z" />
    <glyph glyph-name="Dcaron" unicode="&#x10e;" horiz-adv-x="1396" 
d="M647 1522h-98l-256 245h110l195 -184l195 184h110zM594 1434q156 0 289 -50t228.5 -141t149.5 -226.5t54 -299.5t-54 -299.5t-149.5 -226.5t-228.5 -141t-289 -50h-430v1434h430zM594 1356h-348v-1280h348q133 0 248 42.5t201.5 122t136 202.5t49.5 274t-49.5 273
t-136 201.5t-201.5 122t-248 42.5z" />
    <glyph glyph-name="dcaron" unicode="&#x10f;" horiz-adv-x="1320" 
d="M1171 1464h150v-149l-127 -291h-53l96 291h-66v149zM967 737v697h73v-1434h-73v209h-4q-58 -110 -163.5 -175t-248.5 -65q-209 0 -344 137.5t-135 366.5t135 366.5t344 137.5q143 0 248.5 -65t163.5 -175h4zM561 43q186 0 299 120.5t113 309.5t-113 309.5t-299 120.5
t-298.5 -120t-112.5 -310t112.5 -310t298.5 -120z" />
    <glyph glyph-name="Dcroat" unicode="&#x110;" horiz-adv-x="1417" 
d="M614 1434q156 0 289 -50t228.5 -141t149.5 -226.5t54 -299.5t-54 -299.5t-149.5 -226.5t-228.5 -141t-289 -50h-430v709h-164v71h164v654h430zM614 76q133 0 248 42.5t201.5 122t136 202.5t49.5 274t-49.5 273t-136 201.5t-201.5 122t-248 42.5h-348v-576h447v-71h-447
v-633h348z" />
    <glyph glyph-name="dcroat" unicode="&#x111;" horiz-adv-x="1163" 
d="M1163 1247v-61h-123v-1186h-73v209h-4q-58 -110 -163.5 -175t-248.5 -65q-209 0 -344 137.5t-135 366.5t135 366.5t344 137.5q143 0 248.5 -65t163.5 -175h4v449h-297v61h297v187h73v-187h123zM561 43q186 0 299 120.5t113 309.5t-113 309.5t-299 120.5t-298.5 -120
t-112.5 -310t112.5 -310t298.5 -120z" />
    <glyph glyph-name="Emacron" unicode="&#x112;" horiz-adv-x="1054" 
d="M864 1686v-70h-555v70h555zM246 78h706v-78h-788v1434h778v-78h-696v-510h641v-78h-641v-690z" />
    <glyph glyph-name="emacron" unicode="&#x113;" horiz-adv-x="1077" 
d="M825 1331v-69h-555v69h555zM549 977q98 0 176.5 -27.5t130 -73.5t86 -109.5t49.5 -132.5t15 -145v-20h-859q0 -198 113 -312t301 -114q59 0 110.5 13t86.5 30.5t70 48t55 53.5t47 58l57 -45q-30 -45 -63 -80t-84 -72.5t-122.5 -58.5t-156.5 -21q-223 0 -356 137.5
t-133 364.5q0 238 134 372t343 134zM547 903q-103 0 -188 -40t-142 -124t-67 -200h774q-14 173 -109.5 268.5t-267.5 95.5z" />
    <glyph glyph-name="Ebreve" unicode="&#x114;" horiz-adv-x="1054" 
d="M588 1522q-125 0 -202 64.5t-77 180.5h70q3 -84 58 -131t151 -47t151 47t58 131h69q0 -116 -76.5 -180.5t-201.5 -64.5zM246 78h706v-78h-788v1434h778v-78h-696v-510h641v-78h-641v-690z" />
    <glyph glyph-name="ebreve" unicode="&#x115;" horiz-adv-x="1077" 
d="M827 1434q0 -134 -77 -210.5t-201 -76.5t-201.5 76.5t-77.5 210.5h70q3 -103 58.5 -161.5t150.5 -58.5t150.5 58.5t58.5 161.5h69zM549 977q98 0 176.5 -27.5t130 -73.5t86 -109.5t49.5 -132.5t15 -145v-20h-859q0 -198 113 -312t301 -114q59 0 110.5 13t86.5 30.5t70 48
t55 53.5t47 58l57 -45q-30 -45 -63 -80t-84 -72.5t-122.5 -58.5t-156.5 -21q-223 0 -356 137.5t-133 364.5q0 238 134 372t343 134zM547 903q-103 0 -188 -40t-142 -124t-67 -200h774q-14 173 -109.5 268.5t-267.5 95.5z" />
    <glyph glyph-name="Edotaccent" unicode="&#x116;" horiz-adv-x="1054" 
d="M641 1747v-225h-106v225h106zM246 78h706v-78h-788v1434h778v-78h-696v-510h641v-78h-641v-690z" />
    <glyph glyph-name="edotaccent" unicode="&#x117;" horiz-adv-x="1077" 
d="M602 1413v-246h-106v246h106zM549 977q98 0 176.5 -27.5t130 -73.5t86 -109.5t49.5 -132.5t15 -145v-20h-859q0 -198 113 -312t301 -114q59 0 110.5 13t86.5 30.5t70 48t55 53.5t47 58l57 -45q-30 -45 -63 -80t-84 -72.5t-122.5 -58.5t-156.5 -21q-223 0 -356 137.5
t-133 364.5q0 238 134 372t343 134zM547 903q-103 0 -188 -40t-142 -124t-67 -200h774q-14 173 -109.5 268.5t-267.5 95.5z" />
    <glyph glyph-name="Eogonek" unicode="&#x118;" horiz-adv-x="1054" 
d="M913 0q-196 -142 -196 -238q0 -75 110 -75q53 0 107 14l4 -66q-63 -18 -119 -18q-74 0 -126 33.5t-52 99.5q0 117 174 250h-651v1434h778v-78h-696v-510h641v-78h-641v-690h706v-78h-39z" />
    <glyph glyph-name="eogonek" unicode="&#x119;" horiz-adv-x="1077" 
d="M1006 489v-20h-859q0 -198 113 -312t301 -114q59 0 110.5 13t86.5 30.5t70 48t55 53.5t47 58l57 -45q-89 -130 -203 -185q-110 -78 -164.5 -139t-54.5 -115q0 -75 111 -75q52 0 106 14l4 -66q-63 -18 -118 -18q-75 0 -127 33.5t-52 99.5q0 102 142 223q-46 -4 -70 -4
q-223 0 -356 137.5t-133 364.5q0 238 134 372t343 134q98 0 176.5 -27.5t130 -73.5t86 -109.5t49.5 -132.5t15 -145zM150 539h774q-14 173 -109.5 268.5t-267.5 95.5q-103 0 -188 -40t-142 -124t-67 -200z" />
    <glyph glyph-name="Ecaron" unicode="&#x11a;" horiz-adv-x="1054" 
d="M637 1522h-98l-256 245h110l195 -184l194 184h111zM246 78h706v-78h-788v1434h778v-78h-696v-510h641v-78h-641v-690z" />
    <glyph glyph-name="ecaron" unicode="&#x11b;" horiz-adv-x="1077" 
d="M870 1434l-272 -316h-98l-273 316h103l219 -256l219 256h102zM549 977q98 0 176.5 -27.5t130 -73.5t86 -109.5t49.5 -132.5t15 -145v-20h-859q0 -198 113 -312t301 -114q59 0 110.5 13t86.5 30.5t70 48t55 53.5t47 58l57 -45q-30 -45 -63 -80t-84 -72.5t-122.5 -58.5
t-156.5 -21q-223 0 -356 137.5t-133 364.5q0 238 134 372t343 134zM547 903q-103 0 -188 -40t-142 -124t-67 -200h774q-14 173 -109.5 268.5t-267.5 95.5z" />
    <glyph glyph-name="Gcircumflex" unicode="&#x11c;" horiz-adv-x="1638" 
d="M836 1706l-195 -184h-111l256 245h99l256 -245h-111zM913 727h654v-35q0 -103 -26 -203.5t-84 -195t-141 -166t-206 -115t-270 -43.5q-220 0 -393 94t-269 264t-96 386t95.5 387.5t268 267.5t390.5 96q167 0 293 -48t251 -140l-55 -72q-112 84 -226 131t-265 47
q-188 0 -340 -85.5t-239 -239t-87 -344.5q0 -140 49 -262t135.5 -210.5t213 -139t274.5 -50.5q111 0 207 28t164 76t120.5 108t84 128.5t48 133t17.5 124.5h-568v78z" />
    <glyph glyph-name="gcircumflex" unicode="&#x11d;" horiz-adv-x="1173" 
d="M641 1448l252 -315h-102l-199 256l-199 -256h-102l252 315h98zM612 -440q-192 0 -364 41l18 75q193 -43 348 -43q353 0 353 353v223h-4q-58 -110 -163.5 -175t-248.5 -65q-209 0 -344 137.5t-135 366.5t135 366.5t344 137.5q143 0 248.5 -65t163.5 -175h4v209h73v-946
q0 -107 -23 -186.5t-61 -127t-95 -77t-116 -39.5t-133 -10zM561 43q186 0 299 120.5t113 309.5t-113 309.5t-299 120.5t-298.5 -120t-112.5 -310t112.5 -310t298.5 -120z" />
    <glyph glyph-name="Gbreve" unicode="&#x11e;" horiz-adv-x="1638" 
d="M836 1522q-125 0 -202 64.5t-77 180.5h70q3 -84 58 -131t151 -47q95 0 150 46.5t58 131.5h70q0 -116 -76.5 -180.5t-201.5 -64.5zM913 727h654v-35q0 -103 -26 -203.5t-84 -195t-141 -166t-206 -115t-270 -43.5q-220 0 -393 94t-269 264t-96 386t95.5 387.5t268 267.5
t390.5 96q167 0 293 -48t251 -140l-55 -72q-112 84 -226 131t-265 47q-188 0 -340 -85.5t-239 -239t-87 -344.5q0 -140 49 -262t135.5 -210.5t213 -139t274.5 -50.5q111 0 207 28t164 76t120.5 108t84 128.5t48 133t17.5 124.5h-568v78z" />
    <glyph glyph-name="gbreve" unicode="&#x11f;" horiz-adv-x="1173" 
d="M870 1434q0 -134 -77 -210.5t-201 -76.5t-201.5 76.5t-77.5 210.5h70q3 -103 58.5 -161.5t150.5 -58.5t150.5 58.5t58.5 161.5h69zM612 -440q-192 0 -364 41l18 75q193 -43 348 -43q353 0 353 353v223h-4q-58 -110 -163.5 -175t-248.5 -65q-209 0 -344 137.5t-135 366.5
t135 366.5t344 137.5q143 0 248.5 -65t163.5 -175h4v209h73v-946q0 -107 -23 -186.5t-61 -127t-95 -77t-116 -39.5t-133 -10zM561 43q186 0 299 120.5t113 309.5t-113 309.5t-299 120.5t-298.5 -120t-112.5 -310t112.5 -310t298.5 -120z" />
    <glyph glyph-name="Gdotaccent" unicode="&#x120;" horiz-adv-x="1638" 
d="M889 1747v-225h-107v225h107zM913 727h654v-35q0 -103 -26 -203.5t-84 -195t-141 -166t-206 -115t-270 -43.5q-220 0 -393 94t-269 264t-96 386t95.5 387.5t268 267.5t390.5 96q167 0 293 -48t251 -140l-55 -72q-112 84 -226 131t-265 47q-188 0 -340 -85.5t-239 -239
t-87 -344.5q0 -140 49 -262t135.5 -210.5t213 -139t274.5 -50.5q111 0 207 28t164 76t120.5 108t84 128.5t48 133t17.5 124.5h-568v78z" />
    <glyph glyph-name="gdotaccent" unicode="&#x121;" horiz-adv-x="1173" 
d="M645 1413v-246h-106v246h106zM612 -440q-192 0 -364 41l18 75q193 -43 348 -43q353 0 353 353v223h-4q-58 -110 -163.5 -175t-248.5 -65q-209 0 -344 137.5t-135 366.5t135 366.5t344 137.5q143 0 248.5 -65t163.5 -175h4v209h73v-946q0 -107 -23 -186.5t-61 -127
t-95 -77t-116 -39.5t-133 -10zM561 43q186 0 299 120.5t113 309.5t-113 309.5t-299 120.5t-298.5 -120t-112.5 -310t112.5 -310t298.5 -120z" />
    <glyph glyph-name="Gcommaaccent" unicode="&#x122;" horiz-adv-x="1638" 
d="M913 727h654v-35q0 -103 -26 -203.5t-84 -195t-141 -166t-206 -115t-270 -43.5q-220 0 -393 94t-269 264t-96 386t95.5 387.5t268 267.5t390.5 96q167 0 293 -48t251 -140l-55 -72q-112 84 -226 131t-265 47q-188 0 -340 -85.5t-239 -239t-87 -344.5q0 -140 49 -262
t135.5 -210.5t213 -139t274.5 -50.5q111 0 207 28t164 76t120.5 108t84 128.5t48 133t17.5 124.5h-568v78zM780 -246v150h150v-150l-123 -164h-45l86 164h-68z" />
    <glyph glyph-name="gcommaaccent" unicode="&#x123;" horiz-adv-x="1173" 
d="M653 1255v-149h-149v149l123 164h45l-86 -164h67zM967 946h73v-946q0 -107 -23 -186.5t-61 -127t-95 -77t-116 -39.5t-133 -10q-192 0 -364 41l18 75q193 -43 348 -43q353 0 353 353v223h-4q-58 -110 -163.5 -175t-248.5 -65q-209 0 -344 137.5t-135 366.5t135 366.5
t344 137.5q143 0 248.5 -65t163.5 -175h4v209zM561 43q186 0 299 120.5t113 309.5t-113 309.5t-299 120.5t-298.5 -120t-112.5 -310t112.5 -310t298.5 -120z" />
    <glyph glyph-name="Hcircumflex" unicode="&#x124;" horiz-adv-x="1392" 
d="M696 1706l-194 -184h-111l256 245h98l256 -245h-110zM1147 1434h82v-1434h-82v731h-901v-731h-82v1434h82v-625h901v625z" />
    <glyph glyph-name="hcircumflex" unicode="&#x125;" horiz-adv-x="1101" 
d="M229 1767l256 -245h-110l-195 184l-194 -184h-111l256 245h98zM217 1434v-725h4q44 131 144.5 199.5t232.5 68.5q170 0 270.5 -102.5t100.5 -307.5v-567h-74v567q0 170 -81.5 253t-217.5 83q-58 0 -110.5 -14.5t-102.5 -50t-86 -90t-58 -140t-22 -194.5v-414h-74v1434h74
z" />
    <glyph glyph-name="Hbar" unicode="&#x126;" horiz-adv-x="1351" 
d="M1352 1157v-72h-144v-1085h-82v731h-901v-731h-82v1085h-143v72h143v277h82v-277h901v277h82v-277h144zM1126 809v276h-901v-276h901z" />
    <glyph glyph-name="hbar" unicode="&#x127;" horiz-adv-x="1101" 
d="M598 977q170 0 270.5 -102.5t100.5 -307.5v-567h-74v567q0 170 -81.5 253t-217.5 83q-58 0 -110.5 -14.5t-102.5 -50t-86 -90t-58 -140t-22 -194.5v-414h-74v1186h-143v61h143v187h74v-187h338v-61h-338v-477h4q44 131 144.5 199.5t232.5 68.5z" />
    <glyph glyph-name="Itilde" unicode="&#x128;" horiz-adv-x="409" 
d="M375 1542q-38 0 -87 19.5t-88 43t-81.5 43t-69.5 19.5q-65 0 -108 -98l-56 20q12 30 25 53t34 49t51 40t66 14q48 0 112 -31.5t122.5 -62.5t91.5 -31q66 0 109 98l55 -20q-12 -30 -25 -53t-34 -49t-51 -40t-66 -14zM246 1434v-1434h-82v1434h82z" />
    <glyph glyph-name="itilde" unicode="&#x129;" horiz-adv-x="339" 
d="M61 1411q35 0 72 -19.5t62.5 -43t54.5 -43t51 -19.5q23 0 41 20t37 64l51 -20q-10 -27 -19 -47t-26 -44.5t-41.5 -37.5t-54.5 -13q-35 0 -72 19.5t-62.5 43t-54.5 43t-51 19.5q-23 0 -41 -20t-37 -64l-51 21q10 27 19 47t26 44t41.5 37t54.5 13zM133 0v946h74v-946h-74z
" />
    <glyph glyph-name="Imacron" unicode="&#x12a;" horiz-adv-x="409" 
d="M481 1686v-70h-555v70h555zM246 1434v-1434h-82v1434h82z" />
    <glyph glyph-name="imacron" unicode="&#x12b;" horiz-adv-x="339" 
d="M365 1331v-69h-392v69h392zM133 0v946h74v-946h-74z" />
    <glyph glyph-name="Ibreve" unicode="&#x12c;" horiz-adv-x="409" 
d="M483 1767q0 -116 -76.5 -180.5t-201.5 -64.5t-202 64.5t-77 180.5h70q3 -84 58 -131t151 -47t151 47t58 131h69zM246 1434v-1434h-82v1434h82z" />
    <glyph glyph-name="ibreve" unicode="&#x12d;" horiz-adv-x="339" 
d="M367 1434q0 -147 -48 -217t-149 -70t-149 70t-48 217h70q0 -117 28 -168.5t99 -51.5t99 51.5t28 168.5h70zM133 0v946h74v-946h-74z" />
    <glyph glyph-name="Iogonek" unicode="&#x12e;" horiz-adv-x="409" 
d="M164 1434h82v-1434h-8q-114 -80 -170 -142t-56 -116q0 -76 111 -76q48 0 106 15l4 -66q-63 -18 -118 -18q-74 0 -126 33.5t-52 99.5q0 134 227 288v1416z" />
    <glyph glyph-name="iogonek" unicode="&#x12f;" horiz-adv-x="339" 
d="M117 1413h106v-246h-106v246zM207 29l2 -2q-2 0 -2 -2v-25h-35q-99 -72 -148 -129.5t-49 -108.5q0 -75 111 -75q53 0 107 14l4 -66q-63 -18 -119 -18q-74 0 -126 33.5t-52 99.5q0 136 233 293v903h74v-917z" />
    <glyph glyph-name="Idotaccent" unicode="&#x130;" horiz-adv-x="409" 
d="M258 1747v-225h-106v225h106zM246 1434v-1434h-82v1434h82z" />
    <glyph glyph-name="dotlessi" unicode="&#x131;" horiz-adv-x="339" 
d="M133 0v946h74v-946h-74z" />
    <glyph glyph-name="IJ" unicode="&#x132;" horiz-adv-x="952" 
d="M246 1434v-1434h-82v1434h82zM788 1434v-1112q0 -172 -67.5 -252t-216.5 -80h-53v82h47q106 0 157.5 56.5t51.5 193.5v1112h81z" />
    <glyph glyph-name="ij" unicode="&#x133;" horiz-adv-x="679" 
d="M223 1413v-246h-106v246h106zM563 1413v-246h-106v246h106zM133 0v946h74v-946h-74zM238 -348h59q90 0 133 56t43 181v1057h74v-1057q0 -307 -250 -307h-59v70z" />
    <glyph glyph-name="Jcircumflex" unicode="&#x134;" horiz-adv-x="542" 
d="M387 1767l256 -245h-111l-194 184l-195 -184h-110l256 245h98zM379 1434v-1112q0 -172 -67.5 -252t-217.5 -80h-53v82h47q106 0 157.5 56.5t51.5 193.5v1112h82z" />
    <glyph glyph-name="jcircumflex" unicode="&#x135;" horiz-adv-x="339" 
d="M219 1448l143 -315h-86l-106 264l-107 -264h-86l144 315h98zM-102 -348h59q90 0 133 56t43 181v1057h74v-1057q0 -307 -250 -307h-59v70z" />
    <glyph glyph-name="Kcommaaccent" unicode="&#x136;" horiz-adv-x="1148" 
d="M346 764l782 -764h-127l-757 754v-754h-80v1434h80v-660l678 660h122zM514 -246v150h150v-150l-123 -164h-45l86 164h-68z" />
    <glyph glyph-name="kcommaaccent" unicode="&#x137;" horiz-adv-x="870" 
d="M313 510l537 -510h-119l-514 498v-498h-74v1434h74v-914l467 426h119zM373 -246v150h149v-150l-123 -164h-45l86 164h-67z" />
    <glyph glyph-name="kgreenlandic" unicode="&#x138;" horiz-adv-x="864" 
d="M844 0h-119l-508 492v-492h-74v946h74v-420l461 420h119l-490 -436z" />
    <glyph glyph-name="Lacute" unicode="&#x139;" horiz-adv-x="999" 
d="M483 1767l-239 -245h-74l195 245h118zM246 1434v-1356h723v-78h-805v1434h82z" />
    <glyph glyph-name="lacute" unicode="&#x13a;" horiz-adv-x="360" 
d="M459 1767l-240 -245h-74l195 245h119zM217 1434v-1434h-74v1434h74z" />
    <glyph glyph-name="Lcommaaccent" unicode="&#x13b;" horiz-adv-x="999" 
d="M246 78h723v-78h-805v1434h82v-1356zM528 -246v150h150v-150l-123 -164h-45l86 164h-68z" />
    <glyph glyph-name="lcommaaccent" unicode="&#x13c;" horiz-adv-x="360" 
d="M217 1434v-1434h-74v1434h74zM104 -96h150v-150l-123 -164h-45l86 164h-68v150z" />
    <glyph glyph-name="Lcaron" unicode="&#x13d;" horiz-adv-x="999" 
d="M659 1024h-53l113 291h-82v149h149v-149zM246 78h723v-78h-805v1434h82v-1356z" />
    <glyph glyph-name="lcaron" unicode="&#x13e;" horiz-adv-x="477" 
d="M328 1464h149v-149l-127 -291h-53l96 291h-65v149zM143 0v1434h74v-1434h-74z" />
    <glyph glyph-name="Ldot" unicode="&#x13f;" horiz-adv-x="999" 
d="M246 1434v-1356h723v-78h-805v1434h82zM768 946v-164h-164v164h164z" />
    <glyph glyph-name="ldot" unicode="&#x140;" horiz-adv-x="491" 
d="M217 1434v-1434h-74v1434h74zM471 946v-164h-164v164h164z" />
    <glyph glyph-name="Lslash" unicode="&#x141;" horiz-adv-x="999" 
d="M246 78h723v-78h-805v614l-164 -82v62l164 82v758h82v-715l422 213v-62l-422 -213v-579z" />
    <glyph glyph-name="lslash" unicode="&#x142;" horiz-adv-x="462" 
d="M442 954v-61l-184 -94v-799h-74v760l-164 -84v61l164 84v613h74v-574z" />
    <glyph glyph-name="Nacute" unicode="&#x143;" horiz-adv-x="1404" 
d="M999 1767l-239 -245h-74l195 245h118zM1241 1434v-1434h-92l-899 1296h-4v-1296h-82v1434h92l899 -1297h4v1297h82z" />
    <glyph glyph-name="nacute" unicode="&#x144;" horiz-adv-x="1101" 
d="M844 1448l-240 -315h-74l195 315h119zM596 977q174 0 273.5 -102.5t99.5 -307.5v-567h-74v567q0 169 -83 252.5t-220 83.5q-58 0 -110 -14.5t-101.5 -50t-85 -90t-57 -140t-21.5 -194.5v-414h-74v946h72v-237h4q47 133 143 200.5t234 67.5z" />
    <glyph glyph-name="Ncommaaccent" unicode="&#x145;" horiz-adv-x="1404" 
d="M1159 1434h82v-1434h-92l-899 1296h-4v-1296h-82v1434h92l899 -1297h4v1297zM627 -246v150h149v-150l-123 -164h-45l86 164h-67z" />
    <glyph glyph-name="ncommaaccent" unicode="&#x146;" horiz-adv-x="1101" 
d="M596 977q174 0 273.5 -102.5t99.5 -307.5v-567h-74v567q0 169 -83 252.5t-220 83.5q-58 0 -110 -14.5t-101.5 -50t-85 -90t-57 -140t-21.5 -194.5v-414h-74v946h72v-237h4q47 133 143 200.5t234 67.5zM506 -246v150h149v-150l-123 -164h-45l86 164h-67z" />
    <glyph glyph-name="Ncaron" unicode="&#x147;" horiz-adv-x="1404" 
d="M770 1522h-98l-256 245h110l195 -184l194 184h111zM1241 1434v-1434h-92l-899 1296h-4v-1296h-82v1434h92l899 -1297h4v1297h82z" />
    <glyph glyph-name="ncaron" unicode="&#x148;" horiz-adv-x="1101" 
d="M889 1434l-273 -316h-98l-272 316h102l219 -256l219 256h103zM596 977q174 0 273.5 -102.5t99.5 -307.5v-567h-74v567q0 169 -83 252.5t-220 83.5q-58 0 -110 -14.5t-101.5 -50t-85 -90t-57 -140t-21.5 -194.5v-414h-74v946h72v-237h4q47 133 143 200.5t234 67.5z" />
    <glyph glyph-name="napostrophe" unicode="&#x149;" horiz-adv-x="1124" 
d="M201 1464v-149l-127 -291h-54l113 291h-82v149h150zM618 977q174 0 273.5 -102.5t99.5 -307.5v-567h-73v567q0 169 -83.5 252.5t-220.5 83.5q-74 0 -137 -24.5t-118 -78.5t-87 -152.5t-32 -233.5v-414h-74v946h72v-237h4q47 133 143 200.5t233 67.5z" />
    <glyph glyph-name="Eng" unicode="&#x14a;" horiz-adv-x="1404" 
d="M1159 1434h82v-1598q0 -116 -56 -181t-163 -65h-78v78h82q65 0 99 44.5t34 123.5v164l-909 1296h-4v-1296h-82v1434h92l899 -1284h4v1284z" />
    <glyph glyph-name="eng" unicode="&#x14b;" horiz-adv-x="1101" 
d="M596 977q174 0 273.5 -102.5t99.5 -307.5v-743q0 -115 -54 -174.5t-161 -59.5h-92v70h96q137 0 137 164v743q0 169 -83 252.5t-220 83.5q-58 0 -110 -14.5t-101.5 -50t-85 -90t-57 -140t-21.5 -194.5v-414h-74v946h72v-237h4q47 133 143 200.5t234 67.5z" />
    <glyph glyph-name="Omacron" unicode="&#x14c;" horiz-adv-x="1658" 
d="M1106 1686v-70h-555v70h555zM829 1464q211 0 381.5 -94t268.5 -265.5t98 -387.5t-98 -387.5t-268.5 -266t-381.5 -94.5t-381.5 94.5t-268 266t-97.5 387.5q0 162 57 302t156.5 237t237.5 152.5t296 55.5zM829 1382q-142 0 -264.5 -49.5t-210 -136t-137 -211t-49.5 -268.5
q0 -193 85 -345t236 -236.5t340 -84.5q190 0 341 84.5t236 236.5t85 345q0 144 -50 268.5t-137 211t-210 136t-265 49.5z" />
    <glyph glyph-name="omacron" unicode="&#x14d;" horiz-adv-x="1150" 
d="M852 1331v-69h-555v69h555zM575 977q222 0 363 -141t141 -363t-141 -363t-363 -141q-221 0 -362 140.5t-141 363.5t141 363.5t362 140.5zM575 903q-182 0 -303.5 -119.5t-121.5 -310.5t121.5 -310.5t303.5 -119.5t304 120t122 310t-122 310t-304 120z" />
    <glyph glyph-name="Obreve" unicode="&#x14e;" horiz-adv-x="1658" 
d="M1108 1767q0 -116 -77 -180.5t-202 -64.5t-201.5 64.5t-76.5 180.5h70q3 -85 58 -131.5t150 -46.5q96 0 151 47t58 131h70zM829 1464q211 0 381.5 -94t268.5 -265.5t98 -387.5t-98 -387.5t-268.5 -266t-381.5 -94.5t-381.5 94.5t-268 266t-97.5 387.5q0 162 57 302
t156.5 237t237.5 152.5t296 55.5zM829 1382q-142 0 -264.5 -49.5t-210 -136t-137 -211t-49.5 -268.5q0 -193 85 -345t236 -236.5t340 -84.5q190 0 341 84.5t236 236.5t85 345q0 144 -50 268.5t-137 211t-210 136t-265 49.5z" />
    <glyph glyph-name="obreve" unicode="&#x14f;" horiz-adv-x="1150" 
d="M854 1434q0 -134 -77.5 -210.5t-201.5 -76.5t-201 76.5t-77 210.5h70q3 -103 58 -161.5t150 -58.5t150.5 58.5t58.5 161.5h70zM575 977q222 0 363 -141t141 -363t-141 -363t-363 -141q-221 0 -362 140.5t-141 363.5t141 363.5t362 140.5zM575 903q-182 0 -303.5 -119.5
t-121.5 -310.5t121.5 -310.5t303.5 -119.5t304 120t122 310t-122 310t-304 120z" />
    <glyph glyph-name="Ohungarumlaut" unicode="&#x150;" horiz-adv-x="1658" 
d="M991 1767l-215 -245h-71l192 245h94zM1169 1767l-213 -245h-71l192 245h92zM829 1464q211 0 381.5 -94t268.5 -265.5t98 -387.5t-98 -387.5t-268.5 -266t-381.5 -94.5t-381.5 94.5t-268 266t-97.5 387.5q0 162 57 302t156.5 237t237.5 152.5t296 55.5zM829 1382
q-142 0 -264.5 -49.5t-210 -136t-137 -211t-49.5 -268.5q0 -193 85 -345t236 -236.5t340 -84.5q190 0 341 84.5t236 236.5t85 345q0 144 -50 268.5t-137 211t-210 136t-265 49.5z" />
    <glyph glyph-name="ohungarumlaut" unicode="&#x151;" horiz-adv-x="1150" 
d="M768 1448l-233 -315h-72l213 315h92zM946 1448l-231 -315h-72l213 315h90zM575 977q222 0 363 -141t141 -363t-141 -363t-363 -141q-221 0 -362 140.5t-141 363.5t141 363.5t362 140.5zM575 903q-182 0 -303.5 -119.5t-121.5 -310.5t121.5 -310.5t303.5 -119.5t304 120
t122 310t-122 310t-304 120z" />
    <glyph glyph-name="OE" unicode="&#x152;" horiz-adv-x="2367" 
d="M1559 78h706v-78h-788v326q-96 -167 -266 -262t-382 -95q-211 0 -381.5 94.5t-268 266t-97.5 387.5q0 162 57 302t156.5 237t237.5 152.5t296 55.5q212 0 382 -94.5t266 -261.5v326h778v-78h-696v-510h641v-78h-641v-690zM829 51q190 0 341 84.5t236 236.5t85 345
q0 144 -50 268.5t-137 211t-210 136t-265 49.5t-264.5 -49.5t-210 -136t-137 -211t-49.5 -268.5q0 -193 85 -345t236 -236.5t340 -84.5z" />
    <glyph glyph-name="oe" unicode="&#x153;" horiz-adv-x="1998" 
d="M1473 977q97 0 175 -27t129.5 -73t85.5 -109t49 -131t15 -143v-21h-858q0 -199 113 -314.5t301 -115.5q59 0 110.5 13t85.5 30t70 48.5t54.5 53t47.5 58.5l58 -47q-32 -45 -64 -79.5t-83.5 -72t-122.5 -58t-156 -20.5q-159 0 -278 76t-173 211h-4q-54 -135 -174 -211
t-283 -76q-227 0 -363 139.5t-136 364.5t136 364.5t363 139.5q163 0 281 -76t174 -213h4q53 140 169.5 214.5t273.5 74.5zM571 903q-187 0 -304 -118.5t-117 -311.5t117 -311.5t304 -118.5t304.5 118.5t117.5 311.5t-117.5 311.5t-304.5 118.5zM1470 903q-161 0 -273 -95.5
t-126 -268.5h774q-14 173 -109.5 268.5t-265.5 95.5z" />
    <glyph glyph-name="Racute" unicode="&#x154;" horiz-adv-x="1140" 
d="M805 1767l-240 -245h-73l194 245h119zM985 0l-436 645h-303v-645h-82v1434h459q124 0 219.5 -42t154 -132.5t58.5 -219.5q0 -185 -114 -287t-294 -108l443 -645h-105zM246 1356v-633h377q159 0 252.5 84t93.5 233t-93.5 232.5t-252.5 83.5h-377z" />
    <glyph glyph-name="racute" unicode="&#x155;" horiz-adv-x="614" 
d="M629 1448l-240 -315h-74l195 315h119zM573 975v-82h-28q-151 0 -239.5 -114.5t-88.5 -299.5v-479h-74v946h74v-219h4q22 107 108.5 177.5t205.5 70.5h38z" />
    <glyph glyph-name="Rcommaaccent" unicode="&#x156;" horiz-adv-x="1140" 
d="M647 645l443 -645h-105l-436 645h-303v-645h-82v1434h459q124 0 219.5 -42t154 -132.5t58.5 -219.5q0 -185 -114 -287t-294 -108zM246 1356v-633h377q159 0 252.5 84t93.5 233t-93.5 232.5t-252.5 83.5h-377zM512 -246v150h150v-150l-123 -164h-45l86 164h-68z" />
    <glyph glyph-name="rcommaaccent" unicode="&#x157;" horiz-adv-x="614" 
d="M535 975h38v-82h-28q-151 0 -239.5 -114.5t-88.5 -299.5v-479h-74v946h74v-219h4q22 107 108.5 177.5t205.5 70.5zM104 -246v150h150v-150l-123 -164h-45l86 164h-68z" />
    <glyph glyph-name="Rcaron" unicode="&#x158;" horiz-adv-x="1140" 
d="M575 1522h-98l-256 245h111l194 -184l195 184h110zM985 0l-436 645h-303v-645h-82v1434h459q124 0 219.5 -42t154 -132.5t58.5 -219.5q0 -185 -114 -287t-294 -108l443 -645h-105zM246 1356v-633h377q159 0 252.5 84t93.5 233t-93.5 232.5t-252.5 83.5h-377z" />
    <glyph glyph-name="rcaron" unicode="&#x159;" horiz-adv-x="614" 
d="M674 1434l-273 -316h-98l-272 316h102l219 -256l219 256h103zM573 975v-82h-28q-151 0 -239.5 -114.5t-88.5 -299.5v-479h-74v946h74v-219h4q22 107 108.5 177.5t205.5 70.5h38z" />
    <glyph glyph-name="Sacute" unicode="&#x15a;" horiz-adv-x="1007" 
d="M784 1767l-239 -245h-74l195 245h118zM514 1464q163 0 342 -84l-41 -80q-163 82 -297 82q-139 0 -214 -61t-75 -162q0 -48 16 -89.5t50.5 -78t64 -60t80.5 -59.5l207 -143q66 -45 110 -83t82.5 -86.5t57 -105t18.5 -124.5q0 -175 -117.5 -268t-310.5 -93
q-111 0 -225 32.5t-211 96.5l45 74q190 -121 391 -121q170 0 256 78t86 197q0 91 -53.5 165t-177.5 162l-221 156q-44 31 -72.5 53t-62.5 56t-53 66.5t-32.5 77.5t-13.5 95q0 142 95.5 224.5t275.5 82.5z" />
    <glyph glyph-name="sacute" unicode="&#x15b;" horiz-adv-x="841" 
d="M698 1448l-239 -315h-74l195 315h118zM451 -31q-113 0 -217 34t-183 93l43 64q163 -117 361 -117q124 0 185.5 49.5t61.5 124.5q0 65 -45.5 109.5t-124.5 79.5l-180 81q-105 47 -159 107.5t-54 148.5q0 113 84 173.5t226 60.5q158 0 307 -76l-37 -70q-138 72 -270 72
q-104 0 -168 -40t-64 -118q0 -63 43.5 -106t130.5 -82l168 -76q50 -23 85 -44t68.5 -52.5t50.5 -73.5t17 -94q0 -120 -88 -184t-241 -64z" />
    <glyph glyph-name="Scircumflex" unicode="&#x15c;" horiz-adv-x="1007" 
d="M555 1767l256 -245h-111l-194 184l-195 -184h-110l256 245h98zM514 1464q163 0 342 -84l-41 -80q-163 82 -297 82q-139 0 -214 -61t-75 -162q0 -48 16 -89.5t50.5 -78t64 -60t80.5 -59.5l207 -143q66 -45 110 -83t82.5 -86.5t57 -105t18.5 -124.5q0 -175 -117.5 -268
t-310.5 -93q-111 0 -225 32.5t-211 96.5l45 74q190 -121 391 -121q170 0 256 78t86 197q0 91 -53.5 165t-177.5 162l-221 156q-44 31 -72.5 53t-62.5 56t-53 66.5t-32.5 77.5t-13.5 95q0 142 95.5 224.5t275.5 82.5z" />
    <glyph glyph-name="scircumflex" unicode="&#x15d;" horiz-adv-x="841" 
d="M471 1448l252 -315h-102l-199 256l-199 -256h-102l252 315h98zM451 -31q-113 0 -217 34t-183 93l43 64q163 -117 361 -117q124 0 185.5 49.5t61.5 124.5q0 65 -45.5 109.5t-124.5 79.5l-180 81q-105 47 -159 107.5t-54 148.5q0 113 84 173.5t226 60.5q158 0 307 -76
l-37 -70q-138 72 -270 72q-104 0 -168 -40t-64 -118q0 -63 43.5 -106t130.5 -82l168 -76q50 -23 85 -44t68.5 -52.5t50.5 -73.5t17 -94q0 -120 -88 -184t-241 -64z" />
    <glyph glyph-name="Scedilla" unicode="&#x15e;" horiz-adv-x="1007" 
d="M915 330q0 -164 -105.5 -257t-281.5 -102l-26 -69q32 -8 52 -15.5t45 -22.5t37.5 -40.5t12.5 -61.5q0 -26 -13 -49.5t-30.5 -40.5t-52.5 -37t-59.5 -32t-72.5 -33q-6 -3 -9 -4l-19 39q96 45 137 77.5t41 69.5t-29 54.5t-112 35.5l49 127q-110 2 -221.5 34t-206.5 95
l45 74q190 -121 391 -121q170 0 256 78t86 197q0 91 -53.5 165t-177.5 162l-221 156q-44 31 -72.5 53t-62.5 56t-53 66.5t-32.5 77.5t-13.5 95q0 142 95.5 224.5t275.5 82.5q163 0 342 -84l-41 -80q-163 82 -297 82q-139 0 -214 -61t-75 -162q0 -48 16 -89.5t50.5 -78
t64 -60t80.5 -59.5l207 -143q66 -45 110 -83t82.5 -86.5t57 -105t18.5 -124.5z" />
    <glyph glyph-name="scedilla" unicode="&#x15f;" horiz-adv-x="841" 
d="M451 -31h-2l-27 -67q32 -8 52 -15.5t45 -22.5t37.5 -40.5t12.5 -61.5q0 -26 -13 -49.5t-30.5 -40.5t-52.5 -37t-59.5 -32t-72.5 -33q-6 -3 -9 -4l-19 39q96 45 137.5 77.5t41.5 69.5t-29.5 54.5t-112.5 35.5l49 129q-203 15 -348 125l43 64q163 -117 361 -117
q124 0 185.5 49.5t61.5 124.5q0 65 -45.5 109.5t-124.5 79.5l-180 81q-105 47 -159 107.5t-54 148.5q0 113 84 173.5t226 60.5q158 0 307 -76l-37 -70q-138 72 -270 72q-104 0 -168 -40t-64 -118q0 -63 43.5 -106t130.5 -82l168 -76q50 -23 85 -44t68.5 -52.5t50.5 -73.5
t17 -94q0 -120 -88 -184t-241 -64z" />
    <glyph glyph-name="Scaron" unicode="&#x160;" horiz-adv-x="1007" 
d="M555 1522h-98l-256 245h110l195 -184l194 184h111zM514 1464q163 0 342 -84l-41 -80q-163 82 -297 82q-139 0 -214 -61t-75 -162q0 -48 16 -89.5t50.5 -78t64 -60t80.5 -59.5l207 -143q66 -45 110 -83t82.5 -86.5t57 -105t18.5 -124.5q0 -175 -117.5 -268t-310.5 -93
q-111 0 -225 32.5t-211 96.5l45 74q190 -121 391 -121q170 0 256 78t86 197q0 91 -53.5 165t-177.5 162l-221 156q-44 31 -72.5 53t-62.5 56t-53 66.5t-32.5 77.5t-13.5 95q0 142 95.5 224.5t275.5 82.5z" />
    <glyph glyph-name="scaron" unicode="&#x161;" horiz-adv-x="841" 
d="M743 1434l-272 -316h-98l-273 316h103l219 -256l219 256h102zM451 -31q-113 0 -217 34t-183 93l43 64q163 -117 361 -117q124 0 185.5 49.5t61.5 124.5q0 65 -45.5 109.5t-124.5 79.5l-180 81q-105 47 -159 107.5t-54 148.5q0 113 84 173.5t226 60.5q158 0 307 -76
l-37 -70q-138 72 -270 72q-104 0 -168 -40t-64 -118q0 -63 43.5 -106t130.5 -82l168 -76q50 -23 85 -44t68.5 -52.5t50.5 -73.5t17 -94q0 -120 -88 -184t-241 -64z" />
    <glyph glyph-name="uni0162" unicode="&#x162;" horiz-adv-x="1044" 
d="M1024 1356h-461v-1342h4l-4 -10v-4h-2l-39 -98q25 -6 41.5 -11t38.5 -16t35.5 -25t23 -36.5t9.5 -51.5q0 -22 -7 -41t-26 -37t-33.5 -30t-48.5 -29.5t-51.5 -26t-60.5 -27.5q-7 -3 -11 -5l-18 39q96 45 137 77.5t41 69.5t-29 54.5t-112 35.5l59 158h-29v1356h-461v78
h1004v-78z" />
    <glyph glyph-name="uni0163" unicode="&#x163;" horiz-adv-x="620" 
d="M420 -104q32 -8 52 -15.5t45 -22.5t37.5 -40.5t12.5 -61.5q0 -26 -13 -49.5t-30.5 -40.5t-52.5 -37t-59.5 -32t-72.5 -33q-6 -3 -9 -4l-19 39q96 45 137 77.5t41 69.5t-29 54.5t-112 35.5l64 166q-73 14 -115.5 69t-42.5 146v660h-203v69h203v379h74v-379h231v-69h-231
v-646q0 -77 38.5 -119t106.5 -42h53v-74h-59h-6z" />
    <glyph glyph-name="Tcaron" unicode="&#x164;" horiz-adv-x="1044" 
d="M571 1522h-98l-256 245h111l194 -184l195 184h110zM1024 1434v-78h-461v-1356h-82v1356h-461v78h1004z" />
    <glyph glyph-name="tcaron" unicode="&#x165;" horiz-adv-x="718" 
d="M508 1464h149v-149l-127 -291h-53l96 291h-65v149zM328 1325v-379h231v-69h-231v-646q0 -77 38.5 -119t106.5 -42h53v-74h-59q-96 0 -154.5 56t-58.5 165v660h-203v69h203v379h74z" />
    <glyph glyph-name="Tbar" unicode="&#x166;" horiz-adv-x="1044" 
d="M1024 1356h-461v-410h311v-72h-311v-874h-82v874h-291v72h291v410h-461v78h1004v-78z" />
    <glyph glyph-name="tbar" unicode="&#x167;" horiz-adv-x="620" 
d="M559 877h-231v-224h229v-61h-229v-361q0 -77 38.5 -119t106.5 -42h53v-74h-59q-96 0 -154.5 56t-58.5 165v375h-201v61h201v224h-203v69h203v379h74v-379h231v-69z" />
    <glyph glyph-name="Utilde" unicode="&#x168;" horiz-adv-x="1429" 
d="M885 1542q-38 0 -87 19.5t-88 43t-81.5 43t-69.5 19.5q-65 0 -108 -98l-56 20q12 30 25 53t34 49t51 40t66 14q48 0 112 -31.5t122.5 -62.5t91.5 -31q66 0 109 98l55 -20q-12 -30 -25 -53t-34 -49t-51 -40t-66 -14zM1266 1434v-916q0 -163 -61.5 -285.5t-187 -193
t-302.5 -70.5t-302.5 70.5t-187 193t-61.5 285.5v916h88v-895q0 -230 124 -358t339 -128t339 128t124 358v895h88z" />
    <glyph glyph-name="utilde" unicode="&#x169;" horiz-adv-x="1077" 
d="M383 1411q48 0 112 -31.5t122.5 -62.5t91.5 -31q65 0 108 98l55 -20q-12 -30 -25 -53t-34 -49t-51 -40t-66 -14q-38 0 -87 19.5t-87.5 43t-81 43t-69.5 19.5q-66 0 -109 -98l-55 20q12 30 25 53t34 49t51 40t66 14zM492 -31q-164 0 -261.5 100.5t-97.5 307.5v569h74v-577
q0 -168 80.5 -247t212.5 -79q59 0 110 15.5t98 52.5t80 94t52.5 146t19.5 202v393h74v-946h-72v221h-4q-19 -51 -48 -93.5t-72 -79.5t-106 -58t-140 -21z" />
    <glyph glyph-name="Umacron" unicode="&#x16a;" horiz-adv-x="1429" 
d="M991 1686v-70h-555v70h555zM1266 1434v-916q0 -163 -61.5 -285.5t-187 -193t-302.5 -70.5t-302.5 70.5t-187 193t-61.5 285.5v916h88v-895q0 -230 124 -358t339 -128t339 128t124 358v895h88z" />
    <glyph glyph-name="umacron" unicode="&#x16b;" horiz-adv-x="1077" 
d="M811 1331v-69h-555v69h555zM492 -31q-164 0 -261.5 100.5t-97.5 307.5v569h74v-577q0 -168 80.5 -247t212.5 -79q59 0 110 15.5t98 52.5t80 94t52.5 146t19.5 202v393h74v-946h-72v221h-4q-19 -51 -48 -93.5t-72 -79.5t-106 -58t-140 -21z" />
    <glyph glyph-name="Ubreve" unicode="&#x16c;" horiz-adv-x="1429" 
d="M993 1767q0 -116 -76.5 -180.5t-201.5 -64.5t-202 64.5t-77 180.5h70q3 -84 58 -131t151 -47t151 47t58 131h69zM1266 1434v-916q0 -163 -61.5 -285.5t-187 -193t-302.5 -70.5t-302.5 70.5t-187 193t-61.5 285.5v916h88v-895q0 -230 124 -358t339 -128t339 128t124 358
v895h88z" />
    <glyph glyph-name="ubreve" unicode="&#x16d;" horiz-adv-x="1077" 
d="M813 1434q0 -134 -77 -210.5t-201 -76.5t-201.5 76.5t-77.5 210.5h70q3 -103 58.5 -161.5t150.5 -58.5t150 58.5t58 161.5h70zM492 -31q-164 0 -261.5 100.5t-97.5 307.5v569h74v-577q0 -168 80.5 -247t212.5 -79q59 0 110 15.5t98 52.5t80 94t52.5 146t19.5 202v393h74
v-946h-72v221h-4q-19 -51 -48 -93.5t-72 -79.5t-106 -58t-140 -21z" />
    <glyph glyph-name="Uring" unicode="&#x16e;" horiz-adv-x="1429" 
d="M715 1835q101 0 167 -64.5t66 -164.5t-66 -165t-167 -65t-167.5 65t-66.5 165t66.5 164.5t167.5 64.5zM715 1778q-76 0 -124 -48.5t-48 -123.5t48 -123.5t124 -48.5t124 48.5t48 123.5t-48 123.5t-124 48.5zM1266 1434v-916q0 -163 -61.5 -285.5t-187 -193t-302.5 -70.5
t-302.5 70.5t-187 193t-61.5 285.5v916h88v-895q0 -230 124 -358t339 -128t339 128t124 358v895h88z" />
    <glyph glyph-name="uring" unicode="&#x16f;" horiz-adv-x="1077" 
d="M535 1530q106 0 174.5 -68t68.5 -172t-68.5 -171.5t-174.5 -67.5t-175 67.5t-69 171.5t69 172t175 68zM535 1473q-84 0 -133.5 -49.5t-49.5 -133.5t49 -133t134 -49q84 0 133 49t49 133t-49 133.5t-133 49.5zM492 -31q-164 0 -261.5 100.5t-97.5 307.5v569h74v-577
q0 -168 80.5 -247t212.5 -79q59 0 110 15.5t98 52.5t80 94t52.5 146t19.5 202v393h74v-946h-72v221h-4q-19 -51 -48 -93.5t-72 -79.5t-106 -58t-140 -21z" />
    <glyph glyph-name="Uhungarumlaut" unicode="&#x170;" horiz-adv-x="1429" 
d="M877 1767l-215 -245h-72l192 245h95zM1055 1767l-213 -245h-72l193 245h92zM1266 1434v-916q0 -163 -61.5 -285.5t-187 -193t-302.5 -70.5t-302.5 70.5t-187 193t-61.5 285.5v916h88v-895q0 -230 124 -358t339 -128t339 128t124 358v895h88z" />
    <glyph glyph-name="uhungarumlaut" unicode="&#x171;" horiz-adv-x="1077" 
d="M727 1448l-233 -315h-72l213 315h92zM905 1448l-231 -315h-72l213 315h90zM492 -31q-164 0 -261.5 100.5t-97.5 307.5v569h74v-577q0 -168 80.5 -247t212.5 -79q59 0 110 15.5t98 52.5t80 94t52.5 146t19.5 202v393h74v-946h-72v221h-4q-19 -51 -48 -93.5t-72 -79.5
t-106 -58t-140 -21z" />
    <glyph glyph-name="Uogonek" unicode="&#x172;" horiz-adv-x="1429" 
d="M1178 1434h88v-916q0 -242 -136 -391t-389 -158q-155 -121 -155 -207q0 -75 110 -75q53 0 107 14l4 -66q-63 -18 -119 -18q-74 0 -126 33.5t-52 99.5q0 103 139 221q-234 20 -359.5 167.5t-125.5 379.5v916h88v-895q0 -230 124 -358t339 -128q31 0 47 2
q195 14 305.5 140.5t110.5 343.5v895z" />
    <glyph glyph-name="uogonek" unicode="&#x173;" horiz-adv-x="1077" 
d="M893 0q-99 -72 -148 -129.5t-49 -108.5q0 -75 111 -75q52 0 106 14l5 -66q-63 -18 -119 -18q-74 0 -126 33.5t-52 99.5q0 139 241 299v172h-4q-19 -51 -48 -93.5t-72 -79.5t-106 -58t-140 -21q-164 0 -261.5 100.5t-97.5 307.5v569h74v-577q0 -168 80.5 -247t212.5 -79
q59 0 110 15.5t98 52.5t80 94t52.5 146t19.5 202v393h74v-946h-41z" />
    <glyph glyph-name="Wcircumflex" unicode="&#x174;" horiz-adv-x="1957" 
d="M1028 1767l256 -245h-110l-195 184l-195 -184h-110l256 245h98zM1927 1434l-440 -1434h-86l-420 1303h-4l-420 -1303h-86l-440 1434h94l385 -1299h4l416 1299h98l416 -1299h4l385 1299h94z" />
    <glyph glyph-name="wcircumflex" unicode="&#x175;" horiz-adv-x="1466" 
d="M733 1389l-198 -256h-103l252 315h98l252 -315h-102zM1364 946h82l-324 -946h-78l-311 858l-311 -858h-78l-324 946h82l281 -858l305 858h90l305 -858z" />
    <glyph glyph-name="Ycircumflex" unicode="&#x176;" horiz-adv-x="1069" 
d="M535 1706l-195 -184h-111l256 245h99l256 -245h-111zM1049 1434l-474 -889v-545h-81v545l-474 889h99l413 -797h5l413 797h99z" />
    <glyph glyph-name="ycircumflex" unicode="&#x177;" horiz-adv-x="907" 
d="M455 1389l-199 -256h-102l252 315h98l252 -315h-103zM801 946h86l-658 -1356h-82l263 525l-390 831h86l340 -756z" />
    <glyph glyph-name="Ydieresis" unicode="&#x178;" horiz-adv-x="1069" 
d="M399 1716v-194h-106v194h106zM776 1716v-194h-106v194h106zM1049 1434l-474 -889v-545h-81v545l-474 889h99l413 -797h5l413 797h99z" />
    <glyph glyph-name="Zacute" unicode="&#x179;" horiz-adv-x="1089" 
d="M864 1767l-239 -245h-74l194 245h119zM131 78h918v-78h-1008v78l897 1278h-815v78h909v-78z" />
    <glyph glyph-name="zacute" unicode="&#x17a;" horiz-adv-x="915" 
d="M770 1448l-240 -315h-73l194 315h119zM158 74h696v-74h-793v70l650 804h-602v72h700v-67z" />
    <glyph glyph-name="Zdotaccent" unicode="&#x17b;" horiz-adv-x="1089" 
d="M639 1747v-225h-107v225h107zM131 78h918v-78h-1008v78l897 1278h-815v78h909v-78z" />
    <glyph glyph-name="zdotaccent" unicode="&#x17c;" horiz-adv-x="915" 
d="M547 1413v-246h-107v246h107zM158 74h696v-74h-793v70l650 804h-602v72h700v-67z" />
    <glyph glyph-name="Zcaron" unicode="&#x17d;" horiz-adv-x="1089" 
d="M635 1522h-98l-256 245h110l195 -184l194 184h111zM131 78h918v-78h-1008v78l897 1278h-815v78h909v-78z" />
    <glyph glyph-name="zcaron" unicode="&#x17e;" horiz-adv-x="915" 
d="M543 1118h-99l-272 316h102l220 -256l219 256h102zM158 74h696v-74h-793v70l650 804h-602v72h700v-67z" />
    <glyph glyph-name="florin" unicode="&#x192;" horiz-adv-x="778" 
d="M647 1313q-223 0 -223 -277v-90h313v-61h-313v-967q0 -161 -71 -244.5t-226 -83.5h-86v74h90q219 0 219 248v973h-270v61h270v88q0 178 77 263t218 85h92v-69h-90z" />
    <glyph glyph-name="AEacute" unicode="&#x1fc;" horiz-adv-x="1882" 
d="M1651 1767l-240 -245h-74l195 245h119zM1147 78h633v-78h-699h-16v418h-649l-291 -418h-105l1004 1434h123h622v-78h-622v-510h567v-78h-567v-690zM469 496h596v856z" />
    <glyph glyph-name="aeacute" unicode="&#x1fd;" horiz-adv-x="1855" 
d="M1194 1448l-240 -315h-73l194 315h119zM446 -31q-177 0 -286 93.5t-109 252.5q0 156 106.5 252.5t286.5 96.5q129 0 228.5 -54t150.5 -164h4v144q0 156 -85 234.5t-246 78.5q-134 0 -316 -45l-18 78q174 41 330 41q342 0 397 -270h4q54 127 169 198.5t265 71.5
q114 0 204 -42.5t144 -113t81.5 -155.5t27.5 -177v-20h-858q0 -191 115 -308.5t298 -117.5q68 0 126 17.5t103.5 50t76 63t63.5 72.5l57 -47q-161 -230 -426 -230q-165 0 -286.5 84t-171.5 228h-4q-40 -147 -153 -229.5t-278 -82.5zM928 539h774q-15 170 -113.5 267
t-263.5 97q-160 0 -270 -95.5t-127 -268.5zM453 43q158 0 250 79.5t92 192.5q0 123 -101.5 199t-244.5 76q-145 0 -232.5 -77.5t-87.5 -201.5t87 -196t237 -72z" />
    <glyph glyph-name="Oslashacute" unicode="&#x1fe;" horiz-adv-x="1658" 
d="M1108 1767l-240 -245h-73l194 245h119zM1290 1317q135 -100 211 -255t76 -345q0 -216 -98 -387.5t-268.5 -266t-381.5 -94.5q-231 0 -413 115l-80 -113l-49 31l82 115q-135 100 -211 255t-76 345q0 162 57 302t156.5 237t237.5 152.5t296 55.5q234 0 414 -114l80 112
l49 -30zM168 717q0 -168 65.5 -306t182.5 -227l780 1098q-158 100 -367 100q-142 0 -264.5 -49.5t-210 -136t-137 -211t-49.5 -268.5zM829 51q190 0 341 84.5t236 236.5t85 345q0 168 -65.5 305.5t-182.5 226.5l-780 -1097q159 -101 366 -101z" />
    <glyph glyph-name="oslashacute" unicode="&#x1ff;" horiz-adv-x="1150" 
d="M864 1448l-239 -315h-74l194 315h119zM938 838q141 -144 141 -365q0 -222 -141 -363t-363 -141q-176 0 -307 92l-78 -90l-43 37l78 90q-153 143 -153 375q0 223 141 363.5t362 140.5q185 0 318 -100l86 100l45 -39zM150 473q0 -192 126 -315l566 659q-116 86 -267 86
q-182 0 -303.5 -119.5t-121.5 -310.5zM575 43q182 0 304 120t122 310q0 187 -116 303l-566 -653q113 -80 256 -80z" />
    <glyph glyph-name="Scommaaccent" unicode="&#x218;" horiz-adv-x="1007" 
d="M647 729q66 -45 110 -83t82.5 -86.5t57 -105t18.5 -124.5q0 -175 -117.5 -268t-310.5 -93q-111 0 -225 32.5t-211 96.5l45 74q190 -121 391 -121q170 0 256 78t86 197q0 91 -53.5 165t-177.5 162l-221 156q-44 31 -72.5 53t-62.5 56t-53 66.5t-32.5 77.5t-13.5 95
q0 142 95.5 224.5t275.5 82.5q163 0 342 -84l-41 -80q-163 82 -297 82q-139 0 -214 -61t-75 -162q0 -48 16 -89.5t50.5 -78t64 -60t80.5 -59.5zM426 -246v150h149v-150l-122 -164h-45l86 164h-68z" />
    <glyph glyph-name="scommaaccent" unicode="&#x219;" horiz-adv-x="841" 
d="M559 481q50 -23 85 -44t68.5 -52.5t50.5 -73.5t17 -94q0 -120 -88 -184t-241 -64q-113 0 -217 34t-183 93l43 64q163 -117 361 -117q124 0 185.5 49.5t61.5 124.5q0 65 -45.5 109.5t-124.5 79.5l-180 81q-105 47 -159 107.5t-54 148.5q0 113 84 173.5t226 60.5
q158 0 307 -76l-37 -70q-138 72 -270 72q-104 0 -168 -40t-64 -118q0 -63 43.5 -106t130.5 -82zM346 -246v150h150v-150l-123 -164h-45l86 164h-68z" />
    <glyph glyph-name="uni021A" unicode="&#x21a;" horiz-adv-x="1044" 
d="M20 1434h1004v-78h-461v-1356h-82v1356h-461v78zM446 -246v150h150v-150l-123 -164h-45l86 164h-68z" />
    <glyph glyph-name="uni021B" unicode="&#x21b;" horiz-adv-x="620" 
d="M559 877h-231v-646q0 -77 38.5 -119t106.5 -42h53v-74h-59q-96 0 -154.5 56t-58.5 165v660h-203v69h203v379h74v-379h231v-69zM344 -252v150h150v-150l-123 -164h-45l86 164h-68z" />
    <glyph glyph-name="uni0237" unicode="&#x237;" horiz-adv-x="339" 
d="M-102 -348h59q90 0 133 56t43 181v1057h74v-1057q0 -307 -250 -307h-59v70z" />
    <glyph glyph-name="uni02BC" unicode="&#x2bc;" horiz-adv-x="313" 
d="M102 1464h150v-149l-127 -291h-53l112 291h-82v149z" />
    <glyph glyph-name="circumflex" unicode="&#x2c6;" horiz-adv-x="806" 
d="M453 1448l252 -315h-103l-199 256l-198 -256h-103l252 315h99z" />
    <glyph glyph-name="caron" unicode="&#x2c7;" horiz-adv-x="847" 
d="M745 1434l-272 -316h-98l-273 316h103l219 -256l219 256h102z" />
    <glyph glyph-name="breve" unicode="&#x2d8;" horiz-adv-x="761" 
d="M659 1434q0 -134 -77 -210.5t-201 -76.5t-201.5 76.5t-77.5 210.5h70q3 -103 58.5 -161.5t150.5 -58.5t150.5 58.5t58.5 161.5h69z" />
    <glyph glyph-name="dotaccent" unicode="&#x2d9;" horiz-adv-x="311" 
d="M209 1413v-246h-107v246h107z" />
    <glyph glyph-name="ring" unicode="&#x2da;" horiz-adv-x="692" 
d="M346 1530q106 0 175 -68t69 -172t-69 -171.5t-175 -67.5t-175 67.5t-69 171.5t69 172t175 68zM346 1473q-84 0 -133 -49.5t-49 -133.5t49 -133t133 -49t133 49t49 133t-49 133.5t-133 49.5z" />
    <glyph glyph-name="ogonek" unicode="&#x2db;" horiz-adv-x="514" 
d="M354 55l58 -28q-117 -81 -175.5 -145.5t-58.5 -119.5q0 -75 111 -75q52 0 106 14l4 -66q-63 -18 -118 -18q-75 0 -127 33.5t-52 99.5q0 140 252 305z" />
    <glyph glyph-name="tilde" unicode="&#x2dc;" horiz-adv-x="870" 
d="M279 1411q48 0 112 -31.5t122 -62.5t91 -31q66 0 109 98l55 -20q-12 -30 -25 -53t-34 -49t-51 -40t-66 -14q-38 0 -87 19.5t-88 43t-81.5 43t-69.5 19.5q-65 0 -108 -98l-56 20q64 156 177 156z" />
    <glyph glyph-name="hungarumlaut" unicode="&#x2dd;" horiz-adv-x="688" 
d="M408 1448l-234 -315h-72l213 315h93zM586 1448l-232 -315h-71l213 315h90z" />
    <glyph glyph-name="gravecomb" unicode="&#x300;" horiz-adv-x="0" 
d="M-297 1448l195 -315h-74l-240 315h119z" />
    <glyph glyph-name="acutecomb" unicode="&#x301;" horiz-adv-x="0" 
d="M-102 1448l-240 -315h-74l195 315h119z" />
    <glyph glyph-name="uni0302" unicode="&#x302;" horiz-adv-x="0" 
d="M-354 1448l252 -315h-103l-198 256l-199 -256h-103l252 315h99z" />
    <glyph glyph-name="tildecomb" unicode="&#x303;" horiz-adv-x="0" 
d="M-592 1411q48 0 112 -31.5t122.5 -62.5t91.5 -31q65 0 108 98l56 -20q-64 -156 -177 -156q-38 0 -87 19.5t-87.5 43t-81 43t-69.5 19.5q-66 0 -109 -98l-55 20q12 30 25 53t34 49t51 40t66 14z" />
    <glyph glyph-name="uni0304" unicode="&#x304;" horiz-adv-x="0" 
d="M-102 1331v-69h-555v69h555z" />
    <glyph glyph-name="uni0306" unicode="&#x306;" horiz-adv-x="0" 
d="M-102 1434q0 -134 -77.5 -210.5t-201.5 -76.5t-201 76.5t-77 210.5h69q3 -103 58.5 -161.5t150.5 -58.5t150.5 58.5t58.5 161.5h70z" />
    <glyph glyph-name="uni0307" unicode="&#x307;" horiz-adv-x="0" 
d="M-102 1413v-246h-107v246h107z" />
    <glyph glyph-name="uni0308" unicode="&#x308;" horiz-adv-x="0" 
d="M-479 1413v-225h-107v225h107zM-102 1413v-225h-107v225h107z" />
    <glyph glyph-name="uni030A" unicode="&#x30a;" horiz-adv-x="0" 
d="M-346 1530q106 0 175 -68t69 -172t-69 -171.5t-175 -67.5t-175 67.5t-69 171.5t69 172t175 68zM-346 1473q-84 0 -133 -49.5t-49 -133.5t49 -133t133 -49t133 49t49 133t-49 133.5t-133 49.5z" />
    <glyph glyph-name="uni030B" unicode="&#x30b;" horiz-adv-x="0" 
d="M-281 1448l-233 -315h-72l213 315h92zM-102 1448l-232 -315h-72l213 315h91z" />
    <glyph glyph-name="uni030C" unicode="&#x30c;" horiz-adv-x="0" 
d="M-102 1434l-273 -316h-98l-272 316h102l219 -256l219 256h103z" />
    <glyph glyph-name="uni0326" unicode="&#x326;" horiz-adv-x="0" 
d="M-252 -96h150v-150l-123 -164h-45l86 164h-68v150z" />
    <glyph glyph-name="uni0327" unicode="&#x327;" horiz-adv-x="0" 
d="M-205 14l-45 -112q25 -6 41.5 -11t38.5 -16t35.5 -25t23 -36.5t9.5 -51.5q0 -22 -7 -41t-26 -37t-33.5 -30t-48.5 -29.5t-51.5 -26t-60.5 -27.5q-7 -3 -11 -5l-18 39q96 45 137 77.5t41 69.5t-29.5 54.5t-112.5 35.5l66 172h51z" />
    <glyph glyph-name="uni0328" unicode="&#x328;" horiz-adv-x="0" 
d="M-160 55l58 -28q-117 -81 -175.5 -145.5t-58.5 -119.5q0 -75 111 -75q52 0 106 14l4 -66q-63 -18 -118 -18q-75 0 -127 33.5t-52 99.5q0 140 252 305z" />
    <glyph glyph-name="uni0394" unicode="&#x394;" horiz-adv-x="1286" 
d="M688 1434l557 -1434h-1204l557 1434h90zM643 1358l-496 -1317h992z" />
    <glyph glyph-name="uni03A9" unicode="&#x3a9;" horiz-adv-x="1638" 
d="M819 1464q167 0 306 -53t233 -146.5t146 -224t52 -284.5q0 -269 -159 -446.5t-426 -229.5v-6h536v-74h-606v123q266 41 422 212t156 415q0 183 -78 327.5t-229.5 229t-352.5 84.5q-151 0 -276 -49t-208.5 -134.5t-129 -203t-45.5 -254.5q0 -244 156 -415t421 -212v-123
h-606v74h537v6q-268 52 -427 229.5t-159 446.5q0 154 52 284.5t146 224t233 146.5t306 53z" />
    <glyph glyph-name="uni03BC" unicode="&#x3bc;" horiz-adv-x="1077" 
d="M860 946h74v-946h-72v221h-4q-19 -51 -48 -93.5t-72 -79.5t-106 -58t-140 -21q-199 0 -289 135v-514h-70v938v418h74v-577q0 -168 80.5 -247t212.5 -79q59 0 110 15.5t98 52.5t80 94t52.5 146t19.5 202v393z" />
    <glyph glyph-name="pi" unicode="&#x3c0;" horiz-adv-x="1234" 
d="M1174 977v-72h-236v-905h-74v905h-407l-201 -905h-76l201 905h-25q-171 0 -295 -41v72q118 41 283 41h830z" />
    <glyph glyph-name="uni0401" unicode="&#x401;" horiz-adv-x="1054" 
d="M453 1716v-194h-107v194h107zM829 1716v-194h-106v194h106zM246 78h706v-78h-788v1434h778v-78h-696v-510h641v-78h-641v-690z" />
    <glyph glyph-name="uni0402" unicode="&#x402;" horiz-adv-x="1378" 
d="M932 811q76 0 133 -7.5t108.5 -27.5t83.5 -54t51 -90t19 -132v-140q0 -186 -80 -273t-280 -87h-162v78h164q82 0 136 17t85 53.5t43 86.5t12 125v140q0 60 -15.5 103t-41 68t-68 39t-85.5 18.5t-105 4.5q-181 0 -438 -24v-709h-82v1356h-390v78h1065v-78h-593v-570
q285 25 440 25z" />
    <glyph glyph-name="uni0403" unicode="&#x403;" horiz-adv-x="983" 
d="M848 1767l-240 -245h-73l194 245h119zM963 1434v-78h-717v-1356h-82v1434h799z" />
    <glyph glyph-name="uni0404" unicode="&#x404;" horiz-adv-x="1409" 
d="M795 51q149 0 266.5 40t228.5 116l47 -72q-244 -166 -542 -166q-324 0 -518.5 202t-194.5 546t194.5 545.5t518.5 201.5q298 0 542 -166l-47 -71q-110 75 -228 115t-267 40q-268 0 -438 -163.5t-187 -442.5h770v-78h-772q6 -296 177.5 -471.5t449.5 -175.5z" />
    <glyph glyph-name="uni0405" unicode="&#x405;" horiz-adv-x="1007" 
d="M514 1464q163 0 342 -84l-41 -80q-163 82 -297 82q-139 0 -214 -61t-75 -162q0 -48 16 -89.5t50.5 -78t64 -60t80.5 -59.5l207 -143q66 -45 110 -83t82.5 -86.5t57 -105t18.5 -124.5q0 -175 -117.5 -268t-310.5 -93q-111 0 -225 32.5t-211 96.5l45 74q190 -121 391 -121
q170 0 256 78t86 197q0 91 -53.5 165t-177.5 162l-221 156q-44 31 -72.5 53t-62.5 56t-53 66.5t-32.5 77.5t-13.5 95q0 142 95.5 224.5t275.5 82.5z" />
    <glyph glyph-name="uni0406" unicode="&#x406;" horiz-adv-x="409" 
d="M246 1434v-1434h-82v1434h82z" />
    <glyph glyph-name="uni0407" unicode="&#x407;" horiz-adv-x="409" 
d="M70 1716v-194h-107v194h107zM446 1716v-194h-106v194h106zM246 1434v-1434h-82v1434h82z" />
    <glyph glyph-name="uni0408" unicode="&#x408;" horiz-adv-x="542" 
d="M379 1434v-1112q0 -172 -67.5 -252t-217.5 -80h-53v82h47q106 0 157.5 56.5t51.5 193.5v1112h82z" />
    <glyph glyph-name="uni0409" unicode="&#x409;" horiz-adv-x="2154" 
d="M1679 795q201 0 318 -108.5t117 -289.5t-117 -289t-318 -108h-460v1356h-809v-1034q0 -172 -67.5 -252t-217.5 -80h-84v82h78q106 0 157.5 56.5t51.5 193.5v1112h972v-639h379zM1659 78q181 0 273.5 86t92.5 233q0 148 -92.5 234t-273.5 86h-359v-639h359z" />
    <glyph glyph-name="uni040A" unicode="&#x40a;" horiz-adv-x="2062" 
d="M1587 795q201 0 317.5 -108.5t116.5 -289.5t-116.5 -289t-317.5 -108h-461v717h-880v-717h-82v1434h82v-639h880v639h82v-639h379zM1567 78q181 0 273.5 86t92.5 233q0 148 -92.5 234t-273.5 86h-359v-639h359z" />
    <glyph glyph-name="uni040B" unicode="&#x40b;" horiz-adv-x="1378" 
d="M1001 791q171 0 248.5 -70.5t77.5 -220.5v-500h-82v500q0 116 -61 164.5t-189 48.5h-503v-713h-82v1356h-390v78h472h593v-78h-593v-565h509z" />
    <glyph glyph-name="uni040C" unicode="&#x40c;" horiz-adv-x="1148" 
d="M836 1767l-240 -245h-74l195 245h119zM1128 0h-127l-757 754v-754h-80v1434h80v-660l678 660h122l-698 -670z" />
    <glyph glyph-name="uni040E" unicode="&#x40e;" horiz-adv-x="1218" 
d="M614 1501q-124 0 -201 70.5t-77 195.5h70q3 -94 58 -146t150 -52t150.5 52t58.5 146h70q0 -125 -77.5 -195.5t-201.5 -70.5zM1106 1434h92l-696 -1434h-92l176 365l-566 1069h101l508 -981z" />
    <glyph glyph-name="uni040F" unicode="&#x40f;" horiz-adv-x="1392" 
d="M1229 1434v-1434h-492v-287h-82v287h-491v1434h82v-1356h901v1356h82z" />
    <glyph glyph-name="uni0410" unicode="&#x410;" horiz-adv-x="1294" 
d="M1188 0l-170 418h-742l-170 -418h-86l584 1434h86l584 -1434h-86zM309 496h676l-338 831z" />
    <glyph glyph-name="uni0411" unicode="&#x411;" horiz-adv-x="1150" 
d="M645 795q201 0 317.5 -108.5t116.5 -289.5t-116.5 -289t-317.5 -108h-481v1434h82h778v-78h-778v-561h399zM625 78q182 0 275 85.5t93 233.5t-93 234t-275 86h-379v-639h379z" />
    <glyph glyph-name="uni0412" unicode="&#x412;" horiz-adv-x="1232" 
d="M799 764q159 -19 250.5 -116t91.5 -251q0 -126 -65 -218t-168.5 -135.5t-231.5 -43.5h-512v1434h454q199 0 314 -93t115 -260q0 -121 -66 -204.5t-182 -108.5v-4zM600 1356h-354v-561h358q352 0 352 274q0 142 -84.5 214.5t-271.5 72.5zM670 78q177 0 280 88t103 237
q0 144 -105.5 229t-288.5 85h-413v-639h424z" />
    <glyph glyph-name="uni0413" unicode="&#x413;" horiz-adv-x="983" 
d="M963 1434v-78h-717v-1356h-82v1434h799z" />
    <glyph glyph-name="uni0414" unicode="&#x414;" horiz-adv-x="1347" 
d="M1145 78h121v-365h-82v287h-1061v-287h-82v365h131q84 196 111.5 375.5t27.5 431.5v549h834v-1356zM393 885q0 -261 -25 -437t-108 -370h803v1278h-670v-471z" />
    <glyph glyph-name="uni0415" unicode="&#x415;" horiz-adv-x="1054" 
d="M246 78h706v-78h-788v1434h778v-78h-696v-510h641v-78h-641v-690z" />
    <glyph glyph-name="uni0416" unicode="&#x416;" horiz-adv-x="1685" 
d="M1665 0h-115l-667 741v-741h-80v741l-668 -741h-115l697 756l-613 678h113l586 -662v662h80v-662l585 662h113l-612 -678z" />
    <glyph glyph-name="uni0417" unicode="&#x417;" horiz-adv-x="1208" 
d="M594 1464q231 0 346 -92.5t115 -257.5q0 -144 -85 -226t-245 -116v-2q80 -6 146.5 -28t123.5 -66t89 -120t32 -179q0 -193 -131.5 -300.5t-394.5 -107.5q-283 0 -518 137l43 76q220 -131 473 -131q442 0 442 326q0 189 -133 268.5t-403 79.5h-183v78h181q225 0 351 79.5
t126 229.5q0 124 -94.5 197t-278.5 73q-124 0 -246.5 -34t-222.5 -91l-39 80q225 127 506 127z" />
    <glyph glyph-name="uni0418" unicode="&#x418;" horiz-adv-x="1404" 
d="M164 1434h82v-1301h4l899 1301h92v-1434h-82v1300h-4l-899 -1300h-92v1434z" />
    <glyph glyph-name="uni0419" unicode="&#x419;" horiz-adv-x="1404" 
d="M979 1767q0 -125 -77.5 -195.5t-201.5 -70.5t-201 70.5t-77 195.5h70q3 -94 58 -146t150 -52t150.5 52t58.5 146h70zM164 1434h82v-1301h4l899 1301h92v-1434h-82v1300h-4l-899 -1300h-92v1434z" />
    <glyph glyph-name="uni041A" unicode="&#x41a;" horiz-adv-x="1148" 
d="M1128 0h-127l-757 754v-754h-80v1434h80v-660l678 660h122l-698 -670z" />
    <glyph glyph-name="uni041B" unicode="&#x41b;" horiz-adv-x="1454" 
d="M1290 1434v-1434h-82v1356h-809v-1034q0 -172 -67.5 -252t-216.5 -80h-74v82h68q106 0 157 56.5t51 193.5v1112h973z" />
    <glyph glyph-name="uni041C" unicode="&#x41c;" horiz-adv-x="1683" 
d="M1311 1434l352 -1434h-86l-307 1270h-4l-389 -1028h-70l-389 1028h-4l-308 -1270h-86l353 1434h73l394 -1065h4l393 1065h74z" />
    <glyph glyph-name="uni041D" unicode="&#x41d;" horiz-adv-x="1392" 
d="M1147 1434h82v-1434h-82v731h-901v-731h-82v1434h82v-625h901v625z" />
    <glyph glyph-name="uni041E" unicode="&#x41e;" horiz-adv-x="1658" 
d="M829 1464q211 0 381.5 -94t268.5 -265.5t98 -387.5t-98 -387.5t-268.5 -266t-381.5 -94.5t-381.5 94.5t-268 266t-97.5 387.5q0 162 57 302t156.5 237t237.5 152.5t296 55.5zM829 1382q-142 0 -264.5 -49.5t-210 -136t-137 -211t-49.5 -268.5q0 -193 85 -345t236 -236.5
t340 -84.5q190 0 341 84.5t236 236.5t85 345q0 144 -50 268.5t-137 211t-210 136t-265 49.5z" />
    <glyph glyph-name="uni041F" unicode="&#x41f;" horiz-adv-x="1392" 
d="M1229 1434v-1434h-82v1356h-901v-1356h-82v1434h1065z" />
    <glyph glyph-name="uni0420" unicode="&#x420;" horiz-adv-x="1112" 
d="M637 1434q189 0 301.5 -115t112.5 -293t-112.5 -293t-301.5 -115h-391v-618h-82v1434h473zM639 696q146 0 236 86.5t90 243.5t-90 243.5t-236 86.5h-393v-660h393z" />
    <glyph glyph-name="uni0421" unicode="&#x421;" horiz-adv-x="1409" 
d="M846 -31q-230 0 -404 95t-267 264.5t-93 388.5t93 388t267 264t404 95q147 0 262.5 -41t228.5 -125l-51 -69q-101 76 -203.5 114.5t-238.5 38.5q-201 0 -355.5 -85.5t-237.5 -236.5t-83 -343q0 -144 48.5 -267t136 -211t214 -138t277.5 -50q135 0 237.5 39t204.5 115
l51 -70q-113 -84 -228.5 -125t-262.5 -41z" />
    <glyph glyph-name="uni0422" unicode="&#x422;" horiz-adv-x="1044" 
d="M1024 1434v-78h-461v-1356h-82v1356h-461v78h1004z" />
    <glyph glyph-name="uni0423" unicode="&#x423;" horiz-adv-x="1218" 
d="M1106 1434h92l-696 -1434h-92l176 365l-566 1069h101l508 -981z" />
    <glyph glyph-name="uni0424" unicode="&#x424;" horiz-adv-x="1658" 
d="M870 1358q334 0 520.5 -168.5t186.5 -474.5q0 -305 -185 -474t-522 -169v-123h-82v123q-337 0 -521.5 169t-184.5 474q0 306 186 474.5t520 168.5v127h82v-127zM168 717q0 -267 163.5 -417t456.5 -150h5v1130h-5q-290 0 -455 -148t-165 -415zM870 150q293 0 457 150
t164 417t-165 415t-456 148h-4v-1130h4z" />
    <glyph glyph-name="uni0425" unicode="&#x425;" horiz-adv-x="1191" 
d="M1151 0h-98l-457 680l-457 -680h-98l506 754l-457 680h98l408 -607l408 607h98l-457 -680z" />
    <glyph glyph-name="uni0426" unicode="&#x426;" horiz-adv-x="1357" 
d="M1167 78h109v-365h-82v287h-1030v1434h82v-1356h839v1356h82v-1356z" />
    <glyph glyph-name="uni0427" unicode="&#x427;" horiz-adv-x="1132" 
d="M887 1434h82v-1434h-82v643h-510q-171 0 -248.5 70.5t-77.5 220.5v500h82v-500q0 -116 61 -164.5t189 -48.5h504v713z" />
    <glyph glyph-name="uni0428" unicode="&#x428;" horiz-adv-x="2117" 
d="M164 0v1434h82v-1356h772v1356h82v-1356h772v1356h82v-1434h-1790z" />
    <glyph glyph-name="uni0429" unicode="&#x429;" horiz-adv-x="2144" 
d="M1954 78h108v-365h-82v287h-1816v1434h82v-1356h772v1356h82v-1356h772v1356h82v-1356z" />
    <glyph glyph-name="uni042A" unicode="&#x42a;" horiz-adv-x="1390" 
d="M915 795q201 0 318 -108.5t117 -289.5t-117 -289t-318 -108h-481v1356h-414v78h496v-639h399zM895 78q182 0 275.5 86t93.5 233q0 148 -93.5 234t-275.5 86h-379v-639h379z" />
    <glyph glyph-name="uni042B" unicode="&#x42b;" horiz-adv-x="1533" 
d="M645 795q201 0 317.5 -108.5t116.5 -289.5t-116.5 -289t-317.5 -108h-481v1434h82v-639h399zM1288 1434h82v-1434h-82v1434zM625 78q182 0 275 85.5t93 233.5t-93 234t-275 86h-379v-639h379z" />
    <glyph glyph-name="uni042C" unicode="&#x42c;" horiz-adv-x="1120" 
d="M645 795q201 0 317.5 -108.5t116.5 -289.5t-116.5 -289t-317.5 -108h-481v1434h82v-639h399zM625 78q182 0 275 85.5t93 233.5t-93 234t-275 86h-379v-639h379z" />
    <glyph glyph-name="uni042D" unicode="&#x42d;" horiz-adv-x="1409" 
d="M614 1464q324 0 518.5 -201.5t194.5 -545.5t-194.5 -546t-518.5 -202q-298 0 -542 166l47 72q111 -76 228.5 -116t266.5 -40q278 0 449.5 175.5t177.5 471.5h-772v78h770q-17 279 -187 442.5t-438 163.5q-149 0 -267 -40t-228 -115l-47 71q244 166 542 166z" />
    <glyph glyph-name="uni042E" unicode="&#x42e;" horiz-adv-x="2080" 
d="M1251 1464q211 0 381.5 -94t268.5 -265.5t98 -387.5t-98 -387.5t-268.5 -266t-381.5 -94.5q-205 0 -372 89t-266.5 251t-108.5 369h-258v-678h-82v1434h82v-678h258q9 207 108.5 369t266.5 250.5t372 88.5zM1251 51q190 0 341 84.5t236 236.5t85 345q0 144 -50 268.5
t-137 211t-210 136t-265 49.5t-264.5 -49.5t-210 -136t-137 -211t-49.5 -268.5q0 -193 85 -345t236 -236.5t340 -84.5z" />
    <glyph glyph-name="uni042F" unicode="&#x42f;" horiz-adv-x="1181" 
d="M539 1434h479v-1434h-82v645h-324l-436 -645h-104l442 645q-180 6 -294 108t-114 287q0 129 58.5 219.5t154.5 132.5t220 42zM539 723h397v633h-397q-159 0 -252.5 -83.5t-93.5 -232.5t93.5 -233t252.5 -84z" />
    <glyph glyph-name="uni0430" unicode="&#x430;" horiz-adv-x="1173" 
d="M551 -31q-209 0 -344 137.5t-135 366.5t135 366.5t344 137.5q143 0 248.5 -65t163.5 -175h4v209h73v-946h-73v209h-4q-58 -110 -163.5 -175t-248.5 -65zM561 43q186 0 299 120.5t113 309.5t-113 309.5t-299 120.5t-298.5 -120t-112.5 -310t112.5 -310t298.5 -120z" />
    <glyph glyph-name="uni0431" unicode="&#x431;" horiz-adv-x="1169" 
d="M584 -31q-112 0 -202.5 35t-161 107.5t-109.5 195.5t-39 287q0 95 15 182.5t46.5 168t87 144t129.5 99.5q52 26 124.5 49.5t124.5 36.5t115 27l72 16q56 14 89 49.5t38 77.5h74q0 -73 -50.5 -123t-133.5 -70q-1 0 -33.5 -7t-62.5 -14t-77.5 -19t-87.5 -23.5t-83 -27
t-74 -30.5q-103 -51 -167.5 -173.5t-76.5 -294.5h6q50 140 175 219.5t284 79.5q215 0 353.5 -137.5t138.5 -356.5q0 -220 -140.5 -359t-373.5 -139zM594 43q184 0 305 115.5t121 306.5q0 128 -58 225.5t-154.5 147t-215.5 49.5q-183 0 -307.5 -114.5t-124.5 -305.5
q0 -128 59 -226t157 -148t218 -50z" />
    <glyph glyph-name="uni0432" unicode="&#x432;" horiz-adv-x="1007" 
d="M727 498q97 -12 148 -73.5t51 -154.5q0 -130 -82.5 -200t-216.5 -70h-484v946h482q278 0 278 -231q0 -81 -47.5 -142t-128.5 -73v-2zM612 877h-395v-345h377q229 0 229 175q0 87 -51.5 128.5t-159.5 41.5zM614 70q118 0 175 53t57 147q0 92 -59 142.5t-179 50.5h-391
v-393h397z" />
    <glyph glyph-name="uni0433" unicode="&#x433;" horiz-adv-x="747" 
d="M737 946v-69h-520v-877h-74v946h594z" />
    <glyph glyph-name="uni0434" unicode="&#x434;" horiz-adv-x="1054" 
d="M918 70h96v-336h-72v266h-850v-266h-72v336h115q92 147 92 397v479h74h584h33v-876zM301 467q0 -241 -80 -397h623v807h-543v-410z" />
    <glyph glyph-name="uni0435" unicode="&#x435;" horiz-adv-x="1077" 
d="M549 977q98 0 176.5 -27.5t130 -73.5t86 -109.5t49.5 -132.5t15 -145v-20h-859q0 -198 113 -312t301 -114q59 0 110.5 13t86.5 30.5t70 48t55 53.5t47 58l57 -45q-30 -45 -63 -80t-84 -72.5t-122.5 -58.5t-156.5 -21q-223 0 -356 137.5t-133 364.5q0 238 134 372t343 134
zM547 903q-103 0 -188 -40t-142 -124t-67 -200h774q-14 173 -109.5 268.5t-267.5 95.5z" />
    <glyph glyph-name="uni0436" unicode="&#x436;" horiz-adv-x="1282" 
d="M1262 0h-111l-473 498v-498h-74v498l-473 -498h-111l496 510l-448 436h110l426 -424v424h74v-424l426 424h110l-448 -436z" />
    <glyph glyph-name="uni0437" unicode="&#x437;" horiz-adv-x="927" 
d="M459 -31q-218 0 -398 90l35 70q56 -26 95.5 -41t115 -30t158.5 -15q311 0 311 211q0 114 -78.5 162.5t-257.5 48.5h-155v70h157q74 0 127.5 8t97.5 27.5t66.5 56.5t22.5 92q0 96 -80.5 140t-218.5 44q-166 0 -332 -65l-29 67q175 72 363 72q174 0 275.5 -63t101.5 -185
q0 -94 -58.5 -152.5t-171.5 -70.5v-4q125 -10 187.5 -76t62.5 -178q0 -131 -96.5 -205t-300.5 -74z" />
    <glyph glyph-name="uni0438" unicode="&#x438;" horiz-adv-x="1105" 
d="M143 0v946h78v-848h4l637 848h101v-946h-78v848h-4l-637 -848h-101z" />
    <glyph glyph-name="uni0439" unicode="&#x439;" horiz-adv-x="1105" 
d="M831 1311q0 -134 -77 -210.5t-201 -76.5t-201.5 76.5t-77.5 210.5h70q3 -103 58.5 -161t150.5 -58t150.5 58t58.5 161h69zM143 0v946h78v-848h4l637 848h101v-946h-78v848h-4l-637 -848h-101z" />
    <glyph glyph-name="uni043A" unicode="&#x43a;" horiz-adv-x="864" 
d="M844 0h-119l-508 492v-492h-74v946h74v-420l461 420h119l-490 -436z" />
    <glyph glyph-name="uni043B" unicode="&#x43b;" horiz-adv-x="1099" 
d="M956 946v-946h-73v877h-594v-654q0 -223 -189 -223h-80v70h80q57 0 86 35.5t29 117.5v723h741z" />
    <glyph glyph-name="uni043C" unicode="&#x43c;" horiz-adv-x="1314" 
d="M41 0l266 946h74l274 -667h4l275 667h74l266 -946h-78l-229 811h-4l-271 -641h-69l-271 641h-4l-229 -811h-78z" />
    <glyph glyph-name="uni043D" unicode="&#x43d;" horiz-adv-x="1079" 
d="M862 946h74v-946h-74v479h-645v-479h-74v946h74v-397h645v397z" />
    <glyph glyph-name="uni043E" unicode="&#x43e;" horiz-adv-x="1150" 
d="M575 977q222 0 363 -141t141 -363t-141 -363t-363 -141q-221 0 -362 140.5t-141 363.5t141 363.5t362 140.5zM575 903q-182 0 -303.5 -119.5t-121.5 -310.5t121.5 -310.5t303.5 -119.5t304 120t122 310t-122 310t-304 120z" />
    <glyph glyph-name="uni043F" unicode="&#x43f;" horiz-adv-x="1058" 
d="M915 946v-946h-73v877h-625v-877h-74v946h74h698z" />
    <glyph glyph-name="uni0440" unicode="&#x440;" horiz-adv-x="1183" 
d="M143 -410v1356h74v-209h4q58 110 163.5 175t248.5 65q209 0 344 -137.5t135 -366.5t-135 -366.5t-344 -137.5q-143 0 -248.5 65t-163.5 175h-4v-619h-74zM623 43q186 0 298.5 120t112.5 310t-112.5 310t-298.5 120t-299 -120.5t-113 -309.5t113 -309.5t299 -120.5z" />
    <glyph glyph-name="uni0441" unicode="&#x441;" horiz-adv-x="960" 
d="M578 -31q-226 0 -366 140t-140 364t140 364t366 140q167 0 321 -92l-39 -68q-148 86 -287 86q-125 0 -223 -59t-149 -156.5t-51 -214.5t51 -214.5t149 -156.5t223 -59q139 0 287 86l39 -68q-154 -92 -321 -92z" />
    <glyph glyph-name="uni0442" unicode="&#x442;" horiz-adv-x="917" 
d="M907 946v-69h-411v-877h-74v877h-412v69h897z" />
    <glyph glyph-name="uni0443" unicode="&#x443;" horiz-adv-x="907" 
d="M801 946h86l-658 -1356h-82l263 525l-390 831h86l340 -756z" />
    <glyph glyph-name="uni0444" unicode="&#x444;" horiz-adv-x="1740" 
d="M834 -410v619h-5q-104 -240 -350 -240q-184 0 -290.5 135.5t-106.5 368.5t106.5 368.5t290.5 135.5q246 0 350 -240h5v645h73v-645h4q104 240 351 240q184 0 290.5 -135.5t106.5 -368.5t-106.5 -368.5t-290.5 -135.5q-247 0 -351 240h-4v-619h-73zM489 43q167 0 257 118
t90 312t-90 312t-257 118q-161 0 -245 -117.5t-84 -312.5t84 -312.5t245 -117.5zM1251 43q161 0 245.5 117.5t84.5 312.5t-84.5 312.5t-245.5 117.5q-167 0 -256.5 -118t-89.5 -312t89.5 -312t256.5 -118z" />
    <glyph glyph-name="uni0445" unicode="&#x445;" horiz-adv-x="913" 
d="M799 0l-342 436l-342 -436h-95l392 496l-357 450h95l307 -393l307 393h94l-356 -450l391 -496h-94z" />
    <glyph glyph-name="uni0446" unicode="&#x446;" horiz-adv-x="1017" 
d="M885 70h92v-336h-74v266h-92h-631h-37v946h74v-876h594v876h74v-876z" />
    <glyph glyph-name="uni0447" unicode="&#x447;" horiz-adv-x="874" 
d="M657 946h74v-946h-74v412h-387q-229 0 -229 217v317h74v-317q0 -80 39.5 -114t115.5 -34h387v465z" />
    <glyph glyph-name="uni0448" unicode="&#x448;" horiz-adv-x="1634" 
d="M1417 946h74v-946h-74h-637h-600h-37v946h74v-876h563v876h74v-876h563v876z" />
    <glyph glyph-name="uni0449" unicode="&#x449;" horiz-adv-x="1624" 
d="M1491 70h92v-336h-74v266h-92h-637h-600h-37v946h74v-876h563v876h74v-876h563v876h74v-876z" />
    <glyph glyph-name="uni044A" unicode="&#x44a;" horiz-adv-x="1193" 
d="M854 582q132 0 215.5 -78t83.5 -213t-83.5 -213t-215.5 -78h-455v877h-389v69h463v-364h381zM842 70q119 0 175 58.5t56 162.5t-56 162.5t-175 58.5h-369v-442h369z" />
    <glyph glyph-name="uni044B" unicode="&#x44b;" horiz-adv-x="1212" 
d="M598 582q132 0 215.5 -78t83.5 -213t-83.5 -213t-215.5 -78h-455v946h74v-364h381zM995 946h74v-946h-74v946zM586 70q119 0 175 58.5t56 162.5t-56 162.5t-175 58.5h-369v-442h369z" />
    <glyph glyph-name="uni044C" unicode="&#x44c;" horiz-adv-x="937" 
d="M598 582q132 0 215.5 -78t83.5 -213t-83.5 -213t-215.5 -78h-455v946h74v-364h381zM586 70q119 0 175 58.5t56 162.5t-56 162.5t-175 58.5h-369v-442h369z" />
    <glyph glyph-name="uni044D" unicode="&#x44d;" horiz-adv-x="970" 
d="M403 977q228 0 357 -138t129 -366t-129 -366t-357 -138q-187 0 -342 105l43 63q142 -94 304 -94q181 0 286.5 112t114.5 283h-483v70h483q-9 171 -114.5 283t-286.5 112q-162 0 -304 -94l-43 63q155 105 342 105z" />
    <glyph glyph-name="uni044E" unicode="&#x44e;" horiz-adv-x="1464" 
d="M889 977q222 0 363 -141t141 -363t-141 -363t-363 -141q-212 0 -352 130t-152 339h-168v-438h-74v946h74v-438h168q12 209 152 339t352 130zM889 43q182 0 304 120t122 310t-122 310t-304 120t-304 -120t-122 -310t122 -310t304 -120z" />
    <glyph glyph-name="uni044F" unicode="&#x44f;" horiz-adv-x="927" 
d="M350 946h434v-946h-73v410h-273l-301 -410h-96l309 410q-134 0 -218.5 68t-84.5 200q0 133 84.5 200.5t218.5 67.5zM358 479h353v398h-353q-115 0 -174 -52.5t-59 -146.5t59 -146.5t174 -52.5z" />
    <glyph glyph-name="uni0451" unicode="&#x451;" horiz-adv-x="1077" 
d="M455 1290v-225h-107v225h107zM750 1290v-225h-107v225h107zM549 977q98 0 176.5 -27.5t130 -73.5t86 -109.5t49.5 -132.5t15 -145v-20h-859q0 -198 113 -312t301 -114q59 0 110.5 13t86.5 30.5t70 48t55 53.5t47 58l57 -45q-30 -45 -63 -80t-84 -72.5t-122.5 -58.5
t-156.5 -21q-223 0 -356 137.5t-133 364.5q0 238 134 372t343 134zM547 903q-103 0 -188 -40t-142 -124t-67 -200h774q-14 173 -109.5 268.5t-267.5 95.5z" />
    <glyph glyph-name="uni0452" unicode="&#x452;" horiz-adv-x="1101" 
d="M598 977q170 0 270.5 -102.5t100.5 -307.5v-743q0 -115 -54 -174.5t-161 -59.5h-92v70h96q137 0 137 164v743q0 170 -81.5 253t-217.5 83q-58 0 -110.5 -14.5t-102.5 -50t-86 -90t-58 -140t-22 -194.5v-414h-74v1186h-143v61h143v187h74v-187h338v-61h-338v-477h4
q44 131 144.5 199.5t232.5 68.5z" />
    <glyph glyph-name="uni0453" unicode="&#x453;" horiz-adv-x="747" 
d="M731 1346l-239 -316h-74l194 316h119zM737 946v-69h-520v-877h-74v946h594z" />
    <glyph glyph-name="uni0454" unicode="&#x454;" horiz-adv-x="970" 
d="M563 43q161 0 303 94l43 -63q-155 -105 -342 -105q-228 0 -356.5 138t-128.5 366t128.5 366t356.5 138q187 0 342 -105l-43 -63q-142 94 -303 94q-181 0 -286.5 -112t-114.5 -283h483v-70h-483q9 -171 114.5 -283t286.5 -112z" />
    <glyph glyph-name="uni0455" unicode="&#x455;" horiz-adv-x="841" 
d="M451 -31q-113 0 -217 34t-183 93l43 64q163 -117 361 -117q124 0 185.5 49.5t61.5 124.5q0 65 -45.5 109.5t-124.5 79.5l-180 81q-105 47 -159 107.5t-54 148.5q0 113 84 173.5t226 60.5q158 0 307 -76l-37 -70q-138 72 -270 72q-104 0 -168 -40t-64 -118
q0 -63 43.5 -106t130.5 -82l168 -76q50 -23 85 -44t68.5 -52.5t50.5 -73.5t17 -94q0 -120 -88 -184t-241 -64z" />
    <glyph glyph-name="uni0456" unicode="&#x456;" horiz-adv-x="339" 
d="M223 1413v-246h-106v246h106zM133 0v946h74v-946h-74z" />
    <glyph glyph-name="uni0457" unicode="&#x457;" horiz-adv-x="339" 
d="M117 1290v-225h-107v225h107zM330 1290v-225h-107v225h107zM133 0v946h74v-946h-74z" />
    <glyph glyph-name="uni0458" unicode="&#x458;" horiz-adv-x="339" 
d="M223 1413v-246h-106v246h106zM-102 -348h59q90 0 133 56t43 181v1057h74v-1057q0 -307 -250 -307h-59v70z" />
    <glyph glyph-name="uni0459" unicode="&#x459;" horiz-adv-x="1615" 
d="M1276 582q132 0 215.5 -78t83.5 -213t-83.5 -213t-215.5 -78h-434v877h-574v-654q0 -223 -188 -223h-60v70h60q57 0 86 35.5t29 117.5v723h720v-364h361zM1264 70q119 0 175 58.5t56 162.5t-56 162.5t-175 58.5h-349v-442h349z" />
    <glyph glyph-name="uni045A" unicode="&#x45a;" horiz-adv-x="1613" 
d="M1274 582q132 0 215.5 -78t83.5 -213t-83.5 -213t-215.5 -78h-434v512h-623v-512h-74v946h74v-364h623v364h73v-364h361zM1262 70q119 0 175 58.5t56 162.5t-56 162.5t-175 58.5h-349v-442h349z" />
    <glyph glyph-name="uni045B" unicode="&#x45b;" horiz-adv-x="1101" 
d="M598 977q170 0 270.5 -102.5t100.5 -307.5v-567h-74v567q0 170 -81.5 253t-217.5 83q-58 0 -110.5 -14.5t-102.5 -50t-86 -90t-58 -140t-22 -194.5v-414h-74v1186h-143v61h143v187h74v-187h338v-61h-338v-477h4q44 131 144.5 199.5t232.5 68.5z" />
    <glyph glyph-name="uni045C" unicode="&#x45c;" horiz-adv-x="864" 
d="M713 1346l-240 -316h-74l195 316h119zM844 0h-119l-508 492v-492h-74v946h74v-420l461 420h119l-490 -436z" />
    <glyph glyph-name="uni045E" unicode="&#x45e;" horiz-adv-x="907" 
d="M455 1024q-124 0 -201.5 76.5t-77.5 210.5h70q3 -103 58.5 -161t150.5 -58t150.5 58t58.5 161h69q0 -134 -77 -210.5t-201 -76.5zM801 946h86l-658 -1356h-82l263 525l-390 831h86l340 -756z" />
    <glyph glyph-name="uni045F" unicode="&#x45f;" horiz-adv-x="1060" 
d="M844 946h74v-946h-351v-266h-73v266h-351v946h74v-876h627v876z" />
    <glyph glyph-name="uni0462" unicode="&#x462;" horiz-adv-x="1273" 
d="M799 795q201 0 317.5 -108.5t116.5 -289.5t-116.5 -289t-317.5 -108h-482v1096h-297v71h297v267h82v-267h465v-71h-465v-301h400zM778 78q182 0 275.5 86t93.5 233q0 148 -93.5 234t-275.5 86h-379v-639h379z" />
    <glyph glyph-name="uni0463" unicode="&#x463;" horiz-adv-x="989" 
d="M649 582q132 0 215.5 -78t83.5 -213t-83.5 -213t-215.5 -78h-454v885h-195v61h195v488h73v-488h389v-61h-389v-303h381zM637 70q119 0 175 58.5t56 162.5t-56 162.5t-175 58.5h-369v-442h369z" />
    <glyph glyph-name="uni0472" unicode="&#x472;" horiz-adv-x="1658" 
d="M829 1464q211 0 381.5 -94t268.5 -265.5t98 -387.5t-98 -387.5t-268.5 -266t-381.5 -94.5t-381.5 94.5t-268 266t-97.5 387.5q0 162 57 302t156.5 237t237.5 152.5t296 55.5zM829 1382q-183 0 -331 -79t-234.5 -222.5t-95.5 -326.5h1323q-9 183 -96 326.5t-235 222.5
t-331 79zM829 51q279 0 464.5 176t197.5 455h-1323q12 -279 197 -455t464 -176z" />
    <glyph glyph-name="uni0473" unicode="&#x473;" horiz-adv-x="1150" 
d="M575 977q222 0 363 -141t141 -363t-141 -363t-363 -141q-221 0 -362 140.5t-141 363.5t141 363.5t362 140.5zM575 903q-173 0 -294 -110t-131 -289h851q-10 179 -131.5 289t-294.5 110zM575 43q173 0 294.5 110t131.5 289h-851q10 -179 131 -289t294 -110z" />
    <glyph glyph-name="uni0474" unicode="&#x474;" horiz-adv-x="1337" 
d="M1042 1153l-401 -1153h-86l-524 1434h98l467 -1315h4l373 1108q40 122 98.5 173.5t161.5 51.5q34 0 74 -4v-86q-36 4 -66 4q-78 0 -117.5 -45.5t-81.5 -167.5z" />
    <glyph glyph-name="uni0475" unicode="&#x475;" horiz-adv-x="1005" 
d="M967 965h18v-76h-22q-55 0 -88.5 -22.5t-61.5 -88.5l-324 -778h-77l-392 946h89l342 -854l288 719q35 87 85.5 120.5t142.5 33.5z" />
    <glyph glyph-name="uni048E" unicode="&#x48e;" horiz-adv-x="1112" 
d="M1051 1026q0 -124 -57 -220.5t-160 -146.5l133 -178l-45 -35l-144 193q-64 -21 -141 -21h-391v-618h-82v1434h473q189 0 301.5 -115t112.5 -293zM639 696q23 0 88 9l-170 227l45 35l182 -244q86 36 133.5 113t47.5 190q0 157 -90 243.5t-236 86.5h-393v-660h393z" />
    <glyph glyph-name="uni048F" unicode="&#x48f;" horiz-adv-x="1183" 
d="M1112 473q0 -135 -49 -240.5t-137 -171.5l143 -174l-41 -34l-147 180q-112 -64 -248 -64q-143 0 -248.5 65t-163.5 175h-4v-619h-74v1356h74v-209h4q58 110 163.5 175t248.5 65q209 0 344 -137.5t135 -366.5zM623 43q117 0 208 51l-149 180l41 35l154 -186
q75 57 116 147.5t41 202.5q0 190 -112.5 310t-298.5 120t-299 -120.5t-113 -309.5t113 -309.5t299 -120.5z" />
    <glyph glyph-name="uni0490" unicode="&#x490;" horiz-adv-x="1003" 
d="M901 1720h82v-364h-737v-1356h-82v1434h737v286z" />
    <glyph glyph-name="uni0491" unicode="&#x491;" horiz-adv-x="768" 
d="M684 1182h74v-305h-541v-877h-74v946h541v236z" />
    <glyph glyph-name="uni0492" unicode="&#x492;" horiz-adv-x="1060" 
d="M1040 1356h-716v-580h479v-71h-479v-705h-82v705h-222v71h222v658h798v-78z" />
    <glyph glyph-name="uni0493" unicode="&#x493;" horiz-adv-x="829" 
d="M819 877h-520v-349h330v-69h-330v-459h-74v459h-174v69h174v418h594v-69z" />
    <glyph glyph-name="uni0494" unicode="&#x494;" horiz-adv-x="1171" 
d="M725 811q76 0 133 -7.5t108.5 -27.5t83.5 -54t51 -90t19 -132v-508q0 -197 -89.5 -299.5t-293.5 -102.5h-98v78h102q163 0 230 81.5t67 242.5v508q0 60 -15.5 103t-41 68t-68 39t-85.5 18.5t-105 4.5q-204 0 -477 -28v-705h-82v1434h799v-78h-717v-574q284 29 479 29z
" />
    <glyph glyph-name="uni0495" unicode="&#x495;" horiz-adv-x="952" 
d="M582 524q149 0 224 -70.5t75 -222.5v-317q0 -156 -75.5 -240t-227.5 -84h-103v74h92q115 0 177.5 58.5t62.5 195.5v311q0 222 -223 222q-168 0 -367 -37v-414h-74v946h635v-69h-561v-388q223 35 365 35z" />
    <glyph glyph-name="uni0496" unicode="&#x496;" horiz-adv-x="1734" 
d="M1618 51h65v-338h-81v287h-52l-667 741v-741h-80v741l-668 -741h-115l697 756l-613 678h113l586 -662v662h80v-662l585 662h113l-612 -678z" />
    <glyph glyph-name="uni0497" unicode="&#x497;" horiz-adv-x="1331" 
d="M1225 39h65v-305h-73v266h-66l-473 498v-498h-74v498l-473 -498h-111l496 510l-448 436h110l426 -424v424h74v-424l426 424h110l-448 -436z" />
    <glyph glyph-name="uni0498" unicode="&#x498;" horiz-adv-x="1208" 
d="M1116 377q0 -185 -121.5 -292t-365.5 -116l-27 -67q25 -6 41.5 -11t38.5 -16t35.5 -25t23 -36.5t9.5 -51.5q0 -22 -7 -41t-26 -37t-33.5 -30t-48.5 -29.5t-51.5 -26t-60.5 -27.5q-7 -3 -11 -5l-18 39q96 45 137 77.5t41 69.5t-29.5 54.5t-112.5 35.5l50 127
q-275 3 -508 137l43 76q220 -131 473 -131q442 0 442 326q0 189 -133 268.5t-403 79.5h-183v78h181q225 0 351 79.5t126 229.5q0 124 -94.5 197t-278.5 73q-124 0 -246.5 -34t-222.5 -91l-39 80q225 127 506 127q231 0 346 -92.5t115 -257.5q0 -144 -85 -226t-245 -116v-2
q80 -6 146.5 -28t123.5 -66t89 -120t32 -179z" />
    <glyph glyph-name="uni0499" unicode="&#x499;" horiz-adv-x="927" 
d="M856 248q0 -126 -90 -199.5t-279 -79.5l-26 -67q32 -8 52 -15.5t45 -22.5t37.5 -40.5t12.5 -61.5q0 -26 -13 -49.5t-30.5 -40.5t-52.5 -37t-59.5 -32t-72.5 -33q-6 -3 -9 -4l-19 39q96 45 137 77.5t41 69.5t-29 54.5t-112 35.5l49 127q-206 5 -377 90l35 70
q56 -26 95.5 -41t115 -30t158.5 -15q311 0 311 211q0 114 -78.5 162.5t-257.5 48.5h-155v70h157q74 0 127.5 8t97.5 27.5t66.5 56.5t22.5 92q0 96 -80.5 140t-218.5 44q-166 0 -332 -65l-29 67q175 72 363 72q174 0 275.5 -63t101.5 -185q0 -94 -58.5 -152.5t-171.5 -70.5
v-4q125 -10 187.5 -76t62.5 -178z" />
    <glyph glyph-name="uni049A" unicode="&#x49a;" horiz-adv-x="1181" 
d="M1075 51h55v-338h-81v287h-48l-757 754v-754h-80v1434h80v-660l678 660h122l-698 -670z" />
    <glyph glyph-name="uni049B" unicode="&#x49b;" horiz-adv-x="897" 
d="M803 39h53v-305h-74v266h-57l-508 492v-492h-74v946h74v-420l461 420h119l-490 -436z" />
    <glyph glyph-name="uni049C" unicode="&#x49c;" horiz-adv-x="1312" 
d="M1165 0l-657 731h-80v-311h-61v311h-123v-731h-80v1434h80v-625h123v338h61v-338h92l565 625h123l-616 -670l700 -764h-127z" />
    <glyph glyph-name="uni049D" unicode="&#x49d;" horiz-adv-x="940" 
d="M809 0l-401 479h-54v-278h-57v278h-80v-479h-74v946h74v-405h80v272h57v-272h56l376 405h107l-410 -436l437 -510h-111z" />
    <glyph glyph-name="uni049E" unicode="&#x49e;" horiz-adv-x="1263" 
d="M1243 0h-127l-758 754v-754h-79v1157h-259v72h259v205h79v-205h283v-72h-283v-383l678 660h123l-698 -670z" />
    <glyph glyph-name="uni049F" unicode="&#x49f;" horiz-adv-x="870" 
d="M850 0h-119l-514 498v-498h-74v1186h-143v61h143v187h74v-187h338v-61h-338v-666l467 426h119l-490 -436z" />
    <glyph glyph-name="uni04A0" unicode="&#x4a0;" horiz-adv-x="1411" 
d="M1391 0h-127l-758 754v-754h-80v1356h-406v78h449h37v-660l678 660h123l-699 -670z" />
    <glyph glyph-name="uni04A1" unicode="&#x4a1;" horiz-adv-x="1120" 
d="M1100 0h-119l-508 492v-492h-74v877h-389v69h451h12v-420l461 420h119l-490 -436z" />
    <glyph glyph-name="uni04A2" unicode="&#x4a2;" horiz-adv-x="1337" 
d="M1229 51h57v-338h-82v287h-57v731h-901v-731h-82v1434h82v-625h901v625h82v-1383z" />
    <glyph glyph-name="uni04A3" unicode="&#x4a3;" horiz-adv-x="1034" 
d="M936 39h57v-305h-73v266h-58v479h-645v-479h-74v946h74v-397h645v397h74v-907z" />
    <glyph glyph-name="uni04A4" unicode="&#x4a4;" horiz-adv-x="1822" 
d="M1802 1434v-78h-614v-1356h-82v731h-860v-731h-82v1434h82v-625h860v625h696z" />
    <glyph glyph-name="uni04A5" unicode="&#x4a5;" horiz-adv-x="1384" 
d="M1374 946v-69h-479v-877h-74v479h-604v-479h-74v946h74v-397h604v397h553z" />
    <glyph glyph-name="uni04A6" unicode="&#x4a6;" horiz-adv-x="2115" 
d="M1669 811q76 0 133 -7.5t108.5 -27.5t83.5 -54t51 -90t19 -132v-140q0 -93 -17.5 -158t-59 -111.5t-111 -68.5t-172.5 -22h-121v78h123q160 0 218 65t58 217v140q0 60 -15.5 103t-41 68t-68 39t-85.5 18.5t-105 4.5q-181 0 -438 -24v-709h-82v1356h-901v-1356h-82v1434
h1065v-648q285 25 440 25z" />
    <glyph glyph-name="uni04A7" unicode="&#x4a7;" horiz-adv-x="1650" 
d="M1298 553q132 0 206.5 -71.5t74.5 -221.5v-346q0 -156 -75.5 -240t-227.5 -84h-102v74h92q115 0 177 58.5t62 195.5v340q0 221 -223 221q-168 0 -367 -37v-442h-73v877h-625v-877h-74v946h74h678h20v-428q219 35 383 35z" />
    <glyph glyph-name="uni04A8" unicode="&#x4a8;" horiz-adv-x="1542" 
d="M1511 35q-115 -66 -239 -66q-121 0 -232 54q-111 -54 -264 -54q-146 0 -271 56.5t-213.5 156t-139 241.5t-50.5 308q0 215 81.5 381t234.5 259t354 93q131 0 248 -47l-37 -74q-112 39 -217 39q-172 0 -304 -85t-203 -234t-71 -338q0 -195 76 -349t211 -239.5t303 -85.5
q93 0 176 25q-124 85 -194 237t-70 340q0 143 40 251.5t124.5 172.5t204.5 64q174 0 267 -128.5t93 -342.5q0 -200 -75.5 -356t-219.5 -244q70 -25 146 -25q111 0 205 59zM776 647q0 -181 70 -322t192 -216q139 71 217 215.5t78 337.5q0 182 -73.5 289.5t-200.5 107.5
q-132 0 -207.5 -114t-75.5 -298z" />
    <glyph glyph-name="uni04A9" unicode="&#x4a9;" horiz-adv-x="1103" 
d="M1055 84l28 -66q-100 -49 -206 -49q-94 0 -166 35q-59 -35 -166 -35q-135 0 -240 53.5t-169 166.5t-64 272q0 236 135 376t364 140q113 0 209 -35l-30 -68q-85 29 -177 29q-193 0 -308 -118.5t-115 -321.5q0 -195 107.5 -307.5t287.5 -112.5q35 0 73 6q-159 101 -159 328
q0 150 71 231.5t199 81.5q131 0 198.5 -83t67.5 -216q0 -110 -49.5 -200.5t-146.5 -147.5q41 -6 78 -6q86 0 178 47zM537 375q0 -221 172 -303q98 40 153.5 124t55.5 195q0 99 -46 162t-141 63q-88 0 -141 -58.5t-53 -182.5z" />
    <glyph glyph-name="uni04AA" unicode="&#x4aa;" horiz-adv-x="1409" 
d="M1337 135q-113 -84 -228.5 -125t-262.5 -41l-27 -67q25 -6 41.5 -11t38.5 -16t35.5 -25t23 -36.5t9.5 -51.5q0 -22 -7 -41t-26 -37t-33.5 -30t-48.5 -29.5t-51.5 -26t-60.5 -27.5q-7 -3 -11 -5l-18 39q96 45 137 77.5t41 69.5t-29 54.5t-112 35.5l49 129
q-326 15 -520.5 220.5t-194.5 525.5q0 219 93 388t267 264t404 95q147 0 262.5 -41t228.5 -125l-51 -69q-101 76 -203.5 114.5t-238.5 38.5q-201 0 -355.5 -85.5t-237.5 -236.5t-83 -343q0 -144 48.5 -267t136 -211t214 -138t277.5 -50q135 0 237.5 39t204.5 115z" />
    <glyph glyph-name="uni04AB" unicode="&#x4ab;" horiz-adv-x="960" 
d="M899 61q-142 -86 -295 -92l-26 -67q32 -8 52 -15.5t45 -22.5t37.5 -40.5t12.5 -61.5q0 -22 -7 -41t-26 -37t-33.5 -30t-48.5 -29.5t-51.5 -26t-60.5 -27.5q-7 -3 -11 -5l-18 39q96 45 137 77.5t41 69.5t-29 54.5t-112 35.5l49 127q-217 7 -350 146.5t-133 357.5
q0 224 140 364t366 140q167 0 321 -92l-39 -68q-148 86 -287 86q-125 0 -223 -59t-149 -156.5t-51 -214.5t51 -214.5t149 -156.5t223 -59q139 0 287 86z" />
    <glyph glyph-name="uni04AC" unicode="&#x4ac;" horiz-adv-x="1044" 
d="M1024 1356h-461v-1305h51v-338h-82v287h-51v1356h-461v78h1004v-78z" />
    <glyph glyph-name="uni04AD" unicode="&#x4ad;" horiz-adv-x="917" 
d="M907 877h-411v-838h57v-305h-74v266h-57v877h-412v69h897v-69z" />
    <glyph glyph-name="uni04AE" unicode="&#x4ae;" horiz-adv-x="1069" 
d="M1049 1434l-474 -889v-545h-81v545l-474 889h99l413 -797h5l413 797h99z" />
    <glyph glyph-name="uni04AF" unicode="&#x4af;" horiz-adv-x="901" 
d="M881 946l-394 -942v-414h-73v414l-394 942h89l342 -854l342 854h88z" />
    <glyph glyph-name="uni04B0" unicode="&#x4b0;" horiz-adv-x="1069" 
d="M1049 1434l-459 -865h274v-71h-289v-498h-81v498h-289v71h274l-459 865h99l413 -797h5l413 797h99z" />
    <glyph glyph-name="uni04B1" unicode="&#x4b1;" horiz-adv-x="901" 
d="M881 946l-392 -936h289v-63h-291v-357h-73v357h-271v63h269l-392 936h89l342 -854l342 854h88z" />
    <glyph glyph-name="uni04B2" unicode="&#x4b2;" horiz-adv-x="1234" 
d="M1116 51h68v-338h-82v287h-49l-457 680l-457 -680h-98l506 754l-457 680h98l408 -607l408 607h98l-457 -680z" />
    <glyph glyph-name="uni04B3" unicode="&#x4b3;" horiz-adv-x="972" 
d="M862 39h70v-305h-74v266h-59l-342 436l-342 -436h-95l392 496l-357 450h95l307 -393l307 393h94l-356 -450z" />
    <glyph glyph-name="uni04B4" unicode="&#x4b4;" horiz-adv-x="1736" 
d="M1546 78h109v-365h-82v287h-1030v1356h-523v78h605h419v-78h-419v-1278h839v1356h82v-1356z" />
    <glyph glyph-name="uni04B5" unicode="&#x4b5;" horiz-adv-x="1294" 
d="M1161 70h92v-336h-73v266h-93h-630h-37v877h-410v69h484h307v-69h-307v-807h593v876h74v-876z" />
    <glyph glyph-name="uni04B6" unicode="&#x4b6;" horiz-adv-x="1091" 
d="M969 51h71v-338h-82v287h-71v643h-510q-171 0 -248.5 70.5t-77.5 220.5v500h82v-500q0 -116 61 -164.5t189 -48.5h504v713h82v-1383z" />
    <glyph glyph-name="uni04B7" unicode="&#x4b7;" horiz-adv-x="827" 
d="M731 35h55v-305h-73v270h-56v412h-387q-229 0 -229 217v317h74v-317q0 -80 39.5 -114t115.5 -34h387v465h74v-911z" />
    <glyph glyph-name="uni04B8" unicode="&#x4b8;" horiz-adv-x="1132" 
d="M887 1434h82v-1434h-82v643h-314v-340h-61v340h-135q-171 0 -248.5 70.5t-77.5 220.5v500h82v-500q0 -116 61 -164.5t189 -48.5h129v309h61v-309h314v713z" />
    <glyph glyph-name="uni04B9" unicode="&#x4b9;" horiz-adv-x="874" 
d="M657 946h74v-946h-74v412h-194v-211h-57v211h-136q-229 0 -229 217v317h74v-317q0 -80 39.5 -114t115.5 -34h136v230h57v-230h194v465z" />
    <glyph glyph-name="uni04BA" unicode="&#x4ba;" horiz-adv-x="1132" 
d="M756 791q170 0 247.5 -70.5t77.5 -220.5v-500h-82v500q0 116 -60.5 164.5t-188.5 48.5h-504v-713h-82v1434h82v-643h510z" />
    <glyph glyph-name="uni04BB" unicode="&#x4bb;" horiz-adv-x="1101" 
d="M217 1434v-725h4q44 131 144.5 199.5t232.5 68.5q170 0 270.5 -102.5t100.5 -307.5v-567h-74v567q0 170 -81.5 253t-217.5 83q-58 0 -110.5 -14.5t-102.5 -50t-86 -90t-58 -140t-22 -194.5v-414h-74v1434h74z" />
    <glyph glyph-name="uni04BC" unicode="&#x4bc;" horiz-adv-x="1908" 
d="M1090 1464q217 0 383.5 -88t260 -255t93.5 -390v-49h-86h-1323q12 -289 200.5 -460t479.5 -171q185 0 335 71t244 197l62 -53q-105 -139 -271.5 -218t-371.5 -79q-212 0 -382 85.5t-272 248.5t-110 379h-53q-118 0 -183 56.5t-65 164.5q0 69 18 129h78q-18 -58 -18 -121
q0 -76 41 -113.5t129 -37.5h53q15 316 222 510t536 194zM1090 1382q-296 0 -477 -171t-193 -451h1321q-9 288 -185.5 455t-465.5 167z" />
    <glyph glyph-name="uni04BD" unicode="&#x4bd;" horiz-adv-x="1245" 
d="M1174 489v-20h-859q0 -198 113 -312t301 -114q59 0 110.5 13t86.5 30.5t70 48t55 53.5t47 58l57 -45q-30 -45 -63 -80t-84 -72.5t-122.5 -58.5t-156.5 -21q-223 0 -356 137.5t-133 362.5h-21q-82 0 -125 41t-43 119q0 43 17 102h67q-16 -56 -16 -98q0 -94 100 -94h25
q20 207 149.5 322.5t323.5 115.5q98 0 176.5 -27.5t130 -73.5t86 -109.5t49.5 -132.5t15 -145zM317 539h775q-14 173 -109.5 268.5t-267.5 95.5q-103 0 -188 -40t-142.5 -124t-67.5 -200z" />
    <glyph glyph-name="uni04BE" unicode="&#x4be;" horiz-adv-x="1908" 
d="M1090 1464q217 0 383.5 -88t260 -255t93.5 -390v-49h-86h-1323q12 -289 200.5 -460t479.5 -171q185 0 335 71t244 197l62 -53q-136 -178 -357 -252q-109 -77 -163 -137.5t-54 -114.5q0 -75 111 -75q52 0 106 14l4 -66q-63 -18 -118 -18q-74 0 -126 33.5t-52 99.5
q0 105 149 230q-86 -11 -143 -11q-212 0 -382 85.5t-272 248.5t-110 379h-53q-118 0 -183 56.5t-65 164.5q0 69 18 129h78q-18 -58 -18 -121q0 -76 41 -113.5t129 -37.5h53q15 316 222 510t536 194zM1090 1382q-296 0 -477 -171t-193 -451h1321q-9 288 -185.5 455
t-465.5 167z" />
    <glyph glyph-name="uni04BF" unicode="&#x4bf;" horiz-adv-x="1245" 
d="M1174 489v-20h-859q0 -198 113 -312t301 -114q59 0 110.5 13t86.5 30.5t70 48t55 53.5t47 58l57 -45q-89 -130 -203 -185q-110 -78 -164.5 -139t-54.5 -115q0 -75 111 -75q52 0 106 14l4 -66q-63 -18 -118 -18q-75 0 -127 33.5t-52 99.5q0 102 142 223q-46 -4 -70 -4
q-223 0 -356 137.5t-133 362.5h-21q-82 0 -125 41t-43 119q0 43 17 102h67q-16 -56 -16 -98q0 -94 100 -94h25q20 207 149.5 322.5t323.5 115.5q98 0 176.5 -27.5t130 -73.5t86 -109.5t49.5 -132.5t15 -145zM317 539h775q-14 173 -109.5 268.5t-267.5 95.5q-103 0 -188 -40
t-142.5 -124t-67.5 -200z" />
    <glyph glyph-name="uni04C0" unicode="&#x4c0;" horiz-adv-x="409" 
d="M246 1434v-1434h-82v1434h82z" />
    <glyph glyph-name="uni04C1" unicode="&#x4c1;" horiz-adv-x="1685" 
d="M844 1501q-124 0 -201.5 70.5t-77.5 195.5h70q3 -94 58.5 -146t150.5 -52t150.5 52t58.5 146h69q0 -125 -77 -195.5t-201 -70.5zM1665 0h-115l-667 741v-741h-80v741l-668 -741h-115l697 756l-613 678h113l586 -662v662h80v-662l585 662h113l-612 -678z" />
    <glyph glyph-name="uni04C2" unicode="&#x4c2;" horiz-adv-x="1282" 
d="M641 1024q-124 0 -201.5 76.5t-77.5 210.5h70q3 -103 58.5 -161t150.5 -58t150.5 58t58.5 161h70q0 -134 -77.5 -210.5t-201.5 -76.5zM1262 0h-111l-473 498v-498h-74v498l-473 -498h-111l496 510l-448 436h110l426 -424v424h74v-424l426 424h110l-448 -436z" />
    <glyph glyph-name="uni04C3" unicode="&#x4c3;" horiz-adv-x="1142" 
d="M696 770q77 0 133.5 -7.5t108 -27.5t84 -54t51.5 -90t19 -132v-467q0 -197 -89.5 -299.5t-293.5 -102.5h-99v78h103q163 0 230 81.5t67 242.5v467q0 75 -22 122.5t-68 71t-97 31.5t-129 8q-175 0 -448 -26v-666h-82v1434h82v-691h10l672 691h125l-682 -680q184 16 325 16
z" />
    <glyph glyph-name="uni04C4" unicode="&#x4c4;" horiz-adv-x="903" 
d="M541 500q151 0 236 -68.5t85 -212.5v-305q0 -156 -75.5 -240t-227.5 -84h-102v74h92q115 0 177 58.5t62 195.5v299q0 209 -264 209q-128 0 -307 -25v-401h-74v946h74v-465l467 465h119l-496 -471q109 25 234 25z" />
    <glyph glyph-name="uni04C5" unicode="&#x4c5;" horiz-adv-x="1460" 
d="M1290 96h78l-149 -362h-80l104 266h-35v1356h-809v-1034q0 -172 -67.5 -252t-216.5 -80h-74v82h68q106 0 157 56.5t51 193.5v1112h973v-1338z" />
    <glyph glyph-name="uni04C6" unicode="&#x4c6;" horiz-adv-x="1087" 
d="M956 96h60l-150 -362h-80l105 266h-8v877h-594v-654q0 -223 -189 -223h-80v70h80q57 0 86 35.5t29 117.5v723h74h667v-850z" />
    <glyph glyph-name="uni04C7" unicode="&#x4c7;" horiz-adv-x="1392" 
d="M1147 1434h82v-1598q0 -116 -56 -181t-163 -65h-119v78h123q65 0 99 44.5t34 123.5v895h-901v-731h-82v1434h82v-625h901v625z" />
    <glyph glyph-name="uni04C8" unicode="&#x4c8;" horiz-adv-x="1079" 
d="M862 946h74v-1122q0 -115 -54 -174.5t-161 -59.5h-92v70h96q137 0 137 164v655h-645v-479h-74v946h74v-397h645v397z" />
    <glyph glyph-name="uni04C9" unicode="&#x4c9;" horiz-adv-x="1402" 
d="M1229 96h82l-150 -362h-80l105 266h-39v731h-901v-731h-82v1434h82v-625h901v625h82v-1338z" />
    <glyph glyph-name="uni04CA" unicode="&#x4ca;" horiz-adv-x="1085" 
d="M936 96h78l-150 -362h-80l105 266h-27v479h-645v-479h-74v946h74v-397h645v397h74v-850z" />
    <glyph glyph-name="uni04CB" unicode="&#x4cb;" horiz-adv-x="1132" 
d="M969 1434v-1434h-68v-287h-82v338h68v592h-510q-171 0 -248.5 70.5t-77.5 220.5v500h82v-500q0 -116 61 -164.5t189 -48.5h504v713h82z" />
    <glyph glyph-name="uni04CC" unicode="&#x4cc;" horiz-adv-x="874" 
d="M731 946v-946h-57v-266h-74v305h57v373h-387q-229 0 -229 217v317h74v-317q0 -80 39.5 -114t115.5 -34h387v465h74z" />
    <glyph glyph-name="uni04CD" unicode="&#x4cd;" horiz-adv-x="1736" 
d="M1638 96h88l-149 -362h-80l105 266h-25l-307 1270h-4l-389 -1028h-70l-389 1028h-4l-308 -1270h-86l353 1434h73l394 -1065h4l393 1065h74z" />
    <glyph glyph-name="uni04CE" unicode="&#x4ce;" horiz-adv-x="1341" 
d="M1247 96h84l-149 -362h-80l104 266h-10l-229 811h-4l-271 -641h-69l-271 641h-4l-229 -811h-78l266 946h74l274 -667h4l275 667h74z" />
    <glyph glyph-name="uni04CF" unicode="&#x4cf;" horiz-adv-x="339" 
d="M133 0v946h74v-946h-74z" />
    <glyph glyph-name="uni04D0" unicode="&#x4d0;" horiz-adv-x="1294" 
d="M647 1501q-124 0 -201 70.5t-77 195.5h69q3 -94 58.5 -146t150.5 -52t150.5 52t58.5 146h70q0 -125 -77.5 -195.5t-201.5 -70.5zM1188 0l-170 418h-742l-170 -418h-86l584 1434h86l584 -1434h-86zM309 496h676l-338 831z" />
    <glyph glyph-name="uni04D1" unicode="&#x4d1;" horiz-adv-x="1173" 
d="M840 1311q0 -134 -77.5 -210.5t-201.5 -76.5t-201 76.5t-77 210.5h69q3 -103 58.5 -161t150.5 -58t150.5 58t58.5 161h70zM551 -31q-209 0 -344 137.5t-135 366.5t135 366.5t344 137.5q143 0 248.5 -65t163.5 -175h4v209h73v-946h-73v209h-4q-58 -110 -163.5 -175
t-248.5 -65zM561 43q186 0 299 120.5t113 309.5t-113 309.5t-299 120.5t-298.5 -120t-112.5 -310t112.5 -310t298.5 -120z" />
    <glyph glyph-name="uni04D2" unicode="&#x4d2;" horiz-adv-x="1294" 
d="M512 1716v-194h-106v194h106zM889 1716v-194h-107v194h107zM1188 0l-170 418h-742l-170 -418h-86l584 1434h86l584 -1434h-86zM309 496h676l-338 831z" />
    <glyph glyph-name="uni04D3" unicode="&#x4d3;" horiz-adv-x="1173" 
d="M467 1290v-225h-107v225h107zM762 1290v-225h-107v225h107zM551 -31q-209 0 -344 137.5t-135 366.5t135 366.5t344 137.5q143 0 248.5 -65t163.5 -175h4v209h73v-946h-73v209h-4q-58 -110 -163.5 -175t-248.5 -65zM561 43q186 0 299 120.5t113 309.5t-113 309.5
t-299 120.5t-298.5 -120t-112.5 -310t112.5 -310t298.5 -120z" />
    <glyph glyph-name="uni04D4" unicode="&#x4d4;" horiz-adv-x="1882" 
d="M1147 78h633v-78h-699h-16v418h-649l-291 -418h-105l1004 1434h123h622v-78h-622v-510h567v-78h-567v-690zM469 496h596v856z" />
    <glyph glyph-name="uni04D5" unicode="&#x4d5;" horiz-adv-x="1855" 
d="M446 -31q-177 0 -286 93.5t-109 252.5q0 156 106.5 252.5t286.5 96.5q129 0 228.5 -54t150.5 -164h4v144q0 156 -85 234.5t-246 78.5q-134 0 -316 -45l-18 78q174 41 330 41q342 0 397 -270h4q54 127 169 198.5t265 71.5q114 0 204 -42.5t144 -113t81.5 -155.5t27.5 -177
v-20h-858q0 -191 115 -308.5t298 -117.5q68 0 126 17.5t103.5 50t76 63t63.5 72.5l57 -47q-161 -230 -426 -230q-165 0 -286.5 84t-171.5 228h-4q-40 -147 -153 -229.5t-278 -82.5zM928 539h774q-15 170 -113.5 267t-263.5 97q-160 0 -270 -95.5t-127 -268.5zM453 43
q158 0 250 79.5t92 192.5q0 123 -101.5 199t-244.5 76q-145 0 -232.5 -77.5t-87.5 -201.5t87 -196t237 -72z" />
    <glyph glyph-name="uni04D6" unicode="&#x4d6;" horiz-adv-x="1054" 
d="M588 1501q-124 0 -201.5 70.5t-77.5 195.5h70q3 -94 58.5 -146t150.5 -52t150.5 52t58.5 146h69q0 -125 -77 -195.5t-201 -70.5zM246 78h706v-78h-788v1434h778v-78h-696v-510h641v-78h-641v-690z" />
    <glyph glyph-name="uni04D7" unicode="&#x4d7;" horiz-adv-x="1077" 
d="M827 1311q0 -134 -77 -210.5t-201 -76.5t-201.5 76.5t-77.5 210.5h70q3 -103 58.5 -161t150.5 -58t150.5 58t58.5 161h69zM549 977q98 0 176.5 -27.5t130 -73.5t86 -109.5t49.5 -132.5t15 -145v-20h-859q0 -198 113 -312t301 -114q59 0 110.5 13t86.5 30.5t70 48t55 53.5
t47 58l57 -45q-30 -45 -63 -80t-84 -72.5t-122.5 -58.5t-156.5 -21q-223 0 -356 137.5t-133 364.5q0 238 134 372t343 134zM547 903q-103 0 -188 -40t-142 -124t-67 -200h774q-14 173 -109.5 268.5t-267.5 95.5z" />
    <glyph glyph-name="uni04D8" unicode="&#x4d8;" horiz-adv-x="1658" 
d="M809 1464q228 0 402 -91.5t270 -261t96 -394.5q0 -337 -206.5 -542.5t-541.5 -205.5q-221 0 -390.5 89.5t-263 256.5t-93.5 387v50h86h1323q-12 289 -196 459.5t-486 170.5q-184 0 -334 -71t-244 -197l-61 53q105 138 271.5 217.5t367.5 79.5zM829 51q291 0 469.5 169.5
t192.5 453.5h-1323q9 -286 187.5 -454.5t473.5 -168.5z" />
    <glyph glyph-name="uni04D9" unicode="&#x4d9;" horiz-adv-x="1077" 
d="M528 -31q-121 0 -212 41t-142.5 111.5t-76.5 154.5t-25 181v20h858q0 198 -113 312t-301 114q-59 0 -110.5 -13t-86.5 -30.5t-70 -48t-55 -53.5t-47 -58l-57 45q30 45 63 80t84 72.5t122.5 58.5t156.5 21q223 0 356.5 -137.5t133.5 -364.5q0 -237 -134 -371.5
t-344 -134.5zM530 43q103 0 188 40.5t142.5 124.5t67.5 200h-774q14 -174 109 -269.5t267 -95.5z" />
    <glyph glyph-name="uni04DA" unicode="&#x4da;" horiz-adv-x="1658" 
d="M694 1716v-194h-106v194h106zM1071 1716v-194h-106v194h106zM809 1464q228 0 402 -91.5t270 -261t96 -394.5q0 -337 -206.5 -542.5t-541.5 -205.5q-221 0 -390.5 89.5t-263 256.5t-93.5 387v50h86h1323q-12 289 -196 459.5t-486 170.5q-184 0 -334 -71t-244 -197l-61 53
q105 138 271.5 217.5t367.5 79.5zM829 51q291 0 469.5 169.5t192.5 453.5h-1323q9 -286 187.5 -454.5t473.5 -168.5z" />
    <glyph glyph-name="uni04DB" unicode="&#x4db;" horiz-adv-x="1077" 
d="M459 1290v-225h-107v225h107zM754 1290v-225h-107v225h107zM528 -31q-121 0 -212 41t-142.5 111.5t-76.5 154.5t-25 181v20h858q0 198 -113 312t-301 114q-59 0 -110.5 -13t-86.5 -30.5t-70 -48t-55 -53.5t-47 -58l-57 45q30 45 63 80t84 72.5t122.5 58.5t156.5 21
q223 0 356.5 -137.5t133.5 -364.5q0 -237 -134 -371.5t-344 -134.5zM530 43q103 0 188 40.5t142.5 124.5t67.5 200h-774q14 -174 109 -269.5t267 -95.5z" />
    <glyph glyph-name="uni04DC" unicode="&#x4dc;" horiz-adv-x="1685" 
d="M709 1716v-194h-107v194h107zM1085 1716v-194h-106v194h106zM1665 0h-115l-667 741v-741h-80v741l-668 -741h-115l697 756l-613 678h113l586 -662v662h80v-662l585 662h113l-612 -678z" />
    <glyph glyph-name="uni04DD" unicode="&#x4dd;" horiz-adv-x="1282" 
d="M547 1290v-225h-107v225h107zM842 1290v-225h-107v225h107zM1262 0h-111l-473 498v-498h-74v498l-473 -498h-111l496 510l-448 436h110l426 -424v424h74v-424l426 424h110l-448 -436z" />
    <glyph glyph-name="uni04DE" unicode="&#x4de;" horiz-adv-x="1208" 
d="M467 1716v-194h-107v194h107zM844 1716v-194h-107v194h107zM594 1464q231 0 346 -92.5t115 -257.5q0 -144 -85 -226t-245 -116v-2q80 -6 146.5 -28t123.5 -66t89 -120t32 -179q0 -193 -131.5 -300.5t-394.5 -107.5q-283 0 -518 137l43 76q220 -131 473 -131
q442 0 442 326q0 189 -133 268.5t-403 79.5h-183v78h181q225 0 351 79.5t126 229.5q0 124 -94.5 197t-278.5 73q-124 0 -246.5 -34t-222.5 -91l-39 80q225 127 506 127z" />
    <glyph glyph-name="uni04DF" unicode="&#x4df;" horiz-adv-x="927" 
d="M367 1290v-225h-107v225h107zM662 1290v-225h-107v225h107zM459 -31q-218 0 -398 90l35 70q56 -26 95.5 -41t115 -30t158.5 -15q311 0 311 211q0 114 -78.5 162.5t-257.5 48.5h-155v70h157q74 0 127.5 8t97.5 27.5t66.5 56.5t22.5 92q0 96 -80.5 140t-218.5 44
q-166 0 -332 -65l-29 67q175 72 363 72q174 0 275.5 -63t101.5 -185q0 -94 -58.5 -152.5t-171.5 -70.5v-4q125 -10 187.5 -76t62.5 -178q0 -131 -96.5 -205t-300.5 -74z" />
    <glyph glyph-name="uni04E0" unicode="&#x4e0;" horiz-adv-x="1140" 
d="M541 -31q-269 0 -500 131l45 76q193 -125 451 -125q415 0 415 350q0 195 -126 277t-380 82h-122v80l559 516h-740v78h854v-74l-573 -533q65 9 90 9q76 0 142.5 -9.5t139 -38t124 -74.5t85 -125t33.5 -183q0 -204 -123.5 -320.5t-373.5 -116.5z" />
    <glyph glyph-name="uni04E1" unicode="&#x4e1;" horiz-adv-x="956" 
d="M432 -440q-241 0 -452 114l38 68q205 -109 418 -109q179 0 280 85.5t101 261.5q0 181 -110 259t-322 78h-205v76l549 484h-668v69h764v-74l-553 -487q78 4 121 4q502 0 502 -405q0 -93 -26.5 -168.5t-81 -133.5t-145 -90t-210.5 -32z" />
    <glyph glyph-name="uni04E2" unicode="&#x4e2;" horiz-adv-x="1404" 
d="M977 1686v-70h-555v70h555zM164 1434h82v-1301h4l899 1301h92v-1434h-82v1300h-4l-899 -1300h-92v1434z" />
    <glyph glyph-name="uni04E3" unicode="&#x4e3;" horiz-adv-x="1105" 
d="M829 1174v-70h-555v70h555zM143 0v946h78v-848h4l637 848h101v-946h-78v848h-4l-637 -848h-101z" />
    <glyph glyph-name="uni04E4" unicode="&#x4e4;" horiz-adv-x="1404" 
d="M565 1716v-194h-106v194h106zM942 1716v-194h-106v194h106zM164 1434h82v-1301h4l899 1301h92v-1434h-82v1300h-4l-899 -1300h-92v1434z" />
    <glyph glyph-name="uni04E5" unicode="&#x4e5;" horiz-adv-x="1105" 
d="M459 1290v-225h-107v225h107zM754 1290v-225h-107v225h107zM143 0v946h78v-848h4l637 848h101v-946h-78v848h-4l-637 -848h-101z" />
    <glyph glyph-name="uni04E6" unicode="&#x4e6;" horiz-adv-x="1658" 
d="M694 1716v-194h-106v194h106zM1071 1716v-194h-106v194h106zM829 1464q211 0 381.5 -94t268.5 -265.5t98 -387.5t-98 -387.5t-268.5 -266t-381.5 -94.5t-381.5 94.5t-268 266t-97.5 387.5q0 162 57 302t156.5 237t237.5 152.5t296 55.5zM829 1382q-142 0 -264.5 -49.5
t-210 -136t-137 -211t-49.5 -268.5q0 -193 85 -345t236 -236.5t340 -84.5q190 0 341 84.5t236 236.5t85 345q0 144 -50 268.5t-137 211t-210 136t-265 49.5z" />
    <glyph glyph-name="uni04E7" unicode="&#x4e7;" horiz-adv-x="1150" 
d="M481 1290v-225h-106v225h106zM776 1290v-225h-106v225h106zM575 977q222 0 363 -141t141 -363t-141 -363t-363 -141q-221 0 -362 140.5t-141 363.5t141 363.5t362 140.5zM575 903q-182 0 -303.5 -119.5t-121.5 -310.5t121.5 -310.5t303.5 -119.5t304 120t122 310
t-122 310t-304 120z" />
    <glyph glyph-name="uni04E8" unicode="&#x4e8;" horiz-adv-x="1658" 
d="M829 1464q211 0 381.5 -94t268.5 -265.5t98 -387.5t-98 -387.5t-268.5 -266t-381.5 -94.5t-381.5 94.5t-268 266t-97.5 387.5q0 162 57 302t156.5 237t237.5 152.5t296 55.5zM829 1382q-183 0 -331 -79t-234.5 -222.5t-95.5 -326.5h1323q-9 183 -96 326.5t-235 222.5
t-331 79zM829 51q279 0 464.5 176t197.5 455h-1323q12 -279 197 -455t464 -176z" />
    <glyph glyph-name="uni04E9" unicode="&#x4e9;" horiz-adv-x="1150" 
d="M575 977q222 0 363 -141t141 -363t-141 -363t-363 -141q-221 0 -362 140.5t-141 363.5t141 363.5t362 140.5zM575 903q-173 0 -294 -110t-131 -289h851q-10 179 -131.5 289t-294.5 110zM575 43q173 0 294.5 110t131.5 289h-851q10 -179 131 -289t294 -110z" />
    <glyph glyph-name="uni04EA" unicode="&#x4ea;" horiz-adv-x="1658" 
d="M694 1716v-194h-106v194h106zM1071 1716v-194h-106v194h106zM829 1464q211 0 381.5 -94t268.5 -265.5t98 -387.5t-98 -387.5t-268.5 -266t-381.5 -94.5t-381.5 94.5t-268 266t-97.5 387.5q0 162 57 302t156.5 237t237.5 152.5t296 55.5zM829 1382q-183 0 -331 -79
t-234.5 -222.5t-95.5 -326.5h1323q-9 183 -96 326.5t-235 222.5t-331 79zM829 51q279 0 464.5 176t197.5 455h-1323q12 -279 197 -455t464 -176z" />
    <glyph glyph-name="uni04EB" unicode="&#x4eb;" horiz-adv-x="1150" 
d="M492 1290v-225h-107v225h107zM786 1290v-225h-106v225h106zM575 977q222 0 363 -141t141 -363t-141 -363t-363 -141q-221 0 -362 140.5t-141 363.5t141 363.5t362 140.5zM575 903q-173 0 -294 -110t-131 -289h851q-10 179 -131.5 289t-294.5 110zM575 43q173 0 294.5 110
t131.5 289h-851q10 -179 131 -289t294 -110z" />
    <glyph glyph-name="uni04EC" unicode="&#x4ec;" horiz-adv-x="1409" 
d="M489 1716v-194h-106v194h106zM866 1716v-194h-106v194h106zM614 1464q324 0 518.5 -201.5t194.5 -545.5t-194.5 -546t-518.5 -202q-298 0 -542 166l47 72q111 -76 228.5 -116t266.5 -40q278 0 449.5 175.5t177.5 471.5h-772v78h770q-17 279 -187 442.5t-438 163.5
q-149 0 -267 -40t-228 -115l-47 71q244 166 542 166z" />
    <glyph glyph-name="uni04ED" unicode="&#x4ed;" horiz-adv-x="970" 
d="M330 1290v-225h-107v225h107zM625 1290v-225h-107v225h107zM403 977q228 0 357 -138t129 -366t-129 -366t-357 -138q-187 0 -342 105l43 63q142 -94 304 -94q181 0 286.5 112t114.5 283h-483v70h483q-9 171 -114.5 283t-286.5 112q-162 0 -304 -94l-43 63
q155 105 342 105z" />
    <glyph glyph-name="uni04EE" unicode="&#x4ee;" horiz-adv-x="1218" 
d="M891 1686v-70h-555v70h555zM1106 1434h92l-696 -1434h-92l176 365l-566 1069h101l508 -981z" />
    <glyph glyph-name="uni04EF" unicode="&#x4ef;" horiz-adv-x="907" 
d="M731 1174v-70h-555v70h555zM801 946h86l-658 -1356h-82l263 525l-390 831h86l340 -756z" />
    <glyph glyph-name="uni04F0" unicode="&#x4f0;" horiz-adv-x="1218" 
d="M479 1716v-194h-106v194h106zM856 1716v-194h-106v194h106zM1106 1434h92l-696 -1434h-92l176 365l-566 1069h101l508 -981z" />
    <glyph glyph-name="uni04F1" unicode="&#x4f1;" horiz-adv-x="907" 
d="M360 1290v-225h-106v225h106zM655 1290v-225h-106v225h106zM801 946h86l-658 -1356h-82l263 525l-390 831h86l340 -756z" />
    <glyph glyph-name="uni04F2" unicode="&#x4f2;" horiz-adv-x="1218" 
d="M776 1767l-215 -245h-72l193 245h94zM741 1522h-71l192 245h92zM1106 1434h92l-696 -1434h-92l176 365l-566 1069h101l508 -981z" />
    <glyph glyph-name="uni04F3" unicode="&#x4f3;" horiz-adv-x="907" 
d="M647 1346l-233 -316h-72l213 316h92zM594 1030h-72l213 316h90zM801 946h86l-658 -1356h-82l263 525l-390 831h86l340 -756z" />
    <glyph glyph-name="uni04F4" unicode="&#x4f4;" horiz-adv-x="1132" 
d="M375 1716v-194h-107v194h107zM752 1716v-194h-107v194h107zM887 1434h82v-1434h-82v643h-510q-171 0 -248.5 70.5t-77.5 220.5v500h82v-500q0 -116 61 -164.5t189 -48.5h504v713z" />
    <glyph glyph-name="uni04F5" unicode="&#x4f5;" horiz-adv-x="874" 
d="M293 1290v-225h-107v225h107zM588 1290v-225h-107v225h107zM657 946h74v-946h-74v412h-387q-229 0 -229 217v317h74v-317q0 -80 39.5 -114t115.5 -34h387v465z" />
    <glyph glyph-name="uni04F8" unicode="&#x4f8;" horiz-adv-x="1533" 
d="M653 1716v-194h-106v194h106zM1030 1716v-194h-106v194h106zM645 795q201 0 317.5 -108.5t116.5 -289.5t-116.5 -289t-317.5 -108h-481v1434h82v-639h399zM1288 1434h82v-1434h-82v1434zM625 78q182 0 275 85.5t93 233.5t-93 234t-275 86h-379v-639h379z" />
    <glyph glyph-name="uni04F9" unicode="&#x4f9;" horiz-adv-x="1212" 
d="M526 1290v-225h-106v225h106zM821 1290v-225h-106v225h106zM598 582q132 0 215.5 -78t83.5 -213t-83.5 -213t-215.5 -78h-455v946h74v-364h381zM995 946h74v-946h-74v946zM586 70q119 0 175 58.5t56 162.5t-56 162.5t-175 58.5h-369v-442h369z" />
    <glyph glyph-name="uni04FC" unicode="&#x4fc;" horiz-adv-x="1241" 
d="M1047 164q35 -51 53.5 -80t46 -80t40.5 -98.5t13 -93.5q0 -108 -67.5 -165t-192.5 -57h-100v78h104q78 0 124 36.5t46 107.5q0 37 -11 75.5t-38.5 88t-45 77.5t-59.5 90q-9 14 -14 21l-348 516l-459 -680h-98l506 754l-457 680h98l408 -607l408 607h98l-457 -680z" />
    <glyph glyph-name="uni04FD" unicode="&#x4fd;" horiz-adv-x="909" 
d="M602 -410v70h96q138 0 138 162q0 70 -35.5 141.5t-128.5 192.5l-215 280l-342 -436h-95l392 496l-357 450h95l307 -393l307 393h94l-356 -450l252 -320q82 -104 118.5 -184.5t36.5 -167.5q0 -114 -54.5 -174t-160.5 -60h-92z" />
    <glyph glyph-name="uni0510" unicode="&#x510;" horiz-adv-x="1208" 
d="M614 1464q281 0 506 -127l-39 -80q-100 57 -222.5 91t-246.5 34q-183 0 -277.5 -73t-94.5 -197q0 -150 126 -229.5t351 -79.5h180v-78h-182q-270 0 -403.5 -79.5t-133.5 -268.5q0 -326 443 -326q253 0 473 131l43 -76q-235 -137 -519 -137q-263 0 -394.5 107.5
t-131.5 300.5q0 103 32 179t89 120t123.5 66t146.5 28v2q-160 34 -244.5 116t-84.5 226q0 165 114.5 257.5t345.5 92.5z" />
    <glyph glyph-name="uni0511" unicode="&#x511;" horiz-adv-x="894" 
d="M430 -31q-358 0 -358 269q0 115 71 184t199 80v4q-116 12 -183 74t-67 157q0 119 90.5 179.5t249.5 60.5q172 0 367 -72l-29 -67q-170 65 -336 65q-262 0 -262 -176q0 -56 24 -95t69 -59.5t97.5 -29t122.5 -8.5h158v-70h-156q-171 0 -253 -51.5t-82 -169.5
q0 -106 74.5 -153.5t197.5 -47.5q85 0 162.5 15t115.5 29.5t97 41.5l35 -70q-59 -27 -105 -43.5t-127 -31.5t-172 -15z" />
    <glyph glyph-name="uni0512" unicode="&#x512;" horiz-adv-x="1454" 
d="M317 1434h973v-1598q0 -116 -56 -181t-163 -65h-119v78h123q65 0 99 44.5t34 123.5v1520h-809v-1034q0 -172 -67.5 -252t-216.5 -80h-74v82h68q106 0 157 56.5t51 193.5v1112z" />
    <glyph glyph-name="uni0513" unicode="&#x513;" horiz-adv-x="1099" 
d="M956 946v-1122q0 -115 -54 -174.5t-161 -59.5h-92v70h96q138 0 138 164v1053h-594v-654q0 -223 -189 -223h-80v70h80q57 0 86 35.5t29 117.5v723h741z" />
    <glyph glyph-name="uni051C" unicode="&#x51c;" horiz-adv-x="1957" 
d="M1927 1434l-440 -1434h-86l-420 1303h-4l-420 -1303h-86l-440 1434h94l385 -1299h4l416 1299h98l416 -1299h4l385 1299h94z" />
    <glyph glyph-name="uni051D" unicode="&#x51d;" horiz-adv-x="1466" 
d="M1364 946h82l-324 -946h-78l-311 858l-311 -858h-78l-324 946h82l281 -858l305 858h90l305 -858z" />
    <glyph glyph-name="uni0524" unicode="&#x524;" horiz-adv-x="1357" 
d="M1229 51h78v-338h-82v287h-78v1356h-901v-1356h-82v1434h1065v-1383z" />
    <glyph glyph-name="uni0525" unicode="&#x525;" horiz-adv-x="1011" 
d="M915 39h56v-305h-74v266h-55v877h-625v-877h-74v946h74h678h20v-907z" />
    <glyph glyph-name="uni0526" unicode="&#x526;" horiz-adv-x="1193" 
d="M1081 51h62v-338h-82v287h-62v500q0 116 -60.5 164.5t-188.5 48.5h-504v-713h-82v1434h82v-643h510q170 0 247.5 -70.5t77.5 -220.5v-449z" />
    <glyph glyph-name="uni0527" unicode="&#x527;" horiz-adv-x="1071" 
d="M969 39h61v-305h-74v266h-61v567q0 170 -81.5 253t-217.5 83q-58 0 -110.5 -14.5t-102.5 -50t-86 -90t-58 -140t-22 -194.5v-414h-74v1434h74v-725h4q44 131 144.5 199.5t232.5 68.5q170 0 270.5 -102.5t100.5 -307.5v-528z" />
    <glyph glyph-name="uni0E3F" unicode="&#xe3f;" horiz-adv-x="976" 
d="M631 688q125 -27 194.5 -113.5t69.5 -230.5q0 -159 -109.5 -251.5t-269.5 -92.5h-24v-178h-58v178h-352v1382h352v179h58v-179h24q160 0 269.5 -92.5t109.5 -251.5q0 -144 -69.5 -230.5t-194.5 -113.5v-6zM434 1311h-278v-584h278v584zM516 1311h-24v-584
q156 7 240.5 88.5t84.5 212.5q0 129 -87.5 206t-213.5 77zM156 72h278v583h-278v-583zM516 72q127 0 214 76.5t87 205.5q0 131 -84.5 212.5t-240.5 88.5v-583h24z" />
    <glyph glyph-name="Wgrave" unicode="&#x1e80;" horiz-adv-x="1957" 
d="M821 1767l195 -245h-74l-240 245h119zM1927 1434l-440 -1434h-86l-420 1303h-4l-420 -1303h-86l-440 1434h94l385 -1299h4l416 1299h98l416 -1299h4l385 1299h94z" />
    <glyph glyph-name="wgrave" unicode="&#x1e81;" horiz-adv-x="1466" 
d="M770 1133h-74l-239 315h118zM1364 946h82l-324 -946h-78l-311 858l-311 -858h-78l-324 946h82l281 -858l305 858h90l305 -858z" />
    <glyph glyph-name="Wacute" unicode="&#x1e82;" horiz-adv-x="1957" 
d="M1257 1767l-239 -245h-74l195 245h118zM1927 1434l-440 -1434h-86l-420 1303h-4l-420 -1303h-86l-440 1434h94l385 -1299h4l416 1299h98l416 -1299h4l385 1299h94z" />
    <glyph glyph-name="wacute" unicode="&#x1e83;" horiz-adv-x="1466" 
d="M1010 1448l-240 -315h-74l195 315h119zM1364 946h82l-324 -946h-78l-311 858l-311 -858h-78l-324 946h82l281 -858l305 858h90l305 -858z" />
    <glyph glyph-name="Wdieresis" unicode="&#x1e84;" horiz-adv-x="1957" 
d="M844 1716v-194h-107v194h107zM1221 1716v-194h-107v194h107zM1927 1434l-440 -1434h-86l-420 1303h-4l-420 -1303h-86l-440 1434h94l385 -1299h4l416 1299h98l416 -1299h4l385 1299h94z" />
    <glyph glyph-name="wdieresis" unicode="&#x1e85;" horiz-adv-x="1466" 
d="M598 1413v-225h-106v225h106zM975 1413v-225h-107v225h107zM1364 946h82l-324 -946h-78l-311 858l-311 -858h-78l-324 946h82l281 -858l305 858h90l305 -858z" />
    <glyph glyph-name="Ygrave" unicode="&#x1ef2;" horiz-adv-x="1069" 
d="M571 1522h-73l-240 245h119zM1049 1434l-474 -889v-545h-81v545l-474 889h99l413 -797h5l413 797h99z" />
    <glyph glyph-name="ygrave" unicode="&#x1ef3;" horiz-adv-x="907" 
d="M492 1133h-74l-240 315h119zM801 946h86l-658 -1356h-82l263 525l-390 831h86l340 -756z" />
    <glyph glyph-name="endash" unicode="&#x2013;" horiz-adv-x="1540" 
d="M1438 602v-78h-1336v78h1336z" />
    <glyph glyph-name="emdash" unicode="&#x2014;" horiz-adv-x="2363" 
d="M2261 602v-74h-2159v74h2159z" />
    <glyph glyph-name="quoteleft" unicode="&#x2018;" horiz-adv-x="313" 
d="M242 1513l-113 -290h82v-150h-150v150l127 290h54z" />
    <glyph glyph-name="quoteright" unicode="&#x2019;" horiz-adv-x="313" 
d="M102 1464h150v-149l-127 -291h-53l112 291h-82v149z" />
    <glyph glyph-name="quotesinglbase" unicode="&#x201a;" horiz-adv-x="313" 
d="M102 150h150v-150l-127 -291h-53l112 291h-82v150z" />
    <glyph glyph-name="quotedblleft" unicode="&#x201c;" horiz-adv-x="530" 
d="M188 1513h54l-113 -290h82v-150h-150v150zM459 1513l-113 -290h82v-150h-149v150l127 290h53z" />
    <glyph glyph-name="quotedblright" unicode="&#x201d;" horiz-adv-x="530" 
d="M102 1315v149h150v-149l-127 -291h-53l112 291h-82zM319 1464h150v-149l-127 -291h-53l112 291h-82v149z" />
    <glyph glyph-name="quotedblbase" unicode="&#x201e;" horiz-adv-x="530" 
d="M102 0v150h150v-150l-127 -291h-53l112 291h-82zM319 150h150v-150l-127 -291h-53l112 291h-82v150z" />
    <glyph glyph-name="dagger" unicode="&#x2020;" horiz-adv-x="995" 
d="M893 967v-74h-356v-1083h-78v1083h-357v74h357v467h78v-467h356z" />
    <glyph glyph-name="daggerdbl" unicode="&#x2021;" horiz-adv-x="995" 
d="M893 893h-356v-543h356v-74h-356v-466h-78v466h-357v74h357v543h-357v74h357v467h78v-467h356v-74z" />
    <glyph glyph-name="bullet" unicode="&#x2022;" horiz-adv-x="593" 
d="M297 956q69 0 116.5 -47t47.5 -116t-47.5 -116.5t-116.5 -47.5t-116.5 47.5t-47.5 116.5t47.5 116t116.5 47z" />
    <glyph glyph-name="ellipsis" unicode="&#x2026;" horiz-adv-x="1355" 
d="M276 164v-164h-163v164h163zM760 164v-164h-164v164h164zM1243 164v-164h-164v164h164z" />
    <glyph glyph-name="perthousand" unicode="&#x2030;" horiz-adv-x="2254" 
d="M420 1413q138 0 227.5 -89.5t89.5 -227.5t-89.5 -228t-227.5 -90t-228 90t-90 228t90 227.5t228 89.5zM299 0l809 1382h74l-809 -1382h-74zM420 1343q-110 0 -177 -67.5t-67 -179.5t67 -180t177 -68t177 68t67 180t-67 179.5t-177 67.5zM1102 625q138 0 227.5 -90
t89.5 -228t-89.5 -227.5t-227.5 -89.5t-228 89.5t-90 227.5t90 228t228 90zM1835 625q138 0 227.5 -90t89.5 -228t-89.5 -227.5t-227.5 -89.5t-227.5 89.5t-89.5 227.5t89.5 228t227.5 90zM1102 555q-110 0 -177 -68t-67 -180t67 -180t177 -68t177 68t67 180t-67 180
t-177 68zM1835 555q-110 0 -177 -68t-67 -180t67 -180t177 -68t177 68t67 180t-67 180t-177 68z" />
    <glyph glyph-name="guilsinglleft" unicode="&#x2039;" horiz-adv-x="440" 
d="M420 784l-289 -305l289 -305h-98l-281 305l281 305h98z" />
    <glyph glyph-name="guilsinglright" unicode="&#x203a;" horiz-adv-x="440" 
d="M20 784h99l280 -305l-280 -305h-99l289 305z" />
    <glyph glyph-name="fraction" unicode="&#x2044;" horiz-adv-x="186" 
d="M-348 0l809 1382h74l-809 -1382h-74z" />
    <glyph glyph-name="uni2070" unicode="&#x2070;" horiz-adv-x="819" 
d="M410 692q-153 0 -245.5 122t-92.5 355t93 355.5t245 122.5t245 -122.5t93 -355.5t-92.5 -355t-245.5 -122zM410 762q118 0 191 106.5t73 300.5t-73 301t-191 107t-191.5 -107t-73.5 -301t73.5 -300.5t191.5 -106.5z" />
    <glyph glyph-name="uni2074" unicode="&#x2074;" horiz-adv-x="784" 
d="M723 969v-72h-127v-184h-68v184h-487v59l481 670h74v-657h127zM135 969h393v542h-6z" />
    <glyph glyph-name="uni2075" unicode="&#x2075;" horiz-adv-x="755" 
d="M379 692q-108 0 -188.5 52t-118.5 151l63 29q73 -162 246 -162q117 0 173 66t56 173q0 118 -63.5 177t-163.5 59q-128 0 -209 -98h-68l60 487h461v-70h-402l-39 -323h4q78 74 203 74q120 0 205.5 -77t85.5 -226q0 -142 -80.5 -227t-224.5 -85z" />
    <glyph glyph-name="uni2076" unicode="&#x2076;" horiz-adv-x="772" 
d="M389 692q-129 0 -223 82.5t-94 229.5q0 93 37.5 185t130.5 204l204 247h97l-346 -413l4 -2q83 86 198 86q140 0 227 -88t87 -226q0 -133 -92 -219t-230 -86zM395 762q106 0 174 65t68 174q0 110 -68.5 175t-173.5 65q-107 0 -178.5 -68t-71.5 -174q0 -107 70.5 -172
t179.5 -65z" />
    <glyph glyph-name="uni2077" unicode="&#x2077;" horiz-adv-x="663" 
d="M123 713l405 843h-487v70h561v-63l-401 -850h-78z" />
    <glyph glyph-name="uni2078" unicode="&#x2078;" horiz-adv-x="757" 
d="M379 692q-147 0 -227 74.5t-80 189.5q0 95 51 159t131 85v4q-65 21 -110.5 72.5t-45.5 138.5q0 99 74.5 164.5t206.5 65.5t206 -65.5t74 -164.5q0 -87 -45.5 -138.5t-109.5 -72.5v-4q80 -21 131 -85t51 -159q0 -115 -80 -189.5t-227 -74.5zM379 1235q94 0 150.5 48.5
t56.5 125.5q0 78 -56.5 124t-150.5 46t-150.5 -46t-56.5 -124q0 -77 56.5 -125.5t150.5 -48.5zM379 758q109 0 172 52.5t63 147.5q0 93 -62.5 150t-172.5 57t-173 -57t-63 -150q0 -95 63.5 -147.5t172.5 -52.5z" />
    <glyph glyph-name="uni2079" unicode="&#x2079;" horiz-adv-x="753" 
d="M246 713l321 395l-2 4q-80 -68 -200 -68q-133 0 -218.5 84.5t-85.5 212.5q0 135 90 220.5t224 85.5q135 0 226 -83.5t91 -228.5q0 -101 -34 -185.5t-117 -182.5l-209 -254h-86zM377 1116q104 0 171.5 65.5t67.5 166.5q0 103 -67 166t-170 63q-105 0 -174.5 -64.5
t-69.5 -166.5q0 -101 68 -165.5t174 -64.5z" />
    <glyph glyph-name="uni2080" unicode="&#x2080;" horiz-adv-x="819" 
d="M410 -246q-153 0 -245.5 122t-92.5 355t93 355.5t245 122.5t245 -122.5t93 -355.5t-92.5 -355t-245.5 -122zM410 -176q118 0 191 106.5t73 300.5t-73 301t-191 107t-191.5 -107t-73.5 -301t73.5 -300.5t191.5 -106.5z" />
    <glyph glyph-name="uni2081" unicode="&#x2081;" horiz-adv-x="438" 
d="M205 -225v839h-82v74h151v-913h-69z" />
    <glyph glyph-name="uni2082" unicode="&#x2082;" horiz-adv-x="710" 
d="M82 -225v59l358 381q123 137 123 248q0 78 -51.5 127t-144.5 49q-84 0 -142.5 -43.5t-62.5 -136.5h-74q1 65 25 114.5t64 78.5t88 43t104 14q127 0 197.5 -67t70.5 -179q0 -84 -38 -152t-101 -135l-316 -332h457v-69h-557z" />
    <glyph glyph-name="uni2083" unicode="&#x2083;" horiz-adv-x="761" 
d="M375 -246q-131 0 -210 60.5t-83 177.5h74q19 -168 223 -168q105 0 166 49t61 152q0 110 -70.5 155t-222.5 45v64q55 1 96 8.5t78 25.5t56.5 54t19.5 88q0 174 -188 174q-91 0 -148 -39.5t-61 -116.5h-74q6 101 81 163.5t200 62.5t194.5 -64t69.5 -168q0 -75 -41 -134
t-125 -81v-2q92 -13 150.5 -72.5t58.5 -167.5q0 -115 -76 -190.5t-229 -75.5z" />
    <glyph glyph-name="uni2084" unicode="&#x2084;" horiz-adv-x="784" 
d="M723 31v-72h-127v-184h-68v184h-487v59l481 670h74v-657h127zM135 31h393v542h-6z" />
    <glyph glyph-name="uni2085" unicode="&#x2085;" horiz-adv-x="755" 
d="M379 -246q-108 0 -188.5 52t-118.5 151l63 29q73 -162 246 -162q117 0 173 66t56 173q0 118 -63.5 177t-163.5 59q-128 0 -209 -98h-68l60 487h461v-70h-402l-39 -323h4q78 74 203 74q120 0 205.5 -77t85.5 -226q0 -142 -80.5 -227t-224.5 -85z" />
    <glyph glyph-name="uni2086" unicode="&#x2086;" horiz-adv-x="772" 
d="M389 -246q-129 0 -223 82.5t-94 229.5q0 93 37.5 185t130.5 204l204 247h97l-346 -413l4 -2q83 86 198 86q140 0 227 -88t87 -226q0 -133 -92 -219t-230 -86zM395 -176q106 0 174 65t68 174q0 110 -68.5 175t-173.5 65q-107 0 -178.5 -68t-71.5 -174q0 -107 70.5 -172
t179.5 -65z" />
    <glyph glyph-name="uni2087" unicode="&#x2087;" horiz-adv-x="663" 
d="M123 -225l405 843h-487v70h561v-63l-401 -850h-78z" />
    <glyph glyph-name="uni2088" unicode="&#x2088;" horiz-adv-x="757" 
d="M379 -246q-147 0 -227 74.5t-80 189.5q0 95 51 159t131 85v4q-65 21 -110.5 72.5t-45.5 138.5q0 99 74.5 164.5t206.5 65.5t206 -65.5t74 -164.5q0 -87 -45.5 -138.5t-109.5 -72.5v-4q80 -21 131 -85t51 -159q0 -115 -80 -189.5t-227 -74.5zM379 297q94 0 150.5 48.5
t56.5 125.5q0 78 -56.5 124t-150.5 46t-150.5 -46t-56.5 -124q0 -77 56.5 -125.5t150.5 -48.5zM379 -180q109 0 172 52.5t63 147.5q0 93 -62.5 150t-172.5 57t-173 -57t-63 -150q0 -95 63.5 -147.5t172.5 -52.5z" />
    <glyph glyph-name="uni2089" unicode="&#x2089;" horiz-adv-x="753" 
d="M246 -225l321 395l-2 4q-80 -68 -200 -68q-133 0 -218.5 84.5t-85.5 212.5q0 135 90 220.5t224 85.5q135 0 226 -83.5t91 -228.5q0 -101 -34 -185.5t-117 -182.5l-209 -254h-86zM377 178q104 0 171.5 65.5t67.5 166.5q0 103 -67 166t-170 63q-105 0 -174.5 -64.5
t-69.5 -166.5q0 -101 68 -165.5t174 -64.5z" />
    <glyph glyph-name="TRY" unicode="&#x20a4;" horiz-adv-x="1179" 
d="M1020 670h78q0 -157 -48 -284t-133.5 -211.5t-204.5 -129.5t-261 -45h-74v645l-295 -129v64l295 129v114l-295 -129v64l295 129v495h74v-462l395 172v-64l-395 -172v-115l395 172v-63l-395 -172v-604q261 0 415 160.5t154 435.5z" />
    <glyph glyph-name="uni20A9" unicode="&#x20a9;" horiz-adv-x="1863" 
d="M1823 807h-205l-39 -139h244v-62h-260l-164 -606h-113l-164 606h-381l-163 -606h-113l-164 606h-260v62h244l-39 139h-205v61h188l-139 514h82l135 -514h428l139 514h115l139 -514h428l136 514h82l-140 -514h189v-61zM930 1303l-117 -435h238l-117 435h-4zM324 807
l36 -139h322l37 139h-395zM758 668h348l-39 139h-270zM1503 668l37 139h-395l37 -139h321zM522 76l144 530h-289l141 -530h4zM1346 76l141 530h-289l143 -530h5z" />
    <glyph glyph-name="Euro" unicode="&#x20ac;" horiz-adv-x="1345" 
d="M889 1339q-212 0 -354.5 -138t-176.5 -378h715l-31 -61h-690q-2 -25 -2 -76v-45h641l-30 -61h-607q22 -258 154 -396.5t371 -138.5q173 0 329 78v-82q-147 -70 -336 -70q-143 0 -253.5 45.5t-181 129t-110 191.5t-51.5 243h-266l31 61h231v51q0 47 2 70h-254l31 61h230
q16 129 63.5 236t123 186.5t183.5 123.5t238 44q209 0 399 -113l-39 -69q-171 108 -360 108z" />
    <glyph glyph-name="uni20AE" unicode="&#x20ae;" horiz-adv-x="1085" 
d="M1044 1311h-464v-410l323 166v-63l-323 -166v-115l323 166v-64l-323 -166v-659h-74v623l-324 -166v63l324 166v115l-324 -166v63l324 166v447h-465v71h1003v-71z" />
    <glyph glyph-name="uni20B4" unicode="&#x20b4;" horiz-adv-x="991" 
d="M645 809l-31 -23l-161 -116h497v-62h-581q-100 -77 -145.5 -151t-45.5 -158q0 -111 76 -183.5t233 -72.5q188 0 424 133v-82q-198 -125 -422 -125q-177 0 -283 82.5t-106 253.5q0 162 156 303h-215v62h291l24 18l166 121h-481v61h563q80 65 120 125.5t40 145.5
q0 90 -66 144t-192 54q-130 0 -330 -92v82q182 84 330 84q161 0 248.5 -74t87.5 -200q0 -146 -123 -269h231v-61h-305z" />
    <glyph glyph-name="uni20B8" unicode="&#x20b8;" horiz-adv-x="1085" 
d="M41 1382h1003v-71h-1003v71zM41 1112v72h1003v-72h-464v-1112h-74v1112h-465z" />
    <glyph glyph-name="uni20B9" unicode="&#x20b9;" horiz-adv-x="1042" 
d="M580 1321q85 -45 136 -123t58 -182h187l-46 -62h-139q-7 -112 -68 -197t-160.5 -129t-221.5 -44h-148l533 -584h-97l-532 584v71h235q174 0 273 82.5t108 216.5h-616v62h614q-11 132 -109.5 213.5t-269.5 81.5h-235v71h879l-46 -61h-335z" />
    <glyph glyph-name="uni20BD" unicode="&#x20bd;" horiz-adv-x="1148" 
d="M631 614h-266v-184h477v-61h-477v-369h-74v369h-209v61h209v184h-209v72h209v696h340q209 0 322.5 -104.5t113.5 -280.5q0 -175 -113.5 -279t-322.5 -104zM365 1311v-625h266q166 0 262 79.5t96 231.5q0 153 -96 233.5t-262 80.5h-266z" />
    <glyph glyph-name="uni2113" unicode="&#x2113;" horiz-adv-x="913" 
d="M315 623q3 -304 63.5 -440t196.5 -136q55 0 112 22t138 72v-80q-52 -29 -68.5 -37.5t-52.5 -24t-65 -20t-66 -4.5q-173 0 -250 141.5t-81 477.5q-62 -23 -160 -53v69q73 24 160 58q1 174 20 306t50 214.5t76.5 133.5t95 71t110.5 20q115 0 176 -67.5t61 -190.5
q0 -324 -516 -532zM592 1339q-43 0 -79.5 -15t-73 -57.5t-62 -111.5t-43 -186t-19.5 -273q443 192 443 461q0 89 -44.5 135.5t-121.5 46.5z" />
    <glyph glyph-name="uni2116" unicode="&#x2116;" horiz-adv-x="2316" 
d="M1241 1434v-1434h-92l-899 1296h-4v-1296h-82v1434h92l899 -1297h4v1297h82zM1808 1100q189 0 307.5 -118.5t118.5 -307.5t-118.5 -307.5t-307.5 -118.5t-307.5 118.5t-118.5 307.5t118.5 307.5t307.5 118.5zM1808 1026q-153 0 -250.5 -99t-97.5 -253t97.5 -253
t250.5 -99t251 99t98 253t-98 253t-251 99zM2208 70v-70h-799v70h799z" />
    <glyph glyph-name="trademark" unicode="&#x2122;" horiz-adv-x="1699" 
d="M672 1372h-273v-801h-65v801h-273v62h611v-62zM1430 1434l208 -863h-67l-180 748l-232 -617h-57l-232 617l-180 -748h-67l208 863h68l231 -627l232 627h68z" />
    <glyph glyph-name="estimated" unicode="&#x212e;" horiz-adv-x="1603" 
d="M82 623q0 176 96.5 325t262 235.5t360.5 86.5q196 0 362 -86.5t262.5 -235.5t96.5 -325v-19h-1176v-287q0 -68 28 -124.5t79 -88.5q139 -92 352 -92q151 0 285 57t223 158h59q-101 -118 -252.5 -185t-318.5 -67q-146 0 -279.5 51.5t-229.5 138t-153 206.5t-57 252z
M1167 1130q-133 103 -362 103q-216 0 -352 -94q-107 -72 -107 -174v-324h911v311q0 109 -90 178z" />
    <glyph glyph-name="uni2153" unicode="&#x2153;" horiz-adv-x="1277" 
d="M68 0l809 1382h73l-809 -1382h-73zM252 1382v-790h-66v723h-104v67h170zM930 809q113 0 177 -52t64 -147q0 -69 -44 -118t-119 -64v-2q87 -9 137.5 -63t50.5 -146q0 -104 -66 -169.5t-206 -65.5q-114 0 -184 56t-76 163h67q4 -77 60.5 -116.5t132.5 -39.5q94 0 149 41.5
t55 130.5q0 52 -19 86.5t-55.5 52t-77 24.5t-95.5 7v64q223 7 223 153q0 141 -176 141q-83 0 -133.5 -36t-53.5 -111h-67q4 103 70 157t186 54z" />
    <glyph glyph-name="uni2154" unicode="&#x2154;" horiz-adv-x="1576" 
d="M322 1401q116 0 174.5 -57.5t58.5 -149.5q0 -120 -129 -260l-258 -277h393v-65h-489v59l295 320q116 123 116 225q0 60 -41.5 100.5t-122.5 40.5q-76 0 -120 -41.5t-49 -115.5h-72q4 102 70 161.5t174 59.5zM367 0l809 1382h73l-809 -1382h-73zM1229 809q113 0 177 -52
t64 -147q0 -69 -44 -118t-119 -64v-2q87 -9 137.5 -63t50.5 -146q0 -104 -66 -169.5t-206 -65.5q-114 0 -184 56t-76 163h67q4 -77 60.5 -116.5t132.5 -39.5q94 0 149 41.5t55 130.5q0 52 -19 86.5t-55.5 52t-77 24.5t-95.5 7v64q223 7 223 153q0 141 -176 141
q-83 0 -133.5 -36t-53.5 -111h-67q4 103 70 157t186 54z" />
    <glyph glyph-name="oneeighth" unicode="&#x215b;" horiz-adv-x="1282" 
d="M68 0l809 1382h73l-809 -1382h-73zM252 1382v-790h-66v723h-104v67h170zM942 -18q-126 0 -192 64.5t-66 162.5q0 90 46.5 143t113.5 70v4q-59 12 -99 56t-40 126q0 86 62.5 143.5t174.5 57.5t175 -57.5t63 -143.5q0 -82 -40.5 -126t-99.5 -56v-4q67 -17 113.5 -70
t46.5 -143q0 -98 -66 -162.5t-192 -64.5zM942 457q80 0 125 41t45 106q0 63 -46 102t-124 39t-124 -39t-46 -102q0 -65 45 -106t125 -41zM942 45q90 0 140.5 45t50.5 123q0 77 -53.5 123.5t-137.5 46.5t-137 -46.5t-53 -123.5q0 -79 50 -123.5t140 -44.5z" />
    <glyph glyph-name="threeeighths" unicode="&#x215c;" horiz-adv-x="1542" 
d="M328 1401q113 0 177 -52t64 -147q0 -69 -44 -118t-119 -64v-2q87 -9 137.5 -63t50.5 -146q0 -104 -66 -170t-206 -66q-114 0 -184.5 56.5t-76.5 163.5h68q4 -77 60.5 -116.5t132.5 -39.5q94 0 149 41.5t55 130.5q0 52 -19 86.5t-55.5 52t-77 24.5t-95.5 7v63
q223 7 223 154q0 141 -176 141q-83 0 -133.5 -36t-53.5 -111h-67q4 103 70 157t186 54zM328 0l809 1382h73l-809 -1382h-73zM1202 -18q-126 0 -192 64.5t-66 162.5q0 90 46.5 143t113.5 70v4q-59 12 -99 56t-40 126q0 86 62.5 143.5t174.5 57.5t175 -57.5t63 -143.5
q0 -82 -40.5 -126t-99.5 -56v-4q67 -17 113.5 -70t46.5 -143q0 -98 -66 -162.5t-192 -64.5zM1202 457q80 0 125 41t45 106q0 63 -46 102t-124 39t-124 -39t-46 -102q0 -65 45 -106t125 -41zM1202 45q90 0 140.5 45t50.5 123q0 77 -53.5 123.5t-137.5 46.5t-137 -46.5
t-53 -123.5q0 -79 50 -123.5t140 -44.5z" />
    <glyph glyph-name="fiveeighths" unicode="&#x215d;" horiz-adv-x="1556" 
d="M342 1110q48 0 91.5 -14.5t81.5 -44.5t60.5 -83t22.5 -122q0 -125 -72.5 -199t-197.5 -74q-102 0 -171.5 46.5t-95.5 132.5l64 24q48 -137 207 -137q97 0 147.5 55.5t50.5 149.5q0 102 -56.5 151t-139.5 49q-53 0 -100 -20t-72 -57h-62l47 415h385v-63h-329l-33 -277h4
q23 32 69.5 50t98.5 18zM342 0l809 1382h74l-809 -1382h-74zM1217 -18q-126 0 -192.5 64.5t-66.5 162.5q0 90 46.5 143t113.5 70v4q-59 12 -99 56t-40 126q0 86 63 143.5t175 57.5t174.5 -57.5t62.5 -143.5q0 -82 -40 -126t-99 -56v-4q67 -17 113.5 -70t46.5 -143
q0 -98 -66 -162.5t-192 -64.5zM1217 457q80 0 124.5 41t44.5 106q0 64 -46 102.5t-123 38.5q-78 0 -124 -39t-46 -102q0 -65 45 -106t125 -41zM1217 45q90 0 140 44.5t50 123.5q0 77 -53 123.5t-137 46.5t-137.5 -46.5t-53.5 -123.5q0 -78 50.5 -123t140.5 -45z" />
    <glyph glyph-name="seveneighths" unicode="&#x215e;" horiz-adv-x="1394" 
d="M528 1382v-61l-352 -729h-70l353 727h-418v63h487zM180 0l809 1382h74l-809 -1382h-74zM1055 -18q-126 0 -192 64.5t-66 162.5q0 91 46 143.5t113 69.5v4q-59 12 -99 56t-40 126q0 86 63 143.5t175 57.5t174.5 -57.5t62.5 -143.5q0 -82 -40 -126t-99 -56v-4
q67 -17 113.5 -70t46.5 -143q0 -98 -66 -162.5t-192 -64.5zM1055 457q80 0 125 41t45 106q0 63 -46 102t-124 39t-124 -39t-46 -102q0 -65 45 -106t125 -41zM1055 45q90 0 140 44.5t50 123.5q0 77 -53 123.5t-137 46.5t-137.5 -46.5t-53.5 -123.5q0 -78 50.5 -123t140.5 -45
z" />
    <glyph glyph-name="arrowleft" unicode="&#x2190;" horiz-adv-x="1683" 
d="M1581 635v-82h-1329l528 -543l-63 -61l-615 645l615 645l63 -61l-528 -543h1329z" />
    <glyph glyph-name="arrowup" unicode="&#x2191;" horiz-adv-x="1495" 
d="M1393 702l-62 -63l-543 528v-1329h-81v1329l-543 -528l-62 63l646 615z" />
    <glyph glyph-name="arrowright" unicode="&#x2192;" horiz-adv-x="1683" 
d="M967 1241l614 -645l-614 -645l-64 61l529 543h-1330v82h1330l-529 543z" />
    <glyph glyph-name="arrowdown" unicode="&#x2193;" horiz-adv-x="1495" 
d="M1331 551l62 -64l-645 -614l-646 614l62 64l543 -528v1329h81v-1329z" />
    <glyph glyph-name="arrowboth" unicode="&#x2194;" horiz-adv-x="2582" 
d="M1866 1239l614 -645l-614 -645l-64 61l529 543h-1330h-749l528 -543l-63 -61l-615 645l615 645l63 -61l-528 -543h1329h750l-529 543z" />
    <glyph glyph-name="arrowupdn" unicode="&#x2195;" horiz-adv-x="1495" 
d="M788 -332l543 529l62 -64l-645 -614l-646 614l62 64l543 -529v1329v541l-543 -528l-62 63l646 615l645 -615l-62 -63l-543 528v-1329v-541z" />
    <glyph glyph-name="uni2196" unicode="&#x2196;" horiz-adv-x="1300" 
d="M1198 90l-57 -59l-940 942l-11 -758h-88l21 891l891 22l2 -88l-758 -10z" />
    <glyph glyph-name="uni2197" unicode="&#x2197;" horiz-adv-x="1302" 
d="M1200 215l-88 -2l-10 758l-940 -940l-60 57l942 940l-757 10v88l891 -20z" />
    <glyph glyph-name="uni2198" unicode="&#x2198;" horiz-adv-x="1300" 
d="M1110 973h88l-20 -891l-891 -23l-2 88l757 11l-940 940l58 59l940 -942z" />
    <glyph glyph-name="uni2199" unicode="&#x2199;" horiz-adv-x="1302" 
d="M1200 1100l-942 -940l758 -10v-89l-891 21l-23 891l88 2l11 -758l940 940z" />
    <glyph glyph-name="partialdiff" unicode="&#x2202;" horiz-adv-x="1144" 
d="M463 1464q279 0 439.5 -201t160.5 -577q0 -116 -16 -218t-54 -195t-95.5 -159.5t-145.5 -105.5t-199 -39q-113 0 -203.5 35.5t-148.5 98.5t-88.5 148t-30.5 185q0 228 132 358t343 130q272 0 432 -219q-2 206 -60.5 359t-177.5 240t-286 87q-81 0 -165.5 -26t-139.5 -62
l-37 69q169 92 340 92zM551 43q104 0 185 42.5t131.5 118.5t79.5 172t38 212q-25 46 -63 90t-90.5 84t-124 64t-148.5 24q-176 0 -287.5 -114.5t-111.5 -301.5q0 -171 107 -281t284 -110z" />
    <glyph glyph-name="emptyset" unicode="&#x2205;" 
d="M1112 1100l-123 -119q123 -132 123 -317q0 -199 -143 -337.5t-355 -138.5q-191 0 -333 119l-125 -121l-39 41l123 119q-123 132 -123 318q0 199 142.5 337t354.5 138q192 0 332 -117l125 119zM190 664q0 -157 101 -269l604 578q-118 94 -281 94q-184 0 -304 -115.5
t-120 -287.5zM1038 664q0 160 -102 268l-602 -576q113 -96 280 -96q184 0 304 116t120 288z" />
    <glyph glyph-name="product" unicode="&#x220f;" horiz-adv-x="1454" 
d="M1413 1434v-74h-303v-1520h-74v1520h-614v-1520h-74v1520h-307v74h1372z" />
    <glyph glyph-name="summation" unicode="&#x2211;" horiz-adv-x="1128" 
d="M1047 1434v-74h-869l629 -756l-629 -756h869v-73h-965v78l623 751l-623 752v78h965z" />
    <glyph glyph-name="minus" unicode="&#x2212;" 
d="M1104 639v-57h-979v57h979z" />
    <glyph glyph-name="radical" unicode="&#x221a;" horiz-adv-x="1161" 
d="M1044 1464h76l-502 -1464h-73l-346 870h-158v76h213l326 -844z" />
    <glyph glyph-name="infinity" unicode="&#x221e;" horiz-adv-x="1556" 
d="M1190 922q144 0 235 -85.5t91 -228.5t-91 -228t-235 -85q-64 0 -122 20.5t-111 63.5t-90 81.5t-89 100.5q-41 -49 -69.5 -80.5t-71.5 -70.5t-81 -61t-87.5 -38t-101.5 -16q-144 0 -235 85t-91 228t91 228.5t235 85.5q52 0 101.5 -16t87.5 -38t81 -61.5t71 -70.5t70 -81
q41 49 69.5 80.5t72 71t81 61.5t87.5 38t102 16zM367 864q-115 0 -190 -71t-75 -185t75 -185t190 -71q45 0 89 15t77.5 36t73.5 58.5t66 67.5t66 79q-40 49 -66 79t-66 67.5t-73.5 58.5t-77.5 36t-89 15zM1190 864q-56 0 -107 -19.5t-99.5 -60.5t-82.5 -77.5t-84 -98.5
q50 -62 84 -98.5t82.5 -77.5t99.5 -60.5t107 -19.5q115 0 189.5 71t74.5 185t-74.5 185t-189.5 71z" />
    <glyph glyph-name="integral" unicode="&#x222b;" horiz-adv-x="778" 
d="M696 1464v-71q-134 0 -203 -79.5t-69 -232.5v-1142q0 -184 -88 -281.5t-254 -97.5v71q131 2 199.5 75t68.5 237v1142q0 184 89 281.5t257 97.5z" />
    <glyph glyph-name="approxequal" unicode="&#x2248;" 
d="M354 911q69 0 264.5 -68.5t253.5 -68.5q49 0 88 32t60 95h61q-24 -93 -78.5 -141.5t-128.5 -48.5q-73 0 -267 68.5t-251 68.5q-49 0 -87.5 -32t-59.5 -95h-62q24 94 80 142t127 48zM354 584q70 0 265 -69t253 -69q49 0 88 32t60 95h61q-24 -93 -78.5 -141.5t-128.5 -48.5
q-73 0 -267 68.5t-251 68.5q-49 0 -87.5 -32t-59.5 -95h-62q24 94 80 142.5t127 48.5z" />
    <glyph glyph-name="notequal" unicode="&#x2260;" 
d="M1133 752h-408l-164 -281h572v-57h-605l-129 -224h-57l129 224h-375v57h408l164 281h-572v57h604l129 223h58l-129 -223h375v-57z" />
    <glyph glyph-name="lessequal" unicode="&#x2264;" 
d="M1047 1001v-61l-787 -231l787 -232v-61l-881 264v57zM1063 324v-58h-897v58h897z" />
    <glyph glyph-name="greaterequal" unicode="&#x2265;" 
d="M182 1001l881 -264v-57l-881 -264v61l787 232l-787 231v61zM166 324h897v-58h-897v58z" />
    <glyph glyph-name="uni2460" unicode="&#x2460;" horiz-adv-x="1699" 
d="M850 -31q-217 0 -388 96.5t-265.5 267t-94.5 384.5q0 160 55.5 298.5t153 237t237 155t302.5 56.5q217 0 387.5 -96t265 -266.5t94.5 -384.5t-94.5 -384.5t-265 -267t-387.5 -96.5zM850 10q201 0 361.5 91.5t250.5 253t90 362.5t-90 362t-250.5 252.5t-361.5 91.5
t-362 -91.5t-251 -252.5t-90 -362t90 -362.5t251 -253t362 -91.5zM848 334v723h-105v67h170v-790h-65z" />
    <glyph glyph-name="uni2461" unicode="&#x2461;" horiz-adv-x="1699" 
d="M850 -31q-217 0 -388 96.5t-265.5 267t-94.5 384.5q0 160 55.5 298.5t153 237t237 155t302.5 56.5q217 0 387.5 -96t265 -266.5t94.5 -384.5t-94.5 -384.5t-265 -267t-387.5 -96.5zM850 10q201 0 361.5 91.5t250.5 253t90 362.5t-90 362t-250.5 252.5t-361.5 91.5
t-362 -91.5t-251 -252.5t-90 -362t90 -362.5t251 -253t362 -91.5zM602 360v60l295 319q117 124 117 226q0 60 -41.5 100.5t-122.5 40.5q-77 0 -121.5 -37.5t-48.5 -110.5h-72q4 101 69.5 156t174.5 55q116 0 174.5 -57t58.5 -149q0 -128 -129 -261l-262 -276h398v-66h-490z
" />
    <glyph glyph-name="uni2462" unicode="&#x2462;" horiz-adv-x="1699" 
d="M850 -31q-217 0 -388 96.5t-265.5 267t-94.5 384.5q0 160 55.5 298.5t153 237t237 155t302.5 56.5q217 0 387.5 -96t265 -266.5t94.5 -384.5t-94.5 -384.5t-265 -267t-387.5 -96.5zM850 10q201 0 361.5 91.5t250.5 253t90 362.5t-90 362t-250.5 252.5t-361.5 91.5
t-362 -91.5t-251 -252.5t-90 -362t90 -362.5t251 -253t362 -91.5zM854 342q-111 0 -182.5 56.5t-77.5 162.5h68q4 -77 60 -116t132 -39q94 0 149.5 41.5t55.5 130.5q0 42 -13.5 72.5t-35 49t-55 29.5t-67.5 15t-77 4v63q217 7 217 154q0 141 -170 141q-172 0 -186 -148h-68
q4 100 74 155.5t182 55.5q110 0 173 -52t63 -146q0 -69 -43 -118.5t-115 -64.5v-2q87 -9 137.5 -62.5t50.5 -145.5q0 -104 -66 -170t-206 -66z" />
    <glyph glyph-name="uni2463" unicode="&#x2463;" horiz-adv-x="1699" 
d="M850 1464q217 0 387.5 -96t265 -266.5t94.5 -384.5t-94.5 -384.5t-265 -267t-387.5 -96.5t-388 96.5t-265.5 267t-94.5 384.5q0 160 55.5 298.5t153 237t237 155t302.5 56.5zM850 10q201 0 361.5 91.5t250.5 253t90 362.5t-90 362t-250.5 252.5t-361.5 91.5t-362 -91.5
t-251 -252.5t-90 -362t90 -362.5t251 -253t362 -91.5zM1004 1139v-574h90v-59h-90v-158h-66v158h-432v59l414 574h84zM580 565h358v477h-4z" />
    <glyph glyph-name="uni2464" unicode="&#x2464;" horiz-adv-x="1699" 
d="M850 -31q-217 0 -388 96.5t-265.5 267t-94.5 384.5q0 160 55.5 298.5t153 237t237 155t302.5 56.5q217 0 387.5 -96t265 -266.5t94.5 -384.5t-94.5 -384.5t-265 -267t-387.5 -96.5zM850 10q201 0 361.5 91.5t250.5 253t90 362.5t-90 362t-250.5 252.5t-361.5 91.5
t-362 -91.5t-251 -252.5t-90 -362t90 -362.5t251 -253t362 -91.5zM854 311q-99 0 -169.5 46.5t-96.5 131.5l63 25q23 -64 75.5 -100.5t131.5 -36.5q97 0 148 55.5t51 149.5q0 102 -57 151t-140 49q-53 0 -100 -20t-72 -57h-61l47 415h405v-63h-350l-33 -277h4q23 32 69.5 50
t98.5 18q48 0 91.5 -14.5t81.5 -44.5t60.5 -83t22.5 -122q0 -125 -72.5 -199t-197.5 -74z" />
    <glyph glyph-name="uni2465" unicode="&#x2465;" horiz-adv-x="1699" 
d="M850 -31q-217 0 -388 96.5t-265.5 267t-94.5 384.5q0 160 55.5 298.5t153 237t237 155t302.5 56.5q217 0 387.5 -96t265 -266.5t94.5 -384.5t-94.5 -384.5t-265 -267t-387.5 -96.5zM850 10q201 0 361.5 91.5t250.5 253t90 362.5t-90 362t-250.5 252.5t-361.5 91.5
t-362 -91.5t-251 -252.5t-90 -362t90 -362.5t251 -253t362 -91.5zM846 322q-120 0 -199.5 70t-79.5 196q0 109 35.5 186t118.5 170l166 203h86l-309 -367l2 -4q72 82 186 82q118 0 193 -74t75 -194q0 -121 -78 -194.5t-196 -73.5zM850 385q93 0 148 54.5t55 150.5
q0 95 -57.5 150t-147.5 55q-94 0 -152.5 -55t-58.5 -150q0 -96 58 -150.5t155 -54.5z" />
    <glyph glyph-name="uni2466" unicode="&#x2466;" horiz-adv-x="1699" 
d="M850 -31q-217 0 -388 96.5t-265.5 267t-94.5 384.5q0 160 55.5 298.5t153 237t237 155t302.5 56.5q217 0 387.5 -96t265 -266.5t94.5 -384.5t-94.5 -384.5t-265 -267t-387.5 -96.5zM850 10q201 0 361.5 91.5t250.5 253t90 362.5t-90 362t-250.5 252.5t-361.5 91.5
t-362 -91.5t-251 -252.5t-90 -362t90 -362.5t251 -253t362 -91.5zM696 313l353 727h-418v64h487v-62l-352 -729h-70z" />
    <glyph glyph-name="uni2467" unicode="&#x2467;" horiz-adv-x="1699" 
d="M850 -31q-217 0 -388 96.5t-265.5 267t-94.5 384.5q0 160 55.5 298.5t153 237t237 155t302.5 56.5q217 0 387.5 -96t265 -266.5t94.5 -384.5t-94.5 -384.5t-265 -267t-387.5 -96.5zM850 10q201 0 361.5 91.5t250.5 253t90 362.5t-90 362t-250.5 252.5t-361.5 91.5
t-362 -91.5t-251 -252.5t-90 -362t90 -362.5t251 -253t362 -91.5zM850 315q-125 0 -191.5 66t-66.5 164q0 160 160 211v4q-140 37 -140 182q0 86 63 143.5t175 57.5t174.5 -57.5t62.5 -143.5q0 -145 -139 -182v-4q160 -51 160 -211q0 -98 -66.5 -164t-191.5 -66zM850 791
q80 0 125 41t45 106q0 63 -46 102t-124 39t-124 -39t-46 -102q0 -65 45 -106t125 -41zM850 379q90 0 140 45.5t50 124.5q0 77 -53 122.5t-137 45.5q-85 0 -138 -45.5t-53 -122.5q0 -79 50.5 -124.5t140.5 -45.5z" />
    <glyph glyph-name="uni2468" unicode="&#x2468;" horiz-adv-x="1699" 
d="M850 -31q-217 0 -388 96.5t-265.5 267t-94.5 384.5q0 160 55.5 298.5t153 237t237 155t302.5 56.5q217 0 387.5 -96t265 -266.5t94.5 -384.5t-94.5 -384.5t-265 -267t-387.5 -96.5zM850 10q201 0 361.5 91.5t250.5 253t90 362.5t-90 362t-250.5 252.5t-361.5 91.5
t-362 -91.5t-251 -252.5t-90 -362t90 -362.5t251 -253t362 -91.5zM750 315l303 387l-2 3q-54 -50 -95.5 -72.5t-99.5 -22.5q-111 0 -184.5 70.5t-73.5 179.5q0 112 71 188t191 76q124 0 196 -70t72 -186q0 -91 -23 -160t-97 -165l-179 -228h-79zM866 674q92 0 143.5 53
t51.5 147q0 86 -52 136.5t-141 50.5q-92 0 -147 -52.5t-55 -146.5q0 -88 53 -138t147 -50z" />
    <glyph glyph-name="uni24EA" unicode="&#x24ea;" horiz-adv-x="1699" 
d="M850 -31q-217 0 -388 96.5t-265.5 267t-94.5 384.5q0 160 55.5 298.5t153 237t237 155t302.5 56.5q217 0 387.5 -96t265 -266.5t94.5 -384.5t-94.5 -384.5t-265 -267t-387.5 -96.5zM850 10q201 0 361.5 91.5t250.5 253t90 362.5t-90 362t-250.5 252.5t-361.5 91.5
t-362 -91.5t-251 -252.5t-90 -362t90 -362.5t251 -253t362 -91.5zM850 307q-143 0 -230.5 110.5t-87.5 305.5q0 194 87.5 304t230.5 110q141 0 229 -110t88 -304q0 -195 -88 -305.5t-229 -110.5zM850 371q114 0 182 97.5t68 254.5q0 156 -68 253t-182 97q-115 0 -182.5 -97
t-67.5 -253q0 -158 67.5 -255t182.5 -97z" />
    <glyph glyph-name="uni24FF" unicode="&#x24ff;" horiz-adv-x="1699" 
d="M850 -31q-159 0 -298 57.5t-237.5 156.5t-155.5 238t-57 296q0 210 96.5 381t268 268.5t383.5 97.5t383 -97.5t267.5 -268.5t96.5 -381t-96.5 -381.5t-267.5 -269t-383 -97.5zM850 307q141 0 229 110.5t88 305.5q0 194 -88 304t-229 110q-143 0 -230.5 -110t-87.5 -304
q0 -195 87.5 -305.5t230.5 -110.5zM850 371q-115 0 -182.5 97t-67.5 255q0 156 67.5 253t182.5 97q114 0 182 -97t68 -253q0 -157 -68 -254.5t-182 -97.5z" />
    <glyph glyph-name="lozenge" unicode="&#x25ca;" horiz-adv-x="1196" 
d="M629 1464l526 -747l-526 -748h-62l-526 748l526 747h62zM598 1372l-463 -655l463 -656l463 656z" />
    <glyph glyph-name="uni2776" unicode="&#x2776;" horiz-adv-x="1699" 
d="M850 -31q-159 0 -298 57.5t-237.5 156.5t-155.5 238t-57 296q0 210 96.5 381t268 268.5t383.5 97.5t383 -97.5t267.5 -268.5t96.5 -381t-96.5 -381.5t-267.5 -269t-383 -97.5zM848 334h65v790h-170v-67h105v-723z" />
    <glyph glyph-name="uni2777" unicode="&#x2777;" horiz-adv-x="1699" 
d="M850 -31q-159 0 -298 57.5t-237.5 156.5t-155.5 238t-57 296q0 210 96.5 381t268 268.5t383.5 97.5t383 -97.5t267.5 -268.5t96.5 -381t-96.5 -381.5t-267.5 -269t-383 -97.5zM598 352h489v66h-397l262 276q129 133 129 260q0 92 -58.5 149.5t-174.5 57.5
q-109 0 -174.5 -55t-69.5 -156h72q4 73 48.5 110.5t121.5 37.5q81 0 122.5 -41t41.5 -101q0 -101 -117 -225l-295 -319v-60z" />
    <glyph glyph-name="uni2778" unicode="&#x2778;" horiz-adv-x="1699" 
d="M850 -31q-159 0 -298 57.5t-237.5 156.5t-155.5 238t-57 296q0 210 96.5 381t268 268.5t383.5 97.5t383 -97.5t267.5 -268.5t96.5 -381t-96.5 -381.5t-267.5 -269t-383 -97.5zM846 342q140 0 206 66t66 170q0 92 -50.5 145.5t-137.5 62.5v2q72 15 114.5 64.5t42.5 118.5
q0 94 -62.5 146t-172.5 52q-112 0 -182 -55.5t-74 -155.5h68q14 148 186 148q170 0 170 -141q0 -147 -217 -154v-63q43 0 77 -4t67.5 -15t55 -29.5t35 -49t13.5 -72.5q0 -89 -55.5 -130.5t-149.5 -41.5q-76 0 -132.5 39t-60.5 116h-67q6 -106 77.5 -162.5t182.5 -56.5z" />
    <glyph glyph-name="uni2779" unicode="&#x2779;" horiz-adv-x="1699" 
d="M850 -31q-159 0 -298 57.5t-237.5 156.5t-155.5 238t-57 296q0 210 96.5 381t268 268.5t383.5 97.5t383 -97.5t267.5 -268.5t96.5 -381t-96.5 -381.5t-267.5 -269t-383 -97.5zM938 348h66v158h90v59h-90v574h-84l-414 -574v-59h432v-158zM580 565l354 477h4v-477h-358z
" />
    <glyph glyph-name="uni277A" unicode="&#x277a;" horiz-adv-x="1699" 
d="M850 -31q-159 0 -298 57.5t-237.5 156.5t-155.5 238t-57 296q0 210 96.5 381t268 268.5t383.5 97.5t383 -97.5t267.5 -268.5t96.5 -381t-96.5 -381.5t-267.5 -269t-383 -97.5zM829 311q125 0 198 74t73 199q0 69 -22.5 122t-60.5 83t-81.5 44.5t-91.5 14.5
q-52 0 -98.5 -18t-69.5 -50h-4l33 277h370v63h-426l-47 -415h62q25 37 72 57t100 20q83 0 139.5 -49t56.5 -151q0 -94 -50.5 -149.5t-147.5 -55.5q-79 0 -131.5 36.5t-75.5 100.5l-64 -25q26 -85 96.5 -131.5t169.5 -46.5z" />
    <glyph glyph-name="uni277B" unicode="&#x277b;" horiz-adv-x="1699" 
d="M850 -31q-159 0 -298 57.5t-237.5 156.5t-155.5 238t-57 296q0 210 96.5 381t268 268.5t383.5 97.5t383 -97.5t267.5 -268.5t96.5 -381t-96.5 -381.5t-267.5 -269t-383 -97.5zM844 322q118 0 196 73.5t78 194.5q0 120 -75 194t-193 74q-114 0 -186 -82l-2 4l309 367h-86
l-166 -203q-83 -93 -118.5 -170t-35.5 -186q0 -126 79.5 -196t199.5 -70zM848 385q-97 0 -155 54.5t-58 150.5q0 95 58.5 150t152.5 55q90 0 147.5 -55t57.5 -150q0 -96 -55 -150.5t-148 -54.5z" />
    <glyph glyph-name="uni277C" unicode="&#x277c;" horiz-adv-x="1699" 
d="M850 -31q-159 0 -298 57.5t-237.5 156.5t-155.5 238t-57 296q0 210 96.5 381t268 268.5t383.5 97.5t383 -97.5t267.5 -268.5t96.5 -381t-96.5 -381.5t-267.5 -269t-383 -97.5zM676 313h69l353 729v62h-488v-64h418z" />
    <glyph glyph-name="uni277D" unicode="&#x277d;" horiz-adv-x="1699" 
d="M850 -31q-159 0 -298 57.5t-237.5 156.5t-155.5 238t-57 296q0 210 96.5 381t268 268.5t383.5 97.5t383 -97.5t267.5 -268.5t96.5 -381t-96.5 -381.5t-267.5 -269t-383 -97.5zM850 315q124 0 191 66t67 158q0 90 -45.5 142.5t-114.5 74.5v4q139 37 139 182
q0 86 -62.5 143.5t-174.5 57.5t-175 -57.5t-63 -143.5q0 -145 140 -182v-4q-69 -22 -114.5 -74.5t-45.5 -142.5q0 -92 67 -158t191 -66zM850 791q-80 0 -125 41t-45 106q0 63 46 102t124 39t124 -39t46 -102q0 -65 -45 -106t-125 -41zM850 379q-91 0 -141 43t-50 121
q0 77 53.5 125.5t137.5 48.5t137 -48t53 -126t-49.5 -121t-140.5 -43z" />
    <glyph glyph-name="uni277E" unicode="&#x277e;" horiz-adv-x="1699" 
d="M850 -31q-159 0 -298 57.5t-237.5 156.5t-155.5 238t-57 296q0 210 96.5 381t268 268.5t383.5 97.5t383 -97.5t267.5 -268.5t96.5 -381t-96.5 -381.5t-267.5 -269t-383 -97.5zM737 315h80l178 228q74 96 97.5 165.5t23.5 159.5q0 116 -72 186t-196 70q-120 0 -191 -76
t-71 -188q0 -109 73.5 -179.5t184.5 -70.5q58 0 99 22.5t95 72.5l2 -3zM854 674q-94 0 -147.5 50t-53.5 138q0 94 55.5 146.5t147.5 52.5q89 0 141 -50.5t52 -136.5q0 -94 -51.5 -147t-143.5 -53z" />
    <glyph glyph-name="uniF8FF" unicode="&#xf8ff;" horiz-adv-x="1771" 
d="M102 1384q0 32 22 53t54 21q31 0 53.5 -21t22.5 -53q0 -48 -37 -69v-49q65 27 108 42t112 29.5t134 14.5q92 0 156 -43.5t64 -126.5v-52q118 25 213 25q53 0 98.5 -8t88 -26t67 -53t24.5 -83v-98q98 24 166 24q113 0 167 -44t54 -117v-492q-109 66 -219 66
q-52 0 -131 -20.5t-115 -20.5q-104 0 -104 94v176q-48 10 -96 10q-50 0 -149.5 -18.5t-137.5 -18.5q-111 0 -111 95v139h-28q-130 0 -361 -90v-670h-80v1317q-35 21 -35 67zM731 1182q0 57 -46 84.5t-112 27.5q-62 0 -135.5 -17.5t-110.5 -31t-110 -43.5v-471q225 86 358 86
q91 0 156 -29v394zM639 1188l-133 -195v-139h-62v139l-133 195h78l86 -131l86 131h78zM1225 971q0 17 -2 29t-13.5 32t-32.5 33t-64.5 23t-104.5 10q-86 0 -217 -25v-350q0 -23 -20.5 -38.5t-45.5 -21.5t-45.5 -18.5t-20.5 -32.5q0 -28 56 -28q35 0 134 17t155 17
q130 0 221 -51v404zM819 848q0 72 46 119t118 47t118 -47t46 -119t-46 -119t-118 -47t-118 47t-46 119zM1085 848q0 46 -29 76t-73 30t-73 -30t-29 -76t29 -76.5t73 -30.5t73 30.5t29 76.5zM1614 748q0 58 -43 81t-121 23q-65 0 -168 -25v-342q0 -25 -20 -41.5t-43.5 -23
t-43.5 -19t-20 -30.5q0 -33 51 -33q30 0 111 21.5t131 21.5q78 0 166 -31v398zM1452 764l-20 -205h-33l-21 205h74zM729 721q0 22 -65 33v-66q9 5 27 10.5t28 10.5t10 12zM1225 492q0 27 -70 49v-97q13 8 32.5 16t28.5 14.5t9 17.5zM1374 473q0 17 11 28t30 11t30 -11
t11 -28q0 -19 -11 -30t-30 -11t-30 11t-11 30z" />
    <glyph glyph-name="CR" horiz-adv-x="716" 
 />
    <glyph glyph-name="Adieresis.ss01" horiz-adv-x="1294" 
d="M442 1520q-41 0 -69.5 28.5t-28.5 69.5t28.5 69.5t69.5 28.5t70 -28.5t29 -69.5t-29 -69.5t-70 -28.5zM852 1520q-41 0 -69.5 28.5t-28.5 69.5t28.5 69.5t69.5 28.5t69.5 -28.5t28.5 -69.5t-28.5 -69.5t-69.5 -28.5zM1188 0l-170 418h-742l-170 -418h-86l584 1434h86
l584 -1434h-86zM309 496h676l-338 831z" />
    <glyph glyph-name="Adieresis.ss01.ss02" horiz-adv-x="1294" 
d="M397 1333q-41 0 -69.5 29t-28.5 70t28.5 69.5t69.5 28.5t70 -28.5t29 -69.5t-29 -70t-70 -29zM897 1333q-41 0 -69.5 29t-28.5 70t28.5 69.5t69.5 28.5t69.5 -28.5t28.5 -69.5t-28.5 -70t-69.5 -29zM1188 0l-170 418h-742l-170 -418h-86l584 1434h86l584 -1434h-86z
M309 496h676l-338 831z" />
    <glyph glyph-name="Adieresis.ss02" horiz-adv-x="1294" 
d="M457 1516v-195h-107v195h107zM944 1516v-195h-106v195h106zM1188 0l-170 418h-742l-170 -418h-86l584 1434h86l584 -1434h-86zM309 496h676l-338 831z" />
    <glyph glyph-name="Cdotaccent.ss01" horiz-adv-x="1409" 
d="M844 1716q41 0 69.5 -28.5t28.5 -69.5t-28.5 -69.5t-69.5 -28.5t-70 28.5t-29 69.5t29 69.5t70 28.5zM846 -31q-230 0 -404 95t-267 264.5t-93 388.5t93 388t267 264t404 95q147 0 262.5 -41t228.5 -125l-51 -69q-101 76 -203.5 114.5t-238.5 38.5q-201 0 -355.5 -85.5
t-237.5 -236.5t-83 -343q0 -144 48.5 -267t136 -211t214 -138t277.5 -50q135 0 237.5 39t204.5 115l51 -70q-113 -84 -228.5 -125t-262.5 -41z" />
    <glyph glyph-name="Edieresis.ss01" horiz-adv-x="1054" 
d="M383 1520q-41 0 -69.5 28.5t-28.5 69.5t28.5 69.5t69.5 28.5t69.5 -28.5t28.5 -69.5t-28.5 -69.5t-69.5 -28.5zM793 1520q-41 0 -70 28.5t-29 69.5t29 69.5t70 28.5t69.5 -28.5t28.5 -69.5t-28.5 -69.5t-69.5 -28.5zM246 78h706v-78h-788v1434h778v-78h-696v-510h641v-78
h-641v-690z" />
    <glyph glyph-name="Edotaccent.ss01" horiz-adv-x="1054" 
d="M588 1520q-41 0 -70 28.5t-29 69.5t29 69.5t70 28.5t69.5 -28.5t28.5 -69.5t-28.5 -69.5t-69.5 -28.5zM246 78h706v-78h-788v1434h778v-78h-696v-510h641v-78h-641v-690z" />
    <glyph glyph-name="Euro.tf" 
d="M825 1337q-222 0 -361.5 -136.5t-172.5 -377.5h680l-31 -61h-655q-2 -25 -2 -76v-45h610l-31 -61h-575q26 -254 170 -393.5t385 -139.5q149 0 282 72v-82q-125 -66 -288 -66q-144 0 -258.5 46t-190 128.5t-119.5 192t-57 242.5h-182l30 61h148q-2 16 -2 51q0 47 2 70
h-168l31 61h143q15 130 60 236t119.5 186t185 124t247.5 44q202 0 375 -110l-35 -72q-162 106 -340 106z" />
    <glyph glyph-name="Gcommaaccent.ss01" horiz-adv-x="1638" 
d="M913 727h654v-35q0 -103 -26 -203.5t-84 -195t-141 -166t-206 -115t-270 -43.5q-220 0 -393 94t-269 264t-96 386t95.5 387.5t268 267.5t390.5 96q167 0 293 -48t251 -140l-55 -72q-112 84 -226 131t-265 47q-188 0 -340 -85.5t-239 -239t-87 -344.5q0 -140 49 -262
t135.5 -210.5t213 -139t274.5 -50.5q111 0 207 28t164 76t120.5 108t84 128.5t48 133t17.5 124.5h-568v78zM860 -84q40 0 68 -27.5t28 -68.5q0 -44 -30 -82l-113 -148h-51l82 136q-36 4 -58 30t-22 62q0 41 28 69.5t68 28.5z" />
    <glyph glyph-name="Gdotaccent.ss01" horiz-adv-x="1638" 
d="M836 1520q-41 0 -70 28.5t-29 69.5t29 69.5t70 28.5t69.5 -28.5t28.5 -69.5t-28.5 -69.5t-69.5 -28.5zM913 727h654v-35q0 -103 -26 -203.5t-84 -195t-141 -166t-206 -115t-270 -43.5q-220 0 -393 94t-269 264t-96 386t95.5 387.5t268 267.5t390.5 96q167 0 293 -48
t251 -140l-55 -72q-112 84 -226 131t-265 47q-188 0 -340 -85.5t-239 -239t-87 -344.5q0 -140 49 -262t135.5 -210.5t213 -139t274.5 -50.5q111 0 207 28t164 76t120.5 108t84 128.5t48 133t17.5 124.5h-568v78z" />
    <glyph glyph-name="Ghedescendercy" horiz-adv-x="286" 
d="M184 51v-338h-82v338h82z" />
    <glyph glyph-name="Idieresis.ss01" horiz-adv-x="409" 
d="M-98 1716q41 0 69.5 -28.5t28.5 -69.5t-28.5 -69.5t-69.5 -28.5t-70 28.5t-29 69.5t29 69.5t70 28.5zM311 1716q41 0 70 -28.5t29 -69.5t-29 -69.5t-70 -28.5t-69.5 28.5t-28.5 69.5t28.5 69.5t69.5 28.5zM147 1434v-1434h-81v1434h81z" />
    <glyph glyph-name="Idieresis.ss01.ss02" horiz-adv-x="409" 
d="M-33 1530q41 0 70 -28.5t29 -69.5t-29 -70t-70 -29t-69.5 29t-28.5 70t28.5 69.5t69.5 28.5zM442 1530q41 0 70 -28.5t29 -69.5t-29 -70t-70 -29t-69.5 29t-28.5 70t28.5 69.5t69.5 28.5zM246 1434v-1434h-82v1434h82z" />
    <glyph glyph-name="Idieresis.ss02" horiz-adv-x="409" 
d="M76 1516v-195h-107v195h107zM440 1516v-195h-106v195h106zM246 1434v-1434h-82v1434h82z" />
    <glyph glyph-name="Idotaccent.ss01" horiz-adv-x="409" 
d="M205 1716q41 0 69.5 -28.5t28.5 -69.5t-28.5 -69.5t-69.5 -28.5t-70 28.5t-29 69.5t29 69.5t70 28.5zM246 1434v-1434h-82v1434h82z" />
    <glyph glyph-name="Indianrupeesign.tf" 
d="M672 1321q85 -45 136 -123t58 -182h187l-45 -62h-140q-7 -112 -68 -197t-160.5 -129t-221.5 -44h-148l533 -584h-96l-533 584v71h236q174 0 273 82.5t108 216.5h-617v62h614q-11 133 -109 214t-269 81h-236v71h879l-45 -61h-336z" />
    <glyph glyph-name="Kcommaaccent.ss01" horiz-adv-x="1148" 
d="M346 764l782 -764h-127l-757 754v-754h-80v1434h80v-660l678 660h122zM594 -84q40 0 68 -27.5t28 -68.5q0 -43 -31 -82l-112 -148h-51l82 136q-36 4 -58 30t-22 62q0 41 28 69.5t68 28.5z" />
    <glyph glyph-name="Lcaron.ss01" horiz-adv-x="999" 
d="M709 1460q41 0 69.5 -28t28.5 -68q0 -24 -21 -70l-124 -266h-56l90 236q-40 4 -63 31t-23 67q0 41 29 69.5t70 28.5zM246 1434v-1356h723v-78h-805v1434h82z" />
    <glyph glyph-name="Lcommaaccent.ss01" horiz-adv-x="999" 
d="M246 1434v-1356h723v-78h-805v1434h82zM705 -180q0 -43 -31 -82l-113 -148h-51l82 136q-36 4 -58 30t-22 62q0 41 28 69.5t68 28.5t68.5 -27.5t28.5 -68.5z" />
    <glyph glyph-name="Ldot.ss01" horiz-adv-x="999" 
d="M246 1434v-1356h723v-78h-805v1434h82zM729 977q44 0 73 -29.5t29 -73.5t-29 -73t-73 -29t-73 29t-29 73t29 73.5t73 29.5z" />
    <glyph glyph-name="Ncommaaccent.ss01" horiz-adv-x="1404" 
d="M1241 1434v-1434h-92l-899 1296h-4v-1296h-82v1434h92l899 -1297h4v1297h82zM803 -180q0 -43 -31 -82l-113 -148h-51l82 136q-36 4 -58 30t-22 62q0 41 28.5 69.5t68.5 28.5t68 -27.5t28 -68.5z" />
    <glyph glyph-name="Odieresis.ss01" horiz-adv-x="1658" 
d="M625 1716q41 0 69.5 -28.5t28.5 -69.5t-28.5 -69.5t-69.5 -28.5t-70 28.5t-29 69.5t29 69.5t70 28.5zM1034 1716q41 0 70 -28.5t29 -69.5t-29 -69.5t-70 -28.5t-69.5 28.5t-28.5 69.5t28.5 69.5t69.5 28.5zM829 1464q211 0 381.5 -94t268.5 -265.5t98 -387.5t-98 -387.5
t-268.5 -266t-381.5 -94.5t-381.5 94.5t-268 266t-97.5 387.5q0 162 57 302t156.5 237t237.5 152.5t296 55.5zM829 1382q-142 0 -264.5 -49.5t-210 -136t-137 -211t-49.5 -268.5q0 -193 85 -345t236 -236.5t340 -84.5q190 0 341 84.5t236 236.5t85 345q0 144 -50 268.5
t-137 211t-210 136t-265 49.5z" />
    </font>
</defs>
</svg>
