<?xml version="1.0" standalone="no"?>
<!DOCTYPE svg PUBLIC "-//W3C//DTD SVG 1.1//EN" "http://www.w3.org/Graphics/SVG/1.1/DTD/svg11.dtd" >
<svg xmlns="http://www.w3.org/2000/svg" xmlns:xlink="http://www.w3.org/1999/xlink" version="1.1">
<metadata>
Created by FontForge 20170731 at Sat Jul 23 01:25:01 2022
 By Aleksey,,,
Copyright (c) 2015 by Reto Moser. All rights reserved.
</metadata>
<defs>
<font id="GTEestiProDisplay-UltraBoldItalic" horiz-adv-x="1228" >
  <font-face 
    font-family="GT Eesti Pro Display UltraBold"
    font-weight="900"
    font-style="italic"
    font-stretch="normal"
    units-per-em="2048"
    panose-1="0 0 10 0 0 0 0 0 0 0"
    ascent="1536"
    descent="-512"
    x-height="946"
    cap-height="1434"
    bbox="-961 -516 2542 1843"
    underline-thickness="102"
    underline-position="-307"
    slope="-11"
    unicode-range="U+000D-FB02"
  />
<missing-glyph horiz-adv-x="1609" 
d="M852 -31q-213 0 -384 96.5t-267.5 267.5t-96.5 384q0 214 96.5 385t267.5 266.5t384 95.5q160 0 299 -56t237.5 -154.5t154.5 -237.5t56 -299q0 -213 -95.5 -384t-266.5 -267.5t-385 -96.5zM852 20q199 0 359 91t250.5 253t90.5 363l-104 133l-143 -61l-140 184l-161 -90
l-152 242l-152 -242l-161 90l-140 -184l-143 61l-104 -133q0 -201 90.5 -363t250.5 -253t359 -91zM641 651q-31 0 -51.5 20.5t-20.5 51.5t20.5 51.5t51.5 20.5t51.5 -20.5t20.5 -51.5t-20.5 -51.5t-51.5 -20.5zM1061 651q-31 0 -51.5 20.5t-20.5 51.5t20.5 51.5t51.5 20.5
t51.5 -20.5t20.5 -51.5t-20.5 -51.5t-51.5 -20.5zM766 522l74 207q3 17 22 10q6 -2 9.5 -8.5t0.5 -13.5l-57 -160h70q7 0 12.5 -5.5t5.5 -12.5q0 -6 -5.5 -11.5t-12.5 -5.5h-119zM449 350q-61 0 -101.5 40t-40.5 102q0 61 40 101t102 40q61 0 101 -39.5t40 -101.5t-40 -102
t-101 -40zM1253 350q-61 0 -101 40t-40 102t40 101.5t101 39.5q62 0 102 -40t40 -101q0 -62 -40.5 -102t-101.5 -40zM852 395q-96 0 -127 -61q-6 -12 -18 -12q-17 0 -17 18q0 35 50 63.5t112 28.5t112 -28.5t50 -63.5q0 -18 -17 -18q-12 0 -18 12q-31 61 -127 61z" />
    <glyph glyph-name="fi" unicode="fi" horiz-adv-x="1357" 
d="M819 635h-211l-123 -635h-379l123 635h-178l62 311h176l2 6q26 130 64.5 218.5t103 155t162.5 97.5t235 31h129l-67 -350h-39q-100 0 -145.5 -31.5t-63.5 -122.5v-4h211zM1077 1434h387l-69 -355h-387zM805 0l184 946h379l-184 -946h-379z" />
    <glyph glyph-name="fl" unicode="fl" horiz-adv-x="1357" 
d="M819 635h-211l-123 -635h-379l123 635h-178l62 311h176l2 6q26 130 64.5 218.5t103 155t162.5 97.5t235 31h129l-67 -350h-39q-100 0 -145.5 -31.5t-63.5 -122.5v-4h211zM1083 1434h379l-278 -1434h-379z" />
    <glyph glyph-name="f_f" unicode="ff" horiz-adv-x="1630" 
d="M881 946l-62 -311h-211l-123 -635h-379l123 635h-178l62 311h176l2 6q26 130 64.5 218.5t103 155t162.5 97.5t235 31h129l-67 -350h-39q-100 0 -145.5 -31.5t-63.5 -122.5v-4h211zM1694 1104q-100 0 -145.5 -31.5t-63.5 -122.5v-4h211l-62 -311h-211l-123 -635h-378
l122 635h-178l62 311h176l2 6q26 130 64.5 218.5t103 155t162.5 97.5t235 31h129l-67 -350h-39z" />
    <glyph glyph-name="f_f_i" unicode="ffi" horiz-adv-x="2172" 
d="M881 946l-62 -311h-211l-123 -635h-379l123 635h-178l62 311h176l2 6q26 130 64.5 218.5t103 155t162.5 97.5t235 31h129l-67 -350h-39q-100 0 -145.5 -31.5t-63.5 -122.5v-4h211zM1634 635h-211l-123 -635h-378l122 635h-178l62 311h176l2 6q26 130 64.5 218.5t103 155
t162.5 97.5t235 31h129l-67 -350h-39q-100 0 -145.5 -31.5t-63.5 -122.5v-4h211zM1892 1434h387l-69 -355h-387zM1620 0l184 946h379l-184 -946h-379z" />
    <glyph glyph-name="f_f_l" unicode="ffl" horiz-adv-x="2172" 
d="M881 946l-62 -311h-211l-123 -635h-379l123 635h-178l62 311h176l2 6q26 130 64.5 218.5t103 155t162.5 97.5t235 31h129l-67 -350h-39q-100 0 -145.5 -31.5t-63.5 -122.5v-4h211zM1634 635h-211l-123 -635h-378l122 635h-178l62 311h176l2 6q26 130 64.5 218.5t103 155
t162.5 97.5t235 31h129l-67 -350h-39q-100 0 -145.5 -31.5t-63.5 -122.5v-4h211zM1898 1434h379l-278 -1434h-379z" />
    <glyph glyph-name=".notdef" horiz-adv-x="1609" 
d="M852 -31q-213 0 -384 96.5t-267.5 267.5t-96.5 384q0 214 96.5 385t267.5 266.5t384 95.5q160 0 299 -56t237.5 -154.5t154.5 -237.5t56 -299q0 -213 -95.5 -384t-266.5 -267.5t-385 -96.5zM852 20q199 0 359 91t250.5 253t90.5 363l-104 133l-143 -61l-140 184l-161 -90
l-152 242l-152 -242l-161 90l-140 -184l-143 61l-104 -133q0 -201 90.5 -363t250.5 -253t359 -91zM641 651q-31 0 -51.5 20.5t-20.5 51.5t20.5 51.5t51.5 20.5t51.5 -20.5t20.5 -51.5t-20.5 -51.5t-51.5 -20.5zM1061 651q-31 0 -51.5 20.5t-20.5 51.5t20.5 51.5t51.5 20.5
t51.5 -20.5t20.5 -51.5t-20.5 -51.5t-51.5 -20.5zM766 522l74 207q3 17 22 10q6 -2 9.5 -8.5t0.5 -13.5l-57 -160h70q7 0 12.5 -5.5t5.5 -12.5q0 -6 -5.5 -11.5t-12.5 -5.5h-119zM449 350q-61 0 -101.5 40t-40.5 102q0 61 40 101t102 40q61 0 101 -39.5t40 -101.5t-40 -102
t-101 -40zM1253 350q-61 0 -101 40t-40 102t40 101.5t101 39.5q62 0 102 -40t40 -101q0 -62 -40.5 -102t-101.5 -40zM852 395q-96 0 -127 -61q-6 -12 -18 -12q-17 0 -17 18q0 35 50 63.5t112 28.5t112 -28.5t50 -63.5q0 -18 -17 -18q-12 0 -18 12q-31 61 -127 61z" />
    <glyph glyph-name=".null" horiz-adv-x="0" 
 />
    <glyph glyph-name="nonmarkingreturn" horiz-adv-x="682" 
 />
    <glyph glyph-name="CR" unicode="&#xd;" horiz-adv-x="0" 
 />
    <glyph glyph-name="CR" horiz-adv-x="0" 
 />
    <glyph glyph-name="space" unicode=" " horiz-adv-x="532" 
 />
    <glyph glyph-name="exclam" unicode="!" horiz-adv-x="714" 
d="M758 1434l-260 -940h-273l105 940h428zM535 385l-76 -385h-381l76 385h381z" />
    <glyph glyph-name="quotedbl" unicode="&#x22;" horiz-adv-x="819" 
d="M559 1464l-147 -518h-170l53 518h264zM909 1464l-147 -518h-170l53 518h264z" />
    <glyph glyph-name="numbersign" unicode="#" horiz-adv-x="1298" 
d="M1294 879h-227l-109 -291h189l-35 -185h-223l-152 -403h-194l151 403h-235l-152 -403h-194l151 403h-194l34 185h230l108 291h-190l37 184h223l139 371h195l-139 -371h235l139 371h195l-139 -371h194zM764 588l108 291h-235l-109 -291h236z" />
    <glyph glyph-name="dollar" unicode="$" horiz-adv-x="1212" 
d="M1174 948h-349q2 10 2 31q0 79 -59 98l-41 -213q14 -6 49.5 -22t53.5 -24.5t52 -26t53.5 -31t48.5 -35.5t45.5 -42t36.5 -49t30.5 -58.5t18 -67.5t7.5 -80q0 -99 -34 -182t-99 -145t-168 -97t-233 -35h-35l-25 -127h-57l25 131q-205 23 -319 134t-114 276q0 21 9 86h348
v-23q0 -72 37.5 -104t103.5 -37l49 250q-15 7 -49 23.5t-52.5 25.5t-51 26.5t-52 31t-47 35t-44 41.5t-35.5 47.5t-29.5 56t-17.5 64.5t-7 75q0 194 126.5 313t365.5 119q39 0 59 -2l29 150h57l-31 -156q160 -27 255.5 -122t95.5 -247q0 -47 -8 -88zM674 889l39 196h-2
q-66 0 -96.5 -25.5t-30.5 -62.5q0 -59 90 -108zM758 403q0 69 -96 125l-44 -225q140 8 140 100z" />
    <glyph glyph-name="percent" unicode="%" horiz-adv-x="1710" 
d="M545 768q-140 0 -230 80t-90 215q0 72 24 138.5t69.5 121.5t121.5 88t170 33q140 0 230 -80t90 -215q0 -72 -24 -138.5t-69.5 -121.5t-121.5 -88t-170 -33zM248 0l1083 1382h185l-1084 -1382h-184zM555 946q89 0 138.5 58t49.5 131q0 62 -38 96.5t-105 34.5
q-89 0 -138.5 -58t-49.5 -131q0 -62 38 -96.5t105 -34.5zM1194 -10q-140 0 -230 80t-90 215q0 72 24 138.5t70 121.5t122 88t170 33q140 0 229.5 -80t89.5 -215q0 -72 -24 -138.5t-69.5 -121.5t-121.5 -88t-170 -33zM1204 168q89 0 139 57.5t50 130.5q0 62 -38.5 96.5
t-105.5 34.5q-89 0 -138.5 -57.5t-49.5 -130.5q0 -62 38 -96.5t105 -34.5z" />
    <glyph glyph-name="ampersand" unicode="&#x26;" horiz-adv-x="1544" 
d="M1542 674q-184 -245 -299 -367l182 -307h-444l-37 61q-170 -92 -360 -92q-239 0 -391 126t-152 341q0 185 112.5 313t299.5 175q-9 50 -9 92q0 172 116 284.5t339 112.5q165 0 389 -90l-149 -309q-151 65 -219 65q-72 0 -72 -69q0 -34 18 -64l195 -332q83 95 213 269z
M610 332q76 0 150 30l-170 283q-82 -12 -128 -57.5t-46 -104.5q0 -74 54 -112.5t140 -38.5z" />
    <glyph glyph-name="quotesingle" unicode="'" horiz-adv-x="489" 
d="M580 1464l-148 -518h-190l53 518h285z" />
    <glyph glyph-name="parenleft" unicode="(" horiz-adv-x="737" 
d="M668 1655l237 -189q-57 -68 -91 -110.5t-89 -120t-89 -140.5t-75 -157t-64 -185t-39 -208.5t-16 -243.5q0 -181 38 -371.5t77 -277.5l-270 -92q-142 363 -142 747q0 143 16.5 275t41.5 237.5t67.5 209.5t82.5 181t99.5 163.5t104.5 144.5t111 137z" />
    <glyph glyph-name="parenright" unicode=")" horiz-adv-x="735" 
d="M106 -516l-237 188q44 52 70.5 85t70 90.5t71.5 101.5t65 109.5t61 124.5t50 137t41 155t24.5 170.5t9.5 192.5q0 181 -38 371.5t-77 277.5l270 92q142 -363 142 -748q0 -143 -16.5 -275t-41.5 -237t-67.5 -209.5t-82.5 -181t-99.5 -163.5t-104.5 -144.5t-111 -136.5z
" />
    <glyph glyph-name="asterisk" unicode="*" horiz-adv-x="927" 
d="M985 1083l-252 -47l174 -186l-200 -150l-125 226l-123 -224l-201 148l174 186l-252 49l78 234l231 -107l-30 252h250l-31 -254l229 109z" />
    <glyph glyph-name="plus" unicode="+" 
d="M723 1108v-422h418v-154h-418v-421h-160v421h-422v154h422v422h160z" />
    <glyph glyph-name="comma" unicode="," horiz-adv-x="526" 
d="M438 385l-76 -385l-288 -362h-164l211 362h-127l76 385h368z" />
    <glyph glyph-name="hyphen" unicode="-" horiz-adv-x="882" 
d="M53 381l64 328h739l-63 -328h-740z" />
    <glyph glyph-name="period" unicode="." horiz-adv-x="524" 
d="M436 385l-76 -385h-380l75 385h381z" />
    <glyph glyph-name="slash" unicode="/" horiz-adv-x="1304" 
d="M1235 1632l225 -149l-1313 -1776l-227 143z" />
    <glyph glyph-name="zero" unicode="0" horiz-adv-x="1316" 
d="M750 1413q126 0 226.5 -34.5t175.5 -105t116 -185t41 -267.5q0 -136 -25 -260t-78 -232.5t-129 -188t-185 -125.5t-239 -46q-126 0 -226.5 34.5t-175.5 105t-116 185t-41 267.5q0 136 25 260t78 232.5t129 188t185 125.5t239 46zM737 1071q-82 0 -142 -75t-87 -186.5
t-27 -240.5q0 -258 185 -258q82 0 142 75t87 186.5t27 240.5q0 258 -185 258z" />
    <glyph glyph-name="one" unicode="1" horiz-adv-x="718" 
d="M700 1382l-268 -1382h-369l199 1024h-43l70 358h411z" />
    <glyph glyph-name="two" unicode="2" horiz-adv-x="1191" 
d="M-10 0l61 315l527 400q17 13 45.5 34.5t41.5 31t34.5 26.5t31 25.5t24.5 22.5t21 22.5t15 21t12 22.5t5.5 22.5t2.5 25.5q0 51 -29.5 77.5t-83.5 26.5q-68 0 -107.5 -41t-49.5 -104h-400q25 221 174 353t420 132q231 0 361.5 -104t130.5 -287q0 -134 -80 -239t-262 -240
l-262 -195h483l-68 -348h-1048z" />
    <glyph glyph-name="three" unicode="3" horiz-adv-x="1161" 
d="M694 1413q231 0 359.5 -94t128.5 -252q0 -132 -84.5 -216.5t-231.5 -123.5v-4q106 -13 175 -91.5t69 -213.5q0 -72 -19.5 -136t-65 -122t-112.5 -100t-169 -66.5t-228 -24.5q-106 0 -197 22.5t-162 66.5t-112 116t-41 164q0 54 12 115h365q-2 -10 -2 -29
q0 -56 42.5 -88.5t127.5 -32.5q75 0 119.5 36t44.5 103q0 61 -63.5 88t-209.5 27l54 293q87 0 148.5 12.5t91.5 34t42 42t12 44.5q0 54 -32 81.5t-86 27.5q-142 0 -170 -125h-371q29 218 173.5 332t391.5 114z" />
    <glyph glyph-name="four" unicode="4" horiz-adv-x="1196" 
d="M1221 1382l-168 -854h123l-62 -311h-121l-43 -217h-352l43 217h-670l54 277l831 888h365zM422 528h280l78 385h-8z" />
    <glyph glyph-name="five" unicode="5" horiz-adv-x="1144" 
d="M1130 1382l-67 -348h-506l-55 -184h4q90 68 225 68q78 0 145 -24t120 -71.5t83.5 -125t30.5 -177.5q0 -116 -37 -213.5t-111 -174t-197.5 -120t-285.5 -43.5q-158 0 -296.5 41.5t-231.5 108.5l199 305q158 -105 331 -105q66 0 115 17t74.5 45.5t37 59t11.5 63.5
q0 65 -41 102t-115 37q-113 0 -180 -88h-272l235 827h784z" />
    <glyph glyph-name="six" unicode="6" horiz-adv-x="1161" 
d="M561 -31q-115 0 -211.5 28.5t-169 85t-113 146.5t-40.5 207q0 118 42.5 228t104 190.5t154.5 171.5l381 373h434l-604 -555l4 -4q104 88 241 88q152 0 253.5 -110t101.5 -306q0 -73 -20 -146.5t-65.5 -145.5t-110.5 -127.5t-164 -89.5t-218 -34zM557 285q95 0 148 60
t53 142q0 76 -44.5 115t-119.5 39q-95 0 -148 -59.5t-53 -141.5q0 -77 44.5 -116t119.5 -39z" />
    <glyph glyph-name="seven" unicode="7" horiz-adv-x="989" 
d="M1145 1382l-66 -340l-731 -1042h-430l741 1020h-542l69 362h959z" />
    <glyph glyph-name="eight" unicode="8" horiz-adv-x="1224" 
d="M551 -31q-254 0 -387 95t-133 266q0 146 89 245.5t242 135.5v4q-82 28 -121.5 98t-39.5 164q0 87 34 164t100 138.5t173.5 97.5t243.5 36q230 0 356.5 -96.5t126.5 -253.5q0 -52 -15 -104t-46 -103.5t-88.5 -91.5t-133.5 -59v-5q96 -28 148.5 -101t52.5 -185
q0 -70 -20.5 -133t-66.5 -120.5t-114.5 -99.5t-171 -67t-229.5 -25zM702 870q69 0 109.5 43.5t40.5 102.5q0 54 -35 82t-90 28q-67 0 -107 -42t-40 -101q0 -54 34 -83.5t88 -29.5zM594 272q84 0 135 51t51 121q0 64 -46 102t-116 38q-84 0 -135 -51t-51 -121q0 -64 46 -102
t116 -38z" />
    <glyph glyph-name="nine" unicode="9" horiz-adv-x="1183" 
d="M717 1411q101 0 187.5 -26t160.5 -81.5t117 -155.5t43 -235q0 -59 -8 -111t-32.5 -117.5t-66 -130t-112.5 -144t-168 -164.5l-283 -246h-463l590 489l-4 5q-115 -80 -217 -80q-145 0 -246.5 119t-101.5 307q0 83 21 162.5t68.5 154t116 130.5t171 90t227.5 34zM653 721
q95 0 148 60.5t53 142.5q0 75 -44.5 114t-119.5 39q-96 0 -148.5 -60t-52.5 -143q0 -75 45 -114t119 -39z" />
    <glyph glyph-name="colon" unicode=":" horiz-adv-x="526" 
d="M547 946l-76 -385h-381l76 385h381zM436 385l-76 -385h-380l75 385h381z" />
    <glyph glyph-name="semicolon" unicode=";" horiz-adv-x="526" 
d="M545 946l-76 -385h-381l76 385h381zM438 385l-76 -385l-288 -362h-164l211 362h-127l76 385h368z" />
    <glyph glyph-name="less" unicode="&#x3c;" 
d="M1092 1139v-185l-801 -342l803 -340l-2 -182l-983 438v172z" />
    <glyph glyph-name="equal" unicode="=" 
d="M1161 924l-2 -152h-1036l2 152h1036zM1159 459v-152h-1036v152h1036z" />
    <glyph glyph-name="greater" unicode="&#x3e;" 
d="M193 1139l983 -439v-172l-983 -438l-3 182l803 340l-800 342v185z" />
    <glyph glyph-name="question" unicode="?" horiz-adv-x="1087" 
d="M702 1464q208 0 331.5 -83.5t123.5 -245.5q0 -105 -55 -190t-162 -167q-4 -3 -31.5 -23.5t-36 -28t-32.5 -28.5t-35 -36.5t-27.5 -40t-26.5 -51.5t-16 -58l-4 -20h-375l13 59q42 204 223 332q12 9 40 26.5t44.5 30t36.5 30.5t29.5 37.5t9.5 41.5q0 35 -26 53t-73 18
q-62 0 -91.5 -32.5t-39.5 -90.5h-358q15 108 51 191t99 146.5t160.5 96.5t227.5 33zM715 385l-76 -385h-381l76 385h381z" />
    <glyph glyph-name="at" unicode="@" horiz-adv-x="1996" 
d="M924 -317q-168 0 -316.5 54t-262.5 155t-180.5 259t-66.5 353q0 201 71 370t200 287.5t316 185t411 66.5q199 0 360.5 -52.5t270 -147.5t167 -229t58.5 -296q0 -114 -29 -217t-85.5 -187t-150.5 -134t-214 -50q-216 0 -279 179h-4q-110 -175 -301 -175
q-151 0 -246.5 107.5t-95.5 298.5q0 216 120 351.5t312 135.5q201 0 276 -159h7l24 129h270l-104 -539q-4 -24 -4 -43q0 -70 63 -70q79 0 141 101t62 262q0 170 -78 287.5t-213 173t-319 55.5q-166 0 -306.5 -46t-243 -131t-160.5 -214t-58 -287q0 -143 47 -259.5
t129.5 -193.5t194 -119t241.5 -42q127 0 305 37l43 -211q-191 -45 -372 -45zM1020 397q79 0 123.5 52.5t44.5 123.5q0 68 -40.5 100t-98.5 32q-79 0 -123.5 -53t-44.5 -124q0 -68 40.5 -99.5t98.5 -31.5z" />
    <glyph glyph-name="A" unicode="A" horiz-adv-x="1525" 
d="M1020 0l-35 268h-489l-140 -268h-448l835 1434h414l277 -1434h-414zM653 575h293l-59 451z" />
    <glyph glyph-name="B" unicode="B" horiz-adv-x="1325" 
d="M1012 754q245 -50 245 -314q0 -93 -31.5 -168t-87 -125t-132.5 -83.5t-164.5 -48.5t-188.5 -15h-633l279 1434h590q207 0 323.5 -78.5t116.5 -239.5q0 -133 -80.5 -224t-236.5 -134v-4zM754 864q93 0 137.5 38.5t44.5 96.5q0 56 -41.5 84.5t-112.5 28.5h-155l-49 -248
h176zM657 322q109 0 159 42t50 111q0 66 -44 93.5t-136 27.5h-160l-53 -274h184z" />
    <glyph glyph-name="C" unicode="C" horiz-adv-x="1396" 
d="M809 -31q-328 0 -526.5 193.5t-198.5 505.5q0 132 37.5 252t111.5 219t176.5 172t240 113t294.5 40q164 0 305 -41.5t244 -109.5l-225 -326q-150 98 -328 98q-110 0 -198.5 -33t-144 -90t-85 -129.5t-29.5 -154.5q0 -152 94 -241t244 -89q156 0 334 96l160 -335
q-245 -140 -506 -140z" />
    <glyph glyph-name="D" unicode="D" horiz-adv-x="1415" 
d="M768 1434q308 0 486 -172t178 -471q0 -164 -62.5 -307.5t-177.5 -251.5t-291 -170t-391 -62h-490l279 1434h469zM723 1085h-102l-144 -737h103q113 0 202 35t144.5 96.5t84.5 142.5t29 175q0 141 -83.5 214.5t-233.5 73.5z" />
    <glyph glyph-name="E" unicode="E" horiz-adv-x="1118" 
d="M1143 1077h-525l-32 -170h461l-66 -338h-461l-41 -213h555l-69 -356h-945l279 1434h913z" />
    <glyph glyph-name="F" unicode="F" horiz-adv-x="1089" 
d="M1196 1077h-578l-43 -221h474l-68 -348h-473l-98 -508h-390l279 1434h967z" />
    <glyph glyph-name="G" unicode="G" horiz-adv-x="1560" 
d="M850 854h743l-22 -160q-102 -725 -746 -725q-215 0 -382 80t-264 237t-97 369q0 167 59.5 314t169 257t276 174t367.5 64q170 0 322 -45t266 -133l-239 -315q-159 125 -359 125q-141 0 -248.5 -62t-161 -161.5t-53.5 -217.5q0 -150 98 -233.5t271 -83.5q134 0 212 49
t99 133h-379z" />
    <glyph glyph-name="H" unicode="H" horiz-adv-x="1492" 
d="M1178 1434h389l-279 -1434h-389l109 557h-490l-108 -557h-390l279 1434h389l-100 -521h489z" />
    <glyph glyph-name="I" unicode="I" horiz-adv-x="614" 
d="M688 1434l-278 -1434h-390l279 1434h389z" />
    <glyph glyph-name="J" unicode="J" horiz-adv-x="665" 
d="M739 1434l-207 -1065q-38 -194 -156 -284.5t-327 -90.5h-121l70 356h78q26 0 48.5 20.5t27.5 45.5l198 1018h389z" />
    <glyph glyph-name="K" unicode="K" horiz-adv-x="1540" 
d="M1692 1434l-742 -715l508 -719h-500l-419 664l-129 -664h-390l279 1434h389l-123 -629l596 629h531z" />
    <glyph glyph-name="L" unicode="L" horiz-adv-x="1052" 
d="M20 0l279 1434h389l-209 -1074h541l-70 -360h-930z" />
    <glyph glyph-name="M" unicode="M" horiz-adv-x="1923" 
d="M1706 1434l125 -1434h-371l-61 735h-4l-336 -540h-252l-135 540h-4l-340 -735h-420l682 1434h289l145 -646h2l391 646h289z" />
    <glyph glyph-name="N" unicode="N" horiz-adv-x="1597" 
d="M1671 1434l-278 -1434h-303l-515 831h-4l-161 -831h-390l279 1434h303l514 -832h4l162 832h389z" />
    <glyph glyph-name="O" unicode="O" horiz-adv-x="1611" 
d="M795 -31q-321 0 -517 185t-196 497q0 167 60 316t166.5 259t263 174t339.5 64q321 0 517 -185t196 -497q0 -167 -60 -316t-166.5 -259t-263 -174t-339.5 -64zM819 348q84 0 153.5 25.5t115.5 67.5t77.5 97.5t45.5 112.5t14 115q0 147 -88.5 233t-249.5 86
q-84 0 -153.5 -25.5t-115.5 -67.5t-77.5 -97t-45.5 -112t-14 -115q0 -147 89 -233.5t249 -86.5z" />
    <glyph glyph-name="P" unicode="P" horiz-adv-x="1275" 
d="M817 1434q264 0 400.5 -118t136.5 -331q0 -115 -39 -214.5t-115.5 -178.5t-204.5 -124.5t-293 -45.5h-210l-82 -422h-390l279 1434h518zM719 766q108 0 166.5 52.5t58.5 135.5q0 67 -45.5 101.5t-118.5 34.5h-159l-64 -324h162z" />
    <glyph glyph-name="Q" unicode="Q" horiz-adv-x="1622" 
d="M1661 -8h-381l-68 78q-191 -101 -417 -101q-321 0 -517 185t-196 497q0 167 60 316t166.5 259t263 174t339.5 64q321 0 517 -185t196 -497q0 -306 -186 -530zM819 348q75 0 137 21l-219 254h381l58 -66q49 98 49 209q0 147 -88.5 233t-249.5 86q-84 0 -153.5 -25.5
t-115.5 -67.5t-77.5 -97t-45.5 -112t-14 -115q0 -147 89 -233.5t249 -86.5z" />
    <glyph glyph-name="R" unicode="R" horiz-adv-x="1355" 
d="M1370 999q0 -75 -22 -145t-67 -135.5t-124 -116.5t-184 -78l291 -524h-443l-297 584l-2 2l-112 -586h-390l279 1434h551q243 0 381.5 -119.5t138.5 -315.5zM621 1090l-60 -308h178q109 0 163 47.5t54 120.5q0 72 -49.5 106t-124.5 34h-161z" />
    <glyph glyph-name="S" unicode="S" horiz-adv-x="1114" 
d="M541 -29q-311 0 -586 215l217 312q218 -168 371 -168q48 0 76 19t28 57q0 27 -16.5 49t-69.5 71l-180 168q-168 155 -168 365q0 184 124.5 294.5t342.5 110.5q265 0 518 -157l-199 -312q-70 47 -158 80t-157 33q-36 0 -56 -13.5t-20 -37.5q0 -9 3 -18t9.5 -19t12 -18
t16.5 -19l17 -17t19 -18t17 -16l189 -180q156 -150 156 -359q0 -210 -137 -316t-369 -106z" />
    <glyph glyph-name="T" unicode="T" horiz-adv-x="1126" 
d="M1303 1434l-70 -357h-356l-209 -1077h-394l209 1077h-356l70 357h1106z" />
    <glyph glyph-name="U" unicode="U" horiz-adv-x="1447" 
d="M1378 596q-53 -294 -224 -457.5t-466 -163.5q-366 0 -498.5 177t-56.5 532l148 750h415l-161 -828q-22 -109 15.5 -175t151.5 -66q214 0 263 241l161 828h416z" />
    <glyph glyph-name="V" unicode="V" horiz-adv-x="1542" 
d="M1729 1434l-836 -1434h-428l-279 1434h430l119 -967h4l496 967h494z" />
    <glyph glyph-name="W" unicode="W" horiz-adv-x="2310" 
d="M2486 1434l-794 -1434h-324l-143 825h-4l-463 -825h-324l-237 1434h432l78 -785h4l440 785h328l141 -785h4l381 785h481z" />
    <glyph glyph-name="X" unicode="X" horiz-adv-x="1638" 
d="M1802 1434l-659 -693l403 -741h-461l-239 455l-416 -455h-522l729 782l-367 652h461l203 -369l346 369h522z" />
    <glyph glyph-name="Y" unicode="Y" horiz-adv-x="1480" 
d="M1677 1434l-743 -959l-92 -475h-389l94 483l-371 951h440l172 -576h5l395 576h489z" />
    <glyph glyph-name="Z" unicode="Z" horiz-adv-x="1200" 
d="M1309 1434l-70 -357l-731 -721h639l-70 -356h-1138l69 356l742 721h-545l69 357h1035z" />
    <glyph glyph-name="bracketleft" unicode="[" horiz-adv-x="759" 
d="M952 1577l-47 -246h-297l-297 -1526h297l-47 -245h-594l391 2017h594z" />
    <glyph glyph-name="backslash" unicode="\" horiz-adv-x="1302" 
d="M508 1583l622 -1782l-268 -88l-622 1782z" />
    <glyph glyph-name="bracketright" unicode="]" horiz-adv-x="759" 
d="M-156 -440l47 245h297l297 1526h-297l48 246h593l-391 -2017h-594z" />
    <glyph glyph-name="asciicircum" unicode="^" 
d="M893 1464l295 -659h-283l-227 518l-227 -518h-283l295 659h430z" />
    <glyph glyph-name="underscore" unicode="_" horiz-adv-x="1091" 
d="M973 -31l-51 -266h-1051l51 266h1051z" />
    <glyph glyph-name="grave" unicode="`" horiz-adv-x="866" 
d="M690 1448l203 -315h-277l-323 315h397z" />
    <glyph glyph-name="a" unicode="a" horiz-adv-x="1255" 
d="M420 -31q-178 0 -281.5 121t-103.5 328q0 249 143 404t373 155q236 0 317 -172h4l25 141h379l-184 -946h-379l24 121h-4q-122 -152 -313 -152zM596 299q84 0 139.5 55.5t55.5 139.5q0 70 -44 111.5t-118 41.5q-84 0 -139.5 -55t-55.5 -139q0 -70 44 -112t118 -42z" />
    <glyph glyph-name="b" unicode="b" horiz-adv-x="1265" 
d="M846 977q178 0 281.5 -121t103.5 -328q0 -249 -143 -404t-373 -155q-237 0 -318 172h-4l-24 -141h-379l184 946l94 488h379l-94 -488l-25 -121h4q122 152 314 152zM637 299q83 0 138.5 55.5t55.5 139.5q0 70 -43.5 111.5t-117.5 41.5q-84 0 -139.5 -55.5t-55.5 -138.5
q0 -70 44 -112t118 -42z" />
    <glyph glyph-name="c" unicode="c" horiz-adv-x="960" 
d="M559 -31q-108 0 -202 30.5t-165.5 89t-113 151.5t-41.5 209q0 110 37 204.5t108 167.5t184 114.5t255 41.5q221 0 401 -115l-178 -284q-117 71 -217 71q-97 0 -149 -52.5t-52 -129.5q0 -75 47 -121.5t123 -46.5q85 0 166 37l102 -307q-162 -60 -305 -60z" />
    <glyph glyph-name="d" unicode="d" horiz-adv-x="1265" 
d="M991 1434h379l-278 -1434h-379l24 121h-4q-122 -152 -313 -152q-178 0 -281.5 121t-103.5 328q0 249 143 404t373 155q236 0 317 -172h4zM596 299q84 0 139.5 55.5t55.5 139.5q0 70 -44 111.5t-118 41.5q-84 0 -139.5 -55t-55.5 -139q0 -70 44 -112t118 -42z" />
    <glyph glyph-name="e" unicode="e" horiz-adv-x="1101" 
d="M1083 592q0 -87 -30 -207h-660q36 -125 203 -125q124 0 270 64l95 -277q-194 -78 -388 -78q-86 0 -164 17t-147 53.5t-119 90.5t-79 133t-29 175q0 100 34.5 193t102 171.5t181.5 125.5t259 47q212 0 341.5 -100.5t129.5 -282.5zM731 582q4 24 4 39q0 52 -37 80t-100 28
q-141 0 -197 -147h330z" />
    <glyph glyph-name="f" unicode="f" horiz-adv-x="815" 
d="M879 1104q-100 0 -145.5 -31.5t-63.5 -122.5v-4h211l-62 -311h-211l-123 -635h-379l123 635h-178l62 311h176l2 6q26 130 64.5 218.5t103 155t162.5 97.5t235 31h129l-67 -350h-39z" />
    <glyph glyph-name="g" unicode="g" horiz-adv-x="1255" 
d="M897 946h379l-176 -893q-50 -254 -202.5 -373.5t-428.5 -119.5q-246 0 -459 75l111 302q205 -74 348 -74q111 0 172.5 45t81.5 143l14 70h-4q-122 -152 -313 -152q-178 0 -281.5 121t-103.5 328q0 249 143 404t373 155q236 0 317 -172h4zM596 299q84 0 139.5 55.5
t55.5 139.5q0 70 -44 111.5t-118 41.5q-84 0 -139.5 -55t-55.5 -139q0 -70 44 -112t118 -42z" />
    <glyph glyph-name="h" unicode="h" horiz-adv-x="1196" 
d="M647 1434l-119 -619h4q125 162 324 162q133 0 213 -75.5t80 -231.5q0 -65 -16 -156l-101 -514h-379l90 459q9 47 9 80q0 133 -115 133q-76 0 -115.5 -51t-58.5 -146l-94 -475h-379l278 1434h379z" />
    <glyph glyph-name="i" unicode="i" horiz-adv-x="542" 
d="M649 1434l-69 -355h-387l69 355h387zM553 946l-184 -946h-379l184 946h379z" />
    <glyph glyph-name="j" unicode="j" horiz-adv-x="542" 
d="M649 1434l-69 -355h-387l69 355h387zM-201 -63h45q70 0 109 30.5t51 95.5l172 883h377l-176 -903q-47 -247 -172.5 -353t-368.5 -106h-104z" />
    <glyph glyph-name="k" unicode="k" horiz-adv-x="1214" 
d="M1280 946l-465 -467l297 -479h-444l-219 416l-80 -416h-379l278 1434h379l-164 -838l312 350h485z" />
    <glyph glyph-name="l" unicode="l" horiz-adv-x="542" 
d="M647 1434l-278 -1434h-379l278 1434h379z" />
    <glyph glyph-name="m" unicode="m" horiz-adv-x="1818" 
d="M1085 467l-90 -467h-360l88 444q43 211 -109 211q-72 0 -110.5 -49t-54.5 -139l-91 -467h-378l184 946h366l-28 -149h4q114 180 330 180q131 0 202 -57.5t84 -145.5h4q119 203 349 203q141 0 220 -74.5t79 -224.5q0 -65 -19 -162l-104 -516h-379l88 444q41 211 -109 211
q-132 0 -166 -188z" />
    <glyph glyph-name="n" unicode="n" horiz-adv-x="1185" 
d="M530 946l-32 -160h4q131 191 338 191q138 0 218.5 -74.5t80.5 -230.5q0 -67 -17 -158l-100 -514h-379l90 459q8 41 8 80q0 133 -114 133q-76 0 -115.5 -51t-58.5 -146l-95 -475h-378l184 946h366z" />
    <glyph glyph-name="o" unicode="o" horiz-adv-x="1175" 
d="M551 -31q-110 0 -203 28t-164 83t-111 143.5t-40 202.5q0 115 41.5 215.5t117 175t187.5 117.5t246 43q110 0 203 -28t164 -83t111 -143.5t40 -202.5q0 -115 -41.5 -215.5t-117 -175t-187.5 -117.5t-246 -43zM571 299q92 0 143.5 59.5t51.5 135.5q0 78 -47 115.5
t-115 37.5q-92 0 -143 -59t-51 -135q0 -78 46.5 -116t114.5 -38z" />
    <glyph glyph-name="p" unicode="p" horiz-adv-x="1255" 
d="M836 977q170 0 277.5 -116.5t107.5 -332.5q0 -249 -143 -404t-373 -155q-239 0 -318 172h-4l-102 -551h-379l262 1356h379l-25 -121h4q122 152 314 152zM627 299q92 0 143 59.5t51 135.5q0 77 -47.5 115t-114.5 38q-92 0 -143 -59t-51 -135q0 -78 47 -116t115 -38z" />
    <glyph glyph-name="q" unicode="q" horiz-adv-x="1257" 
d="M1276 946l-262 -1356h-379l102 531h-4q-122 -152 -313 -152q-178 0 -281.5 121t-103.5 328q0 249 143 404t373 155q236 0 317 -172h4l25 141h379zM596 299q84 0 139.5 55.5t55.5 139.5q0 70 -44 111.5t-118 41.5q-84 0 -139.5 -55t-55.5 -139q0 -70 44 -112t118 -42z" />
    <glyph glyph-name="r" unicode="r" horiz-adv-x="765" 
d="M854 975l-70 -357h-22q-157 0 -232.5 -63.5t-103.5 -208.5l-68 -346h-378l184 946h352l-35 -176h4q33 65 71 106.5t85 62.5t94.5 28.5t114.5 7.5h4z" />
    <glyph glyph-name="s" unicode="s" horiz-adv-x="903" 
d="M100 381q209 -135 320 -135q49 0 49 28t-47 54l-98 59q-103 61 -148 129t-45 160q0 149 102 225t289 76q200 0 434 -105l-122 -258q-183 97 -275 97q-49 0 -49 -29q0 -18 46 -44q7 -5 11 -7l86 -49q104 -59 149.5 -126.5t45.5 -170.5q0 -316 -399 -316q-140 0 -258.5 39
t-247.5 121z" />
    <glyph glyph-name="t" unicode="t" horiz-adv-x="790" 
d="M610 635l-30 -154q-9 -37 -9 -63q0 -36 19.5 -51t64.5 -15h33l-67 -352h-175q-133 0 -204.5 72t-71.5 200q0 41 10 99l51 264h-190l61 311h191l74 379h376l-73 -379h202l-61 -311h-201z" />
    <glyph glyph-name="u" unicode="u" horiz-adv-x="1191" 
d="M346 -31q-137 0 -219 75t-82 232q0 60 16 148l105 522h395l-84 -432q-10 -46 -10 -96q0 -125 106 -125q67 0 104 49t58 158l86 446h381l-184 -946h-367l33 164h-4q-75 -106 -155 -150.5t-179 -44.5z" />
    <glyph glyph-name="v" unicode="v" horiz-adv-x="1189" 
d="M838 946h444l-588 -946h-383l-219 946h383l80 -543z" />
    <glyph glyph-name="w" unicode="w" horiz-adv-x="1751" 
d="M1456 946h387l-547 -946h-315l-107 479l-288 -479h-314l-180 946h342l76 -469l266 469h340l88 -471z" />
    <glyph glyph-name="x" unicode="x" horiz-adv-x="1220" 
d="M1313 946l-479 -475l290 -471h-395l-141 229l-232 -229h-448l508 504l-275 442h398l123 -198l200 198h451z" />
    <glyph glyph-name="y" unicode="y" horiz-adv-x="1189" 
d="M883 946h399l-842 -1356h-403l338 516l-283 840h385l123 -475z" />
    <glyph glyph-name="z" unicode="z" horiz-adv-x="946" 
d="M942 690h2l-471 -385h420l-59 -305h-906l54 270l458 373h-346l60 303h837z" />
    <glyph glyph-name="braceleft" unicode="{" horiz-adv-x="872" 
d="M1067 1587l-57 -303h-62q-90 0 -138.5 -29t-61.5 -100l-50 -258q-25 -134 -102.5 -217t-214.5 -115v-4q197 -48 197 -242q0 -31 -11 -92l-45 -235q-4 -24 -4 -37q0 -48 37.5 -70t112.5 -22h65l-59 -303h-82q-79 0 -143.5 18t-115 55.5t-78.5 101t-28 148.5q0 40 11 97
l41 217q6 27 6 53q0 81 -58.5 119.5t-167.5 44.5l60 301q263 7 303 215l47 258q74 399 496 399h102z" />
    <glyph glyph-name="bar" unicode="|" horiz-adv-x="698" 
d="M47 -440l377 1929h246l-377 -1929h-246z" />
    <glyph glyph-name="braceright" unicode="}" horiz-adv-x="872" 
d="M-156 -440l58 303h61q90 0 139 29t62 100l49 258q25 134 102.5 217t214.5 115v4q-196 48 -196 241q0 38 10 93l45 235q4 24 4 37q0 48 -37 70t-112 22h-66l60 303h81q79 0 143.5 -18t115 -55.5t78.5 -101t28 -148.5q0 -45 -10 -97l-41 -217q-6 -27 -6 -53
q0 -81 58 -119.5t167 -44.5l-59 -301q-264 -7 -304 -215l-47 -258q-74 -399 -495 -399h-103z" />
    <glyph glyph-name="asciitilde" unicode="~" 
d="M436 856q68 0 134.5 -19.5t109.5 -43t94.5 -43t93.5 -19.5q23 0 45 4.5t37.5 9t37.5 17.5t33 20t38 26.5t39 27.5l153 -240q-208 -168 -391 -168q-66 0 -131 19t-107.5 42.5t-95.5 42.5t-98 19q-24 0 -46.5 -4.5t-37 -8.5t-38.5 -18t-32.5 -19.5t-38 -27t-38.5 -27.5
l-156 238q207 172 395 172z" />
    <glyph glyph-name="exclamdown" unicode="&#xa1;" horiz-adv-x="714" 
d="M195 639l75 385h381l-76 -385h-380zM-29 -410l260 940h273l-105 -940h-428z" />
    <glyph glyph-name="cent" unicode="&#xa2;" horiz-adv-x="933" 
d="M645 627l-59 -308h20q79 0 238 46l-64 -351q-112 -45 -241 -45h-21l-20 -100h-58l21 104q-177 25 -291.5 146t-114.5 319q0 110 38.5 207t109.5 171.5t183 117.5t249 43h20l23 115h57l-22 -119q132 -11 245 -60l-84 -348q-140 62 -229 62zM530 328l56 295
q-81 -12 -116.5 -57.5t-35.5 -102.5q0 -109 96 -135z" />
    <glyph glyph-name="sterling" unicode="&#xa3;" horiz-adv-x="1183" 
d="M1212 940h-348q12 76 -17 118t-97 42q-69 0 -105.5 -35t-36.5 -100q0 -13 1.5 -26t7 -29t8.5 -26t12 -30t12.5 -27t15 -30.5t13.5 -28.5h305l-12 -61h-264q26 -63 26 -115q0 -90 -63 -147t-199 -115l2 -13h567l-61 -317h-944l53 274q135 60 206 125.5t71 149.5
q0 60 -46 158h-192l12 61h152q-51 119 -51 221q0 87 30.5 161.5t92 134.5t164 94t235.5 34q218 0 339.5 -88.5t121.5 -269.5q0 -40 -11 -115z" />
    <glyph glyph-name="currency" unicode="&#xa4;" 
d="M209 184l-37 41l117 117q-123 132 -123 320q0 187 123 319l-117 117l41 41l117 -119q136 117 327 117q186 0 318 -107l110 109l41 -41l-108 -107q133 -136 133 -329q0 -194 -133 -330l108 -109l-43 -39l-108 109q-136 -107 -318 -107q-191 0 -327 117zM657 502
q74 0 119 45t45 112q0 70 -45.5 116t-116.5 46q-72 0 -117.5 -45t-45.5 -112q0 -70 45 -116t116 -46z" />
    <glyph glyph-name="yen" unicode="&#xa5;" horiz-adv-x="1458" 
d="M1593 1382l-561 -761h236l-13 -62h-268l-84 -115h330l-12 -61h-347l-73 -383h-330l74 383h-344l12 61h332l-41 115h-268l12 62h235l-266 761h369l186 -600l383 600h438z" />
    <glyph glyph-name="brokenbar" unicode="&#xa6;" horiz-adv-x="698" 
d="M670 1489l-156 -795h-246l156 795h246zM453 371l-160 -811h-246l160 811h246z" />
    <glyph glyph-name="section" unicode="&#xa7;" horiz-adv-x="1249" 
d="M670 1110q0 -19 27.5 -40t71 -42t96.5 -46.5t106.5 -60.5t97 -76t71 -100.5t27.5 -128.5q0 -118 -69 -222t-187 -179q37 -63 37 -139q0 -81 -36 -154t-100.5 -128t-160.5 -87.5t-209 -32.5q-217 0 -370 115l209 266q47 -35 109.5 -57.5t119.5 -22.5q45 0 75.5 16.5
t30.5 39.5q0 25 -36.5 54t-91 56.5t-118 68t-118 85.5t-91 112.5t-36.5 145.5q0 112 64 206t176 161q-31 64 -31 129q0 83 37 158t103 132t163 91t211 34q102 0 196 -33.5t162 -93.5l-215 -264q-42 40 -99.5 65t-111.5 25q-50 0 -80 -16t-30 -37zM461 590q0 -14 6 -27.5
t19 -26.5t27 -24t37.5 -25t41 -24t47.5 -26t49 -27q137 67 137 141q0 20 -11 38t-38.5 37t-47.5 30.5t-67 35.5t-67 35q-133 -70 -133 -137z" />
    <glyph glyph-name="dieresis" unicode="&#xa8;" horiz-adv-x="894" 
d="M227 1116l58 297h284l-57 -297h-285zM633 1116l57 297h285l-57 -297h-285z" />
    <glyph glyph-name="copyright" unicode="&#xa9;" horiz-adv-x="1742" 
d="M920 1464q160 0 298.5 -55t238.5 -152.5t157 -239t57 -306.5q0 -160 -57 -298t-156.5 -235.5t-239 -153t-300.5 -55.5q-212 0 -383 94.5t-270 267.5t-99 392q0 213 98.5 383t270.5 264t385 94zM920 1296q-247 0 -411.5 -161.5t-164.5 -413.5q0 -171 76.5 -305
t206.5 -205.5t291 -71.5q247 0 411 161t164 413q0 171 -75.5 305t-206 206t-291.5 72zM940 1190q163 0 311 -98l-102 -199q-1 0 -21 11.5t-24 13.5t-23 11t-27 12t-25.5 9t-30 8.5t-29.5 4.5t-33 2q-104 0 -171 -67.5t-67 -170.5q0 -107 66.5 -174.5t169.5 -67.5
q41 0 86.5 14t63.5 23t65 35l102 -201q-156 -96 -311 -96q-212 0 -350.5 134t-138.5 333q0 197 138.5 330t350.5 133z" />
    <glyph glyph-name="ordfeminine" unicode="&#xaa;" horiz-adv-x="884" 
d="M430 692q-105 0 -182.5 76.5t-77.5 220.5q0 156 92.5 263.5t243.5 107.5q163 0 217 -135h2l20 114h246l-121 -626h-245l18 98h-2q-83 -119 -211 -119zM549 911q58 0 92.5 38.5t34.5 88.5q0 45 -29 74t-78 29q-58 0 -92.5 -38.5t-34.5 -88.5q0 -45 29 -74t78 -29z" />
    <glyph glyph-name="guillemotleft" unicode="&#xab;" horiz-adv-x="1380" 
d="M897 872l-481 -417l262 -344h-361l-282 381l430 380h432zM1438 872l-482 -417l263 -344h-361l-283 381l431 380h432z" />
    <glyph glyph-name="logicalnot" unicode="&#xac;" 
d="M1110 342h-147l-2 391h-789v152h936v-11z" />
    <glyph glyph-name="uni00AD" unicode="&#xad;" horiz-adv-x="882" 
d="M53 381l64 328h739l-63 -328h-740z" />
    <glyph glyph-name="registered" unicode="&#xae;" horiz-adv-x="1247" 
d="M717 1464q222 0 366 -144.5t144 -369.5t-144 -369.5t-366 -144.5t-366 144.5t-144 369.5t144 369.5t366 144.5zM717 584q163 0 259.5 102.5t96.5 263.5t-96.5 264t-259.5 103t-260 -103t-97 -264t97 -263.5t260 -102.5zM944 1061q0 -129 -113 -166l123 -195h-151
l-105 183h-26v-183h-133v533h215q88 0 139 -44.5t51 -127.5zM672 1108v-100h67q60 0 60 51q0 24 -16.5 36.5t-43.5 12.5h-67z" />
    <glyph glyph-name="macron" unicode="&#xaf;" horiz-adv-x="886" 
d="M963 1393l-48 -238h-679l47 238h680z" />
    <glyph glyph-name="degree" unicode="&#xb0;" horiz-adv-x="841" 
d="M545 1413q133 0 222 -87t89 -224q0 -133 -88.5 -220t-222.5 -87q-136 0 -225 87.5t-89 223.5q0 133 88.5 220t225.5 87zM545 1253q-64 0 -107 -42t-43 -107t43 -107.5t105 -42.5q64 0 106.5 42.5t42.5 107.5t-43 107t-104 42z" />
    <glyph glyph-name="plusminus" unicode="&#xb1;" 
d="M700 1069v-250h408v-160h-408l2 -249h-165l-2 249h-408v160h408v250h165zM1108 313v-151h-981v151h981z" />
    <glyph glyph-name="uni00B2" unicode="&#xb2;" horiz-adv-x="856" 
d="M616 1645q161 0 256 -62t95 -190q0 -55 -16.5 -99.5t-55.5 -85t-76 -69t-106 -74.5l-119 -80h293l-53 -272h-707l45 237l336 246q53 40 78 60.5t44 46t19 47.5q0 43 -57 43q-67 0 -80 -68h-295q10 70 33 124t67.5 100.5t119.5 71t179 24.5z" />
    <glyph glyph-name="uni00B3" unicode="&#xb3;" horiz-adv-x="802" 
d="M586 1645q68 0 126 -13t106 -40t75 -74t27 -111q0 -85 -50 -144t-159 -73v-4q157 -14 157 -182q0 -41 -8 -79.5t-33.5 -82.5t-65.5 -75.5t-111.5 -53t-164.5 -21.5q-163 0 -260.5 64.5t-97.5 199.5q0 39 4 62h287v-8q0 -24 21.5 -38t60.5 -14q48 0 66 18.5t18 41.5
q0 31 -30.5 44t-102.5 13l36 189q121 0 121 71q0 49 -61 49t-70 -49h-287q6 62 31 115.5t70.5 98.5t121 70.5t173.5 25.5z" />
    <glyph glyph-name="acute" unicode="&#xb4;" horiz-adv-x="833" 
d="M952 1448l-434 -315h-287l324 315h397z" />
    <glyph glyph-name="paragraph" unicode="&#xb6;" horiz-adv-x="1427" 
d="M1511 1434l-55 -277h-141l-266 -1374h-256l266 1374h-164l-266 -1374h-256l166 852q-147 0 -237.5 92t-90.5 242q0 220 135.5 342.5t368.5 122.5h796z" />
    <glyph glyph-name="periodcentered" unicode="&#xb7;" horiz-adv-x="524" 
d="M545 944l-76 -385h-381l76 385h381z" />
    <glyph glyph-name="cedilla" unicode="&#xb8;" horiz-adv-x="626" 
d="M328 88l-101 -164q81 -10 122.5 -42t41.5 -79q0 -81 -104 -133q-65 -33 -265 -88q-38 -11 -57 -16l-22 88q112 42 146 62t34 42q0 20 -19.5 29t-66.5 18l170 283h121z" />
    <glyph glyph-name="uni00B9" unicode="&#xb9;" horiz-adv-x="636" 
d="M666 1626l-179 -913h-305l121 620h-22l57 293h328z" />
    <glyph glyph-name="ordmasculine" unicode="&#xba;" horiz-adv-x="864" 
d="M565 1360q160 0 252 -84t92 -223q0 -152 -107 -256.5t-288 -104.5q-160 0 -252 84t-92 223q0 152 107 256.5t288 104.5zM553 1137q-61 0 -95 -38.5t-34 -88.5q0 -42 27.5 -68.5t74.5 -26.5q61 0 95 38.5t34 88.5q0 42 -27.5 68.5t-74.5 26.5z" />
    <glyph glyph-name="guillemotright" unicode="&#xbb;" horiz-adv-x="1380" 
d="M-49 111l481 417l-262 344h360l283 -380l-430 -381h-432zM492 111l481 417l-262 344h360l283 -380l-430 -381h-432z" />
    <glyph glyph-name="onequarter" unicode="&#xbc;" horiz-adv-x="1613" 
d="M1245 1382h185l-1084 -1382h-184zM410 592h-209l114 586h-45l39 204h254zM1546 791l-94 -486h78l-37 -186h-78l-22 -119h-191l23 119h-389l36 186l500 486h174zM1067 305h195l43 221h-5z" />
    <glyph glyph-name="onehalf" unicode="&#xbd;" horiz-adv-x="1687" 
d="M162 0l1083 1382h185l-1084 -1382h-184zM563 1382l-153 -790h-209l114 586h-45l39 204h254zM1350 809q122 0 199 -52.5t77 -156.5q0 -88 -56.5 -156t-164.5 -143l-150 -104h289l-39 -197h-577l28 152l318 260q79 64 105 95.5t26 59.5q0 58 -72 58q-85 0 -102 -88h-199
q16 134 91 203t227 69z" />
    <glyph glyph-name="threequarters" unicode="&#xbe;" horiz-adv-x="1792" 
d="M713 834q0 -48 -15 -91t-48.5 -83t-96 -63.5t-147.5 -23.5q-134 0 -213.5 58.5t-79.5 169.5q0 35 4 53h198v-16q0 -80 95 -80q108 0 108 88q0 44 -43.5 61t-130.5 17l25 151q172 2 172 80q0 30 -18.5 46t-51.5 16q-40 0 -68 -21t-32 -61h-201q14 122 92.5 194t224.5 72
q124 0 197.5 -53t73.5 -148q0 -77 -49 -126t-138 -68v-5q142 -21 142 -167zM1423 1382h185l-1084 -1382h-184zM1724 791l-94 -486h78l-37 -186h-78l-22 -119h-191l23 119h-389l37 186l499 486h174zM1245 305h195l43 221h-4z" />
    <glyph glyph-name="questiondown" unicode="&#xbf;" horiz-adv-x="1015" 
d="M367 641l75 385h381l-75 -385h-381zM379 -438q-208 0 -331.5 83.5t-123.5 245.5q0 105 55 190t162 167q4 3 31.5 23.5t36 28t32.5 28.5t35 36.5t27.5 40t26.5 51.5t16 58l4 21h375l-12 -60q-42 -203 -224 -332q-8 -6 -49 -33t-57 -40t-34.5 -39.5t-18.5 -53.5
q0 -71 98 -71q62 0 91.5 32.5t39.5 90.5h359q-15 -108 -51.5 -191t-99.5 -146.5t-160.5 -96.5t-227.5 -33z" />
    <glyph glyph-name="Agrave" unicode="&#xc0;" horiz-adv-x="1525" 
d="M1145 1522h-268l-336 245h389zM1020 0l-35 268h-489l-140 -268h-448l835 1434h414l277 -1434h-414zM653 575h293l-59 451z" />
    <glyph glyph-name="Aacute" unicode="&#xc1;" horiz-adv-x="1525" 
d="M1483 1767l-430 -245h-269l310 245h389zM743 1434h414l277 -1434h-414l-35 268h-489l-140 -268h-448zM653 575h293l-59 451z" />
    <glyph glyph-name="Acircumflex" unicode="&#xc2;" horiz-adv-x="1525" 
d="M961 1651l-142 -129h-307l293 245h358l199 -245h-307zM1020 0l-35 268h-489l-140 -268h-448l835 1434h414l277 -1434h-414zM653 575h293l-59 451z" />
    <glyph glyph-name="Atilde" unicode="&#xc3;" horiz-adv-x="1525" 
d="M768 1602q-25 0 -50.5 -14.5t-41.5 -29.5t-39 -40l-102 38q61 128 127 194.5t163 66.5q55 0 132 -23.5t144 -47.5t97 -24q25 0 50.5 14.5t41.5 29.5t39 40l103 -39q-60 -128 -127 -194t-164 -66q-55 0 -132 23.5t-144 47.5t-97 24zM1020 0l-35 268h-489l-140 -268h-448
l835 1434h414l277 -1434h-414zM653 575h293l-59 451z" />
    <glyph glyph-name="Adieresis" unicode="&#xc4;" horiz-adv-x="1525" 
d="M918 1767l-48 -245h-309l47 245h310zM1370 1767l-47 -245h-309l47 245h309zM1020 0l-35 268h-489l-140 -268h-448l835 1434h414l277 -1434h-414zM653 575h293l-59 451z" />
    <glyph glyph-name="Aring" unicode="&#xc5;" horiz-adv-x="1525" 
d="M1020 0l-35 268h-489l-140 -268h-448l821 1409q-18 43 -18 98q0 112 78.5 187t195.5 75q103 0 163 -58.5t60 -158.5q0 -83 -45 -147l271 -1405h-414zM969 1626q-46 0 -76.5 -33t-30.5 -80q0 -37 23.5 -58t64.5 -21q46 0 76.5 32.5t30.5 79.5q0 37 -23.5 58.5t-64.5 21.5z
M653 575h293l-59 451z" />
    <glyph glyph-name="AE" unicode="&#xc6;" horiz-adv-x="2170" 
d="M2195 1077h-483l-33 -170h420l-65 -338h-420l-41 -213h514l-70 -356h-610h-283l52 268h-549l-221 -268h-498l1233 1434h641h483zM883 575h354l109 560z" />
    <glyph glyph-name="Ccedilla" unicode="&#xc7;" horiz-adv-x="1396" 
d="M809 -31h-2l-27 -45q81 -10 122.5 -42t41.5 -79q0 -81 -104 -133q-65 -33 -265 -88q-38 -11 -57 -16l-22 88q112 42 146 62t34 42q0 20 -19.5 29t-66.5 18l102 170q-280 35 -444 222.5t-164 470.5q0 132 37.5 252t111.5 219t176.5 172t240 113t294.5 40q164 0 305 -41.5
t244 -109.5l-225 -326q-150 98 -328 98q-110 0 -198.5 -33t-144 -90t-85 -129.5t-29.5 -154.5q0 -152 94 -241t244 -89q156 0 334 96l160 -335q-245 -140 -506 -140z" />
    <glyph glyph-name="Egrave" unicode="&#xc8;" horiz-adv-x="1118" 
d="M985 1522h-268l-336 245h389zM1143 1077h-525l-32 -170h461l-66 -338h-461l-41 -213h555l-69 -356h-945l279 1434h913z" />
    <glyph glyph-name="Eacute" unicode="&#xc9;" horiz-adv-x="1118" 
d="M1323 1767l-430 -245h-268l309 245h389zM20 0l279 1434h913l-69 -357h-525l-32 -170h461l-66 -338h-461l-41 -213h555l-69 -356h-945z" />
    <glyph glyph-name="Ecircumflex" unicode="&#xca;" horiz-adv-x="1118" 
d="M801 1651l-142 -129h-307l293 245h359l198 -245h-307zM1143 1077h-525l-32 -170h461l-66 -338h-461l-41 -213h555l-69 -356h-945l279 1434h913z" />
    <glyph glyph-name="Edieresis" unicode="&#xcb;" horiz-adv-x="1118" 
d="M758 1767l-47 -245h-310l48 245h309zM1210 1767l-47 -245h-309l47 245h309zM1143 1077h-525l-32 -170h461l-66 -338h-461l-41 -213h555l-69 -356h-945l279 1434h913z" />
    <glyph glyph-name="Igrave" unicode="&#xcc;" horiz-adv-x="614" 
d="M473 1767l215 -245h-268l-336 245h389zM688 1434l-278 -1434h-390l279 1434h389z" />
    <glyph glyph-name="Iacute" unicode="&#xcd;" horiz-adv-x="614" 
d="M1026 1767l-430 -245h-268l309 245h389zM688 1434l-278 -1434h-390l279 1434h389z" />
    <glyph glyph-name="Icircumflex" unicode="&#xce;" horiz-adv-x="614" 
d="M707 1767l198 -245h-307l-94 129l-142 -129h-307l293 245h359zM688 1434l-278 -1434h-390l279 1434h389z" />
    <glyph glyph-name="Idieresis" unicode="&#xcf;" horiz-adv-x="614" 
d="M461 1767l-47 -245h-310l48 245h309zM913 1767l-47 -245h-309l47 245h309zM688 1434l-278 -1434h-390l279 1434h389z" />
    <glyph glyph-name="Eth" unicode="&#xd0;" horiz-adv-x="1398" 
d="M752 1434q308 0 485.5 -172t177.5 -471q0 -164 -62 -307.5t-177 -251.5t-291 -170t-391 -62h-490l119 606h-127l53 279h127l107 549h469zM563 348q113 0 202 35t145 96.5t85 142.5t29 175q0 141 -83.5 214.5t-233.5 73.5h-103l-39 -200h230l-54 -279h-229l-51 -258h102z
" />
    <glyph glyph-name="Ntilde" unicode="&#xd1;" horiz-adv-x="1597" 
d="M1360 1806l102 -39q-60 -128 -127 -194t-164 -66q-55 0 -132 23.5t-143.5 47.5t-96.5 24q-25 0 -50.5 -14.5t-41.5 -29.5t-39 -40l-103 38q61 128 127.5 194.5t163.5 66.5q55 0 132 -23.5t144 -47.5t97 -24q25 0 50.5 14.5t41.5 29.5t39 40zM1671 1434l-278 -1434h-303
l-515 831h-4l-161 -831h-390l279 1434h303l514 -832h4l162 832h389z" />
    <glyph glyph-name="Ograve" unicode="&#xd2;" horiz-adv-x="1611" 
d="M915 1767l215 -245h-268l-336 245h389zM795 -31q-321 0 -517 185t-196 497q0 167 60 316t166.5 259t263 174t339.5 64q321 0 517 -185t196 -497q0 -167 -60 -316t-166.5 -259t-263 -174t-339.5 -64zM819 348q84 0 153.5 25.5t115.5 67.5t77.5 97.5t45.5 112.5t14 115
q0 147 -88.5 233t-249.5 86q-84 0 -153.5 -25.5t-115.5 -67.5t-77.5 -97t-45.5 -112t-14 -115q0 -147 89 -233.5t249 -86.5z" />
    <glyph glyph-name="Oacute" unicode="&#xd3;" horiz-adv-x="1611" 
d="M1468 1767l-430 -245h-268l309 245h389zM795 -31q-321 0 -517 185t-196 497q0 167 60 316t166.5 259t263 174t339.5 64q321 0 517 -185t196 -497q0 -167 -60 -316t-166.5 -259t-263 -174t-339.5 -64zM819 348q84 0 153.5 25.5t115.5 67.5t77.5 97.5t45.5 112.5t14 115
q0 147 -88.5 233t-249.5 86q-84 0 -153.5 -25.5t-115.5 -67.5t-77.5 -97t-45.5 -112t-14 -115q0 -147 89 -233.5t249 -86.5z" />
    <glyph glyph-name="Ocircumflex" unicode="&#xd4;" horiz-adv-x="1611" 
d="M1149 1767l199 -245h-308l-94 129l-141 -129h-307l293 245h358zM795 -31q-321 0 -517 185t-196 497q0 167 60 316t166.5 259t263 174t339.5 64q321 0 517 -185t196 -497q0 -167 -60 -316t-166.5 -259t-263 -174t-339.5 -64zM819 348q84 0 153.5 25.5t115.5 67.5
t77.5 97.5t45.5 112.5t14 115q0 147 -88.5 233t-249.5 86q-84 0 -153.5 -25.5t-115.5 -67.5t-77.5 -97t-45.5 -112t-14 -115q0 -147 89 -233.5t249 -86.5z" />
    <glyph glyph-name="Otilde" unicode="&#xd5;" horiz-adv-x="1611" 
d="M1315 1806l102 -39q-60 -128 -127 -194t-164 -66q-55 0 -132 23.5t-143.5 47.5t-96.5 24q-25 0 -50.5 -14.5t-41.5 -29.5t-39 -40l-103 38q61 128 127.5 194.5t163.5 66.5q55 0 132 -23.5t144 -47.5t97 -24q25 0 50.5 14.5t41.5 29.5t39 40zM795 -31q-321 0 -517 185
t-196 497q0 167 60 316t166.5 259t263 174t339.5 64q321 0 517 -185t196 -497q0 -167 -60 -316t-166.5 -259t-263 -174t-339.5 -64zM819 348q84 0 153.5 25.5t115.5 67.5t77.5 97.5t45.5 112.5t14 115q0 147 -88.5 233t-249.5 86q-84 0 -153.5 -25.5t-115.5 -67.5t-77.5 -97
t-45.5 -112t-14 -115q0 -147 89 -233.5t249 -86.5z" />
    <glyph glyph-name="Odieresis" unicode="&#xd6;" horiz-adv-x="1611" 
d="M903 1767l-47 -245h-309l47 245h309zM1356 1767l-47 -245h-310l48 245h309zM795 -31q-321 0 -517 185t-196 497q0 167 60 316t166.5 259t263 174t339.5 64q321 0 517 -185t196 -497q0 -167 -60 -316t-166.5 -259t-263 -174t-339.5 -64zM819 348q84 0 153.5 25.5
t115.5 67.5t77.5 97.5t45.5 112.5t14 115q0 147 -88.5 233t-249.5 86q-84 0 -153.5 -25.5t-115.5 -67.5t-77.5 -97t-45.5 -112t-14 -115q0 -147 89 -233.5t249 -86.5z" />
    <glyph glyph-name="multiply" unicode="&#xd7;" 
d="M991 1075l115 -114l-350 -351l350 -348l-115 -117l-350 351l-350 -349l-113 113l348 350l-350 351l117 114l348 -350z" />
    <glyph glyph-name="Oslash" unicode="&#xd8;" horiz-adv-x="1611" 
d="M1452 1255q172 -185 172 -473q0 -167 -60 -316t-166.5 -259t-263 -174t-339.5 -64q-268 0 -455 133l-125 -131l-86 74l127 131q-174 183 -174 475q0 167 60 316t166.5 259t263 174t339.5 64q271 0 455 -133l127 131l86 -73zM481 668q0 -117 58 -197l546 567
q-80 47 -198 47q-84 0 -153.5 -25.5t-115.5 -67.5t-77.5 -97t-45.5 -112t-14 -115zM819 348q84 0 153.5 25.5t115.5 67.5t77.5 97.5t45.5 112.5t14 115q0 118 -58 197l-544 -568q80 -47 196 -47z" />
    <glyph glyph-name="Ugrave" unicode="&#xd9;" horiz-adv-x="1447" 
d="M891 1767l215 -245h-268l-336 245h389zM1378 596q-53 -294 -224 -457.5t-466 -163.5q-366 0 -498.5 177t-56.5 532l148 750h415l-161 -828q-22 -109 15.5 -175t151.5 -66q214 0 263 241l161 828h416z" />
    <glyph glyph-name="Uacute" unicode="&#xda;" horiz-adv-x="1447" 
d="M1444 1767l-430 -245h-269l310 245h389zM1378 596q-53 -294 -224 -457.5t-466 -163.5q-366 0 -498.5 177t-56.5 532l148 750h415l-161 -828q-22 -109 15.5 -175t151.5 -66q214 0 263 241l161 828h416z" />
    <glyph glyph-name="Ucircumflex" unicode="&#xdb;" horiz-adv-x="1447" 
d="M1124 1767l199 -245h-307l-94 129l-142 -129h-307l293 245h358zM1378 596q-53 -294 -224 -457.5t-466 -163.5q-366 0 -498.5 177t-56.5 532l148 750h415l-161 -828q-22 -109 15.5 -175t151.5 -66q214 0 263 241l161 828h416z" />
    <glyph glyph-name="Udieresis" unicode="&#xdc;" horiz-adv-x="1447" 
d="M879 1767l-48 -245h-309l47 245h310zM1331 1767l-47 -245h-309l47 245h309zM1378 596q-53 -294 -224 -457.5t-466 -163.5q-366 0 -498.5 177t-56.5 532l148 750h415l-161 -828q-22 -109 15.5 -175t151.5 -66q214 0 263 241l161 828h416z" />
    <glyph glyph-name="Yacute" unicode="&#xdd;" horiz-adv-x="1480" 
d="M1436 1767l-430 -245h-269l310 245h389zM1677 1434l-743 -959l-92 -475h-389l94 483l-371 951h440l172 -576h5l395 576h489z" />
    <glyph glyph-name="Thorn" unicode="&#xde;" horiz-adv-x="1310" 
d="M692 1434l-37 -191h176q130 0 228.5 -31t157.5 -87.5t88.5 -130t29.5 -163.5q0 -100 -25.5 -189.5t-81 -168.5t-136.5 -136.5t-199 -90.5t-262 -33h-176l-41 -213h-394l279 1434h393zM766 907h-176l-70 -358h176q111 0 179.5 56.5t68.5 160.5q0 70 -47 105.5t-131 35.5z
" />
    <glyph glyph-name="germandbls" unicode="&#xdf;" horiz-adv-x="1314" 
d="M965 778q307 -30 307 -313q0 -72 -18 -136t-65.5 -128t-121.5 -109t-195.5 -73.5t-277.5 -28.5h-141l65 338h82q303 0 303 155q0 72 -64 100.5t-208 28.5l53 271q106 0 156.5 46t50.5 113q0 57 -36.5 90t-104.5 33q-80 0 -126 -48.5t-65 -145.5l-240 -1237h-380l245 1261
q90 469 588 469q125 0 220 -28.5t151 -78t84 -111t28 -132.5q0 -121 -75 -212.5t-215 -119.5v-4z" />
    <glyph glyph-name="agrave" unicode="&#xe0;" horiz-adv-x="1255" 
d="M717 1448l203 -315h-277l-324 315h398zM420 -31q-178 0 -281.5 121t-103.5 328q0 249 143 404t373 155q236 0 317 -172h4l25 141h379l-184 -946h-379l24 121h-4q-122 -152 -313 -152zM596 299q84 0 139.5 55.5t55.5 139.5q0 70 -44 111.5t-118 41.5q-84 0 -139.5 -55
t-55.5 -139q0 -70 44 -112t118 -42z" />
    <glyph glyph-name="aacute" unicode="&#xe1;" horiz-adv-x="1255" 
d="M1315 1448l-434 -315h-287l324 315h397zM420 -31q-178 0 -281.5 121t-103.5 328q0 249 143 404t373 155q236 0 317 -172h4l25 141h379l-184 -946h-379l24 121h-4q-122 -152 -313 -152zM596 299q84 0 139.5 55.5t55.5 139.5q0 70 -44 111.5t-118 41.5q-84 0 -139.5 -55
t-55.5 -139q0 -70 44 -112t118 -42z" />
    <glyph glyph-name="acircumflex" unicode="&#xe2;" horiz-adv-x="1255" 
d="M1006 1448l186 -315h-287l-92 155l-158 -155h-315l309 315h357zM420 -31q-178 0 -281.5 121t-103.5 328q0 249 143 404t373 155q236 0 317 -172h4l25 141h379l-184 -946h-379l24 121h-4q-122 -152 -313 -152zM596 299q84 0 139.5 55.5t55.5 139.5q0 70 -44 111.5
t-118 41.5q-84 0 -139.5 -55t-55.5 -139q0 -70 44 -112t118 -42z" />
    <glyph glyph-name="atilde" unicode="&#xe3;" horiz-adv-x="1255" 
d="M666 1452q69 0 189 -43t151 -43q66 0 131 94l127 -49q-70 -149 -142.5 -225t-173.5 -76q-68 0 -189.5 43t-152.5 43q-37 0 -67 -25.5t-62 -68.5l-127 49q70 148 143 224.5t173 76.5zM420 -31q-178 0 -281.5 121t-103.5 328q0 249 143 404t373 155q236 0 317 -172h4
l25 141h379l-184 -946h-379l24 121h-4q-122 -152 -313 -152zM596 299q84 0 139.5 55.5t55.5 139.5q0 70 -44 111.5t-118 41.5q-84 0 -139.5 -55t-55.5 -139q0 -70 44 -112t118 -42z" />
    <glyph glyph-name="adieresis" unicode="&#xe4;" horiz-adv-x="1255" 
d="M428 1116l57 297h285l-57 -297h-285zM834 1116l57 297h285l-58 -297h-284zM420 -31q-178 0 -281.5 121t-103.5 328q0 249 143 404t373 155q236 0 317 -172h4l25 141h379l-184 -946h-379l24 121h-4q-122 -152 -313 -152zM596 299q84 0 139.5 55.5t55.5 139.5
q0 70 -44 111.5t-118 41.5q-84 0 -139.5 -55t-55.5 -139q0 -70 44 -112t118 -42z" />
    <glyph glyph-name="aring" unicode="&#xe5;" horiz-adv-x="1255" 
d="M819 1530q103 0 163 -58.5t60 -158.5q0 -112 -78.5 -187t-195.5 -75q-103 0 -163 58.5t-60 158.5q0 112 78.5 187t195.5 75zM803 1386q-46 0 -76.5 -32.5t-30.5 -79.5q0 -37 23.5 -58.5t64.5 -21.5q46 0 76.5 33t30.5 80q0 37 -23.5 58t-64.5 21zM420 -31
q-178 0 -281.5 121t-103.5 328q0 249 143 404t373 155q236 0 317 -172h4l25 141h379l-184 -946h-379l24 121h-4q-122 -152 -313 -152zM596 299q84 0 139.5 55.5t55.5 139.5q0 70 -44 111.5t-118 41.5q-84 0 -139.5 -55t-55.5 -139q0 -70 44 -112t118 -42z" />
    <glyph glyph-name="ae" unicode="&#xe6;" horiz-adv-x="1726" 
d="M379 -31q-180 0 -278.5 85t-98.5 233q0 160 113 257t293 97q113 0 192 -38t111 -101h4q0 11 3 28t3 21q14 88 -27 129t-157 41q-83 0 -263 -25l-51 248q219 33 352 33q159 0 248 -39.5t119 -136.5h4q52 83 143.5 128.5t215.5 45.5q83 0 154 -21.5t129.5 -66t92 -122
t33.5 -181.5q0 -75 -26 -199h-641q8 -44 28 -73t49.5 -41.5t54.5 -16.5t60 -4q133 0 262 53l86 -264q-190 -70 -373 -70q-136 0 -246 45t-169 148h-4q-149 -193 -416 -193zM1077 580h291q2 10 2 30q0 56 -33.5 85.5t-93.5 29.5q-69 0 -112 -39.5t-54 -105.5zM551 227
q60 0 95.5 30.5t35.5 74.5q0 40 -31 66t-86 26q-60 0 -95.5 -30.5t-35.5 -74.5q0 -40 31 -66t86 -26z" />
    <glyph glyph-name="ccedilla" unicode="&#xe7;" horiz-adv-x="960" 
d="M864 29q-137 -52 -262 -58l-29 -47q81 -10 122.5 -42t41.5 -79q0 -81 -104 -133q-66 -33 -266 -88q-37 -11 -56 -16l-22 88q112 42 146 62t34 42q0 20 -19.5 29t-66.5 18l100 168q-198 21 -322 144t-124 332q0 110 37 204.5t108 167.5t184 114.5t255 41.5q221 0 401 -115
l-178 -284q-117 71 -217 71q-97 0 -149 -52.5t-52 -129.5q0 -75 47 -121.5t123 -46.5q85 0 166 37z" />
    <glyph glyph-name="egrave" unicode="&#xe8;" horiz-adv-x="1101" 
d="M836 1133h-277l-323 315h397zM1083 592q0 -87 -30 -207h-660q36 -125 203 -125q124 0 270 64l95 -277q-194 -78 -388 -78q-86 0 -164 17t-147 53.5t-119 90.5t-79 133t-29 175q0 100 34.5 193t102 171.5t181.5 125.5t259 47q212 0 341.5 -100.5t129.5 -282.5zM731 582
q4 24 4 39q0 52 -37 80t-100 28q-141 0 -197 -147h330z" />
    <glyph glyph-name="eacute" unicode="&#xe9;" horiz-adv-x="1101" 
d="M1231 1448l-434 -315h-287l324 315h397zM612 975q212 0 341.5 -100.5t129.5 -282.5q0 -87 -30 -207h-660q36 -125 203 -125q124 0 270 64l95 -277q-194 -78 -388 -78q-86 0 -164 17t-147 53.5t-119 90.5t-79 133t-29 175q0 100 34.5 193t102 171.5t181.5 125.5t259 47z
M731 582q4 24 4 39q0 52 -37 80t-100 28q-141 0 -197 -147h330z" />
    <glyph glyph-name="ecircumflex" unicode="&#xea;" horiz-adv-x="1101" 
d="M729 1288l-158 -155h-315l309 315h357l186 -315h-287zM612 975q212 0 341.5 -100.5t129.5 -282.5q0 -87 -30 -207h-660q36 -125 203 -125q124 0 270 64l95 -277q-194 -78 -388 -78q-86 0 -164 17t-147 53.5t-119 90.5t-79 133t-29 175q0 100 34.5 193t102 171.5
t181.5 125.5t259 47zM731 582q4 24 4 39q0 52 -37 80t-100 28q-141 0 -197 -147h330z" />
    <glyph glyph-name="edieresis" unicode="&#xeb;" horiz-adv-x="1101" 
d="M686 1413l-57 -297h-285l57 297h285zM1092 1413l-58 -297h-284l57 297h285zM612 975q212 0 341.5 -100.5t129.5 -282.5q0 -87 -30 -207h-660q36 -125 203 -125q124 0 270 64l95 -277q-194 -78 -388 -78q-86 0 -164 17t-147 53.5t-119 90.5t-79 133t-29 175
q0 100 34.5 193t102 171.5t181.5 125.5t259 47zM731 582q4 24 4 39q0 52 -37 80t-100 28q-141 0 -197 -147h330z" />
    <glyph glyph-name="igrave" unicode="&#xec;" horiz-adv-x="542" 
d="M412 1448l120 -315h-274l-168 315h322zM553 946l-184 -946h-379l184 946h379z" />
    <glyph glyph-name="iacute" unicode="&#xed;" horiz-adv-x="542" 
d="M834 1448l-291 -315h-307l241 315h357zM553 946l-184 -946h-379l184 946h379z" />
    <glyph glyph-name="icircumflex" unicode="&#xee;" horiz-adv-x="542" 
d="M639 1448l115 -315h-277l-28 176l-99 -176h-303l236 315h356zM553 946l-184 -946h-379l184 946h379z" />
    <glyph glyph-name="idieresis" unicode="&#xef;" horiz-adv-x="542" 
d="M94 1116l58 297h262l-58 -297h-262zM459 1116l57 297h262l-57 -297h-262zM553 946l-184 -946h-379l184 946h379z" />
    <glyph glyph-name="eth" unicode="&#xf0;" horiz-adv-x="1198" 
d="M979 1352q199 -193 199 -578q0 -393 -173 -599t-470 -206q-135 0 -247 54t-181.5 163.5t-69.5 255.5q0 149 62.5 270.5t179.5 193t266 71.5q101 0 191 -44.5t124 -131.5h4q7 80 -2 133q-26 150 -133 231l-168 -127l-106 138l94 69q-80 20 -164 31l82 285
q213 -25 364 -103l189 139l102 -139zM559 301q91 0 144 57.5t53 137.5t-50.5 118.5t-121.5 38.5q-91 0 -144 -57t-53 -137t50.5 -119t121.5 -39z" />
    <glyph glyph-name="ntilde" unicode="&#xf1;" horiz-adv-x="1185" 
d="M578 1452q69 0 189 -43t151 -43q66 0 131 94l127 -49q-70 -149 -142.5 -225t-173.5 -76q-68 0 -189.5 43t-152.5 43q-37 0 -67 -25.5t-62 -68.5l-127 49q70 148 143 224.5t173 76.5zM530 946l-32 -160h4q131 191 338 191q138 0 218.5 -74.5t80.5 -230.5q0 -67 -17 -158
l-100 -514h-379l90 459q8 41 8 80q0 133 -114 133q-76 0 -115.5 -51t-58.5 -146l-95 -475h-378l184 946h366z" />
    <glyph glyph-name="ograve" unicode="&#xf2;" horiz-adv-x="1175" 
d="M639 1448l203 -315h-277l-323 315h397zM551 -31q-110 0 -203 28t-164 83t-111 143.5t-40 202.5q0 115 41.5 215.5t117 175t187.5 117.5t246 43q110 0 203 -28t164 -83t111 -143.5t40 -202.5q0 -115 -41.5 -215.5t-117 -175t-187.5 -117.5t-246 -43zM571 299
q92 0 143.5 59.5t51.5 135.5q0 78 -47 115.5t-115 37.5q-92 0 -143 -59t-51 -135q0 -78 46.5 -116t114.5 -38z" />
    <glyph glyph-name="oacute" unicode="&#xf3;" horiz-adv-x="1175" 
d="M1237 1448l-434 -315h-287l324 315h397zM551 -31q-110 0 -203 28t-164 83t-111 143.5t-40 202.5q0 115 41.5 215.5t117 175t187.5 117.5t246 43q110 0 203 -28t164 -83t111 -143.5t40 -202.5q0 -115 -41.5 -215.5t-117 -175t-187.5 -117.5t-246 -43zM571 299
q92 0 143.5 59.5t51.5 135.5q0 78 -47 115.5t-115 37.5q-92 0 -143 -59t-51 -135q0 -78 46.5 -116t114.5 -38z" />
    <glyph glyph-name="ocircumflex" unicode="&#xf4;" horiz-adv-x="1175" 
d="M928 1448l186 -315h-287l-92 155l-157 -155h-316l309 315h357zM551 -31q-110 0 -203 28t-164 83t-111 143.5t-40 202.5q0 115 41.5 215.5t117 175t187.5 117.5t246 43q110 0 203 -28t164 -83t111 -143.5t40 -202.5q0 -115 -41.5 -215.5t-117 -175t-187.5 -117.5t-246 -43
zM571 299q92 0 143.5 59.5t51.5 135.5q0 78 -47 115.5t-115 37.5q-92 0 -143 -59t-51 -135q0 -78 46.5 -116t114.5 -38z" />
    <glyph glyph-name="otilde" unicode="&#xf5;" horiz-adv-x="1175" 
d="M588 1452q69 0 189 -43t151 -43q66 0 131 94l127 -49q-70 -149 -142.5 -225t-173.5 -76q-68 0 -189.5 43t-152.5 43q-37 0 -67 -25.5t-62 -68.5l-127 49q70 148 143 224.5t173 76.5zM551 -31q-110 0 -203 28t-164 83t-111 143.5t-40 202.5q0 115 41.5 215.5t117 175
t187.5 117.5t246 43q110 0 203 -28t164 -83t111 -143.5t40 -202.5q0 -115 -41.5 -215.5t-117 -175t-187.5 -117.5t-246 -43zM571 299q92 0 143.5 59.5t51.5 135.5q0 78 -47 115.5t-115 37.5q-92 0 -143 -59t-51 -135q0 -78 46.5 -116t114.5 -38z" />
    <glyph glyph-name="odieresis" unicode="&#xf6;" horiz-adv-x="1175" 
d="M350 1116l58 297h284l-57 -297h-285zM756 1116l57 297h285l-58 -297h-284zM551 -31q-110 0 -203 28t-164 83t-111 143.5t-40 202.5q0 115 41.5 215.5t117 175t187.5 117.5t246 43q110 0 203 -28t164 -83t111 -143.5t40 -202.5q0 -115 -41.5 -215.5t-117 -175
t-187.5 -117.5t-246 -43zM571 299q92 0 143.5 59.5t51.5 135.5q0 78 -47 115.5t-115 37.5q-92 0 -143 -59t-51 -135q0 -78 46.5 -116t114.5 -38z" />
    <glyph glyph-name="divide" unicode="&#xf7;" 
d="M752 1073v-221h-220v221h220zM1171 688v-151h-1060v151h1060zM752 371v-221h-220v221h220z" />
    <glyph glyph-name="oslash" unicode="&#xf8;" horiz-adv-x="1175" 
d="M1030 831q113 -119 113 -311q0 -115 -41.5 -215.5t-117 -175t-187.5 -117.5t-246 -43q-209 0 -346 94l-113 -104l-78 72l113 104q-94 118 -94 291q0 115 41.5 215.5t117 175t187.5 117.5t246 43q188 0 321 -80l98 92l76 -74zM410 453q0 -29 6 -50l252 234q-25 10 -64 10
q-92 0 -143 -59t-51 -135zM571 299q92 0 143.5 59.5t51.5 135.5q0 43 -16 75l-269 -250q39 -20 90 -20z" />
    <glyph glyph-name="ugrave" unicode="&#xf9;" horiz-adv-x="1191" 
d="M670 1448l202 -315h-276l-324 315h398zM346 -31q-137 0 -219 75t-82 232q0 60 16 148l105 522h395l-84 -432q-10 -46 -10 -96q0 -125 106 -125q67 0 104 49t58 158l86 446h381l-184 -946h-367l33 164h-4q-75 -106 -155 -150.5t-179 -44.5z" />
    <glyph glyph-name="uacute" unicode="&#xfa;" horiz-adv-x="1191" 
d="M1268 1448l-434 -315h-287l323 315h398zM346 -31q-137 0 -219 75t-82 232q0 60 16 148l105 522h395l-84 -432q-10 -46 -10 -96q0 -125 106 -125q67 0 104 49t58 158l86 446h381l-184 -946h-367l33 164h-4q-75 -106 -155 -150.5t-179 -44.5z" />
    <glyph glyph-name="ucircumflex" unicode="&#xfb;" horiz-adv-x="1191" 
d="M958 1448l187 -315h-287l-92 155l-158 -155h-315l309 315h356zM346 -31q-137 0 -219 75t-82 232q0 60 16 148l105 522h395l-84 -432q-10 -46 -10 -96q0 -125 106 -125q67 0 104 49t58 158l86 446h381l-184 -946h-367l33 164h-4q-75 -106 -155 -150.5t-179 -44.5z" />
    <glyph glyph-name="udieresis" unicode="&#xfc;" horiz-adv-x="1191" 
d="M381 1116l57 297h285l-57 -297h-285zM786 1116l58 297h284l-57 -297h-285zM346 -31q-137 0 -219 75t-82 232q0 60 16 148l105 522h395l-84 -432q-10 -46 -10 -96q0 -125 106 -125q67 0 104 49t58 158l86 446h381l-184 -946h-367l33 164h-4q-75 -106 -155 -150.5
t-179 -44.5z" />
    <glyph glyph-name="yacute" unicode="&#xfd;" horiz-adv-x="1189" 
d="M1272 1448l-434 -315h-287l323 315h398zM883 946h399l-842 -1356h-403l338 516l-283 840h385l123 -475z" />
    <glyph glyph-name="thorn" unicode="&#xfe;" horiz-adv-x="1265" 
d="M846 977q170 0 277.5 -116.5t107.5 -332.5q0 -249 -143 -404t-373 -155q-239 0 -318 172h-4l-102 -551h-379l262 1356h10l95 488h378l-94 -488h-10l-25 -121h4q122 152 314 152zM637 299q92 0 143 59.5t51 135.5q0 77 -47 115t-114 38q-92 0 -143.5 -59t-51.5 -135
q0 -78 47 -116t115 -38z" />
    <glyph glyph-name="ydieresis" unicode="&#xff;" horiz-adv-x="1189" 
d="M727 1413l-57 -297h-285l57 297h285zM1133 1413l-58 -297h-284l57 297h285zM883 946h399l-842 -1356h-403l338 516l-283 840h385l123 -475z" />
    <glyph glyph-name="Amacron" unicode="&#x100;" horiz-adv-x="1525" 
d="M1362 1743l-43 -223h-707l43 223h707zM1020 0l-35 268h-489l-140 -268h-448l835 1434h414l277 -1434h-414zM653 575h293l-59 451z" />
    <glyph glyph-name="amacron" unicode="&#x101;" horiz-adv-x="1255" 
d="M1159 1393l-47 -238h-680l47 238h680zM420 -31q-178 0 -281.5 121t-103.5 328q0 249 143 404t373 155q236 0 317 -172h4l25 141h379l-184 -946h-379l24 121h-4q-122 -152 -313 -152zM596 299q84 0 139.5 55.5t55.5 139.5q0 70 -44 111.5t-118 41.5q-84 0 -139.5 -55
t-55.5 -139q0 -70 44 -112t118 -42z" />
    <glyph glyph-name="Abreve" unicode="&#x102;" horiz-adv-x="1525" 
d="M963 1493q-161 0 -246 73.5t-76 202.5h250q-3 -36 24.5 -57.5t83.5 -21.5t93.5 21.5t48.5 57.5h248q-40 -129 -152.5 -202.5t-273.5 -73.5zM1020 0l-35 268h-489l-140 -268h-448l835 1434h414l277 -1434h-414zM653 575h293l-59 451z" />
    <glyph glyph-name="abreve" unicode="&#x103;" horiz-adv-x="1255" 
d="M1198 1434q-10 -55 -29 -104.5t-53.5 -97.5t-80.5 -82.5t-113 -55.5t-148 -21q-50 0 -96.5 9t-90 29.5t-76 51.5t-52 78t-19.5 105q0 31 11 88h217q-2 -10 -2 -31q0 -111 118 -111q44 0 76 13t50.5 37t27 44t16.5 48h244zM420 -31q-178 0 -281.5 121t-103.5 328
q0 249 143 404t373 155q236 0 317 -172h4l25 141h379l-184 -946h-379l24 121h-4q-122 -152 -313 -152zM596 299q84 0 139.5 55.5t55.5 139.5q0 70 -44 111.5t-118 41.5q-84 0 -139.5 -55t-55.5 -139q0 -70 44 -112t118 -42z" />
    <glyph glyph-name="Aogonek" unicode="&#x104;" horiz-adv-x="1525" 
d="M1040 -168q0 -15 13 -25t34 -10q24 0 76 10v-221q-111 -26 -174 -26q-221 0 -221 174q0 84 57 150t191 147l-31 237h-489l-140 -268h-448l835 1434h414l277 -1434h-199q-108 -70 -151.5 -105.5t-43.5 -62.5zM653 575h293l-59 451z" />
    <glyph glyph-name="aogonek" unicode="&#x105;" horiz-adv-x="1255" 
d="M936 0q-108 -70 -151.5 -105.5t-43.5 -62.5q0 -15 13 -25t34 -10q24 0 76 10v-221q-111 -26 -174 -26q-221 0 -221 174q0 84 58.5 151t191.5 146l18 90h-4q-122 -152 -313 -152q-178 0 -281.5 121t-103.5 328q0 249 143 404t373 155q236 0 317 -172h4l25 141h379
l-184 -946h-156zM596 299q84 0 139.5 55.5t55.5 139.5q0 70 -44 111.5t-118 41.5q-84 0 -139.5 -55t-55.5 -139q0 -70 44 -112t118 -42z" />
    <glyph glyph-name="Cacute" unicode="&#x106;" horiz-adv-x="1396" 
d="M1489 1767l-430 -245h-268l309 245h389zM809 -31q-328 0 -526.5 193.5t-198.5 505.5q0 132 37.5 252t111.5 219t176.5 172t240 113t294.5 40q164 0 305 -41.5t244 -109.5l-225 -326q-150 98 -328 98q-110 0 -198.5 -33t-144 -90t-85 -129.5t-29.5 -154.5q0 -152 94 -241
t244 -89q156 0 334 96l160 -335q-245 -140 -506 -140z" />
    <glyph glyph-name="cacute" unicode="&#x107;" horiz-adv-x="960" 
d="M1202 1448l-434 -315h-287l324 315h397zM559 -31q-108 0 -202 30.5t-165.5 89t-113 151.5t-41.5 209q0 110 37 204.5t108 167.5t184 114.5t255 41.5q221 0 401 -115l-178 -284q-117 71 -217 71q-97 0 -149 -52.5t-52 -129.5q0 -75 47 -121.5t123 -46.5q85 0 166 37
l102 -307q-162 -60 -305 -60z" />
    <glyph glyph-name="Ccircumflex" unicode="&#x108;" horiz-adv-x="1396" 
d="M1169 1767l199 -245h-307l-94 129l-142 -129h-307l293 245h358zM809 -31q-328 0 -526.5 193.5t-198.5 505.5q0 132 37.5 252t111.5 219t176.5 172t240 113t294.5 40q164 0 305 -41.5t244 -109.5l-225 -326q-150 98 -328 98q-110 0 -198.5 -33t-144 -90t-85 -129.5
t-29.5 -154.5q0 -152 94 -241t244 -89q156 0 334 96l160 -335q-245 -140 -506 -140z" />
    <glyph glyph-name="ccircumflex" unicode="&#x109;" horiz-adv-x="960" 
d="M893 1448l186 -315h-286l-93 155l-157 -155h-316l310 315h356zM559 -31q-108 0 -202 30.5t-165.5 89t-113 151.5t-41.5 209q0 110 37 204.5t108 167.5t184 114.5t255 41.5q221 0 401 -115l-178 -284q-117 71 -217 71q-97 0 -149 -52.5t-52 -129.5q0 -75 47 -121.5
t123 -46.5q85 0 166 37l102 -307q-162 -60 -305 -60z" />
    <glyph glyph-name="Cdotaccent" unicode="&#x10a;" horiz-adv-x="1396" 
d="M1200 1815l-57 -293h-340l57 293h340zM809 -31q-328 0 -526.5 193.5t-198.5 505.5q0 132 37.5 252t111.5 219t176.5 172t240 113t294.5 40q164 0 305 -41.5t244 -109.5l-225 -326q-150 98 -328 98q-110 0 -198.5 -33t-144 -90t-85 -129.5t-29.5 -154.5q0 -152 94 -241
t244 -89q156 0 334 96l160 -335q-245 -140 -506 -140z" />
    <glyph glyph-name="cdotaccent" unicode="&#x10b;" horiz-adv-x="960" 
d="M903 1434l-69 -355h-388l70 355h387zM559 -31q-108 0 -202 30.5t-165.5 89t-113 151.5t-41.5 209q0 110 37 204.5t108 167.5t184 114.5t255 41.5q221 0 401 -115l-178 -284q-117 71 -217 71q-97 0 -149 -52.5t-52 -129.5q0 -75 47 -121.5t123 -46.5q85 0 166 37l102 -307
q-162 -60 -305 -60z" />
    <glyph glyph-name="Ccaron" unicode="&#x10c;" horiz-adv-x="1396" 
d="M1133 1522h-359l-199 245h308l92 -127l143 127h307zM809 -31q-328 0 -526.5 193.5t-198.5 505.5q0 132 37.5 252t111.5 219t176.5 172t240 113t294.5 40q164 0 305 -41.5t244 -109.5l-225 -326q-150 98 -328 98q-110 0 -198.5 -33t-144 -90t-85 -129.5t-29.5 -154.5
q0 -152 94 -241t244 -89q156 0 334 96l160 -335q-245 -140 -506 -140z" />
    <glyph glyph-name="ccaron" unicode="&#x10d;" horiz-adv-x="960" 
d="M471 1118l-186 316h286l88 -156l162 156h316l-310 -316h-356zM559 -31q-108 0 -202 30.5t-165.5 89t-113 151.5t-41.5 209q0 110 37 204.5t108 167.5t184 114.5t255 41.5q221 0 401 -115l-178 -284q-117 71 -217 71q-97 0 -149 -52.5t-52 -129.5q0 -75 47 -121.5
t123 -46.5q85 0 166 37l102 -307q-162 -60 -305 -60z" />
    <glyph glyph-name="Dcaron" unicode="&#x10e;" horiz-adv-x="1415" 
d="M944 1522h-358l-199 245h307l92 -127l144 127h307zM768 1434q308 0 486 -172t178 -471q0 -164 -62.5 -307.5t-177.5 -251.5t-291 -170t-391 -62h-490l279 1434h469zM723 1085h-102l-144 -737h103q113 0 202 35t144.5 96.5t84.5 142.5t29 175q0 141 -83.5 214.5
t-233.5 73.5z" />
    <glyph glyph-name="dcaron" unicode="&#x10f;" horiz-adv-x="1615" 
d="M1466 1464h332l-65 -329l-209 -127h-158l135 127h-100zM991 1434h379l-278 -1434h-379l24 121h-4q-122 -152 -313 -152q-178 0 -281.5 121t-103.5 328q0 249 143 404t373 155q236 0 317 -172h4zM596 299q84 0 139.5 55.5t55.5 139.5q0 70 -44 111.5t-118 41.5
q-84 0 -139.5 -55t-55.5 -139q0 -70 44 -112t118 -42z" />
    <glyph glyph-name="Dcroat" unicode="&#x110;" horiz-adv-x="1398" 
d="M711 1434q308 0 485.5 -172t177.5 -471q0 -164 -62 -307.5t-177 -251.5t-291 -170t-391 -62h-490l119 606h-127l53 279h127l107 549h469zM522 348q113 0 202 35t145 96.5t85 142.5t29 175q0 141 -83.5 214.5t-233.5 73.5h-103l-39 -200h230l-54 -279h-229l-51 -258h102z
" />
    <glyph glyph-name="dcroat" unicode="&#x111;" horiz-adv-x="1275" 
d="M1499 1309l-39 -205h-153l-215 -1104h-379l24 121h-4q-122 -152 -313 -152q-178 0 -281.5 121t-103.5 328q0 249 143 404t373 155q236 0 317 -172h4l58 299h-254l39 205h252l24 125h379l-24 -125h153zM596 299q84 0 139.5 55.5t55.5 139.5q0 70 -44 111.5t-118 41.5
q-84 0 -139.5 -55t-55.5 -139q0 -70 44 -112t118 -42z" />
    <glyph glyph-name="Emacron" unicode="&#x112;" horiz-adv-x="1118" 
d="M1202 1743l-43 -223h-706l43 223h706zM1143 1077h-525l-32 -170h461l-66 -338h-461l-41 -213h555l-69 -356h-945l279 1434h913z" />
    <glyph glyph-name="emacron" unicode="&#x113;" horiz-adv-x="1101" 
d="M1075 1393l-47 -238h-680l47 238h680zM1083 592q0 -87 -30 -207h-660q36 -125 203 -125q124 0 270 64l95 -277q-194 -78 -388 -78q-86 0 -164 17t-147 53.5t-119 90.5t-79 133t-29 175q0 100 34.5 193t102 171.5t181.5 125.5t259 47q212 0 341.5 -100.5t129.5 -282.5z
M731 582q4 24 4 39q0 52 -37 80t-100 28q-141 0 -197 -147h330z" />
    <glyph glyph-name="Ebreve" unicode="&#x114;" horiz-adv-x="1118" 
d="M803 1493q-161 0 -246 73.5t-76 202.5h250q-3 -36 25 -57.5t84 -21.5t93 21.5t48 57.5h248q-40 -129 -152.5 -202.5t-273.5 -73.5zM20 0l279 1434h913l-69 -357h-525l-32 -170h461l-66 -338h-461l-41 -213h555l-69 -356h-945z" />
    <glyph glyph-name="ebreve" unicode="&#x115;" horiz-adv-x="1101" 
d="M690 1073q-50 0 -96.5 9t-90 29.5t-76 51.5t-52 78t-19.5 105q0 31 11 88h217q-2 -10 -2 -31q0 -111 118 -111q44 0 76 13t50.5 37t27 44t16.5 48h244q-10 -55 -29 -104.5t-53.5 -97.5t-80.5 -82.5t-113 -55.5t-148 -21zM612 975q212 0 341.5 -100.5t129.5 -282.5
q0 -87 -30 -207h-660q36 -125 203 -125q124 0 270 64l95 -277q-194 -78 -388 -78q-86 0 -164 17t-147 53.5t-119 90.5t-79 133t-29 175q0 100 34.5 193t102 171.5t181.5 125.5t259 47zM731 582q4 24 4 39q0 52 -37 80t-100 28q-141 0 -197 -147h330z" />
    <glyph glyph-name="Edotaccent" unicode="&#x116;" horiz-adv-x="1118" 
d="M1034 1815l-57 -293h-340l57 293h340zM1143 1077h-525l-32 -170h461l-66 -338h-461l-41 -213h555l-69 -356h-945l279 1434h913z" />
    <glyph glyph-name="edotaccent" unicode="&#x117;" horiz-adv-x="1101" 
d="M932 1434l-70 -355h-387l70 355h387zM1083 592q0 -87 -30 -207h-660q36 -125 203 -125q124 0 270 64l95 -277q-194 -78 -388 -78q-86 0 -164 17t-147 53.5t-119 90.5t-79 133t-29 175q0 100 34.5 193t102 171.5t181.5 125.5t259 47q212 0 341.5 -100.5t129.5 -282.5z
M731 582q4 24 4 39q0 52 -37 80t-100 28q-141 0 -197 -147h330z" />
    <glyph glyph-name="Eogonek" unicode="&#x118;" horiz-adv-x="1118" 
d="M1143 1077h-525l-32 -170h461l-66 -338h-461l-41 -213h555l-69 -356h-37q-108 -70 -151.5 -105.5t-43.5 -62.5q0 -15 13 -25t34 -10q24 0 76 10v-221q-111 -26 -174 -26q-221 0 -221 174q0 75 47 136t154 130h-642l279 1434h913z" />
    <glyph glyph-name="eogonek" unicode="&#x119;" horiz-adv-x="1101" 
d="M1083 592q0 -87 -30 -207h-660q36 -125 203 -125q124 0 270 64l95 -277q-42 -17 -74 -27q-129 -81 -178.5 -119.5t-49.5 -68.5q0 -15 13.5 -25t34.5 -10q23 0 75 10v-221q-110 -26 -174 -26q-221 0 -221 174q0 66 37.5 121.5t118.5 113.5q-82 3 -156 22t-138.5 56.5
t-112 91t-74.5 130t-27 169.5q0 100 34.5 193t102 171.5t181.5 125.5t259 47q212 0 341.5 -100.5t129.5 -282.5zM731 582q4 24 4 39q0 52 -37 80t-100 28q-141 0 -197 -147h330z" />
    <glyph glyph-name="Ecaron" unicode="&#x11a;" horiz-adv-x="1118" 
d="M967 1522h-359l-198 245h307l92 -127l143 127h308zM20 0l279 1434h913l-69 -357h-525l-32 -170h461l-66 -338h-461l-41 -213h555l-69 -356h-945z" />
    <glyph glyph-name="ecaron" unicode="&#x11b;" horiz-adv-x="1101" 
d="M856 1118h-356l-187 316h287l88 -156l162 156h315zM612 975q212 0 341.5 -100.5t129.5 -282.5q0 -87 -30 -207h-660q36 -125 203 -125q124 0 270 64l95 -277q-194 -78 -388 -78q-86 0 -164 17t-147 53.5t-119 90.5t-79 133t-29 175q0 100 34.5 193t102 171.5t181.5 125.5
t259 47zM731 582q4 24 4 39q0 52 -37 80t-100 28q-141 0 -197 -147h330z" />
    <glyph glyph-name="Gcircumflex" unicode="&#x11c;" horiz-adv-x="1560" 
d="M963 1651l-142 -129h-307l293 245h358l199 -245h-307zM850 854h743l-22 -160q-102 -725 -746 -725q-215 0 -382 80t-264 237t-97 369q0 167 59.5 314t169 257t276 174t367.5 64q170 0 322 -45t266 -133l-239 -315q-159 125 -359 125q-141 0 -248.5 -62t-161 -161.5
t-53.5 -217.5q0 -150 98 -233.5t271 -83.5q134 0 212 49t99 133h-379z" />
    <glyph glyph-name="gcircumflex" unicode="&#x11d;" horiz-adv-x="1255" 
d="M928 1448l186 -315h-287l-92 155l-157 -155h-316l309 315h357zM897 946h379l-176 -893q-50 -254 -202.5 -373.5t-428.5 -119.5q-246 0 -459 75l111 302q205 -74 348 -74q111 0 172.5 45t81.5 143l14 70h-4q-122 -152 -313 -152q-178 0 -281.5 121t-103.5 328
q0 249 143 404t373 155q236 0 317 -172h4zM596 299q84 0 139.5 55.5t55.5 139.5q0 70 -44 111.5t-118 41.5q-84 0 -139.5 -55t-55.5 -139q0 -70 44 -112t118 -42z" />
    <glyph glyph-name="Gbreve" unicode="&#x11e;" horiz-adv-x="1560" 
d="M965 1493q-161 0 -246 73.5t-76 202.5h250q-3 -36 24.5 -57.5t83.5 -21.5t93.5 21.5t48.5 57.5h248q-40 -129 -152.5 -202.5t-273.5 -73.5zM850 854h743l-22 -160q-102 -725 -746 -725q-215 0 -382 80t-264 237t-97 369q0 167 59.5 314t169 257t276 174t367.5 64
q170 0 322 -45t266 -133l-239 -315q-159 125 -359 125q-141 0 -248.5 -62t-161 -161.5t-53.5 -217.5q0 -150 98 -233.5t271 -83.5q134 0 212 49t99 133h-379z" />
    <glyph glyph-name="gbreve" unicode="&#x11f;" horiz-adv-x="1255" 
d="M1120 1434q-10 -55 -29 -104.5t-53.5 -97.5t-80.5 -82.5t-113 -55.5t-148 -21q-50 0 -96.5 9t-90 29.5t-76 51.5t-52 78t-19.5 105q0 31 11 88h217q-2 -10 -2 -31q0 -47 26.5 -79t92.5 -32q44 0 76 13t50.5 37t27 44t16.5 48h243zM897 946h379l-176 -893
q-50 -254 -202.5 -373.5t-428.5 -119.5q-246 0 -459 75l111 302q205 -74 348 -74q111 0 172.5 45t81.5 143l14 70h-4q-122 -152 -313 -152q-178 0 -281.5 121t-103.5 328q0 249 143 404t373 155q236 0 317 -172h4zM596 299q84 0 139.5 55.5t55.5 139.5q0 70 -44 111.5
t-118 41.5q-84 0 -139.5 -55t-55.5 -139q0 -70 44 -112t118 -42z" />
    <glyph glyph-name="Gdotaccent" unicode="&#x120;" horiz-adv-x="1560" 
d="M1196 1815l-57 -293h-340l57 293h340zM850 854h743l-22 -160q-102 -725 -746 -725q-215 0 -382 80t-264 237t-97 369q0 167 59.5 314t169 257t276 174t367.5 64q170 0 322 -45t266 -133l-239 -315q-159 125 -359 125q-141 0 -248.5 -62t-161 -161.5t-53.5 -217.5
q0 -150 98 -233.5t271 -83.5q134 0 212 49t99 133h-379z" />
    <glyph glyph-name="gdotaccent" unicode="&#x121;" horiz-adv-x="1255" 
d="M938 1434l-70 -355h-387l70 355h387zM897 946h379l-176 -893q-50 -254 -202.5 -373.5t-428.5 -119.5q-246 0 -459 75l111 302q205 -74 348 -74q111 0 172.5 45t81.5 143l14 70h-4q-122 -152 -313 -152q-178 0 -281.5 121t-103.5 328q0 249 143 404t373 155
q236 0 317 -172h4zM596 299q84 0 139.5 55.5t55.5 139.5q0 70 -44 111.5t-118 41.5q-84 0 -139.5 -55t-55.5 -139q0 -70 44 -112t118 -42z" />
    <glyph glyph-name="Gcommaaccent" unicode="&#x122;" horiz-adv-x="1560" 
d="M850 854h743l-22 -160q-102 -725 -746 -725q-215 0 -382 80t-264 237t-97 369q0 167 59.5 314t169 257t276 174t367.5 64q170 0 322 -45t266 -133l-239 -315q-159 125 -359 125q-141 0 -248.5 -62t-161 -161.5t-53.5 -217.5q0 -150 98 -233.5t271 -83.5q134 0 212 49
t99 133h-379zM551 -307l41 211h328l-41 -211l-191 -123h-129l109 123h-117z" />
    <glyph glyph-name="gcommaaccent" unicode="&#x123;" horiz-adv-x="1255" 
d="M897 1317l-41 -211h-328l41 211l191 123h129l-109 -123h117zM897 946h379l-176 -893q-50 -254 -202.5 -373.5t-428.5 -119.5q-246 0 -459 75l111 302q205 -74 348 -74q111 0 172.5 45t81.5 143l14 70h-4q-122 -152 -313 -152q-178 0 -281.5 121t-103.5 328q0 249 143 404
t373 155q236 0 317 -172h4zM596 299q84 0 139.5 55.5t55.5 139.5q0 70 -44 111.5t-118 41.5q-84 0 -139.5 -55t-55.5 -139q0 -70 44 -112t118 -42z" />
    <glyph glyph-name="Hcircumflex" unicode="&#x124;" horiz-adv-x="1492" 
d="M944 1651l-141 -129h-307l292 245h359l199 -245h-308zM1178 1434h389l-279 -1434h-389l109 557h-490l-108 -557h-390l279 1434h389l-100 -521h489z" />
    <glyph glyph-name="hcircumflex" unicode="&#x125;" horiz-adv-x="1196" 
d="M672 1767l198 -245h-307l-94 129l-141 -129h-308l293 245h359zM647 1434l-119 -619h4q125 162 324 162q133 0 213 -75.5t80 -231.5q0 -65 -16 -156l-101 -514h-379l90 459q9 47 9 80q0 133 -115 133q-76 0 -115.5 -51t-58.5 -146l-94 -475h-379l278 1434h379z" />
    <glyph glyph-name="Hbar" unicode="&#x126;" horiz-adv-x="1546" 
d="M1708 1307l-51 -267h-131l-203 -1040h-389l108 557h-489l-109 -557h-389l203 1040h-147l51 267h147l25 127h389l-25 -127h490l24 127h390l-25 -127h131zM1112 913l25 127h-490l-24 -127h489z" />
    <glyph glyph-name="hbar" unicode="&#x127;" horiz-adv-x="1198" 
d="M858 977q133 0 213 -75.5t80 -231.5q0 -65 -16 -156l-101 -514h-379l90 459q9 47 9 80q0 133 -115 133q-76 0 -115.5 -51t-58.5 -146l-94 -475h-379l215 1104h-146l39 205h146l24 125h379l-24 -125h260l-39 -205h-260l-56 -289h5q125 162 323 162z" />
    <glyph glyph-name="Itilde" unicode="&#x128;" horiz-adv-x="614" 
d="M872 1806l103 -39q-60 -128 -127 -194t-164 -66q-55 0 -132 23.5t-144 47.5t-97 24q-25 0 -50.5 -14.5t-41.5 -29.5t-39 -40l-102 38q61 128 127.5 194.5t163.5 66.5q55 0 132 -23.5t143.5 -47.5t96.5 -24q25 0 50.5 14.5t41.5 29.5t39 40zM688 1434l-278 -1434h-390
l279 1434h389z" />
    <glyph glyph-name="itilde" unicode="&#x129;" horiz-adv-x="542" 
d="M328 1452q44 0 95 -21.5t93.5 -43t65.5 -21.5q17 0 31.5 7.5t28.5 23.5t22.5 28.5t21.5 34.5l127 -49q-31 -73 -56.5 -121.5t-58.5 -92.5t-70.5 -65.5t-82.5 -21.5q-44 0 -95.5 21.5t-94.5 43t-66 21.5q-17 0 -31 -7t-29.5 -25t-21.5 -27t-23 -35l-125 49
q64 150 124 225.5t145 75.5zM553 946l-184 -946h-379l184 946h379z" />
    <glyph glyph-name="Imacron" unicode="&#x12a;" horiz-adv-x="614" 
d="M905 1743l-43 -223h-706l43 223h706zM688 1434l-278 -1434h-390l279 1434h389z" />
    <glyph glyph-name="imacron" unicode="&#x12b;" horiz-adv-x="542" 
d="M709 1393l-47 -238h-517l48 238h516zM553 946l-184 -946h-379l184 946h379z" />
    <glyph glyph-name="Ibreve" unicode="&#x12c;" horiz-adv-x="614" 
d="M932 1769q-40 -129 -152.5 -202.5t-273.5 -73.5t-246 73.5t-76 202.5h250q-3 -36 25 -57.5t84 -21.5t93 21.5t48 57.5h248zM688 1434l-278 -1434h-390l279 1434h389z" />
    <glyph glyph-name="ibreve" unicode="&#x12d;" horiz-adv-x="542" 
d="M786 1434q-9 -58 -26 -108.5t-47.5 -98t-71.5 -81t-101 -53.5t-134 -20q-135 0 -210 67.5t-75 202.5q0 44 8 91h217q-1 -10 -2 -16.5t-1.5 -10.5t-0.5 -12q0 -103 84 -103q32 0 54.5 13t34 35.5t17 42.5t10.5 44q0 2 0.5 3.5t0.5 3.5h243zM553 946l-184 -946h-379
l184 946h379z" />
    <glyph glyph-name="Iogonek" unicode="&#x12e;" horiz-adv-x="614" 
d="M285 0q-108 -70 -151.5 -105.5t-43.5 -62.5q0 -15 13 -25t34 -10q24 0 76 10v-221q-110 -26 -174 -26q-221 0 -221 174q0 75 48 137t154 131l279 1432h389l-278 -1434h-125z" />
    <glyph glyph-name="iogonek" unicode="&#x12f;" horiz-adv-x="542" 
d="M262 1434h387l-69 -355h-387zM-6 25l180 921h379l-184 -946h-146q-107 -69 -150.5 -105t-43.5 -63q0 -15 13 -25t34 -10q24 0 76 10v-221q-111 -26 -175 -26q-221 0 -221 174q0 82 55.5 147.5t182.5 143.5z" />
    <glyph glyph-name="Idotaccent" unicode="&#x130;" horiz-adv-x="614" 
d="M737 1815l-57 -293h-340l57 293h340zM688 1434l-278 -1434h-390l279 1434h389z" />
    <glyph glyph-name="dotlessi" unicode="&#x131;" horiz-adv-x="542" 
d="M553 946l-184 -946h-379l184 946h379z" />
    <glyph glyph-name="IJ" unicode="&#x132;" horiz-adv-x="1280" 
d="M688 1434l-278 -1434h-390l279 1434h389zM1354 1434l-207 -1065q-38 -194 -156 -284.5t-327 -90.5h-121l69 356h78q26 0 48.5 20.5t27.5 45.5l199 1018h389z" />
    <glyph glyph-name="ij" unicode="&#x133;" horiz-adv-x="1085" 
d="M649 1434l-69 -355h-387l69 355h387zM1192 1434l-70 -355h-387l70 355h387zM553 946l-184 -946h-379l184 946h379zM342 -63h45q70 0 109 30.5t51 95.5l172 883h377l-176 -903q-47 -247 -172.5 -353t-368.5 -106h-105z" />
    <glyph glyph-name="Jcircumflex" unicode="&#x134;" horiz-adv-x="665" 
d="M758 1767l198 -245h-307l-94 129l-141 -129h-308l293 245h359zM739 1434l-207 -1065q-38 -194 -156 -284.5t-327 -90.5h-121l70 356h78q26 0 48.5 20.5t27.5 45.5l198 1018h389z" />
    <glyph glyph-name="jcircumflex" unicode="&#x135;" horiz-adv-x="542" 
d="M639 1448l115 -315h-277l-28 176l-99 -176h-303l236 315h356zM-201 -63h45q70 0 109 30.5t51 95.5l172 883h377l-176 -903q-47 -247 -172.5 -353t-368.5 -106h-104z" />
    <glyph glyph-name="Kcommaaccent" unicode="&#x136;" horiz-adv-x="1540" 
d="M1692 1434l-742 -715l508 -719h-500l-419 664l-129 -664h-390l279 1434h389l-123 -629l596 629h531zM438 -307l41 211h328l-41 -211l-191 -123h-129l109 123h-117z" />
    <glyph glyph-name="kcommaaccent" unicode="&#x137;" horiz-adv-x="1214" 
d="M1280 946l-465 -467l297 -479h-444l-219 416l-80 -416h-379l278 1434h379l-164 -838l312 350h485zM283 -307l41 211h327l-41 -211l-190 -123h-129l108 123h-116z" />
    <glyph glyph-name="kgreenlandic" unicode="&#x138;" horiz-adv-x="1204" 
d="M1270 946l-465 -467l297 -479h-445l-217 416l-82 -416h-378l184 946h379l-68 -350l309 350h486z" />
    <glyph glyph-name="Lacute" unicode="&#x139;" horiz-adv-x="1052" 
d="M985 1767l-430 -245h-268l309 245h389zM20 0l279 1434h389l-209 -1074h541l-70 -360h-930z" />
    <glyph glyph-name="lacute" unicode="&#x13a;" horiz-adv-x="542" 
d="M991 1767l-430 -245h-268l309 245h389zM647 1434l-278 -1434h-379l278 1434h379z" />
    <glyph glyph-name="Lcommaaccent" unicode="&#x13b;" horiz-adv-x="1052" 
d="M479 360h541l-70 -360h-930l279 1434h389zM270 -307l41 211h328l-41 -211l-190 -123h-129l108 123h-117z" />
    <glyph glyph-name="lcommaaccent" unicode="&#x13c;" horiz-adv-x="542" 
d="M268 1434h379l-278 -1434h-379zM-43 -307l41 211h328l-41 -211l-191 -123h-129l109 123h-117z" />
    <glyph glyph-name="Lcaron" unicode="&#x13d;" horiz-adv-x="1079" 
d="M883 1464h331l-65 -329l-311 -332h-138l236 332h-119zM688 1434l-209 -1074h541l-70 -360h-930l279 1434h389z" />
    <glyph glyph-name="lcaron" unicode="&#x13e;" horiz-adv-x="892" 
d="M743 1464h332l-65 -329l-209 -127h-158l135 127h-100zM268 1434h379l-278 -1434h-379z" />
    <glyph glyph-name="Ldot" unicode="&#x13f;" horiz-adv-x="1052" 
d="M20 0l279 1434h389l-209 -1074h541l-70 -360h-930zM1122 946l-75 -385h-381l75 385h381z" />
    <glyph glyph-name="ldot" unicode="&#x140;" horiz-adv-x="937" 
d="M647 1434l-278 -1434h-379l278 1434h379zM1010 946l-76 -385h-381l76 385h381z" />
    <glyph glyph-name="Lslash" unicode="&#x141;" horiz-adv-x="1073" 
d="M500 360h540l-69 -360h-930l98 502l-145 -60l47 263l149 61l129 668h390l-97 -494l385 160l-47 -262l-389 -160z" />
    <glyph glyph-name="lslash" unicode="&#x142;" horiz-adv-x="731" 
d="M827 1092l-47 -263l-166 -77l-145 -752h-379l109 555l-174 -82l47 262l178 84l119 615h379l-82 -418z" />
    <glyph glyph-name="Nacute" unicode="&#x143;" horiz-adv-x="1597" 
d="M1513 1767l-430 -245h-268l309 245h389zM1671 1434l-278 -1434h-303l-515 831h-4l-161 -831h-390l279 1434h303l514 -832h4l162 832h389z" />
    <glyph glyph-name="nacute" unicode="&#x144;" horiz-adv-x="1185" 
d="M1227 1448l-434 -315h-287l323 315h398zM530 946l-32 -160h4q131 191 338 191q138 0 218.5 -74.5t80.5 -230.5q0 -67 -17 -158l-100 -514h-379l90 459q8 41 8 80q0 133 -114 133q-76 0 -115.5 -51t-58.5 -146l-95 -475h-378l184 946h366z" />
    <glyph glyph-name="Ncommaaccent" unicode="&#x145;" horiz-adv-x="1597" 
d="M1282 1434h389l-278 -1434h-303l-515 831h-4l-161 -831h-390l279 1434h303l514 -832h4zM479 -307l41 211h328l-41 -211l-191 -123h-129l109 123h-117z" />
    <glyph glyph-name="ncommaaccent" unicode="&#x146;" horiz-adv-x="1185" 
d="M840 977q138 0 218.5 -74.5t80.5 -230.5q0 -67 -17 -158l-100 -514h-379l90 459q8 41 8 80q0 133 -114 133q-76 0 -115.5 -51t-58.5 -146l-95 -475h-378l184 946h366l-32 -160h4q131 191 338 191zM279 -307l40 211h328l-41 -211l-190 -123h-129l108 123h-116z" />
    <glyph glyph-name="Ncaron" unicode="&#x147;" horiz-adv-x="1597" 
d="M1157 1522h-358l-199 245h307l92 -127l144 127h307zM1671 1434l-278 -1434h-303l-515 831h-4l-161 -831h-390l279 1434h303l514 -832h4l162 832h389z" />
    <glyph glyph-name="ncaron" unicode="&#x148;" horiz-adv-x="1185" 
d="M496 1118l-187 316h287l88 -156l162 156h315l-309 -316h-356zM530 946l-32 -160h4q131 191 338 191q138 0 218.5 -74.5t80.5 -230.5q0 -67 -17 -158l-100 -514h-379l90 459q8 41 8 80q0 133 -114 133q-76 0 -115.5 -51t-58.5 -146l-95 -475h-378l184 946h366z" />
    <glyph glyph-name="napostrophe" unicode="&#x149;" horiz-adv-x="1185" 
d="M262 1464l-65 -329l-312 -332h-137l236 332h-119l65 329h332zM840 977q138 0 218.5 -74.5t80.5 -230.5q0 -67 -17 -158l-100 -514h-379l90 459q8 41 8 80q0 133 -114 133q-76 0 -115.5 -51t-58.5 -146l-95 -475h-378l184 946h366l-32 -160h4q131 191 338 191z" />
    <glyph glyph-name="Eng" unicode="&#x14a;" horiz-adv-x="1597" 
d="M1671 1434l-211 -1090l-67 -348q-22 -116 -69 -197t-115 -125.5t-145.5 -63.5t-176.5 -20l-170 -2l69 355h103q25 0 40 2.5t33 12t30.5 31.5t19.5 58l10 51l-459 672h-4l-149 -770h-390l279 1434h303l526 -770h5l149 770h389z" />
    <glyph glyph-name="eng" unicode="&#x14b;" horiz-adv-x="1185" 
d="M840 977q138 0 218.5 -74.5t80.5 -230.5q0 -67 -17 -158l-100 -514l-4 -16q-19 -95 -55 -165.5t-81.5 -113.5t-107.5 -69.5t-125.5 -36t-142.5 -9.5h-123l68 353h63h8q26 0 39.5 2t34 10.5t34 32t21.5 61.5l15 70l67 340q8 41 8 80q0 133 -114 133q-76 0 -115.5 -51
t-58.5 -146l-95 -475h-378l184 946h366l-32 -160h4q131 191 338 191z" />
    <glyph glyph-name="Omacron" unicode="&#x14c;" horiz-adv-x="1611" 
d="M1348 1743l-43 -223h-707l43 223h707zM795 -31q-321 0 -517 185t-196 497q0 167 60 316t166.5 259t263 174t339.5 64q321 0 517 -185t196 -497q0 -167 -60 -316t-166.5 -259t-263 -174t-339.5 -64zM819 348q84 0 153.5 25.5t115.5 67.5t77.5 97.5t45.5 112.5t14 115
q0 147 -88.5 233t-249.5 86q-84 0 -153.5 -25.5t-115.5 -67.5t-77.5 -97t-45.5 -112t-14 -115q0 -147 89 -233.5t249 -86.5z" />
    <glyph glyph-name="omacron" unicode="&#x14d;" horiz-adv-x="1175" 
d="M1081 1393l-47 -238h-680l47 238h680zM551 -31q-110 0 -203 28t-164 83t-111 143.5t-40 202.5q0 115 41.5 215.5t117 175t187.5 117.5t246 43q110 0 203 -28t164 -83t111 -143.5t40 -202.5q0 -115 -41.5 -215.5t-117 -175t-187.5 -117.5t-246 -43zM571 299
q92 0 143.5 59.5t51.5 135.5q0 78 -47 115.5t-115 37.5q-92 0 -143 -59t-51 -135q0 -78 46.5 -116t114.5 -38z" />
    <glyph glyph-name="Obreve" unicode="&#x14e;" horiz-adv-x="1611" 
d="M1374 1769q-40 -129 -152.5 -202.5t-273.5 -73.5t-245.5 73.5t-75.5 202.5h250q-3 -36 24.5 -57.5t83.5 -21.5t93 21.5t48 57.5h248zM795 -31q-321 0 -517 185t-196 497q0 167 60 316t166.5 259t263 174t339.5 64q321 0 517 -185t196 -497q0 -167 -60 -316t-166.5 -259
t-263 -174t-339.5 -64zM819 348q84 0 153.5 25.5t115.5 67.5t77.5 97.5t45.5 112.5t14 115q0 147 -88.5 233t-249.5 86q-84 0 -153.5 -25.5t-115.5 -67.5t-77.5 -97t-45.5 -112t-14 -115q0 -147 89 -233.5t249 -86.5z" />
    <glyph glyph-name="obreve" unicode="&#x14f;" horiz-adv-x="1175" 
d="M1120 1434q-10 -55 -29 -104.5t-53.5 -97.5t-80.5 -82.5t-113 -55.5t-148 -21q-50 0 -96.5 9t-90 29.5t-76 51.5t-52 78t-19.5 105q0 31 11 88h217q-2 -10 -2 -31q0 -47 26.5 -79t92.5 -32q44 0 76 13t50.5 37t27 44t16.5 48h243zM551 -31q-110 0 -203 28t-164 83
t-111 143.5t-40 202.5q0 115 41.5 215.5t117 175t187.5 117.5t246 43q110 0 203 -28t164 -83t111 -143.5t40 -202.5q0 -115 -41.5 -215.5t-117 -175t-187.5 -117.5t-246 -43zM571 299q92 0 143.5 59.5t51.5 135.5q0 78 -47 115.5t-115 37.5q-92 0 -143 -59t-51 -135
q0 -78 46.5 -116t114.5 -38z" />
    <glyph glyph-name="Ohungarumlaut" unicode="&#x150;" horiz-adv-x="1611" 
d="M1241 1767l-283 -245h-256l267 245h272zM1599 1767l-282 -245h-256l266 245h272zM795 -31q-321 0 -517 185t-196 497q0 167 60 316t166.5 259t263 174t339.5 64q321 0 517 -185t196 -497q0 -167 -60 -316t-166.5 -259t-263 -174t-339.5 -64zM819 348q84 0 153.5 25.5
t115.5 67.5t77.5 97.5t45.5 112.5t14 115q0 147 -88.5 233t-249.5 86q-84 0 -153.5 -25.5t-115.5 -67.5t-77.5 -97t-45.5 -112t-14 -115q0 -147 89 -233.5t249 -86.5z" />
    <glyph glyph-name="ohungarumlaut" unicode="&#x151;" horiz-adv-x="1175" 
d="M981 1448l-367 -315h-272l332 315h307zM1391 1448l-367 -315h-272l331 315h308zM551 -31q-110 0 -203 28t-164 83t-111 143.5t-40 202.5q0 115 41.5 215.5t117 175t187.5 117.5t246 43q110 0 203 -28t164 -83t111 -143.5t40 -202.5q0 -115 -41.5 -215.5t-117 -175
t-187.5 -117.5t-246 -43zM571 299q92 0 143.5 59.5t51.5 135.5q0 78 -47 115.5t-115 37.5q-92 0 -143 -59t-51 -135q0 -78 46.5 -116t114.5 -38z" />
    <glyph glyph-name="OE" unicode="&#x152;" horiz-adv-x="2267" 
d="M2292 1077h-525l-32 -170h460l-65 -338h-461l-41 -213h555l-69 -356h-945l21 104q-188 -135 -418 -135q-204 0 -360 82.5t-243 237.5t-87 360q0 168 61 317.5t168.5 259.5t264 174t337.5 64q309 0 500 -207l35 177h913zM817 348q82 0 151 25t115.5 67t79 97.5t47.5 114.5
t15 120q0 140 -89 226.5t-247 86.5q-102 0 -182.5 -38t-128.5 -100t-72.5 -135t-24.5 -150q0 -140 89 -227t247 -87z" />
    <glyph glyph-name="oe" unicode="&#x153;" horiz-adv-x="1861" 
d="M1853 592q0 -87 -30 -207h-660q36 -125 203 -125q124 0 270 64l95 -277q-194 -78 -388 -78q-248 0 -395 129q-157 -129 -397 -129q-110 0 -203 28t-164 83t-111 143.5t-40 202.5q0 115 41.5 215.5t117 175t187.5 117.5t246 43q236 0 376 -119q149 117 381 117
q212 0 341.5 -100.5t129.5 -282.5zM1501 582q4 24 4 39q0 52 -37 80t-100 28q-141 0 -197 -147h330zM571 299q92 0 143.5 59.5t51.5 135.5q0 78 -47 115.5t-115 37.5q-92 0 -143 -59t-51 -135q0 -78 46.5 -116t114.5 -38z" />
    <glyph glyph-name="Racute" unicode="&#x154;" horiz-adv-x="1355" 
d="M1296 1767l-430 -245h-268l309 245h389zM1370 999q0 -75 -22 -145t-67 -135.5t-124 -116.5t-184 -78l291 -524h-443l-297 584l-2 2l-112 -586h-390l279 1434h551q243 0 381.5 -119.5t138.5 -315.5zM621 1090l-60 -308h178q109 0 163 47.5t54 120.5q0 72 -49.5 106
t-124.5 34h-161z" />
    <glyph glyph-name="racute" unicode="&#x155;" horiz-adv-x="765" 
d="M1083 1448l-434 -315h-287l324 315h397zM854 975l-70 -357h-22q-157 0 -232.5 -63.5t-103.5 -208.5l-68 -346h-378l184 946h352l-35 -176h4q33 65 71 106.5t85 62.5t94.5 28.5t114.5 7.5h4z" />
    <glyph glyph-name="Rcommaaccent" unicode="&#x156;" horiz-adv-x="1355" 
d="M1370 999q0 -75 -22 -145t-67 -135.5t-124 -116.5t-184 -78l291 -524h-443l-297 584l-2 2l-112 -586h-390l279 1434h551q243 0 381.5 -119.5t138.5 -315.5zM621 1090l-60 -308h178q109 0 163 47.5t54 120.5q0 72 -49.5 106t-124.5 34h-161zM389 -307l41 211h328l-41 -211
l-191 -123h-129l109 123h-117z" />
    <glyph glyph-name="rcommaaccent" unicode="&#x157;" horiz-adv-x="765" 
d="M850 975h4l-70 -357h-22q-157 0 -232.5 -63.5t-103.5 -208.5l-68 -346h-378l184 946h352l-35 -176h4q33 65 71 106.5t85 62.5t94.5 28.5t114.5 7.5zM-55 -307l41 211h327l-41 -211l-190 -123h-129l108 123h-116z" />
    <glyph glyph-name="Rcaron" unicode="&#x158;" horiz-adv-x="1355" 
d="M940 1522h-358l-199 245h307l92 -127l144 127h307zM1370 999q0 -75 -22 -145t-67 -135.5t-124 -116.5t-184 -78l291 -524h-443l-297 584l-2 2l-112 -586h-390l279 1434h551q243 0 381.5 -119.5t138.5 -315.5zM621 1090l-60 -308h178q109 0 163 47.5t54 120.5
q0 72 -49.5 106t-124.5 34h-161z" />
    <glyph glyph-name="rcaron" unicode="&#x159;" horiz-adv-x="765" 
d="M352 1118l-186 316h287l88 -156l161 156h316l-309 -316h-357zM854 975l-70 -357h-22q-157 0 -232.5 -63.5t-103.5 -208.5l-68 -346h-378l184 946h352l-35 -176h4q33 65 71 106.5t85 62.5t94.5 28.5t114.5 7.5h4z" />
    <glyph glyph-name="Sacute" unicode="&#x15a;" horiz-adv-x="1114" 
d="M1298 1767l-430 -245h-268l309 245h389zM541 -29q-311 0 -586 215l217 312q218 -168 371 -168q48 0 76 19t28 57q0 27 -16.5 49t-69.5 71l-180 168q-168 155 -168 365q0 184 124.5 294.5t342.5 110.5q265 0 518 -157l-199 -312q-70 47 -158 80t-157 33q-36 0 -56 -13.5
t-20 -37.5q0 -9 3 -18t9.5 -19t12 -18t16.5 -19l17 -17t19 -18t17 -16l189 -180q156 -150 156 -359q0 -210 -137 -316t-369 -106z" />
    <glyph glyph-name="sacute" unicode="&#x15b;" horiz-adv-x="903" 
d="M1202 1448l-434 -315h-287l324 315h397zM100 381q209 -135 320 -135q49 0 49 28t-47 54l-98 59q-103 61 -148 129t-45 160q0 149 102 225t289 76q200 0 434 -105l-122 -258q-183 97 -275 97q-49 0 -49 -29q0 -18 46 -44q7 -5 11 -7l86 -49q104 -59 149.5 -126.5
t45.5 -170.5q0 -316 -399 -316q-140 0 -258.5 39t-247.5 121z" />
    <glyph glyph-name="Scircumflex" unicode="&#x15c;" horiz-adv-x="1114" 
d="M979 1767l199 -245h-308l-94 129l-141 -129h-307l293 245h358zM541 -29q-311 0 -586 215l217 312q218 -168 371 -168q48 0 76 19t28 57q0 27 -16.5 49t-69.5 71l-180 168q-168 155 -168 365q0 184 124.5 294.5t342.5 110.5q265 0 518 -157l-199 -312q-70 47 -158 80
t-157 33q-36 0 -56 -13.5t-20 -37.5q0 -9 3 -18t9.5 -19t12 -18t16.5 -19l17 -17t19 -18t17 -16l189 -180q156 -150 156 -359q0 -210 -137 -316t-369 -106z" />
    <glyph glyph-name="scircumflex" unicode="&#x15d;" horiz-adv-x="903" 
d="M893 1448l186 -315h-286l-93 155l-157 -155h-316l310 315h356zM100 381q209 -135 320 -135q49 0 49 28t-47 54l-98 59q-103 61 -148 129t-45 160q0 149 102 225t289 76q200 0 434 -105l-122 -258q-183 97 -275 97q-49 0 -49 -29q0 -18 46 -44q7 -5 11 -7l86 -49
q104 -59 149.5 -126.5t45.5 -170.5q0 -316 -399 -316q-140 0 -258.5 39t-247.5 121z" />
    <glyph glyph-name="Scedilla" unicode="&#x15e;" horiz-adv-x="1114" 
d="M891 752q156 -150 156 -359q0 -210 -137 -316t-369 -106h-27l-29 -47q81 -10 122.5 -42t41.5 -79q0 -81 -104 -133q-65 -33 -265 -88q-38 -11 -57 -16l-22 88q112 42 146 62t34 42q0 20 -19.5 29t-66.5 18l106 177q-231 35 -446 204l217 312q218 -168 371 -168
q48 0 76 19t28 57q0 27 -16.5 49t-69.5 71l-180 168q-168 155 -168 365q0 184 124.5 294.5t342.5 110.5q265 0 518 -157l-199 -312q-70 47 -158 80t-157 33q-36 0 -56 -13.5t-20 -37.5q0 -9 3 -18t9.5 -19t12 -18t16.5 -19l17 -17t19 -18t17 -16z" />
    <glyph glyph-name="scedilla" unicode="&#x15f;" horiz-adv-x="903" 
d="M653 582q104 -59 149.5 -126.5t45.5 -170.5q0 -316 -399 -316h-3l-26 -45q81 -10 122.5 -42t41.5 -79q0 -81 -104 -133q-65 -33 -265 -88q-38 -11 -57 -16l-23 88q112 42 146 62t34 42q0 20 -19.5 29t-66.5 18l103 172q-183 21 -389 152l157 252q209 -135 320 -135
q49 0 49 28t-47 54l-98 59q-103 61 -148 129t-45 160q0 149 102 225t289 76q200 0 434 -105l-122 -258q-183 97 -275 97q-49 0 -49 -29q0 -18 46 -44q7 -5 11 -7z" />
    <glyph glyph-name="Scaron" unicode="&#x160;" horiz-adv-x="1114" 
d="M942 1522h-358l-199 245h307l92 -127l144 127h307zM541 -29q-311 0 -586 215l217 312q218 -168 371 -168q48 0 76 19t28 57q0 27 -16.5 49t-69.5 71l-180 168q-168 155 -168 365q0 184 124.5 294.5t342.5 110.5q265 0 518 -157l-199 -312q-70 47 -158 80t-157 33
q-36 0 -56 -13.5t-20 -37.5q0 -9 3 -18t9.5 -19t12 -18t16.5 -19l17 -17t19 -18t17 -16l189 -180q156 -150 156 -359q0 -210 -137 -316t-369 -106z" />
    <glyph glyph-name="scaron" unicode="&#x161;" horiz-adv-x="903" 
d="M471 1118l-186 316h286l88 -156l162 156h316l-310 -316h-356zM100 381q209 -135 320 -135q49 0 49 28t-47 54l-98 59q-103 61 -148 129t-45 160q0 149 102 225t289 76q200 0 434 -105l-122 -258q-183 97 -275 97q-49 0 -49 -29q0 -18 46 -44q7 -5 11 -7l86 -49
q104 -59 149.5 -126.5t45.5 -170.5q0 -316 -399 -316q-140 0 -258.5 39t-247.5 121z" />
    <glyph glyph-name="uni0162" unicode="&#x162;" horiz-adv-x="1126" 
d="M1303 1434l-70 -357h-356l-209 -1077h-140l-47 -76q81 -10 122.5 -42t41.5 -79q0 -81 -104 -133q-65 -33 -265 -88q-38 -11 -57 -16l-22 88q112 42 146 62t34 42q0 20 -19.5 29t-66.5 18l117 195h-134l209 1077h-356l70 357h1106z" />
    <glyph glyph-name="uni0163" unicode="&#x163;" horiz-adv-x="790" 
d="M610 635l-30 -154q-9 -37 -9 -63q0 -36 19.5 -51t64.5 -15h33l-67 -352h-138l-47 -76q81 -10 122.5 -42t41.5 -79q0 -81 -104 -133q-65 -33 -265 -88q-38 -11 -57 -16l-22 88q112 42 146 62t34 42q0 20 -19.5 29t-66.5 18l121 203q-96 20 -146.5 88.5t-50.5 175.5
q0 41 10 99l51 264h-190l61 311h191l74 379h376l-73 -379h202l-61 -311h-201z" />
    <glyph glyph-name="Tcaron" unicode="&#x164;" horiz-adv-x="1126" 
d="M926 1522h-359l-198 245h307l92 -127l143 127h308zM1303 1434l-70 -357h-356l-209 -1077h-394l209 1077h-356l70 357h1106z" />
    <glyph glyph-name="tcaron" unicode="&#x165;" horiz-adv-x="1060" 
d="M911 1464h332l-65 -329l-209 -127h-158l135 127h-100zM743 1325l-73 -379h202l-61 -311h-201l-30 -154q-9 -37 -9 -63q0 -36 19.5 -51t64.5 -15h33l-67 -352h-175q-133 0 -204.5 72t-71.5 200q0 41 10 99l51 264h-190l61 311h191l74 379h376z" />
    <glyph glyph-name="Tbar" unicode="&#x166;" horiz-adv-x="1126" 
d="M1233 1077h-356l-25 -131h190l-51 -266h-190l-133 -680h-394l134 680h-193l51 266h193l24 131h-356l70 357h1106z" />
    <glyph glyph-name="tbar" unicode="&#x167;" horiz-adv-x="790" 
d="M811 635h-201l-12 -62h156l-23 -118h-158q-2 -14 -2 -37q0 -36 19.5 -51t64.5 -15h33l-67 -352h-175q-133 0 -204.5 72t-71.5 200q0 41 10 99l17 84h-148l23 118h147l12 62h-190l61 311h191l74 379h376l-73 -379h202z" />
    <glyph glyph-name="Utilde" unicode="&#x168;" horiz-adv-x="1447" 
d="M1290 1806l103 -39q-60 -128 -127 -194t-164 -66q-55 0 -132 23.5t-144 47.5t-97 24q-25 0 -50.5 -14.5t-41.5 -29.5t-39 -40l-102 38q61 128 127 194.5t163 66.5q55 0 132 -23.5t144 -47.5t97 -24q25 0 50.5 14.5t41.5 29.5t39 40zM1378 596q-53 -294 -224 -457.5
t-466 -163.5q-366 0 -498.5 177t-56.5 532l148 750h415l-161 -828q-22 -109 15.5 -175t151.5 -66q214 0 263 241l161 828h416z" />
    <glyph glyph-name="utilde" unicode="&#x169;" horiz-adv-x="1191" 
d="M618 1452q69 0 189 -43t151 -43q67 0 132 94l127 -49q-70 -149 -142.5 -225t-173.5 -76q-68 0 -189.5 43t-152.5 43q-37 0 -67 -25.5t-62 -68.5l-127 49q70 149 142.5 225t172.5 76zM346 -31q-137 0 -219 75t-82 232q0 60 16 148l105 522h395l-84 -432q-10 -46 -10 -96
q0 -125 106 -125q67 0 104 49t58 158l86 446h381l-184 -946h-367l33 164h-4q-75 -106 -155 -150.5t-179 -44.5z" />
    <glyph glyph-name="Umacron" unicode="&#x16a;" horiz-adv-x="1447" 
d="M1323 1743l-43 -223h-707l43 223h707zM1378 596q-53 -294 -224 -457.5t-466 -163.5q-366 0 -498.5 177t-56.5 532l148 750h415l-161 -828q-22 -109 15.5 -175t151.5 -66q214 0 263 241l161 828h416z" />
    <glyph glyph-name="umacron" unicode="&#x16b;" horiz-adv-x="1191" 
d="M1112 1393l-47 -238h-680l47 238h680zM346 -31q-137 0 -219 75t-82 232q0 60 16 148l105 522h395l-84 -432q-10 -46 -10 -96q0 -125 106 -125q67 0 104 49t58 158l86 446h381l-184 -946h-367l33 164h-4q-75 -106 -155 -150.5t-179 -44.5z" />
    <glyph glyph-name="Ubreve" unicode="&#x16c;" horiz-adv-x="1447" 
d="M1350 1769q-40 -129 -152.5 -202.5t-273.5 -73.5t-246 73.5t-76 202.5h250q-3 -36 25 -57.5t84 -21.5t93 21.5t48 57.5h248zM1378 596q-53 -294 -224 -457.5t-466 -163.5q-366 0 -498.5 177t-56.5 532l148 750h415l-161 -828q-22 -109 15.5 -175t151.5 -66q214 0 263 241
l161 828h416z" />
    <glyph glyph-name="ubreve" unicode="&#x16d;" horiz-adv-x="1191" 
d="M1151 1434q-10 -55 -29 -104.5t-53.5 -97.5t-80.5 -82.5t-113 -55.5t-148 -21q-50 0 -96.5 9t-90 29.5t-76 51.5t-52 78t-19.5 105q0 36 10 88h218q-3 -15 -3 -31q0 -47 26.5 -79t92.5 -32q44 0 76 13t50.5 37t27 44t16.5 48h244zM346 -31q-137 0 -219 75t-82 232
q0 60 16 148l105 522h395l-84 -432q-10 -46 -10 -96q0 -125 106 -125q67 0 104 49t58 158l86 446h381l-184 -946h-367l33 164h-4q-75 -106 -155 -150.5t-179 -44.5z" />
    <glyph glyph-name="Uring" unicode="&#x16e;" horiz-adv-x="1447" 
d="M1141 1434h401l-164 -838q-53 -294 -224 -457.5t-466 -163.5q-366 0 -498.5 177t-56.5 532l148 750h401q-10 38 -10 73q0 112 78.5 187t195.5 75q103 0 163 -58.5t60 -158.5q0 -64 -28 -118zM930 1626q-46 0 -76.5 -33t-30.5 -80q0 -37 23.5 -58t64.5 -21q46 0 76.5 32.5
t30.5 79.5q0 37 -23.5 58.5t-64.5 21.5zM702 365q214 0 263 241l155 793q-37 -51 -96 -80t-129 -29q-73 0 -125.5 30.5t-77.5 86.5l-157 -801q-22 -109 15.5 -175t151.5 -66z" />
    <glyph glyph-name="uring" unicode="&#x16f;" horiz-adv-x="1191" 
d="M772 1530q103 0 163 -58.5t60 -158.5q0 -112 -78.5 -187t-195.5 -75q-103 0 -163 58.5t-60 158.5q0 112 78.5 187t195.5 75zM756 1386q-46 0 -76.5 -32.5t-30.5 -79.5q0 -37 23.5 -58.5t64.5 -21.5q46 0 76.5 33t30.5 80q0 37 -23.5 58t-64.5 21zM346 -31q-137 0 -219 75
t-82 232q0 60 16 148l105 522h395l-84 -432q-10 -46 -10 -96q0 -125 106 -125q67 0 104 49t58 158l86 446h381l-184 -946h-367l33 164h-4q-75 -106 -155 -150.5t-179 -44.5z" />
    <glyph glyph-name="Uhungarumlaut" unicode="&#x170;" horiz-adv-x="1447" 
d="M1217 1767l-283 -245h-256l266 245h273zM1575 1767l-283 -245h-256l267 245h272zM1378 596q-53 -294 -224 -457.5t-466 -163.5q-366 0 -498.5 177t-56.5 532l148 750h415l-161 -828q-22 -109 15.5 -175t151.5 -66q214 0 263 241l161 828h416z" />
    <glyph glyph-name="uhungarumlaut" unicode="&#x171;" horiz-adv-x="1191" 
d="M1012 1448l-367 -315h-272l332 315h307zM1421 1448l-366 -315h-273l332 315h307zM346 -31q-137 0 -219 75t-82 232q0 60 16 148l105 522h395l-84 -432q-10 -46 -10 -96q0 -125 106 -125q67 0 104 49t58 158l86 446h381l-184 -946h-367l33 164h-4q-75 -106 -155 -150.5
t-179 -44.5z" />
    <glyph glyph-name="Uogonek" unicode="&#x172;" horiz-adv-x="1447" 
d="M1126 1434h416l-164 -838q-49 -272 -200.5 -432.5t-407.5 -183.5q-89 -59 -125.5 -90.5t-36.5 -57.5q0 -15 13 -25t34 -10q24 0 76 10v-221q-111 -26 -174 -26q-221 0 -221 174q0 72 42.5 131t137.5 123q-266 39 -358 213t-25 483l148 750h415l-161 -828
q-22 -109 15.5 -175t151.5 -66q214 0 263 241z" />
    <glyph glyph-name="uogonek" unicode="&#x173;" horiz-adv-x="1191" 
d="M874 0q-107 -69 -150.5 -105t-43.5 -63q0 -15 13 -25t34 -10q24 0 76 10v-221q-110 -26 -174 -26q-221 0 -221 174q0 84 58 151t191 146l27 133h-4q-75 -106 -155 -150.5t-179 -44.5q-137 0 -219 75t-82 232q0 60 16 148l105 522h395l-84 -432q-10 -46 -10 -96
q0 -125 106 -125q67 0 104 49t58 158l86 446h381l-184 -946h-144z" />
    <glyph glyph-name="Wcircumflex" unicode="&#x174;" horiz-adv-x="2310" 
d="M1530 1767l199 -245h-308l-94 129l-141 -129h-307l292 245h359zM2486 1434l-794 -1434h-324l-143 825h-4l-463 -825h-324l-237 1434h432l78 -785h4l440 785h328l141 -785h4l381 785h481z" />
    <glyph glyph-name="wcircumflex" unicode="&#x175;" horiz-adv-x="1751" 
d="M1034 1288l-157 -155h-316l309 315h357l186 -315h-287zM1456 946h387l-547 -946h-315l-107 479l-288 -479h-314l-180 946h342l76 -469l266 469h340l88 -471z" />
    <glyph glyph-name="Ycircumflex" unicode="&#x176;" horiz-adv-x="1480" 
d="M913 1651l-141 -129h-307l293 245h358l199 -245h-307zM1677 1434l-743 -959l-92 -475h-389l94 483l-371 951h440l172 -576h5l395 576h489z" />
    <glyph glyph-name="ycircumflex" unicode="&#x177;" horiz-adv-x="1189" 
d="M770 1288l-158 -155h-315l309 315h357l186 -315h-287zM883 946h399l-842 -1356h-403l338 516l-283 840h385l123 -475z" />
    <glyph glyph-name="Ydieresis" unicode="&#x178;" horiz-adv-x="1480" 
d="M870 1767l-47 -245h-309l47 245h309zM1323 1767l-47 -245h-309l47 245h309zM1677 1434l-743 -959l-92 -475h-389l94 483l-371 951h440l172 -576h5l395 576h489z" />
    <glyph glyph-name="Zacute" unicode="&#x179;" horiz-adv-x="1200" 
d="M1315 1767l-430 -245h-269l310 245h389zM205 1077l69 357h1035l-70 -357l-731 -721h639l-70 -356h-1138l69 356l742 721h-545z" />
    <glyph glyph-name="zacute" unicode="&#x17a;" horiz-adv-x="946" 
d="M1157 1448l-434 -315h-287l324 315h397zM991 946l-49 -256h2l-471 -385h420l-59 -305h-906l54 270l458 373h-346l60 303h837z" />
    <glyph glyph-name="Zdotaccent" unicode="&#x17b;" horiz-adv-x="1200" 
d="M1026 1815l-57 -293h-340l57 293h340zM1309 1434l-70 -357l-731 -721h639l-70 -356h-1138l69 356l742 721h-545l69 357h1035z" />
    <glyph glyph-name="zdotaccent" unicode="&#x17c;" horiz-adv-x="946" 
d="M858 1434l-70 -355h-387l70 355h387zM942 690h2l-471 -385h420l-59 -305h-906l54 270l458 373h-346l60 303h837z" />
    <glyph glyph-name="Zcaron" unicode="&#x17d;" horiz-adv-x="1200" 
d="M958 1522h-358l-199 245h308l92 -127l143 127h307zM1309 1434l-70 -357l-731 -721h639l-70 -356h-1138l69 356l742 721h-545l69 357h1035z" />
    <glyph glyph-name="zcaron" unicode="&#x17e;" horiz-adv-x="946" 
d="M782 1118h-356l-186 316h286l88 -156l162 156h316zM991 946l-49 -256h2l-471 -385h420l-59 -305h-906l54 270l458 373h-346l60 303h837z" />
    <glyph glyph-name="florin" unicode="&#x192;" horiz-adv-x="851" 
d="M852 1073q-126 0 -166 -127h180l-12 -61h-182l-166 -860q-44 -228 -164 -331.5t-309 -103.5h-162l63 332h86q58 0 98.5 35.5t53.5 103.5l162 824h-201l12 61h201v2q43 221 161.5 338t330.5 117h153l-63 -330h-76z" />
    <glyph glyph-name="AEacute" unicode="&#x1fc;" horiz-adv-x="2170" 
d="M2222 1767l-430 -245h-268l309 245h389zM2195 1077h-483l-33 -170h420l-65 -338h-420l-41 -213h514l-70 -356h-610h-283l52 268h-549l-221 -268h-498l1233 1434h641h483zM883 575h354l109 560z" />
    <glyph glyph-name="aeacute" unicode="&#x1fd;" horiz-adv-x="1726" 
d="M1552 1448l-434 -315h-287l324 315h397zM379 -31q-180 0 -278.5 85t-98.5 233q0 160 113 257t293 97q113 0 192 -38t111 -101h4q0 11 3 28t3 21q14 88 -27 129t-157 41q-83 0 -263 -25l-51 248q219 33 352 33q159 0 248 -39.5t119 -136.5h4q52 83 143.5 128.5t215.5 45.5
q83 0 154 -21.5t129.5 -66t92 -122t33.5 -181.5q0 -75 -26 -199h-641q8 -44 28 -73t49.5 -41.5t54.5 -16.5t60 -4q133 0 262 53l86 -264q-190 -70 -373 -70q-136 0 -246 45t-169 148h-4q-149 -193 -416 -193zM1077 580h291q2 10 2 30q0 56 -33.5 85.5t-93.5 29.5
q-69 0 -112 -39.5t-54 -105.5zM551 227q60 0 95.5 30.5t35.5 74.5q0 40 -31 66t-86 26q-60 0 -95.5 -30.5t-35.5 -74.5q0 -40 31 -66t86 -26z" />
    <glyph glyph-name="Oslashacute" unicode="&#x1fe;" horiz-adv-x="1611" 
d="M1397 1767l-430 -245h-269l310 245h389zM1452 1255q172 -185 172 -473q0 -167 -60 -316t-166.5 -259t-263 -174t-339.5 -64q-268 0 -455 133l-125 -131l-86 74l127 131q-174 183 -174 475q0 167 60 316t166.5 259t263 174t339.5 64q271 0 455 -133l127 131l86 -73z
M481 668q0 -117 58 -197l546 567q-80 47 -198 47q-84 0 -153.5 -25.5t-115.5 -67.5t-77.5 -97t-45.5 -112t-14 -115zM819 348q84 0 153.5 25.5t115.5 67.5t77.5 97.5t45.5 112.5t14 115q0 118 -58 197l-544 -568q80 -47 196 -47z" />
    <glyph glyph-name="oslashacute" unicode="&#x1ff;" horiz-adv-x="1175" 
d="M1214 1448l-434 -315h-286l323 315h397zM1120 915l-90 -84q113 -119 113 -311q0 -115 -41.5 -215.5t-117 -175t-187.5 -117.5t-246 -43q-209 0 -346 94l-113 -104l-78 72l113 104q-94 118 -94 291q0 115 41.5 215.5t117 175t187.5 117.5t246 43q188 0 321 -80l98 92z
M410 453q0 -29 6 -50l252 234q-25 10 -64 10q-92 0 -143 -59t-51 -135zM766 494q0 43 -16 75l-269 -250q39 -20 90 -20q92 0 143.5 59.5t51.5 135.5z" />
    <glyph glyph-name="Scommaaccent" unicode="&#x218;" horiz-adv-x="1114" 
d="M891 752q156 -150 156 -359q0 -210 -137 -316t-369 -106q-311 0 -586 215l217 312q218 -168 371 -168q48 0 76 19t28 57q0 27 -16.5 49t-69.5 71l-180 168q-168 155 -168 365q0 184 124.5 294.5t342.5 110.5q265 0 518 -157l-199 -312q-70 47 -158 80t-157 33
q-36 0 -56 -13.5t-20 -37.5q0 -9 3 -18t9.5 -19t12 -18t16.5 -19l17 -17t19 -18t17 -16zM252 -307l41 211h328l-41 -211l-191 -123h-129l109 123h-117z" />
    <glyph glyph-name="scommaaccent" unicode="&#x219;" horiz-adv-x="903" 
d="M653 582q104 -59 149.5 -126.5t45.5 -170.5q0 -316 -399 -316q-140 0 -258.5 39t-247.5 121l157 252q209 -135 320 -135q49 0 49 28t-47 54l-98 59q-103 61 -148 129t-45 160q0 149 102 225t289 76q200 0 434 -105l-122 -258q-183 97 -275 97q-49 0 -49 -29q0 -18 46 -44
q7 -5 11 -7zM186 -307l41 211h328l-41 -211l-190 -123h-129l108 123h-117z" />
    <glyph glyph-name="uni021A" unicode="&#x21a;" horiz-adv-x="1126" 
d="M1303 1434l-70 -357h-356l-209 -1077h-394l209 1077h-356l70 357h1106zM248 -307l41 211h327l-41 -211l-190 -123h-129l109 123h-117z" />
    <glyph glyph-name="uni021B" unicode="&#x21b;" horiz-adv-x="790" 
d="M610 635l-30 -154q-9 -37 -9 -63q0 -36 19.5 -51t64.5 -15h33l-67 -352h-175q-133 0 -204.5 72t-71.5 200q0 41 10 99l51 264h-190l61 311h191l74 379h376l-73 -379h202l-61 -311h-201zM203 -307l41 211h327l-41 -211l-190 -123h-129l108 123h-116z" />
    <glyph glyph-name="uni0237" unicode="&#x237;" horiz-adv-x="542" 
d="M-201 -63h45q70 0 109 30.5t51 95.5l172 883h377l-176 -903q-47 -247 -172.5 -353t-368.5 -106h-104z" />
    <glyph glyph-name="uni02BC" unicode="&#x2bc;" horiz-adv-x="477" 
d="M266 1464h332l-66 -329l-311 -332h-137l235 332h-118z" />
    <glyph glyph-name="circumflex" unicode="&#x2c6;" horiz-adv-x="1056" 
d="M897 1448l186 -315h-286l-92 155l-158 -155h-316l310 315h356z" />
    <glyph glyph-name="caron" unicode="&#x2c7;" horiz-adv-x="1056" 
d="M475 1118l-186 316h286l89 -156l161 156h316l-310 -316h-356z" />
    <glyph glyph-name="breve" unicode="&#x2d8;" horiz-adv-x="952" 
d="M1036 1434q-10 -55 -29 -104.5t-53.5 -97.5t-80.5 -82.5t-113 -55.5t-148 -21q-63 0 -120 15t-106 45.5t-78 85.5t-29 127q0 36 10 88h217q-2 -10 -2 -31q0 -47 26.5 -79t92.5 -32q44 0 76 13t50.5 37t27 44t16.5 48h243z" />
    <glyph glyph-name="dotaccent" unicode="&#x2d9;" horiz-adv-x="593" 
d="M678 1434l-70 -355h-387l70 355h387z" />
    <glyph glyph-name="ring" unicode="&#x2da;" horiz-adv-x="688" 
d="M537 1530q103 0 163 -58.5t60 -158.5q0 -112 -79 -187t-196 -75q-103 0 -163 58.5t-60 158.5q0 112 79 187t196 75zM520 1386q-46 0 -76 -32t-30 -80q0 -37 23.5 -58.5t64.5 -21.5q45 0 75.5 32.5t30.5 80.5q0 37 -23.5 58t-64.5 21z" />
    <glyph glyph-name="ogonek" unicode="&#x2db;" horiz-adv-x="653" 
d="M254 49l219 -29q-127 -80 -177 -119t-50 -69q0 -15 13 -25t34 -10q24 0 76 10v-221q-111 -26 -174 -26q-222 0 -222 174q0 88 64.5 157.5t216.5 157.5z" />
    <glyph glyph-name="tilde" unicode="&#x2dc;" horiz-adv-x="1067" 
d="M549 1452q69 0 189 -43t151 -43q66 0 131 94l127 -49q-70 -149 -142.5 -225t-173.5 -76q-68 0 -189.5 43t-152.5 43q-37 0 -67 -25.5t-62 -68.5l-127 49q70 148 143 224.5t173 76.5z" />
    <glyph glyph-name="hungarumlaut" unicode="&#x2dd;" horiz-adv-x="1171" 
d="M870 1448l-366 -315h-273l332 315h307zM1280 1448l-367 -315h-272l332 315h307z" />
    <glyph glyph-name="gravecomb" unicode="&#x300;" horiz-adv-x="0" 
d="M-176 1448l203 -315h-277l-323 315h397z" />
    <glyph glyph-name="acutecomb" unicode="&#x301;" horiz-adv-x="0" 
d="M88 1448l-434 -315h-287l324 315h397z" />
    <glyph glyph-name="uni0302" unicode="&#x302;" horiz-adv-x="0" 
d="M-160 1448l187 -315h-287l-92 155l-158 -155h-315l309 315h356z" />
    <glyph glyph-name="tildecomb" unicode="&#x303;" horiz-adv-x="0" 
d="M-518 1452q69 0 189 -43t151 -43q66 0 131 94l127 -49q-70 -149 -142.5 -225t-173.5 -76q-68 0 -189.5 43t-152.5 43q-37 0 -67 -25.5t-62 -68.5l-127 49q70 148 143 224.5t173 76.5z" />
    <glyph glyph-name="uni0304" unicode="&#x304;" horiz-adv-x="0" 
d="M76 1393l-47 -238h-680l47 238h680z" />
    <glyph glyph-name="uni0306" unicode="&#x306;" horiz-adv-x="0" 
d="M84 1434q-10 -55 -29 -104.5t-53.5 -97.5t-80.5 -82.5t-113 -55.5t-148 -21q-50 0 -96.5 9t-90 29.5t-76 51.5t-52 78t-19.5 105q0 36 10 88h218q-3 -15 -3 -31q0 -47 26.5 -79t92.5 -32q44 0 76 13t50.5 37t27 44t16.5 48h244z" />
    <glyph glyph-name="uni0307" unicode="&#x307;" horiz-adv-x="0" 
d="M84 1434l-70 -355h-387l70 355h387z" />
    <glyph glyph-name="uni0308" unicode="&#x308;" horiz-adv-x="0" 
d="M-668 1116l58 297h284l-57 -297h-285zM-262 1116l57 297h285l-57 -297h-285z" />
    <glyph glyph-name="uni030A" unicode="&#x30a;" horiz-adv-x="0" 
d="M-168 1530q103 0 163 -58.5t60 -158.5q0 -112 -78.5 -187t-195.5 -75q-103 0 -163 58.5t-60 158.5q0 112 78.5 187t195.5 75zM-184 1386q-46 0 -76.5 -32.5t-30.5 -79.5q0 -37 23.5 -58.5t64.5 -21.5q46 0 76.5 33t30.5 80q0 37 -23.5 58t-64.5 21z" />
    <glyph glyph-name="uni030B" unicode="&#x30b;" horiz-adv-x="0" 
d="M-322 1448l-366 -315h-273l332 315h307zM88 1448l-367 -315h-272l332 315h307z" />
    <glyph glyph-name="uni030C" unicode="&#x30c;" horiz-adv-x="0" 
d="M-582 1118l-186 316h287l88 -156l162 156h315l-309 -316h-357z" />
    <glyph glyph-name="uni0326" unicode="&#x326;" horiz-adv-x="0" 
d="M-541 -96h328l-41 -211l-190 -123h-129l108 123h-117z" />
    <glyph glyph-name="uni0327" unicode="&#x327;" horiz-adv-x="0" 
d="M-299 88l-100 -164q81 -10 122 -42t41 -79q0 -81 -104 -133q-65 -33 -265 -88q-38 -11 -57 -16l-22 88q112 42 146 62t34 42q0 20 -19.5 29t-66.5 18l170 283h121z" />
    <glyph glyph-name="uni0328" unicode="&#x328;" horiz-adv-x="0" 
d="M-410 49l220 -29q-129 -81 -178.5 -119.5t-49.5 -68.5q0 -15 13 -25t34 -10q24 0 76 10v-221q-110 -26 -174 -26q-221 0 -221 174q0 88 64 157.5t216 157.5z" />
    <glyph glyph-name="uni0394" unicode="&#x394;" horiz-adv-x="1286" 
d="M643 1434l510 -1434h-1204l510 1434h184zM551 848l-170 -572h340z" />
    <glyph glyph-name="uni03A9" unicode="&#x3a9;" horiz-adv-x="1667" 
d="M840 1464q319 0 509.5 -174t190.5 -450q0 -201 -113.5 -344t-279.5 -172l-2 -7h379v-317h-602l2 543q100 1 170.5 83.5t70.5 192.5q0 126 -87 204.5t-236 78.5q-151 0 -239.5 -78.5t-88.5 -202.5q0 -110 72 -193.5t174 -84.5l-2 -543h-600v317h377l2 7
q-167 27 -283.5 173t-116.5 351q0 131 49.5 244t139 195.5t222 129.5t292.5 47z" />
    <glyph glyph-name="uni03BC" unicode="&#x3bc;" horiz-adv-x="1189" 
d="M819 946h381l-184 -946h-367l33 164h-4q-75 -106 -155 -150.5t-179 -44.5h-18l-74 -379h-352l264 1356h395l-84 -432q-10 -46 -10 -96q0 -125 106 -125q67 0 104 49t58 158z" />
    <glyph glyph-name="pi" unicode="&#x3c0;" horiz-adv-x="1357" 
d="M1395 977l-62 -315h-166l-129 -662h-333l129 662h-156l-270 -662h-340l268 657q-125 -6 -246 -36l62 315q125 41 352 41h891z" />
    <glyph glyph-name="uni0401" unicode="&#x401;" horiz-adv-x="1118" 
d="M758 1767l-47 -245h-310l48 245h309zM1210 1767l-47 -245h-309l47 245h309zM1143 1077h-525l-32 -170h461l-66 -338h-461l-41 -213h555l-69 -356h-945l279 1434h913z" />
    <glyph glyph-name="uni0402" unicode="&#x402;" horiz-adv-x="1636" 
d="M1212 895q210 0 306 -60.5t96 -211.5q0 -59 -15 -129l-16 -82q-41 -210 -176.5 -311t-341.5 -101h-164l70 356h112q55 0 88 20t41 73l2 12q3 18 3 33q0 32 -24.5 47.5t-86.5 15.5q-79 0 -324 -22l-104 -535h-393l209 1073h-367l70 361h1218l-69 -361h-459l-39 -201
q228 23 364 23z" />
    <glyph glyph-name="uni0403" unicode="&#x403;" horiz-adv-x="1054" 
d="M1296 1767l-430 -245h-268l309 245h389zM1206 1434l-69 -357h-519l-208 -1077h-390l279 1434h907z" />
    <glyph glyph-name="uni0404" unicode="&#x404;" horiz-adv-x="1396" 
d="M821 348q156 0 334 96l160 -335q-245 -140 -506 -140q-328 0 -526.5 193.5t-198.5 505.5q0 132 37.5 252t111.5 219t176.5 172t240 113t294.5 40q164 0 305 -41.5t244 -109.5l-225 -326q-150 98 -328 98q-147 0 -251 -56t-157 -152h484l-62 -320h-452
q34 -98 118.5 -153.5t200.5 -55.5z" />
    <glyph glyph-name="uni0405" unicode="&#x405;" horiz-adv-x="1114" 
d="M541 -29q-311 0 -586 215l217 312q218 -168 371 -168q48 0 76 19t28 57q0 27 -16.5 49t-69.5 71l-180 168q-168 155 -168 365q0 184 124.5 294.5t342.5 110.5q265 0 518 -157l-199 -312q-70 47 -158 80t-157 33q-36 0 -56 -13.5t-20 -37.5q0 -9 3 -18t9.5 -19t12 -18
t16.5 -19l17 -17t19 -18t17 -16l189 -180q156 -150 156 -359q0 -210 -137 -316t-369 -106z" />
    <glyph glyph-name="uni0406" unicode="&#x406;" horiz-adv-x="614" 
d="M688 1434l-278 -1434h-390l279 1434h389z" />
    <glyph glyph-name="uni0407" unicode="&#x407;" horiz-adv-x="614" 
d="M461 1767l-47 -245h-310l48 245h309zM913 1767l-47 -245h-309l47 245h309zM688 1434l-278 -1434h-390l279 1434h389z" />
    <glyph glyph-name="uni0408" unicode="&#x408;" horiz-adv-x="675" 
d="M750 1434l-207 -1065q-38 -194 -156.5 -284.5t-327.5 -90.5h-120l69 356h78q26 0 48.5 20.5t27.5 45.5l198 1018h390z" />
    <glyph glyph-name="uni0409" unicode="&#x409;" horiz-adv-x="2222" 
d="M1712 969q107 0 193 -21.5t157 -69.5t110.5 -133.5t39.5 -203.5q0 -114 -37.5 -211t-110.5 -171.5t-190.5 -116.5t-267.5 -42h-641l209 1077h-484l-137 -708q-38 -194 -156 -284.5t-327 -90.5h-142l70 356h98q26 0 48.5 20.5t27.5 45.5l199 1018h389h581h291l-90 -465
h170zM1620 332q92 0 137 50t45 120q0 72 -46 103.5t-118 31.5h-161l-60 -305h203z" />
    <glyph glyph-name="uni040A" unicode="&#x40a;" horiz-adv-x="2156" 
d="M1647 969q84 0 155.5 -13t136 -44t109.5 -79t71.5 -122.5t26.5 -169.5q0 -114 -37.5 -211t-110.5 -171.5t-190.5 -116.5t-267.5 -42h-641l123 637h-490l-122 -637h-390l279 1434h389l-90 -465h489l91 465h389l-90 -465h170zM1554 332q92 0 137.5 50t45.5 120
q0 72 -46 103.5t-118 31.5h-162l-59 -305h202z" />
    <glyph glyph-name="uni040B" unicode="&#x40b;" horiz-adv-x="1585" 
d="M1130 926q224 0 327.5 -73.5t103.5 -231.5q0 -61 -15 -132l-94 -489h-389l72 365q14 74 14 110q0 94 -121 94h-274l-111 -569h-389l209 1073h-336l70 361h725h493l-69 -361h-494l-29 -147h307z" />
    <glyph glyph-name="uni040C" unicode="&#x40c;" horiz-adv-x="1550" 
d="M1477 1767l-430 -245h-269l309 245h390zM1692 1434l-742 -715l508 -719h-500l-419 664l-129 -664h-390l279 1434h389l-123 -629l596 629h531z" />
    <glyph glyph-name="uni040E" unicode="&#x40e;" horiz-adv-x="1492" 
d="M934 1470q-161 0 -249.5 69.5t-88.5 174.5q0 21 4 53h229q-2 -8 -2 -24q0 -40 31.5 -64t87.5 -24q65 0 100.5 31t45.5 81h258q-33 -144 -142.5 -220.5t-273.5 -76.5zM1239 1434h451l-979 -1434h-451l250 365l-334 1069h410l198 -666z" />
    <glyph glyph-name="uni040F" unicode="&#x40f;" horiz-adv-x="1499" 
d="M1573 1434l-279 -1434h-452l-56 -287h-368l55 287h-453l279 1434h389l-209 -1078h496l209 1078h389z" />
    <glyph glyph-name="uni0410" unicode="&#x410;" horiz-adv-x="1525" 
d="M1020 0l-35 268h-489l-140 -268h-448l835 1434h414l277 -1434h-414zM653 575h293l-59 451z" />
    <glyph glyph-name="uni0411" unicode="&#x411;" horiz-adv-x="1277" 
d="M768 969q107 0 193 -21.5t157 -69.5t110.5 -133.5t39.5 -203.5q0 -114 -37.5 -211t-110.5 -171.5t-190.5 -116.5t-267.5 -42h-642l279 1434h389h623l-64 -332h-624l-25 -133h170zM676 332q92 0 137 50t45 120q0 72 -46 103.5t-118 31.5h-162l-59 -305h203z" />
    <glyph glyph-name="uni0412" unicode="&#x412;" horiz-adv-x="1325" 
d="M1012 754q245 -50 245 -314q0 -93 -31.5 -168t-87 -125t-132.5 -83.5t-164.5 -48.5t-188.5 -15h-633l279 1434h590q207 0 323.5 -78.5t116.5 -239.5q0 -133 -80.5 -224t-236.5 -134v-4zM754 864q93 0 137.5 38.5t44.5 96.5q0 56 -41.5 84.5t-112.5 28.5h-155l-49 -248
h176zM657 322q109 0 159 42t50 111q0 66 -44 93.5t-136 27.5h-160l-53 -274h184z" />
    <glyph glyph-name="uni0413" unicode="&#x413;" horiz-adv-x="1030" 
d="M1206 1434l-69 -357h-519l-208 -1077h-390l279 1434h389h518z" />
    <glyph glyph-name="uni0414" unicode="&#x414;" horiz-adv-x="1587" 
d="M1575 1434l-219 -1133h188l-114 -588h-394l49 256h-780l-49 -256h-393l114 588h162q81 94 121.5 192.5t69.5 245.5l133 695h1112zM723 735q-30 -155 -63 -250t-99 -184h402l149 776h-324z" />
    <glyph glyph-name="uni0415" unicode="&#x415;" horiz-adv-x="1118" 
d="M1143 1077h-525l-32 -170h461l-66 -338h-461l-41 -213h555l-69 -356h-945l279 1434h913z" />
    <glyph glyph-name="uni0416" unicode="&#x416;" horiz-adv-x="2347" 
d="M2527 1434l-665 -723l403 -711h-485l-348 698l-136 -698h-368l135 698l-619 -698h-546l755 793l-340 641h465l299 -664l129 664h369l-129 -662l557 662h524z" />
    <glyph glyph-name="uni0417" unicode="&#x417;" horiz-adv-x="1271" 
d="M774 1464q248 0 376 -92t128 -248q0 -135 -89.5 -235.5t-244.5 -130.5l-2 -4q124 -24 191 -107.5t67 -226.5q0 -70 -16.5 -131t-61 -121t-113.5 -103t-181.5 -69.5t-258.5 -26.5q-360 0 -610 160l186 336q205 -137 430 -137q224 0 224 118q0 129 -293 129h-125l61 310
h129q145 0 219 42t74 105q0 42 -35 60t-108 18q-160 0 -404 -92l-139 323q129 54 286 88.5t310 34.5z" />
    <glyph glyph-name="uni0418" unicode="&#x418;" horiz-adv-x="1597" 
d="M299 1434h389l-151 -781h4l827 781h303l-278 -1434h-389l151 780h-4l-827 -780h-304z" />
    <glyph glyph-name="uni0419" unicode="&#x419;" horiz-adv-x="1597" 
d="M1464 1767q-33 -144 -142 -220.5t-273 -76.5q-161 0 -249.5 69.5t-88.5 174.5q0 21 4 53h229q-2 -8 -2 -24q0 -40 31.5 -64t87.5 -24q123 0 145 112h258zM299 1434h389l-151 -781h4l827 781h303l-278 -1434h-389l151 780h-4l-827 -780h-304z" />
    <glyph glyph-name="uni041A" unicode="&#x41a;" horiz-adv-x="1540" 
d="M1692 1434l-742 -715l508 -719h-500l-419 664l-129 -664h-390l279 1434h389l-123 -629l596 629h531z" />
    <glyph glyph-name="uni041B" unicode="&#x41b;" horiz-adv-x="1564" 
d="M1638 1434l-278 -1434h-389l209 1077h-480l-137 -708q-38 -194 -156 -284.5t-327 -90.5h-152l70 356h108q26 0 48.5 20.5t27.5 45.5l199 1018h1257z" />
    <glyph glyph-name="uni041C" unicode="&#x41c;" horiz-adv-x="1923" 
d="M1706 1434l125 -1434h-371l-61 735h-4l-336 -540h-252l-135 540h-4l-340 -735h-420l682 1434h289l145 -646h2l391 646h289z" />
    <glyph glyph-name="uni041D" unicode="&#x41d;" horiz-adv-x="1492" 
d="M1178 1434h389l-279 -1434h-389l109 557h-490l-108 -557h-390l279 1434h389l-100 -521h489z" />
    <glyph glyph-name="uni041E" unicode="&#x41e;" horiz-adv-x="1611" 
d="M795 -31q-321 0 -517 185t-196 497q0 167 60 316t166.5 259t263 174t339.5 64q321 0 517 -185t196 -497q0 -167 -60 -316t-166.5 -259t-263 -174t-339.5 -64zM819 348q84 0 153.5 25.5t115.5 67.5t77.5 97.5t45.5 112.5t14 115q0 147 -88.5 233t-249.5 86
q-84 0 -153.5 -25.5t-115.5 -67.5t-77.5 -97t-45.5 -112t-14 -115q0 -147 89 -233.5t249 -86.5z" />
    <glyph glyph-name="uni041F" unicode="&#x41f;" horiz-adv-x="1501" 
d="M1575 1434l-279 -1434h-389l209 1077h-498l-208 -1077h-390l279 1434h1276z" />
    <glyph glyph-name="uni0420" unicode="&#x420;" horiz-adv-x="1275" 
d="M817 1434q264 0 400.5 -118t136.5 -331q0 -115 -39 -214.5t-115.5 -178.5t-204.5 -124.5t-293 -45.5h-210l-82 -422h-390l279 1434h518zM719 766q108 0 166.5 52.5t58.5 135.5q0 67 -45.5 101.5t-118.5 34.5h-159l-64 -324h162z" />
    <glyph glyph-name="uni0421" unicode="&#x421;" horiz-adv-x="1396" 
d="M809 -31q-328 0 -526.5 193.5t-198.5 505.5q0 132 37.5 252t111.5 219t176.5 172t240 113t294.5 40q164 0 305 -41.5t244 -109.5l-225 -326q-150 98 -328 98q-110 0 -198.5 -33t-144 -90t-85 -129.5t-29.5 -154.5q0 -152 94 -241t244 -89q156 0 334 96l160 -335
q-245 -140 -506 -140z" />
    <glyph glyph-name="uni0422" unicode="&#x422;" horiz-adv-x="1126" 
d="M1303 1434l-70 -357h-356l-209 -1077h-394l209 1077h-356l70 357h1106z" />
    <glyph glyph-name="uni0423" unicode="&#x423;" horiz-adv-x="1492" 
d="M1239 1434h451l-979 -1434h-451l250 365l-334 1069h410l198 -666z" />
    <glyph glyph-name="uni0424" unicode="&#x424;" horiz-adv-x="1777" 
d="M1241 1370q263 -26 405 -192.5t142 -417.5q0 -111 -27.5 -213t-86.5 -191t-143.5 -154.5t-206 -103t-267.5 -37.5h-90l-27 -133h-348l29 138q-257 26 -396 191.5t-139 414.5q0 112 27 214t85 191.5t141 155t202.5 103.5t263.5 38h88l27 131h348zM453 698q0 -126 64 -204
t194 -88l131 626h-37q-165 0 -258.5 -94.5t-93.5 -239.5zM1036 403q182 0 283.5 96t101.5 240q0 126 -68.5 204t-203.5 87l-131 -627h18z" />
    <glyph glyph-name="uni0425" unicode="&#x425;" horiz-adv-x="1638" 
d="M1802 1434l-659 -693l403 -741h-461l-239 455l-416 -455h-522l729 782l-367 652h461l203 -369l346 369h522z" />
    <glyph glyph-name="uni0426" unicode="&#x426;" horiz-adv-x="1570" 
d="M1346 332h186l-121 -623h-369l58 291h-1080l279 1434h389l-215 -1102h483l215 1102h390z" />
    <glyph glyph-name="uni0427" unicode="&#x427;" horiz-adv-x="1351" 
d="M1036 1434h389l-278 -1434h-389l98 508h-307q-224 0 -327 73.5t-103 231.5q0 65 14 131l94 490h389l-71 -365q-15 -79 -15 -111q0 -94 121 -94h275z" />
    <glyph glyph-name="uni0428" unicode="&#x428;" horiz-adv-x="2179" 
d="M20 0l279 1434h389l-215 -1102h393l215 1102h389l-215 -1102h394l215 1102h389l-279 -1434h-1954z" />
    <glyph glyph-name="uni0429" unicode="&#x429;" horiz-adv-x="2263" 
d="M2038 332h186l-119 -619h-368l55 287h-1772l279 1434h389l-215 -1102h393l215 1102h389l-215 -1102h394l215 1102h389z" />
    <glyph glyph-name="uni042A" unicode="&#x42a;" horiz-adv-x="1611" 
d="M1102 969q107 0 193 -21.5t157 -69.5t110.5 -133.5t39.5 -203.5q0 -91 -23 -171t-72 -148.5t-120 -117.5t-171 -76.5t-221 -27.5h-641l209 1077h-436l70 357h825l-90 -465h170zM1010 332q92 0 137 50t45 120q0 72 -46 103.5t-118 31.5h-162l-59 -305h203z" />
    <glyph glyph-name="uni042B" unicode="&#x42b;" horiz-adv-x="1865" 
d="M768 969q107 0 193 -21.5t157 -69.5t110.5 -133.5t39.5 -203.5q0 -114 -37.5 -211t-110.5 -171.5t-190.5 -116.5t-267.5 -42h-642l279 1434h389l-90 -465h170zM1550 1434h389l-278 -1434h-389zM676 332q92 0 137 50t45 120q0 72 -46 103.5t-118 31.5h-162l-59 -305h203z
" />
    <glyph glyph-name="uni042C" unicode="&#x42c;" horiz-adv-x="1277" 
d="M768 969q107 0 193 -21.5t157 -69.5t110.5 -133.5t39.5 -203.5q0 -114 -37.5 -211t-110.5 -171.5t-190.5 -116.5t-267.5 -42h-642l279 1434h389l-90 -465h170zM676 332q92 0 137 50t45 120q0 72 -46 103.5t-118 31.5h-162l-59 -305h203z" />
    <glyph glyph-name="uni042D" unicode="&#x42d;" horiz-adv-x="1388" 
d="M680 1464q215 0 376.5 -77t253 -231.5t91.5 -369.5q0 -180 -64.5 -332t-180.5 -258.5t-283 -166.5t-367 -60q-153 0 -296.5 32.5t-238.5 84.5l191 352q173 -84 375 -84q301 0 403 203h-446l61 320h416q-54 202 -305 202q-161 0 -334 -92l-152 361q223 116 500 116z" />
    <glyph glyph-name="uni042E" unicode="&#x42e;" horiz-adv-x="2195" 
d="M1495 1464q321 0 517 -185t196 -497q0 -167 -60 -316t-167 -259t-263.5 -174t-339.5 -64q-293 0 -483.5 156.5t-222.5 425.5h-156l-106 -551h-390l279 1434h389l-106 -551h114q71 259 285 420t514 161zM1403 348q104 0 185 38.5t127.5 101.5t69.5 134t23 144
q0 147 -88.5 233t-249.5 86q-104 0 -185 -38.5t-127.5 -101t-69.5 -133.5t-23 -144q0 -147 89 -233.5t249 -86.5z" />
    <glyph glyph-name="uni042F" unicode="&#x42f;" horiz-adv-x="1353" 
d="M754 1434h673l-278 -1434h-389l102 530l-475 -530h-459l502 535q-124 45 -191 143t-67 242q0 75 18 145t61.5 138.5t108.5 118.5t166.5 81t227.5 31zM911 782l60 308h-191q-103 0 -152.5 -45t-49.5 -117q0 -146 204 -146h129z" />
    <glyph glyph-name="uni0430" unicode="&#x430;" horiz-adv-x="1214" 
d="M420 -31q-178 0 -281.5 121t-103.5 328q0 249 143 404t373 155q236 0 317 -172h4l25 141h379l-184 -946h-379l24 121h-4q-122 -152 -313 -152zM596 299q84 0 139.5 55.5t55.5 139.5q0 70 -44 111.5t-118 41.5q-84 0 -139.5 -55t-55.5 -139q0 -70 44 -112t118 -42z" />
    <glyph glyph-name="uni0431" unicode="&#x431;" horiz-adv-x="1224" 
d="M612 -31q-91 0 -169 18t-148.5 60.5t-120.5 107t-79 164t-29 226.5q0 257 111 451.5t315 267.5q58 21 133 40.5t152.5 36.5t78.5 17q61 15 85.5 33.5t33.5 54.5h356q-27 -165 -87.5 -241t-196.5 -105q-355 -77 -422 -101q-101 -36 -151.5 -101t-59.5 -196h6
q64 115 153.5 169.5t212.5 54.5q182 0 293 -110t111 -298q0 -83 -20 -160.5t-65 -148.5t-111 -124t-164 -84.5t-218 -31.5zM627 299q89 0 139.5 59.5t50.5 137.5q0 76 -48 113.5t-118 37.5q-89 0 -139.5 -59.5t-50.5 -136.5q0 -76 48 -114t118 -38z" />
    <glyph glyph-name="uni0432" unicode="&#x432;" horiz-adv-x="1142" 
d="M938 506q66 -13 101.5 -64t35.5 -131q0 -137 -111 -224t-325 -87h-659l184 946h678q129 0 205.5 -50.5t76.5 -160.5q0 -180 -184 -223zM616 563q46 0 72.5 31t26.5 70q0 73 -99 73h-114l-33 -174h147zM547 207q59 0 92 32.5t33 82.5q0 42 -24 60.5t-77 18.5h-135
l-37 -194h148z" />
    <glyph glyph-name="uni0433" unicode="&#x433;" horiz-adv-x="765" 
d="M858 946l-67 -342h-316l-117 -604h-378l184 946h694z" />
    <glyph glyph-name="uni0434" unicode="&#x434;" horiz-adv-x="1280" 
d="M1083 260h136l-103 -526h-328l43 219h-593l-43 -219h-328l102 526h121q57 51 84 101.5t45 134.5l90 450h348h451h109zM571 512q-19 -94 -41.5 -150.5t-60.5 -101.5h262l78 406h-207z" />
    <glyph glyph-name="uni0435" unicode="&#x435;" horiz-adv-x="1132" 
d="M1083 592q0 -87 -30 -207h-660q36 -125 203 -125q124 0 270 64l95 -277q-194 -78 -388 -78q-86 0 -164 17t-147 53.5t-119 90.5t-79 133t-29 175q0 100 34.5 193t102 171.5t181.5 125.5t259 47q212 0 341.5 -100.5t129.5 -282.5zM731 582q4 24 4 39q0 52 -37 80t-100 28
q-141 0 -197 -147h330z" />
    <glyph glyph-name="uni0436" unicode="&#x436;" horiz-adv-x="1939" 
d="M1993 946l-437 -479l281 -467h-446l-217 469l-93 -469h-358l92 469l-401 -469h-496l522 528l-215 418h420l182 -407l80 407h359l-80 -407l342 407h465z" />
    <glyph glyph-name="uni0437" unicode="&#x437;" horiz-adv-x="972" 
d="M387 -31q-267 0 -436 92l135 226q159 -76 330 -76q141 0 141 78q0 32 -25 46.5t-90 14.5h-200l49 248h201q96 0 96 72q0 36 -28 51.5t-87 15.5q-126 0 -311 -55l-68 223q229 72 447 72q413 0 413 -227q0 -40 -13.5 -78t-44 -75.5t-88.5 -64.5t-138 -36v-4
q103 -11 166 -66t63 -147q0 -38 -11 -74t-34.5 -71.5t-64 -64.5t-95.5 -52t-133.5 -35.5t-173.5 -12.5z" />
    <glyph glyph-name="uni0438" unicode="&#x438;" horiz-adv-x="1236" 
d="M-20 0l184 946h358l-90 -467h4l473 467h348l-184 -946h-358l90 467h-4l-473 -467h-348z" />
    <glyph glyph-name="uni0439" unicode="&#x439;" horiz-adv-x="1236" 
d="M1169 1372q-12 -70 -40.5 -130.5t-77.5 -114t-127.5 -84.5t-178.5 -31q-63 0 -120 15t-106 45.5t-78 85t-29 126.5q0 36 10 88h217q-2 -10 -2 -31q0 -110 119 -110q44 0 76 12.5t50.5 36.5t27 44t16.5 48h243zM-20 0l184 946h358l-90 -467h4l473 467h348l-184 -946h-358
l90 467h-4l-473 -467h-348z" />
    <glyph glyph-name="uni043A" unicode="&#x43a;" horiz-adv-x="1204" 
d="M1270 946l-465 -467l297 -479h-445l-217 416l-82 -416h-378l184 946h379l-68 -350l309 350h486z" />
    <glyph glyph-name="uni043B" unicode="&#x43b;" horiz-adv-x="1208" 
d="M1219 946l-185 -946h-379l121 625h-211l-49 -252q-40 -206 -135 -294t-289 -89l-176 -2l68 346h53q48 0 75 23t38 85l98 504h971z" />
    <glyph glyph-name="uni043C" unicode="&#x43c;" horiz-adv-x="1495" 
d="M993 428h-6l-190 -315h-209l-68 315h-6l-203 -428h-383l488 946h268l76 -385h8l227 385h269l118 -946h-354z" />
    <glyph glyph-name="uni043D" unicode="&#x43d;" horiz-adv-x="1177" 
d="M819 946h379l-184 -946h-379l65 340h-276l-66 -340h-378l184 946h379l-58 -299h277z" />
    <glyph glyph-name="uni043E" unicode="&#x43e;" horiz-adv-x="1175" 
d="M551 -31q-110 0 -203 28t-164 83t-111 143.5t-40 202.5q0 115 41.5 215.5t117 175t187.5 117.5t246 43q110 0 203 -28t164 -83t111 -143.5t40 -202.5q0 -115 -41.5 -215.5t-117 -175t-187.5 -117.5t-246 -43zM571 299q92 0 143.5 59.5t51.5 135.5q0 78 -47 115.5
t-115 37.5q-92 0 -143 -59t-51 -135q0 -78 46.5 -116t114.5 -38z" />
    <glyph glyph-name="uni043F" unicode="&#x43f;" horiz-adv-x="1198" 
d="M1219 946l-185 -946h-379l119 608h-297l-119 -608h-378l184 946h379h676z" />
    <glyph glyph-name="uni0440" unicode="&#x440;" horiz-adv-x="1255" 
d="M836 977q170 0 277.5 -116.5t107.5 -332.5q0 -249 -143 -404t-373 -155q-239 0 -318 172h-4l-102 -551h-379l262 1356h379l-25 -121h4q122 152 314 152zM627 299q92 0 143 59.5t51 135.5q0 77 -47.5 115t-114.5 38q-92 0 -143 -59t-51 -135q0 -78 47 -116t115 -38z" />
    <glyph glyph-name="uni0441" unicode="&#x441;" horiz-adv-x="960" 
d="M559 -31q-108 0 -202 30.5t-165.5 89t-113 151.5t-41.5 209q0 110 37 204.5t108 167.5t184 114.5t255 41.5q221 0 401 -115l-178 -284q-117 71 -217 71q-97 0 -149 -52.5t-52 -129.5q0 -75 47 -121.5t123 -46.5q85 0 166 37l102 -307q-162 -60 -305 -60z" />
    <glyph glyph-name="uni0442" unicode="&#x442;" horiz-adv-x="972" 
d="M1065 946l-66 -338h-297l-118 -608h-379l119 608h-297l65 338h676h297z" />
    <glyph glyph-name="uni0443" unicode="&#x443;" horiz-adv-x="1232" 
d="M883 946h399l-842 -1356h-403l338 516l-283 840h385l123 -475z" />
    <glyph glyph-name="uni0444" unicode="&#x444;" horiz-adv-x="1822" 
d="M561 -410l103 531h-5q-49 -69 -124.5 -110.5t-161.5 -41.5q-140 0 -235 112.5t-95 326.5q0 158 53 286t159.5 205.5t248.5 77.5q111 0 187.5 -45.5t107.5 -126.5h4l106 577h357l-109 -557h4q105 152 277 152q147 0 243.5 -112t96.5 -330q0 -113 -28.5 -213.5t-82.5 -180
t-140.5 -126t-195.5 -46.5q-115 0 -195.5 48t-111.5 124h-4l-102 -551h-357zM1217 287q88 0 139 59t51 143q0 85 -50 127.5t-120 42.5q-88 0 -136 -62.5t-48 -145.5q0 -82 46.5 -123t117.5 -41zM586 287q88 0 136 63t48 146q0 82 -46.5 121.5t-117.5 39.5q-88 0 -139 -58
t-51 -142q0 -85 50 -127.5t120 -42.5z" />
    <glyph glyph-name="uni0445" unicode="&#x445;" horiz-adv-x="1220" 
d="M1313 946l-479 -475l290 -471h-395l-141 229l-232 -229h-448l508 504l-275 442h398l123 -198l200 198h451z" />
    <glyph glyph-name="uni0446" unicode="&#x446;" horiz-adv-x="1282" 
d="M1108 328h125l-115 -594h-327l51 266h-484h-378l184 946h379l-121 -618h307l121 618h379z" />
    <glyph glyph-name="uni0447" unicode="&#x447;" horiz-adv-x="1110" 
d="M741 946h379l-184 -946h-379l53 279h-260q-153 0 -233 61t-80 180q0 79 22 201l45 225h369l-35 -178q-18 -90 -18 -131q0 -59 76 -59h174z" />
    <glyph glyph-name="uni0448" unicode="&#x448;" horiz-adv-x="1832" 
d="M1475 946h378l-184 -946h-379h-655h-594h-61l184 946h379l-121 -618h276l121 618h379l-121 -618h277z" />
    <glyph glyph-name="uni0449" unicode="&#x449;" horiz-adv-x="1906" 
d="M1733 328h125l-115 -594h-328l51 266h-452h-656h-378l184 946h379l-121 -618h276l121 618h379l-121 -618h277l121 618h378z" />
    <glyph glyph-name="uni044A" unicode="&#x44a;" horiz-adv-x="1298" 
d="M926 690q66 0 124 -18.5t104 -54.5t72.5 -96.5t26.5 -137.5q0 -162 -109.5 -272.5t-291.5 -110.5h-637l123 629h-307l61 317h623h63l-49 -256h197zM739 229q72 0 107 38.5t35 92.5q0 101 -127 101h-70l-45 -232h100z" />
    <glyph glyph-name="uni044B" unicode="&#x44b;" horiz-adv-x="1564" 
d="M690 690q66 0 124 -18.5t104 -54.5t73 -96.5t27 -137.5q0 -162 -110 -272.5t-292 -110.5h-636l184 946h379l-49 -256h196zM1206 946h379l-184 -946h-379zM504 229q72 0 106.5 38.5t34.5 92.5q0 101 -127 101h-69l-46 -232h101z" />
    <glyph glyph-name="uni044C" unicode="&#x44c;" horiz-adv-x="1062" 
d="M690 690q66 0 124 -18.5t104 -54.5t73 -96.5t27 -137.5q0 -162 -110 -272.5t-292 -110.5h-636l184 946h379l-49 -256h196zM504 229q72 0 106.5 38.5t34.5 92.5q0 101 -127 101h-69l-46 -232h101z" />
    <glyph glyph-name="uni044D" unicode="&#x44d;" horiz-adv-x="962" 
d="M440 977q221 0 350.5 -117t129.5 -338q0 -252 -164.5 -402.5t-433.5 -150.5q-214 0 -363 86l139 262q98 -49 230 -49q94 0 158.5 35.5t93.5 95.5h-308l29 148h299q-24 129 -201 129q-111 0 -221 -39l-80 287q67 22 162.5 37.5t179.5 15.5z" />
    <glyph glyph-name="uni044E" unicode="&#x44e;" horiz-adv-x="1701" 
d="M1151 977q110 0 203 -28t164 -83t111 -143.5t40 -202.5q0 -115 -41.5 -215.5t-117 -175t-187.5 -117.5t-246 -43q-198 0 -336 88t-172 260h-149l-62 -317h-378l184 946h379l-62 -317h115q60 158 205.5 253t349.5 95zM1098 299q92 0 143 59.5t51 135.5q0 78 -47 115.5
t-115 37.5q-92 0 -143 -59t-51 -135q0 -78 47 -116t115 -38z" />
    <glyph glyph-name="uni044F" unicode="&#x44f;" horiz-adv-x="1173" 
d="M471 946h713l-185 -946h-378l71 362l-340 -362h-434l332 322q-84 34 -127 107t-43 167q0 107 55 188t143 121.5t193 40.5zM633 723q-69 0 -102 -32t-33 -79q0 -44 31 -64t96 -20h98l39 195h-129z" />
    <glyph glyph-name="uni0451" unicode="&#x451;" horiz-adv-x="1132" 
d="M672 1339l-58 -297h-264l58 297h264zM1036 1339l-57 -297h-264l57 297h264zM1083 592q0 -87 -30 -207h-660q36 -125 203 -125q124 0 270 64l95 -277q-194 -78 -388 -78q-86 0 -164 17t-147 53.5t-119 90.5t-79 133t-29 175q0 100 34.5 193t102 171.5t181.5 125.5t259 47
q212 0 341.5 -100.5t129.5 -282.5zM731 582q4 24 4 39q0 52 -37 80t-100 28q-141 0 -197 -147h330z" />
    <glyph glyph-name="uni0452" unicode="&#x452;" horiz-adv-x="1198" 
d="M1151 670q0 -65 -16 -156l-93 -469h2l-12 -61q-19 -95 -55 -165.5t-81.5 -113.5t-107.5 -69.5t-125.5 -36t-142.5 -9.5h-123l68 353h63h8q19 0 29.5 0.5t28 5t28 13.5t22 27t18.5 44l83 426q9 47 9 80q0 133 -115 133q-76 0 -115.5 -51t-58.5 -146l-94 -475h-379
l215 1104h-146l39 205h146l24 125h379l-24 -125h260l-39 -205h-260l-56 -289h5q125 162 323 162q133 0 213 -75.5t80 -231.5z" />
    <glyph glyph-name="uni0453" unicode="&#x453;" horiz-adv-x="765" 
d="M700 1346h418l-446 -316h-297zM858 946l-67 -342h-316l-117 -604h-378l184 946h694z" />
    <glyph glyph-name="uni0454" unicode="&#x454;" horiz-adv-x="970" 
d="M575 279q87 0 166 36l103 -286q-162 -60 -305 -60q-108 0 -202 30.5t-166 89t-113.5 151.5t-41.5 209q0 110 37 204.5t108 167.5t184 114.5t255 41.5q221 0 401 -115l-178 -264q-118 72 -217 72q-156 0 -207 -123h265l-29 -148h-240q19 -56 66 -88t114 -32z" />
    <glyph glyph-name="uni0455" unicode="&#x455;" horiz-adv-x="903" 
d="M100 381q209 -135 320 -135q49 0 49 28t-47 54l-98 59q-103 61 -148 129t-45 160q0 149 102 225t289 76q200 0 434 -105l-122 -258q-183 97 -275 97q-49 0 -49 -29q0 -18 46 -44q7 -5 11 -7l86 -49q104 -59 149.5 -126.5t45.5 -170.5q0 -316 -399 -316q-140 0 -258.5 39
t-247.5 121z" />
    <glyph glyph-name="uni0456" unicode="&#x456;" horiz-adv-x="542" 
d="M649 1434l-69 -355h-387l69 355h387zM553 946l-184 -946h-379l184 946h379z" />
    <glyph glyph-name="uni0457" unicode="&#x457;" horiz-adv-x="542" 
d="M410 1339l-58 -297h-264l57 297h265zM733 1339l-57 -297h-264l57 297h264zM553 946l-184 -946h-379l184 946h379z" />
    <glyph glyph-name="uni0458" unicode="&#x458;" horiz-adv-x="542" 
d="M649 1434l-69 -355h-387l69 355h387zM-201 -63h45q70 0 109 30.5t51 95.5l172 883h377l-176 -903q-47 -247 -172.5 -353t-368.5 -106h-104z" />
    <glyph glyph-name="uni0459" unicode="&#x459;" horiz-adv-x="1738" 
d="M1366 690q66 0 124 -18.5t104 -54.5t73 -96.5t27 -137.5q0 -162 -110 -272.5t-292 -110.5h-637l121 625h-211l-49 -252q-40 -206 -135 -294t-289 -89l-176 -2l68 346h53q48 0 75 23t38 85l98 504h379h344h248l-50 -256h197zM1180 229q72 0 106.5 38.5t34.5 92.5
q0 101 -127 101h-70l-45 -232h101z" />
    <glyph glyph-name="uni045A" unicode="&#x45a;" horiz-adv-x="1718" 
d="M1337 649q158 0 245 -77.5t87 -211.5q0 -156 -113.5 -258t-304.5 -102h-616l82 420h-277l-82 -420h-378l184 946h379l-58 -297h277l57 297h379l-57 -297h196zM1157 229q68 0 103.5 25.5t35.5 73.5q0 92 -122 92h-78l-37 -191h98z" />
    <glyph glyph-name="uni045B" unicode="&#x45b;" horiz-adv-x="1198" 
d="M858 977q133 0 213 -75.5t80 -231.5q0 -65 -16 -156l-101 -514h-379l90 459q9 47 9 80q0 133 -115 133q-76 0 -115.5 -51t-58.5 -146l-94 -475h-379l215 1104h-146l39 205h146l24 125h379l-24 -125h260l-39 -205h-260l-56 -289h5q125 162 323 162z" />
    <glyph glyph-name="uni045C" unicode="&#x45c;" horiz-adv-x="1204" 
d="M1235 1346l-447 -316h-296l325 316h418zM1270 946l-465 -467l297 -479h-445l-217 416l-82 -416h-378l184 946h379l-68 -350l309 350h486z" />
    <glyph glyph-name="uni045E" unicode="&#x45e;" horiz-adv-x="1232" 
d="M717 1012q-63 0 -120 15t-106.5 45.5t-78.5 85t-29 126.5q0 36 10 88h217q-2 -10 -2 -31q0 -110 119 -110q44 0 76 12.5t50.5 36.5t27 44t16.5 48h244q-12 -70 -40.5 -130.5t-77.5 -114t-127.5 -84.5t-178.5 -31zM883 946h399l-842 -1356h-403l338 516l-283 840h385
l123 -475z" />
    <glyph glyph-name="uni045F" unicode="&#x45f;" horiz-adv-x="1177" 
d="M819 946h379l-184 -946h-332l-51 -266h-371l51 266h-331l184 946h379l-119 -608h276z" />
    <glyph glyph-name="uni0462" unicode="&#x462;" horiz-adv-x="1409" 
d="M899 969q107 0 193 -21.5t157 -69.5t110.5 -133.5t39.5 -203.5q0 -114 -37.5 -211t-110.5 -171.5t-190.5 -116.5t-267.5 -42h-641l206 1067h-233l53 266h232l20 101h389l-20 -101h372l-53 -266h-370l-19 -98h170zM807 332q92 0 137 50t45 120q0 72 -46 103.5t-118 31.5
h-161l-60 -305h203z" />
    <glyph glyph-name="uni0463" unicode="&#x463;" horiz-adv-x="1116" 
d="M743 690q66 0 124 -18.5t104 -54.5t73 -96.5t27 -137.5q0 -162 -109.5 -272.5t-291.5 -110.5h-637l153 791h-184l29 155h186l94 488h379l-94 -488h260l-29 -155h-262l-18 -101h196zM557 229q72 0 106.5 38.5t34.5 92.5q0 101 -127 101h-69l-45 -232h100z" />
    <glyph glyph-name="uni0472" unicode="&#x472;" horiz-adv-x="1611" 
d="M911 1464q321 0 517 -185t196 -497q0 -167 -60 -316t-166.5 -259t-263 -174t-339.5 -64q-321 0 -517 185t-196 497q0 167 60 316t166.5 259t263 174t339.5 64zM887 1085q-151 0 -246.5 -74.5t-134.5 -191.5h715q-15 124 -102 195t-232 71zM819 348q151 0 246.5 74.5
t134.5 191.5h-715q15 -124 102 -195t232 -71z" />
    <glyph glyph-name="uni0473" unicode="&#x473;" horiz-adv-x="1175" 
d="M625 977q110 0 203 -28t164 -83t111 -143.5t40 -202.5q0 -115 -41.5 -215.5t-117 -175t-187.5 -117.5t-246 -43q-110 0 -203 28t-164 83t-111 143.5t-40 202.5q0 115 41.5 215.5t117 175t187.5 117.5t246 43zM604 678q-83 0 -139.5 -40t-81.5 -103h420
q-13 72 -68.5 107.5t-130.5 35.5zM571 268q83 0 140 40.5t82 103.5h-420q13 -72 68 -108t130 -36z" />
    <glyph glyph-name="uni0474" unicode="&#x474;" horiz-adv-x="1556" 
d="M1458 993l-567 -993h-426l-279 1434h428l119 -967h6l322 602q109 204 228 294.5t288 90.5q63 0 168 -10l-70 -354q-43 6 -71 6q-88 0 -146 -103z" />
    <glyph glyph-name="uni0475" unicode="&#x475;" horiz-adv-x="1167" 
d="M1120 965h144l-64 -324h-20q-41 0 -70.5 -17.5t-62.5 -70.5l-353 -553h-383l-219 946h383l80 -530l143 268q81 153 175 217t247 64z" />
    <glyph glyph-name="uni048E" unicode="&#x48e;" horiz-adv-x="1275" 
d="M1354 985q0 -139 -56 -256.5t-168 -193.5l87 -123l-127 -95l-105 148q-119 -43 -283 -43h-210l-82 -422h-390l279 1434h518q264 0 400.5 -118t136.5 -331zM719 766q21 0 53 4l-67 94l126 94l80 -112q33 44 33 108q0 67 -45.5 101.5t-118.5 34.5h-159l-64 -324h162z" />
    <glyph glyph-name="uni048F" unicode="&#x48f;" horiz-adv-x="1255" 
d="M1221 528q0 -146 -51.5 -262.5t-145.5 -191.5l94 -123l-121 -94l-108 143q-88 -31 -184 -31q-239 0 -318 172h-4l-102 -551h-379l262 1356h379l-25 -121h4q122 152 314 152q170 0 277.5 -116.5t107.5 -332.5zM627 299q22 0 32 2l-71 94l121 94l79 -106q33 47 33 111
q0 77 -47.5 115t-114.5 38q-92 0 -143 -59t-51 -135q0 -78 47 -116t115 -38z" />
    <glyph glyph-name="uni0490" unicode="&#x490;" horiz-adv-x="1071" 
d="M913 1720h390l-125 -643h-560l-208 -1077h-390l279 1434h559z" />
    <glyph glyph-name="uni0491" unicode="&#x491;" horiz-adv-x="868" 
d="M637 1233h379l-123 -629h-418l-117 -604h-378l184 946h418z" />
    <glyph glyph-name="uni0492" unicode="&#x492;" horiz-adv-x="1130" 
d="M1237 1077h-518l-53 -280h360l-59 -308h-363l-94 -489h-389l94 489h-201l60 308h202l123 637h389h519z" />
    <glyph glyph-name="uni0493" unicode="&#x493;" horiz-adv-x="827" 
d="M852 604h-315l-27 -133h254l-49 -246h-252l-43 -225h-379l43 225h-123l49 246h123l92 475h695z" />
    <glyph glyph-name="uni0494" unicode="&#x494;" horiz-adv-x="1370" 
d="M997 895q344 0 344 -283q0 -76 -16 -155l-76 -387q-43 -241 -195.5 -360.5t-375.5 -119.5h-184l69 357h86q88 0 145 34.5t76 131.5l54 272q10 58 10 86q0 52 -23 69t-75 17q-105 0 -322 -20l-104 -537h-390l279 1434h389h518l-69 -357h-519l-38 -203q237 21 417 21z" />
    <glyph glyph-name="uni0495" unicode="&#x495;" horiz-adv-x="1163" 
d="M731 498q157 0 248.5 -67t91.5 -216q0 -57 -10 -106l-31 -160q-21 -109 -96 -192.5t-173 -125t-200 -41.5h-158l68 342h70q49 0 88.5 26t48.5 71l8 49q4 16 4 43q0 36 -21.5 48.5t-76.5 12.5q-78 0 -203 -22l-31 -160h-378l184 946h854l-68 -342h-475l-24 -127
q161 21 280 21z" />
    <glyph glyph-name="uni0496" unicode="&#x496;" horiz-adv-x="2422" 
d="M1862 711l270 -475h264l-102 -523h-389l55 287h-180l-348 698l-136 -698h-368l135 698l-619 -698h-546l755 793l-340 641h465l299 -664l129 664h369l-129 -662l557 662h524z" />
    <glyph glyph-name="uni0497" unicode="&#x497;" horiz-adv-x="2043" 
d="M1556 467l189 -313h217l-82 -420h-338l51 266h-202l-217 469l-93 -469h-358l92 469l-401 -469h-496l522 528l-215 418h420l182 -407l80 407h359l-80 -407l342 407h465z" />
    <glyph glyph-name="uni0498" unicode="&#x498;" horiz-adv-x="1271" 
d="M942 754q124 -24 191 -107.5t67 -226.5q0 -69 -16.5 -129.5t-60 -121t-112 -103.5t-180 -69.5t-256.5 -27.5l-26 -45q81 -10 122.5 -42t41.5 -79q0 -81 -104 -133q-66 -33 -266 -88q-37 -11 -56 -16l-23 88q112 42 146 62t34 42q0 20 -19.5 29t-66.5 18l101 168
q-292 25 -500 156l186 336q205 -137 430 -137q224 0 224 118q0 129 -293 129h-125l61 310h129q145 0 219 42t74 105q0 42 -35 60t-108 18q-160 0 -404 -92l-139 323q129 54 286 88.5t310 34.5q248 0 376 -92t128 -248q0 -135 -89.5 -235.5t-244.5 -130.5z" />
    <glyph glyph-name="uni0499" unicode="&#x499;" horiz-adv-x="972" 
d="M670 492q103 -11 166 -66t63 -147q0 -54 -21.5 -102t-68 -92t-131 -74t-199.5 -38l-28 -49q81 -10 122 -42t41 -79q0 -81 -104 -133q-65 -33 -265 -88q-38 -11 -57 -16l-22 88q112 42 146 62t34 42q0 20 -19.5 29t-66.5 18l98 164q-249 7 -407 92l135 226
q159 -76 330 -76q141 0 141 78q0 32 -25 46.5t-90 14.5h-200l49 248h201q96 0 96 72q0 36 -28 51.5t-87 15.5q-126 0 -311 -55l-68 223q229 72 447 72q413 0 413 -227q0 -40 -13.5 -78t-44 -75.5t-88.5 -64.5t-138 -36v-4z" />
    <glyph glyph-name="uni049A" unicode="&#x49a;" horiz-adv-x="1632" 
d="M950 719l342 -483h314l-103 -523h-389l55 287h-211l-419 664l-129 -664h-390l279 1434h389l-123 -629l596 629h531z" />
    <glyph glyph-name="uni049B" unicode="&#x49b;" horiz-adv-x="1269" 
d="M805 479l203 -325h190l-82 -420h-338l51 266h-172l-217 416l-82 -416h-378l184 946h379l-68 -350l309 350h486z" />
    <glyph glyph-name="uni049C" unicode="&#x49c;" horiz-adv-x="1652" 
d="M1815 1434l-670 -715l426 -719h-490l-301 578h-49l-45 -228h-123l45 228h-86l-112 -578h-390l279 1434h389l-96 -500h86l43 225h123l-43 -225h71l422 500h521z" />
    <glyph glyph-name="uni049D" unicode="&#x49d;" horiz-adv-x="1284" 
d="M1350 946l-435 -467l267 -479h-445l-157 342h-39l-27 -141h-57l26 141h-57l-68 -342h-378l184 946h379l-54 -276h58l28 143h58l-29 -143h35l225 276h486z" />
    <glyph glyph-name="uni049E" unicode="&#x49e;" horiz-adv-x="1587" 
d="M1739 1434l-742 -715l508 -719h-499l-420 664l-129 -664h-389l213 1094h-150l51 266h150l14 74h389l-14 -74h153l-51 -266h-153l-58 -289l596 629h531z" />
    <glyph glyph-name="uni049F" unicode="&#x49f;" horiz-adv-x="1214" 
d="M1280 946l-465 -467l297 -479h-444l-219 416l-80 -416h-379l215 1104h-144l39 205h144l24 125h379l-24 -125h262l-39 -205h-262l-101 -508l312 350h485z" />
    <glyph glyph-name="uni04A0" unicode="&#x4a0;" horiz-adv-x="1873" 
d="M2025 1434l-741 -715l508 -719h-500l-420 664l-129 -664h-389l209 1077h-436l70 357h825l-123 -629l596 629h530z" />
    <glyph glyph-name="uni04A1" unicode="&#x4a1;" horiz-adv-x="1441" 
d="M1507 946l-465 -467l297 -479h-444l-217 416l-82 -416h-379l123 629h-309l61 317h467h221l-67 -350l309 350h485z" />
    <glyph glyph-name="uni04A2" unicode="&#x4a2;" horiz-adv-x="1572" 
d="M1567 1434l-234 -1198h213l-102 -523h-389l55 287h-211l109 557h-490l-108 -557h-390l279 1434h389l-100 -521h489l101 521h389z" />
    <glyph glyph-name="uni04A3" unicode="&#x4a3;" horiz-adv-x="1294" 
d="M1044 154h168l-82 -420h-337l51 266h-209l65 340h-276l-66 -340h-378l184 946h379l-58 -299h277l57 299h379z" />
    <glyph glyph-name="uni04A4" unicode="&#x4a4;" horiz-adv-x="1943" 
d="M2120 1434l-70 -357h-553l-209 -1077h-389l109 557h-490l-108 -557h-390l279 1434h389l-100 -521h489l31 164l70 357h942z" />
    <glyph glyph-name="uni04A5" unicode="&#x4a5;" horiz-adv-x="1456" 
d="M1548 946l-61 -317h-350l-123 -629h-379l65 340h-276l-66 -340h-378l184 946h379l-58 -299h277l57 299h729z" />
    <glyph glyph-name="uni04A6" unicode="&#x4a6;" horiz-adv-x="2234" 
d="M1810 895q210 0 306 -60.5t96 -211.5q0 -63 -14 -129l-17 -82q-41 -210 -176.5 -311t-341.5 -101h-164l70 356h112q55 0 88 20t41 73l2 12q3 18 3 33q0 32 -24.5 47.5t-86.5 15.5q-96 0 -303 -20l-105 -537h-389l209 1077h-498l-208 -1077h-390l279 1434h1276l-109 -560
q199 21 344 21z" />
    <glyph glyph-name="uni04A7" unicode="&#x4a7;" horiz-adv-x="1820" 
d="M1436 641q157 0 248.5 -67t91.5 -216q0 -52 -11 -106l-57 -303q-16 -82 -63.5 -151t-112.5 -113.5t-141.5 -69.5t-151.5 -25h-158l68 342h70q49 0 88.5 26t48.5 71l35 192q4 32 4 43q0 36 -22 49t-77 13q-33 0 -66 -3.5t-81.5 -11t-54.5 -8.5l-60 -303h-379l119 608h-297
l-119 -608h-378l184 946h379h635h41l-64 -325q153 20 281 20z" />
    <glyph glyph-name="uni04A8" unicode="&#x4a8;" horiz-adv-x="1787" 
d="M1696 47q-163 -78 -365 -78q-201 0 -307 76q-123 -74 -305 -74q-293 0 -456 176.5t-163 485.5q0 140 37.5 265.5t112.5 229t181 178.5t251 116.5t315 41.5q187 0 328 -34l-111 -330q-86 18 -190 18q-127 0 -225.5 -36.5t-160 -102t-93 -151.5t-31.5 -189q0 -291 223 -346
q-45 92 -45 221q0 235 142 375.5t378 140.5q89 0 164 -22t133 -65.5t90.5 -115.5t32.5 -165q0 -123 -55 -228t-150 -182q100 2 218 45zM1190 733q-77 0 -115.5 -59t-38.5 -148q0 -117 70 -184q86 45 135 117t49 157q0 117 -100 117z" />
    <glyph glyph-name="uni04A9" unicode="&#x4a9;" horiz-adv-x="1292" 
d="M1042 147q45 5 113 27l37 -162q-121 -43 -215 -43q-124 0 -195 60q-100 -60 -252 -60q-235 0 -365 121t-130 340q0 111 34.5 202t94 154.5t141 107t175 63.5t196.5 20q131 0 250 -29l-72 -235q-82 14 -143 14q-143 0 -231.5 -75.5t-88.5 -219.5q0 -91 37 -145t119 -74
q-25 58 -25 125q0 143 100.5 241.5t274.5 98.5q138 0 218.5 -68t80.5 -194q0 -166 -154 -269zM877 436q-57 0 -81 -38t-24 -91q0 -51 25 -90q71 19 112 57t41 91q0 71 -73 71z" />
    <glyph glyph-name="uni04AA" unicode="&#x4aa;" horiz-adv-x="1396" 
d="M809 -31h-2l-27 -45q81 -10 122.5 -42t41.5 -79q0 -81 -104 -133q-65 -33 -265 -88q-38 -11 -57 -16l-22 88q112 42 146 62t34 42q0 20 -19.5 29t-66.5 18l102 170q-280 35 -444 222.5t-164 470.5q0 132 37.5 252t111.5 219t176.5 172t240 113t294.5 40q164 0 305 -41.5
t244 -109.5l-225 -326q-150 98 -328 98q-110 0 -198.5 -33t-144 -90t-85 -129.5t-29.5 -154.5q0 -152 94 -241t244 -89q156 0 334 96l160 -335q-245 -140 -506 -140z" />
    <glyph glyph-name="uni04AB" unicode="&#x4ab;" horiz-adv-x="960" 
d="M864 29q-137 -52 -262 -58l-29 -47q81 -10 122.5 -42t41.5 -79q0 -81 -104 -133q-66 -33 -266 -88q-37 -11 -56 -16l-22 88q112 42 146 62t34 42q0 20 -19.5 29t-66.5 18l100 168q-198 21 -322 144t-124 332q0 110 37 204.5t108 167.5t184 114.5t255 41.5q221 0 401 -115
l-178 -284q-117 71 -217 71q-97 0 -149 -52.5t-52 -129.5q0 -75 47 -121.5t123 -46.5q85 0 166 37z" />
    <glyph glyph-name="uni04AC" unicode="&#x4ac;" horiz-adv-x="1126" 
d="M1233 1077h-356l-164 -841h186l-102 -523h-389l55 287h-189l209 1077h-356l70 357h1106z" />
    <glyph glyph-name="uni04AD" unicode="&#x4ad;" horiz-adv-x="972" 
d="M999 608h-297l-88 -454h168l-82 -420h-338l52 266h-209l119 608h-297l65 338h676h297z" />
    <glyph glyph-name="uni04AE" unicode="&#x4ae;" horiz-adv-x="1501" 
d="M1688 1434l-744 -959l-92 -475h-389l94 483l-371 951h441l172 -576h4l395 576h490z" />
    <glyph glyph-name="uni04AF" unicode="&#x4af;" horiz-adv-x="1189" 
d="M1282 946l-590 -942l-80 -414h-379l80 414l-221 942h389l78 -528l285 528h438z" />
    <glyph glyph-name="uni04B0" unicode="&#x4b0;" horiz-adv-x="1480" 
d="M1677 1434l-712 -918h260l-51 -266h-283l-49 -250h-389l49 250h-279l51 266h258l-356 918h440l172 -576h5l395 576h489z" />
    <glyph glyph-name="uni04B1" unicode="&#x4b1;" horiz-adv-x="1189" 
d="M692 4h228l-50 -237h-223l-35 -177h-379l35 177h-223l49 237h219l-221 942h389l78 -528l285 528h438z" />
    <glyph glyph-name="uni04B2" unicode="&#x4b2;" horiz-adv-x="1703" 
d="M1143 741l276 -505h258l-102 -523h-389l55 287h-156l-239 455l-416 -455h-522l729 782l-367 652h461l203 -369l346 369h522z" />
    <glyph glyph-name="uni04B3" unicode="&#x4b3;" horiz-adv-x="1298" 
d="M834 471l196 -317h187l-82 -420h-338l51 266h-119l-141 229l-232 -229h-448l508 504l-275 442h398l123 -198l200 198h451z" />
    <glyph glyph-name="uni04B4" unicode="&#x4b4;" horiz-adv-x="1873" 
d="M1864 1434l-215 -1102h186l-121 -623h-368l57 291h-1079l208 1073h-405l70 361h794h271l-70 -361h-270l-146 -741h484l215 1102h389z" />
    <glyph glyph-name="uni04B5" unicode="&#x4b5;" horiz-adv-x="1490" 
d="M1317 328h125l-115 -594h-328l52 266h-484h-379l119 608h-280l65 338h660h149l-65 -338h-150l-55 -280h307l121 618h379z" />
    <glyph glyph-name="uni04B6" unicode="&#x4b6;" horiz-adv-x="1415" 
d="M1425 1434l-233 -1198h197l-103 -523h-389l55 287h-194l98 508h-307q-224 0 -327 73.5t-103 231.5q0 65 14 131l94 490h389l-71 -365q-15 -79 -15 -111q0 -94 121 -94h275l110 570h389z" />
    <glyph glyph-name="uni04B7" unicode="&#x4b7;" horiz-adv-x="1216" 
d="M967 154h168l-82 -420h-338l51 266h-209l53 279h-260q-153 0 -233 61t-80 180q0 79 22 201l45 225h369l-35 -178q-18 -90 -18 -131q0 -59 76 -59h174l71 368h379z" />
    <glyph glyph-name="uni04B8" unicode="&#x4b8;" horiz-adv-x="1351" 
d="M1036 1434h389l-278 -1434h-389l98 508h-145l-41 -213h-123l41 213h-39q-224 0 -327 73.5t-103 231.5q0 65 14 131l94 490h389l-71 -365q-15 -79 -15 -111q0 -94 121 -94h6l48 240h122l-47 -240h146z" />
    <glyph glyph-name="uni04B9" unicode="&#x4b9;" horiz-adv-x="1110" 
d="M741 946h379l-184 -946h-379l53 279h-98l-27 -142h-61l27 142h-101q-153 0 -233 61t-80 180q0 79 22 201l45 225h369l-35 -178q-18 -90 -18 -131q0 -59 76 -59h14l33 172h61l-33 -172h99z" />
    <glyph glyph-name="uni04BA" unicode="&#x4ba;" horiz-adv-x="1351" 
d="M897 926q224 0 327 -73.5t103 -231.5q0 -66 -14 -132l-94 -489h-390l72 365q14 74 14 110q0 94 -120 94h-275l-110 -569h-390l279 1434h389l-98 -508h307z" />
    <glyph glyph-name="uni04BB" unicode="&#x4bb;" horiz-adv-x="1134" 
d="M637 1434l-119 -619h4q125 162 324 162q133 0 213 -75.5t80 -231.5q0 -59 -17 -156l-100 -514h-379l90 459q8 41 8 80q0 133 -114 133q-76 0 -115.5 -51t-58.5 -146l-95 -475h-378l278 1434h379z" />
    <glyph glyph-name="uni04BC" unicode="&#x4bc;" horiz-adv-x="1988" 
d="M2013 844q0 -129 -43 -285h-2h-1057q29 -116 116 -168.5t233 -52.5q98 0 214 24.5t209 67.5l101 -360q-275 -101 -539 -101q-319 0 -517.5 157t-227.5 433h-25q-157 0 -263 98.5t-106 264.5q0 105 48 227h317q-45 -80 -45 -156q0 -54 29 -89t67 -38q33 128 104 236
t173 189.5t242 127t302 45.5t290.5 -46t211 -129t125.5 -196t43 -249zM1311 1126q-149 0 -246 -69.5t-137 -190.5h698v8q0 122 -86 187t-229 65z" />
    <glyph glyph-name="uni04BD" unicode="&#x4bd;" horiz-adv-x="1376" 
d="M1368 592q0 -83 -31 -207h-659q36 -125 203 -125q124 0 270 64l94 -277q-194 -78 -387 -78q-81 0 -154.5 15t-140 48t-117 81t-83.5 117.5t-41 154.5h-58q-110 0 -167.5 51.5t-57.5 151.5q0 45 10 84h201q-4 -24 -4 -41q0 -51 63 -51h29q21 81 64.5 150.5t110.5 125
t165.5 87.5t218.5 32q212 0 341.5 -100.5t129.5 -282.5zM1016 582q4 24 4 39q0 52 -37 80t-100 28q-141 0 -197 -147h330z" />
    <glyph glyph-name="uni04BE" unicode="&#x4be;" horiz-adv-x="1988" 
d="M2013 844q0 -129 -43 -285h-2h-1057q29 -116 116 -168.5t233 -52.5q98 0 214 24.5t209 67.5l101 -360q-90 -33 -154 -50h2q-127 -80 -177 -119t-50 -69q0 -15 13 -25t34 -10q24 0 76 10v-221q-110 -26 -174 -26q-221 0 -221 174q0 66 37 121.5t118 113.5h-43
q-319 0 -517.5 157t-227.5 433h-25q-157 0 -263 98.5t-106 264.5q0 105 48 227h317q-45 -80 -45 -156q0 -54 29 -89t67 -38q33 128 104 236t173 189.5t242 127t302 45.5t290.5 -46t211 -129t125.5 -196t43 -249zM1311 1126q-149 0 -246 -69.5t-137 -190.5h698v8
q0 122 -86 187t-229 65z" />
    <glyph glyph-name="uni04BF" unicode="&#x4bf;" horiz-adv-x="1376" 
d="M1368 592q0 -83 -31 -207h-659q36 -125 203 -125q124 0 270 64l94 -277q-54 -21 -94 -33q-122 -77 -169.5 -114.5t-47.5 -67.5q0 -15 13 -25t34 -10q24 0 76 10v-221q-110 -26 -174 -26q-221 0 -221 174q0 66 37 121.5t118 113.5q-95 5 -178.5 32t-152 76.5t-112 128.5
t-52.5 179h-58q-110 0 -167.5 51.5t-57.5 151.5q0 45 10 84h201q-4 -24 -4 -41q0 -51 63 -51h29q21 81 64.5 150.5t110.5 125t165.5 87.5t218.5 32q212 0 341.5 -100.5t129.5 -282.5zM1016 582q4 24 4 39q0 52 -37 80t-100 28q-141 0 -197 -147h330z" />
    <glyph glyph-name="uni04C0" unicode="&#x4c0;" horiz-adv-x="614" 
d="M688 1434l-278 -1434h-390l279 1434h389z" />
    <glyph glyph-name="uni04C1" unicode="&#x4c1;" horiz-adv-x="2347" 
d="M1411 1470q-161 0 -249.5 69.5t-88.5 174.5q0 21 4 53h230q-2 -8 -2 -24q0 -40 31 -64t87 -24q65 0 100.5 31t45.5 81h258q-33 -144 -142.5 -220.5t-273.5 -76.5zM2527 1434l-665 -723l403 -711h-485l-348 698l-136 -698h-368l135 698l-619 -698h-546l755 793l-340 641
h465l299 -664l129 664h369l-129 -662l557 662h524z" />
    <glyph glyph-name="uni04C2" unicode="&#x4c2;" horiz-adv-x="1939" 
d="M1116 1012q-63 0 -120 15t-106.5 45.5t-78.5 85t-29 126.5q0 31 11 88h217q-2 -10 -2 -31q0 -110 118 -110q44 0 76 12.5t50.5 36.5t27 44t16.5 48h244q-12 -70 -40.5 -130.5t-77.5 -114t-127.5 -84.5t-178.5 -31zM1993 946l-437 -479l281 -467h-446l-217 469l-93 -469
h-358l92 469l-401 -469h-496l522 528l-215 418h420l182 -407l80 407h359l-80 -407l342 407h465z" />
    <glyph glyph-name="uni04C3" unicode="&#x4c3;" horiz-adv-x="1495" 
d="M1034 793q196 0 284.5 -61.5t88.5 -201.5q0 -56 -16 -147l-68 -354q-41 -216 -195.5 -327.5t-369.5 -111.5h-185l70 357h86q42 0 73.5 6.5t63 23.5t53 51t31.5 85l41 204q8 36 8 66q0 52 -30 72t-95 20q-81 0 -376 -22l-88 -453h-390l279 1434h389l-117 -596l559 596h510
l-690 -643q33 2 84 2z" />
    <glyph glyph-name="uni04C4" unicode="&#x4c4;" horiz-adv-x="1200" 
d="M731 506q346 -10 346 -279q0 -40 -10 -98l-35 -180q-22 -114 -93 -197t-168 -122.5t-210 -39.5h-158l68 342h70q120 0 137 97l12 69q8 44 8 82q0 51 -21.5 65.5t-84.5 14.5q-89 0 -184 -10l-50 -250h-378l184 946h379l-70 -360l332 360h457z" />
    <glyph glyph-name="uni04C5" unicode="&#x4c5;" horiz-adv-x="1691" 
d="M1403 219h250l-305 -487h-322l158 268h-213l209 1077h-480l-137 -708q-38 -194 -156 -284.5t-327 -90.5h-152l70 356h108q26 0 48.5 20.5t27.5 45.5l199 1018h389h868z" />
    <glyph glyph-name="uni04C6" unicode="&#x4c6;" horiz-adv-x="1363" 
d="M1077 219h248l-305 -487h-322l158 268h-201l121 625h-211l-49 -252q-40 -206 -135 -294t-289 -89l-176 -2l68 346h53q48 0 75 23t38 85l98 504h379h592z" />
    <glyph glyph-name="uni04C7" unicode="&#x4c7;" horiz-adv-x="1492" 
d="M1178 1434h389l-279 -1438q-22 -116 -68.5 -197t-114 -125.5t-144 -63.5t-173.5 -20l-180 -2l70 355h113q23 0 37 2.5t31 12t29 31.5t19 58l99 510h-488l-108 -557h-390l279 1434h389l-100 -521h489z" />
    <glyph glyph-name="uni04C8" unicode="&#x4c8;" horiz-adv-x="1177" 
d="M1198 946l-184 -946l-4 -16q-19 -95 -55 -165.5t-81.5 -113.5t-107.5 -69.5t-125.5 -36t-142.5 -9.5h-123l67 353h64h8q26 0 39.5 2t34 10.5t34 32t21.5 61.5l14 70l43 221h-276l-66 -340h-378l184 946h379l-58 -299h277l57 299h379z" />
    <glyph glyph-name="uni04C9" unicode="&#x4c9;" horiz-adv-x="1595" 
d="M1567 1434l-236 -1215h225l-305 -487h-321l157 268h-188l109 557h-490l-108 -557h-390l279 1434h389l-100 -521h489l101 521h389z" />
    <glyph glyph-name="uni04CA" unicode="&#x4ca;" horiz-adv-x="1345" 
d="M1057 219h250l-306 -487h-321l158 268h-203l65 340h-276l-66 -340h-378l184 946h379l-58 -299h277l57 299h379z" />
    <glyph glyph-name="uni04CB" unicode="&#x4cb;" horiz-adv-x="1351" 
d="M1425 1434l-278 -1434h-244l-55 -287h-389l102 523h242l53 272h-307q-224 0 -327 73.5t-103 231.5q0 65 14 131l94 490h389l-71 -365q-15 -79 -15 -111q0 -94 121 -94h275l110 570h389z" />
    <glyph glyph-name="uni04CC" unicode="&#x4cc;" horiz-adv-x="1110" 
d="M1120 946l-184 -946h-213l-51 -266h-338l82 420h172l22 125h-260q-153 0 -233 61t-80 180q0 79 22 201l45 225h369l-35 -178q-18 -90 -18 -131q0 -59 76 -59h174l71 368h379z" />
    <glyph glyph-name="uni04CD" unicode="&#x4cd;" horiz-adv-x="2162" 
d="M1812 219h312l-305 -487h-322l158 268h-195l-61 735h-4l-336 -540h-252l-135 540h-4l-340 -735h-420l682 1434h289l145 -646h2l391 646h289z" />
    <glyph glyph-name="uni04CE" unicode="&#x4ce;" horiz-adv-x="1714" 
d="M1356 219h319l-305 -487h-321l157 268h-178l-35 428h-6l-190 -315h-209l-68 315h-6l-203 -428h-383l488 946h268l76 -385h8l227 385h269z" />
    <glyph glyph-name="uni04CF" unicode="&#x4cf;" horiz-adv-x="542" 
d="M553 946l-184 -946h-379l184 946h379z" />
    <glyph glyph-name="uni04D0" unicode="&#x4d0;" horiz-adv-x="1525" 
d="M971 1470q-161 0 -249.5 69.5t-88.5 174.5q0 21 4 53h229q-2 -8 -2 -24q0 -40 31.5 -64t87.5 -24q123 0 145 112h258q-33 -144 -142 -220.5t-273 -76.5zM1020 0l-35 268h-489l-140 -268h-448l835 1434h414l277 -1434h-414zM653 575h293l-59 451z" />
    <glyph glyph-name="uni04D1" unicode="&#x4d1;" horiz-adv-x="1214" 
d="M1184 1372q-12 -70 -40.5 -130.5t-77.5 -114t-127.5 -84.5t-178.5 -31q-63 0 -120 15t-106.5 45.5t-78.5 85t-29 126.5q0 36 10 88h217q-2 -10 -2 -31q0 -110 119 -110q44 0 76 12.5t50.5 36.5t27 44t16.5 48h244zM420 -31q-178 0 -281.5 121t-103.5 328q0 249 143 404
t373 155q236 0 317 -172h4l25 141h379l-184 -946h-379l24 121h-4q-122 -152 -313 -152zM596 299q84 0 139.5 55.5t55.5 139.5q0 70 -44 111.5t-118 41.5q-84 0 -139.5 -55t-55.5 -139q0 -70 44 -112t118 -42z" />
    <glyph glyph-name="uni04D2" unicode="&#x4d2;" horiz-adv-x="1525" 
d="M918 1767l-48 -245h-309l47 245h310zM1370 1767l-47 -245h-309l47 245h309zM1020 0l-35 268h-489l-140 -268h-448l835 1434h414l277 -1434h-414zM653 575h293l-59 451z" />
    <glyph glyph-name="uni04D3" unicode="&#x4d3;" horiz-adv-x="1214" 
d="M756 1339l-58 -297h-264l58 297h264zM1120 1339l-57 -297h-264l57 297h264zM420 -31q-178 0 -281.5 121t-103.5 328q0 249 143 404t373 155q236 0 317 -172h4l25 141h379l-184 -946h-379l24 121h-4q-122 -152 -313 -152zM596 299q84 0 139.5 55.5t55.5 139.5
q0 70 -44 111.5t-118 41.5q-84 0 -139.5 -55t-55.5 -139q0 -70 44 -112t118 -42z" />
    <glyph glyph-name="uni04D4" unicode="&#x4d4;" horiz-adv-x="2170" 
d="M2195 1077h-483l-33 -170h420l-65 -338h-420l-41 -213h514l-70 -356h-610h-283l52 268h-549l-221 -268h-498l1233 1434h641h483zM883 575h354l109 560z" />
    <glyph glyph-name="uni04D5" unicode="&#x4d5;" horiz-adv-x="1726" 
d="M379 -31q-180 0 -278.5 85t-98.5 233q0 160 113 257t293 97q113 0 192 -38t111 -101h4q0 11 3 28t3 21q14 88 -27 129t-157 41q-83 0 -263 -25l-51 248q219 33 352 33q159 0 248 -39.5t119 -136.5h4q52 83 143.5 128.5t215.5 45.5q83 0 154 -21.5t129.5 -66t92 -122
t33.5 -181.5q0 -75 -26 -199h-641q8 -44 28 -73t49.5 -41.5t54.5 -16.5t60 -4q133 0 262 53l86 -264q-190 -70 -373 -70q-136 0 -246 45t-169 148h-4q-149 -193 -416 -193zM1077 580h291q2 10 2 30q0 56 -33.5 85.5t-93.5 29.5q-69 0 -112 -39.5t-54 -105.5zM551 227
q60 0 95.5 30.5t35.5 74.5q0 40 -31 66t-86 26q-60 0 -95.5 -30.5t-35.5 -74.5q0 -40 31 -66t86 -26z" />
    <glyph glyph-name="uni04D6" unicode="&#x4d6;" horiz-adv-x="1118" 
d="M811 1470q-161 0 -249.5 69.5t-88.5 174.5q0 21 4 53h230q-2 -8 -2 -24q0 -40 31 -64t87 -24q65 0 100.5 31t45.5 81h258q-33 -144 -142.5 -220.5t-273.5 -76.5zM20 0l279 1434h913l-69 -357h-525l-32 -170h461l-66 -338h-461l-41 -213h555l-69 -356h-945z" />
    <glyph glyph-name="uni04D7" unicode="&#x4d7;" horiz-adv-x="1132" 
d="M676 1012q-63 0 -120 15t-106.5 45.5t-78.5 85t-29 126.5q0 36 10 88h217q-2 -10 -2 -31q0 -110 119 -110q44 0 76 12.5t50.5 36.5t27 44t16.5 48h244q-12 -70 -40.5 -130.5t-77.5 -114t-127.5 -84.5t-178.5 -31zM612 975q212 0 341.5 -100.5t129.5 -282.5
q0 -87 -30 -207h-660q36 -125 203 -125q124 0 270 64l95 -277q-194 -78 -388 -78q-86 0 -164 17t-147 53.5t-119 90.5t-79 133t-29 175q0 100 34.5 193t102 171.5t181.5 125.5t259 47zM731 582q4 24 4 39q0 52 -37 80t-100 28q-141 0 -197 -147h330z" />
    <glyph glyph-name="uni04D8" unicode="&#x4d8;" horiz-adv-x="1593" 
d="M864 1464q347 0 544.5 -183t197.5 -505q0 -236 -107.5 -420t-301.5 -285.5t-443 -101.5q-323 0 -505.5 160t-182.5 444q0 114 45 301h1083q-49 232 -356 232q-200 0 -453 -64l-76 344q120 35 271.5 56.5t283.5 21.5zM760 307q162 0 267.5 66t148.5 194h-721
q-5 -127 72.5 -193.5t232.5 -66.5z" />
    <glyph glyph-name="uni04D9" unicode="&#x4d9;" horiz-adv-x="1101" 
d="M528 977q86 0 164 -17t147 -53.5t119.5 -90.5t79.5 -133t29 -175q0 -79 -21 -155t-67 -145.5t-112 -122t-163.5 -83.5t-214.5 -31q-212 0 -341.5 100.5t-129.5 282.5q0 83 31 207h660q-36 125 -203 125q-127 0 -270 -63l-95 276q194 78 387 78zM504 217q140 0 196 148
h-329q-4 -24 -4 -39q0 -52 37 -80.5t100 -28.5z" />
    <glyph glyph-name="uni04DA" unicode="&#x4da;" horiz-adv-x="1593" 
d="M893 1767l-47 -245h-309l47 245h309zM1346 1767l-48 -245h-309l47 245h310zM864 1464q347 0 544.5 -183t197.5 -505q0 -236 -107.5 -420t-301.5 -285.5t-443 -101.5q-323 0 -505.5 160t-182.5 444q0 114 45 301h1083q-49 232 -356 232q-200 0 -453 -64l-76 344
q120 35 271.5 56.5t283.5 21.5zM760 307q162 0 267.5 66t148.5 194h-721q-5 -127 72.5 -193.5t232.5 -66.5z" />
    <glyph glyph-name="uni04DB" unicode="&#x4db;" horiz-adv-x="1101" 
d="M659 1339l-57 -297h-264l57 297h264zM1024 1339l-57 -297h-265l58 297h264zM528 977q86 0 164 -17t147 -53.5t119.5 -90.5t79.5 -133t29 -175q0 -79 -21 -155t-67 -145.5t-112 -122t-163.5 -83.5t-214.5 -31q-212 0 -341.5 100.5t-129.5 282.5q0 83 31 207h660
q-36 125 -203 125q-127 0 -270 -63l-95 276q194 78 387 78zM504 217q140 0 196 148h-329q-4 -24 -4 -39q0 -52 37 -80.5t100 -28.5z" />
    <glyph glyph-name="uni04DC" unicode="&#x4dc;" horiz-adv-x="2347" 
d="M1358 1767l-47 -245h-310l48 245h309zM1810 1767l-47 -245h-309l47 245h309zM2527 1434l-665 -723l403 -711h-485l-348 698l-136 -698h-368l135 698l-619 -698h-546l755 793l-340 641h465l299 -664l129 664h369l-129 -662l557 662h524z" />
    <glyph glyph-name="uni04DD" unicode="&#x4dd;" horiz-adv-x="1939" 
d="M1112 1339l-57 -297h-264l57 297h264zM1477 1339l-58 -297h-264l57 297h265zM1993 946l-437 -479l281 -467h-446l-217 469l-93 -469h-358l92 469l-401 -469h-496l522 528l-215 418h420l182 -407l80 407h359l-80 -407l342 407h465z" />
    <glyph glyph-name="uni04DE" unicode="&#x4de;" horiz-adv-x="1271" 
d="M784 1767l-47 -245h-309l47 245h309zM1237 1767l-47 -245h-309l47 245h309zM774 1464q248 0 376 -92t128 -248q0 -135 -89.5 -235.5t-244.5 -130.5l-2 -4q124 -24 191 -107.5t67 -226.5q0 -70 -16.5 -131t-61 -121t-113.5 -103t-181.5 -69.5t-258.5 -26.5
q-360 0 -610 160l186 336q205 -137 430 -137q224 0 224 118q0 129 -293 129h-125l61 310h129q145 0 219 42t74 105q0 42 -35 60t-108 18q-160 0 -404 -92l-139 323q129 54 286 88.5t310 34.5z" />
    <glyph glyph-name="uni04DF" unicode="&#x4df;" horiz-adv-x="972" 
d="M608 1339l-57 -297h-264l57 297h264zM973 1339l-58 -297h-264l58 297h264zM387 -31q-267 0 -436 92l135 226q159 -76 330 -76q141 0 141 78q0 32 -25 46.5t-90 14.5h-200l49 248h201q96 0 96 72q0 36 -28 51.5t-87 15.5q-126 0 -311 -55l-68 223q229 72 447 72
q413 0 413 -227q0 -40 -13.5 -78t-44 -75.5t-88.5 -64.5t-138 -36v-4q103 -11 166 -66t63 -147q0 -38 -11 -74t-34.5 -71.5t-64 -64.5t-95.5 -52t-133.5 -35.5t-173.5 -12.5z" />
    <glyph glyph-name="uni04E0" unicode="&#x4e0;" horiz-adv-x="1187" 
d="M489 -31q-326 0 -555 119l189 354q101 -48 192 -73t199 -25q225 0 225 123q0 66 -62.5 98.5t-195.5 32.5h-180l51 264l287 219h-393l69 353h928l-51 -265l-465 -309q59 6 96 6q151 0 242.5 -104.5t91.5 -282.5q0 -83 -20.5 -155t-70 -138.5t-124.5 -113.5t-190.5 -75
t-262.5 -28z" />
    <glyph glyph-name="uni04E1" unicode="&#x4e1;" horiz-adv-x="944" 
d="M268 -440q-261 0 -497 104l151 303q194 -90 350 -90q102 0 152.5 42t50.5 116q0 127 -201 127h-211l46 229l352 252h-418l59 303h854l-51 -264l-448 -295q49 10 100 10q133 0 214 -91t81 -255q0 -76 -17.5 -143.5t-60 -132.5t-107.5 -111.5t-167.5 -75t-231.5 -28.5z" />
    <glyph glyph-name="uni04E2" unicode="&#x4e2;" horiz-adv-x="1597" 
d="M1440 1743l-43 -223h-707l43 223h707zM299 1434h389l-151 -781h4l827 781h303l-278 -1434h-389l151 780h-4l-827 -780h-304z" />
    <glyph glyph-name="uni04E3" unicode="&#x4e3;" horiz-adv-x="1236" 
d="M401 1073l48 238h679l-47 -238h-680zM-20 0l184 946h358l-90 -467h4l473 467h348l-184 -946h-358l90 467h-4l-473 -467h-348z" />
    <glyph glyph-name="uni04E4" unicode="&#x4e4;" horiz-adv-x="1597" 
d="M995 1767l-47 -245h-309l47 245h309zM1448 1767l-47 -245h-309l47 245h309zM299 1434h389l-151 -781h4l827 781h303l-278 -1434h-389l151 780h-4l-827 -780h-304z" />
    <glyph glyph-name="uni04E5" unicode="&#x4e5;" horiz-adv-x="1236" 
d="M741 1339l-57 -297h-264l57 297h264zM1106 1339l-57 -297h-265l58 297h264zM-20 0l184 946h358l-90 -467h4l473 467h348l-184 -946h-358l90 467h-4l-473 -467h-348z" />
    <glyph glyph-name="uni04E6" unicode="&#x4e6;" horiz-adv-x="1611" 
d="M903 1767l-47 -245h-309l47 245h309zM1356 1767l-47 -245h-310l48 245h309zM795 -31q-321 0 -517 185t-196 497q0 167 60 316t166.5 259t263 174t339.5 64q321 0 517 -185t196 -497q0 -167 -60 -316t-166.5 -259t-263 -174t-339.5 -64zM819 348q84 0 153.5 25.5
t115.5 67.5t77.5 97.5t45.5 112.5t14 115q0 147 -88.5 233t-249.5 86q-84 0 -153.5 -25.5t-115.5 -67.5t-77.5 -97t-45.5 -112t-14 -115q0 -147 89 -233.5t249 -86.5z" />
    <glyph glyph-name="uni04E7" unicode="&#x4e7;" horiz-adv-x="1175" 
d="M678 1339l-57 -297h-265l58 297h264zM1042 1339l-57 -297h-264l57 297h264zM551 -31q-110 0 -203 28t-164 83t-111 143.5t-40 202.5q0 115 41.5 215.5t117 175t187.5 117.5t246 43q110 0 203 -28t164 -83t111 -143.5t40 -202.5q0 -115 -41.5 -215.5t-117 -175
t-187.5 -117.5t-246 -43zM571 299q92 0 143.5 59.5t51.5 135.5q0 78 -47 115.5t-115 37.5q-92 0 -143 -59t-51 -135q0 -78 46.5 -116t114.5 -38z" />
    <glyph glyph-name="uni04E8" unicode="&#x4e8;" horiz-adv-x="1611" 
d="M911 1464q321 0 517 -185t196 -497q0 -167 -60 -316t-166.5 -259t-263 -174t-339.5 -64q-321 0 -517 185t-196 497q0 167 60 316t166.5 259t263 174t339.5 64zM887 1085q-151 0 -246.5 -74.5t-134.5 -191.5h715q-15 124 -102 195t-232 71zM819 348q151 0 246.5 74.5
t134.5 191.5h-715q15 -124 102 -195t232 -71z" />
    <glyph glyph-name="uni04E9" unicode="&#x4e9;" horiz-adv-x="1175" 
d="M625 977q110 0 203 -28t164 -83t111 -143.5t40 -202.5q0 -115 -41.5 -215.5t-117 -175t-187.5 -117.5t-246 -43q-110 0 -203 28t-164 83t-111 143.5t-40 202.5q0 115 41.5 215.5t117 175t187.5 117.5t246 43zM604 678q-83 0 -139.5 -40t-81.5 -103h420
q-13 72 -68.5 107.5t-130.5 35.5zM571 268q83 0 140 40.5t82 103.5h-420q13 -72 68 -108t130 -36z" />
    <glyph glyph-name="uni04EA" unicode="&#x4ea;" horiz-adv-x="1611" 
d="M903 1767l-47 -245h-309l47 245h309zM1356 1767l-47 -245h-310l48 245h309zM911 1464q321 0 517 -185t196 -497q0 -167 -60 -316t-166.5 -259t-263 -174t-339.5 -64q-321 0 -517 185t-196 497q0 167 60 316t166.5 259t263 174t339.5 64zM887 1085q-151 0 -246.5 -74.5
t-134.5 -191.5h715q-15 124 -102 195t-232 71zM819 348q151 0 246.5 74.5t134.5 191.5h-715q15 -124 102 -195t232 -71z" />
    <glyph glyph-name="uni04EB" unicode="&#x4eb;" horiz-adv-x="1175" 
d="M668 1339l-58 -297h-264l57 297h265zM1032 1339l-57 -297h-264l57 297h264zM625 977q110 0 203 -28t164 -83t111 -143.5t40 -202.5q0 -115 -41.5 -215.5t-117 -175t-187.5 -117.5t-246 -43q-110 0 -203 28t-164 83t-111 143.5t-40 202.5q0 115 41.5 215.5t117 175
t187.5 117.5t246 43zM604 678q-83 0 -139.5 -40t-81.5 -103h420q-13 72 -68.5 107.5t-130.5 35.5zM571 268q83 0 140 40.5t82 103.5h-420q13 -72 68 -108t130 -36z" />
    <glyph glyph-name="uni04EC" unicode="&#x4ec;" horiz-adv-x="1388" 
d="M766 1767l-47 -245h-309l47 245h309zM1219 1767l-48 -245h-309l47 245h310zM680 1464q215 0 376.5 -77t253 -231.5t91.5 -369.5q0 -180 -64.5 -332t-180.5 -258.5t-283 -166.5t-367 -60q-153 0 -296.5 32.5t-238.5 84.5l191 352q173 -84 375 -84q301 0 403 203h-446
l61 320h416q-54 202 -305 202q-161 0 -334 -92l-152 361q223 116 500 116z" />
    <glyph glyph-name="uni04ED" unicode="&#x4ed;" horiz-adv-x="962" 
d="M530 1339l-57 -297h-264l57 297h264zM895 1339l-57 -297h-265l58 297h264zM440 977q221 0 350.5 -117t129.5 -338q0 -252 -164.5 -402.5t-433.5 -150.5q-214 0 -363 86l139 262q98 -49 230 -49q94 0 158.5 35.5t93.5 95.5h-308l29 148h299q-24 129 -201 129
q-111 0 -221 -39l-80 287q67 22 162.5 37.5t179.5 15.5z" />
    <glyph glyph-name="uni04EE" unicode="&#x4ee;" horiz-adv-x="1492" 
d="M1325 1743l-43 -223h-707l43 223h707zM1239 1434h451l-979 -1434h-451l250 365l-334 1069h410l198 -666z" />
    <glyph glyph-name="uni04EF" unicode="&#x4ef;" horiz-adv-x="1232" 
d="M1100 1311l-47 -238h-680l47 238h680zM883 946h399l-842 -1356h-403l338 516l-283 840h385l123 -475z" />
    <glyph glyph-name="uni04F0" unicode="&#x4f0;" horiz-adv-x="1492" 
d="M881 1767l-47 -245h-310l47 245h310zM1333 1767l-47 -245h-309l47 245h309zM1239 1434h451l-979 -1434h-451l250 365l-334 1069h410l198 -666z" />
    <glyph glyph-name="uni04F1" unicode="&#x4f1;" horiz-adv-x="1232" 
d="M713 1339l-58 -297h-264l58 297h264zM1077 1339l-57 -297h-264l57 297h264zM883 946h399l-842 -1356h-403l338 516l-283 840h385l123 -475z" />
    <glyph glyph-name="uni04F2" unicode="&#x4f2;" horiz-adv-x="1492" 
d="M1219 1767l-283 -245h-256l266 245h273zM1294 1522h-256l267 245h272zM1239 1434h451l-979 -1434h-451l250 365l-334 1069h410l198 -666z" />
    <glyph glyph-name="uni04F3" unicode="&#x4f3;" horiz-adv-x="1232" 
d="M977 1346l-367 -316h-272l332 316h307zM1020 1030h-272l331 316h307zM600 471l283 475h399l-842 -1356h-403l338 516l-283 840h385z" />
    <glyph glyph-name="uni04F4" unicode="&#x4f4;" horiz-adv-x="1351" 
d="M795 1767l-47 -245h-310l47 245h310zM1247 1767l-47 -245h-309l47 245h309zM1036 1434h389l-278 -1434h-389l98 508h-307q-224 0 -327 73.5t-103 231.5q0 65 14 131l94 490h389l-71 -365q-15 -79 -15 -111q0 -94 121 -94h275z" />
    <glyph glyph-name="uni04F5" unicode="&#x4f5;" horiz-adv-x="1110" 
d="M633 1339l-58 -297h-264l58 297h264zM997 1339l-57 -297h-264l57 297h264zM741 946h379l-184 -946h-379l53 279h-260q-153 0 -233 61t-80 180q0 79 22 201l45 225h369l-35 -178q-18 -90 -18 -131q0 -59 76 -59h174z" />
    <glyph glyph-name="uni04F8" unicode="&#x4f8;" horiz-adv-x="1865" 
d="M924 1767l-47 -245h-310l47 245h310zM1376 1767l-47 -245h-309l47 245h309zM768 969q107 0 193 -21.5t157 -69.5t110.5 -133.5t39.5 -203.5q0 -114 -37.5 -211t-110.5 -171.5t-190.5 -116.5t-267.5 -42h-642l279 1434h389l-90 -465h170zM1550 1434h389l-278 -1434h-389z
M676 332q92 0 137 50t45 120q0 72 -46 103.5t-118 31.5h-162l-59 -305h203z" />
    <glyph glyph-name="uni04F9" unicode="&#x4f9;" horiz-adv-x="1564" 
d="M913 1339l-57 -297h-264l57 297h264zM1278 1339l-57 -297h-265l58 297h264zM690 690q66 0 124 -18.5t104 -54.5t73 -96.5t27 -137.5q0 -162 -110 -272.5t-292 -110.5h-636l184 946h379l-49 -256h196zM1206 946h379l-184 -946h-379zM504 229q72 0 106.5 38.5t34.5 92.5
q0 101 -127 101h-69l-46 -232h101z" />
    <glyph glyph-name="uni04FC" unicode="&#x4fc;" horiz-adv-x="1613" 
d="M1143 743l209 -401q67 -126 95 -203t28 -168q0 -179 -120 -280t-376 -101h-188l67 334h66q55 0 90 28t35 71q0 49 -50 141l-153 293l-418 -457h-520l729 784l-367 650h463l203 -367l344 367h520z" />
    <glyph glyph-name="uni04FD" unicode="&#x4fd;" horiz-adv-x="1179" 
d="M831 469l160 -254q74 -120 74 -252q0 -184 -121.5 -278.5t-345.5 -94.5h-164l68 342h84q119 0 119 72q0 22 -13.5 49.5t-48.5 85.5l-55 88l-232 -227h-448l510 504l-277 442h398l125 -198l198 198h451z" />
    <glyph glyph-name="uni0510" unicode="&#x510;" horiz-adv-x="1292" 
d="M799 1464q155 0 298 -33.5t246 -82.5l-159 -330q-219 92 -383 92q-185 0 -185 -102q0 -123 242 -123h129l-59 -310h-125q-161 0 -253.5 -37.5t-92.5 -115.5q0 -48 41 -71t139 -23q207 0 432 102l141 -324q-271 -137 -618 -137q-123 0 -219.5 20t-158.5 55t-102.5 85
t-57.5 105.5t-17 121.5q0 168 107.5 269.5t301.5 128.5v4q-104 25 -158.5 107.5t-54.5 193.5q0 185 147 295t419 110z" />
    <glyph glyph-name="uni0511" unicode="&#x511;" horiz-adv-x="946" 
d="M403 -31q-201 0 -308 63t-107 191q0 70 27.5 122t77.5 82t108.5 45.5t130.5 19.5v4q-101 15 -160 76.5t-59 148.5q0 39 12.5 74t45.5 69t84 58.5t134.5 39.5t190.5 15q216 0 417 -53l-100 -230q-158 37 -285 37q-151 0 -151 -74q0 -59 82 -59h178l-47 -248h-178
q-146 0 -146 -74q0 -35 25.5 -51t93.5 -16q148 0 317 63l64 -245q-212 -58 -447 -58z" />
    <glyph glyph-name="uni0512" unicode="&#x512;" horiz-adv-x="1558" 
d="M1632 1434l-278 -1438q-22 -116 -68 -197t-113.5 -125.5t-143.5 -63.5t-173 -20l-178 -2l67 355h111q18 0 29.5 1t27.5 7t26.5 16.5t20.5 30.5t15 49l201 1030h-480l-137 -708q-38 -194 -156 -284.5t-327 -90.5h-148l70 356h104q26 0 48.5 20.5t27.5 45.5l199 1018h1255z
" />
    <glyph glyph-name="uni0513" unicode="&#x513;" horiz-adv-x="1208" 
d="M1219 946l-185 -946l-4 -16q-19 -95 -55 -165.5t-81.5 -113.5t-107.5 -69.5t-125.5 -36t-142.5 -9.5h-123l68 353h63h8q21 0 31.5 0.5t29 6t29.5 16t22.5 31.5t17.5 52l14 70l98 506h-211l-49 -252q-40 -206 -135 -294t-289 -89l-176 -2l68 346h53q48 0 75 23t38 85
l98 504h379h592z" />
    <glyph glyph-name="uni051C" unicode="&#x51c;" horiz-adv-x="2310" 
d="M2486 1434l-794 -1434h-324l-143 825h-4l-463 -825h-324l-237 1434h432l78 -785h4l440 785h328l141 -785h4l381 785h481z" />
    <glyph glyph-name="uni051D" unicode="&#x51d;" horiz-adv-x="1751" 
d="M1456 946h387l-547 -946h-315l-107 479l-288 -479h-314l-180 946h342l76 -469l266 469h340l88 -471z" />
    <glyph glyph-name="uni0524" unicode="&#x524;" horiz-adv-x="1564" 
d="M1575 1434l-234 -1198h197l-102 -523h-389l55 287h-195l209 1077h-498l-208 -1077h-390l279 1434h1276z" />
    <glyph glyph-name="uni0525" unicode="&#x525;" horiz-adv-x="1314" 
d="M1065 154h168l-82 -420h-338l51 266h-209l119 608h-297l-119 -608h-378l184 946h379h635h41z" />
    <glyph glyph-name="uni0526" unicode="&#x526;" horiz-adv-x="1497" 
d="M1264 236h206l-102 -523h-389l55 287h-205l72 365q14 74 14 110q0 94 -120 94h-275l-110 -569h-390l279 1434h389l-98 -508h307q224 0 327 -73.5t103 -231.5q0 -66 -14 -132z" />
    <glyph glyph-name="uni0527" unicode="&#x527;" horiz-adv-x="1306" 
d="M1063 154h162l-82 -420h-338l51 266h-203l90 459q9 47 9 80q0 133 -115 133q-76 0 -115.5 -51t-58.5 -146l-94 -475h-379l278 1434h379l-119 -619h4q125 162 324 162q133 0 213 -75.5t80 -231.5q0 -65 -16 -156z" />
    <glyph glyph-name="uni0E3F" unicode="&#xe3f;" horiz-adv-x="1171" 
d="M1176 1047q0 -138 -79 -228.5t-223 -124.5l-2 -6q197 -57 197 -274q0 -191 -135 -302.5t-399 -111.5h-25l-35 -178h-57l35 178h-463l268 1382h463l35 179h57l-35 -179q190 -3 294 -86t104 -249zM664 1090h-125l-54 -279h125zM668 811q83 1 124.5 42.5t41.5 107.5
q0 107 -113 124zM385 293h125l53 278h-125zM567 293q75 5 119.5 42.5t44.5 106.5q0 110 -110 127z" />
    <glyph glyph-name="Wgrave" unicode="&#x1e80;" horiz-adv-x="2310" 
d="M1296 1767l215 -245h-268l-336 245h389zM2486 1434l-794 -1434h-324l-143 825h-4l-463 -825h-324l-237 1434h432l78 -785h4l440 785h328l141 -785h4l381 785h481z" />
    <glyph glyph-name="wgrave" unicode="&#x1e81;" horiz-adv-x="1751" 
d="M1141 1133h-277l-323 315h397zM1456 946h387l-547 -946h-315l-107 479l-288 -479h-314l-180 946h342l76 -469l266 469h340l88 -471z" />
    <glyph glyph-name="Wacute" unicode="&#x1e82;" horiz-adv-x="2310" 
d="M1849 1767l-430 -245h-268l309 245h389zM2486 1434l-794 -1434h-324l-143 825h-4l-463 -825h-324l-237 1434h432l78 -785h4l440 785h328l141 -785h4l381 785h481z" />
    <glyph glyph-name="wacute" unicode="&#x1e83;" horiz-adv-x="1751" 
d="M1536 1448l-434 -315h-287l324 315h397zM1456 946h387l-547 -946h-315l-107 479l-288 -479h-314l-180 946h342l76 -469l266 469h340l88 -471z" />
    <glyph glyph-name="Wdieresis" unicode="&#x1e84;" horiz-adv-x="2310" 
d="M1284 1767l-47 -245h-309l47 245h309zM1737 1767l-47 -245h-310l47 245h310zM2486 1434l-794 -1434h-324l-143 825h-4l-463 -825h-324l-237 1434h432l78 -785h4l440 785h328l141 -785h4l381 785h481z" />
    <glyph glyph-name="wdieresis" unicode="&#x1e85;" horiz-adv-x="1751" 
d="M991 1413l-57 -297h-285l58 297h284zM1397 1413l-58 -297h-284l57 297h285zM1456 946h387l-547 -946h-315l-107 479l-288 -479h-314l-180 946h342l76 -469l266 469h340l88 -471z" />
    <glyph glyph-name="Ygrave" unicode="&#x1ef2;" horiz-adv-x="1480" 
d="M1098 1522h-269l-335 245h389zM1677 1434l-743 -959l-92 -475h-389l94 483l-371 951h440l172 -576h5l395 576h489z" />
    <glyph glyph-name="ygrave" unicode="&#x1ef3;" horiz-adv-x="1189" 
d="M877 1133h-277l-324 315h398zM883 946h399l-842 -1356h-403l338 516l-283 840h385l123 -475z" />
    <glyph glyph-name="endash" unicode="&#x2013;" horiz-adv-x="1501" 
d="M1462 700l-55 -286h-1335l55 286h1335z" />
    <glyph glyph-name="emdash" unicode="&#x2014;" horiz-adv-x="2363" 
d="M2306 700l-53 -274h-2159l53 274h2159z" />
    <glyph glyph-name="quoteleft" unicode="&#x2018;" horiz-adv-x="477" 
d="M678 1608l-236 -332h119l-65 -330h-332l65 330l312 332h137z" />
    <glyph glyph-name="quoteright" unicode="&#x2019;" horiz-adv-x="477" 
d="M266 1464h332l-66 -329l-311 -332h-137l235 332h-118z" />
    <glyph glyph-name="quotesinglbase" unicode="&#x201a;" horiz-adv-x="479" 
d="M47 330h332l-66 -330l-311 -332h-137l235 332h-118z" />
    <glyph glyph-name="quotedblleft" unicode="&#x201c;" horiz-adv-x="894" 
d="M678 1608l-236 -332h119l-65 -330h-332l65 330l312 332h137zM1096 1608l-236 -332h119l-66 -330h-331l65 330l311 332h138z" />
    <glyph glyph-name="quotedblright" unicode="&#x201d;" horiz-adv-x="894" 
d="M598 1464l-66 -329l-311 -332h-137l235 332h-118l65 329h332zM684 1464h332l-66 -329l-311 -332h-137l235 332h-119z" />
    <glyph glyph-name="quotedblbase" unicode="&#x201e;" horiz-adv-x="897" 
d="M379 330l-66 -330l-311 -332h-137l235 332h-118l65 330h332zM465 330h332l-66 -330l-311 -332h-137l235 332h-119z" />
    <glyph glyph-name="dagger" unicode="&#x2020;" horiz-adv-x="1165" 
d="M1165 1001l-55 -286h-328l-176 -905h-303l176 905h-329l55 286h330l83 433h304l-84 -433h327z" />
    <glyph glyph-name="daggerdbl" unicode="&#x2021;" horiz-adv-x="1167" 
d="M1130 815h-327l-68 -344h328l-55 -287h-328l-74 -374h-303l74 374h-330l55 287h330l68 344h-330l55 287h330l66 332h303l-66 -332h328z" />
    <glyph glyph-name="bullet" unicode="&#x2022;" horiz-adv-x="864" 
d="M487 1038q125 0 208 -83.5t83 -209.5q0 -124 -83 -206t-210 -82q-126 0 -209 83t-83 208t83.5 207.5t210.5 82.5z" />
    <glyph glyph-name="ellipsis" unicode="&#x2026;" horiz-adv-x="1658" 
d="M436 385l-76 -385h-380l75 385h381zM1004 385l-76 -385h-381l76 385h381zM1571 385l-76 -385h-381l76 385h381z" />
    <glyph glyph-name="perthousand" unicode="&#x2030;" horiz-adv-x="2482" 
d="M545 768q-140 0 -230 80t-90 215q0 72 24 138.5t69.5 121.5t121.5 88t170 33q140 0 230 -80t90 -215q0 -72 -24 -138.5t-69.5 -121.5t-121.5 -88t-170 -33zM248 0l1083 1382h185l-1084 -1382h-184zM555 946q89 0 138.5 58t49.5 131q0 62 -38 96.5t-105 34.5
q-89 0 -138.5 -58t-49.5 -131q0 -62 38 -96.5t105 -34.5zM1194 -10q-140 0 -230 80t-90 215q0 72 24 138.5t70 121.5t122 88t170 33q140 0 229.5 -80t89.5 -215q0 -72 -24 -138.5t-69.5 -121.5t-121.5 -88t-170 -33zM2032 666q140 0 229.5 -80t89.5 -215q0 -72 -24 -138.5
t-69.5 -121.5t-121.5 -88t-170 -33q-140 0 -229.5 80t-89.5 215q0 72 24 138.5t69.5 121.5t121.5 88t170 33zM1204 168q89 0 139 57.5t50 130.5q0 62 -38.5 96.5t-105.5 34.5q-89 0 -138.5 -57.5t-49.5 -130.5q0 -62 38 -96.5t105 -34.5zM2021 487q-89 0 -138.5 -57.5
t-49.5 -130.5q0 -62 38 -96.5t105 -34.5q89 0 139 57.5t50 130.5q0 62 -38.5 96.5t-105.5 34.5z" />
    <glyph glyph-name="guilsinglleft" unicode="&#x2039;" horiz-adv-x="839" 
d="M897 872l-481 -417l262 -344h-361l-282 381l430 380h432z" />
    <glyph glyph-name="guilsinglright" unicode="&#x203a;" horiz-adv-x="839" 
d="M-49 111l481 417l-262 344h360l283 -380l-430 -381h-432z" />
    <glyph glyph-name="fraction" unicode="&#x2044;" horiz-adv-x="303" 
d="M-440 0l1083 1382h184l-1083 -1382h-184z" />
    <glyph glyph-name="uni2070" unicode="&#x2070;" horiz-adv-x="929" 
d="M621 1645q182 0 286.5 -105t104.5 -309q0 -105 -26.5 -199.5t-77.5 -171.5t-136 -122.5t-192 -45.5q-182 0 -287 105t-105 309q0 105 26.5 199.5t78 171.5t136.5 122.5t192 45.5zM621 1356q-42 0 -71 -28.5t-41.5 -72.5t-17 -78.5t-4.5 -66.5q0 -129 91 -129
q42 0 71 27.5t41.5 71t17.5 79t5 68.5q0 129 -92 129z" />
    <glyph glyph-name="uni2074" unicode="&#x2074;" horiz-adv-x="825" 
d="M944 1626l-104 -536h75l-49 -250h-75l-25 -127h-274l24 127h-424l43 223l539 563h270zM399 1090h166l39 198h-6z" />
    <glyph glyph-name="uni2075" unicode="&#x2075;" horiz-adv-x="739" 
d="M567 1303q109 0 176.5 -69t67.5 -194q0 -70 -22.5 -130t-70 -110t-132.5 -79t-199 -29q-185 0 -311 64l96 254q42 -20 110 -36t119 -13q125 6 125 86q0 67 -61 67q-50 0 -74 -43h-235l143 555h549l-51 -264h-340l-25 -92h4q53 33 131 33z" />
    <glyph glyph-name="uni2076" unicode="&#x2076;" horiz-adv-x="813" 
d="M496 692q-171 0 -266 84t-95 240q0 69 18.5 131t59 122.5t87 112t120.5 121.5l145 139h359l-410 -354l4 -2q81 62 158 62q102 0 163.5 -78t61.5 -201q0 -75 -24 -141t-71.5 -119.5t-127.5 -85t-182 -31.5zM506 952q43 0 64.5 27t21.5 59q0 29 -18.5 49.5t-53.5 20.5
q-43 0 -64.5 -27t-21.5 -59q0 -28 18.5 -49t53.5 -21z" />
    <glyph glyph-name="uni2077" unicode="&#x2077;" horiz-adv-x="706" 
d="M909 1626l-53 -266l-471 -647h-322l461 622h-346l58 291h673z" />
    <glyph glyph-name="uni2078" unicode="&#x2078;" horiz-adv-x="872" 
d="M510 692q-182 0 -272.5 68t-90.5 184q0 103 67.5 170t170.5 78l2 4q-63 16 -95 66t-32 112q0 52 22 99t65 86t117 62.5t169 23.5q148 0 242 -56t94 -172q0 -81 -50.5 -140.5t-150.5 -80.5l-2 -4q68 -18 108.5 -71t40.5 -134q0 -58 -22 -108.5t-67.5 -93.5t-126.5 -68
t-189 -25zM604 1300q33 0 52.5 19.5t19.5 46.5q0 23 -17 38t-45 15q-33 0 -52 -19t-19 -46q0 -24 17 -39t44 -15zM535 940q40 0 61.5 22.5t21.5 55.5q0 31 -20 46t-51 15q-41 0 -62.5 -22.5t-21.5 -55.5q0 -31 20 -46t52 -15z" />
    <glyph glyph-name="uni2079" unicode="&#x2079;" horiz-adv-x="827" 
d="M162 713l436 344l-2 2q-81 -60 -174 -60q-73 0 -126 45.5t-76 109t-23 132.5q0 66 23 127.5t68.5 114.5t124.5 85t181 32q57 0 107.5 -10.5t97 -34.5t79.5 -61.5t52.5 -94.5t19.5 -129q0 -149 -78.5 -268t-230.5 -236l-127 -98h-352zM571 1233q43 0 64.5 27t21.5 59
q0 29 -17.5 49.5t-53.5 20.5q-43 0 -64.5 -27t-21.5 -59q0 -29 17.5 -49.5t53.5 -20.5z" />
    <glyph glyph-name="uni2080" unicode="&#x2080;" horiz-adv-x="929" 
d="M438 707q182 0 286.5 -105t104.5 -309q0 -105 -26.5 -199.5t-77.5 -171.5t-136 -122.5t-192 -45.5q-182 0 -286.5 105t-104.5 309q0 105 26.5 199.5t77.5 171.5t136 122.5t192 45.5zM438 418q-42 0 -70.5 -28t-41 -72.5t-17 -79t-4.5 -66.5q0 -71 23.5 -100t66.5 -29
q42 0 71 27.5t41.5 71t17.5 79t5 68.5q0 129 -92 129z" />
    <glyph glyph-name="uni2081" unicode="&#x2081;" horiz-adv-x="636" 
d="M483 688l-178 -913h-305l121 620h-23l58 293h327z" />
    <glyph glyph-name="uni2082" unicode="&#x2082;" horiz-adv-x="856" 
d="M434 707q161 0 255.5 -62t94.5 -190q0 -55 -16.5 -99.5t-55.5 -85t-76 -69t-106 -74.5l-118 -80h293l-54 -272h-706l45 237l336 246q53 40 78 60.5t44 46t19 47.5q0 43 -57 43q-67 0 -80 -68h-295q10 70 33 124t67.5 100.5t119.5 71t179 24.5z" />
    <glyph glyph-name="uni2083" unicode="&#x2083;" horiz-adv-x="802" 
d="M403 707q68 0 126 -13t106 -40t75 -74t27 -111q0 -85 -50 -144t-159 -73v-4q158 -14 158 -182q0 -41 -8 -79.5t-33.5 -82.5t-65.5 -75.5t-111.5 -53t-164.5 -21.5q-163 0 -260.5 64.5t-97.5 199.5q0 39 4 62h287v-8q0 -24 21 -38t60 -14q48 0 66 18.5t18 41.5
q0 31 -30.5 44t-102.5 13l37 189q121 0 121 71q0 49 -61 49t-70 -49h-287q6 62 31 115.5t70 98.5t120.5 70.5t173.5 25.5z" />
    <glyph glyph-name="uni2084" unicode="&#x2084;" horiz-adv-x="827" 
d="M762 688l-105 -536h76l-49 -250h-76l-24 -127h-275l25 127h-424l43 223l539 563h270zM217 152h166l39 198h-6z" />
    <glyph glyph-name="uni2085" unicode="&#x2085;" horiz-adv-x="739" 
d="M385 365q109 0 176.5 -69t67.5 -194q0 -70 -22.5 -130t-70 -110t-132.5 -79t-199 -29q-185 0 -311 64l96 254q42 -20 110 -36t119 -13q125 6 125 86q0 67 -61 67q-50 0 -74 -43h-236l144 555h549l-52 -264h-340l-24 -92h4q53 33 131 33z" />
    <glyph glyph-name="uni2086" unicode="&#x2086;" horiz-adv-x="813" 
d="M313 -246q-171 0 -265.5 84t-94.5 240q0 69 18.5 131t59 122.5t87 112t120.5 121.5l145 140h358l-409 -355l4 -2q81 62 158 62q102 0 163.5 -78t61.5 -201q0 -75 -24.5 -141t-72 -119.5t-127.5 -85t-182 -31.5zM324 14q43 0 64.5 27t21.5 59q0 29 -18.5 49.5t-53.5 20.5
q-43 0 -64.5 -27t-21.5 -59q0 -28 18.5 -49t53.5 -21z" />
    <glyph glyph-name="uni2087" unicode="&#x2087;" horiz-adv-x="706" 
d="M727 688l-53 -266l-471 -647h-322l461 622h-346l57 291h674z" />
    <glyph glyph-name="uni2088" unicode="&#x2088;" horiz-adv-x="872" 
d="M328 -246q-182 0 -272.5 68t-90.5 184q0 103 67.5 170t170.5 78l2 4q-63 16 -95 66t-32 112q0 52 22 99t65 86t117 62.5t169 23.5q148 0 241.5 -56t93.5 -172q0 -81 -50 -140.5t-150 -80.5l-2 -4q68 -18 108.5 -71t40.5 -134q0 -58 -22 -108.5t-67.5 -93.5t-126.5 -68
t-189 -25zM422 362q33 0 52.5 19.5t19.5 46.5q0 23 -17 38t-45 15q-34 0 -53 -19.5t-19 -45.5q0 -23 17 -38.5t45 -15.5zM352 2q41 0 62.5 22.5t21.5 55.5q0 31 -20 46t-51 15q-41 0 -62.5 -22.5t-21.5 -55.5q0 -31 20 -46t51 -15z" />
    <glyph glyph-name="uni2089" unicode="&#x2089;" horiz-adv-x="827" 
d="M-20 -225l436 344l-2 2q-81 -60 -174 -60q-73 0 -126 45.5t-76.5 109t-23.5 132.5q0 66 23 127.5t69 114.5t125 85t181 32q57 0 107.5 -10.5t97 -34.5t79.5 -61.5t52.5 -94.5t19.5 -129q0 -149 -78.5 -268t-230.5 -236l-127 -98h-352zM389 295q43 0 64.5 27t21.5 59
q0 29 -18 49.5t-54 20.5q-43 0 -64.5 -27t-21.5 -59q0 -29 18 -49.5t54 -20.5z" />
    <glyph glyph-name="TRY" unicode="&#x20a4;" horiz-adv-x="1275" 
d="M915 670h318q-60 -329 -249.5 -499.5t-526.5 -170.5h-228l117 602l-260 -104l12 63l260 105l23 114l-260 -104l12 63l260 105l105 538h338l-76 -393l391 158l-12 -64l-391 -157l-23 -115l391 158l-12 -64l-391 -157l-74 -373q93 0 171.5 82t104.5 213z" />
    <glyph glyph-name="uni20A9" unicode="&#x20a9;" horiz-adv-x="2246" 
d="M2343 1434l-250 -551h152l-13 -62h-168l-63 -139h205l-13 -61h-219l-282 -621h-416l-29 621h-190l-271 -621h-415l-41 621h-219l12 61h203l-9 139h-167l12 62h151l-37 551h383l9 -551h198l236 551h383l20 -551h199l223 551h416zM1225 1010l-56 -127h68l-6 127h-6z
M670 821l2 -139h108l60 139h-170zM1083 682h162l-6 139h-96zM1622 682l57 139h-172l6 -139h109zM680 444l76 177h-82l2 -177h4zM1526 444l71 177h-81l6 -177h4z" />
    <glyph glyph-name="Euro" unicode="&#x20ac;" horiz-adv-x="1370" 
d="M1014 1061q-149 0 -245.5 -64t-141.5 -174h547l-44 -61h-524q-13 -65 -16 -121h459l-43 -61h-414q9 -123 80.5 -190.5t204.5 -67.5q155 0 344 79l-66 -372q-164 -60 -317 -60q-154 0 -273.5 47.5t-194.5 132t-114.5 193t-44.5 238.5h-180l43 61h137q3 58 12 121h-147
l43 61h114q28 121 87 223.5t152.5 186.5t233 132t312.5 48q244 0 452 -113l-180 -317q-55 27 -86 40.5t-82.5 25.5t-107.5 12z" />
    <glyph glyph-name="uni20AE" unicode="&#x20ae;" horiz-adv-x="1187" 
d="M1264 1085h-381l-49 -251l272 110l-12 -63l-273 -111l-22 -115l272 111l-12 -64l-273 -110l-116 -592h-338l88 444l-277 -110l13 63l276 111l23 115l-277 -111l12 63l277 111l78 399h-385l59 297h1104z" />
    <glyph glyph-name="uni20B4" unicode="&#x20b4;" horiz-adv-x="1214" 
d="M1198 809h-143q-63 -58 -189 -139h305l-12 -62h-389l-145 -94q-4 -2 -24.5 -16t-27 -18.5t-22.5 -18t-21.5 -22.5t-11.5 -23t-6 -29q0 -36 30.5 -52t98.5 -16q159 0 418 103l-72 -367q-235 -86 -452 -86q-449 0 -449 340q0 174 135 299h-112l12 62h176q43 32 133 88
l80 51h-363l13 61h448l58 37q15 10 48 29t45 27.5t24 26t12 38.5q0 34 -25.5 48t-81.5 14q-141 0 -407 -70l61 332q227 61 432 61q424 0 424 -311q0 -131 -82 -232h94z" />
    <glyph glyph-name="uni20B8" unicode="&#x20b8;" horiz-adv-x="1185" 
d="M217 1382h1104l-61 -317h-1104zM74 641l61 317h1104l-61 -317h-383l-125 -641h-338l125 641h-383z" />
    <glyph glyph-name="uni20B9" unicode="&#x20b9;" horiz-adv-x="1146" 
d="M1241 1382l-57 -61h-432q88 -51 138 -137t50 -199h223l-57 -61h-170q-21 -161 -142 -270.5t-309 -127.5l375 -526h-416l-352 522l58 297h215q158 0 186 105h-381l12 61h373q-6 56 -46.5 78t-113.5 22h-194l59 297h981z" />
    <glyph glyph-name="uni20BD" unicode="&#x20bd;" horiz-adv-x="1337" 
d="M829 535h-188l-20 -105h356l-12 -61h-357l-71 -369h-338l71 369h-209l13 61h209l20 105h-209l58 296h208l107 551h426q104 0 187 -21t148.5 -66t101.5 -123t36 -185q0 -94 -30 -173t-92 -143t-168 -100t-247 -36zM748 1085l-50 -254h166q82 0 120 40t38 100q0 62 -41 88
t-117 26h-116z" />
    <glyph glyph-name="uni2113" unicode="&#x2113;" horiz-adv-x="1110" 
d="M1174 1053q0 -113 -48.5 -205.5t-139 -161.5t-204.5 -118.5t-262 -88.5q3 -91 31.5 -135.5t99.5 -44.5q64 0 238 57l-64 -329q-61 -19 -92 -27.5t-80.5 -16.5t-97.5 -8q-189 0 -279.5 104t-105.5 327q-110 -19 -145 -23l67 350q22 2 92 10q29 199 105.5 347.5
t205.5 235.5t298 87q180 0 280.5 -95t100.5 -265zM549 813q297 84 297 240q0 73 -68 73q-82 0 -140 -85.5t-89 -227.5z" />
    <glyph glyph-name="uni2116" unicode="&#x2116;" horiz-adv-x="2572" 
d="M1671 1434l-278 -1434h-303l-515 831h-4l-161 -831h-390l279 1434h303l514 -832h4l162 832h389zM2081 393q-181 0 -294.5 101t-113.5 286q0 93 31 176t88 147.5t145.5 102t196.5 37.5q181 0 294.5 -101t113.5 -286q0 -93 -31 -176t-88 -147.5t-145.5 -102t-196.5 -37.5z
M2099 686q68 0 103.5 48t35.5 104q0 53 -34.5 82.5t-87.5 29.5q-68 0 -104 -47.5t-36 -103.5q0 -54 35 -83.5t88 -29.5zM1548 0l58 295h850l-58 -295h-850z" />
    <glyph glyph-name="trademark" unicode="&#x2122;" horiz-adv-x="2004" 
d="M934 1178h-221l-113 -576h-293l113 576h-221l55 286h735zM1892 1464l76 -862h-274l-25 385l-170 -285h-219l-57 285l-179 -385h-315l412 862h235l60 -428l221 428h235z" />
    <glyph glyph-name="estimated" unicode="&#x212e;" horiz-adv-x="1517" 
d="M72 623q0 176 96.5 325t262 235.5t360.5 86.5q196 0 362 -86.5t262 -235.5t96 -325v-19h-1175v-287q0 -68 27.5 -124.5t78.5 -88.5q139 -92 353 -92q151 0 285 57t223 158h59q-101 -118 -252.5 -185t-318.5 -67q-146 0 -279.5 51.5t-229.5 138t-153 206.5t-57 252z
M1157 1130q-133 103 -362 103q-217 0 -353 -94q-106 -71 -106 -174v-324h911v311q0 109 -90 178z" />
    <glyph glyph-name="uni2153" unicode="&#x2153;" horiz-adv-x="1667" 
d="M162 0l1083 1382h185l-1084 -1382h-184zM563 1382l-153 -790h-209l114 586h-45l39 204h254zM1339 809q124 0 197.5 -53t73.5 -148q0 -77 -49 -126t-138 -68v-4q70 -10 106 -53.5t36 -114.5q0 -37 -9 -72t-31.5 -70t-56 -60.5t-88 -41.5t-123.5 -16q-135 0 -213.5 58
t-78.5 169q0 35 4 53h198v-16q0 -80 95 -80q108 0 108 88q0 44 -43.5 61t-130.5 17l25 151q172 2 172 80q0 30 -18.5 46t-51.5 16q-40 0 -68 -21t-32 -61h-201q14 122 92.5 194t224.5 72z" />
    <glyph glyph-name="uni2154" unicode="&#x2154;" horiz-adv-x="1888" 
d="M518 1401q122 0 199.5 -52.5t77.5 -156.5q0 -88 -57 -156t-165 -143l-149 -105h289l-39 -196h-578l29 151l317 261q79 64 105 95.5t26 59.5q0 58 -71 58q-85 0 -103 -89h-198q16 135 91 204t226 69zM383 0l1083 1382h185l-1084 -1382h-184zM1561 809q124 0 197 -53
t73 -148q0 -77 -48.5 -126t-137.5 -68v-4q141 -21 141 -168q0 -47 -15 -90.5t-48.5 -83t-96 -63t-147.5 -23.5q-135 0 -214 58t-79 169q0 35 4 53h199v-16q0 -80 94 -80q108 0 108 88q0 44 -43.5 61t-130.5 17l25 151q172 2 172 80q0 30 -18.5 46t-51.5 16q-40 0 -68 -21
t-32 -61h-201q14 122 93 194t225 72z" />
    <glyph glyph-name="oneeighth" unicode="&#x215b;" horiz-adv-x="1724" 
d="M162 0l1083 1382h185l-1084 -1382h-184zM563 1382l-153 -790h-209l114 586h-45l39 204h254zM1255 -18q-147 0 -226 57t-79 164q0 96 61.5 150t157.5 69v4q-52 11 -85 51t-33 101q0 43 17 81.5t53 73.5t103 55.5t156 20.5q57 0 103.5 -10t86 -31.5t61.5 -61t22 -94.5
q0 -86 -53.5 -131t-135.5 -59v-4q61 -13 99.5 -59.5t38.5 -122.5q0 -47 -18 -89.5t-56 -81t-108.5 -61t-164.5 -22.5zM1341 516q44 0 71.5 20t27.5 54q0 31 -23 46t-61 15q-44 0 -71.5 -19.5t-27.5 -53.5q0 -31 23.5 -46.5t60.5 -15.5zM1274 158q61 0 93 27.5t32 66.5
q0 37 -30 57.5t-79 20.5q-61 0 -93 -27.5t-32 -66.5q0 -37 30 -57.5t79 -20.5z" />
    <glyph glyph-name="threeeighths" unicode="&#x215c;" horiz-adv-x="1902" 
d="M487 1401q124 0 197.5 -53t73.5 -148q0 -77 -49 -126t-138 -68v-5q142 -21 142 -167q0 -48 -15 -91t-48.5 -83t-96 -63.5t-147.5 -23.5q-134 0 -213.5 58.5t-79.5 169.5q0 35 4 53h198v-16q0 -80 95 -80q108 0 108 88q0 44 -43.5 61t-130.5 17l25 151q172 2 172 80
q0 30 -18.5 46t-51.5 16q-40 0 -68 -21t-32 -61h-201q14 122 92.5 194t224.5 72zM340 0l1083 1382h185l-1084 -1382h-184zM1434 -18q-147 0 -226.5 57t-79.5 164q0 96 62 150t158 69v4q-52 11 -85.5 51t-33.5 101q0 43 17 81.5t53.5 73.5t103.5 55.5t156 20.5
q57 0 103.5 -10t85.5 -31.5t61 -61t22 -94.5q0 -86 -53.5 -131t-135.5 -59v-4q61 -13 99.5 -59.5t38.5 -122.5q0 -47 -17.5 -89.5t-55.5 -81t-108.5 -61t-164.5 -22.5zM1520 516q44 0 71 19.5t27 54.5q0 31 -23 46t-61 15q-44 0 -71 -19.5t-27 -53.5q0 -31 23.5 -46.5
t60.5 -15.5zM1452 158q61 0 93 27.5t32 66.5q0 37 -30 57.5t-79 20.5q-61 0 -93 -27.5t-32 -66.5q0 -37 30 -57.5t79 -20.5z" />
    <glyph glyph-name="fiveeighths" unicode="&#x215d;" horiz-adv-x="1878" 
d="M530 1114q91 0 148 -62t57 -173q0 -62 -20 -115.5t-60 -97t-107 -68.5t-155 -25q-84 0 -167.5 22.5t-147.5 63.5l104 166q38 -26 96.5 -46.5t114.5 -20.5q71 0 105 34.5t34 84.5q0 47 -27.5 72.5t-66.5 25.5q-59 0 -100 -60h-162l125 467h459l-39 -192h-309l-35 -129h4
q63 53 149 53zM315 0l1084 1382h184l-1083 -1382h-185zM1409 -18q-147 0 -226 57t-79 164q0 96 61.5 150t157.5 69v4q-52 11 -85.5 51t-33.5 101q0 43 17 81.5t53.5 73.5t103.5 55.5t156 20.5q57 0 103.5 -10t85.5 -31.5t61 -61t22 -94.5q0 -86 -53 -131t-135 -59v-4
q61 -13 99 -59.5t38 -122.5q0 -47 -17.5 -89.5t-55.5 -81t-108.5 -61t-164.5 -22.5zM1495 516q44 0 71 19.5t27 54.5q0 31 -23 46t-61 15q-44 0 -71 -19.5t-27 -53.5q0 -31 23.5 -46.5t60.5 -15.5zM1427 158q61 0 93 27.5t32 66.5q0 37 -29.5 57.5t-78.5 20.5
q-61 0 -93 -27.5t-32 -66.5q0 -37 29.5 -57.5t78.5 -20.5z" />
    <glyph glyph-name="seveneighths" unicode="&#x215e;" horiz-adv-x="1763" 
d="M776 1382l-35 -180l-438 -610h-219l436 592h-352l39 198h569zM201 0l1083 1382h184l-1083 -1382h-184zM1294 -18q-147 0 -226 57t-79 164q0 96 61.5 150t157.5 69v4q-52 11 -85 51t-33 101q0 43 17 81.5t53 73.5t103 55.5t156 20.5q57 0 103.5 -10t86 -31.5t61.5 -61
t22 -94.5q0 -86 -53.5 -131t-135.5 -59v-4q61 -13 99 -59.5t38 -122.5q0 -47 -17.5 -89.5t-55.5 -81t-108.5 -61t-164.5 -22.5zM1380 516q44 0 71.5 20t27.5 54q0 31 -23 46t-61 15q-44 0 -71.5 -19.5t-27.5 -53.5q0 -31 23.5 -46.5t60.5 -15.5zM1313 158q61 0 93 27.5
t32 66.5q0 37 -30 57.5t-79 20.5q-61 0 -93 -27.5t-32 -66.5q0 -37 30 -57.5t79 -20.5z" />
    <glyph glyph-name="arrowleft" unicode="&#x2190;" horiz-adv-x="1662" 
d="M1612 745l-58 -303h-899l267 -299l-267 -227l-530 678l788 686l185 -236l-363 -299h877z" />
    <glyph glyph-name="arrowup" unicode="&#x2191;" horiz-adv-x="1576" 
d="M1501 614l-280 -229l-238 307l-172 -880h-303l172 882l-361 -309l-190 229l813 656z" />
    <glyph glyph-name="arrowright" unicode="&#x2192;" horiz-adv-x="1660" 
d="M1053 1270l530 -674l-788 -686l-183 235l349 299h-865l60 304h888l-258 299z" />
    <glyph glyph-name="arrowdown" unicode="&#x2193;" horiz-adv-x="1576" 
d="M1305 805l190 -230l-813 -655l-559 655l280 230l238 -316l172 889h303l-170 -876z" />
    <glyph glyph-name="arrowboth" unicode="&#x2194;" horiz-adv-x="2562" 
d="M1952 1268l530 -674l-788 -686l-183 235l349 299h-865h-340l267 -299l-267 -227l-530 678l788 686l185 -236l-363 -299h877h332l-258 299z" />
    <glyph glyph-name="arrowupdn" unicode="&#x2195;" horiz-adv-x="1579" 
d="M608 -463l-559 656l281 229l237 -316l195 1004l-361 -309l-190 229l813 656l559 -656l-280 -229l-238 307l-193 -989l359 303l190 -229z" />
    <glyph glyph-name="uni2196" unicode="&#x2196;" horiz-adv-x="1363" 
d="M1198 150l-254 -216l-498 617l-81 -422l-330 -4l207 948l950 12l-66 -319l-430 6z" />
    <glyph glyph-name="uni2197" unicode="&#x2197;" horiz-adv-x="1363" 
d="M414 1094l944 -23l-164 -948l-328 4l90 430l-743 -623l-174 213l743 623l-428 -6z" />
    <glyph glyph-name="uni2198" unicode="&#x2198;" horiz-adv-x="1363" 
d="M1047 1059l329 4l-207 -948l-952 -21l68 328l430 -6l-502 622l254 215l504 -624z" />
    <glyph glyph-name="uni2199" unicode="&#x2199;" horiz-adv-x="1363" 
d="M1372 1040l-745 -622l430 6l-60 -307h-944l164 948l328 -4l-92 -432l745 624z" />
    <glyph glyph-name="partialdiff" unicode="&#x2202;" horiz-adv-x="1267" 
d="M616 1464q135 0 245.5 -39t192.5 -116t127.5 -200t45.5 -284q0 -122 -25.5 -241.5t-81 -231t-135 -196.5t-197.5 -136t-258 -51q-222 0 -357.5 120t-135.5 327q0 96 32 185t94 162t164.5 117t231.5 44q207 0 328 -115v25q0 125 -79.5 205.5t-223.5 80.5q-132 0 -262 -51
l-86 326q188 69 380 69zM555 319q150 0 242 166q-91 103 -211 103q-87 0 -133.5 -41t-46.5 -96q0 -64 41.5 -98t107.5 -34z" />
    <glyph glyph-name="emptyset" unicode="&#x2205;" 
d="M1014 985q125 -135 125 -323q0 -202 -140 -339t-350 -137q-184 0 -323 113l-115 -115l-39 41l113 113q-125 135 -125 324q0 202 139.5 338.5t349.5 136.5q190 0 322 -113l114 115l41 -41zM487 662q0 -49 27 -95l229 230q-46 24 -94 24q-73 0 -117.5 -44.5t-44.5 -114.5z
M649 502q73 0 117.5 45t44.5 115q0 48 -27 94l-229 -228q44 -26 94 -26z" />
    <glyph glyph-name="product" unicode="&#x220f;" horiz-adv-x="1609" 
d="M1661 1434v-318h-215v-1276h-334v1276h-336v-1276h-334v1276h-215v318h1434z" />
    <glyph glyph-name="summation" unicode="&#x2211;" horiz-adv-x="1445" 
d="M1270 1434v-349h-598l422 -481l-422 -481h598v-348h-1043v348l437 481l-437 481v349h1043z" />
    <glyph glyph-name="minus" unicode="&#x2212;" 
d="M1128 692v-164h-976v164h976z" />
    <glyph glyph-name="radical" unicode="&#x221a;" horiz-adv-x="1355" 
d="M1155 1464h352l-522 -1464h-340l-270 623l-4 -7h-238v330h477l195 -489z" />
    <glyph glyph-name="infinity" unicode="&#x221e;" horiz-adv-x="1572" 
d="M1217 922q148 0 241.5 -89t93.5 -227q0 -135 -93.5 -223t-241.5 -88q-122 0 -215.5 57t-186.5 158q-99 -103 -191.5 -159t-213.5 -56q-146 0 -241 88.5t-95 226.5q0 134 94.5 223t241.5 89q121 0 213.5 -56t191.5 -159q93 101 186.5 158t215.5 57zM408 788
q-85 0 -140 -52t-55 -126q0 -76 55 -128t140 -52q88 0 161.5 46.5t151.5 131.5q-79 86 -152.5 133t-160.5 47zM1217 788q-87 0 -158.5 -46t-155.5 -134q83 -87 155 -132.5t159 -45.5q86 0 141 52t55 126q0 76 -55 128t-141 52z" />
    <glyph glyph-name="integral" unicode="&#x222b;" horiz-adv-x="972" 
d="M1083 1464l-59 -307q-136 0 -199 -49t-86 -170l-182 -938q-42 -215 -205 -327.5t-448 -112.5l59 307q132 1 194 50t85 169l182 938q42 218 201 329t458 111z" />
    <glyph glyph-name="approxequal" unicode="&#x2248;" 
d="M395 1022q54 0 111 -20.5t105 -50t94.5 -58.5t96 -49.5t93.5 -20.5q118 0 172 160h150q-22 -90 -58.5 -155.5t-80.5 -101t-88.5 -51.5t-92.5 -16q-54 0 -111 20.5t-105.5 49.5t-95.5 58.5t-96.5 50t-93.5 20.5q-117 0 -174 -160h-149q44 172 131 248t192 76zM397 606
q66 0 138.5 -31t125.5 -68t118 -68t118 -31q64 0 103.5 40.5t66.5 118.5h150q-23 -90 -59.5 -155.5t-81 -100.5t-89 -51t-92.5 -16q-66 0 -139 31t-126 68t-118.5 68t-118.5 31q-118 0 -172 -159h-149q46 172 133 247.5t192 75.5z" />
    <glyph glyph-name="notequal" unicode="&#x2260;" 
d="M1159 772h-360l-197 -313h557v-152h-651l-105 -168h-159l104 168h-225v152h319l197 313h-516l2 152h608l101 159h159l-100 -159h268z" />
    <glyph glyph-name="lessequal" unicode="&#x2264;" 
d="M1104 1022v-168l-762 -149l764 -148v-170l-983 231l-2 173zM1110 332v-152h-999v152h999z" />
    <glyph glyph-name="greaterequal" unicode="&#x2265;" 
d="M197 1022l983 -231l-2 -173l-983 -231v170l763 148l-761 149v168zM190 332h1000v-152h-1000v152z" />
    <glyph glyph-name="uni2460" unicode="&#x2460;" horiz-adv-x="1732" 
d="M913 -31q-217 0 -387.5 96.5t-265 267t-94.5 384.5t94.5 384.5t265 266.5t387.5 96q163 0 302.5 -56.5t237 -155t153 -237t55.5 -298.5q0 -214 -94.5 -384.5t-265.5 -267t-388 -96.5zM913 164q236 0 384.5 154.5t148.5 398.5t-148.5 398.5t-384.5 154.5t-384 -154.5
t-148 -398.5t148 -398.5t384 -154.5zM836 324v585h-45v205h253v-790h-208z" />
    <glyph glyph-name="uni2461" unicode="&#x2461;" horiz-adv-x="1732" 
d="M913 -31q-217 0 -387.5 96.5t-265 267t-94.5 384.5t94.5 384.5t265 266.5t387.5 96q163 0 302.5 -56.5t237 -155t153 -237t55.5 -298.5q0 -214 -94.5 -384.5t-265.5 -267t-388 -96.5zM913 164q236 0 384.5 154.5t148.5 398.5t-148.5 398.5t-384.5 154.5t-384 -154.5
t-148 -398.5t148 -398.5t384 -154.5zM633 352v152l266 260q58 58 79 89.5t21 61.5q0 62 -75 62q-44 0 -67.5 -23t-25.5 -65h-198q0 129 77 200.5t222 71.5q137 0 211 -60t74 -163q0 -43 -11.5 -80t-41 -74.5t-48.5 -57.5t-65 -64l-119 -113h278v-197h-577z" />
    <glyph glyph-name="uni2462" unicode="&#x2462;" horiz-adv-x="1732" 
d="M913 -31q-217 0 -387.5 96.5t-265 267t-94.5 384.5t94.5 384.5t265 266.5t387.5 96q163 0 302.5 -56.5t237 -155t153 -237t55.5 -298.5q0 -214 -94.5 -384.5t-265.5 -267t-388 -96.5zM913 164q236 0 384.5 154.5t148.5 398.5t-148.5 398.5t-384.5 154.5t-384 -154.5
t-148 -398.5t148 -398.5t384 -154.5zM934 307q-140 0 -220 72t-83 209h198q9 -96 113 -96q90 0 90 88q0 52 -40 70t-130 18v133q133 3 133 78q0 71 -77 71q-38 0 -62 -21t-27 -61h-200q2 119 79 193t216 74q128 0 203 -59.5t75 -151.5q0 -40 -11.5 -74.5t-45.5 -66
t-88 -44.5v-4q172 -21 172 -190q0 -45 -16.5 -86t-50 -76t-92.5 -55.5t-136 -20.5z" />
    <glyph glyph-name="uni2463" unicode="&#x2463;" horiz-adv-x="1732" 
d="M913 1464q163 0 302.5 -56.5t237 -155t153 -237t55.5 -298.5q0 -214 -94.5 -384.5t-265.5 -267t-388 -96.5t-387.5 96.5t-265 267t-94.5 384.5t94.5 384.5t265 266.5t387.5 96zM913 164q236 0 384.5 154.5t148.5 398.5t-148.5 398.5t-384.5 154.5t-384 -154.5
t-148 -398.5t148 -398.5t384 -154.5zM1139 1118v-485h78v-187h-78v-118h-191v118h-389v187l406 485h174zM754 633h194v221h-4z" />
    <glyph glyph-name="uni2464" unicode="&#x2464;" horiz-adv-x="1732" 
d="M913 -31q-217 0 -387.5 96.5t-265 267t-94.5 384.5t94.5 384.5t265 266.5t387.5 96q163 0 302.5 -56.5t237 -155t153 -237t55.5 -298.5q0 -214 -94.5 -384.5t-265.5 -267t-388 -96.5zM913 164q236 0 384.5 154.5t148.5 398.5t-148.5 398.5t-384.5 154.5t-384 -154.5
t-148 -398.5t148 -398.5t384 -154.5zM905 311q-170 0 -289 86l93 164q34 -26 89.5 -45.5t106.5 -19.5q60 0 94.5 30.5t34.5 85.5q0 49 -29 75t-71 26q-33 0 -59.5 -16.5t-38.5 -43.5h-162l33 467h458v-192h-309l-10 -129h4q53 53 143 53q103 0 173.5 -67.5t70.5 -190.5
q0 -125 -88 -204t-244 -79z" />
    <glyph glyph-name="uni2465" unicode="&#x2465;" horiz-adv-x="1732" 
d="M913 -31q-217 0 -387.5 96.5t-265 267t-94.5 384.5t94.5 384.5t265 266.5t387.5 96q163 0 302.5 -56.5t237 -155t153 -237t55.5 -298.5q0 -214 -94.5 -384.5t-265.5 -267t-388 -96.5zM913 164q236 0 384.5 154.5t148.5 398.5t-148.5 398.5t-384.5 154.5t-384 -154.5
t-148 -398.5t148 -398.5t384 -154.5zM911 305q-141 0 -230 81.5t-89 219.5q0 100 43.5 187t122.5 174l147 163h225l-315 -329l6 -2q61 67 152 67q100 0 173 -74t73 -206q0 -116 -82 -198.5t-226 -82.5zM909 489q49 0 80 27.5t31 75.5t-31 75t-80 27t-79.5 -27t-30.5 -75
t30.5 -75.5t79.5 -27.5z" />
    <glyph glyph-name="uni2466" unicode="&#x2466;" horiz-adv-x="1732" 
d="M913 -31q-217 0 -387.5 96.5t-265 267t-94.5 384.5t94.5 384.5t265 266.5t387.5 96q163 0 302.5 -56.5t237 -155t153 -237t55.5 -298.5q0 -214 -94.5 -384.5t-265.5 -267t-388 -96.5zM913 164q236 0 384.5 154.5t148.5 398.5t-148.5 398.5t-384.5 154.5t-384 -154.5
t-148 -398.5t148 -398.5t384 -154.5zM666 313l331 592h-362v199h569v-180l-327 -611h-211z" />
    <glyph glyph-name="uni2467" unicode="&#x2467;" horiz-adv-x="1732" 
d="M913 -31q-217 0 -387.5 96.5t-265 267t-94.5 384.5t94.5 384.5t265 266.5t387.5 96q163 0 302.5 -56.5t237 -155t153 -237t55.5 -298.5q0 -214 -94.5 -384.5t-265.5 -267t-388 -96.5zM913 164q236 0 384.5 154.5t148.5 398.5t-148.5 398.5t-384.5 154.5t-384 -154.5
t-148 -398.5t148 -398.5t384 -154.5zM913 315q-156 0 -238.5 64.5t-82.5 163.5q0 89 49 142.5t125 68.5v4q-65 11 -107.5 58t-42.5 118q0 92 79 150.5t218 58.5t218 -58.5t79 -150.5q0 -71 -43 -118t-106 -58v-4q74 -15 124 -69t50 -142q0 -99 -83 -163.5t-239 -64.5z
M913 850q41 0 66 17.5t25 50.5t-25 50t-66 17t-65.5 -17t-24.5 -50t24.5 -50.5t65.5 -17.5zM913 492q52 0 83.5 22.5t31.5 63.5t-31.5 63.5t-83.5 22.5t-83 -22.5t-31 -63.5t31 -63.5t83 -22.5z" />
    <glyph glyph-name="uni2468" unicode="&#x2468;" horiz-adv-x="1732" 
d="M913 -31q-217 0 -387.5 96.5t-265 267t-94.5 384.5t94.5 384.5t265 266.5t387.5 96q163 0 302.5 -56.5t237 -155t153 -237t55.5 -298.5q0 -214 -94.5 -384.5t-265.5 -267t-388 -96.5zM913 164q236 0 384.5 154.5t148.5 398.5t-148.5 398.5t-384.5 154.5t-384 -154.5
t-148 -398.5t148 -398.5t384 -154.5zM727 313l322 326h-7q-74 -55 -161 -55q-107 0 -180.5 73t-73.5 189q0 120 80.5 197t224.5 77q143 0 226 -81.5t83 -233.5q0 -104 -48.5 -199.5t-166.5 -216.5l-74 -76h-225zM926 741q49 0 79.5 27.5t30.5 75.5t-30.5 75t-79.5 27
t-80 -27t-31 -75t31 -75.5t80 -27.5z" />
    <glyph glyph-name="uni24EA" unicode="&#x24ea;" horiz-adv-x="1732" 
d="M913 -31q-217 0 -387.5 96.5t-265 267t-94.5 384.5t94.5 384.5t265 266.5t387.5 96q163 0 302.5 -56.5t237 -155t153 -237t55.5 -298.5q0 -214 -94.5 -384.5t-265.5 -267t-388 -96.5zM913 164q236 0 384.5 154.5t148.5 398.5t-148.5 398.5t-384.5 154.5t-384 -154.5
t-148 -398.5t148 -398.5t384 -154.5zM918 307q-158 0 -252.5 108.5t-94.5 307.5t94.5 305.5t252.5 106.5q159 0 252.5 -106.5t93.5 -305.5q0 -200 -93.5 -308t-252.5 -108zM918 489q66 0 103.5 58.5t37.5 175.5t-37.5 173t-103.5 56t-104 -56t-38 -173q0 -118 38 -176
t104 -58z" />
    <glyph glyph-name="uni24FF" unicode="&#x24ff;" horiz-adv-x="1730" 
d="M913 -31q-212 0 -383 97.5t-267.5 269t-96.5 381.5t96.5 381t267.5 268.5t383 97.5t383.5 -97.5t268 -268.5t96.5 -381q0 -157 -57 -296t-155.5 -238t-237.5 -156.5t-298 -57.5zM913 307q159 0 253 108t94 308q0 199 -94 305.5t-253 106.5q-158 0 -252 -106.5t-94 -305.5
t94 -307.5t252 -108.5zM913 489q-66 0 -103.5 57.5t-37.5 176.5q0 117 37.5 173t103.5 56t104 -56t38 -173t-38 -175.5t-104 -58.5z" />
    <glyph glyph-name="lozenge" unicode="&#x25ca;" horiz-adv-x="1318" 
d="M819 1464l506 -747l-506 -748h-225l-506 748l506 747h225zM707 1042l-220 -325l220 -324l219 324z" />
    <glyph glyph-name="uni2776" unicode="&#x2776;" horiz-adv-x="1730" 
d="M913 -31q-212 0 -383 97.5t-267.5 269t-96.5 381.5t96.5 381t267.5 268.5t383 97.5t383.5 -97.5t268 -268.5t96.5 -381q0 -157 -57 -296t-155.5 -238t-237.5 -156.5t-298 -57.5zM821 334h209v790h-254v-204h45v-586z" />
    <glyph glyph-name="uni2777" unicode="&#x2777;" horiz-adv-x="1730" 
d="M913 -31q-212 0 -383 97.5t-267.5 269t-96.5 381.5t96.5 381t267.5 268.5t383 97.5t383.5 -97.5t268 -268.5t96.5 -381q0 -157 -57 -296t-155.5 -238t-237.5 -156.5t-298 -57.5zM633 352h577v197h-278l119 113q46 44 65 64t48.5 57.5t41 74.5t11.5 80q0 103 -74 163
t-211 60q-145 0 -222 -71.5t-77 -200.5h198q2 42 25.5 65t67.5 23q75 0 75 -68q0 -26 -21.5 -57t-78.5 -88l-266 -260v-152z" />
    </font>
</defs>
</svg>
