<?xml version="1.0" standalone="no"?>
<!DOCTYPE svg PUBLIC "-//W3C//DTD SVG 1.1//EN" "http://www.w3.org/Graphics/SVG/1.1/DTD/svg11.dtd" >
<svg xmlns="http://www.w3.org/2000/svg" xmlns:xlink="http://www.w3.org/1999/xlink" version="1.1">
<metadata>
Created by FontForge 20170731 at Sat Jul 23 01:25:02 2022
 By Aleksey,,,
Copyright (c) 2015 by Reto Moser. All rights reserved.
</metadata>
<defs>
<font id="GTEestiProDisplay-UltraBold" horiz-adv-x="1228" >
  <font-face 
    font-family="GT Eesti Pro Display UltraBold"
    font-weight="900"
    font-stretch="normal"
    units-per-em="2048"
    panose-1="0 0 10 0 0 0 0 0 0 0"
    ascent="1536"
    descent="-512"
    x-height="946"
    cap-height="1434"
    bbox="-1110 -516 2499 1843"
    underline-thickness="102"
    underline-position="-307"
    unicode-range="U+0020-FB02"
  />
<missing-glyph horiz-adv-x="1576" 
d="M788 -31q-213 0 -384 96.5t-267 267.5t-96 384q0 160 56.5 299t155 237.5t237 154.5t298.5 56q214 0 385 -95.5t267 -266.5t96 -385q0 -213 -96 -384t-267 -267.5t-385 -96.5zM788 20q149 0 279 53.5t223 146.5t146 224.5t53 282.5l-105 133l-143 -61l-139 184l-162 -90
l-152 242l-151 -242l-162 90l-139 -184l-143 61l-105 -133q0 -201 90.5 -363t250.5 -253t359 -91zM578 651q-31 0 -51.5 20.5t-20.5 51.5t20.5 51.5t51.5 20.5t51 -20.5t20 -51.5t-20 -51.5t-51 -20.5zM997 651q-31 0 -51 20.5t-20 51.5t20 51.5t51 20.5t51.5 -20.5
t20.5 -51.5t-20.5 -51.5t-51.5 -20.5zM702 522l74 207q1 7 8.5 10t14.5 0q6 -2 9.5 -8.5t0.5 -13.5l-57 -160h69q8 0 13.5 -5.5t5.5 -12.5q0 -6 -6 -11.5t-13 -5.5h-119zM385 350q-61 0 -101 40t-40 102t40 101.5t101 39.5t101 -39.5t40 -101.5t-40 -102t-101 -40zM1190 350
q-61 0 -101 40t-40 102t39.5 101.5t101.5 39.5t101.5 -39.5t39.5 -101.5t-40 -102t-101 -40zM788 395q-95 0 -126 -61q-6 -12 -19 -12q-16 0 -16 18q0 35 49.5 63.5t111.5 28.5t112 -28.5t50 -63.5q0 -18 -16 -18q-13 0 -19 12q-31 61 -127 61z" />
    <glyph glyph-name="fi" unicode="fi" horiz-adv-x="1357" 
d="M199 952q0 270 123 386t387 116h86v-350h-39q-100 0 -139 -31.5t-39 -122.5v-4h210v-311h-210v-635h-379v635h-179v311h179v6zM893 1434h387v-355h-387v355zM897 0v946h379v-946h-379z" />
    <glyph glyph-name="fl" unicode="fl" horiz-adv-x="1357" 
d="M199 952q0 270 123 386t387 116h86v-350h-39q-100 0 -139 -31.5t-39 -122.5v-4h210v-311h-210v-635h-379v635h-179v311h179v6zM897 1434h379v-1434h-379v1434z" />
    <glyph glyph-name="f_f" unicode="ff" horiz-adv-x="1630" 
d="M199 952q0 270 123 386t387 116h86v-350h-39q-100 0 -139 -31.5t-39 -122.5v-4h210v-311h-210v-635h-379v635h-179v311h179v6zM1571 1104q-100 0 -139 -31.5t-39 -122.5v-4h211v-311h-211v-635h-379v635h-178v311h178v6q0 270 123 386t387 116h86v-350h-39z" />
    <glyph glyph-name="f_f_i" unicode="ffi" horiz-adv-x="2172" 
d="M199 952q0 270 123 386t387 116h86v-350h-39q-100 0 -139 -31.5t-39 -122.5v-4h210v-311h-210v-635h-379v635h-179v311h179v6zM1014 952q0 270 123 386t387 116h86v-350h-39q-100 0 -139 -31.5t-39 -122.5v-4h211v-311h-211v-635h-379v635h-178v311h178v6zM1708 1434h387
v-355h-387v355zM1712 0v946h379v-946h-379z" />
    <glyph glyph-name="f_f_l" unicode="ffl" horiz-adv-x="2172" 
d="M199 952q0 270 123 386t387 116h86v-350h-39q-100 0 -139 -31.5t-39 -122.5v-4h210v-311h-210v-635h-379v635h-179v311h179v6zM1014 952q0 270 123 386t387 116h86v-350h-39q-100 0 -139 -31.5t-39 -122.5v-4h211v-311h-211v-635h-379v635h-178v311h178v6zM1712 1434h379
v-1434h-379v1434z" />
    <glyph glyph-name=".notdef" horiz-adv-x="1576" 
d="M788 -31q-213 0 -384 96.5t-267 267.5t-96 384q0 160 56.5 299t155 237.5t237 154.5t298.5 56q214 0 385 -95.5t267 -266.5t96 -385q0 -213 -96 -384t-267 -267.5t-385 -96.5zM788 20q149 0 279 53.5t223 146.5t146 224.5t53 282.5l-105 133l-143 -61l-139 184l-162 -90
l-152 242l-151 -242l-162 90l-139 -184l-143 61l-105 -133q0 -201 90.5 -363t250.5 -253t359 -91zM578 651q-31 0 -51.5 20.5t-20.5 51.5t20.5 51.5t51.5 20.5t51 -20.5t20 -51.5t-20 -51.5t-51 -20.5zM997 651q-31 0 -51 20.5t-20 51.5t20 51.5t51 20.5t51.5 -20.5
t20.5 -51.5t-20.5 -51.5t-51.5 -20.5zM702 522l74 207q1 7 8.5 10t14.5 0q6 -2 9.5 -8.5t0.5 -13.5l-57 -160h69q8 0 13.5 -5.5t5.5 -12.5q0 -6 -6 -11.5t-13 -5.5h-119zM385 350q-61 0 -101 40t-40 102t40 101.5t101 39.5t101 -39.5t40 -101.5t-40 -102t-101 -40zM1190 350
q-61 0 -101 40t-40 102t39.5 101.5t101.5 39.5t101.5 -39.5t39.5 -101.5t-40 -102t-101 -40zM788 395q-95 0 -126 -61q-6 -12 -19 -12q-16 0 -16 18q0 35 49.5 63.5t111.5 28.5t112 -28.5t50 -63.5q0 -18 -16 -18q-13 0 -19 12q-31 61 -127 61z" />
    <glyph glyph-name=".null" horiz-adv-x="0" 
 />
    <glyph glyph-name="nonmarkingreturn" horiz-adv-x="682" 
 />
    <glyph glyph-name="NULL" horiz-adv-x="0" 
 />
    <glyph glyph-name="NULL" horiz-adv-x="0" 
 />
    <glyph glyph-name="space" unicode=" " horiz-adv-x="512" 
 />
    <glyph glyph-name="exclam" unicode="!" horiz-adv-x="716" 
d="M221 494l-78 940h430l-77 -940h-275zM549 385v-385h-381v385h381z" />
    <glyph glyph-name="quotedbl" unicode="&#x22;" horiz-adv-x="819" 
d="M150 946l-48 518h265l-48 -518h-169zM500 946l-47 518h264l-47 -518h-170z" />
    <glyph glyph-name="numbersign" unicode="#" horiz-adv-x="1296" 
d="M1214 879h-227l-53 -291h190v-185h-223l-74 -403h-194l74 403h-236l-74 -403h-194l73 403h-194v185h227l53 291h-190v184h223l68 371h194l-67 -371h235l68 371h194l-67 -371h194v-184zM739 588l54 291h-236l-53 -291h235z" />
    <glyph glyph-name="dollar" unicode="$" horiz-adv-x="1193" 
d="M1122 418q0 -201 -130.5 -321t-350.5 -128v-127h-57v127q-245 9 -378.5 144.5t-133.5 355.5h348q9 -81 50 -120.5t114 -45.5v248q-150 54 -186 71q-176 80 -234 212q-33 74 -33 170q0 100 35.5 178t98 127.5t143 75.5t176.5 28v148h57v-148q204 -9 322 -125t118 -340
h-348q-3 62 -25 95t-67 40v-206q17 -6 53 -17q42 -13 64 -20.5t64 -23.5t66 -29t60 -35t57.5 -43.5t46.5 -53t38 -65.5t22.5 -78t9.5 -94zM483 997q0 -33 26 -56t75 -44v186q-101 -6 -101 -86zM641 303q69 4 99 28.5t30 67.5t-33 73t-96 56v-225z" />
    <glyph glyph-name="percent" unicode="%" horiz-adv-x="1667" 
d="M449 1413q153 0 249.5 -93.5t96.5 -244.5t-96.5 -244.5t-249.5 -93.5t-250 93.5t-97 244.5t97 244.5t250 93.5zM324 0l815 1382h184l-815 -1382h-184zM449 1235q-70 0 -115 -44.5t-45 -115.5t45 -115.5t115 -44.5t114.5 44.5t44.5 115.5t-44.5 115.5t-114.5 44.5z
M1219 666q153 0 249.5 -93.5t96.5 -244.5t-96.5 -244.5t-249.5 -93.5t-250 93.5t-97 244.5t97 244.5t250 93.5zM1219 487q-70 0 -115 -44t-45 -115t45 -115.5t115 -44.5t114.5 44.5t44.5 115.5t-44.5 115t-114.5 44z" />
    <glyph glyph-name="ampersand" unicode="&#x26;" horiz-adv-x="1531" 
d="M1501 633q-168 -237 -246 -330l232 -303h-445l-49 63q-163 -94 -362 -94q-168 0 -301 59t-211 175.5t-78 273.5q0 160 82.5 279t230.5 166q-30 77 -30 168q0 161 103 242t290 81q162 0 397 -63l-92 -322q-162 51 -227 51q-30 0 -46 -11.5t-16 -45.5q0 -37 31 -76
l260 -340q14 17 178 236zM608 338q81 0 148 33l-213 272q-66 -10 -101.5 -51t-35.5 -96q0 -70 53.5 -114t148.5 -44z" />
    <glyph glyph-name="quotesingle" unicode="'" horiz-adv-x="489" 
d="M387 1464l-47 -518h-190l-48 518h285z" />
    <glyph glyph-name="parenleft" unicode="(" horiz-adv-x="712" 
d="M408 1638l260 -143q-41 -68 -65 -111t-65 -133.5t-64.5 -170t-42.5 -194.5t-19 -233q0 -158 25.5 -307.5t71.5 -276.5t80.5 -202.5t82.5 -165.5l-262 -141q-51 96 -85.5 166.5t-78 182.5t-70 215.5t-45 242.5t-18.5 286q0 135 18.5 260.5t43 216t69 192.5t77.5 163
t87 153z" />
    <glyph glyph-name="parenright" unicode=")" horiz-adv-x="712" 
d="M303 -440l-262 141q48 90 82.5 165.5t80.5 202.5t71.5 276.5t25.5 307.5q0 118 -19 233t-42.5 194.5t-64.5 170t-65 133.5t-65 111l260 143q54 -92 87 -153t77.5 -163t69 -192.5t43 -216t18.5 -260.5q0 -147 -18.5 -286t-45 -242.5t-70 -215.5t-78 -182.5t-85.5 -166.5z
" />
    <glyph glyph-name="asterisk" unicode="*" horiz-adv-x="927" 
d="M866 1083l-252 -47l174 -186l-200 -150l-125 226l-123 -224l-201 148l174 186l-252 49l78 234l232 -107l-31 252h250l-31 -254l229 109z" />
    <glyph glyph-name="plus" unicode="+" 
d="M694 1108v-422h422v-154h-422v-421h-159v421h-422v154h422v422h159z" />
    <glyph glyph-name="comma" unicode="," horiz-adv-x="524" 
d="M453 385v-385l-232 -362h-149l129 362h-129v385h381z" />
    <glyph glyph-name="hyphen" unicode="-" horiz-adv-x="882" 
d="M811 709v-328h-739v328h739z" />
    <glyph glyph-name="period" unicode="." horiz-adv-x="524" 
d="M453 385v-385h-381v385h381z" />
    <glyph glyph-name="slash" unicode="/" horiz-adv-x="1304" 
d="M1010 1632l254 -137l-969 -1782l-254 137z" />
    <glyph glyph-name="zero" unicode="0" horiz-adv-x="1294" 
d="M647 1413q279 0 437.5 -190t158.5 -531t-158.5 -532t-437.5 -191t-437.5 191t-158.5 532t158.5 531t437.5 190zM647 1051q-104 0 -157.5 -84t-53.5 -275t53.5 -275.5t157.5 -84.5t157.5 84.5t53.5 275.5t-53.5 275t-157.5 84z" />
    <glyph glyph-name="one" unicode="1" horiz-adv-x="667" 
d="M504 1382v-1382h-369v1024h-43v358h412z" />
    <glyph glyph-name="two" unicode="2" horiz-adv-x="1159" 
d="M80 0v315l444 402q45 41 63 58t48.5 52.5t42.5 67t12 66.5q0 54 -31.5 83t-89.5 29q-70 0 -105.5 -41t-33.5 -104h-379q0 79 17.5 149t58 132.5t101 107t151 70.5t203.5 26q241 0 376.5 -112t135.5 -308q0 -131 -63.5 -236.5t-194.5 -213.5l-236 -195h508v-348h-1028z
" />
    <glyph glyph-name="three" unicode="3" horiz-adv-x="1157" 
d="M565 1413q246 0 385.5 -97t139.5 -269q0 -119 -71 -201t-206 -119v-4q146 -15 224.5 -103t78.5 -235q0 -197 -140 -306.5t-390 -109.5q-285 0 -430.5 122.5t-145.5 361.5h381q2 -74 45.5 -112t126.5 -38q74 0 115 34t41 95q0 69 -53 97t-183 28h-53v293h53q113 0 162 30
t49 99q0 54 -36.5 83.5t-102.5 29.5q-70 0 -110.5 -32.5t-45.5 -92.5h-360q0 215 135.5 330.5t390.5 115.5z" />
    <glyph glyph-name="four" unicode="4" horiz-adv-x="1214" 
d="M1174 528v-311h-132v-217h-352v217h-670v277l658 888h364v-854h132zM391 528h299v406h-8z" />
    <glyph glyph-name="five" unicode="5" horiz-adv-x="1150" 
d="M965 1382v-348h-498l-18 -180h6q93 64 221 64q86 0 162.5 -26.5t138 -79t97.5 -139.5t36 -198q0 -229 -148 -367.5t-423 -138.5q-148 0 -279 40.5t-229 109.5l176 315q157 -115 321 -115q96 0 146.5 44.5t50.5 117.5q0 72 -47 117t-125 45q-58 0 -104 -24t-70 -64h-273
l74 827h785z" />
    <glyph glyph-name="six" unicode="6" horiz-adv-x="1155" 
d="M594 -31q-255 0 -409 140.5t-154 400.5q0 166 57.5 299.5t187.5 292.5l232 280h465l-484 -518l7 -4q78 68 215 68q82 0 157.5 -30t135 -85.5t95.5 -143t36 -194.5q0 -78 -18.5 -150t-60.5 -137.5t-104 -113.5t-153.5 -76.5t-204.5 -28.5zM584 295q82 0 130 45.5t48 122.5
t-48 122.5t-130 45.5t-130 -45.5t-48 -122.5t48 -122.5t130 -45.5z" />
    <glyph glyph-name="seven" unicode="7" horiz-adv-x="989" 
d="M969 1382v-340l-529 -1042h-409l534 1020h-555v362h959z" />
    <glyph glyph-name="eight" unicode="8" horiz-adv-x="1208" 
d="M604 -31q-271 0 -412 105.5t-141 298.5q0 136 68 222t190 110v4q-102 29 -158.5 109.5t-56.5 199.5q0 186 134.5 290.5t375.5 104.5t375.5 -104.5t134.5 -290.5q0 -119 -56.5 -199.5t-158.5 -109.5v-4q122 -24 190 -110t68 -222q0 -193 -141 -298.5t-412 -105.5zM604 868
q59 0 97 34.5t38 94.5t-38 94.5t-97 34.5t-97 -34.5t-38 -94.5t38 -94.5t97 -34.5zM604 268q80 0 125 43.5t45 108.5t-45 110t-125 45t-125 -45t-45 -110t45 -108.5t125 -43.5z" />
    <glyph glyph-name="nine" unicode="9" horiz-adv-x="1159" 
d="M575 1413q119 0 219.5 -34.5t175 -100.5t116.5 -171t42 -239q0 -163 -67 -311t-221 -311l-230 -246h-463l478 469l-4 4q-80 -59 -172 -59q-177 0 -303 141t-126 348q0 105 37 197.5t105.5 162t175 110t237.5 40.5zM573 1067q-82 0 -130 -45.5t-48 -122.5t48 -122.5
t130 -45.5t130.5 45.5t48.5 122.5t-48.5 122.5t-130.5 45.5z" />
    <glyph glyph-name="colon" unicode=":" horiz-adv-x="524" 
d="M453 946v-385h-381v385h381zM453 385v-385h-381v385h381z" />
    <glyph glyph-name="semicolon" unicode=";" horiz-adv-x="524" 
d="M453 946v-385h-381v385h381zM453 385v-385l-232 -362h-149l129 362h-129v385h381z" />
    <glyph glyph-name="less" unicode="&#x3c;" 
d="M1106 1139v-183l-801 -342l801 -342v-182l-983 438v172z" />
    <glyph glyph-name="equal" unicode="=" 
d="M1133 924v-156h-1037v156h1037zM1133 459v-156h-1037v156h1037z" />
    <glyph glyph-name="greater" unicode="&#x3e;" 
d="M123 1139l983 -439v-172l-983 -438v182l801 342l-801 342v183z" />
    <glyph glyph-name="question" unicode="?" horiz-adv-x="1038" 
d="M545 1464q119 0 207.5 -31.5t138 -85t73 -116.5t23.5 -135q0 -172 -147 -316q-10 -10 -37 -35.5t-37.5 -37t-30 -36t-27.5 -44.5t-15 -49.5t-7 -63.5v-20h-375v59q0 205 160 332q5 4 20 15.5t20.5 16t19 15t19 17t15.5 17t14 18.5t9.5 18.5t7.5 21.5t2 23
q0 36 -21.5 55.5t-58.5 19.5q-49 0 -73.5 -32.5t-24.5 -90.5h-359q0 211 121 338t363 127zM688 385v-385h-381v385h381z" />
    <glyph glyph-name="at" unicode="@" horiz-adv-x="1941" 
d="M993 1413q263 0 461 -93t307 -270.5t109 -418.5q0 -77 -15 -151t-48 -143.5t-80.5 -121.5t-119 -83.5t-157.5 -31.5q-100 0 -171 45t-103 134h-5q-51 -90 -114.5 -132.5t-157.5 -42.5q-81 0 -150 27.5t-122.5 81t-84 140t-30.5 196.5q0 111 31.5 198.5t85.5 141t122 81
t146 27.5q165 0 254 -133h6v103h270v-568q0 -45 18 -64.5t54 -19.5q49 0 94 91t45 221q0 142 -49.5 252t-137.5 178t-203.5 102.5t-252.5 34.5q-147 0 -271.5 -40.5t-219 -118.5t-148 -202.5t-53.5 -283.5q0 -128 37 -235t101 -182.5t151.5 -127.5t188 -77t210.5 -25
q146 0 312 45l63 -211q-188 -53 -377 -53q-142 0 -274 31.5t-249.5 100t-204.5 167.5t-138 243t-51 318q0 270 116 468t323 300t482 102zM985 705q-62 0 -105.5 -40t-43.5 -114t43.5 -114t105.5 -40q63 0 106.5 40t43.5 114t-43.5 114t-106.5 40z" />
    <glyph glyph-name="A" unicode="A" horiz-adv-x="1525" 
d="M1096 0l-88 268h-490l-88 -268h-430l555 1434h416l555 -1434h-430zM616 575h293l-145 449z" />
    <glyph glyph-name="B" unicode="B" horiz-adv-x="1312" 
d="M965 754q297 -52 297 -346q0 -109 -40 -190t-112.5 -127.5t-163 -68.5t-201.5 -22h-632v1434h630q215 0 338 -86.5t123 -272.5q0 -236 -239 -317v-4zM678 1112h-176v-246h176q71 0 112 31.5t41 95.5q0 61 -41 90t-112 29zM682 322q184 0 184 139q0 72 -46 103.5
t-138 31.5h-180v-274h180z" />
    <glyph glyph-name="C" unicode="C" horiz-adv-x="1359" 
d="M819 -31q-167 0 -310.5 50.5t-250 144.5t-167 236.5t-60.5 316.5q0 231 105 402.5t282 258t401 86.5q304 0 531 -157l-205 -334q-79 55 -152 81.5t-162 26.5q-167 0 -279 -96.5t-112 -267.5t112.5 -268t278.5 -97q89 0 162 27t152 82l205 -334q-228 -158 -531 -158z" />
    <glyph glyph-name="D" unicode="D" horiz-adv-x="1413" 
d="M602 1434q364 0 572 -191.5t208 -525.5t-209 -525.5t-571 -191.5h-489v1434h489zM604 1085h-102v-737h102q170 0 269.5 94.5t99.5 274.5t-99 274t-270 94z" />
    <glyph glyph-name="E" unicode="E" horiz-adv-x="1118" 
d="M502 356h555v-356h-944v1434h913v-357h-524v-170h461v-338h-461v-213z" />
    <glyph glyph-name="F" unicode="F" horiz-adv-x="1089" 
d="M1079 1077h-577v-221h473v-348h-473v-508h-389v1434h966v-357z" />
    <glyph glyph-name="G" unicode="G" horiz-adv-x="1538" 
d="M1501 850q6 -83 6 -156q0 -158 -45.5 -290.5t-131.5 -229.5t-219.5 -151t-301.5 -54q-231 0 -408 94.5t-273.5 265t-96.5 390.5q0 160 53.5 296t153 236t251.5 156.5t340 56.5q320 0 574 -184l-238 -319q-154 131 -348 131q-175 0 -276 -103.5t-101 -271.5
q0 -165 100 -270t287 -105q131 0 203.5 50.5t85.5 129.5h-354v328h739z" />
    <glyph glyph-name="H" unicode="H" horiz-adv-x="1492" 
d="M991 1434h389v-1434h-389v557h-489v-557h-389v1434h389v-521h489v521z" />
    <glyph glyph-name="I" unicode="I" horiz-adv-x="614" 
d="M502 1434v-1434h-389v1434h389z" />
    <glyph glyph-name="J" unicode="J" horiz-adv-x="663" 
d="M551 1434v-1065q0 -194 -100.5 -284.5t-309.5 -90.5h-121v356h78q26 0 45 20.5t19 45.5v1018h389z" />
    <glyph glyph-name="K" unicode="K" horiz-adv-x="1585" 
d="M1585 0h-541l-542 664v-664h-389v1434h389v-631l483 631h504l-563 -682z" />
    <glyph glyph-name="L" unicode="L" horiz-adv-x="1052" 
d="M502 1434v-1078h540v-356h-929v1434h389z" />
    <glyph glyph-name="M" unicode="M" horiz-adv-x="1923" 
d="M1520 1434l403 -1434h-395l-201 715h-4l-233 -520h-256l-234 520h-4l-201 -715h-395l403 1434h289l269 -625h2l268 625h289z" />
    <glyph glyph-name="N" unicode="N" horiz-adv-x="1597" 
d="M1485 1434v-1434h-303l-676 770h-4v-770h-389v1434h303l676 -770h4v770h389z" />
    <glyph glyph-name="O" unicode="O" horiz-adv-x="1589" 
d="M795 1464q159 0 299 -54t243 -150t162.5 -236.5t59.5 -306.5q0 -220 -102 -392t-275.5 -264t-386.5 -92t-386.5 92t-275.5 264t-102 392q0 166 59.5 306.5t162.5 236.5t243 150t299 54zM795 1075q-156 0 -255.5 -97t-99.5 -261t100 -261.5t255 -97.5t254.5 97.5
t99.5 261.5t-99.5 261t-254.5 97z" />
    <glyph glyph-name="P" unicode="P" horiz-adv-x="1263" 
d="M672 1434q150 0 263 -38t181.5 -107t102.5 -159.5t34 -201.5t-34 -201.5t-102.5 -159.5t-181.5 -107t-263 -38h-170v-422h-389v1434h559zM662 766q88 0 139 41.5t51 120.5t-51 120.5t-139 41.5h-160v-324h160z" />
    <glyph glyph-name="Q" unicode="Q" horiz-adv-x="1642" 
d="M1683 0h-380l-84 84q-188 -115 -424 -115q-213 0 -386.5 92t-275.5 264t-102 392q0 166 59.5 306.5t162.5 236.5t243 150t299 54t299 -54t243 -150t162.5 -236.5t59.5 -306.5q0 -260 -142 -451zM795 358q67 0 129 21l-246 244h381l61 -62q29 72 29 156q0 164 -99.5 261
t-254.5 97q-156 0 -255.5 -97t-99.5 -261t100 -261.5t255 -97.5z" />
    <glyph glyph-name="R" unicode="R" horiz-adv-x="1366" 
d="M1356 0h-486l-368 532v-532h-389v1434h612q137 0 243.5 -38.5t170 -104.5t95.5 -149t32 -179q0 -149 -78 -264.5t-230 -166.5zM672 1090h-170v-308h170q91 0 140.5 39t49.5 117q0 152 -190 152z" />
    <glyph glyph-name="S" unicode="S" horiz-adv-x="1220" 
d="M659 1464q243 0 490 -121l-168 -346q-86 57 -180.5 86t-169.5 29q-88 0 -88 -53q0 -21 16 -38t59 -40l295 -152q62 -32 106.5 -65.5t83 -81t58 -112t19.5 -146.5q0 -221 -144.5 -338t-419.5 -117q-316 0 -606 162l178 373q247 -176 449 -176q121 0 121 63q0 25 -16.5 41
t-53.5 35l-313 158q-124 63 -189 166.5t-65 238.5q0 198 138 316t400 118z" />
    <glyph glyph-name="T" unicode="T" horiz-adv-x="1126" 
d="M1116 1434v-357h-358v-1077h-389v1077h-359v357h1106z" />
    <glyph glyph-name="U" unicode="U" horiz-adv-x="1466" 
d="M1364 596q0 -144 -37 -256.5t-113 -195t-197.5 -126t-283.5 -43.5t-283.5 43.5t-197.5 126t-113 195t-37 256.5v838h416v-828q0 -109 50.5 -175t164.5 -66t164.5 66t50.5 175v828h416v-838z" />
    <glyph glyph-name="V" unicode="V" horiz-adv-x="1542" 
d="M1542 1434l-557 -1434h-428l-557 1434h461l307 -967h6l307 967h461z" />
    <glyph glyph-name="W" unicode="W" horiz-adv-x="2310" 
d="M2300 1434l-516 -1434h-324l-303 825h-4l-303 -825h-324l-516 1434h457l229 -785h4l291 785h328l291 -785h4l229 785h457z" />
    <glyph glyph-name="X" unicode="X" horiz-adv-x="1638" 
d="M1638 0h-491l-328 455l-327 -455h-492l563 762l-510 672h492l274 -369l275 369h491l-510 -672z" />
    <glyph glyph-name="Y" unicode="Y" horiz-adv-x="1501" 
d="M1501 1434l-555 -951v-483h-391v479l-555 955h465l283 -576h6l282 576h465z" />
    <glyph glyph-name="Z" unicode="Z" horiz-adv-x="1220" 
d="M522 356h658v-356h-1139v356l621 721h-564v357h1035v-357z" />
    <glyph glyph-name="bracketleft" unicode="[" horiz-adv-x="737" 
d="M717 1577v-246h-277v-1526h277v-245h-574v2017h574z" />
    <glyph glyph-name="backslash" unicode="\" horiz-adv-x="1304" 
d="M1010 -287l-969 1782l254 137l969 -1782z" />
    <glyph glyph-name="bracketright" unicode="]" horiz-adv-x="737" 
d="M20 -440v245h277v1526h-277v246h574v-2017h-574z" />
    <glyph glyph-name="asciicircum" unicode="^" 
d="M829 1464l295 -659h-282l-228 518l-227 -518h-283l295 659h430z" />
    <glyph glyph-name="underscore" unicode="_" horiz-adv-x="1091" 
d="M1071 -31v-266h-1051v266h1051z" />
    <glyph glyph-name="grave" unicode="`" horiz-adv-x="886" 
d="M520 1448l264 -315h-297l-385 315h418z" />
    <glyph glyph-name="a" unicode="a" horiz-adv-x="1236" 
d="M479 -31q-92 0 -171.5 31t-142 91.5t-98.5 158.5t-36 223t36 223t98.5 158.5t142 91.5t171.5 31q207 0 303 -152h4v121h379v-946h-379v121h-4q-96 -152 -303 -152zM594 299q76 0 125 47t49 127t-49 127t-125 47t-125 -47t-49 -127t49 -127t125 -47z" />
    <glyph glyph-name="b" unicode="b" horiz-adv-x="1247" 
d="M768 977q92 0 172 -31t142.5 -91.5t98.5 -158.5t36 -223t-36 -223t-98.5 -158.5t-142.5 -91.5t-172 -31q-207 0 -303 152h-4v-121h-379v1434h379v-609h4q96 152 303 152zM645 299q81 0 132.5 46t51.5 128t-51.5 128t-132.5 46t-132.5 -46t-51.5 -128t51.5 -128t132.5 -46
z" />
    <glyph glyph-name="c" unicode="c" horiz-adv-x="931" 
d="M571 -31q-239 0 -389.5 136t-150.5 368t150.5 368t389.5 136q194 0 351 -90l-146 -297q-77 49 -170 49q-83 0 -134.5 -46t-51.5 -120t51.5 -120t134.5 -46q93 0 170 49l146 -297q-157 -90 -351 -90z" />
    <glyph glyph-name="d" unicode="d" horiz-adv-x="1247" 
d="M479 977q207 0 303 -152h4v609h379v-1434h-379v121h-4q-96 -152 -303 -152q-92 0 -171.5 31t-142 91.5t-98.5 158.5t-36 223t36 223t98.5 158.5t142 91.5t171.5 31zM602 299q81 0 132.5 46t51.5 128t-51.5 128t-132.5 46t-132.5 -46t-51.5 -128t51.5 -128t132.5 -46z" />
    <glyph glyph-name="e" unicode="e" horiz-adv-x="1052" 
d="M545 975q227 0 357 -132t130 -392v-66h-651q23 -67 80 -96t155 -29q110 0 240 53l100 -276q-169 -68 -352 -68q-272 0 -422.5 130.5t-150.5 371.5q0 244 141.5 374t372.5 130zM526 731q-62 0 -105.5 -39t-47.5 -112h301q0 74 -42.5 112.5t-105.5 38.5z" />
    <glyph glyph-name="f" unicode="f" horiz-adv-x="815" 
d="M756 1104q-100 0 -139 -31.5t-39 -122.5v-4h210v-311h-210v-635h-379v635h-179v311h179v6q0 270 123 386t387 116h86v-350h-39z" />
    <glyph glyph-name="g" unicode="g" horiz-adv-x="1236" 
d="M608 -440q-193 0 -428 49l64 332q182 -47 309 -47q116 0 174.5 42.5t58.5 153.5v37h-4q-110 -127 -297 -127q-95 0 -175.5 28.5t-143.5 85t-99 150.5t-36 215q0 122 36 219t98.5 157t142 91t171.5 31q207 0 303 -152h4v121h379v-915q0 -216 -137 -343.5t-420 -127.5z
M594 299q76 0 125 47t49 127t-49 127t-125 47t-125 -47t-49 -127t49 -127t125 -47z" />
    <glyph glyph-name="h" unicode="h" horiz-adv-x="1196" 
d="M461 1434v-615h4q116 158 311 158q161 0 254.5 -97t93.5 -286v-594h-379v489q0 84 -32.5 125t-100.5 41q-69 0 -110 -48.5t-41 -147.5v-459h-379v1434h379z" />
    <glyph glyph-name="i" unicode="i" horiz-adv-x="542" 
d="M465 1434v-355h-387v355h387zM461 946v-946h-379v946h379z" />
    <glyph glyph-name="j" unicode="j" horiz-adv-x="542" 
d="M465 1434v-355h-387v355h387zM-82 -63h43q59 0 90 38t31 111v860h379v-842q0 -267 -107.5 -393.5t-333.5 -126.5h-102v353z" />
    <glyph glyph-name="k" unicode="k" horiz-adv-x="1234" 
d="M1235 0h-485l-289 414v-414h-379v1434h379v-838l241 350h457l-352 -430z" />
    <glyph glyph-name="l" unicode="l" horiz-adv-x="542" 
d="M461 1434v-1434h-379v1434h379z" />
    <glyph glyph-name="m" unicode="m" horiz-adv-x="1814" 
d="M72 0v946h366v-149h4q46 90 126.5 135t183.5 45q124 0 201.5 -57t111.5 -146h4q105 203 332 203q165 0 253.5 -96t88.5 -273v-608h-379v481q0 174 -125 174q-152 0 -152 -188v-467h-360v481q0 174 -125 174q-151 0 -151 -188v-467h-379z" />
    <glyph glyph-name="n" unicode="n" horiz-adv-x="1185" 
d="M768 977q159 0 252.5 -97t93.5 -286v-594h-379v489q0 84 -32.5 125t-100.5 41q-151 0 -151 -196v-459h-379v946h366v-141h4q125 172 326 172z" />
    <glyph glyph-name="o" unicode="o" horiz-adv-x="1146" 
d="M573 -31q-241 0 -391.5 138t-150.5 366t150.5 366t391.5 138t392 -138t151 -366t-151 -366t-392 -138zM573 299q80 0 132.5 47t52.5 127t-52.5 127t-132.5 47t-132 -47t-52 -127t52 -127t132 -47z" />
    <glyph glyph-name="p" unicode="p" horiz-adv-x="1236" 
d="M72 -410v1356h379v-121h4q96 152 303 152q92 0 171.5 -31t142 -91.5t98.5 -158.5t36 -223t-36 -223t-98.5 -158.5t-142 -91.5t-171.5 -31q-207 0 -303 152h-4v-531h-379zM635 299q81 0 132.5 46t51.5 128t-51.5 128t-132.5 46t-132.5 -46t-51.5 -128t51.5 -128t132.5 -46
z" />
    <glyph glyph-name="q" unicode="q" horiz-adv-x="1236" 
d="M786 -410v531h-4q-96 -152 -303 -152q-92 0 -171.5 31t-142 91.5t-98.5 158.5t-36 223t36 223t98.5 158.5t142 91.5t171.5 31q207 0 303 -152h4v121h379v-1356h-379zM602 299q81 0 132.5 46t51.5 128t-51.5 128t-132.5 46t-132.5 -46t-51.5 -128t51.5 -128t132.5 -46z
" />
    <glyph glyph-name="r" unicode="r" horiz-adv-x="753" 
d="M743 975v-357h-22q-141 0 -205.5 -59.5t-64.5 -212.5v-346h-379v946h366v-176h4q42 113 116 159t181 46h4z" />
    <glyph glyph-name="s" unicode="s" horiz-adv-x="929" 
d="M473 -31q-261 0 -463 101l121 270q188 -102 342 -107q76 -2 76 31q0 16 -13.5 24.5t-50.5 20.5l-143 47q-129 42 -194.5 113t-65.5 190q0 150 107.5 234t326.5 84q153 0 358 -47l-81 -281q-177 70 -306 70q-57 0 -57 -27q0 -23 47 -37l170 -55q131 -42 196.5 -109.5
t65.5 -193.5q0 -167 -115 -247.5t-321 -80.5z" />
    <glyph glyph-name="t" unicode="t" horiz-adv-x="790" 
d="M780 635h-200v-154q0 -76 20.5 -102.5t79.5 -26.5h33v-352h-154q-358 0 -358 371v264h-191v311h191v379h379v-379h200v-311z" />
    <glyph glyph-name="u" unicode="u" horiz-adv-x="1200" 
d="M442 -31q-160 0 -260 95.5t-100 273.5v608h389v-495q0 -81 34.5 -119.5t92.5 -38.5q141 0 141 207v446h379v-946h-366v145h-4q-63 -90 -136.5 -133t-169.5 -43z" />
    <glyph glyph-name="v" unicode="v" horiz-adv-x="1189" 
d="M776 946h414l-404 -946h-383l-403 946h414l182 -530z" />
    <glyph glyph-name="w" unicode="w" horiz-adv-x="1751" 
d="M1386 946h365l-362 -946h-316l-196 469l-199 -469h-313l-365 946h365l165 -457l177 457h340l176 -457z" />
    <glyph glyph-name="x" unicode="x" horiz-adv-x="1216" 
d="M791 0l-183 258l-182 -258h-426l385 492l-362 454h428l157 -219l158 219h428l-363 -454l386 -492h-426z" />
    <glyph glyph-name="y" unicode="y" horiz-adv-x="1214" 
d="M844 946h370l-651 -1356h-379l248 510l-432 846h422l199 -459z" />
    <glyph glyph-name="z" unicode="z" horiz-adv-x="946" 
d="M479 305h447v-305h-906v270l410 373h-369v303h838v-256h2z" />
    <glyph glyph-name="braceleft" unicode="{" horiz-adv-x="872" 
d="M852 1587v-303h-61q-90 0 -132.5 -29t-42.5 -100v-258q0 -270 -272 -332v-4q272 -59 272 -332v-237q0 -70 40.5 -99.5t129.5 -29.5h66v-303h-82q-71 0 -134 15t-119 47.5t-96 81t-63.5 119t-23.5 157.5v217q0 109 -67.5 160t-194.5 57v301q127 6 194.5 56.5t67.5 158.5
v237q0 87 23.5 157.5t63.5 119t96 81t119 47.5t134 15h82z" />
    <glyph glyph-name="bar" unicode="|" horiz-adv-x="696" 
d="M471 1489v-1929h-246v1929h246z" />
    <glyph glyph-name="braceright" unicode="}" horiz-adv-x="872" 
d="M20 -440v303h66q89 0 129.5 29.5t40.5 99.5v237q0 273 272 332v4q-272 62 -272 332v258q0 71 -42 100t-132 29h-62v303h82q89 0 166 -24.5t138.5 -73.5t97 -131.5t35.5 -190.5v-237q0 -108 67.5 -158.5t194.5 -56.5v-301q-127 -6 -194.5 -57t-67.5 -160v-217
q0 -108 -35.5 -190.5t-97 -131.5t-138.5 -73.5t-166 -24.5h-82z" />
    <glyph glyph-name="asciitilde" unicode="~" 
d="M403 856q68 0 135 -19.5t110.5 -43t95.5 -43t94 -19.5q28 0 50.5 4t49 17.5t37.5 19.5t46.5 31.5t45.5 32.5l154 -240q-208 -168 -392 -168q-66 0 -131.5 19t-108.5 42.5t-96 42.5t-98 19q-24 0 -46.5 -4.5t-37 -8.5t-38.5 -18t-32.5 -19.5t-38 -27t-38.5 -27.5l-156 238
q207 172 395 172z" />
    <glyph glyph-name="exclamdown" unicode="&#xa1;" horiz-adv-x="716" 
d="M168 639v385h381v-385h-381zM143 -410l78 940h275l77 -940h-430z" />
    <glyph glyph-name="cent" unicode="&#xa2;" horiz-adv-x="886" 
d="M825 586q-88 32 -133 41.5t-100 9.5v-328h4q53 0 94 8.5t129 36.5v-336q-119 -40 -227 -47v-102h-57v100q-211 0 -347.5 136.5t-136.5 367.5q0 229 135.5 365.5t348.5 138.5v115h57v-117q119 -7 233 -53v-336zM535 315v316q-59 -11 -94 -51t-35 -107q0 -131 129 -158z
" />
    <glyph glyph-name="sterling" unicode="&#xa3;" horiz-adv-x="1183" 
d="M500 330l4 -13h567v-317h-944v274q109 53 167 112.5t58 133.5q0 47 -22 88t-66 99h-182v61h139q-74 120 -74 248q0 189 132 293t366 104q237 0 357 -115.5t120 -357.5h-348q0 78 -34 119t-99 41q-56 0 -93.5 -28.5t-37.5 -82.5q0 -18 5.5 -38.5t11.5 -35t20.5 -38
t22.5 -34.5t28.5 -38.5t26.5 -36.5h301v-61h-262q47 -82 47 -152q0 -76 -50.5 -126t-160.5 -99z" />
    <glyph glyph-name="currency" unicode="&#xa4;" 
d="M1104 662q0 -196 -131 -330l108 -109l-41 -39l-108 109q-132 -107 -318 -107q-194 0 -327 117l-121 -119l-39 41l119 119q-121 131 -121 318q0 186 121 317l-119 119l41 41l119 -119q136 117 327 117q186 0 318 -107l108 109l41 -41l-108 -109q131 -134 131 -327z
M614 502q73 0 117.5 45t44.5 115t-44.5 114.5t-117.5 44.5t-117 -44.5t-44 -114.5t44 -115t117 -45z" />
    <glyph glyph-name="yen" unicode="&#xa5;" horiz-adv-x="1458" 
d="M1417 1382l-413 -761h235v-62h-268l-64 -115h332v-61h-346v-383h-330v383h-344v61h332l-64 115h-268v62h236l-414 761h424l264 -577l264 577h424z" />
    <glyph glyph-name="brokenbar" unicode="&#xa6;" horiz-adv-x="696" 
d="M471 1489v-795h-246v795h246zM471 371v-811h-246v811h246z" />
    <glyph glyph-name="section" unicode="&#xa7;" horiz-adv-x="1241" 
d="M1139 559q0 -203 -178 -340q65 -84 65 -196q0 -151 -116 -250t-316 -99q-216 0 -393 115l157 266q55 -35 121 -57.5t123 -22.5q42 0 69 14.5t27 35.5q0 24 -33 49.5t-85.5 51.5t-116 57t-127 72t-116 89.5t-85.5 117t-33 146.5q0 93 45 172.5t127 137.5q-59 78 -59 182
q0 157 117.5 260.5t318.5 103.5q102 0 202.5 -33.5t180.5 -93.5l-164 -264q-50 40 -112 65t-115 25q-47 0 -73.5 -14.5t-26.5 -34.5q0 -22 33 -44t85.5 -44.5t116 -50t127 -66t116 -85.5t85.5 -115.5t33 -149.5zM434 600q0 -16 7 -30.5t22 -28.5t31 -25.5t43 -26t47.5 -25
t55 -27t56.5 -27.5q111 66 111 131q0 16 -7 30.5t-22.5 28.5t-31.5 25t-43.5 25t-48.5 24t-56 26t-57 27q-107 -66 -107 -127z" />
    <glyph glyph-name="dieresis" unicode="&#xa8;" horiz-adv-x="874" 
d="M387 1413v-297h-285v297h285zM772 1413v-297h-285v297h285z" />
    <glyph glyph-name="copyright" unicode="&#xa9;" horiz-adv-x="1695" 
d="M848 1464q213 0 382 -92t266 -263t97 -392q0 -164 -56.5 -304.5t-155.5 -237.5t-236.5 -151.5t-296.5 -54.5q-212 0 -381.5 93t-267 264.5t-97.5 390.5q0 165 57 305.5t156 237t237 150.5t296 54zM848 1296q-161 0 -290 -71t-204 -204t-75 -304q0 -129 44 -237.5
t120 -183t180.5 -116t224.5 -41.5t224.5 41.5t180 116t119 183t43.5 237.5q0 171 -74.5 304t-203 204t-289.5 71zM868 1190q164 0 312 -98l-103 -199q-1 0 -21 11.5t-24 13.5t-23 11t-27 12t-25.5 9t-30 8.5t-29.5 4.5t-33 2q-103 0 -168 -66.5t-65 -173.5t65 -173.5
t168 -66.5q16 0 33 2t29.5 4.5t30 8.5t25.5 9t27 12t23 11t24 13.5t21 11.5l103 -201q-156 -96 -312 -96q-211 0 -347 132t-136 333t136 333t347 132z" />
    <glyph glyph-name="ordfeminine" unicode="&#xaa;" horiz-adv-x="915" 
d="M377 692q-125 0 -210 89t-85 245t85 245t210 89q144 0 207 -119h4v98h246v-626h-246v98h-4q-63 -119 -207 -119zM463 911q48 0 81.5 32.5t33.5 82.5t-33.5 82.5t-81.5 32.5t-81.5 -32.5t-33.5 -82.5t33.5 -82.5t81.5 -32.5z" />
    <glyph glyph-name="guillemotleft" unicode="&#xab;" horiz-adv-x="1347" 
d="M786 872l-356 -380l356 -381h-399l-356 381l356 380h399zM1327 872l-356 -380l356 -381h-399l-357 381l357 380h399z" />
    <glyph glyph-name="logicalnot" unicode="&#xac;" 
d="M145 885h936v-154v-389h-159v389h-777v154z" />
    <glyph glyph-name="uni00AD" unicode="&#xad;" horiz-adv-x="882" 
d="M811 709v-328h-739v328h739z" />
    <glyph glyph-name="registered" unicode="&#xae;" horiz-adv-x="1142" 
d="M571 1464q222 0 366 -144.5t144 -369.5t-144 -369.5t-366 -144.5t-366 144.5t-144 369.5t144 369.5t366 144.5zM571 584q163 0 260 102.5t97 263.5t-97 264t-260 103t-259.5 -103t-96.5 -264t96.5 -263.5t259.5 -102.5zM799 1061q0 -129 -113 -166l123 -195h-152
l-104 183h-27v-183h-133v533h215q88 0 139.5 -44.5t51.5 -127.5zM526 1108v-100h68q59 0 59 51q0 49 -59 49h-68z" />
    <glyph glyph-name="macron" unicode="&#xaf;" horiz-adv-x="884" 
d="M782 1393v-238h-680v238h680z" />
    <glyph glyph-name="degree" unicode="&#xb0;" horiz-adv-x="823" 
d="M412 1413q135 0 222 -86t87 -223t-87 -223t-222 -86t-222.5 86t-87.5 223t87.5 223t222.5 86zM412 1253q-63 0 -105.5 -41.5t-42.5 -107.5t42.5 -108t105.5 -42t105 42t42 108t-42 107.5t-105 41.5z" />
    <glyph glyph-name="plusminus" unicode="&#xb1;" 
d="M694 1067v-252h410v-153h-410v-252h-159v252h-410v153h410v252h159zM1104 315v-153h-979v153h979z" />
    <glyph glyph-name="uni00B2" unicode="&#xb2;" horiz-adv-x="851" 
d="M84 713v237l287 246q60 52 86 83t26 62q0 26 -15.5 42t-45.5 16q-34 0 -54.5 -20.5t-21.5 -59.5h-295q0 149 92.5 237.5t288.5 88.5q171 0 263.5 -71t92.5 -200q0 -51 -13.5 -94t-42 -80.5t-60.5 -67.5t-80 -67l-105 -80h304v-272h-707z" />
    <glyph glyph-name="uni00B3" unicode="&#xb3;" horiz-adv-x="825" 
d="M418 692q-372 0 -375 326h287q2 -30 25 -48t63 -18q78 0 78 64q0 34 -32.5 46.5t-111.5 12.5v189q121 0 121 65q0 64 -65 64q-74 0 -80 -58h-287q0 141 98 225.5t275 84.5q163 0 251.5 -65t88.5 -189q0 -76 -40 -132t-124 -69v-4q94 -7 144 -66t50 -149
q0 -132 -93 -205.5t-273 -73.5z" />
    <glyph glyph-name="acute" unicode="&#xb4;" horiz-adv-x="886" 
d="M367 1448h417l-385 -315h-297z" />
    <glyph glyph-name="paragraph" unicode="&#xb6;" horiz-adv-x="1419" 
d="M1317 1434v-277h-141v-1374h-256v1374h-164v-1374h-256v852q-170 0 -284 113.5t-114 293.5q0 174 119 283t299 109h797z" />
    <glyph glyph-name="periodcentered" unicode="&#xb7;" horiz-adv-x="524" 
d="M453 946v-385h-381v385h381z" />
    <glyph glyph-name="cedilla" unicode="&#xb8;" horiz-adv-x="626" 
d="M403 88l-69 -164q94 -12 142 -48t48 -91q0 -26 -10 -47.5t-33.5 -40t-49 -32.5t-68 -29.5t-78.5 -26.5t-93 -28l-51 -15l-39 88q95 40 127.5 59.5t32.5 38.5q0 17 -12.5 27t-28 14t-53.5 12l115 283h120z" />
    <glyph glyph-name="uni00B9" unicode="&#xb9;" horiz-adv-x="532" 
d="M115 713v620h-23v293h328v-913h-305z" />
    <glyph glyph-name="ordmasculine" unicode="&#xba;" horiz-adv-x="888" 
d="M444 1360q160 0 261.5 -89.5t101.5 -244.5t-101.5 -244.5t-261.5 -89.5t-261 89.5t-101 244.5t101 244.5t261 89.5zM444 1141q-48 0 -81 -32.5t-33 -82.5t33 -82.5t81 -32.5t81.5 32.5t33.5 82.5t-33.5 82.5t-81.5 32.5z" />
    <glyph glyph-name="guillemotright" unicode="&#xbb;" horiz-adv-x="1347" 
d="M20 872h400l356 -380l-356 -381h-400l357 381zM561 872h400l356 -380l-356 -381h-400l357 381z" />
    <glyph glyph-name="onequarter" unicode="&#xbc;" horiz-adv-x="1429" 
d="M315 592h-198v586h-45v204h243v-790zM956 1382h185l-815 -1382h-185zM1389 305v-186h-78v-119h-191v119h-389v186l406 486h174v-486h78zM926 305h194v221h-4z" />
    <glyph glyph-name="onehalf" unicode="&#xbd;" horiz-adv-x="1470" 
d="M315 1382v-790h-198v586h-45v204h243zM141 0l815 1382h185l-815 -1382h-185zM1145 809q137 0 211 -60t74 -163q0 -43 -11.5 -80t-40.5 -74.5t-49 -58.5t-65 -64l-119 -112h278v-197h-577v152l266 260q58 58 79 89.5t21 61.5q0 62 -75 62q-44 0 -68.5 -22.5t-26.5 -63.5
h-198q0 128 78 199t223 71z" />
    <glyph glyph-name="threequarters" unicode="&#xbe;" horiz-adv-x="1662" 
d="M662 811q0 -45 -16.5 -86t-50 -76t-92.5 -55.5t-136 -20.5q-140 0 -220.5 72t-83.5 209h199q9 -96 113 -96q90 0 90 88q0 52 -40 70t-130 18v133q133 3 133 78q0 35 -20.5 53.5t-57.5 18.5q-38 0 -61.5 -21t-26.5 -61h-201q2 119 79 192.5t216 73.5q128 0 203.5 -59.5
t75.5 -151.5q0 -63 -33.5 -114t-112.5 -70v-5q173 -21 173 -190zM1190 1382h184l-815 -1382h-184zM1622 305v-186h-78v-119h-190v119h-389v186l405 486h174v-486h78zM1159 305h195v221h-4z" />
    <glyph glyph-name="questiondown" unicode="&#xbf;" horiz-adv-x="946" 
d="M340 639v385h381v-385h-381zM483 -440q-119 0 -207.5 31.5t-138 85t-73 116.5t-23.5 135q0 172 147 316q10 10 37 35.5t37.5 37t30 36t27.5 44.5t15 49.5t7 63.5v20h375v-59q0 -205 -160 -332q-5 -4 -20 -15.5t-20.5 -16t-19 -15t-19 -17t-15.5 -17t-14 -18.5t-9.5 -18.5
t-7.5 -21.5t-2 -23q0 -36 21.5 -55.5t58.5 -19.5q49 0 73.5 32.5t24.5 90.5h359q0 -211 -121 -338t-363 -127z" />
    <glyph glyph-name="Agrave" unicode="&#xc0;" horiz-adv-x="1525" 
d="M905 1522h-268l-383 245h389zM1096 0l-88 268h-490l-88 -268h-430l555 1434h416l555 -1434h-430zM616 575h293l-145 449z" />
    <glyph glyph-name="Aacute" unicode="&#xc1;" horiz-adv-x="1525" 
d="M1274 1767l-383 -245h-268l262 245h389zM1096 0l-88 268h-490l-88 -268h-430l555 1434h416l555 -1434h-430zM616 575h293l-145 449z" />
    <glyph glyph-name="Acircumflex" unicode="&#xc2;" horiz-adv-x="1525" 
d="M762 1651l-117 -129h-307l246 245h358l246 -245h-307zM1096 0l-88 268h-490l-88 -268h-430l555 1434h416l555 -1434h-430zM616 575h293l-145 449z" />
    <glyph glyph-name="Atilde" unicode="&#xc3;" horiz-adv-x="1525" 
d="M561 1569q-24 0 -45 -11.5t-32.5 -24t-30.5 -36.5l-111 39q40 132 96.5 196t157.5 64q66 0 208 -30.5t171 -30.5q24 0 45 11.5t32.5 23t30.5 34.5l111 -37q-40 -133 -96.5 -196.5t-157.5 -63.5q-66 0 -208 31t-171 31zM1096 0l-88 268h-490l-88 -268h-430l555 1434h416
l555 -1434h-430zM616 575h293l-145 449z" />
    <glyph glyph-name="Adieresis" unicode="&#xc4;" horiz-adv-x="1525" 
d="M692 1767v-245h-309v245h309zM1145 1767v-245h-309v245h309zM1096 0l-88 268h-490l-88 -268h-430l555 1434h416l555 -1434h-430zM616 575h293l-145 449z" />
    <glyph glyph-name="Aring" unicode="&#xc5;" horiz-adv-x="1525" 
d="M1096 0l-88 268h-490l-88 -268h-430l547 1411q-29 56 -29 119q0 105 69 172t177 67t177 -67t69 -172q0 -65 -29 -121l545 -1409h-430zM764 1624q-44 0 -71 -27t-27 -67t27 -68t71 -28q43 0 69.5 28t26.5 68q0 39 -26.5 66.5t-69.5 27.5zM616 575h293l-145 449z" />
    <glyph glyph-name="AE" unicode="&#xc6;" horiz-adv-x="2160" 
d="M1585 356h514v-356h-610h-283v268h-555l-164 -268h-487l954 1434h631h483v-357h-483v-170h420v-338h-420v-213zM840 575h366v599z" />
    <glyph glyph-name="Ccedilla" unicode="&#xc7;" horiz-adv-x="1359" 
d="M1350 127q-207 -145 -478 -156l-20 -47q94 -12 142 -48t48 -91q0 -26 -10 -47.5t-33.5 -40t-49 -32.5t-68 -29.5t-78.5 -26.5t-93 -28l-51 -15l-38 88q95 40 127 59.5t32 38.5q0 17 -12.5 27t-28 14t-53.5 12l68 166q-155 10 -287 65t-229 148.5t-152 230.5t-55 302
q0 231 105 402.5t282 258t401 86.5q304 0 531 -157l-205 -334q-79 55 -152 81.5t-162 26.5q-167 0 -279 -96.5t-112 -267.5t112.5 -268t278.5 -97q89 0 162 27t152 82z" />
    <glyph glyph-name="Egrave" unicode="&#xc8;" horiz-adv-x="1118" 
d="M725 1522h-268l-383 245h389zM502 356h555v-356h-944v1434h913v-357h-524v-170h461v-338h-461v-213z" />
    <glyph glyph-name="Eacute" unicode="&#xc9;" horiz-adv-x="1118" 
d="M1094 1767l-383 -245h-269l263 245h389zM502 569v-213h555v-356h-944v1434h913v-357h-524v-170h461v-338h-461z" />
    <glyph glyph-name="Ecircumflex" unicode="&#xca;" horiz-adv-x="1118" 
d="M582 1651l-117 -129h-307l245 245h359l246 -245h-308zM502 356h555v-356h-944v1434h913v-357h-524v-170h461v-338h-461v-213z" />
    <glyph glyph-name="Edieresis" unicode="&#xcb;" horiz-adv-x="1118" 
d="M512 1767v-245h-309v245h309zM965 1767v-245h-310v245h310zM502 356h555v-356h-944v1434h913v-357h-524v-170h461v-338h-461v-213z" />
    <glyph glyph-name="Igrave" unicode="&#xcc;" horiz-adv-x="614" 
d="M186 1767l263 -245h-269l-383 245h389zM502 1434v-1434h-389v1434h389z" />
    <glyph glyph-name="Iacute" unicode="&#xcd;" horiz-adv-x="614" 
d="M817 1767l-383 -245h-268l262 245h389zM502 1434v-1434h-389v1434h389z" />
    <glyph glyph-name="Icircumflex" unicode="&#xce;" horiz-adv-x="614" 
d="M485 1767l246 -245h-307l-119 129l-117 -129h-307l246 245h358zM502 1434v-1434h-389v1434h389z" />
    <glyph glyph-name="Idieresis" unicode="&#xcf;" horiz-adv-x="614" 
d="M236 1767v-245h-310v245h310zM688 1767v-245h-309v245h309zM502 1434v-1434h-389v1434h389z" />
    <glyph glyph-name="Eth" unicode="&#xd0;" horiz-adv-x="1413" 
d="M602 1434q364 0 572 -191.5t208 -525.5t-209 -525.5t-571 -191.5h-489v569h-144v318h144v547h489zM604 348q170 0 269.5 94.5t99.5 274.5t-99 274t-270 94h-102v-198h239v-318h-239v-221h102z" />
    <glyph glyph-name="Ntilde" unicode="&#xd1;" horiz-adv-x="1597" 
d="M483 1497l-110 39q40 132 96.5 196t157.5 64q66 0 208 -30.5t171 -30.5q24 0 45 11.5t32.5 23t30.5 34.5l111 -37q-40 -133 -96.5 -196.5t-157.5 -63.5q-66 0 -208 31t-171 31q-24 0 -45 -11.5t-33.5 -24t-30.5 -36.5zM1485 1434v-1434h-303l-676 770h-4v-770h-389v1434
h303l676 -770h4v770h389z" />
    <glyph glyph-name="Ograve" unicode="&#xd2;" horiz-adv-x="1589" 
d="M674 1767l262 -245h-268l-383 245h389zM795 1464q159 0 299 -54t243 -150t162.5 -236.5t59.5 -306.5q0 -220 -102 -392t-275.5 -264t-386.5 -92t-386.5 92t-275.5 264t-102 392q0 166 59.5 306.5t162.5 236.5t243 150t299 54zM795 1075q-156 0 -255.5 -97t-99.5 -261
t100 -261.5t255 -97.5t254.5 97.5t99.5 261.5t-99.5 261t-254.5 97z" />
    <glyph glyph-name="Oacute" unicode="&#xd3;" horiz-adv-x="1589" 
d="M1305 1767l-383 -245h-269l262 245h390zM795 1464q159 0 299 -54t243 -150t162.5 -236.5t59.5 -306.5q0 -220 -102 -392t-275.5 -264t-386.5 -92t-386.5 92t-275.5 264t-102 392q0 166 59.5 306.5t162.5 236.5t243 150t299 54zM795 1075q-156 0 -255.5 -97t-99.5 -261
t100 -261.5t255 -97.5t254.5 97.5t99.5 261.5t-99.5 261t-254.5 97z" />
    <glyph glyph-name="Ocircumflex" unicode="&#xd4;" horiz-adv-x="1589" 
d="M973 1767l246 -245h-308l-118 129l-117 -129h-307l245 245h359zM795 1464q159 0 299 -54t243 -150t162.5 -236.5t59.5 -306.5q0 -220 -102 -392t-275.5 -264t-386.5 -92t-386.5 92t-275.5 264t-102 392q0 166 59.5 306.5t162.5 236.5t243 150t299 54zM795 1075
q-156 0 -255.5 -97t-99.5 -261t100 -261.5t255 -97.5t254.5 97.5t99.5 261.5t-99.5 261t-254.5 97z" />
    <glyph glyph-name="Otilde" unicode="&#xd5;" horiz-adv-x="1589" 
d="M483 1497l-110 39q40 132 96.5 196t157.5 64q66 0 208 -30.5t171 -30.5q24 0 45 11.5t32.5 23t30.5 34.5l111 -37q-40 -133 -96.5 -196.5t-157.5 -63.5q-66 0 -208 31t-171 31q-24 0 -45 -11.5t-33.5 -24t-30.5 -36.5zM795 1464q159 0 299 -54t243 -150t162.5 -236.5
t59.5 -306.5q0 -220 -102 -392t-275.5 -264t-386.5 -92t-386.5 92t-275.5 264t-102 392q0 166 59.5 306.5t162.5 236.5t243 150t299 54zM795 1075q-156 0 -255.5 -97t-99.5 -261t100 -261.5t255 -97.5t254.5 97.5t99.5 261.5t-99.5 261t-254.5 97z" />
    <glyph glyph-name="Odieresis" unicode="&#xd6;" horiz-adv-x="1589" 
d="M723 1767v-245h-309v245h309zM1176 1767v-245h-310v245h310zM795 1464q159 0 299 -54t243 -150t162.5 -236.5t59.5 -306.5q0 -220 -102 -392t-275.5 -264t-386.5 -92t-386.5 92t-275.5 264t-102 392q0 166 59.5 306.5t162.5 236.5t243 150t299 54zM795 1075
q-156 0 -255.5 -97t-99.5 -261t100 -261.5t255 -97.5t254.5 97.5t99.5 261.5t-99.5 261t-254.5 97z" />
    <glyph glyph-name="multiply" unicode="&#xd7;" 
d="M965 1075l114 -114l-350 -351l350 -350l-114 -115l-351 351l-350 -351l-114 115l350 350l-350 351l114 114l350 -350z" />
    <glyph glyph-name="Oslash" unicode="&#xd8;" horiz-adv-x="1589" 
d="M1309 1284q118 -101 184 -246t66 -321q0 -220 -102 -392t-275.5 -264t-386.5 -92q-230 0 -412 109l-82 -107l-100 74l80 105q-118 101 -184 246t-66 321q0 166 59.5 306.5t162.5 236.5t243 150t299 54q230 0 411 -108l82 106l101 -73zM440 717q0 -149 86 -248l437 569
q-73 37 -168 37q-156 0 -255.5 -97t-99.5 -261zM795 358q155 0 254.5 97.5t99.5 261.5q0 149 -86 248l-436 -570q73 -37 168 -37z" />
    <glyph glyph-name="Ugrave" unicode="&#xd9;" horiz-adv-x="1466" 
d="M612 1767l262 -245h-268l-383 245h389zM1364 596q0 -144 -37 -256.5t-113 -195t-197.5 -126t-283.5 -43.5t-283.5 43.5t-197.5 126t-113 195t-37 256.5v838h416v-828q0 -109 50.5 -175t164.5 -66t164.5 66t50.5 175v828h416v-838z" />
    <glyph glyph-name="Uacute" unicode="&#xda;" horiz-adv-x="1466" 
d="M1243 1767l-383 -245h-268l262 245h389zM1364 596q0 -144 -37 -256.5t-113 -195t-197.5 -126t-283.5 -43.5t-283.5 43.5t-197.5 126t-113 195t-37 256.5v838h416v-828q0 -109 50.5 -175t164.5 -66t164.5 66t50.5 175v828h416v-838z" />
    <glyph glyph-name="Ucircumflex" unicode="&#xdb;" horiz-adv-x="1466" 
d="M911 1767l246 -245h-307l-119 129l-117 -129h-307l246 245h358zM1364 596q0 -144 -37 -256.5t-113 -195t-197.5 -126t-283.5 -43.5t-283.5 43.5t-197.5 126t-113 195t-37 256.5v838h416v-828q0 -109 50.5 -175t164.5 -66t164.5 66t50.5 175v828h416v-838z" />
    <glyph glyph-name="Udieresis" unicode="&#xdc;" horiz-adv-x="1466" 
d="M662 1767v-245h-310v245h310zM1114 1767v-245h-309v245h309zM1364 596q0 -144 -37 -256.5t-113 -195t-197.5 -126t-283.5 -43.5t-283.5 43.5t-197.5 126t-113 195t-37 256.5v838h416v-828q0 -109 50.5 -175t164.5 -66t164.5 66t50.5 175v828h416v-838z" />
    <glyph glyph-name="Yacute" unicode="&#xdd;" horiz-adv-x="1501" 
d="M1262 1767l-383 -245h-269l262 245h390zM1501 1434l-555 -951v-483h-391v479l-555 955h465l283 -576h6l282 576h465z" />
    <glyph glyph-name="Thorn" unicode="&#xde;" horiz-adv-x="1298" 
d="M502 1434v-191h176q152 0 267 -39t184.5 -109t104 -161t34.5 -201q0 -113 -34.5 -206t-104 -164t-184.5 -110.5t-267 -39.5h-176v-213h-389v1434h389zM678 907h-176v-358h176q96 0 151.5 46t55.5 138q0 86 -55.5 130t-151.5 44z" />
    <glyph glyph-name="germandbls" unicode="&#xdf;" horiz-adv-x="1282" 
d="M901 780q168 -12 259 -99t91 -251q0 -216 -160 -328t-444 -112h-80v338h62q133 0 192.5 34.5t59.5 104.5q0 81 -70.5 113t-226.5 32v271q196 0 196 147q0 65 -40.5 100t-110.5 35q-79 0 -122.5 -44.5t-43.5 -129.5v-1257h-381v1261q0 216 136.5 342.5t410.5 126.5
q247 0 373 -101t126 -265q0 -110 -57.5 -192.5t-169.5 -121.5v-4z" />
    <glyph glyph-name="agrave" unicode="&#xe0;" horiz-adv-x="1236" 
d="M516 1448l264 -315h-297l-385 315h418zM479 -31q-92 0 -171.5 31t-142 91.5t-98.5 158.5t-36 223t36 223t98.5 158.5t142 91.5t171.5 31q207 0 303 -152h4v121h379v-946h-379v121h-4q-96 -152 -303 -152zM594 299q76 0 125 47t49 127t-49 127t-125 47t-125 -47t-49 -127
t49 -127t125 -47z" />
    <glyph glyph-name="aacute" unicode="&#xe1;" horiz-adv-x="1236" 
d="M698 1448h418l-385 -315h-297zM479 -31q-92 0 -171.5 31t-142 91.5t-98.5 158.5t-36 223t36 223t98.5 158.5t142 91.5t171.5 31q207 0 303 -152h4v121h379v-946h-379v121h-4q-96 -152 -303 -152zM594 299q76 0 125 47t49 127t-49 127t-125 47t-125 -47t-49 -127t49 -127
t125 -47z" />
    <glyph glyph-name="acircumflex" unicode="&#xe2;" horiz-adv-x="1236" 
d="M784 1448l248 -315h-301l-127 153l-123 -153h-301l248 315h356zM479 -31q-92 0 -171.5 31t-142 91.5t-98.5 158.5t-36 223t36 223t98.5 158.5t142 91.5t171.5 31q207 0 303 -152h4v121h379v-946h-379v121h-4q-96 -152 -303 -152zM594 299q76 0 125 47t49 127t-49 127
t-125 47t-125 -47t-49 -127t49 -127t125 -47z" />
    <glyph glyph-name="atilde" unicode="&#xe3;" horiz-adv-x="1236" 
d="M426 1452q69 0 198 -43t160 -43q65 0 113 94l135 -49q-41 -149 -98 -225t-158 -76q-68 0 -197.5 43t-160.5 43q-63 0 -111 -94l-137 49q41 149 98.5 225t157.5 76zM479 -31q-92 0 -171.5 31t-142 91.5t-98.5 158.5t-36 223t36 223t98.5 158.5t142 91.5t171.5 31
q207 0 303 -152h4v121h379v-946h-379v121h-4q-96 -152 -303 -152zM594 299q76 0 125 47t49 127t-49 127t-125 47t-125 -47t-49 -127t49 -127t125 -47z" />
    <glyph glyph-name="adieresis" unicode="&#xe4;" horiz-adv-x="1236" 
d="M557 1413v-297h-285v297h285zM942 1413v-297h-285v297h285zM479 -31q-92 0 -171.5 31t-142 91.5t-98.5 158.5t-36 223t36 223t98.5 158.5t142 91.5t171.5 31q207 0 303 -152h4v121h379v-946h-379v121h-4q-96 -152 -303 -152zM594 299q76 0 125 47t49 127t-49 127t-125 47
t-125 -47t-49 -127t49 -127t125 -47z" />
    <glyph glyph-name="aring" unicode="&#xe5;" horiz-adv-x="1236" 
d="M604 1530q104 0 172 -68t68 -172t-68 -171.5t-172 -67.5t-171.5 67.5t-67.5 171.5t67.5 172t171.5 68zM604 1386q-40 0 -66 -28.5t-26 -67.5t26 -66.5t66 -27.5q39 0 64.5 27.5t25.5 66.5t-25.5 67.5t-64.5 28.5zM479 -31q-92 0 -171.5 31t-142 91.5t-98.5 158.5t-36 223
t36 223t98.5 158.5t142 91.5t171.5 31q207 0 303 -152h4v121h379v-946h-379v121h-4q-96 -152 -303 -152zM594 299q76 0 125 47t49 127t-49 127t-125 47t-125 -47t-49 -127t49 -127t125 -47z" />
    <glyph glyph-name="ae" unicode="&#xe6;" horiz-adv-x="1703" 
d="M1208 975q212 0 338.5 -135.5t126.5 -403.5v-51h-653q24 -67 81.5 -96t155.5 -29q110 0 240 53l100 -274q-168 -70 -358 -70q-311 0 -420 178h-4q-131 -178 -407 -178q-189 0 -293.5 90.5t-104.5 247.5t96.5 245.5t262.5 88.5q101 0 180.5 -33t120.5 -86h4v29
q0 80 -49 122t-162 42q-89 0 -262 -25l-41 256q190 31 336 31q140 0 225 -36.5t125 -121.5h4q49 72 139 114t219 42zM1167 731q-61 0 -105 -39t-48 -112h301q0 77 -42 114t-106 37zM555 424q-55 0 -88 -26.5t-33 -73.5q0 -48 33 -72.5t88 -24.5q56 0 89.5 28.5t33.5 68.5
q0 44 -33 72t-90 28z" />
    <glyph glyph-name="ccedilla" unicode="&#xe7;" horiz-adv-x="931" 
d="M922 59q-141 -80 -312 -90l-20 -45q94 -12 142 -48t48 -91q0 -26 -10 -47.5t-33.5 -40t-49 -32.5t-68 -29.5t-78.5 -26.5t-93 -28l-51 -15l-39 88q95 40 127.5 59.5t32.5 38.5q0 17 -12.5 27t-28 14t-53.5 12l68 168q-207 22 -334 155t-127 345q0 232 150.5 368
t389.5 136q194 0 351 -90l-146 -297q-77 49 -170 49q-83 0 -134.5 -46t-51.5 -120t51.5 -120t134.5 -46q93 0 170 49z" />
    <glyph glyph-name="egrave" unicode="&#xe8;" horiz-adv-x="1052" 
d="M457 1448l264 -315h-297l-385 315h418zM545 975q227 0 357 -132t130 -392v-66h-651q23 -67 80 -96t155 -29q110 0 240 53l100 -276q-169 -68 -352 -68q-272 0 -422.5 130.5t-150.5 371.5q0 244 141.5 374t372.5 130zM526 731q-62 0 -105.5 -39t-47.5 -112h301
q0 74 -42.5 112.5t-105.5 38.5z" />
    <glyph glyph-name="eacute" unicode="&#xe9;" horiz-adv-x="1052" 
d="M639 1448h418l-385 -315h-297zM545 975q227 0 357 -132t130 -392v-66h-651q23 -67 80 -96t155 -29q110 0 240 53l100 -276q-169 -68 -352 -68q-272 0 -422.5 130.5t-150.5 371.5q0 244 141.5 374t372.5 130zM526 731q-62 0 -105.5 -39t-47.5 -112h301q0 74 -42.5 112.5
t-105.5 38.5z" />
    <glyph glyph-name="ecircumflex" unicode="&#xea;" horiz-adv-x="1052" 
d="M725 1448l248 -315h-301l-127 153l-123 -153h-301l248 315h356zM545 975q227 0 357 -132t130 -392v-66h-651q23 -67 80 -96t155 -29q110 0 240 53l100 -276q-169 -68 -352 -68q-272 0 -422.5 130.5t-150.5 371.5q0 244 141.5 374t372.5 130zM526 731q-62 0 -105.5 -39
t-47.5 -112h301q0 74 -42.5 112.5t-105.5 38.5z" />
    <glyph glyph-name="edieresis" unicode="&#xeb;" horiz-adv-x="1052" 
d="M498 1413v-297h-285v297h285zM883 1413v-297h-285v297h285zM545 975q227 0 357 -132t130 -392v-66h-651q23 -67 80 -96t155 -29q110 0 240 53l100 -276q-169 -68 -352 -68q-272 0 -422.5 130.5t-150.5 371.5q0 244 141.5 374t372.5 130zM526 731q-62 0 -105.5 -39
t-47.5 -112h301q0 74 -42.5 112.5t-105.5 38.5z" />
    <glyph glyph-name="igrave" unicode="&#xec;" horiz-adv-x="542" 
d="M258 1448l162 -315h-297l-201 315h336zM461 946v-946h-379v946h379z" />
    <glyph glyph-name="iacute" unicode="&#xed;" horiz-adv-x="542" 
d="M123 1133l162 315h336l-201 -315h-297zM461 946v-946h-379v946h379z" />
    <glyph glyph-name="icircumflex" unicode="&#xee;" horiz-adv-x="542" 
d="M449 1448l186 -315h-281l-86 184l-82 -184h-280l186 315h357zM461 946v-946h-379v946h379z" />
    <glyph glyph-name="idieresis" unicode="&#xef;" horiz-adv-x="542" 
d="M231 1413v-297h-243v297h243zM555 1413v-297h-244v297h244zM461 946v-946h-379v946h379z" />
    <glyph glyph-name="eth" unicode="&#xf0;" horiz-adv-x="1153" 
d="M803 1360q299 -232 299 -705q0 -149 -30.5 -267.5t-82.5 -195.5t-124.5 -128.5t-151.5 -73t-168 -21.5q-237 0 -375.5 143.5t-138.5 370.5q0 224 132.5 359t332.5 135q198 0 282 -135h4q-45 216 -202 319l-160 -141l-131 139l94 84q-89 20 -172 31l57 282
q198 -18 365 -92l158 140l127 -142zM553 301q77 0 128.5 48t51.5 128t-51 128t-131 48q-81 0 -129.5 -49t-48.5 -127q0 -80 51 -128t129 -48z" />
    <glyph glyph-name="ntilde" unicode="&#xf1;" horiz-adv-x="1185" 
d="M442 1452q69 0 198.5 -43t160.5 -43q64 0 112 94l136 -49q-41 -149 -98 -225t-158 -76q-68 0 -198 43t-161 43q-62 0 -110 -94l-138 49q41 149 98.5 225t157.5 76zM768 977q159 0 252.5 -97t93.5 -286v-594h-379v489q0 84 -32.5 125t-100.5 41q-151 0 -151 -196v-459
h-379v946h366v-141h4q125 172 326 172z" />
    <glyph glyph-name="ograve" unicode="&#xf2;" horiz-adv-x="1146" 
d="M481 1448l264 -315h-296l-386 315h418zM573 -31q-241 0 -391.5 138t-150.5 366t150.5 366t391.5 138t392 -138t151 -366t-151 -366t-392 -138zM573 299q80 0 132.5 47t52.5 127t-52.5 127t-132.5 47t-132 -47t-52 -127t52 -127t132 -47z" />
    <glyph glyph-name="oacute" unicode="&#xf3;" horiz-adv-x="1146" 
d="M664 1448h417l-385 -315h-297zM573 -31q-241 0 -391.5 138t-150.5 366t150.5 366t391.5 138t392 -138t151 -366t-151 -366t-392 -138zM573 299q80 0 132.5 47t52.5 127t-52.5 127t-132.5 47t-132 -47t-52 -127t52 -127t132 -47z" />
    <glyph glyph-name="ocircumflex" unicode="&#xf4;" horiz-adv-x="1146" 
d="M750 1448l247 -315h-301l-127 153l-123 -153h-301l248 315h357zM573 -31q-241 0 -391.5 138t-150.5 366t150.5 366t391.5 138t392 -138t151 -366t-151 -366t-392 -138zM573 299q80 0 132.5 47t52.5 127t-52.5 127t-132.5 47t-132 -47t-52 -127t52 -127t132 -47z" />
    <glyph glyph-name="otilde" unicode="&#xf5;" horiz-adv-x="1146" 
d="M391 1452q69 0 198.5 -43t160.5 -43q64 0 112 94l135 -49q-41 -149 -98 -225t-158 -76q-68 0 -197.5 43t-160.5 43q-63 0 -111 -94l-137 49q41 149 98.5 225t157.5 76zM573 -31q-241 0 -391.5 138t-150.5 366t150.5 366t391.5 138t392 -138t151 -366t-151 -366t-392 -138
zM573 299q80 0 132.5 47t52.5 127t-52.5 127t-132.5 47t-132 -47t-52 -127t52 -127t132 -47z" />
    <glyph glyph-name="odieresis" unicode="&#xf6;" horiz-adv-x="1146" 
d="M522 1413v-297h-284v297h284zM907 1413v-297h-284v297h284zM573 -31q-241 0 -391.5 138t-150.5 366t150.5 366t391.5 138t392 -138t151 -366t-151 -366t-392 -138zM573 299q80 0 132.5 47t52.5 127t-52.5 127t-132.5 47t-132 -47t-52 -127t52 -127t132 -47z" />
    <glyph glyph-name="divide" unicode="&#xf7;" 
d="M725 1075v-221h-221v221h221zM1145 690v-153h-1061v153h1061zM725 371v-221h-221v221h221z" />
    <glyph glyph-name="oslash" unicode="&#xf8;" horiz-adv-x="1146" 
d="M954 850q162 -140 162 -377q0 -228 -151 -366t-392 -138q-187 0 -321 84l-72 -82l-55 47l68 78q-162 140 -162 377q0 228 150.5 366t391.5 138q188 0 322 -84l74 84l55 -49zM389 473q0 -66 37 -113l236 269q-38 18 -89 18q-80 0 -132 -47t-52 -127zM573 299
q80 0 132.5 47t52.5 127q0 64 -37 111l-236 -267q41 -18 88 -18z" />
    <glyph glyph-name="ugrave" unicode="&#xf9;" horiz-adv-x="1200" 
d="M508 1448l264 -315h-297l-385 315h418zM442 -31q-160 0 -260 95.5t-100 273.5v608h389v-495q0 -81 34.5 -119.5t92.5 -38.5q141 0 141 207v446h379v-946h-366v145h-4q-63 -90 -136.5 -133t-169.5 -43z" />
    <glyph glyph-name="uacute" unicode="&#xfa;" horiz-adv-x="1200" 
d="M690 1448h418l-385 -315h-297zM442 -31q-160 0 -260 95.5t-100 273.5v608h389v-495q0 -81 34.5 -119.5t92.5 -38.5q141 0 141 207v446h379v-946h-366v145h-4q-63 -90 -136.5 -133t-169.5 -43z" />
    <glyph glyph-name="ucircumflex" unicode="&#xfb;" horiz-adv-x="1200" 
d="M776 1448l248 -315h-301l-127 153l-123 -153h-301l248 315h356zM442 -31q-160 0 -260 95.5t-100 273.5v608h389v-495q0 -81 34.5 -119.5t92.5 -38.5q141 0 141 207v446h379v-946h-366v145h-4q-63 -90 -136.5 -133t-169.5 -43z" />
    <glyph glyph-name="udieresis" unicode="&#xfc;" horiz-adv-x="1200" 
d="M549 1413v-297h-285v297h285zM934 1413v-297h-285v297h285zM442 -31q-160 0 -260 95.5t-100 273.5v608h389v-495q0 -81 34.5 -119.5t92.5 -38.5q141 0 141 207v446h379v-946h-366v145h-4q-63 -90 -136.5 -133t-169.5 -43z" />
    <glyph glyph-name="yacute" unicode="&#xfd;" horiz-adv-x="1214" 
d="M1137 1448l-385 -315h-297l264 315h418zM844 946h370l-651 -1356h-379l248 510l-432 846h422l199 -459z" />
    <glyph glyph-name="thorn" unicode="&#xfe;" horiz-adv-x="1247" 
d="M82 -410v1844h379v-609h4q96 152 303 152q92 0 172 -31t142.5 -91.5t98.5 -158.5t36 -223t-36 -223t-98.5 -158.5t-142.5 -91.5t-172 -31q-207 0 -303 152h-4v-531h-379zM653 299q76 0 125 47t49 127t-49 127t-125 47t-125 -47t-49 -127t49 -127t125 -47z" />
    <glyph glyph-name="ydieresis" unicode="&#xff;" horiz-adv-x="1214" 
d="M578 1413v-297h-285v297h285zM963 1413v-297h-285v297h285zM844 946h370l-651 -1356h-379l248 510l-432 846h422l199 -459z" />
    <glyph glyph-name="Amacron" unicode="&#x100;" horiz-adv-x="1525" 
d="M1116 1743v-223h-706v223h706zM1096 0l-88 268h-490l-88 -268h-430l555 1434h416l555 -1434h-430zM616 575h293l-145 449z" />
    <glyph glyph-name="amacron" unicode="&#x101;" horiz-adv-x="1236" 
d="M948 1393v-238h-680v238h680zM479 -31q-92 0 -171.5 31t-142 91.5t-98.5 158.5t-36 223t36 223t98.5 158.5t142 91.5t171.5 31q207 0 303 -152h4v121h379v-946h-379v121h-4q-96 -152 -303 -152zM594 299q76 0 125 47t49 127t-49 127t-125 47t-125 -47t-49 -127t49 -127
t125 -47z" />
    <glyph glyph-name="Abreve" unicode="&#x102;" horiz-adv-x="1525" 
d="M764 1493q-161 0 -260.5 73.5t-114.5 202.5h250q3 -36 36 -57.5t89 -21.5t88 21.5t37 57.5h248q-15 -129 -113.5 -202.5t-259.5 -73.5zM1096 0l-88 268h-490l-88 -268h-430l555 1434h416l555 -1434h-430zM616 575h293l-145 449z" />
    <glyph glyph-name="abreve" unicode="&#x103;" horiz-adv-x="1236" 
d="M981 1434q0 -156 -107 -258.5t-266 -102.5t-267 102.5t-108 258.5h232q10 -142 143 -142q134 0 144 142h229zM479 -31q-92 0 -171.5 31t-142 91.5t-98.5 158.5t-36 223t36 223t98.5 158.5t142 91.5t171.5 31q207 0 303 -152h4v121h379v-946h-379v121h-4
q-96 -152 -303 -152zM594 299q76 0 125 47t49 127t-49 127t-125 47t-125 -47t-49 -127t49 -127t125 -47z" />
    <glyph glyph-name="Aogonek" unicode="&#x104;" horiz-adv-x="1525" 
d="M1227 -231q28 0 76 10l28 -234q-27 -2 -59.5 -6t-53 -6t-34.5 -2q-260 0 -260 190q0 124 176 279h-4l-88 268h-490l-88 -268h-430l555 1434h416l555 -1434h-189q-83 -73 -122 -117t-39 -73q0 -18 15 -29.5t36 -11.5zM616 575h293l-145 449z" />
    <glyph glyph-name="aogonek" unicode="&#x105;" horiz-adv-x="1236" 
d="M1022 0q-84 -74 -123 -117.5t-39 -72.5q0 -18 15 -29.5t36 -11.5q28 0 76 10l29 -234q-27 -2 -59.5 -6t-53.5 -6t-35 -2q-260 0 -260 190q0 124 178 281v119h-4q-96 -152 -303 -152q-92 0 -171.5 31t-142 91.5t-98.5 158.5t-36 223t36 223t98.5 158.5t142 91.5t171.5 31
q207 0 303 -152h4v121h379v-946h-143zM594 299q76 0 125 47t49 127t-49 127t-125 47t-125 -47t-49 -127t49 -127t125 -47z" />
    <glyph glyph-name="Cacute" unicode="&#x106;" horiz-adv-x="1359" 
d="M1296 1767l-383 -245h-268l262 245h389zM819 -31q-167 0 -310.5 50.5t-250 144.5t-167 236.5t-60.5 316.5q0 231 105 402.5t282 258t401 86.5q304 0 531 -157l-205 -334q-79 55 -152 81.5t-162 26.5q-167 0 -279 -96.5t-112 -267.5t112.5 -268t278.5 -97q89 0 162 27
t152 82l205 -334q-228 -158 -531 -158z" />
    <glyph glyph-name="cacute" unicode="&#x107;" horiz-adv-x="931" 
d="M635 1448h418l-385 -315h-297zM571 -31q-239 0 -389.5 136t-150.5 368t150.5 368t389.5 136q194 0 351 -90l-146 -297q-77 49 -170 49q-83 0 -134.5 -46t-51.5 -120t51.5 -120t134.5 -46q93 0 170 49l146 -297q-157 -90 -351 -90z" />
    <glyph glyph-name="Ccircumflex" unicode="&#x108;" horiz-adv-x="1359" 
d="M965 1767l245 -245h-307l-119 129l-116 -129h-308l246 245h359zM819 -31q-167 0 -310.5 50.5t-250 144.5t-167 236.5t-60.5 316.5q0 231 105 402.5t282 258t401 86.5q304 0 531 -157l-205 -334q-79 55 -152 81.5t-162 26.5q-167 0 -279 -96.5t-112 -267.5t112.5 -268
t278.5 -97q89 0 162 27t152 82l205 -334q-228 -158 -531 -158z" />
    <glyph glyph-name="ccircumflex" unicode="&#x109;" horiz-adv-x="931" 
d="M721 1448l248 -315h-301l-127 153l-123 -153h-301l248 315h356zM571 -31q-239 0 -389.5 136t-150.5 368t150.5 368t389.5 136q194 0 351 -90l-146 -297q-77 49 -170 49q-83 0 -134.5 -46t-51.5 -120t51.5 -120t134.5 -46q93 0 170 49l146 -297q-157 -90 -351 -90z" />
    <glyph glyph-name="Cdotaccent" unicode="&#x10a;" horiz-adv-x="1359" 
d="M956 1815v-293h-340v293h340zM819 -31q-167 0 -310.5 50.5t-250 144.5t-167 236.5t-60.5 316.5q0 231 105 402.5t282 258t401 86.5q304 0 531 -157l-205 -334q-79 55 -152 81.5t-162 26.5q-167 0 -279 -96.5t-112 -267.5t112.5 -268t278.5 -97q89 0 162 27t152 82
l205 -334q-228 -158 -531 -158z" />
    <glyph glyph-name="cdotaccent" unicode="&#x10b;" horiz-adv-x="931" 
d="M737 1434v-355h-387v355h387zM571 -31q-239 0 -389.5 136t-150.5 368t150.5 368t389.5 136q194 0 351 -90l-146 -297q-77 49 -170 49q-83 0 -134.5 -46t-51.5 -120t51.5 -120t134.5 -46q93 0 170 49l146 -297q-157 -90 -351 -90z" />
    <glyph glyph-name="Ccaron" unicode="&#x10c;" horiz-adv-x="1359" 
d="M965 1522h-359l-246 245h308l116 -127l119 127h307zM819 -31q-167 0 -310.5 50.5t-250 144.5t-167 236.5t-60.5 316.5q0 231 105 402.5t282 258t401 86.5q304 0 531 -157l-205 -334q-79 55 -152 81.5t-162 26.5q-167 0 -279 -96.5t-112 -267.5t112.5 -268t278.5 -97
q89 0 162 27t152 82l205 -334q-228 -158 -531 -158z" />
    <glyph glyph-name="ccaron" unicode="&#x10d;" horiz-adv-x="931" 
d="M969 1434l-248 -316h-356l-248 316h301l123 -152l127 152h301zM571 -31q-239 0 -389.5 136t-150.5 368t150.5 368t389.5 136q194 0 351 -90l-146 -297q-77 49 -170 49q-83 0 -134.5 -46t-51.5 -120t51.5 -120t134.5 -46q93 0 170 49l146 -297q-157 -90 -351 -90z" />
    <glyph glyph-name="Dcaron" unicode="&#x10e;" horiz-adv-x="1413" 
d="M764 1522h-358l-246 245h307l117 -127l118 127h308zM602 1434q364 0 572 -191.5t208 -525.5t-209 -525.5t-571 -191.5h-489v1434h489zM604 1085h-102v-737h102q170 0 269.5 94.5t99.5 274.5t-99 274t-270 94z" />
    <glyph glyph-name="dcaron" unicode="&#x10f;" horiz-adv-x="1615" 
d="M1253 1464h332v-329l-174 -127h-137l92 127h-113v329zM786 825v609h379v-1434h-379v121h-4q-96 -152 -303 -152q-92 0 -171.5 31t-142 91.5t-98.5 158.5t-36 223t36 223t98.5 158.5t142 91.5t171.5 31q207 0 303 -152h4zM602 299q81 0 132.5 46t51.5 128t-51.5 128
t-132.5 46t-132.5 -46t-51.5 -128t51.5 -128t132.5 -46z" />
    <glyph glyph-name="Dcroat" unicode="&#x110;" horiz-adv-x="1413" 
d="M602 1434q364 0 572 -191.5t208 -525.5t-209 -525.5t-571 -191.5h-489v569h-144v318h144v547h489zM604 348q170 0 269.5 94.5t99.5 274.5t-99 274t-270 94h-102v-198h239v-318h-239v-221h102z" />
    <glyph glyph-name="dcroat" unicode="&#x111;" horiz-adv-x="1329" 
d="M1329 1309v-205h-164v-1104h-379v121h-4q-96 -152 -303 -152q-92 0 -171.5 31t-142 91.5t-98.5 158.5t-36 223t36 223t98.5 158.5t142 91.5t171.5 31q207 0 303 -152h4v279h-264v205h264v125h379v-125h164zM602 299q81 0 132.5 46t51.5 128t-51.5 128t-132.5 46
t-132.5 -46t-51.5 -128t51.5 -128t132.5 -46z" />
    <glyph glyph-name="Emacron" unicode="&#x112;" horiz-adv-x="1118" 
d="M936 1743v-223h-707v223h707zM502 356h555v-356h-944v1434h913v-357h-524v-170h461v-338h-461v-213z" />
    <glyph glyph-name="emacron" unicode="&#x113;" horiz-adv-x="1052" 
d="M889 1393v-238h-680v238h680zM545 975q227 0 357 -132t130 -392v-66h-651q23 -67 80 -96t155 -29q110 0 240 53l100 -276q-169 -68 -352 -68q-272 0 -422.5 130.5t-150.5 371.5q0 244 141.5 374t372.5 130zM526 731q-62 0 -105.5 -39t-47.5 -112h301q0 74 -42.5 112.5
t-105.5 38.5z" />
    <glyph glyph-name="Ebreve" unicode="&#x114;" horiz-adv-x="1118" 
d="M584 1493q-161 0 -260.5 73.5t-114.5 202.5h250q3 -36 36 -57.5t89 -21.5t88 21.5t37 57.5h247q-15 -129 -113 -202.5t-259 -73.5zM502 356h555v-356h-944v1434h913v-357h-524v-170h461v-338h-461v-213z" />
    <glyph glyph-name="ebreve" unicode="&#x115;" horiz-adv-x="1052" 
d="M922 1434q0 -156 -107 -258.5t-266 -102.5t-267 102.5t-108 258.5h232q10 -142 143 -142t143 142h230zM545 975q227 0 357 -132t130 -392v-66h-651q23 -67 80 -96t155 -29q110 0 240 53l100 -276q-169 -68 -352 -68q-272 0 -422.5 130.5t-150.5 371.5q0 244 141.5 374
t372.5 130zM526 731q-62 0 -105.5 -39t-47.5 -112h301q0 74 -42.5 112.5t-105.5 38.5z" />
    <glyph glyph-name="Edotaccent" unicode="&#x116;" horiz-adv-x="1118" 
d="M754 1815v-293h-340v293h340zM502 356h555v-356h-944v1434h913v-357h-524v-170h461v-338h-461v-213z" />
    <glyph glyph-name="edotaccent" unicode="&#x117;" horiz-adv-x="1052" 
d="M741 1434v-355h-387v355h387zM545 975q227 0 357 -132t130 -392v-66h-651q23 -67 80 -96t155 -29q110 0 240 53l100 -276q-169 -68 -352 -68q-272 0 -422.5 130.5t-150.5 371.5q0 244 141.5 374t372.5 130zM526 731q-62 0 -105.5 -39t-47.5 -112h301q0 74 -42.5 112.5
t-105.5 38.5z" />
    <glyph glyph-name="Eogonek" unicode="&#x118;" horiz-adv-x="1118" 
d="M1028 0q-84 -74 -123 -117.5t-39 -72.5q0 -18 15.5 -29.5t36.5 -11.5q27 0 75 10l29 -234q-27 -2 -59.5 -6t-53.5 -6t-35 -2q-260 0 -260 190q0 123 177 279h-678v1434h913v-357h-524v-170h461v-338h-461v-213h555v-356h-29z" />
    <glyph glyph-name="eogonek" unicode="&#x119;" horiz-adv-x="1052" 
d="M1032 451v-66h-651q23 -67 80 -96t155 -29q110 0 240 53l100 -276l-49 -19q-93 -80 -137.5 -129t-44.5 -79q0 -18 15 -29.5t36 -11.5q28 0 76 10l29 -234q-27 -2 -59.5 -6t-53.5 -6t-35 -2q-260 0 -260 190q0 110 141 248h-10q-272 0 -422.5 130.5t-150.5 371.5
q0 244 141.5 374t372.5 130q227 0 357 -132t130 -392zM373 580h301q0 74 -42.5 112.5t-105.5 38.5q-62 0 -105.5 -39t-47.5 -112z" />
    <glyph glyph-name="Ecaron" unicode="&#x11a;" horiz-adv-x="1118" 
d="M762 1522h-359l-245 245h307l117 -127l118 127h308zM502 356h555v-356h-944v1434h913v-357h-524v-170h461v-338h-461v-213z" />
    <glyph glyph-name="ecaron" unicode="&#x11b;" horiz-adv-x="1052" 
d="M973 1434l-248 -316h-356l-248 316h301l123 -152l127 152h301zM545 975q227 0 357 -132t130 -392v-66h-651q23 -67 80 -96t155 -29q110 0 240 53l100 -276q-169 -68 -352 -68q-272 0 -422.5 130.5t-150.5 371.5q0 244 141.5 374t372.5 130zM526 731q-62 0 -105.5 -39
t-47.5 -112h301q0 74 -42.5 112.5t-105.5 38.5z" />
    <glyph glyph-name="Gcircumflex" unicode="&#x11c;" horiz-adv-x="1538" 
d="M788 1651l-116 -129h-307l245 245h359l245 -245h-307zM1501 850q6 -83 6 -156q0 -158 -45.5 -290.5t-131.5 -229.5t-219.5 -151t-301.5 -54q-231 0 -408 94.5t-273.5 265t-96.5 390.5q0 160 53.5 296t153 236t251.5 156.5t340 56.5q320 0 574 -184l-238 -319
q-154 131 -348 131q-175 0 -276 -103.5t-101 -271.5q0 -165 100 -270t287 -105q131 0 203.5 50.5t85.5 129.5h-354v328h739z" />
    <glyph glyph-name="gcircumflex" unicode="&#x11d;" horiz-adv-x="1236" 
d="M770 1448l248 -315h-301l-127 153l-123 -153h-301l248 315h356zM608 -440q-193 0 -428 49l64 332q182 -47 309 -47q116 0 174.5 42.5t58.5 153.5v37h-4q-110 -127 -297 -127q-95 0 -175.5 28.5t-143.5 85t-99 150.5t-36 215q0 122 36 219t98.5 157t142 91t171.5 31
q207 0 303 -152h4v121h379v-915q0 -216 -137 -343.5t-420 -127.5zM594 299q76 0 125 47t49 127t-49 127t-125 47t-125 -47t-49 -127t49 -127t125 -47z" />
    <glyph glyph-name="Gbreve" unicode="&#x11e;" horiz-adv-x="1538" 
d="M791 1493q-161 0 -260.5 73.5t-114.5 202.5h250q3 -36 36 -57.5t89 -21.5t87.5 21.5t36.5 57.5h248q-15 -129 -113 -202.5t-259 -73.5zM1501 850q6 -83 6 -156q0 -158 -45.5 -290.5t-131.5 -229.5t-219.5 -151t-301.5 -54q-231 0 -408 94.5t-273.5 265t-96.5 390.5
q0 160 53.5 296t153 236t251.5 156.5t340 56.5q320 0 574 -184l-238 -319q-154 131 -348 131q-175 0 -276 -103.5t-101 -271.5q0 -165 100 -270t287 -105q131 0 203.5 50.5t85.5 129.5h-354v328h739z" />
    <glyph glyph-name="gbreve" unicode="&#x11f;" horiz-adv-x="1236" 
d="M967 1434q0 -156 -107 -258.5t-266 -102.5t-267 102.5t-108 258.5h232q10 -142 143 -142t143 142h230zM608 -440q-193 0 -428 49l64 332q182 -47 309 -47q116 0 174.5 42.5t58.5 153.5v37h-4q-110 -127 -297 -127q-95 0 -175.5 28.5t-143.5 85t-99 150.5t-36 215
q0 122 36 219t98.5 157t142 91t171.5 31q207 0 303 -152h4v121h379v-915q0 -216 -137 -343.5t-420 -127.5zM594 299q76 0 125 47t49 127t-49 127t-125 47t-125 -47t-49 -127t49 -127t125 -47z" />
    <glyph glyph-name="Gdotaccent" unicode="&#x120;" horiz-adv-x="1538" 
d="M961 1815v-293h-340v293h340zM1501 850q6 -83 6 -156q0 -158 -45.5 -290.5t-131.5 -229.5t-219.5 -151t-301.5 -54q-231 0 -408 94.5t-273.5 265t-96.5 390.5q0 160 53.5 296t153 236t251.5 156.5t340 56.5q320 0 574 -184l-238 -319q-154 131 -348 131
q-175 0 -276 -103.5t-101 -271.5q0 -165 100 -270t287 -105q131 0 203.5 50.5t85.5 129.5h-354v328h739z" />
    <glyph glyph-name="gdotaccent" unicode="&#x121;" horiz-adv-x="1236" 
d="M786 1434v-355h-387v355h387zM608 -440q-193 0 -428 49l64 332q182 -47 309 -47q116 0 174.5 42.5t58.5 153.5v37h-4q-110 -127 -297 -127q-95 0 -175.5 28.5t-143.5 85t-99 150.5t-36 215q0 122 36 219t98.5 157t142 91t171.5 31q207 0 303 -152h4v121h379v-915
q0 -216 -137 -343.5t-420 -127.5zM594 299q76 0 125 47t49 127t-49 127t-125 47t-125 -47t-49 -127t49 -127t125 -47z" />
    <glyph glyph-name="Gcommaaccent" unicode="&#x122;" horiz-adv-x="1538" 
d="M1501 850q6 -83 6 -156q0 -158 -45.5 -290.5t-131.5 -229.5t-219.5 -151t-301.5 -54q-231 0 -408 94.5t-273.5 265t-96.5 390.5q0 160 53.5 296t153 236t251.5 156.5t340 56.5q320 0 574 -184l-238 -319q-154 131 -348 131q-175 0 -276 -103.5t-101 -271.5
q0 -165 100 -270t287 -105q131 0 203.5 50.5t85.5 129.5h-354v328h739zM659 -307v211h328v-211l-133 -123h-129l57 123h-123z" />
    <glyph glyph-name="gcommaaccent" unicode="&#x123;" horiz-adv-x="1236" 
d="M758 1317v-211h-328v211l133 123h129l-57 -123h123zM786 946h379v-915q0 -216 -137 -343.5t-420 -127.5q-193 0 -428 49l64 332q182 -47 309 -47q116 0 174.5 42.5t58.5 153.5v37h-4q-110 -127 -297 -127q-95 0 -175.5 28.5t-143.5 85t-99 150.5t-36 215q0 122 36 219
t98.5 157t142 91t171.5 31q207 0 303 -152h4v121zM594 299q76 0 125 47t49 127t-49 127t-125 47t-125 -47t-49 -127t49 -127t125 -47z" />
    <glyph glyph-name="Hcircumflex" unicode="&#x124;" horiz-adv-x="1492" 
d="M745 1651l-116 -129h-307l245 245h359l245 -245h-307zM991 1434h389v-1434h-389v557h-489v-557h-389v1434h389v-521h489v521z" />
    <glyph glyph-name="hcircumflex" unicode="&#x125;" horiz-adv-x="1196" 
d="M451 1767l245 -245h-307l-119 129l-116 -129h-308l246 245h359zM461 1434v-615h4q116 158 311 158q161 0 254.5 -97t93.5 -286v-594h-379v489q0 84 -32.5 125t-100.5 41q-69 0 -110 -48.5t-41 -147.5v-459h-379v1434h379z" />
    <glyph glyph-name="Hbar" unicode="&#x126;" horiz-adv-x="1513" 
d="M1513 1307v-267h-122v-1040h-390v557h-489v-557h-389v1040h-123v267h123v127h389v-127h489v127h390v-127h122zM1001 913v127h-489v-127h489z" />
    <glyph glyph-name="hbar" unicode="&#x127;" horiz-adv-x="1196" 
d="M776 977q161 0 254.5 -97t93.5 -286v-594h-379v489q0 84 -32.5 125t-100.5 41q-69 0 -110 -48.5t-41 -147.5v-459h-379v1104h-143v205h143v125h379v-125h241v-205h-241v-285h4q116 158 311 158z" />
    <glyph glyph-name="Itilde" unicode="&#x128;" horiz-adv-x="614" 
d="M-4 1497l-111 39q40 132 96.5 196t157.5 64q66 0 208 -30.5t171 -30.5q24 0 45.5 11.5t33 23t30.5 34.5l110 -37q-40 -133 -96.5 -196.5t-157.5 -63.5q-66 0 -208 31t-171 31q-24 0 -45 -11.5t-32.5 -24t-30.5 -36.5zM502 1434v-1434h-389v1434h389z" />
    <glyph glyph-name="itilde" unicode="&#x129;" horiz-adv-x="542" 
d="M133 1452q56 0 152.5 -43t120.5 -43q17 0 30.5 7.5t24 23.5t16.5 28.5t15 34.5l135 -49q-16 -73 -32 -122t-40.5 -92.5t-58 -65t-78.5 -21.5q-56 0 -152.5 43t-120.5 43q-17 0 -30.5 -7.5t-24 -23.5t-16.5 -28.5t-15 -34.5l-135 49q16 73 32 122t40.5 92.5t58 65
t78.5 21.5zM461 946v-946h-379v946h379z" />
    <glyph glyph-name="Imacron" unicode="&#x12a;" horiz-adv-x="614" 
d="M659 1743v-223h-706v223h706zM502 1434v-1434h-389v1434h389z" />
    <glyph glyph-name="imacron" unicode="&#x12b;" horiz-adv-x="542" 
d="M530 1393v-238h-516v238h516zM461 946v-946h-379v946h379z" />
    <glyph glyph-name="Ibreve" unicode="&#x12c;" horiz-adv-x="614" 
d="M680 1769q-15 -129 -113.5 -202.5t-259.5 -73.5t-260.5 73.5t-114.5 202.5h250q3 -36 36 -57.5t89 -21.5t88 21.5t37 57.5h248zM502 1434v-1434h-389v1434h389z" />
    <glyph glyph-name="ibreve" unicode="&#x12d;" horiz-adv-x="542" 
d="M596 1434q0 -172 -85 -266.5t-239 -94.5t-238.5 94.5t-84.5 266.5h217q0 -72 25 -107t81 -35t81.5 35t25.5 107h217zM461 946v-946h-379v946h379z" />
    <glyph glyph-name="Iogonek" unicode="&#x12e;" horiz-adv-x="614" 
d="M457 0q-84 -74 -123 -117.5t-39 -72.5q0 -18 15 -29.5t36 -11.5q28 0 76 10l29 -234q-27 -2 -59.5 -6t-53.5 -6t-35 -2q-260 0 -260 190q0 124 176 279h-106v1434h389v-1434h-45z" />
    <glyph glyph-name="iogonek" unicode="&#x12f;" horiz-adv-x="542" 
d="M78 1434h387v-355h-387v355zM82 0v946h379v-946h-53q-84 -74 -123 -117.5t-39 -72.5q0 -18 15 -29.5t36 -11.5q28 0 76 10l28 -234q-27 -2 -59.5 -6t-53 -6t-34.5 -2q-260 0 -260 190q0 124 176 279h-88z" />
    <glyph glyph-name="Idotaccent" unicode="&#x130;" horiz-adv-x="614" 
d="M477 1815v-293h-340v293h340zM502 1434v-1434h-389v1434h389z" />
    <glyph glyph-name="dotlessi" unicode="&#x131;" horiz-adv-x="542" 
d="M461 946v-946h-379v946h379z" />
    <glyph glyph-name="IJ" unicode="&#x132;" horiz-adv-x="1277" 
d="M502 1434v-1434h-389v1434h389zM1165 1434v-1065q0 -194 -100.5 -284.5t-308.5 -90.5h-121v356h78q26 0 44.5 20.5t18.5 45.5v1018h389z" />
    <glyph glyph-name="ij" unicode="&#x133;" horiz-adv-x="1085" 
d="M465 1434v-355h-387v355h387zM1008 1434v-355h-387v355h387zM461 946v-946h-379v946h379zM461 -63h43q59 0 90 38t31 111v860h379v-842q0 -267 -107.5 -393.5t-333.5 -126.5h-102v353z" />
    <glyph glyph-name="Jcircumflex" unicode="&#x134;" horiz-adv-x="663" 
d="M532 1767l246 -245h-307l-119 129l-116 -129h-308l246 245h358zM551 1434v-1065q0 -194 -100.5 -284.5t-309.5 -90.5h-121v356h78q26 0 45 20.5t19 45.5v1018h389z" />
    <glyph glyph-name="jcircumflex" unicode="&#x135;" horiz-adv-x="542" 
d="M449 1448l186 -315h-281l-86 184l-82 -184h-280l186 315h357zM-82 -63h43q59 0 90 38t31 111v860h379v-842q0 -267 -107.5 -393.5t-333.5 -126.5h-102v353z" />
    <glyph glyph-name="Kcommaaccent" unicode="&#x136;" horiz-adv-x="1585" 
d="M926 752l659 -752h-541l-542 664v-664h-389v1434h389v-631l483 631h504zM590 -307v211h328v-211l-134 -123h-129l58 123h-123z" />
    <glyph glyph-name="kcommaaccent" unicode="&#x137;" horiz-adv-x="1234" 
d="M461 414v-414h-379v1434h379v-838l241 350h457l-352 -430l428 -516h-485zM434 -307v211h328v-211l-133 -123h-129l57 123h-123z" />
    <glyph glyph-name="kgreenlandic" unicode="&#x138;" horiz-adv-x="1224" 
d="M1225 0h-486l-288 414v-414h-379v946h379v-366l303 366h456l-413 -430z" />
    <glyph glyph-name="Lacute" unicode="&#x139;" horiz-adv-x="1052" 
d="M776 1767l-383 -245h-268l262 245h389zM502 1434v-1078h540v-356h-929v1434h389z" />
    <glyph glyph-name="lacute" unicode="&#x13a;" horiz-adv-x="542" 
d="M782 1767l-383 -245h-268l262 245h389zM461 1434v-1434h-379v1434h379z" />
    <glyph glyph-name="Lcommaaccent" unicode="&#x13b;" horiz-adv-x="1052" 
d="M502 356h540v-356h-929v1434h389v-1078zM422 -307v211h328v-211l-134 -123h-129l58 123h-123z" />
    <glyph glyph-name="lcommaaccent" unicode="&#x13c;" horiz-adv-x="542" 
d="M82 1434h379v-1434h-379v1434zM109 -307v211h327v-211l-133 -123h-129l57 123h-122z" />
    <glyph glyph-name="Lcaron" unicode="&#x13d;" horiz-adv-x="1052" 
d="M682 803l104 332h-124v329h331v-329l-174 -332h-137zM502 356h540v-356h-929v1434h389v-1078z" />
    <glyph glyph-name="lcaron" unicode="&#x13e;" horiz-adv-x="903" 
d="M551 1464h332v-329l-174 -127h-138l93 127h-113v329zM82 0v1434h379v-1434h-379z" />
    <glyph glyph-name="Ldot" unicode="&#x13f;" horiz-adv-x="1052" 
d="M502 1434v-1078h540v-356h-929v1434h389zM1030 946v-385h-381v385h381z" />
    <glyph glyph-name="ldot" unicode="&#x140;" horiz-adv-x="950" 
d="M461 1434v-1434h-379v1434h379zM930 948v-385h-381v385h381z" />
    <glyph glyph-name="Lslash" unicode="&#x141;" horiz-adv-x="1052" 
d="M502 356h540v-356h-929v532l-133 -71v241l133 72v660h389v-455l338 180v-241l-338 -181v-381z" />
    <glyph glyph-name="lslash" unicode="&#x142;" horiz-adv-x="690" 
d="M670 1061v-242l-135 -69v-750h-379v553l-136 -70v242l136 70v639h379v-443z" />
    <glyph glyph-name="Nacute" unicode="&#x143;" horiz-adv-x="1597" 
d="M1305 1767l-383 -245h-269l262 245h390zM1485 1434v-1434h-303l-676 770h-4v-770h-389v1434h303l676 -770h4v770h389z" />
    <glyph glyph-name="nacute" unicode="&#x144;" horiz-adv-x="1185" 
d="M715 1448h418l-385 -315h-297zM768 977q159 0 252.5 -97t93.5 -286v-594h-379v489q0 84 -32.5 125t-100.5 41q-151 0 -151 -196v-459h-379v946h366v-141h4q125 172 326 172z" />
    <glyph glyph-name="Ncommaaccent" unicode="&#x145;" horiz-adv-x="1597" 
d="M1096 1434h389v-1434h-303l-676 770h-4v-770h-389v1434h303l676 -770h4v770zM631 -307v211h327v-211l-133 -123h-129l58 123h-123z" />
    <glyph glyph-name="ncommaaccent" unicode="&#x146;" horiz-adv-x="1185" 
d="M768 977q159 0 252.5 -97t93.5 -286v-594h-379v489q0 84 -32.5 125t-100.5 41q-151 0 -151 -196v-459h-379v946h366v-141h4q125 172 326 172zM444 -307v211h328v-211l-133 -123h-129l57 123h-123z" />
    <glyph glyph-name="Ncaron" unicode="&#x147;" horiz-adv-x="1597" 
d="M973 1522h-359l-245 245h307l117 -127l118 127h308zM1485 1434v-1434h-303l-676 770h-4v-770h-389v1434h303l676 -770h4v770h389z" />
    <glyph glyph-name="ncaron" unicode="&#x148;" horiz-adv-x="1185" 
d="M1049 1434l-248 -316h-357l-247 316h301l123 -152l127 152h301zM768 977q159 0 252.5 -97t93.5 -286v-594h-379v489q0 84 -32.5 125t-100.5 41q-151 0 -151 -196v-459h-379v946h366v-141h4q125 172 326 172z" />
    <glyph glyph-name="napostrophe" unicode="&#x149;" horiz-adv-x="1452" 
d="M352 1464v-329l-174 -332h-137l104 332h-125v329h332zM1034 977q159 0 252.5 -97t93.5 -286v-594h-379v489q0 84 -32.5 125t-100.5 41q-151 0 -151 -196v-459h-379v946h367v-141h4q125 172 325 172z" />
    <glyph glyph-name="Eng" unicode="&#x14a;" horiz-adv-x="1597" 
d="M1096 1434h389v-1434v-4q0 -109 -32.5 -189t-92.5 -126.5t-138.5 -68.5t-177.5 -22h-149v353h82q51 0 85 24.5t34 79.5v51l-590 672h-4v-770h-389v1434h303l676 -770h4v770z" />
    <glyph glyph-name="eng" unicode="&#x14b;" horiz-adv-x="1185" 
d="M768 977q159 0 252.5 -97t93.5 -286v-594q0 -198 -112.5 -304t-319.5 -106h-123v342h64q49 0 80.5 27t31.5 107v423q0 84 -32.5 125t-100.5 41q-151 0 -151 -196v-459h-379v946h366v-141h4q125 172 326 172z" />
    <glyph glyph-name="Omacron" unicode="&#x14c;" horiz-adv-x="1589" 
d="M1147 1743v-223h-707v223h707zM795 1464q159 0 299 -54t243 -150t162.5 -236.5t59.5 -306.5q0 -220 -102 -392t-275.5 -264t-386.5 -92t-386.5 92t-275.5 264t-102 392q0 166 59.5 306.5t162.5 236.5t243 150t299 54zM795 1075q-156 0 -255.5 -97t-99.5 -261t100 -261.5
t255 -97.5t254.5 97.5t99.5 261.5t-99.5 261t-254.5 97z" />
    <glyph glyph-name="omacron" unicode="&#x14d;" horiz-adv-x="1146" 
d="M913 1393v-238h-680v238h680zM573 -31q-241 0 -391.5 138t-150.5 366t150.5 366t391.5 138t392 -138t151 -366t-151 -366t-392 -138zM573 299q80 0 132.5 47t52.5 127t-52.5 127t-132.5 47t-132 -47t-52 -127t52 -127t132 -47z" />
    <glyph glyph-name="Obreve" unicode="&#x14e;" horiz-adv-x="1589" 
d="M1167 1769q-15 -129 -113 -202.5t-259 -73.5t-260.5 73.5t-114.5 202.5h250q3 -36 36 -57.5t89 -21.5t88 21.5t37 57.5h247zM795 1464q159 0 299 -54t243 -150t162.5 -236.5t59.5 -306.5q0 -220 -102 -392t-275.5 -264t-386.5 -92t-386.5 92t-275.5 264t-102 392
q0 166 59.5 306.5t162.5 236.5t243 150t299 54zM795 1075q-156 0 -255.5 -97t-99.5 -261t100 -261.5t255 -97.5t254.5 97.5t99.5 261.5t-99.5 261t-254.5 97z" />
    <glyph glyph-name="obreve" unicode="&#x14f;" horiz-adv-x="1146" 
d="M946 1434q0 -156 -107 -258.5t-266 -102.5t-266.5 102.5t-107.5 258.5h231q10 -142 143 -142q134 0 144 142h229zM573 -31q-241 0 -391.5 138t-150.5 366t150.5 366t391.5 138t392 -138t151 -366t-151 -366t-392 -138zM573 299q80 0 132.5 47t52.5 127t-52.5 127
t-132.5 47t-132 -47t-52 -127t52 -127t132 -47z" />
    <glyph glyph-name="Ohungarumlaut" unicode="&#x150;" horiz-adv-x="1589" 
d="M1047 1767l-246 -245h-256l229 245h273zM1425 1767l-245 -245h-256l229 245h272zM795 1464q159 0 299 -54t243 -150t162.5 -236.5t59.5 -306.5q0 -220 -102 -392t-275.5 -264t-386.5 -92t-386.5 92t-275.5 264t-102 392q0 166 59.5 306.5t162.5 236.5t243 150t299 54z
M795 1075q-156 0 -255.5 -97t-99.5 -261t100 -261.5t255 -97.5t254.5 97.5t99.5 261.5t-99.5 261t-254.5 97z" />
    <glyph glyph-name="ohungarumlaut" unicode="&#x151;" horiz-adv-x="1146" 
d="M823 1448l-325 -315h-273l291 315h307zM1233 1448l-326 -315h-272l291 315h307zM573 -31q-241 0 -391.5 138t-150.5 366t150.5 366t391.5 138t392 -138t151 -366t-151 -366t-392 -138zM573 299q80 0 132.5 47t52.5 127t-52.5 127t-132.5 47t-132 -47t-52 -127t52 -127
t132 -47z" />
    <glyph glyph-name="OE" unicode="&#x152;" horiz-adv-x="2115" 
d="M1497 356h557v-356h-944v51q-134 -84 -328 -84q-216 0 -386.5 93t-267.5 264.5t-97 392.5t97 392t267.5 264t386.5 93q192 0 328 -82v50h918v-357h-531v-170h463v-338h-463v-213zM782 360q152 0 247 94.5t95 262.5q0 169 -95 262.5t-247 93.5q-154 0 -249 -93.5
t-95 -262.5q0 -168 95.5 -262.5t248.5 -94.5z" />
    <glyph glyph-name="oe" unicode="&#x153;" horiz-adv-x="1757" 
d="M1266 975q214 0 342.5 -133t128.5 -391v-66h-652q42 -125 228 -125q118 0 248 53l100 -276q-169 -68 -350 -68q-144 0 -236 40.5t-160 119.5h-4q-66 -77 -149.5 -118.5t-206.5 -41.5q-229 0 -376.5 138.5t-147.5 365.5q0 226 146 365t378 139q117 0 209.5 -39t146.5 -117
h4q117 154 351 154zM1231 731q-63 0 -106.5 -39t-47.5 -112h301q0 74 -42 112.5t-105 38.5zM571 647q-74 0 -123 -47t-49 -127t49 -127t123 -47q72 0 119 47t47 127t-47 127t-119 47z" />
    <glyph glyph-name="Racute" unicode="&#x154;" horiz-adv-x="1366" 
d="M1087 1767l-382 -245h-269l262 245h389zM1356 0h-486l-368 532v-532h-389v1434h612q137 0 243.5 -38.5t170 -104.5t95.5 -149t32 -179q0 -149 -78 -264.5t-230 -166.5zM672 1090h-170v-308h170q91 0 140.5 39t49.5 117q0 152 -190 152z" />
    <glyph glyph-name="racute" unicode="&#x155;" horiz-adv-x="753" 
d="M463 1448h418l-385 -315h-297zM743 975v-357h-22q-141 0 -205.5 -59.5t-64.5 -212.5v-346h-379v946h366v-176h4q42 113 116 159t181 46h4z" />
    <glyph glyph-name="Rcommaaccent" unicode="&#x156;" horiz-adv-x="1366" 
d="M958 532l398 -532h-486l-368 532v-532h-389v1434h612q137 0 243.5 -38.5t170 -104.5t95.5 -149t32 -179q0 -149 -78 -264.5t-230 -166.5zM672 1090h-170v-308h170q91 0 140.5 39t49.5 117q0 152 -190 152zM541 -307v211h327v-211l-133 -123h-129l58 123h-123z" />
    <glyph glyph-name="rcommaaccent" unicode="&#x157;" horiz-adv-x="753" 
d="M739 975h4v-357h-22q-141 0 -205.5 -59.5t-64.5 -212.5v-346h-379v946h366v-176h4q42 113 116 159t181 46zM96 -307v211h328v-211l-133 -123h-129l57 123h-123z" />
    <glyph glyph-name="Rcaron" unicode="&#x158;" horiz-adv-x="1366" 
d="M756 1522h-359l-245 245h307l116 -127l119 127h307zM1356 0h-486l-368 532v-532h-389v1434h612q137 0 243.5 -38.5t170 -104.5t95.5 -149t32 -179q0 -149 -78 -264.5t-230 -166.5zM672 1090h-170v-308h170q91 0 140.5 39t49.5 117q0 152 -190 152z" />
    <glyph glyph-name="rcaron" unicode="&#x159;" horiz-adv-x="753" 
d="M797 1434l-248 -316h-356l-248 316h301l123 -152l127 152h301zM743 975v-357h-22q-141 0 -205.5 -59.5t-64.5 -212.5v-346h-379v946h366v-176h4q42 113 116 159t181 46h4z" />
    <glyph glyph-name="Sacute" unicode="&#x15a;" horiz-adv-x="1220" 
d="M1161 1767l-383 -245h-268l262 245h389zM659 1464q243 0 490 -121l-168 -346q-86 57 -180.5 86t-169.5 29q-88 0 -88 -53q0 -21 16 -38t59 -40l295 -152q62 -32 106.5 -65.5t83 -81t58 -112t19.5 -146.5q0 -221 -144.5 -338t-419.5 -117q-316 0 -606 162l178 373
q247 -176 449 -176q121 0 121 63q0 25 -16.5 41t-53.5 35l-313 158q-124 63 -189 166.5t-65 238.5q0 198 138 316t400 118z" />
    <glyph glyph-name="sacute" unicode="&#x15b;" horiz-adv-x="929" 
d="M608 1448h418l-385 -315h-297zM473 -31q-261 0 -463 101l121 270q188 -102 342 -107q76 -2 76 31q0 16 -13.5 24.5t-50.5 20.5l-143 47q-129 42 -194.5 113t-65.5 190q0 150 107.5 234t326.5 84q153 0 358 -47l-81 -281q-177 70 -306 70q-57 0 -57 -27q0 -23 47 -37
l170 -55q131 -42 196.5 -109.5t65.5 -193.5q0 -167 -115 -247.5t-321 -80.5z" />
    <glyph glyph-name="Scircumflex" unicode="&#x15c;" horiz-adv-x="1220" 
d="M829 1767l246 -245h-307l-119 129l-117 -129h-307l246 245h358zM659 1464q243 0 490 -121l-168 -346q-86 57 -180.5 86t-169.5 29q-88 0 -88 -53q0 -21 16 -38t59 -40l295 -152q62 -32 106.5 -65.5t83 -81t58 -112t19.5 -146.5q0 -221 -144.5 -338t-419.5 -117
q-316 0 -606 162l178 373q247 -176 449 -176q121 0 121 63q0 25 -16.5 41t-53.5 35l-313 158q-124 63 -189 166.5t-65 238.5q0 198 138 316t400 118z" />
    <glyph glyph-name="scircumflex" unicode="&#x15d;" horiz-adv-x="929" 
d="M694 1448l248 -315h-301l-127 153l-123 -153h-301l248 315h356zM473 -31q-261 0 -463 101l121 270q188 -102 342 -107q76 -2 76 31q0 16 -13.5 24.5t-50.5 20.5l-143 47q-129 42 -194.5 113t-65.5 190q0 150 107.5 234t326.5 84q153 0 358 -47l-81 -281q-177 70 -306 70
q-57 0 -57 -27q0 -23 47 -37l170 -55q131 -42 196.5 -109.5t65.5 -193.5q0 -167 -115 -247.5t-321 -80.5z" />
    <glyph glyph-name="Scedilla" unicode="&#x15e;" horiz-adv-x="1220" 
d="M1180 424q0 -214 -134 -330t-391 -125l-18 -45q94 -12 142 -48t48 -91q0 -26 -10 -47.5t-33.5 -40t-49 -32.5t-68 -29.5t-78.5 -26.5t-93 -28l-51 -15l-38 88q95 40 127 59.5t32 38.5q0 17 -12.5 27t-28 14t-53.5 12l68 166q-272 18 -529 160l178 373q247 -176 449 -176
q121 0 121 63q0 25 -16.5 41t-53.5 35l-313 158q-124 63 -189 166.5t-65 238.5q0 198 138 316t400 118q243 0 490 -121l-168 -346q-86 57 -180.5 86t-169.5 29q-88 0 -88 -53q0 -21 16 -38t59 -40l295 -152q62 -32 106.5 -65.5t83 -81t58 -112t19.5 -146.5z" />
    <glyph glyph-name="scedilla" unicode="&#x15f;" horiz-adv-x="929" 
d="M909 297q0 -158 -101 -238t-284 -88l-20 -47q94 -12 142 -48t48 -91q0 -26 -10 -47.5t-33.5 -40t-49 -32.5t-68 -29.5t-78.5 -26.5t-93 -28l-51 -15l-39 88q95 40 127.5 59.5t32.5 38.5q0 17 -12.5 27t-28 14t-53.5 12l68 166q-223 12 -396 99l121 270q188 -102 342 -107
q76 -2 76 31q0 16 -13.5 24.5t-50.5 20.5l-143 47q-129 42 -194.5 113t-65.5 190q0 150 107.5 234t326.5 84q153 0 358 -47l-81 -281q-177 70 -306 70q-57 0 -57 -27q0 -23 47 -37l170 -55q131 -42 196.5 -109.5t65.5 -193.5z" />
    <glyph glyph-name="Scaron" unicode="&#x160;" horiz-adv-x="1220" 
d="M829 1522h-358l-246 245h307l117 -127l119 127h307zM659 1464q243 0 490 -121l-168 -346q-86 57 -180.5 86t-169.5 29q-88 0 -88 -53q0 -21 16 -38t59 -40l295 -152q62 -32 106.5 -65.5t83 -81t58 -112t19.5 -146.5q0 -221 -144.5 -338t-419.5 -117q-316 0 -606 162
l178 373q247 -176 449 -176q121 0 121 63q0 25 -16.5 41t-53.5 35l-313 158q-124 63 -189 166.5t-65 238.5q0 198 138 316t400 118z" />
    <glyph glyph-name="scaron" unicode="&#x161;" horiz-adv-x="929" 
d="M942 1434l-248 -316h-356l-248 316h301l123 -152l127 152h301zM473 -31q-261 0 -463 101l121 270q188 -102 342 -107q76 -2 76 31q0 16 -13.5 24.5t-50.5 20.5l-143 47q-129 42 -194.5 113t-65.5 190q0 150 107.5 234t326.5 84q153 0 358 -47l-81 -281q-177 70 -306 70
q-57 0 -57 -27q0 -23 47 -37l170 -55q131 -42 196.5 -109.5t65.5 -193.5q0 -167 -115 -247.5t-321 -80.5z" />
    <glyph glyph-name="uni0162" unicode="&#x162;" horiz-adv-x="1126" 
d="M758 0h-152l-33 -76q94 -12 142.5 -48t48.5 -91q0 -26 -10 -47.5t-33.5 -40t-49 -32.5t-68 -29.5t-78.5 -26.5t-93 -28l-51 -15l-39 88q95 40 127.5 59.5t32.5 38.5q0 17 -12.5 27t-28 14t-53.5 12l79 195h-118v1077h-359v357h1106v-357h-358v-1077z" />
    <glyph glyph-name="uni0163" unicode="&#x163;" horiz-adv-x="790" 
d="M780 635h-200v-154q0 -76 20.5 -102.5t79.5 -26.5h33v-352h-140l-32 -76q94 -12 142 -48t48 -91q0 -26 -10 -47.5t-33.5 -40t-49 -32.5t-68 -29.5t-78.5 -26.5t-93 -28l-51 -15l-39 88q95 40 127.5 59.5t32.5 38.5q0 17 -12.5 27t-28 14t-53.5 12l82 203
q-256 52 -256 363v264h-191v311h191v379h379v-379h200v-311z" />
    <glyph glyph-name="Tcaron" unicode="&#x164;" horiz-adv-x="1126" 
d="M741 1522h-358l-246 245h307l117 -127l119 127h307zM1116 1434v-357h-358v-1077h-389v1077h-359v357h1106z" />
    <glyph glyph-name="tcaron" unicode="&#x165;" horiz-adv-x="1054" 
d="M702 1464h332v-329l-174 -127h-137l92 127h-113v329zM580 1325v-379h200v-311h-200v-154q0 -76 20.5 -102.5t79.5 -26.5h33v-352h-154q-358 0 -358 371v264h-191v311h191v379h379z" />
    <glyph glyph-name="Tbar" unicode="&#x166;" horiz-adv-x="1126" 
d="M1116 1077h-358v-131h194v-266h-194v-680h-389v680h-195v266h195v131h-359v357h1106v-357z" />
    <glyph glyph-name="tbar" unicode="&#x167;" horiz-adv-x="856" 
d="M780 635h-200v-62h178v-118h-178q3 -60 24.5 -81.5t75.5 -21.5h33v-352h-154q-358 0 -358 371v84h-166v118h166v62h-191v311h191v379h379v-379h200v-311z" />
    <glyph glyph-name="Utilde" unicode="&#x168;" horiz-adv-x="1466" 
d="M422 1497l-111 39q40 132 96.5 196t157.5 64q66 0 208 -30.5t171 -30.5q24 0 45.5 11.5t33 23t30.5 34.5l110 -37q-40 -133 -96.5 -196.5t-157.5 -63.5q-66 0 -208 31t-171 31q-24 0 -45 -11.5t-32.5 -24t-30.5 -36.5zM1364 596q0 -144 -37 -256.5t-113 -195t-197.5 -126
t-283.5 -43.5t-283.5 43.5t-197.5 126t-113 195t-37 256.5v838h416v-828q0 -109 50.5 -175t164.5 -66t164.5 66t50.5 175v828h416v-838z" />
    <glyph glyph-name="utilde" unicode="&#x169;" horiz-adv-x="1200" 
d="M418 1452q69 0 198 -43t160 -43q65 0 113 94l135 -49q-41 -149 -98 -225t-158 -76q-68 0 -197.5 43t-160.5 43q-63 0 -111 -94l-137 49q41 149 98.5 225t157.5 76zM442 -31q-160 0 -260 95.5t-100 273.5v608h389v-495q0 -81 34.5 -119.5t92.5 -38.5q141 0 141 207v446
h379v-946h-366v145h-4q-63 -90 -136.5 -133t-169.5 -43z" />
    <glyph glyph-name="Umacron" unicode="&#x16a;" horiz-adv-x="1466" 
d="M1085 1743v-223h-706v223h706zM1364 596q0 -144 -37 -256.5t-113 -195t-197.5 -126t-283.5 -43.5t-283.5 43.5t-197.5 126t-113 195t-37 256.5v838h416v-828q0 -109 50.5 -175t164.5 -66t164.5 66t50.5 175v828h416v-838z" />
    <glyph glyph-name="umacron" unicode="&#x16b;" horiz-adv-x="1200" 
d="M940 1393v-238h-680v238h680zM442 -31q-160 0 -260 95.5t-100 273.5v608h389v-495q0 -81 34.5 -119.5t92.5 -38.5q141 0 141 207v446h379v-946h-366v145h-4q-63 -90 -136.5 -133t-169.5 -43z" />
    <glyph glyph-name="Ubreve" unicode="&#x16c;" horiz-adv-x="1466" 
d="M1106 1769q-15 -129 -113.5 -202.5t-259.5 -73.5t-260.5 73.5t-114.5 202.5h250q3 -36 36 -57.5t89 -21.5t88 21.5t37 57.5h248zM1364 596q0 -144 -37 -256.5t-113 -195t-197.5 -126t-283.5 -43.5t-283.5 43.5t-197.5 126t-113 195t-37 256.5v838h416v-828
q0 -109 50.5 -175t164.5 -66t164.5 66t50.5 175v828h416v-838z" />
    <glyph glyph-name="ubreve" unicode="&#x16d;" horiz-adv-x="1200" 
d="M973 1434q0 -156 -107 -258.5t-266 -102.5t-267 102.5t-108 258.5h232q10 -142 143 -142t143 142h230zM442 -31q-160 0 -260 95.5t-100 273.5v608h389v-495q0 -81 34.5 -119.5t92.5 -38.5q141 0 141 207v446h379v-946h-366v145h-4q-63 -90 -136.5 -133t-169.5 -43z" />
    <glyph glyph-name="Uring" unicode="&#x16e;" horiz-adv-x="1466" 
d="M961 1434h403v-838q0 -144 -37 -256.5t-113 -195t-197.5 -126t-283.5 -43.5t-283.5 43.5t-197.5 126t-113 195t-37 256.5v838h404q-19 46 -19 96q0 105 69 172t177 67t177 -67t69 -172q0 -52 -18 -96zM733 1624q-44 0 -71 -27t-27 -67t27 -68t71 -28q43 0 69.5 28
t26.5 68q0 39 -26.5 66.5t-69.5 27.5zM733 365q114 0 164.5 66t50.5 175v801q-31 -55 -87 -86t-128 -31t-128 31t-87 86v-801q0 -109 50.5 -175t164.5 -66z" />
    <glyph glyph-name="uring" unicode="&#x16f;" horiz-adv-x="1200" 
d="M596 1530q104 0 172 -68t68 -172t-68 -171.5t-172 -67.5t-172 67.5t-68 171.5t68 172t172 68zM596 1386q-40 0 -66 -28.5t-26 -67.5t26 -66.5t66 -27.5q39 0 64.5 27.5t25.5 66.5t-25.5 67.5t-64.5 28.5zM442 -31q-160 0 -260 95.5t-100 273.5v608h389v-495
q0 -81 34.5 -119.5t92.5 -38.5q141 0 141 207v446h379v-946h-366v145h-4q-63 -90 -136.5 -133t-169.5 -43z" />
    <glyph glyph-name="Uhungarumlaut" unicode="&#x170;" horiz-adv-x="1466" 
d="M985 1767l-246 -245h-256l230 245h272zM1364 1767l-246 -245h-256l230 245h272zM1364 596q0 -144 -37 -256.5t-113 -195t-197.5 -126t-283.5 -43.5t-283.5 43.5t-197.5 126t-113 195t-37 256.5v838h416v-828q0 -109 50.5 -175t164.5 -66t164.5 66t50.5 175v828h416v-838z
" />
    <glyph glyph-name="uhungarumlaut" unicode="&#x171;" horiz-adv-x="1200" 
d="M850 1448l-326 -315h-272l291 315h307zM1260 1448l-326 -315h-272l290 315h308zM442 -31q-160 0 -260 95.5t-100 273.5v608h389v-495q0 -81 34.5 -119.5t92.5 -38.5q141 0 141 207v446h379v-946h-366v145h-4q-63 -90 -136.5 -133t-169.5 -43z" />
    <glyph glyph-name="Uogonek" unicode="&#x172;" horiz-adv-x="1466" 
d="M948 1434h416v-838q0 -218 -85 -365.5t-259 -210.5q-94 -82 -139 -131t-45 -79q0 -18 15 -29.5t36 -11.5q28 0 76 10l28 -234q-27 -2 -59.5 -6t-53 -6t-34.5 -2q-260 0 -260 190q0 112 149 254q-162 0 -283.5 43.5t-197.5 126t-113 195t-37 256.5v838h416v-828
q0 -109 50.5 -175t164.5 -66t164.5 66t50.5 175v828z" />
    <glyph glyph-name="uogonek" unicode="&#x173;" horiz-adv-x="1200" 
d="M981 0q-84 -74 -123 -117.5t-39 -72.5q0 -18 15 -29.5t36 -11.5q28 0 76 10l29 -234q-27 -2 -59.5 -6t-53.5 -6t-35 -2q-260 0 -260 190q0 123 185 287v137h-4q-63 -90 -136.5 -133t-169.5 -43q-160 0 -260 95.5t-100 273.5v608h389v-495q0 -81 34.5 -119.5t92.5 -38.5
q141 0 141 207v446h379v-946h-137z" />
    <glyph glyph-name="Wcircumflex" unicode="&#x174;" horiz-adv-x="2310" 
d="M1333 1767l246 -245h-307l-119 129l-117 -129h-307l246 245h358zM2300 1434l-516 -1434h-324l-303 825h-4l-303 -825h-324l-516 1434h457l229 -785h4l291 785h328l291 -785h4l229 785h457z" />
    <glyph glyph-name="wcircumflex" unicode="&#x175;" horiz-adv-x="1751" 
d="M872 1286l-122 -153h-301l247 315h357l247 -315h-301zM1386 946h365l-362 -946h-316l-196 469l-199 -469h-313l-365 946h365l165 -457l177 457h340l176 -457z" />
    <glyph glyph-name="Ycircumflex" unicode="&#x176;" horiz-adv-x="1501" 
d="M750 1651l-117 -129h-307l245 245h359l246 -245h-308zM1501 1434l-555 -951v-483h-391v479l-555 955h465l283 -576h6l282 576h465z" />
    <glyph glyph-name="ycircumflex" unicode="&#x177;" horiz-adv-x="1214" 
d="M625 1286l-123 -153h-301l248 315h356l248 -315h-301zM844 946h370l-651 -1356h-379l248 510l-432 846h422l199 -459z" />
    <glyph glyph-name="Ydieresis" unicode="&#x178;" horiz-adv-x="1501" 
d="M680 1767v-245h-309v245h309zM1133 1767v-245h-310v245h310zM1501 1434l-555 -951v-483h-391v479l-555 955h465l283 -576h6l282 576h465z" />
    <glyph glyph-name="Zacute" unicode="&#x179;" horiz-adv-x="1220" 
d="M1135 1767l-383 -245h-269l262 245h390zM522 356h658v-356h-1139v356l621 721h-564v357h1035v-357z" />
    <glyph glyph-name="zacute" unicode="&#x17a;" horiz-adv-x="946" 
d="M981 1448l-385 -315h-297l264 315h418zM901 690l-422 -385h447v-305h-906v270l410 373h-369v303h838v-256h2z" />
    <glyph glyph-name="Zdotaccent" unicode="&#x17b;" horiz-adv-x="1220" 
d="M795 1815v-293h-340v293h340zM522 356h658v-356h-1139v356l621 721h-564v357h1035v-357z" />
    <glyph glyph-name="zdotaccent" unicode="&#x17c;" horiz-adv-x="946" 
d="M666 1434v-355h-387v355h387zM479 305h447v-305h-906v270l410 373h-369v303h838v-256h2z" />
    <glyph glyph-name="Zcaron" unicode="&#x17d;" horiz-adv-x="1220" 
d="M803 1522h-359l-245 245h307l117 -127l118 127h308zM522 356h658v-356h-1139v356l621 721h-564v357h1035v-357z" />
    <glyph glyph-name="zcaron" unicode="&#x17e;" horiz-adv-x="946" 
d="M649 1118h-356l-248 316h301l123 -152l127 152h301zM479 305h447v-305h-906v270l410 373h-369v303h838v-256h2z" />
    <glyph glyph-name="florin" unicode="&#x192;" horiz-adv-x="849" 
d="M713 1053q-63 0 -92 -27.5t-29 -73.5v-6h217v-61h-217v-803q0 -233 -109.5 -362.5t-300.5 -129.5h-141v332h86q57 0 92 34.5t35 104.5v824h-203v61h203v23q0 202 107 307.5t301 105.5h147v-329h-96z" />
    <glyph glyph-name="AEacute" unicode="&#x1fc;" horiz-adv-x="2160" 
d="M1993 1767l-383 -245h-269l263 245h389zM1585 356h514v-356h-610h-283v268h-555l-164 -268h-487l954 1434h631h483v-357h-483v-170h420v-338h-420v-213zM840 575h366v599z" />
    <glyph glyph-name="aeacute" unicode="&#x1fd;" horiz-adv-x="1703" 
d="M936 1448h418l-385 -315h-297zM1208 975q212 0 338.5 -135.5t126.5 -403.5v-51h-653q24 -67 81.5 -96t155.5 -29q110 0 240 53l100 -274q-168 -70 -358 -70q-311 0 -420 178h-4q-131 -178 -407 -178q-189 0 -293.5 90.5t-104.5 247.5t96.5 245.5t262.5 88.5
q101 0 180.5 -33t120.5 -86h4v29q0 80 -49 122t-162 42q-89 0 -262 -25l-41 256q190 31 336 31q140 0 225 -36.5t125 -121.5h4q49 72 139 114t219 42zM1167 731q-61 0 -105 -39t-48 -112h301q0 77 -42 114t-106 37zM555 424q-55 0 -88 -26.5t-33 -73.5q0 -48 33 -72.5
t88 -24.5q56 0 89.5 28.5t33.5 68.5q0 44 -33 72t-90 28z" />
    <glyph glyph-name="Oslashacute" unicode="&#x1fe;" horiz-adv-x="1589" 
d="M1305 1767l-383 -245h-269l262 245h390zM1309 1284q118 -101 184 -246t66 -321q0 -220 -102 -392t-275.5 -264t-386.5 -92q-230 0 -412 109l-82 -107l-100 74l80 105q-118 101 -184 246t-66 321q0 166 59.5 306.5t162.5 236.5t243 150t299 54q230 0 411 -108l82 106
l101 -73zM440 717q0 -149 86 -248l437 569q-73 37 -168 37q-156 0 -255.5 -97t-99.5 -261zM795 358q155 0 254.5 97.5t99.5 261.5q0 149 -86 248l-436 -570q73 -37 168 -37z" />
    <glyph glyph-name="oslashacute" unicode="&#x1ff;" horiz-adv-x="1146" 
d="M1081 1448l-385 -315h-297l265 315h417zM954 850q162 -140 162 -377q0 -228 -151 -366t-392 -138q-187 0 -321 84l-72 -82l-55 47l68 78q-162 140 -162 377q0 228 150.5 366t391.5 138q188 0 322 -84l74 84l55 -49zM389 473q0 -66 37 -113l236 269q-38 18 -89 18
q-80 0 -132 -47t-52 -127zM573 299q80 0 132.5 47t52.5 127q0 64 -37 111l-236 -267q41 -18 88 -18z" />
    <glyph glyph-name="Scommaaccent" unicode="&#x218;" horiz-adv-x="1220" 
d="M913 829q62 -32 106.5 -65.5t83 -81t58 -112t19.5 -146.5q0 -221 -144.5 -338t-419.5 -117q-316 0 -606 162l178 373q247 -176 449 -176q121 0 121 63q0 25 -16.5 41t-53.5 35l-313 158q-124 63 -189 166.5t-65 238.5q0 198 138 316t400 118q243 0 490 -121l-168 -346
q-86 57 -180.5 86t-169.5 29q-88 0 -88 -53q0 -21 16 -38t59 -40zM463 -307v211h328v-211l-134 -123h-129l58 123h-123z" />
    <glyph glyph-name="scommaaccent" unicode="&#x219;" horiz-adv-x="929" 
d="M647 600q131 -42 196.5 -109.5t65.5 -193.5q0 -167 -115 -247.5t-321 -80.5q-261 0 -463 101l121 270q188 -102 342 -107q76 -2 76 31q0 16 -13.5 24.5t-50.5 20.5l-143 47q-129 42 -194.5 113t-65.5 190q0 150 107.5 234t326.5 84q153 0 358 -47l-81 -281
q-177 70 -306 70q-57 0 -57 -27q0 -23 47 -37zM330 -307v211h327v-211l-133 -123h-129l58 123h-123z" />
    <glyph glyph-name="uni021A" unicode="&#x21a;" horiz-adv-x="1126" 
d="M1116 1434v-357h-358v-1077h-389v1077h-359v357h1106zM399 -307v211h328v-211l-133 -123h-129l57 123h-123z" />
    <glyph glyph-name="uni021B" unicode="&#x21b;" horiz-adv-x="790" 
d="M780 635h-200v-154q0 -76 20.5 -102.5t79.5 -26.5h33v-352h-154q-358 0 -358 371v264h-191v311h191v379h379v-379h200v-311zM367 -307v211h327v-211l-133 -123h-129l57 123h-122z" />
    <glyph glyph-name="uni0237" unicode="&#x237;" horiz-adv-x="542" 
d="M-82 -63h43q59 0 90 38t31 111v860h379v-842q0 -267 -107.5 -393.5t-333.5 -126.5h-102v353z" />
    <glyph glyph-name="uni02BC" unicode="&#x2bc;" horiz-adv-x="423" 
d="M41 1464h332v-329l-174 -332h-138l105 332h-125v329z" />
    <glyph glyph-name="circumflex" unicode="&#x2c6;" horiz-adv-x="1056" 
d="M707 1448l247 -315h-301l-127 153l-123 -153h-301l248 315h357z" />
    <glyph glyph-name="caron" unicode="&#x2c7;" horiz-adv-x="1056" 
d="M954 1434l-247 -316h-357l-248 316h301l123 -152l127 152h301z" />
    <glyph glyph-name="breve" unicode="&#x2d8;" horiz-adv-x="952" 
d="M850 1434q0 -156 -107 -258.5t-266 -102.5t-267 102.5t-108 258.5h232q10 -142 143 -142q134 0 144 142h229z" />
    <glyph glyph-name="dotaccent" unicode="&#x2d9;" horiz-adv-x="591" 
d="M489 1434v-355h-387v355h387z" />
    <glyph glyph-name="ring" unicode="&#x2da;" horiz-adv-x="684" 
d="M342 1530q104 0 172 -68t68 -172t-68 -171.5t-172 -67.5t-172 67.5t-68 171.5t68 172t172 68zM342 1386q-40 0 -66 -28.5t-26 -67.5t26 -66.5t66 -27.5q39 0 64.5 27.5t25.5 66.5t-25.5 67.5t-64.5 28.5z" />
    <glyph glyph-name="ogonek" unicode="&#x2db;" horiz-adv-x="641" 
d="M336 49l203 -29q-95 -83 -140 -131.5t-45 -78.5q0 -18 15.5 -29.5t36.5 -11.5q27 0 75 10l29 -234q-27 -2 -59.5 -6t-53.5 -6t-35 -2q-260 0 -260 190q0 142 234 328z" />
    <glyph glyph-name="tilde" unicode="&#x2dc;" horiz-adv-x="1067" 
d="M358 1452q69 0 198.5 -43t160.5 -43q64 0 112 94l136 -49q-41 -149 -98 -225t-158 -76q-68 0 -198 43t-161 43q-62 0 -110 -94l-138 49q41 149 98.5 225t157.5 76z" />
    <glyph glyph-name="hungarumlaut" unicode="&#x2dd;" horiz-adv-x="1191" 
d="M700 1448l-325 -315h-273l291 315h307zM1110 1448l-326 -315h-272l291 315h307z" />
    <glyph glyph-name="gravecomb" unicode="&#x300;" horiz-adv-x="0" 
d="M-367 1448l265 -315h-297l-385 315h417z" />
    <glyph glyph-name="acutecomb" unicode="&#x301;" horiz-adv-x="0" 
d="M-520 1448h418l-385 -315h-297z" />
    <glyph glyph-name="uni0302" unicode="&#x302;" horiz-adv-x="0" 
d="M-350 1448l248 -315h-301l-127 153l-123 -153h-301l247 315h357z" />
    <glyph glyph-name="tildecomb" unicode="&#x303;" horiz-adv-x="0" 
d="M-709 1452q69 0 198.5 -43t160.5 -43q64 0 112 94l136 -49q-41 -149 -98 -225t-158 -76q-68 0 -198 43t-161 43q-62 0 -110 -94l-138 49q41 149 98.5 225t157.5 76z" />
    <glyph glyph-name="uni0304" unicode="&#x304;" horiz-adv-x="0" 
d="M-102 1393v-238h-680v238h680z" />
    <glyph glyph-name="uni0306" unicode="&#x306;" horiz-adv-x="0" 
d="M-102 1434q0 -156 -107 -258.5t-266 -102.5t-267 102.5t-108 258.5h232q10 -142 143 -142t143 142h230z" />
    <glyph glyph-name="uni0307" unicode="&#x307;" horiz-adv-x="0" 
d="M-102 1434v-355h-387v355h387z" />
    <glyph glyph-name="uni0308" unicode="&#x308;" horiz-adv-x="0" 
d="M-487 1413v-297h-285v297h285zM-102 1413v-297h-285v297h285z" />
    <glyph glyph-name="uni030A" unicode="&#x30a;" horiz-adv-x="0" 
d="M-342 1530q104 0 172 -68t68 -172t-68 -171.5t-172 -67.5t-172 67.5t-68 171.5t68 172t172 68zM-342 1386q-40 0 -66 -28.5t-26 -67.5t26 -66.5t66 -27.5q39 0 64.5 27.5t25.5 66.5t-25.5 67.5t-64.5 28.5z" />
    <glyph glyph-name="uni030B" unicode="&#x30b;" horiz-adv-x="0" 
d="M-512 1448l-326 -315h-272l291 315h307zM-102 1448l-326 -315h-272l290 315h308z" />
    <glyph glyph-name="uni030C" unicode="&#x30c;" horiz-adv-x="0" 
d="M-102 1434l-248 -316h-357l-247 316h301l123 -152l127 152h301z" />
    <glyph glyph-name="uni0326" unicode="&#x326;" horiz-adv-x="0" 
d="M-430 -96h328v-211l-134 -123h-129l58 123h-123v211z" />
    <glyph glyph-name="uni0327" unicode="&#x327;" horiz-adv-x="0" 
d="M-223 88l-70 -164q94 -12 142.5 -48t48.5 -91q0 -26 -10 -47.5t-33.5 -40t-49 -32.5t-68 -29.5t-78.5 -26.5t-93 -28l-51 -15l-39 88q95 40 127 59.5t32 38.5q0 17 -12.5 27t-28 14t-53.5 12l115 283h121z" />
    <glyph glyph-name="uni0328" unicode="&#x328;" horiz-adv-x="0" 
d="M-305 49l203 -29q-95 -83 -140 -131.5t-45 -78.5q0 -18 15 -29.5t36 -11.5q28 0 76 10l29 -234q-27 -2 -59.5 -6t-53.5 -6t-35 -2q-260 0 -260 190q0 142 234 328z" />
    <glyph glyph-name="uni0394" unicode="&#x394;" horiz-adv-x="1286" 
d="M735 1434l510 -1434h-1204l510 1434h184zM643 848l-170 -572h340z" />
    <glyph glyph-name="uni03A9" unicode="&#x3a9;" horiz-adv-x="1495" 
d="M748 1464q316 0 506 -175t190 -449q0 -109 -32 -201t-86.5 -156t-124 -104.5t-148.5 -54.5v-7h379v-317h-603v543q108 19 175 93.5t67 182.5q0 126 -87 204.5t-236 78.5q-148 0 -235 -79t-87 -204q0 -109 66 -183t174 -93v-543h-600v317h376v7q-170 32 -280.5 169.5
t-110.5 346.5q0 274 190.5 449t506.5 175z" />
    <glyph glyph-name="uni03BC" unicode="&#x3bc;" horiz-adv-x="1200" 
d="M739 946h379v-946h-366v145h-4q-63 -90 -136.5 -133t-169.5 -43h-8v-379h-352v879v477h389v-495q0 -81 34.5 -119.5t92.5 -38.5q141 0 141 207v446z" />
    <glyph glyph-name="pi" unicode="&#x3c0;" horiz-adv-x="1357" 
d="M1296 977v-315h-166v-662h-333v662h-156l-141 -662h-340l139 657q-123 -6 -238 -36v315q118 41 345 41h890z" />
    <glyph glyph-name="uni0401" unicode="&#x401;" horiz-adv-x="1118" 
d="M512 1767v-245h-309v245h309zM965 1767v-245h-310v245h310zM502 356h555v-356h-944v1434h913v-357h-524v-170h461v-338h-461v-213z" />
    <glyph glyph-name="uni0402" unicode="&#x402;" horiz-adv-x="1617" 
d="M1174 895q203 0 303 -86.5t100 -273.5v-123q0 -204 -127 -308t-352 -104h-123v356h104q58 0 88.5 19.5t30.5 79.5v12q0 51 -28.5 70.5t-92.5 19.5q-66 0 -305 -22v-535h-393v1073h-369v361h1219v-361h-457v-201q246 23 402 23z" />
    <glyph glyph-name="uni0403" unicode="&#x403;" horiz-adv-x="1030" 
d="M1042 1767l-383 -245h-268l262 245h389zM1020 1434v-357h-518v-1077h-389v1434h907z" />
    <glyph glyph-name="uni0404" unicode="&#x404;" horiz-adv-x="1359" 
d="M813 354q177 0 340 113l197 -340q-228 -158 -529 -158q-168 0 -312 50.5t-250.5 144.5t-167 236.5t-60.5 316.5q0 140 39 260t110.5 208.5t169.5 152t217.5 95t253.5 31.5q302 0 529 -157l-197 -340q-162 112 -340 112q-123 0 -211 -49t-129 -143h459v-320h-467
q38 -103 128.5 -158t219.5 -55z" />
    <glyph glyph-name="uni0405" unicode="&#x405;" horiz-adv-x="1220" 
d="M659 1464q243 0 490 -121l-168 -346q-86 57 -180.5 86t-169.5 29q-88 0 -88 -53q0 -21 16 -38t59 -40l295 -152q62 -32 106.5 -65.5t83 -81t58 -112t19.5 -146.5q0 -221 -144.5 -338t-419.5 -117q-316 0 -606 162l178 373q247 -176 449 -176q121 0 121 63q0 25 -16.5 41
t-53.5 35l-313 158q-124 63 -189 166.5t-65 238.5q0 198 138 316t400 118z" />
    <glyph glyph-name="uni0406" unicode="&#x406;" horiz-adv-x="614" 
d="M502 1434v-1434h-389v1434h389z" />
    <glyph glyph-name="uni0407" unicode="&#x407;" horiz-adv-x="614" 
d="M236 1767v-245h-310v245h310zM688 1767v-245h-309v245h309zM502 1434v-1434h-389v1434h389z" />
    <glyph glyph-name="uni0408" unicode="&#x408;" horiz-adv-x="663" 
d="M551 1434v-1065q0 -194 -100.5 -284.5t-309.5 -90.5h-121v356h78q26 0 45 20.5t19 45.5v1018h389z" />
    <glyph glyph-name="uni0409" unicode="&#x409;" horiz-adv-x="2211" 
d="M1661 969q117 0 213 -27.5t170.5 -84t116 -151.5t41.5 -223q0 -127 -41.5 -222t-116 -151t-170.5 -83t-213 -27h-600v1077h-479v-708q0 -194 -100.5 -284.5t-309.5 -90.5h-152v356h109q26 0 45 20.5t19 45.5v1018h1257v-465h211zM1632 332q75 0 121.5 36.5t46.5 114.5
q0 80 -46.5 117t-121.5 37h-182v-305h182z" />
    <glyph glyph-name="uni040A" unicode="&#x40a;" horiz-adv-x="2142" 
d="M1591 969q117 0 213 -27.5t170.5 -84t116 -151.5t41.5 -223q0 -127 -41.5 -222t-116 -151t-170.5 -83t-213 -27h-600v637h-489v-637h-389v1434h389v-465h489v465h389v-465h211zM1563 332q75 0 121.5 36.5t46.5 114.5q0 80 -46.5 117t-121.5 37h-183v-305h183z" />
    <glyph glyph-name="uni040B" unicode="&#x40b;" horiz-adv-x="1617" 
d="M1090 926q250 0 368.5 -105.5t118.5 -331.5v-489h-389v422q0 74 -35 110.5t-111 36.5h-274v-569h-389v1073h-369v361h758h461v-361h-461v-147h322z" />
    <glyph glyph-name="uni040C" unicode="&#x40c;" horiz-adv-x="1585" 
d="M1223 1767l-383 -245h-269l263 245h389zM1585 0h-541l-542 664v-664h-389v1434h389v-631l483 631h504l-563 -682z" />
    <glyph glyph-name="uni040E" unicode="&#x40e;" horiz-adv-x="1562" 
d="M793 1473q-175 0 -271 78t-104 218h250q0 -51 32.5 -81.5t92.5 -30.5t92.5 30.5t32.5 81.5h249q-8 -140 -103.5 -218t-270.5 -78zM1122 1434h441l-701 -1434h-440l149 305l-571 1129h469l328 -666z" />
    <glyph glyph-name="uni040F" unicode="&#x40f;" horiz-adv-x="1499" 
d="M1386 1434v-1434h-452v-287h-369v287h-452v1434h389v-1078h495v1078h389z" />
    <glyph glyph-name="uni0410" unicode="&#x410;" horiz-adv-x="1525" 
d="M1096 0l-88 268h-490l-88 -268h-430l555 1434h416l555 -1434h-430zM616 575h293l-145 449z" />
    <glyph glyph-name="uni0411" unicode="&#x411;" horiz-adv-x="1294" 
d="M713 969q117 0 212.5 -27.5t170.5 -84t116 -151.5t41 -223q0 -102 -27.5 -183.5t-75.5 -137t-116.5 -92.5t-148 -53.5t-172.5 -16.5h-600v1434h389h672v-332h-672v-133h211zM684 332q75 0 121.5 36.5t46.5 114.5q0 80 -46.5 117t-121.5 37h-182v-305h182z" />
    <glyph glyph-name="uni0412" unicode="&#x412;" horiz-adv-x="1312" 
d="M965 754q297 -52 297 -346q0 -109 -40 -190t-112.5 -127.5t-163 -68.5t-201.5 -22h-632v1434h630q215 0 338 -86.5t123 -272.5q0 -236 -239 -317v-4zM678 1112h-176v-246h176q71 0 112 31.5t41 95.5q0 61 -41 90t-112 29zM682 322q184 0 184 139q0 72 -46 103.5
t-138 31.5h-180v-274h180z" />
    <glyph glyph-name="uni0413" unicode="&#x413;" horiz-adv-x="1030" 
d="M1020 1434v-357h-518v-1077h-389v1434h907z" />
    <glyph glyph-name="uni0414" unicode="&#x414;" horiz-adv-x="1554" 
d="M1368 301h176v-588h-393v256h-748v-256h-393v588h180q68 204 68 438v695h1110v-1133zM651 735q0 -239 -63 -434h387v776h-324v-342z" />
    <glyph glyph-name="uni0415" unicode="&#x415;" horiz-adv-x="1118" 
d="M502 356h555v-356h-944v1434h913v-357h-524v-170h461v-338h-461v-213z" />
    <glyph glyph-name="uni0416" unicode="&#x416;" horiz-adv-x="2371" 
d="M2372 0h-519l-483 698v-698h-369v698l-483 -698h-518l571 752l-495 682h497l428 -664v664h369v-664l428 664h498l-496 -682z" />
    <glyph glyph-name="uni0417" unicode="&#x417;" horiz-adv-x="1300" 
d="M645 1464q258 0 402.5 -99t144.5 -267q0 -136 -73.5 -223.5t-219.5 -116.5v-4q170 -25 260 -109.5t90 -251.5q0 -71 -19 -131.5t-64 -115.5t-114.5 -93.5t-175.5 -61t-241 -22.5q-396 0 -625 140l166 319q214 -111 438 -111q232 0 232 117q0 141 -338 141h-146v310h150
q143 0 215 37t72 92q0 58 -49.5 82t-149.5 24q-173 0 -407 -102l-142 332q278 114 594 114z" />
    <glyph glyph-name="uni0418" unicode="&#x418;" horiz-adv-x="1597" 
d="M113 1434h389v-791h4l676 791h303v-1434h-389v791h-4l-676 -791h-303v1434z" />
    <glyph glyph-name="uni0419" unicode="&#x419;" horiz-adv-x="1597" 
d="M1204 1769q-8 -140 -104 -218t-271 -78t-270.5 78t-103.5 218h250q0 -51 32 -81.5t92 -30.5t92.5 30.5t32.5 81.5h250zM113 1434h389v-791h4l676 791h303v-1434h-389v791h-4l-676 -791h-303v1434z" />
    <glyph glyph-name="uni041A" unicode="&#x41a;" horiz-adv-x="1585" 
d="M1585 0h-541l-542 664v-664h-389v1434h389v-631l483 631h504l-563 -682z" />
    <glyph glyph-name="uni041B" unicode="&#x41b;" horiz-adv-x="1531" 
d="M1419 1434v-1434h-389v1077h-459v-708q0 -194 -100.5 -284.5t-308.5 -90.5h-142v356h99q26 0 44.5 20.5t18.5 45.5v1018h1237z" />
    <glyph glyph-name="uni041C" unicode="&#x41c;" horiz-adv-x="1923" 
d="M1520 1434l403 -1434h-395l-201 715h-4l-233 -520h-256l-234 520h-4l-201 -715h-395l403 1434h289l269 -625h2l268 625h289z" />
    <glyph glyph-name="uni041D" unicode="&#x41d;" horiz-adv-x="1492" 
d="M991 1434h389v-1434h-389v557h-489v-557h-389v1434h389v-521h489v521z" />
    <glyph glyph-name="uni041E" unicode="&#x41e;" horiz-adv-x="1589" 
d="M795 1464q159 0 299 -54t243 -150t162.5 -236.5t59.5 -306.5q0 -220 -102 -392t-275.5 -264t-386.5 -92t-386.5 92t-275.5 264t-102 392q0 166 59.5 306.5t162.5 236.5t243 150t299 54zM795 1075q-156 0 -255.5 -97t-99.5 -261t100 -261.5t255 -97.5t254.5 97.5
t99.5 261.5t-99.5 261t-254.5 97z" />
    <glyph glyph-name="uni041F" unicode="&#x41f;" horiz-adv-x="1492" 
d="M1380 1434v-1434h-389v1077h-489v-1077h-389v1434h1267z" />
    <glyph glyph-name="uni0420" unicode="&#x420;" horiz-adv-x="1263" 
d="M672 1434q150 0 263 -38t181.5 -107t102.5 -159.5t34 -201.5t-34 -201.5t-102.5 -159.5t-181.5 -107t-263 -38h-170v-422h-389v1434h559zM662 766q88 0 139 41.5t51 120.5t-51 120.5t-139 41.5h-160v-324h160z" />
    <glyph glyph-name="uni0421" unicode="&#x421;" horiz-adv-x="1359" 
d="M819 -31q-167 0 -310.5 50.5t-250 144.5t-167 236.5t-60.5 316.5q0 231 105 402.5t282 258t401 86.5q304 0 531 -157l-205 -334q-79 55 -152 81.5t-162 26.5q-167 0 -279 -96.5t-112 -267.5t112.5 -268t278.5 -97q89 0 162 27t152 82l205 -334q-228 -158 -531 -158z" />
    <glyph glyph-name="uni0422" unicode="&#x422;" horiz-adv-x="1126" 
d="M1116 1434v-357h-358v-1077h-389v1077h-359v357h1106z" />
    <glyph glyph-name="uni0423" unicode="&#x423;" horiz-adv-x="1562" 
d="M1122 1434h441l-701 -1434h-440l149 305l-571 1129h469l328 -666z" />
    <glyph glyph-name="uni0424" unicode="&#x424;" horiz-adv-x="1845" 
d="M1815 717q0 -141 -45 -258.5t-131.5 -205.5t-222 -138t-308.5 -54v-133h-371v133q-173 4 -308.5 54t-222 138t-131 205.5t-44.5 258.5t44.5 258.5t131 205t222 137.5t308.5 54v133h371v-133q173 -4 308.5 -54t222 -137.5t131.5 -205t45 -258.5zM449 717
q0 -69 14.5 -122.5t48.5 -98t96 -69t150 -26.5v631q-88 -2 -150 -26.5t-96 -68.5t-48.5 -97.5t-14.5 -122.5zM1087 401q88 2 150 26.5t96 69t49 98t15 122.5t-15 122.5t-49 97.5t-96 68.5t-150 26.5v-631z" />
    <glyph glyph-name="uni0425" unicode="&#x425;" horiz-adv-x="1638" 
d="M1638 0h-491l-328 455l-327 -455h-492l563 762l-510 672h492l274 -369l275 369h491l-510 -672z" />
    <glyph glyph-name="uni0426" unicode="&#x426;" horiz-adv-x="1570" 
d="M1374 332h187v-623h-369v291h-1079v1434h389v-1102h483v1102h389v-1102z" />
    <glyph glyph-name="uni0427" unicode="&#x427;" horiz-adv-x="1351" 
d="M850 1434h389v-1434h-389v508h-322q-250 0 -368.5 105t-118.5 331v490h389v-422q0 -75 35 -111.5t110 -36.5h275v570z" />
    <glyph glyph-name="uni0428" unicode="&#x428;" horiz-adv-x="2179" 
d="M113 0v1434h389v-1102h393v1102h389v-1102h393v1102h389v-1434h-1953z" />
    <glyph glyph-name="uni0429" unicode="&#x429;" horiz-adv-x="2263" 
d="M2066 332h187v-619h-369v287h-1771v1434h389v-1102h393v1102h389v-1102h393v1102h389v-1102z" />
    <glyph glyph-name="uni042A" unicode="&#x42a;" horiz-adv-x="1531" 
d="M981 969q117 0 213 -27.5t170.5 -84t116 -151.5t41.5 -223q0 -127 -41.5 -222t-116 -151t-170.5 -83t-213 -27h-600v1077h-371v357h674h86v-465h211zM952 332q75 0 121.5 36.5t46.5 114.5q0 80 -46.5 117t-121.5 37h-182v-305h182z" />
    <glyph glyph-name="uni042B" unicode="&#x42b;" horiz-adv-x="1865" 
d="M713 969q117 0 212.5 -27.5t170.5 -84t116 -151.5t41 -223q0 -102 -27.5 -183.5t-75.5 -137t-116.5 -92.5t-148 -53.5t-172.5 -16.5h-600v1434h389v-465h211zM1364 1434h389v-1434h-389v1434zM684 332q75 0 121.5 36.5t46.5 114.5q0 80 -46.5 117t-121.5 37h-182v-305
h182z" />
    <glyph glyph-name="uni042C" unicode="&#x42c;" horiz-adv-x="1263" 
d="M713 969q117 0 212.5 -27.5t170.5 -84t116 -151.5t41 -223q0 -102 -27.5 -183.5t-75.5 -137t-116.5 -92.5t-148 -53.5t-172.5 -16.5h-600v1434h389v-465h211zM684 332q75 0 121.5 36.5t46.5 114.5q0 80 -46.5 117t-121.5 37h-182v-305h182z" />
    <glyph glyph-name="uni042D" unicode="&#x42d;" horiz-adv-x="1359" 
d="M539 1464q134 0 253.5 -31.5t217.5 -95t169.5 -152t110.5 -208.5t39 -260q0 -174 -60.5 -316.5t-167 -236.5t-250.5 -144.5t-312 -50.5q-301 0 -529 158l197 340q163 -113 340 -113q129 0 219.5 55t128.5 158h-467v320h459q-41 94 -129 143t-211 49q-178 0 -340 -112
l-197 340q227 157 529 157z" />
    <glyph glyph-name="uni042E" unicode="&#x42e;" horiz-adv-x="2228" 
d="M1434 1464q159 0 299 -54t243 -150t162.5 -236.5t59.5 -306.5q0 -220 -102 -392t-275.5 -264t-386.5 -92q-281 0 -487.5 158.5t-260.5 423.5h-184v-551h-389v1434h389v-551h184q35 175 142 307.5t264 203t342 70.5zM1434 358q155 0 254.5 97.5t99.5 261.5t-99.5 261
t-254.5 97q-156 0 -255.5 -97t-99.5 -261t100 -261.5t255 -97.5z" />
    <glyph glyph-name="uni042F" unicode="&#x42f;" horiz-adv-x="1398" 
d="M662 1434h624v-1434h-389v551l-381 -551h-485l397 532q-152 51 -229.5 166.5t-77.5 264.5q0 96 32 179t95.5 149t170 104.5t243.5 38.5zM715 1090q-191 0 -191 -152q0 -78 50 -117t141 -39h182v308h-182z" />
    <glyph glyph-name="uni0430" unicode="&#x430;" horiz-adv-x="1236" 
d="M479 -31q-92 0 -171.5 31t-142 91.5t-98.5 158.5t-36 223t36 223t98.5 158.5t142 91.5t171.5 31q207 0 303 -152h4v121h379v-946h-379v121h-4q-96 -152 -303 -152zM594 299q76 0 125 47t49 127t-49 127t-125 47t-125 -47t-49 -127t49 -127t125 -47z" />
    <glyph glyph-name="uni0431" unicode="&#x431;" horiz-adv-x="1181" 
d="M616 -31q-96 0 -180.5 22t-159.5 73t-129 127.5t-85 192t-31 259.5q0 225 75.5 383t221.5 231q31 16 73.5 31.5t88 28.5t80.5 22.5t74.5 19t45.5 11.5q37 11 52 27t18 49h356q0 -270 -194 -336q-21 -7 -199 -48.5t-246 -78.5q-74 -43 -105.5 -114t-31.5 -199h6
q16 74 53.5 129t88 86t105.5 46t116 15q190 0 316 -130t126 -345q0 -225 -144.5 -363.5t-390.5 -138.5zM610 299q76 0 125 47t49 127t-49 127t-125 47t-125 -47t-49 -127t49 -127t125 -47z" />
    <glyph glyph-name="uni0432" unicode="&#x432;" horiz-adv-x="1132" 
d="M901 506q97 -10 149 -70t52 -160q0 -78 -30.5 -134t-83.5 -86t-113 -43t-130 -13h-673v946h698q152 0 227.5 -60t75.5 -163q0 -90 -41 -140.5t-131 -70.5v-6zM573 748h-122v-175h122q105 0 105 86q0 46 -25.5 67.5t-79.5 21.5zM578 197q118 0 118 96q0 52 -28.5 75
t-89.5 23h-127v-194h127z" />
    <glyph glyph-name="uni0433" unicode="&#x433;" horiz-adv-x="765" 
d="M766 946v-342h-315v-604h-379v946h694z" />
    <glyph glyph-name="uni0434" unicode="&#x434;" horiz-adv-x="1284" 
d="M1139 240h125v-506h-328v219h-598v-219h-328v506h119q37 65 52.5 129t15.5 153v424h350h483h109v-706zM547 539q0 -167 -60 -299h299v426h-239v-127z" />
    <glyph glyph-name="uni0435" unicode="&#x435;" horiz-adv-x="1052" 
d="M545 975q227 0 357 -132t130 -392v-66h-651q23 -67 80 -96t155 -29q110 0 240 53l100 -276q-169 -68 -352 -68q-272 0 -422.5 130.5t-150.5 371.5q0 244 141.5 374t372.5 130zM526 731q-62 0 -105.5 -39t-47.5 -112h301q0 74 -42.5 112.5t-105.5 38.5z" />
    <glyph glyph-name="uni0436" unicode="&#x436;" horiz-adv-x="1906" 
d="M1907 0h-465l-309 471v-471h-359v471l-309 -471h-465l395 498l-319 448h436l262 -407v407h359v-407l262 407h436l-320 -448z" />
    <glyph glyph-name="uni0437" unicode="&#x437;" horiz-adv-x="958" 
d="M436 -31q-244 0 -426 64l92 254q190 -64 338 -64q69 0 96 16t27 46q0 34 -30.5 49.5t-106.5 15.5h-178v248h178q94 0 94 68q0 34 -23 48.5t-79 14.5q-63 0 -146 -15t-151 -38l-72 252q211 49 420 49q426 0 426 -250q0 -189 -242 -219v-4q65 -6 111.5 -19t85.5 -39
t58.5 -71.5t19.5 -110.5q0 -138 -118.5 -216.5t-373.5 -78.5z" />
    <glyph glyph-name="uni0438" unicode="&#x438;" horiz-adv-x="1236" 
d="M72 0v946h358v-479h4l383 479h348v-946h-358v479h-4l-383 -479h-348z" />
    <glyph glyph-name="uni0439" unicode="&#x439;" horiz-adv-x="1236" 
d="M991 1372q0 -156 -107 -258t-266 -102t-266.5 102t-107.5 258h231q10 -141 143 -141q134 0 144 141h229zM72 0v946h358v-479h4l383 479h348v-946h-358v479h-4l-383 -479h-348z" />
    <glyph glyph-name="uni043A" unicode="&#x43a;" horiz-adv-x="1224" 
d="M1225 0h-486l-288 414v-414h-379v946h379v-366l303 366h456l-413 -430z" />
    <glyph glyph-name="uni043B" unicode="&#x43b;" horiz-adv-x="1230" 
d="M1149 946v-946h-379v604h-235v-178q0 -235 -103.5 -336.5t-308.5 -101.5h-113v346h53q48 0 70.5 23t22.5 85v504h993z" />
    <glyph glyph-name="uni043C" unicode="&#x43c;" horiz-adv-x="1495" 
d="M987 422h-6l-129 -309h-209l-129 309h-6l-119 -422h-369l304 946h268l151 -375h9l151 375h268l304 -946h-369z" />
    <glyph glyph-name="uni043D" unicode="&#x43d;" horiz-adv-x="1177" 
d="M727 946h379v-946h-379v317h-276v-317h-379v946h379v-287h276v287z" />
    <glyph glyph-name="uni043E" unicode="&#x43e;" horiz-adv-x="1146" 
d="M573 -31q-241 0 -391.5 138t-150.5 366t150.5 366t391.5 138t392 -138t151 -366t-151 -366t-392 -138zM573 299q80 0 132.5 47t52.5 127t-52.5 127t-132.5 47t-132 -47t-52 -127t52 -127t132 -47z" />
    <glyph glyph-name="uni043F" unicode="&#x43f;" horiz-adv-x="1177" 
d="M1106 946v-946h-379v604h-276v-604h-379v946h379h655z" />
    <glyph glyph-name="uni0440" unicode="&#x440;" horiz-adv-x="1236" 
d="M72 -410v1356h379v-121h4q96 152 303 152q92 0 171.5 -31t142 -91.5t98.5 -158.5t36 -223t-36 -223t-98.5 -158.5t-142 -91.5t-171.5 -31q-207 0 -303 152h-4v-531h-379zM635 299q81 0 132.5 46t51.5 128t-51.5 128t-132.5 46t-132.5 -46t-51.5 -128t51.5 -128t132.5 -46
z" />
    <glyph glyph-name="uni0441" unicode="&#x441;" horiz-adv-x="931" 
d="M571 -31q-239 0 -389.5 136t-150.5 368t150.5 368t389.5 136q194 0 351 -90l-146 -297q-77 49 -170 49q-83 0 -134.5 -46t-51.5 -120t51.5 -120t134.5 -46q93 0 170 49l146 -297q-157 -90 -351 -90z" />
    <glyph glyph-name="uni0442" unicode="&#x442;" horiz-adv-x="972" 
d="M973 946v-338h-297v-608h-379v608h-297v338h676h297z" />
    <glyph glyph-name="uni0443" unicode="&#x443;" horiz-adv-x="1214" 
d="M844 946h370l-651 -1356h-379l248 510l-432 846h422l199 -459z" />
    <glyph glyph-name="uni0444" unicode="&#x444;" horiz-adv-x="1826" 
d="M735 -410v531h-4q-43 -73 -109.5 -112.5t-172.5 -39.5q-187 0 -297.5 127t-110.5 377t110.5 377t297.5 127q106 0 172.5 -39.5t109.5 -112.5h4v557h357v-557h4q43 73 109.5 112.5t172.5 39.5q187 0 297.5 -127t110.5 -377t-110.5 -377t-297.5 -127q-106 0 -172.5 39.5
t-109.5 112.5h-4v-531h-357zM582 668q-85 0 -128.5 -51t-43.5 -144q0 -92 43.5 -143t128.5 -51q84 0 130 51.5t46 142.5q0 92 -46 143.5t-130 51.5zM1247 668q-85 0 -131.5 -51.5t-46.5 -143.5t46 -143t132 -51q83 0 126.5 51t43.5 143t-43.5 143.5t-126.5 51.5z" />
    <glyph glyph-name="uni0445" unicode="&#x445;" horiz-adv-x="1216" 
d="M791 0l-183 258l-182 -258h-426l385 492l-362 454h428l157 -219l158 219h428l-363 -454l386 -492h-426z" />
    <glyph glyph-name="uni0446" unicode="&#x446;" horiz-adv-x="1251" 
d="M1106 342h125v-608h-328v266h-452h-379v946h379v-604h276v604h379v-604z" />
    <glyph glyph-name="uni0447" unicode="&#x447;" horiz-adv-x="1107" 
d="M647 946h379v-946h-379v279h-239q-218 0 -308 84t-90 296v287h369v-260q0 -58 28 -83t87 -25h153v368z" />
    <glyph glyph-name="uni0448" unicode="&#x448;" horiz-adv-x="1832" 
d="M1382 946h379v-946h-379h-655h-594h-61v946h379v-604h276v604h379v-604h276v604z" />
    <glyph glyph-name="uni0449" unicode="&#x449;" horiz-adv-x="1906" 
d="M1761 342h125v-608h-327v266h-453h-655h-379v946h379v-604h276v604h379v-604h276v604h379v-604z" />
    <glyph glyph-name="uni044A" unicode="&#x44a;" horiz-adv-x="1292" 
d="M903 696q170 0 269.5 -93t99.5 -255t-99.5 -255t-269.5 -93h-596v604h-307v342h653h33v-250h217zM784 244q61 0 95 26t34 78t-34 78.5t-95 26.5h-98v-209h98z" />
    <glyph glyph-name="uni044B" unicode="&#x44b;" horiz-adv-x="1564" 
d="M668 696q170 0 269 -93t99 -255t-99 -255t-269 -93h-596v946h379v-250h217zM1114 946h379v-946h-379v946zM549 244q61 0 95 26t34 78t-34 78.5t-95 26.5h-98v-209h98z" />
    <glyph glyph-name="uni044C" unicode="&#x44c;" horiz-adv-x="1056" 
d="M668 696q170 0 269 -93t99 -255t-99 -255t-269 -93h-596v946h379v-250h217zM549 244q61 0 95 26t34 78t-34 78.5t-95 26.5h-98v-209h98z" />
    <glyph glyph-name="uni044D" unicode="&#x44d;" horiz-adv-x="942" 
d="M387 977q110 0 202.5 -32t162.5 -93.5t109.5 -158.5t39.5 -220t-39.5 -220t-109.5 -158.5t-162.5 -93.5t-202.5 -32q-103 0 -204 26t-173 64l135 277q95 -49 213 -49q159 0 203 112h-280v148h280q-44 112 -203 112q-118 0 -213 -49l-135 277q72 38 173 64t204 26z" />
    <glyph glyph-name="uni044E" unicode="&#x44e;" horiz-adv-x="1673" 
d="M1100 977q241 0 391.5 -138t150.5 -366t-150.5 -366t-391.5 -138q-197 0 -336 92.5t-186 255.5h-127v-317h-379v946h379v-317h127q47 163 186 255.5t336 92.5zM1100 299q80 0 132 47t52 127t-52 127t-132 47t-132.5 -47t-52.5 -127t52.5 -127t132.5 -47z" />
    <glyph glyph-name="uni044F" unicode="&#x44f;" horiz-adv-x="1173" 
d="M430 946h672v-946h-379v340l-268 -340h-435l269 319q-107 36 -164 119t-57 187q0 153 102 237t260 84zM604 705q-123 0 -123 -99q0 -45 31.5 -70.5t91.5 -25.5h119v195h-119z" />
    <glyph glyph-name="uni0451" unicode="&#x451;" horiz-adv-x="1052" 
d="M498 1339v-297h-265v297h265zM862 1339v-297h-264v297h264zM545 975q227 0 357 -132t130 -392v-66h-651q23 -67 80 -96t155 -29q110 0 240 53l100 -276q-169 -68 -352 -68q-272 0 -422.5 130.5t-150.5 371.5q0 244 141.5 374t372.5 130zM526 731q-62 0 -105.5 -39
t-47.5 -112h301q0 74 -42.5 112.5t-105.5 38.5z" />
    <glyph glyph-name="uni0452" unicode="&#x452;" horiz-adv-x="1196" 
d="M776 977q161 0 254.5 -97t93.5 -286v-594q0 -198 -112.5 -304t-319.5 -106h-123v342h64q49 0 80.5 27t31.5 107v423q0 84 -32.5 125t-100.5 41q-69 0 -110 -48.5t-41 -147.5v-459h-379v1104h-143v205h143v125h379v-125h241v-205h-241v-285h4q116 158 311 158z" />
    <glyph glyph-name="uni0453" unicode="&#x453;" horiz-adv-x="765" 
d="M530 1346h418l-385 -316h-297zM766 946v-342h-315v-604h-379v946h694z" />
    <glyph glyph-name="uni0454" unicode="&#x454;" horiz-adv-x="942" 
d="M584 287q118 0 213 49l135 -277q-72 -38 -173 -64t-204 -26q-110 0 -202.5 32t-162.5 93.5t-109.5 158.5t-39.5 220t39.5 220t109.5 158.5t162.5 93.5t202.5 32q103 0 204 -26t173 -64l-135 -277q-95 49 -213 49q-159 0 -203 -112h281v-148h-281q44 -112 203 -112z" />
    <glyph glyph-name="uni0455" unicode="&#x455;" horiz-adv-x="929" 
d="M473 -31q-261 0 -463 101l121 270q188 -102 342 -107q76 -2 76 31q0 16 -13.5 24.5t-50.5 20.5l-143 47q-129 42 -194.5 113t-65.5 190q0 150 107.5 234t326.5 84q153 0 358 -47l-81 -281q-177 70 -306 70q-57 0 -57 -27q0 -23 47 -37l170 -55q131 -42 196.5 -109.5
t65.5 -193.5q0 -167 -115 -247.5t-321 -80.5z" />
    <glyph glyph-name="uni0456" unicode="&#x456;" horiz-adv-x="542" 
d="M465 1434v-355h-387v355h387zM461 946v-946h-379v946h379z" />
    <glyph glyph-name="uni0457" unicode="&#x457;" horiz-adv-x="542" 
d="M242 1339v-297h-265v297h265zM565 1339v-297h-264v297h264zM461 946v-946h-379v946h379z" />
    <glyph glyph-name="uni0458" unicode="&#x458;" horiz-adv-x="542" 
d="M465 1434v-355h-387v355h387zM-82 -63h43q59 0 90 38t31 111v860h379v-842q0 -267 -107.5 -393.5t-333.5 -126.5h-102v353z" />
    <glyph glyph-name="uni0459" unicode="&#x459;" horiz-adv-x="1734" 
d="M10 -12v346h33q48 0 70 23t22 85v504h993v-250h218q170 0 269 -93t99 -255t-99 -255t-269 -93h-596v604h-236v-178q0 -235 -103.5 -336.5t-308.5 -101.5h-92zM1128 244h99q61 0 95 26t34 78t-34 78.5t-95 26.5h-99v-209z" />
    <glyph glyph-name="uni045A" unicode="&#x45a;" horiz-adv-x="1712" 
d="M1323 696q170 0 269.5 -93t99.5 -255t-99.5 -255t-269.5 -93h-596v434h-276v-434h-379v946h379v-250h276v250h379v-250h217zM1204 244q129 0 129 94q0 96 -129 96h-98v-190h98z" />
    <glyph glyph-name="uni045B" unicode="&#x45b;" horiz-adv-x="1196" 
d="M776 977q161 0 254.5 -97t93.5 -286v-594h-379v489q0 84 -32.5 125t-100.5 41q-69 0 -110 -48.5t-41 -147.5v-459h-379v1104h-143v205h143v125h379v-125h241v-205h-241v-285h4q116 158 311 158z" />
    <glyph glyph-name="uni045C" unicode="&#x45c;" horiz-adv-x="1224" 
d="M1081 1346l-385 -316h-297l265 316h417zM1225 0h-486l-288 414v-414h-379v946h379v-366l303 366h456l-413 -430z" />
    <glyph glyph-name="uni045E" unicode="&#x45e;" horiz-adv-x="1214" 
d="M629 1012q-159 0 -267 102t-108 258h231q10 -141 144 -141q133 0 143 141h229q0 -156 -106.5 -258t-265.5 -102zM844 946h370l-651 -1356h-379l248 510l-432 846h422l199 -459z" />
    <glyph glyph-name="uni045F" unicode="&#x45f;" horiz-adv-x="1177" 
d="M727 946h379v-946h-332v-266h-371v266h-331v946h379v-608h276v608z" />
    <glyph glyph-name="uni0462" unicode="&#x462;" horiz-adv-x="1361" 
d="M811 969q117 0 213 -27.5t170.5 -84t116 -151.5t41.5 -223q0 -127 -41.5 -222t-116 -151t-170.5 -83t-213 -27h-600v1065h-201v266h201v103h389v-103h404v-266h-404v-96h211zM782 332q75 0 121.5 36.5t46.5 114.5q0 80 -46.5 117t-121.5 37h-182v-305h182z" />
    <glyph glyph-name="uni0463" unicode="&#x463;" horiz-adv-x="1107" 
d="M719 696q170 0 269 -93t99 -255t-99 -255t-269 -93h-596v791h-184v155h184v488h379v-488h262v-155h-262v-95h217zM600 252q56 0 87.5 24.5t31.5 71.5t-31.5 71.5t-87.5 24.5h-98v-192h98z" />
    <glyph glyph-name="uni0472" unicode="&#x472;" horiz-adv-x="1589" 
d="M795 1464q159 0 299 -54t243 -150t162.5 -236.5t59.5 -306.5q0 -220 -102 -392t-275.5 -264t-386.5 -92t-386.5 92t-275.5 264t-102 392q0 166 59.5 306.5t162.5 236.5t243 150t299 54zM795 1096q-138 0 -236 -74t-129 -203h729q-31 130 -128.5 203.5t-235.5 73.5z
M795 338q138 0 236 73.5t128 202.5h-729q30 -129 128.5 -202.5t236.5 -73.5z" />
    <glyph glyph-name="uni0473" unicode="&#x473;" horiz-adv-x="1146" 
d="M573 977q241 0 392 -138t151 -366t-151 -366t-392 -138t-391.5 138t-150.5 366t150.5 366t391.5 138zM573 678q-76 0 -131.5 -38t-74.5 -105h413q-19 67 -75 105t-132 38zM573 268q76 0 132 38.5t75 105.5h-413q19 -67 74.5 -105.5t131.5 -38.5z" />
    <glyph glyph-name="uni0474" unicode="&#x474;" horiz-adv-x="1556" 
d="M1358 1012l-373 -1012h-428l-557 1434h463l307 -967h4l191 561q32 94 58 154t63.5 117t81.5 87.5t107 49t146 18.5q50 0 135 -10v-336q-44 6 -65 6q-54 0 -83.5 -25t-49.5 -77z" />
    <glyph glyph-name="uni0475" unicode="&#x475;" horiz-adv-x="1167" 
d="M1085 965h82v-324h-20q-41 0 -67.5 -18t-49.5 -70l-244 -553h-383l-403 946h414l184 -534l115 315q51 137 135 187.5t237 50.5z" />
    <glyph glyph-name="uni048E" unicode="&#x48e;" horiz-adv-x="1263" 
d="M1253 928q0 -141 -55.5 -251.5t-167.5 -174.5l64 -90l-127 -93l-88 125q-96 -22 -207 -22h-170v-422h-389v1434h559q150 0 263 -38t181.5 -107t102.5 -159.5t34 -201.5zM709 958l100 -143q43 43 43 113q0 79 -51 120.5t-139 41.5h-160v-324h151l-71 100z" />
    <glyph glyph-name="uni048F" unicode="&#x48f;" horiz-adv-x="1236" 
d="M1206 473q0 -264 -155 -399l67 -82l-119 -96l-81 100q-74 -27 -160 -27q-207 0 -303 152h-4v-531h-379v1356h379v-121h4q96 152 303 152q92 0 171.5 -31t142 -91.5t98.5 -158.5t36 -223zM635 299q23 0 33 2l-88 107l118 96l99 -121q22 39 22 90q0 82 -51.5 128t-132.5 46
t-132.5 -46t-51.5 -128t51.5 -128t132.5 -46z" />
    <glyph glyph-name="uni0490" unicode="&#x490;" horiz-adv-x="1060" 
d="M662 1720h389v-643h-549v-1077h-389v1434h549v286z" />
    <glyph glyph-name="uni0491" unicode="&#x491;" horiz-adv-x="868" 
d="M500 1151h368v-547h-417v-604h-379v946h428v205z" />
    <glyph glyph-name="uni0492" unicode="&#x492;" horiz-adv-x="1083" 
d="M1073 1077h-518v-280h387v-308h-387v-489h-389v489h-156v308h156v637h907v-357z" />
    <glyph glyph-name="uni0493" unicode="&#x493;" horiz-adv-x="858" 
d="M858 604h-315v-131h221v-246h-221v-227h-379v227h-154v246h154v473h694v-342z" />
    <glyph glyph-name="uni0494" unicode="&#x494;" horiz-adv-x="1390" 
d="M936 895q208 0 311 -85t103 -271v-408q0 -144 -40 -250.5t-114 -169t-170 -92t-217 -29.5h-123v357h86q42 0 72.5 6.5t58.5 23.5t43 51t15 85v354q0 51 -28.5 70.5t-92.5 19.5q-87 0 -338 -22v-535h-389v1434h907v-357h-518v-205q256 23 434 23z" />
    <glyph glyph-name="uni0495" unicode="&#x495;" horiz-adv-x="1163" 
d="M727 498q84 0 154 -19.5t128 -61.5t91 -115.5t33 -172.5v-119q0 -105 -35 -187t-96 -132t-139.5 -75.5t-170.5 -25.5h-117v342h70q49 0 84 26t35 71v69q0 49 -24.5 66.5t-90.5 17.5q-77 0 -198 -22v-160h-379v946h854v-342h-475v-127q157 21 276 21z" />
    <glyph glyph-name="uni0496" unicode="&#x496;" horiz-adv-x="2373" 
d="M2193 236h201v-523h-389v287h-152l-483 698v-698h-369v698l-483 -698h-518l571 752l-495 682h497l428 -664v664h369v-664l428 664h498l-496 -682z" />
    <glyph glyph-name="uni0497" unicode="&#x497;" horiz-adv-x="2013" 
d="M1784 154h209v-420h-328v266h-223l-309 471v-471h-359v471l-309 -471h-465l395 498l-319 448h436l262 -407v407h359v-407l262 407h436l-320 -448z" />
    <glyph glyph-name="uni0498" unicode="&#x498;" horiz-adv-x="1300" 
d="M1249 393q0 -68 -17.5 -127t-59.5 -112.5t-106.5 -92.5t-162.5 -63.5t-223 -28.5l-18 -45q94 -12 142 -48t48 -91q0 -26 -10 -47.5t-33.5 -40t-49 -32.5t-68 -29.5t-78.5 -26.5t-93 -28l-51 -15l-39 88q95 40 127.5 59.5t32.5 38.5q0 17 -12.5 27t-28 14t-53.5 12l67 166
q-344 10 -553 138l166 319q214 -111 438 -111q232 0 232 117q0 141 -338 141h-146v310h150q143 0 215 37t72 92q0 58 -49.5 82t-149.5 24q-173 0 -407 -102l-142 332q278 114 594 114q258 0 402.5 -99t144.5 -267q0 -136 -73.5 -223.5t-219.5 -116.5v-4q170 -25 260 -109.5
t90 -251.5z" />
    <glyph glyph-name="uni0499" unicode="&#x499;" horiz-adv-x="958" 
d="M928 264q0 -259 -387 -291l-21 -49q94 -12 142.5 -48t48.5 -91q0 -26 -10 -47.5t-33.5 -40t-49 -32.5t-68 -29.5t-78.5 -26.5t-93 -28l-51 -15l-39 88q95 40 127.5 59.5t32.5 38.5q0 17 -13 27t-28 14t-54 12l66 164q-235 3 -410 64l92 254q190 -64 338 -64q69 0 96 16
t27 46q0 34 -30.5 49.5t-106.5 15.5h-178v248h178q94 0 94 68q0 34 -23 48.5t-79 14.5q-63 0 -146 -15t-151 -38l-72 252q211 49 420 49q426 0 426 -250q0 -189 -242 -219v-4q65 -6 111.5 -19t85.5 -39t58.5 -71.5t19.5 -110.5z" />
    <glyph glyph-name="uni049A" unicode="&#x49a;" horiz-adv-x="1589" 
d="M1378 236h232v-523h-389v287h-177l-542 664v-664h-389v1434h389v-631l483 631h504l-563 -682z" />
    <glyph glyph-name="uni049B" unicode="&#x49b;" horiz-adv-x="1316" 
d="M1098 154h198v-420h-327v266h-230l-288 414v-414h-379v946h379v-366l303 366h456l-413 -430z" />
    <glyph glyph-name="uni049C" unicode="&#x49c;" horiz-adv-x="1769" 
d="M1239 0l-432 578h-68v-228h-123v228h-114v-578h-389v1434h389v-500h114v225h123v-225h90l340 500h504l-540 -682l636 -752h-530z" />
    <glyph glyph-name="uni049D" unicode="&#x49d;" horiz-adv-x="1288" 
d="M840 0l-232 362h-41v-161h-57v161h-59v-362h-379v946h379v-297h59v164h57v-164h33l211 297h420l-348 -438l405 -508h-448z" />
    <glyph glyph-name="uni049E" unicode="&#x49e;" horiz-adv-x="1662" 
d="M1663 0h-541l-542 664v-664h-390v1112h-180v225h180v97h390v-97h163v-225h-163v-309l483 631h504l-563 -682z" />
    <glyph glyph-name="uni049F" unicode="&#x49f;" horiz-adv-x="1234" 
d="M1235 0h-485l-289 414v-414h-379v1104h-143v205h143v125h379v-125h241v-205h-241v-508l241 350h457l-352 -430z" />
    <glyph glyph-name="uni04A0" unicode="&#x4a0;" horiz-adv-x="1869" 
d="M1870 0h-541l-543 664v-664h-389v1077h-387v357h768h8v-631l484 631h504l-564 -682z" />
    <glyph glyph-name="uni04A1" unicode="&#x4a1;" horiz-adv-x="1460" 
d="M1460 0h-485l-289 414v-414h-379v606h-307v340h602h84v-366l303 366h457l-414 -430z" />
    <glyph glyph-name="uni04A2" unicode="&#x4a2;" horiz-adv-x="1492" 
d="M1380 236h195v-523h-389v287h-195v557h-489v-557h-389v1434h389v-521h489v521h389v-1198z" />
    <glyph glyph-name="uni04A3" unicode="&#x4a3;" horiz-adv-x="1290" 
d="M1106 154h164v-420h-328v266h-215v317h-276v-317h-379v946h379v-287h276v287h379v-792z" />
    <glyph glyph-name="uni04A4" unicode="&#x4a4;" horiz-adv-x="1861" 
d="M1851 1434v-357h-491v-1077h-389v557h-469v-557h-389v1434h389v-521h469v521h880z" />
    <glyph glyph-name="uni04A5" unicode="&#x4a5;" horiz-adv-x="1413" 
d="M1413 946v-317h-307v-629h-379v317h-276v-317h-379v946h379v-287h276v287h686z" />
    <glyph glyph-name="uni04A6" unicode="&#x4a6;" horiz-adv-x="2246" 
d="M1802 936q203 0 303.5 -87t100.5 -274v-163q0 -204 -127.5 -308t-352.5 -104h-102v356h84q58 0 88.5 19.5t30.5 79.5v53q0 51 -28.5 70.5t-92.5 19.5q-73 0 -326 -23v-575h-389v1077h-489v-1077h-389v1434h1267v-521q250 23 422 23z" />
    <glyph glyph-name="uni04A7" unicode="&#x4a7;" horiz-adv-x="1816" 
d="M1380 641q84 0 154 -19.5t128 -61.5t91 -115.5t33 -172.5v-262q0 -105 -34.5 -187t-95.5 -132t-139.5 -75.5t-170.5 -25.5h-109v342h74q106 0 106 97v213q0 84 -114 84q-71 0 -197 -23v-303h-379v604h-276v-604h-379v946h379h614h41v-323q162 18 274 18z" />
    <glyph glyph-name="uni04A8" unicode="&#x4a8;" horiz-adv-x="1742" 
d="M1733 33q-146 -64 -326 -64q-177 0 -313 60q-137 -58 -299 -58q-339 0 -541.5 207t-202.5 547q0 352 220.5 545.5t609.5 193.5q123 0 227 -16l-59 -342q-44 8 -107 8q-228 0 -352.5 -100t-124.5 -305q0 -160 74.5 -267t201.5 -145q-79 135 -79 301q0 211 126.5 321.5
t337.5 110.5q209 0 329 -108t120 -306q0 -211 -133 -364q101 0 219 37zM1126 733q-122 0 -122 -155q0 -143 104 -230q63 41 99 103.5t36 140.5q0 141 -117 141z" />
    <glyph glyph-name="uni04A9" unicode="&#x4a9;" horiz-adv-x="1269" 
d="M1204 190l56 -182q-103 -39 -195 -39q-125 0 -217 72q-102 -72 -287 -72q-244 0 -387 136.5t-143 371.5q0 130 47 228.5t131 156.5t191.5 86.5t238.5 28.5q112 0 252 -21l-53 -239q-64 12 -131 12q-151 0 -240.5 -64t-89.5 -198q0 -87 44 -148.5t128 -89.5
q-31 70 -31 148q0 146 97.5 223.5t252.5 77.5q147 0 239.5 -72.5t92.5 -208.5q0 -143 -104 -237q52 9 108 30zM864 430q-39 0 -62.5 -24.5t-23.5 -73.5q0 -65 39 -107q57 14 92 45t35 76q0 37 -21 60.5t-59 23.5z" />
    <glyph glyph-name="uni04AA" unicode="&#x4aa;" horiz-adv-x="1359" 
d="M1350 127q-207 -145 -478 -156l-20 -47q94 -12 142 -48t48 -91q0 -26 -10 -47.5t-33.5 -40t-49 -32.5t-68 -29.5t-78.5 -26.5t-93 -28l-51 -15l-38 88q95 40 127 59.5t32 38.5q0 17 -12.5 27t-28 14t-53.5 12l68 166q-155 10 -287 65t-229 148.5t-152 230.5t-55 302
q0 231 105 402.5t282 258t401 86.5q304 0 531 -157l-205 -334q-79 55 -152 81.5t-162 26.5q-167 0 -279 -96.5t-112 -267.5t112.5 -268t278.5 -97q89 0 162 27t152 82z" />
    <glyph glyph-name="uni04AB" unicode="&#x4ab;" horiz-adv-x="931" 
d="M922 59q-141 -80 -312 -90l-20 -45q94 -12 142 -48t48 -91q0 -26 -10 -47.5t-33.5 -40t-49 -32.5t-68 -29.5t-78.5 -26.5t-93 -28l-51 -15l-39 88q95 40 127.5 59.5t32.5 38.5q0 17 -12.5 27t-28 14t-53.5 12l68 168q-207 22 -334 155t-127 345q0 232 150.5 368
t389.5 136q194 0 351 -90l-146 -297q-77 49 -170 49q-83 0 -134.5 -46t-51.5 -120t51.5 -120t134.5 -46q93 0 170 49z" />
    <glyph glyph-name="uni04AC" unicode="&#x4ac;" horiz-adv-x="1126" 
d="M1116 1077h-358v-841h186v-523h-389v287h-186v1077h-359v357h1106v-357z" />
    <glyph glyph-name="uni04AD" unicode="&#x4ad;" horiz-adv-x="972" 
d="M973 608h-297v-454h164v-420h-328v266h-215v608h-297v338h676h297v-338z" />
    <glyph glyph-name="uni04AE" unicode="&#x4ae;" horiz-adv-x="1501" 
d="M1501 1434l-555 -951v-483h-391v479l-555 955h465l283 -576h6l282 576h465z" />
    <glyph glyph-name="uni04AF" unicode="&#x4af;" horiz-adv-x="1189" 
d="M1190 946l-406 -942v-414h-378v414l-406 942h414l182 -528l180 528h414z" />
    <glyph glyph-name="uni04B0" unicode="&#x4b0;" horiz-adv-x="1501" 
d="M1501 1434l-524 -899h209v-267h-240v-268h-391v268h-238v267h205l-522 899h465l283 -576h6l282 576h465z" />
    <glyph glyph-name="uni04B1" unicode="&#x4b1;" horiz-adv-x="1189" 
d="M784 4h222v-237h-222v-177h-378v177h-222v237h222l-406 942h414l182 -528l180 528h414z" />
    <glyph glyph-name="uni04B2" unicode="&#x4b2;" horiz-adv-x="1755" 
d="M1464 236h312v-523h-390v287h-239l-328 455l-327 -455h-492l563 762l-510 672h492l274 -369l275 369h491l-510 -672z" />
    <glyph glyph-name="uni04B3" unicode="&#x4b3;" horiz-adv-x="1216" 
d="M1096 154h151v-420h-327v266h-129l-183 258l-182 -258h-426l385 492l-362 454h428l157 -219l158 219h428l-363 -454z" />
    <glyph glyph-name="uni04B4" unicode="&#x4b4;" horiz-adv-x="1847" 
d="M1651 332h186v-623h-369v291h-1079v1073h-379v361h768h277v-361h-277v-741h484v1102h389v-1102z" />
    <glyph glyph-name="uni04B5" unicode="&#x4b5;" horiz-adv-x="1470" 
d="M1325 342h125v-608h-328v266h-452h-379v608h-291v338h670h159v-338h-159v-266h276v604h379v-604z" />
    <glyph glyph-name="uni04B6" unicode="&#x4b6;" horiz-adv-x="1454" 
d="M1239 236h236v-523h-390v287h-235v508h-322q-250 0 -368.5 105t-118.5 331v490h389v-422q0 -75 35 -111.5t110 -36.5h275v570h389v-1198z" />
    <glyph glyph-name="uni04B7" unicode="&#x4b7;" horiz-adv-x="1210" 
d="M1026 154h164v-420h-328v266h-215v279h-239q-218 0 -308 84t-90 296v287h369v-260q0 -58 28 -83t87 -25h153v368h379v-792z" />
    <glyph glyph-name="uni04B8" unicode="&#x4b8;" horiz-adv-x="1351" 
d="M850 1434h389v-1434h-389v508h-127v-232h-123v232h-72q-250 0 -368.5 105t-118.5 331v490h389v-422q0 -75 35 -111.5t110 -36.5h25v221h123v-221h127v570z" />
    <glyph glyph-name="uni04B9" unicode="&#x4b9;" horiz-adv-x="1107" 
d="M647 946h379v-946h-379v279h-90v-138h-61v138h-88q-218 0 -308 84t-90 296v287h369v-260q0 -58 28 -83t87 -25h2v176h61v-176h90v368z" />
    <glyph glyph-name="uni04BA" unicode="&#x4ba;" horiz-adv-x="1351" 
d="M823 926q250 0 369 -105.5t119 -331.5v-489h-389v422q0 74 -35 110.5t-111 36.5h-274v-569h-389v1434h389v-508h321z" />
    <glyph glyph-name="uni04BB" unicode="&#x4bb;" horiz-adv-x="1196" 
d="M461 1434v-615h4q116 158 311 158q161 0 254.5 -97t93.5 -286v-594h-379v489q0 84 -32.5 125t-100.5 41q-69 0 -110 -48.5t-41 -147.5v-459h-379v1434h379z" />
    <glyph glyph-name="uni04BC" unicode="&#x4bc;" horiz-adv-x="2013" 
d="M1982 700v-141h-1083q85 -221 404 -221q194 0 428 78l112 -353q-264 -94 -534 -94q-331 0 -551 156t-269 434h-20q-100 0 -181.5 24t-144.5 73.5t-98 133t-35 193.5q0 96 25 166h330q-25 -70 -25 -148q0 -135 125 -135h22q47 272 251.5 435t521.5 163q348 0 535 -200.5
t187 -563.5zM1239 1126q-140 0 -233 -64.5t-123 -195.5h694q-21 132 -110.5 196t-227.5 64z" />
    <glyph glyph-name="uni04BD" unicode="&#x4bd;" horiz-adv-x="1333" 
d="M1313 451v-66h-651q23 -67 80 -96t155 -29q110 0 240 53l100 -276q-169 -68 -352 -68q-247 0 -394.5 107.5t-173.5 308.5h-34q-131 0 -202 68.5t-71 193.5q0 47 15 113h223q-15 -66 -15 -101q0 -43 19.5 -61t58.5 -18h8q21 129 92 219t176 133t238 43q227 0 357.5 -132
t130.5 -392zM653 580h301q0 74 -42 112.5t-105 38.5q-62 0 -106 -39t-48 -112z" />
    <glyph glyph-name="uni04BE" unicode="&#x4be;" horiz-adv-x="2013" 
d="M1982 700v-141h-1083q85 -221 404 -221q194 0 428 78l112 -353q-77 -27 -141 -43q-94 -82 -139 -131t-45 -79q0 -18 15 -29.5t36 -11.5q28 0 76 10l28 -234q-27 -2 -59.5 -6t-53 -6t-34.5 -2q-260 0 -260 190q0 110 145 252q-70 -4 -102 -4q-331 0 -551 156t-269 434h-20
q-100 0 -181.5 24t-144.5 73.5t-98 133t-35 193.5q0 96 25 166h330q-25 -70 -25 -148q0 -135 125 -135h22q47 272 251.5 435t521.5 163q348 0 535 -200.5t187 -563.5zM1239 1126q-140 0 -233 -64.5t-123 -195.5h694q-21 132 -110.5 196t-227.5 64z" />
    <glyph glyph-name="uni04BF" unicode="&#x4bf;" horiz-adv-x="1333" 
d="M1313 451v-66h-651q23 -67 80 -96t155 -29q110 0 240 53l100 -276l-49 -19q-93 -80 -137.5 -129t-44.5 -79q0 -18 15 -29.5t36 -11.5q28 0 76 10l28 -234q-27 -2 -59.5 -6t-53 -6t-34.5 -2q-260 0 -260 190q0 110 141 248h-10q-247 0 -394.5 107.5t-173.5 308.5h-34
q-131 0 -202 68.5t-71 193.5q0 47 15 113h223q-15 -66 -15 -101q0 -43 19.5 -61t58.5 -18h8q21 129 92 219t176 133t238 43q227 0 357.5 -132t130.5 -392zM653 580h301q0 74 -42 112.5t-105 38.5q-62 0 -106 -39t-48 -112z" />
    <glyph glyph-name="uni04C0" unicode="&#x4c0;" horiz-adv-x="614" 
d="M502 1434v-1434h-389v1434h389z" />
    <glyph glyph-name="uni04C1" unicode="&#x4c1;" horiz-adv-x="2371" 
d="M1186 1473q-175 0 -271 78t-104 218h250q0 -51 32.5 -81.5t92.5 -30.5t92.5 30.5t32.5 81.5h250q-8 -140 -104 -218t-271 -78zM2372 0h-519l-483 698v-698h-369v698l-483 -698h-518l571 752l-495 682h497l428 -664v664h369v-664l428 664h498l-496 -682z" />
    <glyph glyph-name="uni04C2" unicode="&#x4c2;" horiz-adv-x="1906" 
d="M954 1012q-159 0 -266.5 102t-107.5 258h231q10 -141 143 -141q134 0 144 141h229q0 -156 -107 -258t-266 -102zM1907 0h-465l-309 471v-471h-359v471l-309 -471h-465l395 498l-319 448h436l262 -407v407h359v-407l262 407h436l-320 -448z" />
    <glyph glyph-name="uni04C3" unicode="&#x4c3;" horiz-adv-x="1536" 
d="M1036 793q188 0 280.5 -80.5t92.5 -255.5v-326q0 -144 -40 -250.5t-114 -169t-170 -92t-217 -29.5h-123v357h86q42 0 72.5 6.5t58.5 23.5t43 51t15 85v272q0 51 -28.5 70.5t-92.5 19.5q-105 0 -397 -22v-453h-389v1434h389v-598l483 598h510l-606 -643q51 2 147 2z" />
    <glyph glyph-name="uni04C4" unicode="&#x4c4;" horiz-adv-x="1189" 
d="M725 506q84 0 154.5 -19t129 -59t91.5 -111t33 -167v-160q0 -100 -35 -177.5t-96 -125.5t-139.5 -72.5t-170.5 -24.5h-117v342h70q49 0 84 26t35 71v69q0 96 -24 129t-91 33q-106 0 -198 -10v-250h-379v946h379v-360l262 360h456z" />
    <glyph glyph-name="uni04C5" unicode="&#x4c5;" horiz-adv-x="1626" 
d="M1419 219h228l-201 -485h-301l100 266h-215v1077h-459v-708q0 -194 -100.5 -284.5t-308.5 -90.5h-142v356h99q26 0 44.5 20.5t18.5 45.5v1018h1237v-1215z" />
    <glyph glyph-name="uni04C6" unicode="&#x4c6;" horiz-adv-x="1355" 
d="M1149 219h227l-200 -485h-302l101 266h-205v604h-235v-178q0 -235 -103.5 -336.5t-308.5 -101.5h-113v346h53q48 0 70.5 23t22.5 85v504h379h614v-727z" />
    <glyph glyph-name="uni04C7" unicode="&#x4c7;" horiz-adv-x="1492" 
d="M991 1434h389v-1434v-4q0 -213 -117.5 -309.5t-322.5 -96.5h-149v357h81q51 0 85 23.5t34 76.5v510h-489v-557h-389v1434h389v-521h489v521z" />
    <glyph glyph-name="uni04C8" unicode="&#x4c8;" horiz-adv-x="1177" 
d="M727 946h379v-946q0 -198 -112.5 -304t-319.5 -106h-123v342h63q49 0 81 27t32 107v251h-276v-317h-379v946h379v-287h276v287z" />
    <glyph glyph-name="uni04C9" unicode="&#x4c9;" horiz-adv-x="1587" 
d="M1380 219h228l-201 -485h-301l100 266h-215v557h-489v-557h-389v1434h389v-521h489v521h389v-1215z" />
    <glyph glyph-name="uni04CA" unicode="&#x4ca;" horiz-adv-x="1312" 
d="M1106 219h227l-200 -485h-302l101 266h-205v317h-276v-317h-379v946h379v-287h276v287h379v-727z" />
    <glyph glyph-name="uni04CB" unicode="&#x4cb;" horiz-adv-x="1351" 
d="M1239 1434v-1434h-244v-287h-389v523h244v272h-322q-250 0 -368.5 105t-118.5 331v490h389v-422q0 -75 35 -111.5t110 -36.5h275v570h389z" />
    <glyph glyph-name="uni04CC" unicode="&#x4cc;" horiz-adv-x="1107" 
d="M1026 946v-946h-274v-266h-328v420h223v125h-239q-218 0 -308 84t-90 296v287h369v-260q0 -58 28 -83t87 -25h153v368h379z" />
    <glyph glyph-name="uni04CD" unicode="&#x4cd;" horiz-adv-x="2129" 
d="M1862 219h288l-200 -485h-301l100 266h-221l-201 715h-4l-233 -520h-256l-234 520h-4l-201 -715h-395l403 1434h289l269 -625h2l268 625h289z" />
    <glyph glyph-name="uni04CE" unicode="&#x4ce;" horiz-adv-x="1681" 
d="M1405 219h297l-201 -485h-301l100 266h-194l-119 422h-6l-129 -309h-209l-129 309h-6l-119 -422h-369l304 946h268l151 -375h9l151 375h268z" />
    <glyph glyph-name="uni04CF" unicode="&#x4cf;" horiz-adv-x="542" 
d="M461 946v-946h-379v946h379z" />
    <glyph glyph-name="uni04D0" unicode="&#x4d0;" horiz-adv-x="1525" 
d="M764 1473q-175 0 -271 78t-104 218h250q0 -51 32.5 -81.5t92.5 -30.5t92.5 30.5t32.5 81.5h250q-8 -140 -104 -218t-271 -78zM1096 0l-88 268h-490l-88 -268h-430l555 1434h416l555 -1434h-430zM616 575h293l-145 449z" />
    <glyph glyph-name="uni04D1" unicode="&#x4d1;" horiz-adv-x="1236" 
d="M981 1372q0 -156 -107 -258t-266 -102t-267 102t-108 258h232q10 -141 143 -141q134 0 144 141h229zM479 -31q-92 0 -171.5 31t-142 91.5t-98.5 158.5t-36 223t36 223t98.5 158.5t142 91.5t171.5 31q207 0 303 -152h4v121h379v-946h-379v121h-4q-96 -152 -303 -152z
M594 299q76 0 125 47t49 127t-49 127t-125 47t-125 -47t-49 -127t49 -127t125 -47z" />
    <glyph glyph-name="uni04D2" unicode="&#x4d2;" horiz-adv-x="1525" 
d="M692 1767v-245h-309v245h309zM1145 1767v-245h-309v245h309zM1096 0l-88 268h-490l-88 -268h-430l555 1434h416l555 -1434h-430zM616 575h293l-145 449z" />
    <glyph glyph-name="uni04D3" unicode="&#x4d3;" horiz-adv-x="1236" 
d="M557 1339v-297h-264v297h264zM922 1339v-297h-265v297h265zM479 -31q-92 0 -171.5 31t-142 91.5t-98.5 158.5t-36 223t36 223t98.5 158.5t142 91.5t171.5 31q207 0 303 -152h4v121h379v-946h-379v121h-4q-96 -152 -303 -152zM594 299q76 0 125 47t49 127t-49 127t-125 47
t-125 -47t-49 -127t49 -127t125 -47z" />
    <glyph glyph-name="uni04D4" unicode="&#x4d4;" horiz-adv-x="2160" 
d="M1585 356h514v-356h-610h-283v268h-555l-164 -268h-487l954 1434h631h483v-357h-483v-170h420v-338h-420v-213zM840 575h366v599z" />
    <glyph glyph-name="uni04D5" unicode="&#x4d5;" horiz-adv-x="1703" 
d="M1208 975q212 0 338.5 -135.5t126.5 -403.5v-51h-653q24 -67 81.5 -96t155.5 -29q110 0 240 53l100 -274q-168 -70 -358 -70q-311 0 -420 178h-4q-131 -178 -407 -178q-189 0 -293.5 90.5t-104.5 247.5t96.5 245.5t262.5 88.5q101 0 180.5 -33t120.5 -86h4v29
q0 80 -49 122t-162 42q-89 0 -262 -25l-41 256q190 31 336 31q140 0 225 -36.5t125 -121.5h4q49 72 139 114t219 42zM1167 731q-61 0 -105 -39t-48 -112h301q0 77 -42 114t-106 37zM555 424q-55 0 -88 -26.5t-33 -73.5q0 -48 33 -72.5t88 -24.5q56 0 89.5 28.5t33.5 68.5
q0 44 -33 72t-90 28z" />
    <glyph glyph-name="uni04D6" unicode="&#x4d6;" horiz-adv-x="1118" 
d="M584 1473q-175 0 -271 78t-104 218h250q0 -51 32.5 -81.5t92.5 -30.5t92.5 30.5t32.5 81.5h249q-8 -140 -103.5 -218t-270.5 -78zM502 356h555v-356h-944v1434h913v-357h-524v-170h461v-338h-461v-213z" />
    <glyph glyph-name="uni04D7" unicode="&#x4d7;" horiz-adv-x="1052" 
d="M922 1372q0 -156 -107 -258t-266 -102t-267 102t-108 258h232q10 -141 143 -141t143 141h230zM545 975q227 0 357 -132t130 -392v-66h-651q23 -67 80 -96t155 -29q110 0 240 53l100 -276q-169 -68 -352 -68q-272 0 -422.5 130.5t-150.5 371.5q0 244 141.5 374t372.5 130z
M526 731q-62 0 -105.5 -39t-47.5 -112h301q0 74 -42.5 112.5t-105.5 38.5z" />
    <glyph glyph-name="uni04D8" unicode="&#x4d8;" horiz-adv-x="1568" 
d="M731 1464q180 0 327 -46.5t254.5 -138t166.5 -234.5t59 -328q0 -344 -199 -546t-551 -202q-175 0 -318 56.5t-239 157t-148 241.5t-52 309v141h1091q-40 123 -141.5 172.5t-265.5 49.5q-99 0 -222.5 -22.5t-216.5 -55.5l-106 364q123 38 276.5 60t284.5 22zM788 307
q299 0 349 260h-703q19 -135 114 -197.5t240 -62.5z" />
    <glyph glyph-name="uni04D9" unicode="&#x4d9;" horiz-adv-x="1052" 
d="M508 -29q-227 0 -357.5 132.5t-130.5 392.5v65h652q-23 67 -80.5 96t-155.5 29q-109 0 -239 -53l-101 276q169 68 353 68q272 0 422.5 -130.5t150.5 -371.5q0 -244 -141.5 -374t-372.5 -130zM526 215q62 0 106 39.5t48 112.5h-301q0 -74 42 -113t105 -39z" />
    <glyph glyph-name="uni04DA" unicode="&#x4da;" horiz-adv-x="1568" 
d="M692 1767v-245h-309v245h309zM1145 1767v-245h-309v245h309zM731 1464q180 0 327 -46.5t254.5 -138t166.5 -234.5t59 -328q0 -344 -199 -546t-551 -202q-175 0 -318 56.5t-239 157t-148 241.5t-52 309v141h1091q-40 123 -141.5 172.5t-265.5 49.5q-99 0 -222.5 -22.5
t-216.5 -55.5l-106 364q123 38 276.5 60t284.5 22zM788 307q299 0 349 260h-703q19 -135 114 -197.5t240 -62.5z" />
    <glyph glyph-name="uni04DB" unicode="&#x4db;" horiz-adv-x="1052" 
d="M483 1339v-297h-264v297h264zM848 1339v-297h-264v297h264zM508 -29q-227 0 -357.5 132.5t-130.5 392.5v65h652q-23 67 -80.5 96t-155.5 29q-109 0 -239 -53l-101 276q169 68 353 68q272 0 422.5 -130.5t150.5 -371.5q0 -244 -141.5 -374t-372.5 -130zM526 215
q62 0 106 39.5t48 112.5h-301q0 -74 42 -113t105 -39z" />
    <glyph glyph-name="uni04DC" unicode="&#x4dc;" horiz-adv-x="2371" 
d="M1114 1767v-245h-309v245h309zM1567 1767v-245h-310v245h310zM2372 0h-519l-483 698v-698h-369v698l-483 -698h-518l571 752l-495 682h497l428 -664v664h369v-664l428 664h498l-496 -682z" />
    <glyph glyph-name="uni04DD" unicode="&#x4dd;" horiz-adv-x="1906" 
d="M903 1339v-297h-264v297h264zM1268 1339v-297h-264v297h264zM1907 0h-465l-309 471v-471h-359v471l-309 -471h-465l395 498l-319 448h436l262 -407v407h359v-407l262 407h436l-320 -448z" />
    <glyph glyph-name="uni04DE" unicode="&#x4de;" horiz-adv-x="1300" 
d="M580 1767v-245h-310v245h310zM1032 1767v-245h-309v245h309zM645 1464q258 0 402.5 -99t144.5 -267q0 -136 -73.5 -223.5t-219.5 -116.5v-4q170 -25 260 -109.5t90 -251.5q0 -71 -19 -131.5t-64 -115.5t-114.5 -93.5t-175.5 -61t-241 -22.5q-396 0 -625 140l166 319
q214 -111 438 -111q232 0 232 117q0 141 -338 141h-146v310h150q143 0 215 37t72 92q0 58 -49.5 82t-149.5 24q-173 0 -407 -102l-142 332q278 114 594 114z" />
    <glyph glyph-name="uni04DF" unicode="&#x4df;" horiz-adv-x="958" 
d="M412 1339v-297h-265v297h265zM776 1339v-297h-264v297h264zM436 -31q-244 0 -426 64l92 254q190 -64 338 -64q69 0 96 16t27 46q0 34 -30.5 49.5t-106.5 15.5h-178v248h178q94 0 94 68q0 34 -23 48.5t-79 14.5q-63 0 -146 -15t-151 -38l-72 252q211 49 420 49
q426 0 426 -250q0 -189 -242 -219v-4q65 -6 111.5 -19t85.5 -39t58.5 -71.5t19.5 -110.5q0 -138 -118.5 -216.5t-373.5 -78.5z" />
    <glyph glyph-name="uni04E0" unicode="&#x4e0;" horiz-adv-x="1179" 
d="M557 -31q-310 0 -547 117l164 356q99 -48 187.5 -73t189.5 -25q105 0 149.5 28t44.5 81q0 145 -284 145h-180v264l266 219h-414v353h928v-265l-432 -323q52 20 123 20q176 0 291.5 -112.5t115.5 -302.5q0 -238 -145.5 -360t-456.5 -122z" />
    <glyph glyph-name="uni04E1" unicode="&#x4e1;" horiz-adv-x="1024" 
d="M426 -440q-257 0 -467 104l141 313q187 -88 326 -88q83 0 134.5 34.5t51.5 99.5q0 139 -225 139h-211v229l283 232h-408v323h850v-264l-377 -295q49 10 101 10q158 0 258 -102t100 -285q0 -75 -17.5 -140t-59 -123t-104.5 -98.5t-159 -64.5t-217 -24z" />
    <glyph glyph-name="uni04E2" unicode="&#x4e2;" horiz-adv-x="1597" 
d="M1182 1743v-223h-707v223h707zM113 1434h389v-791h4l676 791h303v-1434h-389v791h-4l-676 -791h-303v1434z" />
    <glyph glyph-name="uni04E3" unicode="&#x4e3;" horiz-adv-x="1236" 
d="M958 1311v-238h-679v238h679zM72 0v946h358v-479h4l383 479h348v-946h-358v479h-4l-383 -479h-348z" />
    <glyph glyph-name="uni04E4" unicode="&#x4e4;" horiz-adv-x="1597" 
d="M758 1767v-245h-309v245h309zM1210 1767v-245h-309v245h309zM113 1434h389v-791h4l676 791h303v-1434h-389v791h-4l-676 -791h-303v1434z" />
    <glyph glyph-name="uni04E5" unicode="&#x4e5;" horiz-adv-x="1236" 
d="M567 1339v-297h-264v297h264zM932 1339v-297h-264v297h264zM72 0v946h358v-479h4l383 479h348v-946h-358v479h-4l-383 -479h-348z" />
    <glyph glyph-name="uni04E6" unicode="&#x4e6;" horiz-adv-x="1589" 
d="M723 1767v-245h-309v245h309zM1176 1767v-245h-310v245h310zM795 1464q159 0 299 -54t243 -150t162.5 -236.5t59.5 -306.5q0 -220 -102 -392t-275.5 -264t-386.5 -92t-386.5 92t-275.5 264t-102 392q0 166 59.5 306.5t162.5 236.5t243 150t299 54zM795 1075
q-156 0 -255.5 -97t-99.5 -261t100 -261.5t255 -97.5t254.5 97.5t99.5 261.5t-99.5 261t-254.5 97z" />
    <glyph glyph-name="uni04E7" unicode="&#x4e7;" horiz-adv-x="1146" 
d="M522 1339v-297h-264v297h264zM887 1339v-297h-264v297h264zM573 -31q-241 0 -391.5 138t-150.5 366t150.5 366t391.5 138t392 -138t151 -366t-151 -366t-392 -138zM573 299q80 0 132.5 47t52.5 127t-52.5 127t-132.5 47t-132 -47t-52 -127t52 -127t132 -47z" />
    <glyph glyph-name="uni04E8" unicode="&#x4e8;" horiz-adv-x="1589" 
d="M795 1464q159 0 299 -54t243 -150t162.5 -236.5t59.5 -306.5q0 -220 -102 -392t-275.5 -264t-386.5 -92t-386.5 92t-275.5 264t-102 392q0 166 59.5 306.5t162.5 236.5t243 150t299 54zM795 1096q-138 0 -236 -74t-129 -203h729q-31 130 -128.5 203.5t-235.5 73.5z
M795 338q138 0 236 73.5t128 202.5h-729q30 -129 128.5 -202.5t236.5 -73.5z" />
    <glyph glyph-name="uni04E9" unicode="&#x4e9;" horiz-adv-x="1146" 
d="M573 977q241 0 392 -138t151 -366t-151 -366t-392 -138t-391.5 138t-150.5 366t150.5 366t391.5 138zM573 678q-76 0 -131.5 -38t-74.5 -105h413q-19 67 -75 105t-132 38zM573 268q76 0 132 38.5t75 105.5h-413q19 -67 74.5 -105.5t131.5 -38.5z" />
    <glyph glyph-name="uni04EA" unicode="&#x4ea;" horiz-adv-x="1589" 
d="M723 1767v-245h-309v245h309zM1176 1767v-245h-310v245h310zM795 1464q159 0 299 -54t243 -150t162.5 -236.5t59.5 -306.5q0 -220 -102 -392t-275.5 -264t-386.5 -92t-386.5 92t-275.5 264t-102 392q0 166 59.5 306.5t162.5 236.5t243 150t299 54zM795 1096
q-138 0 -236 -74t-129 -203h729q-31 130 -128.5 203.5t-235.5 73.5zM795 338q138 0 236 73.5t128 202.5h-729q30 -129 128.5 -202.5t236.5 -73.5z" />
    <glyph glyph-name="uni04EB" unicode="&#x4eb;" horiz-adv-x="1146" 
d="M522 1339v-297h-264v297h264zM887 1339v-297h-264v297h264zM573 977q241 0 392 -138t151 -366t-151 -366t-392 -138t-391.5 138t-150.5 366t150.5 366t391.5 138zM573 678q-76 0 -131.5 -38t-74.5 -105h413q-19 67 -75 105t-132 38zM573 268q76 0 132 38.5t75 105.5h-413
q19 -67 74.5 -105.5t131.5 -38.5z" />
    <glyph glyph-name="uni04EC" unicode="&#x4ec;" horiz-adv-x="1359" 
d="M532 1767v-245h-309v245h309zM985 1767v-245h-309v245h309zM539 1464q134 0 253.5 -31.5t217.5 -95t169.5 -152t110.5 -208.5t39 -260q0 -174 -60.5 -316.5t-167 -236.5t-250.5 -144.5t-312 -50.5q-301 0 -529 158l197 340q163 -113 340 -113q129 0 219.5 55t128.5 158
h-467v320h459q-41 94 -129 143t-211 49q-178 0 -340 -112l-197 340q227 157 529 157z" />
    <glyph glyph-name="uni04ED" unicode="&#x4ed;" horiz-adv-x="942" 
d="M356 1339v-297h-264v297h264zM721 1339v-297h-264v297h264zM387 977q110 0 202.5 -32t162.5 -93.5t109.5 -158.5t39.5 -220t-39.5 -220t-109.5 -158.5t-162.5 -93.5t-202.5 -32q-103 0 -204 26t-173 64l135 277q95 -49 213 -49q159 0 203 112h-280v148h280
q-44 112 -203 112q-118 0 -213 -49l-135 277q72 38 173 64t204 26z" />
    <glyph glyph-name="uni04EE" unicode="&#x4ee;" horiz-adv-x="1562" 
d="M1145 1743v-223h-707v223h707zM1122 1434h441l-701 -1434h-440l149 305l-571 1129h469l328 -666z" />
    <glyph glyph-name="uni04EF" unicode="&#x4ef;" horiz-adv-x="1214" 
d="M969 1311v-238h-680v238h680zM844 946h370l-651 -1356h-379l248 510l-432 846h422l199 -459z" />
    <glyph glyph-name="uni04F0" unicode="&#x4f0;" horiz-adv-x="1562" 
d="M721 1767v-245h-309v245h309zM1174 1767v-245h-310v245h310zM1122 1434h441l-701 -1434h-440l149 305l-571 1129h469l328 -666z" />
    <glyph glyph-name="uni04F1" unicode="&#x4f1;" horiz-adv-x="1214" 
d="M578 1339v-297h-265v297h265zM942 1339v-297h-264v297h264zM844 946h370l-651 -1356h-379l248 510l-432 846h422l199 -459z" />
    <glyph glyph-name="uni04F2" unicode="&#x4f2;" horiz-adv-x="1562" 
d="M1044 1767l-245 -245h-256l229 245h272zM1178 1522h-256l229 245h272zM1122 1434h441l-701 -1434h-440l149 305l-571 1129h469l328 -666z" />
    <glyph glyph-name="uni04F3" unicode="&#x4f3;" horiz-adv-x="1214" 
d="M879 1346l-326 -316h-272l290 316h308zM963 1030h-273l291 316h307zM621 487l223 459h370l-651 -1356h-379l248 510l-432 846h422z" />
    <glyph glyph-name="uni04F4" unicode="&#x4f4;" horiz-adv-x="1351" 
d="M569 1767v-245h-309v245h309zM1022 1767v-245h-309v245h309zM850 1434h389v-1434h-389v508h-322q-250 0 -368.5 105t-118.5 331v490h389v-422q0 -75 35 -111.5t110 -36.5h275v570z" />
    <glyph glyph-name="uni04F5" unicode="&#x4f5;" horiz-adv-x="1107" 
d="M463 1339v-297h-264v297h264zM827 1339v-297h-264v297h264zM647 946h379v-946h-379v279h-239q-218 0 -308 84t-90 296v287h369v-260q0 -58 28 -83t87 -25h153v368z" />
    <glyph glyph-name="uni04F8" unicode="&#x4f8;" horiz-adv-x="1865" 
d="M924 1767v-245h-310v245h310zM1376 1767v-245h-309v245h309zM713 969q117 0 212.5 -27.5t170.5 -84t116 -151.5t41 -223q0 -102 -27.5 -183.5t-75.5 -137t-116.5 -92.5t-148 -53.5t-172.5 -16.5h-600v1434h389v-465h211zM1364 1434h389v-1434h-389v1434zM684 332
q75 0 121.5 36.5t46.5 114.5q0 80 -46.5 117t-121.5 37h-182v-305h182z" />
    <glyph glyph-name="uni04F9" unicode="&#x4f9;" horiz-adv-x="1564" 
d="M756 1339v-297h-264v297h264zM1120 1339v-297h-264v297h264zM668 696q170 0 269 -93t99 -255t-99 -255t-269 -93h-596v946h379v-250h217zM1114 946h379v-946h-379v946zM549 244q61 0 95 26t34 78t-34 78.5t-95 26.5h-98v-209h98z" />
    <glyph glyph-name="uni04FC" unicode="&#x4fc;" horiz-adv-x="1585" 
d="M1075 762l303 -420q96 -132 137 -218t41 -183q0 -63 -14.5 -114t-51 -96t-94.5 -75.5t-149.5 -48t-212.5 -17.5h-86l2 357h66q86 0 86 69q0 28 -16.5 60t-57.5 88l-209 291l-327 -455h-492l563 762l-510 672h492l274 -369l275 369h491z" />
    <glyph glyph-name="uni04FD" unicode="&#x4fd;" horiz-adv-x="1173" 
d="M831 492l205 -261q113 -146 113 -303q0 -338 -432 -338h-123v342h84q92 0 92 66q0 22 -11 43t-42 63l-109 154l-182 -258h-426l385 492l-362 454h428l157 -219l158 219h428z" />
    <glyph glyph-name="uni0510" unicode="&#x510;" horiz-adv-x="1300" 
d="M655 1464q316 0 594 -114l-141 -332q-234 102 -408 102q-100 0 -149 -24t-49 -82q0 -56 71.5 -92.5t214.5 -36.5h150v-310h-145q-338 0 -338 -141q0 -117 231 -117q224 0 438 111l166 -319q-229 -140 -624 -140q-135 0 -241.5 22.5t-175.5 61t-114.5 93.5t-64.5 115.5
t-19 131.5q0 167 90 251.5t260 109.5v4q-145 29 -218.5 116.5t-73.5 223.5q0 168 144 267t402 99z" />
    <glyph glyph-name="uni0511" unicode="&#x511;" horiz-adv-x="958" 
d="M522 -31q-255 0 -373 78.5t-118 216.5q0 65 19.5 110.5t58.5 71.5t85 39t111 19v4q-242 30 -242 219q0 250 426 250q209 0 420 -49l-71 -252q-68 23 -151 38t-146 15q-57 0 -80 -14.5t-23 -48.5q0 -68 94 -68h179v-248h-179q-76 0 -106.5 -15.5t-30.5 -49.5q0 -30 27 -46
t96 -16q148 0 338 64l92 -254q-182 -64 -426 -64z" />
    <glyph glyph-name="uni0512" unicode="&#x512;" horiz-adv-x="1531" 
d="M182 1434h1237v-1434v-4q0 -213 -117.5 -309.5t-322.5 -96.5h-150v357h82q51 0 85 23.5t34 76.5v1030h-459v-708q0 -194 -100.5 -284.5t-308.5 -90.5h-142v356h99q26 0 44.5 20.5t18.5 45.5v1018z" />
    <glyph glyph-name="uni0513" unicode="&#x513;" horiz-adv-x="1230" 
d="M1149 946v-946q0 -198 -112.5 -304t-319.5 -106h-123v342h63q49 0 81 27t32 107v538h-235v-178q0 -235 -103.5 -336.5t-308.5 -101.5h-113v346h53q48 0 70.5 23t22.5 85v504h993z" />
    <glyph glyph-name="uni051C" unicode="&#x51c;" horiz-adv-x="2310" 
d="M2300 1434l-516 -1434h-324l-303 825h-4l-303 -825h-324l-516 1434h457l229 -785h4l291 785h328l291 -785h4l229 785h457z" />
    <glyph glyph-name="uni051D" unicode="&#x51d;" horiz-adv-x="1751" 
d="M1386 946h365l-362 -946h-316l-196 469l-199 -469h-313l-365 946h365l165 -457l177 457h340l176 -457z" />
    <glyph glyph-name="uni0524" unicode="&#x524;" horiz-adv-x="1574" 
d="M1380 236h215v-523h-389v287h-215v1077h-489v-1077h-389v1434h1267v-1198z" />
    <glyph glyph-name="uni0525" unicode="&#x525;" horiz-adv-x="1290" 
d="M1106 154h164v-420h-328v266h-215v604h-276v-604h-379v946h379h614h41v-792z" />
    <glyph glyph-name="uni0526" unicode="&#x526;" horiz-adv-x="1505" 
d="M1311 236h215v-523h-389v287h-215v422q0 74 -35 110.5t-111 36.5h-274v-569h-389v1434h389v-508h321q250 0 369 -105.5t119 -331.5v-253z" />
    <glyph glyph-name="uni0527" unicode="&#x527;" horiz-adv-x="1310" 
d="M1124 154h166v-420h-327v266h-218v489q0 84 -32.5 125t-100.5 41q-69 0 -110 -48.5t-41 -147.5v-459h-379v1434h379v-615h4q116 158 311 158q161 0 254.5 -97t93.5 -286v-440z" />
    <glyph glyph-name="uni0E3F" unicode="&#xe3f;" horiz-adv-x="1142" 
d="M831 688q230 -65 230 -323q0 -95 -32 -166.5t-89.5 -114t-131 -63.5t-161.5 -21h-45v-178h-57v178h-463v1382h463v179h57v-179h45q88 0 161.5 -21t131 -63t89.5 -113.5t32 -166.5q0 -259 -230 -324v-6zM545 1090h-125v-279h125v279zM602 811q64 3 103.5 39t39.5 106
q0 128 -143 134v-279zM420 293h125v278h-125v-278zM602 293q66 3 104.5 37t38.5 100q0 134 -143 141v-278z" />
    <glyph glyph-name="Wgrave" unicode="&#x1e80;" horiz-adv-x="2310" 
d="M1034 1767l262 -245h-268l-383 245h389zM2300 1434l-516 -1434h-324l-303 825h-4l-303 -825h-324l-516 1434h457l229 -785h4l291 785h328l291 -785h4l229 785h457z" />
    <glyph glyph-name="wgrave" unicode="&#x1e81;" horiz-adv-x="1751" 
d="M1049 1133h-297l-385 315h417zM1386 946h365l-362 -946h-316l-196 469l-199 -469h-313l-365 946h365l165 -457l177 457h340l176 -457z" />
    <glyph glyph-name="Wacute" unicode="&#x1e82;" horiz-adv-x="2310" 
d="M1665 1767l-383 -245h-268l262 245h389zM2300 1434l-516 -1434h-324l-303 825h-4l-303 -825h-324l-516 1434h457l229 -785h4l291 785h328l291 -785h4l229 785h457z" />
    <glyph glyph-name="wacute" unicode="&#x1e83;" horiz-adv-x="1751" 
d="M1384 1448l-385 -315h-297l265 315h417zM1386 946h365l-362 -946h-316l-196 469l-199 -469h-313l-365 946h365l165 -457l177 457h340l176 -457z" />
    <glyph glyph-name="Wdieresis" unicode="&#x1e84;" horiz-adv-x="2310" 
d="M1083 1767v-245h-309v245h309zM1536 1767v-245h-309v245h309zM2300 1434l-516 -1434h-324l-303 825h-4l-303 -825h-324l-516 1434h457l229 -785h4l291 785h328l291 -785h4l229 785h457z" />
    <glyph glyph-name="wdieresis" unicode="&#x1e85;" horiz-adv-x="1751" 
d="M825 1413v-297h-284v297h284zM1210 1413v-297h-284v297h284zM1386 946h365l-362 -946h-316l-196 469l-199 -469h-313l-365 946h365l165 -457l177 457h340l176 -457z" />
    <glyph glyph-name="Ygrave" unicode="&#x1ef2;" horiz-adv-x="1501" 
d="M893 1522h-268l-383 245h389zM1501 1434l-555 -951v-483h-391v479l-555 955h465l283 -576h6l282 576h465z" />
    <glyph glyph-name="ygrave" unicode="&#x1ef3;" horiz-adv-x="1214" 
d="M801 1133h-297l-385 315h418zM844 946h370l-651 -1356h-379l248 510l-432 846h422l199 -459z" />
    <glyph glyph-name="endash" unicode="&#x2013;" horiz-adv-x="1499" 
d="M1417 700v-286h-1335v286h1335z" />
    <glyph glyph-name="emdash" unicode="&#x2014;" horiz-adv-x="2363" 
d="M2261 700v-274h-2159v274h2159z" />
    <glyph glyph-name="quoteleft" unicode="&#x2018;" horiz-adv-x="423" 
d="M258 1276h125v-330h-332v330l174 332h137z" />
    <glyph glyph-name="quoteright" unicode="&#x2019;" horiz-adv-x="423" 
d="M41 1464h332v-329l-174 -332h-138l105 332h-125v329z" />
    <glyph glyph-name="quotesinglbase" unicode="&#x201a;" horiz-adv-x="423" 
d="M41 330h332v-330l-174 -332h-138l105 332h-125v330z" />
    <glyph glyph-name="quotedblleft" unicode="&#x201c;" horiz-adv-x="841" 
d="M362 1608l-104 -332h125v-330h-332v330l174 332h137zM676 1276h125v-330h-332v330l174 332h137z" />
    <glyph glyph-name="quotedblright" unicode="&#x201d;" horiz-adv-x="841" 
d="M41 1135v329h332v-329l-174 -332h-138l105 332h-125zM459 1464h332v-329l-175 -332h-137l105 332h-125v329z" />
    <glyph glyph-name="quotedblbase" unicode="&#x201e;" horiz-adv-x="841" 
d="M41 0v330h332v-330l-174 -332h-138l105 332h-125zM459 330h332v-330l-175 -332h-137l105 332h-125v330z" />
    <glyph glyph-name="dagger" unicode="&#x2020;" horiz-adv-x="1167" 
d="M1065 1001v-286h-328v-905h-307v905h-328v286h328v433h307v-433h328z" />
    <glyph glyph-name="daggerdbl" unicode="&#x2021;" horiz-adv-x="1167" 
d="M1065 815h-328v-344h328v-287h-328v-374h-307v374h-328v287h328v344h-328v287h328v332h307v-332h328v-287z" />
    <glyph glyph-name="bullet" unicode="&#x2022;" horiz-adv-x="847" 
d="M424 1038q126 0 208.5 -82t82.5 -208t-82.5 -208.5t-208.5 -82.5t-208.5 82.5t-82.5 208.5t82.5 208t208.5 82z" />
    <glyph glyph-name="ellipsis" unicode="&#x2026;" horiz-adv-x="1658" 
d="M453 385v-385h-381v385h381zM1020 385v-385h-381v385h381zM1587 385v-385h-381v385h381z" />
    <glyph glyph-name="perthousand" unicode="&#x2030;" horiz-adv-x="2422" 
d="M449 1413q153 0 249.5 -93.5t96.5 -244.5t-96.5 -244.5t-249.5 -93.5t-250 93.5t-97 244.5t97 244.5t250 93.5zM324 0l815 1382h184l-815 -1382h-184zM449 1235q-70 0 -115 -44.5t-45 -115.5t45 -115.5t115 -44.5t114.5 44.5t44.5 115.5t-44.5 115.5t-114.5 44.5z
M1219 666q153 0 249.5 -93.5t96.5 -244.5t-96.5 -244.5t-249.5 -93.5t-250 93.5t-97 244.5t97 244.5t250 93.5zM1974 666q153 0 249.5 -93.5t96.5 -244.5t-96.5 -244.5t-249.5 -93.5t-249.5 93.5t-96.5 244.5t96.5 244.5t249.5 93.5zM1219 487q-70 0 -115 -44t-45 -115
t45 -115.5t115 -44.5t114.5 44.5t44.5 115.5t-44.5 115t-114.5 44zM1974 487q-70 0 -114.5 -44t-44.5 -115t44.5 -115.5t114.5 -44.5t115 44.5t45 115.5t-45 115t-115 44z" />
    <glyph glyph-name="guilsinglleft" unicode="&#x2039;" horiz-adv-x="806" 
d="M786 872l-356 -380l356 -381h-399l-356 381l356 380h399z" />
    <glyph glyph-name="guilsinglright" unicode="&#x203a;" horiz-adv-x="806" 
d="M20 872h400l356 -380l-356 -381h-400l357 381z" />
    <glyph glyph-name="fraction" unicode="&#x2044;" horiz-adv-x="303" 
d="M-348 0l815 1382h184l-815 -1382h-184z" />
    <glyph glyph-name="uni2070" unicode="&#x2070;" horiz-adv-x="921" 
d="M461 692q-186 0 -293 126.5t-107 350.5t107 351t293 127q185 0 292 -126.5t107 -351.5t-106.5 -351t-292.5 -126zM461 977q51 0 76.5 51.5t25.5 140.5q0 90 -25.5 141.5t-76.5 51.5t-77 -52t-26 -141t26 -140.5t77 -51.5z" />
    <glyph glyph-name="uni2074" unicode="&#x2074;" horiz-adv-x="845" 
d="M815 1090v-250h-96v-127h-275v127h-424v223l429 563h270v-536h96zM276 1090h168v215h-6z" />
    <glyph glyph-name="uni2075" unicode="&#x2075;" horiz-adv-x="790" 
d="M362 692q-182 0 -321 64l106 264q41 -22 99.5 -37t113.5 -12q93 4 93 71q0 32 -17.5 49t-48.5 17q-51 0 -72 -37h-235l45 555h539v-264h-340l-7 -92h5q53 33 141 33q121 0 198.5 -78.5t77.5 -216.5q0 -147 -94 -231.5t-283 -84.5z" />
    <glyph glyph-name="uni2076" unicode="&#x2076;" horiz-adv-x="835" 
d="M436 692q-179 0 -282 98t-103 273q0 119 46 221t145 219l118 139h357l-340 -354l4 -2q70 62 149 62q119 0 197 -86.5t78 -225.5q0 -68 -21 -128t-64 -109.5t-116 -78t-168 -28.5zM426 952q34 0 56 22t22 56t-22 56t-56 22t-56 -22t-22 -56t22 -56t56 -22z" />
    <glyph glyph-name="uni2077" unicode="&#x2077;" horiz-adv-x="694" 
d="M16 713l349 622h-355v291h674v-266l-346 -647h-322z" />
    <glyph glyph-name="uni2078" unicode="&#x2078;" horiz-adv-x="827" 
d="M414 692q-183 0 -278 74t-95 205q0 99 51 153.5t131 67.5v4q-77 13 -115 68t-38 129q0 114 91 183t253 69t253 -69t91 -183q0 -74 -38.5 -129t-115.5 -68v-4q80 -13 131 -67.5t51 -153.5q0 -131 -94.5 -205t-277.5 -74zM414 1300q29 0 47 17.5t18 42.5t-18 42t-47 17
t-47.5 -17t-18.5 -42t18.5 -42.5t47.5 -17.5zM414 940q34 0 54.5 19t20.5 51t-20.5 50.5t-54.5 18.5t-55 -18.5t-21 -50.5t21 -51t55 -19z" />
    <glyph glyph-name="uni2079" unicode="&#x2079;" horiz-adv-x="806" 
d="M104 713l369 344l-2 2q-75 -60 -180 -60q-106 0 -183 88.5t-77 221.5q0 149 99 242.5t273 93.5q171 0 272 -97.5t101 -285.5q0 -260 -211 -451l-108 -98h-353zM406 1233q34 0 55.5 22t21.5 56t-21.5 56t-55.5 22t-56 -22t-22 -56t22 -56t56 -22z" />
    <glyph glyph-name="uni2080" unicode="&#x2080;" horiz-adv-x="921" 
d="M461 -246q-186 0 -293 126.5t-107 350.5t107 351t293 127q185 0 292 -126.5t107 -351.5t-106.5 -351t-292.5 -126zM461 39q51 0 76.5 51.5t25.5 140.5q0 90 -25.5 141.5t-76.5 51.5t-77 -52t-26 -141t26 -140.5t77 -51.5z" />
    <glyph glyph-name="uni2081" unicode="&#x2081;" horiz-adv-x="532" 
d="M115 -225v620h-23v293h328v-913h-305z" />
    <glyph glyph-name="uni2082" unicode="&#x2082;" horiz-adv-x="851" 
d="M84 -225v237l287 246q60 52 86 83t26 62q0 26 -15.5 42t-45.5 16q-34 0 -54.5 -20.5t-21.5 -59.5h-295q0 149 92.5 237.5t288.5 88.5q171 0 263.5 -71t92.5 -200q0 -51 -13.5 -94t-42 -80.5t-60.5 -67.5t-80 -67l-105 -80h304v-272h-707z" />
    <glyph glyph-name="uni2083" unicode="&#x2083;" horiz-adv-x="825" 
d="M418 -246q-372 0 -375 326h287q2 -30 25 -48t63 -18q78 0 78 64q0 34 -32.5 46.5t-111.5 12.5v189q121 0 121 65q0 64 -65 64q-74 0 -80 -58h-287q0 141 98 225.5t275 84.5q163 0 251.5 -65t88.5 -189q0 -76 -40 -132t-124 -69v-4q94 -7 144 -66t50 -149
q0 -132 -93 -205.5t-273 -73.5z" />
    <glyph glyph-name="uni2084" unicode="&#x2084;" horiz-adv-x="845" 
d="M815 152v-250h-96v-127h-275v127h-424v223l429 563h270v-536h96zM276 152h168v215h-6z" />
    <glyph glyph-name="uni2085" unicode="&#x2085;" horiz-adv-x="790" 
d="M362 -246q-182 0 -321 64l106 264q41 -22 99.5 -37t113.5 -12q93 4 93 71q0 32 -17.5 49t-48.5 17q-51 0 -72 -37h-235l45 555h539v-264h-340l-7 -92h5q53 33 141 33q121 0 198.5 -78.5t77.5 -216.5q0 -147 -94 -231.5t-283 -84.5z" />
    <glyph glyph-name="uni2086" unicode="&#x2086;" horiz-adv-x="835" 
d="M436 -246q-179 0 -282 98t-103 273q0 119 46 221t145 219l118 140h357l-340 -355l4 -2q70 62 149 62q119 0 197 -86.5t78 -225.5q0 -68 -21 -128t-64 -109.5t-116 -78t-168 -28.5zM426 14q34 0 56 22t22 56t-22 56t-56 22t-56 -22t-22 -56t22 -56t56 -22z" />
    <glyph glyph-name="uni2087" unicode="&#x2087;" horiz-adv-x="694" 
d="M16 -225l349 622h-355v291h674v-266l-346 -647h-322z" />
    <glyph glyph-name="uni2088" unicode="&#x2088;" horiz-adv-x="827" 
d="M414 -246q-183 0 -278 74t-95 205q0 99 51 153.5t131 67.5v4q-77 13 -115 68t-38 129q0 114 91 183t253 69t253 -69t91 -183q0 -74 -38.5 -129t-115.5 -68v-4q80 -13 131 -67.5t51 -153.5q0 -131 -94.5 -205t-277.5 -74zM414 362q29 0 47 17.5t18 42.5t-18 42t-47 17
t-47.5 -17t-18.5 -42t18.5 -42.5t47.5 -17.5zM414 2q34 0 54.5 19t20.5 51t-20.5 50.5t-54.5 18.5t-55 -18.5t-21 -50.5t21 -51t55 -19z" />
    <glyph glyph-name="uni2089" unicode="&#x2089;" horiz-adv-x="806" 
d="M104 -225l369 344l-2 2q-75 -60 -180 -60q-106 0 -183 88.5t-77 221.5q0 149 99 242.5t273 93.5q171 0 272 -97.5t101 -285.5q0 -260 -211 -451l-108 -98h-353zM406 295q34 0 55.5 22t21.5 56t-21.5 56t-55.5 22t-56 -22t-22 -56t22 -56t56 -22z" />
    <glyph glyph-name="TRY" unicode="&#x20a4;" horiz-adv-x="1277" 
d="M879 670h317q0 -157 -48 -284t-133.5 -211.5t-204.5 -129.5t-261 -45h-227v606l-240 -108v63l240 109v114l-240 -108v63l240 109v534h337v-381l320 146v-64l-320 -145v-115l320 146v-64l-320 -145v-385q93 0 156.5 82t63.5 213z" />
    <glyph glyph-name="uni20A9" unicode="&#x20a9;" horiz-adv-x="2246" 
d="M2165 801h-166l-37 -139h203v-62h-219l-162 -600h-416l-145 600h-199l-145 -600h-416l-162 600h-219v62h203l-37 139h-166v61h147l-139 520h399l113 -520h205l125 520h383l125 -520h205l112 520h400l-140 -520h148v-61zM1120 999l-33 -137h72l-33 137h-6zM616 801
l31 -139h113l33 139h-177zM1038 662h170l-34 139h-101zM1599 662l31 139h-176l33 -139h112zM702 424l43 176h-86l39 -176h4zM1548 424l39 176h-86l43 -176h4z" />
    <glyph glyph-name="Euro" unicode="&#x20ac;" horiz-adv-x="1411" 
d="M571 580q27 -128 113.5 -198.5t224.5 -70.5q170 0 346 99v-363q-145 -80 -348 -80q-128 0 -238.5 33t-190.5 89.5t-140 135t-95 167.5t-48 188h-185l31 61h147q-2 18 -2 55q0 43 2 66h-168l31 61h146q18 121 70.5 224.5t139 186.5t219.5 131t298 48q232 0 426 -96
l-152 -309q-157 61 -276 61q-143 0 -231 -64t-118 -182h533l-31 -61h-512q-4 -40 -4 -66q0 -37 2 -55h455l-31 -61h-414z" />
    <glyph glyph-name="uni20AE" unicode="&#x20ae;" horiz-adv-x="1185" 
d="M1145 1065h-383v-231l252 110v-63l-252 -111v-115l252 111v-64l-252 -110v-592h-338v444l-254 -110v63l254 111v115l-254 -111v63l254 111v379h-383v317h1104v-317z" />
    <glyph glyph-name="uni20B4" unicode="&#x20b4;" horiz-adv-x="1214" 
d="M977 809q-50 -57 -156 -139h312v-62h-396l-127 -94q-31 -24 -43.5 -35t-25.5 -33t-13 -47q0 -80 138 -80q162 0 403 103v-361q-200 -92 -434 -92q-259 0 -387.5 97.5t-128.5 281.5q0 150 92 260h-129v62h188q37 33 115 88l72 51h-375v61h461l51 37q6 4 19 13.5t17.5 13
t14 11t13 11t10 10.5t8.5 11.5t5 11.5t4 14t1 15q0 72 -115 72q-175 0 -397 -89v334q233 78 455 78q117 0 204.5 -26t139 -74t76 -108.5t24.5 -135.5q0 -113 -53 -199h113v-61h-156z" />
    <glyph glyph-name="uni20B8" unicode="&#x20b8;" horiz-adv-x="1185" 
d="M41 1382h1104v-317h-1104v317zM41 641v317h1104v-317h-383v-641h-338v641h-383z" />
    <glyph glyph-name="uni20B9" unicode="&#x20b9;" horiz-adv-x="1144" 
d="M629 1321q89 -52 144.5 -140t62.5 -196h227l-45 -61h-180q-9 -162 -109 -269t-254 -129l479 -526h-417l-455 522v297h215q147 0 158 105h-373v61h373q-17 100 -158 100h-215v297h981l-45 -61h-389z" />
    <glyph glyph-name="uni20BD" unicode="&#x20bd;" horiz-adv-x="1323" 
d="M766 535h-137v-105h356v-61h-356v-369h-338v369h-209v61h209v105h-209v296h209v551h475q248 0 372 -113t124 -311t-123.5 -310.5t-372.5 -112.5zM629 1085v-254h119q77 0 116 28.5t39 98.5t-39 98.5t-116 28.5h-119z" />
    <glyph glyph-name="uni2113" unicode="&#x2113;" horiz-adv-x="1087" 
d="M514 483q15 -98 54 -141t110 -43q66 0 229 57v-329q-60 -19 -92.5 -27.5t-84 -16.5t-103.5 -8q-196 0 -305 100t-144 318l-137 -31v351q21 4 62 11t61 11q30 678 504 678q185 0 282 -96t97 -270q0 -88 -26 -163.5t-71 -134t-113.5 -108.5t-146.5 -87.5t-176 -70.5z
M657 1126q-127 0 -149 -311q105 38 162 91.5t57 131.5q0 44 -19 66t-51 22z" />
    <glyph glyph-name="uni2116" unicode="&#x2116;" horiz-adv-x="2580" 
d="M1485 1434v-1434h-303l-676 770h-4v-770h-389v1434h303l676 -770h4v770h389zM2066 1241q190 0 311.5 -119t121.5 -307t-121.5 -308t-311.5 -120t-312 120t-122 308t122 307t312 119zM2066 938q-53 0 -87.5 -34.5t-34.5 -88.5t34.5 -88.5t87.5 -34.5t88 34.5t35 88.5
t-35 88.5t-88 34.5zM2490 295v-295h-850v295h850z" />
    <glyph glyph-name="trademark" unicode="&#x2122;" horiz-adv-x="2004" 
d="M795 1157h-222v-586h-290v586h-222v277h734v-277zM1700 1434l244 -863h-295l-103 385l-112 -284h-222l-112 284l-103 -385h-295l244 863h236l141 -428l141 428h236z" />
    <glyph glyph-name="estimated" unicode="&#x212e;" horiz-adv-x="1501" 
d="M31 623q0 176 96.5 325t262 235.5t360.5 86.5q196 0 362 -86.5t262 -235.5t96 -325v-19h-1175v-287q0 -68 27.5 -124.5t78.5 -88.5q139 -92 353 -92q151 0 285 57t223 158h59q-101 -118 -252.5 -185t-318.5 -67q-146 0 -279.5 51.5t-229.5 138t-153 206.5t-57 252z
M1116 1130q-133 103 -362 103q-217 0 -353 -94q-106 -71 -106 -174v-324h911v311q0 109 -90 178z" />
    <glyph glyph-name="uni2153" unicode="&#x2153;" horiz-adv-x="1495" 
d="M315 1382v-790h-198v586h-45v204h243zM141 0l815 1382h185l-815 -1382h-185zM1149 809q128 0 203 -59.5t75 -151.5q0 -29 -7 -55.5t-22.5 -53t-45 -46t-70.5 -29.5v-4q172 -21 172 -191q0 -98 -73 -167.5t-222 -69.5q-140 0 -220 71.5t-83 208.5h199q9 -96 112 -96
q90 0 90 88q0 52 -40 70t-130 18v133q134 3 134 78q0 35 -20.5 53.5t-57.5 18.5q-38 0 -61.5 -21t-26.5 -61h-201q2 119 79 192.5t216 73.5z" />
    <glyph glyph-name="uni2154" unicode="&#x2154;" horiz-adv-x="1744" 
d="M352 1401q137 0 211 -60t74 -163q0 -43 -11.5 -80t-40.5 -74.5t-49 -58.5t-65 -64l-119 -113h279v-196h-578v151l266 261q58 58 79.5 89.5t21.5 61.5q0 62 -76 62q-44 0 -68 -22.5t-26 -64.5h-199q0 129 78 200t223 71zM391 0l815 1382h185l-816 -1382h-184zM1399 809
q128 0 203 -59.5t75 -151.5q0 -29 -7 -55.5t-22.5 -53t-45 -46t-70.5 -29.5v-4q172 -21 172 -191q0 -98 -73 -167.5t-222 -69.5q-140 0 -220 71.5t-83 208.5h199q9 -96 112 -96q90 0 90 88q0 52 -40 70t-130 18v133q133 3 133 78q0 72 -77 72q-38 0 -61.5 -21t-26.5 -61
h-201q2 119 79 192.5t216 73.5z" />
    <glyph glyph-name="oneeighth" unicode="&#x215b;" horiz-adv-x="1517" 
d="M315 1382v-790h-198v586h-45v204h243zM141 0l815 1382h185l-815 -1382h-185zM1155 -18q-156 0 -238.5 64t-82.5 163q0 89 49 142.5t125 68.5v4q-65 11 -107.5 58t-42.5 118q0 92 79 150.5t218 58.5t218 -58.5t79 -150.5q0 -71 -43 -118t-106 -58v-4q74 -15 124 -69
t50 -142q0 -99 -83 -163t-239 -64zM1155 516q41 0 65.5 17.5t24.5 50.5t-24.5 50t-65.5 17t-65.5 -17t-24.5 -50t24.5 -50.5t65.5 -17.5zM1155 158q52 0 83.5 22.5t31.5 63.5t-31.5 63.5t-83.5 22.5t-83.5 -22.5t-31.5 -63.5t31.5 -63.5t83.5 -22.5z" />
    <glyph glyph-name="threeeighths" unicode="&#x215c;" horiz-adv-x="1751" 
d="M356 1401q128 0 203.5 -59.5t75.5 -151.5q0 -63 -33.5 -114t-112.5 -70v-5q173 -21 173 -190q0 -45 -16.5 -86t-50 -76t-92.5 -55.5t-136 -20.5q-140 0 -220.5 72t-83.5 209h199q9 -96 113 -96q90 0 90 88q0 52 -40 70t-130 18v133q133 3 133 78q0 35 -20.5 53.5
t-57.5 18.5q-38 0 -61.5 -21t-26.5 -61h-201q2 119 79 192.5t216 73.5zM375 0l815 1382h184l-815 -1382h-184zM1389 -18q-156 0 -239 64t-83 163q0 89 49 142.5t125 68.5v4q-65 11 -107 58t-42 118q0 92 79 150.5t218 58.5t218 -58.5t79 -150.5q0 -70 -43.5 -117.5
t-106.5 -58.5v-4q74 -15 124 -69t50 -142q0 -99 -82.5 -163t-238.5 -64zM1389 516q41 0 65.5 17.5t24.5 50.5t-24.5 50t-65.5 17t-66 -17t-25 -50t25 -50.5t66 -17.5zM1389 158q52 0 83 22.5t31 63.5t-31 63.5t-83 22.5t-83.5 -22.5t-31.5 -63.5t31.5 -63.5t83.5 -22.5z" />
    <glyph glyph-name="fiveeighths" unicode="&#x215d;" horiz-adv-x="1761" 
d="M428 1114q103 0 173.5 -67.5t70.5 -190.5q0 -125 -88 -204t-244 -79q-170 0 -289 86l92 164q34 -26 90 -45.5t107 -19.5q60 0 94.5 30.5t34.5 85.5q0 49 -29 75t-71 26q-33 0 -60 -16.5t-39 -43.5h-161l32 467h459v-192h-309l-10 -129h4q53 53 143 53zM385 0l815 1382
h184l-815 -1382h-184zM1399 -18q-156 0 -239 64t-83 163q0 89 49 142.5t125 68.5v4q-65 11 -107 58t-42 118q0 92 79 150.5t218 58.5t218 -58.5t79 -150.5q0 -70 -43.5 -117.5t-106.5 -58.5v-4q74 -15 124 -69t50 -142q0 -99 -82.5 -163t-238.5 -64zM1399 516
q41 0 65.5 17.5t24.5 50.5t-24.5 50t-65.5 17t-65.5 -17t-24.5 -50t24.5 -50.5t65.5 -17.5zM1399 158q52 0 83 22.5t31 63.5t-31 63.5t-83 22.5t-83.5 -22.5t-31.5 -63.5t31.5 -63.5t83.5 -22.5z" />
    <glyph glyph-name="seveneighths" unicode="&#x215e;" horiz-adv-x="1566" 
d="M590 1382v-180l-328 -610h-211l332 592h-363v198h570zM190 0l816 1382h184l-815 -1382h-185zM1204 -18q-156 0 -238.5 64t-82.5 163q0 89 49 142.5t125 68.5v4q-65 11 -107.5 58t-42.5 118q0 92 79 150.5t218 58.5t218 -58.5t79 -150.5q0 -71 -43 -118t-106 -58v-4
q74 -15 124 -69t50 -142q0 -99 -83 -163t-239 -64zM1204 516q41 0 65.5 17.5t24.5 50.5t-24.5 50t-65.5 17t-65.5 -17t-24.5 -50t24.5 -50.5t65.5 -17.5zM1204 158q52 0 83.5 22.5t31.5 63.5t-31.5 63.5t-83.5 22.5t-83 -22.5t-31 -63.5t31 -63.5t83 -22.5z" />
    <glyph glyph-name="arrowleft" unicode="&#x2190;" horiz-adv-x="1662" 
d="M1561 745v-303h-883l309 -299l-229 -235l-656 686l656 686l229 -236l-309 -299h883z" />
    <glyph glyph-name="arrowup" unicode="&#x2191;" horiz-adv-x="1576" 
d="M1475 641l-236 -229l-299 309v-883h-303v883l-299 -309l-236 229l686 655z" />
    <glyph glyph-name="arrowright" unicode="&#x2192;" horiz-adv-x="1662" 
d="M905 1282l656 -686l-656 -686l-229 235l309 299h-883v304h883l-309 299z" />
    <glyph glyph-name="arrowdown" unicode="&#x2193;" horiz-adv-x="1576" 
d="M1239 778l236 -229l-687 -655l-686 655l236 229l299 -309v883h303v-883z" />
    <glyph glyph-name="arrowboth" unicode="&#x2194;" horiz-adv-x="2541" 
d="M1784 1280l655 -686l-655 -686l-230 235l310 299h-883h-303l309 -299l-229 -235l-656 686l656 686l229 -236l-309 -299h883h303l-310 299z" />
    <glyph glyph-name="arrowupdn" unicode="&#x2195;" horiz-adv-x="1576" 
d="M940 115l299 309l236 -229l-687 -656l-686 656l236 229l299 -309v882v115l-299 -309l-236 229l686 656l687 -656l-236 -229l-299 309v-883v-114z" />
    <glyph glyph-name="uni2196" unicode="&#x2196;" horiz-adv-x="1363" 
d="M1262 168l-213 -215l-625 625l6 -431l-328 -4l23 949l948 22l-6 -330l-428 7z" />
    <glyph glyph-name="uni2197" unicode="&#x2197;" horiz-adv-x="1366" 
d="M1264 141l-330 6l6 428l-623 -622l-215 213l625 625l-430 -7l-4 328l948 -22z" />
    <glyph glyph-name="uni2198" unicode="&#x2198;" horiz-adv-x="1363" 
d="M934 1040l328 4l-23 -948l-948 -22l6 329l428 -6l-623 623l213 215l625 -625z" />
    <glyph glyph-name="uni2199" unicode="&#x2199;" horiz-adv-x="1366" 
d="M639 397l430 6l4 -327l-948 22l-23 949l330 -7l-6 -428l623 623l215 -213z" />
    <glyph glyph-name="partialdiff" unicode="&#x2202;" 
d="M465 1464q148 0 269 -43.5t213 -131t143 -231.5t51 -333q0 -158 -35.5 -292t-105.5 -239t-185.5 -165t-265.5 -60q-230 0 -371 132.5t-141 353.5q0 215 130.5 342t330.5 127q174 0 307 -107q-25 145 -120 224t-241 79q-142 0 -258 -53l-96 328q67 30 167.5 49.5
t207.5 19.5zM563 319q152 0 213 170q-107 99 -227 99q-75 0 -114.5 -34.5t-39.5 -92.5q0 -67 48.5 -104.5t119.5 -37.5z" />
    <glyph glyph-name="emptyset" unicode="&#x2205;" 
d="M979 985q125 -135 125 -323q0 -202 -140 -339t-350 -137q-184 0 -323 113l-115 -115l-39 41l113 113q-125 135 -125 324q0 202 139.5 338.5t349.5 136.5q190 0 322 -113l115 115l41 -41zM453 662q0 -51 26 -95l230 230q-46 24 -95 24q-73 0 -117 -44.5t-44 -114.5z
M614 502q73 0 117.5 45t44.5 115q0 50 -26 94l-230 -228q44 -26 94 -26z" />
    <glyph glyph-name="product" unicode="&#x220f;" horiz-adv-x="1515" 
d="M1475 1434v-318h-215v-1276h-334v1276h-336v-1276h-334v1276h-215v318h1434z" />
    <glyph glyph-name="summation" unicode="&#x2211;" horiz-adv-x="1124" 
d="M1083 1434v-349h-598l420 -481l-420 -481h598v-348h-1042v348l434 481l-434 481v349h1042z" />
    <glyph glyph-name="minus" unicode="&#x2212;" 
d="M1102 692v-164h-977v164h977z" />
    <glyph glyph-name="radical" unicode="&#x221a;" horiz-adv-x="1456" 
d="M1063 1464h352l-522 -1464h-340l-270 623l-4 -7h-238v330h477l195 -489z" />
    <glyph glyph-name="infinity" unicode="&#x221e;" horiz-adv-x="1556" 
d="M1182 922q152 0 243 -87t91 -227q0 -139 -91 -226t-243 -87q-121 0 -215 56.5t-189 158.5q-45 -48 -84 -82t-89 -67t-108 -49.5t-122 -16.5q-151 0 -242.5 87t-91.5 226t91.5 226.5t242.5 87.5q64 0 122 -16.5t108 -49.5t89 -67t84 -82q95 102 189 158.5t215 56.5z
M373 788q-90 0 -142.5 -51.5t-52.5 -128.5q0 -76 52.5 -127t142.5 -51q87 0 159.5 46t153.5 132q-82 87 -154 133.5t-159 46.5zM1182 788q-87 0 -160 -46.5t-154 -133.5q81 -86 154 -132t160 -46q89 0 141.5 51t52.5 127q0 78 -52 129t-142 51z" />
    <glyph glyph-name="integral" unicode="&#x222b;" horiz-adv-x="972" 
d="M891 1464v-307q-135 0 -188.5 -49t-53.5 -170v-938q0 -215 -141 -327.5t-426 -112.5v307q132 1 183.5 50t51.5 169v938q0 218 137.5 329t436.5 111z" />
    <glyph glyph-name="approxequal" unicode="&#x2248;" 
d="M365 1022q66 0 138.5 -31t126 -68.5t118.5 -68.5t118 -31q118 0 172 160h150q-23 -90 -59.5 -155.5t-81 -101t-89 -51.5t-92.5 -16q-66 0 -139 31t-127 68.5t-119.5 68.5t-118.5 31q-118 0 -172 -160h-149q44 172 131.5 248t192.5 76zM365 606q66 0 138.5 -31t126 -68
t118.5 -68t118 -31q62 0 103.5 39.5t68.5 119.5h150q-23 -90 -59.5 -155.5t-81 -100.5t-89 -51t-92.5 -16q-66 0 -139 31t-127 68t-119.5 68t-118.5 31q-118 0 -172 -159h-149q44 172 131.5 247.5t192.5 75.5z" />
    <glyph glyph-name="notequal" unicode="&#x2260;" 
d="M1133 768h-340l-195 -309h535v-156h-631l-103 -164h-159l102 164h-246v156h342l195 309h-537v156h633l100 159h160l-100 -159h244v-156z" />
    <glyph glyph-name="lessequal" unicode="&#x2264;" 
d="M1108 1001v-167l-764 -150l764 -147v-170l-983 231v172zM1114 311v-153h-999v153h999z" />
    <glyph glyph-name="greaterequal" unicode="&#x2265;" 
d="M121 1001l983 -231v-172l-983 -231v170l764 147l-764 150v167zM115 311h999v-153h-999v153z" />
    <glyph glyph-name="uni2460" unicode="&#x2460;" horiz-adv-x="1699" 
d="M850 -31q-217 0 -388 96.5t-265.5 267t-94.5 384.5q0 160 55.5 298.5t153 237t237 155t302.5 56.5q217 0 387.5 -96t265 -266.5t94.5 -384.5t-94.5 -384.5t-265 -267t-387.5 -96.5zM850 164q236 0 384 154.5t148 398.5t-148 398.5t-384 154.5t-384.5 -154.5
t-148.5 -398.5t148.5 -398.5t384.5 -154.5zM772 324v585h-45v205h254v-790h-209z" />
    <glyph glyph-name="uni2461" unicode="&#x2461;" horiz-adv-x="1699" 
d="M850 -31q-217 0 -388 96.5t-265.5 267t-94.5 384.5q0 160 55.5 298.5t153 237t237 155t302.5 56.5q217 0 387.5 -96t265 -266.5t94.5 -384.5t-94.5 -384.5t-265 -267t-387.5 -96.5zM850 164q236 0 384 154.5t148 398.5t-148 398.5t-384 154.5t-384.5 -154.5
t-148.5 -398.5t148.5 -398.5t384.5 -154.5zM569 352v152l267 260q58 58 79 89.5t21 61.5q0 62 -76 62q-44 0 -67 -23t-25 -65h-199q0 129 77 200.5t222 71.5q137 0 211 -60t74 -163q0 -43 -11.5 -80t-41 -74.5t-48.5 -57.5t-65 -64l-119 -113h279v-197h-578z" />
    <glyph glyph-name="uni2462" unicode="&#x2462;" horiz-adv-x="1699" 
d="M850 -31q-217 0 -388 96.5t-265.5 267t-94.5 384.5q0 160 55.5 298.5t153 237t237 155t302.5 56.5q217 0 387.5 -96t265 -266.5t94.5 -384.5t-94.5 -384.5t-265 -267t-387.5 -96.5zM850 164q236 0 384 154.5t148 398.5t-148 398.5t-384 154.5t-384.5 -154.5
t-148.5 -398.5t148.5 -398.5t384.5 -154.5zM870 307q-140 0 -220 72t-83 209h199q9 -96 113 -96q90 0 90 88q0 52 -40 70t-130 18v133q133 3 133 78q0 71 -78 71q-38 0 -61.5 -21t-26.5 -61h-201q2 119 79 193t216 74q128 0 203.5 -59.5t75.5 -151.5q0 -64 -33.5 -115
t-112.5 -70v-4q172 -21 172 -190q0 -45 -16.5 -86t-50 -76t-92.5 -55.5t-136 -20.5z" />
    <glyph glyph-name="uni2463" unicode="&#x2463;" horiz-adv-x="1699" 
d="M850 1464q217 0 387.5 -96t265 -266.5t94.5 -384.5t-94.5 -384.5t-265 -267t-387.5 -96.5t-388 96.5t-265.5 267t-94.5 384.5q0 160 55.5 298.5t153 237t237 155t302.5 56.5zM850 164q236 0 384 154.5t148 398.5t-148 398.5t-384 154.5t-384.5 -154.5t-148.5 -398.5
t148.5 -398.5t384.5 -154.5zM1075 1118v-485h78v-187h-78v-118h-190v118h-389v187l405 485h174zM690 633h195v221h-4z" />
    <glyph glyph-name="uni2464" unicode="&#x2464;" horiz-adv-x="1699" 
d="M850 -31q-217 0 -388 96.5t-265.5 267t-94.5 384.5q0 160 55.5 298.5t153 237t237 155t302.5 56.5q217 0 387.5 -96t265 -266.5t94.5 -384.5t-94.5 -384.5t-265 -267t-387.5 -96.5zM850 164q236 0 384 154.5t148 398.5t-148 398.5t-384 154.5t-384.5 -154.5
t-148.5 -398.5t148.5 -398.5t384.5 -154.5zM842 311q-170 0 -289 86l92 164q34 -26 90 -45.5t107 -19.5q60 0 94.5 30.5t34.5 85.5q0 49 -29.5 75t-71.5 26q-33 0 -59.5 -16.5t-38.5 -43.5h-162l33 467h459v-192h-309l-11 -129h4q53 53 144 53q103 0 173.5 -67.5
t70.5 -190.5q0 -125 -88 -204t-244 -79z" />
    <glyph glyph-name="uni2465" unicode="&#x2465;" horiz-adv-x="1699" 
d="M850 -31q-217 0 -388 96.5t-265.5 267t-94.5 384.5q0 160 55.5 298.5t153 237t237 155t302.5 56.5q217 0 387.5 -96t265 -266.5t94.5 -384.5t-94.5 -384.5t-265 -267t-387.5 -96.5zM850 164q236 0 384 154.5t148 398.5t-148 398.5t-384 154.5t-384.5 -154.5
t-148.5 -398.5t148.5 -398.5t384.5 -154.5zM848 305q-141 0 -230.5 81.5t-89.5 219.5q0 100 43.5 187t122.5 174l148 163h225l-315 -329l6 -2q61 67 151 67q100 0 173 -74t73 -206q0 -116 -81.5 -198.5t-225.5 -82.5zM846 489q49 0 79.5 27.5t30.5 75.5t-30.5 75t-79.5 27
t-80 -27t-31 -75t31 -75.5t80 -27.5z" />
    <glyph glyph-name="uni2466" unicode="&#x2466;" horiz-adv-x="1699" 
d="M850 -31q-217 0 -388 96.5t-265.5 267t-94.5 384.5q0 160 55.5 298.5t153 237t237 155t302.5 56.5q217 0 387.5 -96t265 -266.5t94.5 -384.5t-94.5 -384.5t-265 -267t-387.5 -96.5zM850 164q236 0 384 154.5t148 398.5t-148 398.5t-384 154.5t-384.5 -154.5
t-148.5 -398.5t148.5 -398.5t384.5 -154.5zM602 313l332 592h-363v199h570v-180l-328 -611h-211z" />
    <glyph glyph-name="uni2467" unicode="&#x2467;" horiz-adv-x="1699" 
d="M850 -31q-217 0 -388 96.5t-265.5 267t-94.5 384.5q0 160 55.5 298.5t153 237t237 155t302.5 56.5q217 0 387.5 -96t265 -266.5t94.5 -384.5t-94.5 -384.5t-265 -267t-387.5 -96.5zM850 164q236 0 384 154.5t148 398.5t-148 398.5t-384 154.5t-384.5 -154.5
t-148.5 -398.5t148.5 -398.5t384.5 -154.5zM850 315q-156 0 -239 64.5t-83 163.5q0 89 49 142.5t125 68.5v4q-65 11 -107 58t-42 118q0 92 79 150.5t218 58.5t218 -58.5t79 -150.5q0 -70 -43.5 -117.5t-106.5 -58.5v-4q74 -15 124 -69t50 -142q0 -99 -82.5 -163.5
t-238.5 -64.5zM850 850q41 0 65.5 17.5t24.5 50.5t-24.5 50t-65.5 17t-65.5 -17t-24.5 -50t24.5 -50.5t65.5 -17.5zM850 492q52 0 83.5 22.5t31.5 63.5t-31.5 63.5t-83.5 22.5t-83.5 -22.5t-31.5 -63.5t31.5 -63.5t83.5 -22.5z" />
    <glyph glyph-name="uni2468" unicode="&#x2468;" horiz-adv-x="1699" 
d="M850 -31q-217 0 -388 96.5t-265.5 267t-94.5 384.5q0 160 55.5 298.5t153 237t237 155t302.5 56.5q217 0 387.5 -96t265 -266.5t94.5 -384.5t-94.5 -384.5t-265 -267t-387.5 -96.5zM850 164q236 0 384 154.5t148 398.5t-148 398.5t-384 154.5t-384.5 -154.5
t-148.5 -398.5t148.5 -398.5t384.5 -154.5zM664 313l321 326h-6q-74 -55 -162 -55q-107 0 -180.5 73t-73.5 189q0 120 80.5 197t224.5 77q143 0 226.5 -81.5t83.5 -233.5q0 -104 -48.5 -199.5t-166.5 -216.5l-74 -76h-225zM862 741q49 0 80 27.5t31 75.5t-31 75t-80 27
t-79.5 -27t-30.5 -75t30.5 -75.5t79.5 -27.5z" />
    <glyph glyph-name="uni24EA" unicode="&#x24ea;" horiz-adv-x="1699" 
d="M850 -31q-217 0 -388 96.5t-265.5 267t-94.5 384.5q0 160 55.5 298.5t153 237t237 155t302.5 56.5q217 0 387.5 -96t265 -266.5t94.5 -384.5t-94.5 -384.5t-265 -267t-387.5 -96.5zM850 164q236 0 384 154.5t148 398.5t-148 398.5t-384 154.5t-384.5 -154.5
t-148.5 -398.5t148.5 -398.5t384.5 -154.5zM854 307q-158 0 -252 108.5t-94 307.5t94 305.5t252 106.5q159 0 252.5 -106.5t93.5 -305.5q0 -200 -93.5 -308t-252.5 -108zM854 489q66 0 103.5 58.5t37.5 175.5t-37.5 173t-103.5 56t-103.5 -56t-37.5 -173q0 -119 37.5 -176.5
t103.5 -57.5z" />
    <glyph glyph-name="uni24FF" unicode="&#x24ff;" horiz-adv-x="1699" 
d="M850 -31q-159 0 -298 57.5t-237.5 156.5t-155.5 238t-57 296q0 210 96.5 381t268 268.5t383.5 97.5t383 -97.5t267.5 -268.5t96.5 -381t-96.5 -381.5t-267.5 -269t-383 -97.5zM850 307q159 0 252.5 108t93.5 308q0 199 -93.5 305.5t-252.5 106.5q-158 0 -252 -106.5
t-94 -305.5t94 -307.5t252 -108.5zM850 489q-66 0 -103.5 57.5t-37.5 176.5q0 117 37.5 173t103.5 56t103.5 -56t37.5 -173t-37.5 -175.5t-103.5 -58.5z" />
    <glyph glyph-name="lozenge" unicode="&#x25ca;" horiz-adv-x="1318" 
d="M772 1464l506 -747l-506 -748h-225l-506 748l506 747h225zM659 1042l-219 -325l219 -324l220 324z" />
    <glyph glyph-name="uni2776" unicode="&#x2776;" horiz-adv-x="1699" 
d="M850 -31q-159 0 -298 57.5t-237.5 156.5t-155.5 238t-57 296q0 210 96.5 381t268 268.5t383.5 97.5t383 -97.5t267.5 -268.5t96.5 -381t-96.5 -381.5t-267.5 -269t-383 -97.5zM760 334h209v790h-254v-204h45v-586z" />
    <glyph glyph-name="uni2777" unicode="&#x2777;" horiz-adv-x="1699" 
d="M850 -31q-159 0 -298 57.5t-237.5 156.5t-155.5 238t-57 296q0 210 96.5 381t268 268.5t383.5 97.5t383 -97.5t267.5 -268.5t96.5 -381t-96.5 -381.5t-267.5 -269t-383 -97.5zM569 352h578v197h-279l119 113q46 44 65 64t48.5 57.5t41 74.5t11.5 80q0 103 -74 163
t-211 60q-145 0 -222 -71.5t-77 -200.5h199q2 42 25 65t67 23q76 0 76 -68q0 -26 -21.5 -57t-78.5 -88l-267 -260v-152z" />
    <glyph glyph-name="uni2778" unicode="&#x2778;" horiz-adv-x="1699" 
d="M850 -31q-159 0 -298 57.5t-237.5 156.5t-155.5 238t-57 296q0 210 96.5 381t268 268.5t383.5 97.5t383 -97.5t267.5 -268.5t96.5 -381t-96.5 -381.5t-267.5 -269t-383 -97.5zM850 328q149 0 222 69.5t73 167.5q0 170 -172 191v4q41 10 70.5 29.5t45 46t22.5 53t7 55.5
q0 92 -75 151.5t-203 59.5q-139 0 -216 -73.5t-79 -192.5h200q3 40 27 61t62 21q77 0 77 -72q0 -75 -133 -78v-133q90 0 130 -18t40 -70q0 -88 -90 -88q-104 0 -113 96h-198q3 -137 83 -208.5t220 -71.5z" />
    <glyph glyph-name="uni2779" unicode="&#x2779;" horiz-adv-x="1699" 
d="M850 -31q-159 0 -298 57.5t-237.5 156.5t-155.5 238t-57 296q0 210 96.5 381t268 268.5t383.5 97.5t383 -97.5t267.5 -268.5t96.5 -381t-96.5 -381.5t-267.5 -269t-383 -97.5zM864 348h191v119h78v186h-78v486h-174l-406 -486v-186h389v-119zM670 653l190 221h4v-221
h-194z" />
    <glyph glyph-name="uni277A" unicode="&#x277a;" horiz-adv-x="1699" 
d="M850 -31q-159 0 -298 57.5t-237.5 156.5t-155.5 238t-57 296q0 210 96.5 381t268 268.5t383.5 97.5t383 -97.5t267.5 -268.5t96.5 -381t-96.5 -381.5t-267.5 -269t-383 -97.5zM842 311q156 0 244 79t88 204q0 123 -70.5 190.5t-173.5 67.5q-91 0 -144 -53h-4l11 129h309
v192h-459l-33 -467h162q12 27 38.5 43.5t59.5 16.5q42 0 71.5 -26t29.5 -75q0 -55 -34.5 -85.5t-94.5 -30.5q-51 0 -107 19.5t-90 45.5l-92 -164q119 -86 289 -86z" />
    <glyph glyph-name="uni277B" unicode="&#x277b;" horiz-adv-x="1699" 
d="M850 -31q-159 0 -298 57.5t-237.5 156.5t-155.5 238t-57 296q0 210 96.5 381t268 268.5t383.5 97.5t383 -97.5t267.5 -268.5t96.5 -381t-96.5 -381.5t-267.5 -269t-383 -97.5zM868 322q144 0 226 82t82 198q0 132 -73 206.5t-173 74.5q-90 0 -152 -68l-6 2l315 330h-225
l-147 -164q-79 -87 -122.5 -173.5t-43.5 -186.5q0 -138 89 -219.5t230 -81.5zM866 506q-49 0 -79.5 27t-30.5 75t30.5 75.5t79.5 27.5t80 -27.5t31 -75.5t-31 -75t-80 -27z" />
    <glyph glyph-name="uni277C" unicode="&#x277c;" horiz-adv-x="1699" 
d="M850 -31q-159 0 -298 57.5t-237.5 156.5t-155.5 238t-57 296q0 210 96.5 381t268 268.5t383.5 97.5t383 -97.5t267.5 -268.5t96.5 -381t-96.5 -381.5t-267.5 -269t-383 -97.5zM602 313h211l328 611v180h-570v-199h363z" />
    <glyph glyph-name="uni277D" unicode="&#x277d;" horiz-adv-x="1699" 
d="M850 -31q-159 0 -298 57.5t-237.5 156.5t-155.5 238t-57 296q0 210 96.5 381t268 268.5t383.5 97.5t383 -97.5t267.5 -268.5t96.5 -381t-96.5 -381.5t-267.5 -269t-383 -97.5zM850 315q156 0 238.5 64.5t82.5 163.5q0 88 -50 142t-124 69v4q63 11 106.5 58.5t43.5 117.5
q0 92 -79 150.5t-218 58.5t-218 -58.5t-79 -150.5q0 -71 42 -118t107 -58v-4q-76 -15 -125 -68.5t-49 -142.5q0 -99 83 -163.5t239 -64.5zM850 850q-41 0 -65.5 17.5t-24.5 50.5t24.5 50t65.5 17t65.5 -17t24.5 -50t-24.5 -50.5t-65.5 -17.5zM850 492q-52 0 -83.5 22.5
t-31.5 63.5t31.5 63.5t83.5 22.5t83.5 -22.5t31.5 -63.5t-31.5 -63.5t-83.5 -22.5z" />
    <glyph glyph-name="uni277E" unicode="&#x277e;" horiz-adv-x="1699" 
d="M850 -31q-159 0 -298 57.5t-237.5 156.5t-155.5 238t-57 296q0 210 96.5 381t268 268.5t383.5 97.5t383 -97.5t267.5 -268.5t96.5 -381t-96.5 -381.5t-267.5 -269t-383 -97.5zM643 315h225l74 76q118 121 166.5 216.5t48.5 199.5q0 152 -83 233.5t-226 81.5
q-144 0 -224.5 -77t-80.5 -197q0 -116 73.5 -189t180.5 -73q87 0 161 55h7zM842 743q-49 0 -80 27.5t-31 75.5t31 75t80 27t79.5 -27t30.5 -75t-30.5 -75.5t-79.5 -27.5z" />
    <glyph glyph-name="uniF8FF" unicode="&#xf8ff;" horiz-adv-x="1771" 
d="M102 1384q0 32 22 53t54 21q31 0 53.5 -21t22.5 -53q0 -48 -37 -69v-49q65 27 108 42t112 29.5t134 14.5q92 0 156 -43.5t64 -126.5v-52q118 25 213 25q53 0 98.5 -8t88 -26t67 -53t24.5 -83v-98q98 24 166 24q113 0 167 -44t54 -117v-492q-109 66 -219 66
q-52 0 -131 -20.5t-115 -20.5q-104 0 -104 94v176q-48 10 -96 10q-50 0 -149.5 -18.5t-137.5 -18.5q-111 0 -111 95v139h-28q-130 0 -361 -90v-670h-80v1317q-35 21 -35 67zM731 1182q0 57 -46 84.5t-112 27.5q-62 0 -135.5 -17.5t-110.5 -31t-110 -43.5v-471q225 86 358 86
q91 0 156 -29v394zM639 1188l-133 -195v-139h-62v139l-133 195h78l86 -131l86 131h78zM1225 971q0 17 -2 29t-13.5 32t-32.5 33t-64.5 23t-104.5 10q-86 0 -217 -25v-350q0 -23 -20.5 -38.5t-45.5 -21.5t-45.5 -18.5t-20.5 -32.5q0 -28 56 -28q35 0 134 17t155 17
q130 0 221 -51v404zM819 848q0 72 46 119t118 47t118 -47t46 -119t-46 -119t-118 -47t-118 47t-46 119zM1085 848q0 46 -29 76t-73 30t-73 -30t-29 -76t29 -76.5t73 -30.5t73 30.5t29 76.5zM1614 748q0 58 -43 81t-121 23q-65 0 -168 -25v-342q0 -25 -20 -41.5t-43.5 -23
t-43.5 -19t-20 -30.5q0 -33 51 -33q30 0 111 21.5t131 21.5q78 0 166 -31v398zM1452 764l-20 -205h-33l-21 205h74zM729 721q0 22 -65 33v-66q9 5 27 10.5t28 10.5t10 12zM1225 492q0 27 -70 49v-97q13 8 32.5 16t28.5 14.5t9 17.5zM1374 473q0 17 11 28t30 11t30 -11
t11 -28q0 -19 -11 -30t-30 -11t-30 11t-11 30z" />
    <glyph glyph-name="CR" horiz-adv-x="741" 
 />
    <glyph glyph-name="Adieresis.ss01" horiz-adv-x="1525" 
d="M518 1487q-75 0 -126.5 51.5t-51.5 126.5t51.5 126.5t126.5 51.5t126.5 -51.5t51.5 -126.5t-51.5 -126.5t-126.5 -51.5zM1010 1487q-75 0 -127 51.5t-52 126.5t52 126.5t127 51.5t126.5 -51.5t51.5 -126.5t-51.5 -126.5t-126.5 -51.5zM1096 0l-88 268h-490l-88 -268h-430
l555 1434h416l555 -1434h-430zM616 575h293l-145 449z" />
    <glyph glyph-name="Adieresis.ss01.ss02" horiz-adv-x="1525" 
d="M293 1331q-75 0 -126.5 51.5t-51.5 126.5t51.5 127t126.5 52t126.5 -52t51.5 -127t-51.5 -126.5t-126.5 -51.5zM1235 1331q-75 0 -126.5 51.5t-51.5 126.5t51.5 127t126.5 52t126.5 -52t51.5 -127t-51.5 -126.5t-126.5 -51.5zM1096 0l-88 268h-490l-88 -268h-430
l555 1434h416l555 -1434h-430zM616 575h293l-145 449z" />
    <glyph glyph-name="Adieresis.ss02" horiz-adv-x="1525" 
d="M467 1659v-246h-268v246h268zM1329 1659v-246h-268v246h268zM1096 0l-88 268h-490l-88 -268h-430l555 1434h416l555 -1434h-430zM616 575h293l-145 449z" />
    <glyph glyph-name="Cdotaccent.ss01" horiz-adv-x="1359" 
d="M786 1843q75 0 127 -51.5t52 -126.5t-52 -126.5t-127 -51.5t-126.5 51.5t-51.5 126.5t51.5 126.5t126.5 51.5zM819 -31q-167 0 -310.5 50.5t-250 144.5t-167 236.5t-60.5 316.5q0 231 105 402.5t282 258t401 86.5q304 0 531 -157l-205 -334q-79 55 -152 81.5t-162 26.5
q-167 0 -279 -96.5t-112 -267.5t112.5 -268t278.5 -97q89 0 162 27t152 82l205 -334q-228 -158 -531 -158z" />
    <glyph glyph-name="Edieresis.ss01" horiz-adv-x="1118" 
d="M338 1487q-75 0 -126.5 51.5t-51.5 126.5t51.5 126.5t126.5 51.5t126.5 -51.5t51.5 -126.5t-51.5 -126.5t-126.5 -51.5zM829 1487q-75 0 -126.5 51.5t-51.5 126.5t51.5 126.5t126.5 51.5t127 -51.5t52 -126.5t-52 -126.5t-127 -51.5zM502 356h555v-356h-944v1434h913
v-357h-524v-170h461v-338h-461v-213z" />
    <glyph glyph-name="Edotaccent.ss01" horiz-adv-x="1118" 
d="M584 1487q-75 0 -126.5 51.5t-51.5 126.5t51.5 126.5t126.5 51.5t126.5 -51.5t51.5 -126.5t-51.5 -126.5t-126.5 -51.5zM502 356h555v-356h-944v1434h913v-357h-524v-170h461v-338h-461v-213z" />
    <glyph glyph-name="Euro.tf" 
d="M512 580q24 -140 100.5 -217.5t200.5 -77.5q153 0 305 98v-336q-127 -80 -307 -80q-118 0 -218.5 33t-174 89.5t-128.5 135t-86.5 167.5t-43.5 188h-144l31 61h107q-2 18 -2 55q0 43 2 66h-127l30 61h103q13 96 45.5 181t88 160.5t130 130.5t178 86.5t225.5 31.5
q214 0 385 -92l-133 -285q-144 62 -254 62q-129 0 -207.5 -71.5t-103.5 -203.5h436l-30 -61h-414q-2 -20 -2 -66q0 -37 2 -55h366l-30 -61h-330z" />
    <glyph glyph-name="Gcommaaccent.ss01" horiz-adv-x="1538" 
d="M1501 850q6 -83 6 -156q0 -158 -45.5 -290.5t-131.5 -229.5t-219.5 -151t-301.5 -54q-231 0 -408 94.5t-273.5 265t-96.5 390.5q0 160 53.5 296t153 236t251.5 156.5t340 56.5q320 0 574 -184l-238 -319q-154 131 -348 131q-175 0 -276 -103.5t-101 -271.5
q0 -165 100 -270t287 -105q131 0 203.5 50.5t85.5 129.5h-354v328h739zM821 -61q65 0 108.5 -41.5t43.5 -104.5q0 -66 -53 -119l-103 -104h-125l56 102q-70 39 -70 123q0 61 40 102.5t103 41.5z" />
    <glyph glyph-name="Gdotaccent.ss01" horiz-adv-x="1538" 
d="M791 1487q-75 0 -127 51.5t-52 126.5t52 126.5t127 51.5t126.5 -51.5t51.5 -126.5t-51.5 -126.5t-126.5 -51.5zM1501 850q6 -83 6 -156q0 -158 -45.5 -290.5t-131.5 -229.5t-219.5 -151t-301.5 -54q-231 0 -408 94.5t-273.5 265t-96.5 390.5q0 160 53.5 296t153 236
t251.5 156.5t340 56.5q320 0 574 -184l-238 -319q-154 131 -348 131q-175 0 -276 -103.5t-101 -271.5q0 -165 100 -270t287 -105q131 0 203.5 50.5t85.5 129.5h-354v328h739z" />
    <glyph glyph-name="Ghedescendercy" horiz-adv-x="593" 
d="M492 236v-523h-390v523h390z" />
    <glyph glyph-name="Idieresis.ss01" horiz-adv-x="614" 
d="M61 1843q75 0 127 -51.5t52 -126.5t-52 -126.5t-127 -51.5t-126.5 51.5t-51.5 126.5t51.5 126.5t126.5 51.5zM553 1843q75 0 126.5 -51.5t51.5 -126.5t-51.5 -126.5t-126.5 -51.5t-126.5 51.5t-51.5 126.5t51.5 126.5t126.5 51.5zM502 1434v-1434h-389v1434h389z" />
    <glyph glyph-name="Idieresis.ss01.ss02" horiz-adv-x="614" 
d="M-94 1688q75 0 126.5 -52t51.5 -127t-51.5 -126.5t-126.5 -51.5t-126.5 51.5t-51.5 126.5t51.5 127t126.5 52zM709 1688q75 0 126.5 -52t51.5 -127t-51.5 -126.5t-126.5 -51.5t-127 51.5t-52 126.5t52 127t127 52zM502 1434v-1434h-389v1434h389z" />
    <glyph glyph-name="Idieresis.ss02" horiz-adv-x="614" 
d="M72 1659v-246h-269v246h269zM811 1659v-246h-268v246h268zM502 1434v-1434h-389v1434h389z" />
    <glyph glyph-name="Idotaccent.ss01" horiz-adv-x="614" 
d="M307 1843q75 0 126.5 -51.5t51.5 -126.5t-51.5 -126.5t-126.5 -51.5t-126.5 51.5t-51.5 126.5t51.5 126.5t126.5 51.5zM502 1434v-1434h-389v1434h389z" />
    <glyph glyph-name="Indianrupeesign.tf" 
d="M670 1321q89 -52 144.5 -140t62.5 -196h227l-45 -61h-180q-9 -162 -109 -269t-254 -129l479 -526h-417l-455 522v297h215q147 0 158 105h-373v61h373q-17 100 -158 100h-215v297h981l-45 -61h-389z" />
    <glyph glyph-name="Kcommaaccent.ss01" horiz-adv-x="1585" 
d="M926 752l659 -752h-541l-542 664v-664h-389v1434h389v-631l483 631h504zM752 -61q65 0 108 -41.5t43 -104.5q0 -66 -53 -119l-102 -104h-125l55 102q-70 39 -70 123q0 61 40.5 102.5t103.5 41.5z" />
    <glyph glyph-name="Lcaron.ss01" horiz-adv-x="1052" 
d="M848 1475q89 0 144 -54t55 -141q0 -57 -27 -106l-221 -379h-150l111 295q-115 50 -115 182q0 92 56 147.5t147 55.5zM502 1434v-1078h540v-356h-929v1434h389z" />
    <glyph glyph-name="Lcommaaccent.ss01" horiz-adv-x="1052" 
d="M502 1434v-1078h540v-356h-929v1434h389zM735 -207q0 -66 -53 -119l-102 -104h-125l55 102q-70 39 -70 123q0 61 40.5 102.5t103.5 41.5q65 0 108 -41.5t43 -104.5z" />
    <glyph glyph-name="Ldot.ss01" horiz-adv-x="1052" 
d="M502 1434v-1078h540v-356h-929v1434h389zM852 977q97 0 159 -62t62 -159t-62 -159t-159 -62t-159 62t-62 159t62 159t159 62z" />
    <glyph glyph-name="Ncommaaccent.ss01" horiz-adv-x="1597" 
d="M1485 1434v-1434h-303l-676 770h-4v-770h-389v1434h303l676 -770h4v770h389zM944 -207q0 -66 -53 -119l-103 -104h-124l55 102q-70 39 -70 123q0 61 40.5 102.5t103.5 41.5q65 0 108 -41.5t43 -104.5z" />
    <glyph glyph-name="Odieresis.ss01" horiz-adv-x="1589" 
d="M549 1843q75 0 126.5 -51.5t51.5 -126.5t-51.5 -126.5t-126.5 -51.5t-126.5 51.5t-51.5 126.5t51.5 126.5t126.5 51.5zM1040 1843q75 0 127 -51.5t52 -126.5t-52 -126.5t-127 -51.5t-126.5 51.5t-51.5 126.5t51.5 126.5t126.5 51.5zM795 1464q159 0 299 -54t243 -150
t162.5 -236.5t59.5 -306.5q0 -220 -102 -392t-275.5 -264t-386.5 -92t-386.5 92t-275.5 264t-102 392q0 166 59.5 306.5t162.5 236.5t243 150t299 54zM795 1075q-156 0 -255.5 -97t-99.5 -261t100 -261.5t255 -97.5t254.5 97.5t99.5 261.5t-99.5 261t-254.5 97z" />
    <glyph glyph-name="Odieresis.ss01.ss02" horiz-adv-x="1589" 
d="M184 1688q75 0 126.5 -52t51.5 -127t-51.5 -126.5t-126.5 -51.5t-126.5 51.5t-51.5 126.5t51.5 127t126.5 52zM1405 1688q75 0 126.5 -52t51.5 -127t-51.5 -126.5t-126.5 -51.5t-126.5 51.5t-51.5 126.5t51.5 127t126.5 52zM795 1464q159 0 299 -54t243 -150
t162.5 -236.5t59.5 -306.5q0 -220 -102 -392t-275.5 -264t-386.5 -92t-386.5 92t-275.5 264t-102 392q0 166 59.5 306.5t162.5 236.5t243 150t299 54zM795 1075q-156 0 -255.5 -97t-99.5 -261t100 -261.5t255 -97.5t254.5 97.5t99.5 261.5t-99.5 261t-254.5 97z" />
    <glyph glyph-name="Odieresis.ss02" horiz-adv-x="1589" 
d="M354 1659v-246h-268v246h268zM1503 1659v-246h-268v246h268zM795 1464q159 0 299 -54t243 -150t162.5 -236.5t59.5 -306.5q0 -220 -102 -392t-275.5 -264t-386.5 -92t-386.5 92t-275.5 264t-102 392q0 166 59.5 306.5t162.5 236.5t243 150t299 54zM795 1075
q-156 0 -255.5 -97t-99.5 -261t100 -261.5t255 -97.5t254.5 97.5t99.5 261.5t-99.5 261t-254.5 97z" />
    <glyph glyph-name="RUB.tf" 
d="M709 535h-138v-105h357v-61h-357v-369h-338v369h-208v61h208v105h-208v296h208v551h476q248 0 371.5 -113t123.5 -311t-123 -310.5t-372 -112.5zM571 1085v-254h119q77 0 116.5 28.5t39.5 98.5t-39.5 98.5t-116.5 28.5h-119z" />
    <glyph glyph-name="Rcommaaccent.ss01" horiz-adv-x="1366" 
d="M958 532l398 -532h-486l-368 532v-532h-389v1434h612q137 0 243.5 -38.5t170 -104.5t95.5 -149t32 -179q0 -149 -78 -264.5t-230 -166.5zM672 1090h-170v-308h170q91 0 140.5 39t49.5 117q0 152 -190 152zM702 -61q65 0 108.5 -41.5t43.5 -104.5q0 -66 -53 -119
l-103 -104h-125l56 102q-70 39 -70 123q0 61 40 102.5t103 41.5z" />
    <glyph glyph-name="Scommaaccent.ss01" horiz-adv-x="1220" 
d="M659 1464q243 0 490 -121l-168 -346q-86 57 -180.5 86t-169.5 29q-88 0 -88 -53q0 -21 16 -38t59 -40l295 -152q62 -32 106.5 -65.5t83 -81t58 -112t19.5 -146.5q0 -221 -144.5 -338t-419.5 -117q-316 0 -606 162l178 373q247 -176 449 -176q121 0 121 63q0 25 -16.5 41
t-53.5 35l-313 158q-124 63 -189 166.5t-65 238.5q0 198 138 316t400 118zM776 -207q0 -66 -53 -119l-102 -104h-125l55 102q-70 39 -70 123q0 61 40.5 102.5t103.5 41.5q65 0 108 -41.5t43 -104.5z" />
    <glyph glyph-name="THB.tf" 
d="M874 688q230 -65 230 -323q0 -95 -32 -166.5t-89.5 -114t-131 -63.5t-161.5 -21h-45v-178h-57v178h-463v1382h463v179h57v-179h45q88 0 161.5 -21t131 -63t89.5 -113.5t32 -166.5q0 -259 -230 -324v-6zM588 1090h-125v-279h125v279zM645 811q64 3 103.5 39t39.5 106
q0 128 -143 134v-279zM463 293h125v278h-125v-278zM645 293q66 3 104.5 37t38.5 100q0 134 -143 141v-278z" />
    <glyph glyph-name="TRY.tf" 
d="M854 670h317q0 -157 -48 -284t-133.5 -211.5t-204.5 -129.5t-261 -45h-227v606l-240 -108v63l240 109v114l-240 -108v63l240 109v534h338v-381l319 146v-64l-319 -145v-115l319 146v-64l-319 -145v-385q93 0 156 82t63 213z" />
    <glyph glyph-name="Udieresis.ss01" horiz-adv-x="1466" 
d="M487 1843q75 0 127 -51.5t52 -126.5t-52 -126.5t-127 -51.5t-126.5 51.5t-51.5 126.5t51.5 126.5t126.5 51.5zM979 1843q75 0 126.5 -51.5t51.5 -126.5t-51.5 -126.5t-126.5 -51.5t-126.5 51.5t-51.5 126.5t51.5 126.5t126.5 51.5zM1364 596q0 -144 -37 -256.5t-113 -195
t-197.5 -126t-283.5 -43.5t-283.5 43.5t-197.5 126t-113 195t-37 256.5v838h416v-828q0 -109 50.5 -175t164.5 -66t164.5 66t50.5 175v828h416v-838z" />
    <glyph glyph-name="Udieresis.ss01.ss02" horiz-adv-x="1466" 
d="M735 1696q76 0 127 -52t51 -126t-51.5 -126.5t-126.5 -52.5t-127.5 52t-52.5 127q0 74 52 126t128 52zM1364 596q0 -144 -37 -256.5t-113 -195t-197.5 -126t-283.5 -43.5t-283.5 43.5t-197.5 126t-113 195t-37 256.5v838h416v-828q0 -109 50.5 -175t164.5 -66t164.5 66
t50.5 175v828h416v-838z" />
    <glyph glyph-name="Udieresis.ss02" horiz-adv-x="1466" 
d="M713 1659v-246h-156v246h156zM909 1659v-246h-155v246h155zM1364 596q0 -144 -37 -256.5t-113 -195t-197.5 -126t-283.5 -43.5t-283.5 43.5t-197.5 126t-113 195t-37 256.5v838h416v-828q0 -109 50.5 -175t164.5 -66t164.5 66t50.5 175v828h416v-838z" />
    <glyph glyph-name="Wdieresis.ss01" horiz-adv-x="2310" 
d="M909 1843q75 0 126.5 -51.5t51.5 -126.5t-51.5 -126.5t-126.5 -51.5t-126.5 51.5t-51.5 126.5t51.5 126.5t126.5 51.5zM1401 1843q75 0 126.5 -51.5t51.5 -126.5t-51.5 -126.5t-126.5 -51.5t-126.5 51.5t-51.5 126.5t51.5 126.5t126.5 51.5zM2300 1434l-516 -1434h-324
l-303 825h-4l-303 -825h-324l-516 1434h457l229 -785h4l291 785h328l291 -785h4l229 785h457z" />
    <glyph glyph-name="Wdieresis.ss01.ss02" horiz-adv-x="2310" 
d="M752 1688q75 0 126.5 -52t51.5 -127t-51.5 -126.5t-126.5 -51.5t-127 51.5t-52 126.5t52 127t127 52zM1559 1688q75 0 126.5 -52t51.5 -127t-51.5 -126.5t-126.5 -51.5t-127 51.5t-52 126.5t52 127t127 52zM2300 1434l-516 -1434h-324l-303 825h-4l-303 -825h-324
l-516 1434h457l229 -785h4l291 785h328l291 -785h4l229 785h457z" />
    <glyph glyph-name="Wdieresis.ss02" horiz-adv-x="2310" 
d="M899 1659v-246h-289v246h289zM1700 1659v-246h-289v246h289zM2300 1434l-516 -1434h-324l-303 825h-4l-303 -825h-324l-516 1434h457l229 -785h4l291 785h328l291 -785h4l229 785h457z" />
    <glyph glyph-name="XBT" horiz-adv-x="1142" 
d="M831 688q111 -31 170.5 -107.5t59.5 -215.5q0 -173 -117 -269t-297 -96h-12v-178h-57v178h-101v-178h-57v178h-338v1382h338v179h57v-179h101v179h57v-179h12q180 0 297 -95.5t117 -268.5q0 -139 -59.5 -216t-170.5 -108v-6zM567 811q70 0 114 35.5t44 109.5
q0 134 -162 134h-143v-279h147zM569 293q71 0 113.5 34t42.5 103q0 141 -156 141h-149v-278h149z" />
    <glyph glyph-name="XBT.tf" 
d="M874 688q111 -31 170.5 -107.5t59.5 -215.5q0 -173 -117 -269t-297 -96h-12v-178h-57v178h-101v-178h-57v178h-338v1382h338v179h57v-179h101v179h57v-179h12q180 0 297 -95.5t117 -268.5q0 -139 -59.5 -216t-170.5 -108v-6zM610 811q70 0 114 35.5t44 109.5
q0 134 -162 134h-143v-279h147zM612 293q71 0 113.5 34t42.5 103q0 141 -156 141h-149v-278h149z" />
    <glyph glyph-name="Ydieresis.ss01" horiz-adv-x="1501" 
d="M506 1487q-75 0 -126.5 51.5t-51.5 126.5t51.5 126.5t126.5 51.5t126.5 -51.5t51.5 -126.5t-51.5 -126.5t-126.5 -51.5zM997 1487q-75 0 -126.5 51.5t-51.5 126.5t51.5 126.5t126.5 51.5t127 -51.5t52 -126.5t-52 -126.5t-127 -51.5zM1501 1434l-555 -951v-483h-391v479
l-555 955h465l283 -576h6l282 576h465z" />
    <glyph glyph-name="Ydieresis.ss01.ss02" horiz-adv-x="1501" 
d="M551 1440q-75 0 -126.5 51.5t-51.5 126.5t51.5 126.5t126.5 51.5t126.5 -51.5t51.5 -126.5t-51.5 -126.5t-126.5 -51.5zM950 1440q-75 0 -126.5 51.5t-51.5 126.5t51.5 126.5t126.5 51.5t126.5 -51.5t51.5 -126.5t-51.5 -126.5t-126.5 -51.5zM1501 1434l-555 -951v-483
h-391v479l-555 955h465l283 -576h6l282 576h465z" />
    </font>
</defs>
</svg>
