<?xml version="1.0" standalone="no"?>
<!DOCTYPE svg PUBLIC "-//W3C//DTD SVG 1.1//EN" "http://www.w3.org/Graphics/SVG/1.1/DTD/svg11.dtd" >
<svg xmlns="http://www.w3.org/2000/svg" xmlns:xlink="http://www.w3.org/1999/xlink" version="1.1">
<metadata>
Created by FontForge 20170731 at Sat Jul 23 01:24:59 2022
 By Aleksey,,,
Copyright (c) 2015 by Reto Moser. All rights reserved.
</metadata>
<defs>
<font id="GTEestiProDisplay-ThinItalic" horiz-adv-x="1228" >
  <font-face 
    font-family="GT Eesti Pro Display Thin"
    font-weight="300"
    font-style="italic"
    font-stretch="normal"
    units-per-em="2048"
    panose-1="0 0 4 0 0 0 0 0 0 0"
    ascent="1536"
    descent="-512"
    x-height="946"
    cap-height="1434"
    bbox="-631 -518 2535 1831"
    underline-thickness="102"
    underline-position="-307"
    slope="-11"
    unicode-range="U+000D-FB02"
  />
<missing-glyph horiz-adv-x="1609" 
d="M852 -31q-213 0 -384 96.5t-267.5 267.5t-96.5 384q0 214 96.5 385t267.5 266.5t384 95.5q160 0 299 -56t237.5 -154.5t154.5 -237.5t56 -299q0 -213 -95.5 -384t-266.5 -267.5t-385 -96.5zM852 20q199 0 359 91t250.5 253t90.5 363l-104 133l-143 -61l-140 184l-161 -90
l-152 242l-152 -242l-161 90l-140 -184l-143 61l-104 -133q0 -201 90.5 -363t250.5 -253t359 -91zM641 651q-31 0 -51.5 20.5t-20.5 51.5t20.5 51.5t51.5 20.5t51.5 -20.5t20.5 -51.5t-20.5 -51.5t-51.5 -20.5zM1061 651q-31 0 -51.5 20.5t-20.5 51.5t20.5 51.5t51.5 20.5
t51.5 -20.5t20.5 -51.5t-20.5 -51.5t-51.5 -20.5zM766 522l74 207q3 17 22 10q6 -2 9.5 -8.5t0.5 -13.5l-57 -160h70q7 0 12.5 -5.5t5.5 -12.5q0 -6 -5.5 -11.5t-12.5 -5.5h-119zM449 350q-61 0 -101.5 40t-40.5 102q0 61 40 101t102 40q61 0 101 -39.5t40 -101.5t-40 -102
t-101 -40zM1253 350q-61 0 -101 40t-40 102t40 101.5t101 39.5q62 0 102 -40t40 -101q0 -62 -40.5 -102t-101.5 -40zM852 395q-96 0 -127 -61q-6 -12 -18 -12q-17 0 -17 18q0 35 50 63.5t112 28.5t112 -28.5t50 -63.5q0 -18 -17 -18q-12 0 -18 12q-31 61 -127 61z" />
    <glyph glyph-name="fi" unicode="fi" horiz-adv-x="1021" 
d="M487 1126l-36 -180h231l-18 -90h-230l-168 -856h-106l168 856h-195l19 90h192l35 180q34 174 128 251t243 77h30l-20 -100h-25q-204 0 -248 -228zM944 1413h139l-49 -246h-139zM690 0l184 946h107l-184 -946h-107z" />
    <glyph glyph-name="fl" unicode="fl" horiz-adv-x="1052" 
d="M487 1126l-36 -180h231l-18 -90h-230l-168 -856h-106l168 856h-195l19 90h192l35 180q34 174 128 251t243 77h30l-20 -100h-25q-204 0 -248 -228zM985 1434h107l-279 -1434h-106z" />
    <glyph glyph-name="f_f" unicode="ff" horiz-adv-x="1296" 
d="M379 1126q34 174 128 251t243 77h30l-20 -100h-25q-204 0 -248 -228l-36 -180h231l-18 -90h-230l-168 -856h-106l168 856h-195l19 90h192zM1399 1454h31l-21 -100h-25q-203 0 -247 -228l-35 -180h229l-18 -90h-230l-168 -856h-106l166 856h-193l19 90h192l35 180
q34 174 128 251t243 77z" />
    <glyph glyph-name="f_f_i" unicode="ffi" horiz-adv-x="1669" 
d="M379 1126q34 174 128 251t243 77h30l-20 -100h-25q-204 0 -248 -228l-36 -180h231l-18 -90h-230l-168 -856h-106l168 856h-195l19 90h192zM1137 1126l-35 -180h229l-18 -90h-230l-168 -856h-106l166 856h-193l19 90h192l35 180q34 174 128 251t243 77h31l-21 -100h-25
q-203 0 -247 -228zM1591 1413h140l-50 -246h-139zM1337 0l185 946h106l-184 -946h-107z" />
    <glyph glyph-name="f_f_l" unicode="ffl" horiz-adv-x="1701" 
d="M379 1126q34 174 128 251t243 77h30l-20 -100h-25q-204 0 -248 -228l-36 -180h231l-18 -90h-230l-168 -856h-106l168 856h-195l19 90h192zM1137 1126l-35 -180h229l-18 -90h-230l-168 -856h-106l166 856h-193l19 90h192l35 180q34 174 128 251t243 77h31l-21 -100h-25
q-203 0 -247 -228zM1632 1434h107l-279 -1434h-106z" />
    <glyph glyph-name=".notdef" horiz-adv-x="1609" 
d="M852 -31q-213 0 -384 96.5t-267.5 267.5t-96.5 384q0 214 96.5 385t267.5 266.5t384 95.5q160 0 299 -56t237.5 -154.5t154.5 -237.5t56 -299q0 -213 -95.5 -384t-266.5 -267.5t-385 -96.5zM852 20q199 0 359 91t250.5 253t90.5 363l-104 133l-143 -61l-140 184l-161 -90
l-152 242l-152 -242l-161 90l-140 -184l-143 61l-104 -133q0 -201 90.5 -363t250.5 -253t359 -91zM641 651q-31 0 -51.5 20.5t-20.5 51.5t20.5 51.5t51.5 20.5t51.5 -20.5t20.5 -51.5t-20.5 -51.5t-51.5 -20.5zM1061 651q-31 0 -51.5 20.5t-20.5 51.5t20.5 51.5t51.5 20.5
t51.5 -20.5t20.5 -51.5t-20.5 -51.5t-51.5 -20.5zM766 522l74 207q3 17 22 10q6 -2 9.5 -8.5t0.5 -13.5l-57 -160h70q7 0 12.5 -5.5t5.5 -12.5q0 -6 -5.5 -11.5t-12.5 -5.5h-119zM449 350q-61 0 -101.5 40t-40.5 102q0 61 40 101t102 40q61 0 101 -39.5t40 -101.5t-40 -102
t-101 -40zM1253 350q-61 0 -101 40t-40 102t40 101.5t101 39.5q62 0 102 -40t40 -101q0 -62 -40.5 -102t-101.5 -40zM852 395q-96 0 -127 -61q-6 -12 -18 -12q-17 0 -17 18q0 35 50 63.5t112 28.5t112 -28.5t50 -63.5q0 -18 -17 -18q-12 0 -18 12q-31 61 -127 61z" />
    <glyph glyph-name=".null" horiz-adv-x="0" 
 />
    <glyph glyph-name="nonmarkingreturn" horiz-adv-x="682" 
 />
    <glyph glyph-name="CR" unicode="&#xd;" horiz-adv-x="0" 
 />
    <glyph glyph-name="CR" horiz-adv-x="0" 
 />
    <glyph glyph-name="space" unicode=" " horiz-adv-x="624" 
 />
    <glyph glyph-name="exclam" unicode="!" horiz-adv-x="593" 
d="M547 1434l-232 -1022h-71l170 1022h133zM115 0l37 182h182l-37 -182h-182z" />
    <glyph glyph-name="quotedbl" unicode="&#x22;" horiz-adv-x="507" 
d="M225 946l70 518h108l-131 -518h-47zM420 946l67 518h111l-133 -518h-45z" />
    <glyph glyph-name="numbersign" unicode="#" horiz-adv-x="1290" 
d="M1280 942h-260l-154 -405h260l-12 -70h-274l-174 -467h-82l174 467h-318l-174 -467h-82l174 467h-256l13 70h270l152 405h-269l13 70h282l160 422h82l-158 -422h316l159 422h82l-157 -422h245zM784 537l152 405h-315l-154 -405h317z" />
    <glyph glyph-name="dollar" unicode="$" horiz-adv-x="1044" 
d="M739 1409q153 -17 240.5 -97t87.5 -204q0 -36 -4 -61h-105q0 3 1.5 14t1.5 24q0 92 -64 151t-178 71l-105 -535q36 -19 54.5 -29t52.5 -30.5t52.5 -34.5t46.5 -37t43.5 -43t34.5 -48.5t28.5 -57t16.5 -65t7 -75.5q0 -181 -122 -282t-343 -101h-26l-25 -127h-57l24 131
q-170 17 -268 101t-98 215q0 21 4 71h106q-2 -25 -2 -51q0 -100 74 -161.5t205 -73.5l119 616q-59 32 -92 51.5t-79.5 56t-71.5 71t-43.5 86.5t-18.5 112q0 158 112.5 252t308.5 94h25l29 148h57zM563 801l99 510q-145 0 -229.5 -65t-84.5 -177q0 -92 55.5 -152t159.5 -116z
M838 350q0 58 -18.5 106t-56 85.5t-75.5 64t-94 56.5l-115 -590h6q169 0 261 74t92 204z" />
    <glyph glyph-name="percent" unicode="%" horiz-adv-x="1550" 
d="M518 805q-124 0 -207.5 71t-83.5 203q0 149 103 257t260 108q124 0 207.5 -72.5t83.5 -204.5q0 -148 -103.5 -255t-259.5 -107zM264 0l1000 1382h84l-1000 -1382h-84zM522 885q121 0 198 86.5t77 193.5q0 96 -60 147.5t-153 51.5q-121 0 -197 -87t-76 -196q0 -94 60 -145
t151 -51zM1055 -10q-124 0 -207.5 72t-83.5 204q0 149 102.5 256t259.5 107q124 0 207.5 -71.5t83.5 -203.5q0 -149 -102.5 -256.5t-259.5 -107.5zM1061 70q121 0 196.5 86.5t75.5 195.5q0 94 -60 145.5t-151 51.5q-121 0 -197.5 -87t-76.5 -194q0 -96 60 -147t153 -51z" />
    <glyph glyph-name="ampersand" unicode="&#x26;" horiz-adv-x="1390" 
d="M1286 643q-108 -255 -219 -399l150 -244h-123l-101 160q-191 -191 -456 -191q-203 0 -328 108t-125 300q0 193 125.5 316t339.5 171q-86 148 -86 266q0 124 82.5 203.5t234.5 79.5q153 0 312 -94l-60 -94q-138 84 -252 84q-95 0 -147.5 -50t-52.5 -131q0 -93 82 -227
l344 -559q94 130 182 346zM539 74q224 0 395 180l-328 516q-91 -18 -163.5 -49.5t-127.5 -78t-84.5 -111.5t-29.5 -144q0 -144 92.5 -228.5t245.5 -84.5z" />
    <glyph glyph-name="quotesingle" unicode="'" horiz-adv-x="317" 
d="M408 1464l-132 -518h-51l70 518h113z" />
    <glyph glyph-name="parenleft" unicode="(" horiz-adv-x="616" 
d="M313 -440q-82 144 -132 333t-50 406q0 168 31 323.5t80.5 277t126.5 243.5t151.5 212.5t173.5 194.5l84 -67q-185 -195 -299.5 -372.5t-174.5 -376t-60 -425.5q0 -386 162 -696z" />
    <glyph glyph-name="parenright" unicode=")" horiz-adv-x="616" 
d="M336 1544q80 -144 130 -333.5t50 -405.5q0 -169 -31 -324t-80 -277.5t-125.5 -243.5t-152 -212.5t-174.5 -193.5l-84 65q279 295 406.5 567.5t127.5 608.5q0 386 -159 696z" />
    <glyph glyph-name="asterisk" unicode="*" horiz-adv-x="817" 
d="M893 1182l-297 -84l192 -240l-71 -53l-170 258l-170 -260l-72 55l191 238l-297 84l28 84l287 -107l-14 307h90l-15 -307l289 109z" />
    <glyph glyph-name="plus" unicode="+" 
d="M676 1108v-465h465v-65h-465v-465h-70v465h-465v65h465v465h70z" />
    <glyph glyph-name="comma" unicode="," horiz-adv-x="434" 
d="M-29 -256l164 256h-88l35 182h182l-35 -182l-194 -256h-64z" />
    <glyph glyph-name="hyphen" unicode="-" horiz-adv-x="688" 
d="M96 502l23 108h504l-21 -108h-506z" />
    <glyph glyph-name="period" unicode="." horiz-adv-x="407" 
d="M20 0l37 182h183l-37 -182h-183z" />
    <glyph glyph-name="slash" unicode="/" horiz-adv-x="1118" 
d="M20 -178l-75 49l1243 1714l74 -49z" />
    <glyph glyph-name="zero" unicode="0" horiz-adv-x="1185" 
d="M553 -31q-206 0 -317 135.5t-111 389.5q0 189 44 357.5t121 292.5t189 196.5t242 72.5q205 0 315.5 -135t110.5 -389q0 -253 -74 -462.5t-211 -333.5t-309 -124zM551 72q137 0 248.5 113.5t173 301t61.5 404.5q0 205 -82 312.5t-231 107.5q-137 0 -248.5 -113.5
t-173 -301t-61.5 -404.5q0 -204 82.5 -312t230.5 -108z" />
    <glyph glyph-name="one" unicode="1" horiz-adv-x="612" 
d="M553 1382l-268 -1382h-105l250 1282h-127l19 100h231z" />
    <glyph glyph-name="two" unicode="2" horiz-adv-x="1046" 
d="M662 1413q183 0 289 -90.5t106 -243.5q0 -123 -70 -232.5t-223 -240.5l-590 -508h707l-19 -98h-866l18 90l658 574q143 124 207.5 217.5t64.5 191.5q0 106 -77 171t-210 65q-141 0 -234.5 -73.5t-117.5 -209.5h-110q31 188 150.5 287.5t316.5 99.5z" />
    <glyph glyph-name="three" unicode="3" horiz-adv-x="1099" 
d="M715 739q131 -17 202.5 -102t71.5 -225q0 -200 -132.5 -321.5t-373.5 -121.5q-200 0 -315 80.5t-115 226.5q0 37 4 64h111q-1 -8 -2 -22t-2 -21q0 -105 84.5 -164t238.5 -59q184 0 287 89t103 251q0 151 -101.5 214.5t-339.5 63.5l19 96q489 0 489 287q0 113 -71.5 173.5
t-204.5 60.5q-140 0 -228.5 -65t-103.5 -183h-109q20 164 136 258t305 94q182 0 285.5 -89t103.5 -239q0 -138 -90 -228.5t-252 -113.5v-4z" />
    <glyph glyph-name="four" unicode="4" horiz-adv-x="1128" 
d="M1047 387l-21 -98h-199l-55 -289h-102l55 289h-719l17 84l886 1009h131l-194 -995h201zM158 387h587l166 848h-8z" />
    <glyph glyph-name="five" unicode="5" horiz-adv-x="1085" 
d="M596 901q182 0 292.5 -113t110.5 -305q0 -229 -143.5 -371.5t-388.5 -142.5q-175 0 -292.5 77t-166.5 228l92 48q45 -125 135.5 -186.5t235.5 -61.5q197 0 306.5 111t109.5 294q0 151 -84.5 236.5t-231.5 85.5q-206 0 -329 -168h-103l228 749h680l-21 -98h-590l-160 -524
h5q52 67 133.5 104t181.5 37z" />
    <glyph glyph-name="six" unicode="6" horiz-adv-x="1110" 
d="M504 -31q-203 0 -322 110.5t-119 303.5q0 144 69 276.5t224 288.5l437 447h147l-606 -607l4 -4q158 134 330 134q175 0 286 -109.5t111 -296.5q0 -112 -42 -212t-115.5 -173t-178.5 -115.5t-225 -42.5zM506 74q191 0 318.5 125.5t127.5 308.5q0 146 -84 227.5t-231 81.5
q-127 0 -234 -59.5t-169 -160.5t-62 -218q0 -141 90.5 -223t243.5 -82z" />
    <glyph glyph-name="seven" unicode="7" horiz-adv-x="880" 
d="M1030 1382l-18 -96l-846 -1290h-123l846 1282h-709l19 104h831z" />
    <glyph glyph-name="eight" unicode="8" horiz-adv-x="1134" 
d="M518 -31q-209 0 -325.5 99t-116.5 268q0 155 98.5 265.5t257.5 141.5v5q-182 78 -182 274q0 172 126.5 281.5t336.5 109.5q187 0 292 -88t105 -240q0 -129 -82 -219.5t-225 -124.5v-4q101 -30 158 -112.5t57 -206.5q0 -199 -134 -324t-366 -125zM633 786q161 0 262.5 83
t101.5 212q0 107 -75 167.5t-211 60.5q-157 0 -253 -80.5t-96 -212.5q0 -109 70.5 -169.5t200.5 -60.5zM522 74q179 0 281 92.5t102 249.5q0 132 -77.5 200t-229.5 68q-183 0 -296.5 -96t-113.5 -248q0 -125 88.5 -195.5t245.5 -70.5z" />
    <glyph glyph-name="nine" unicode="9" horiz-adv-x="1069" 
d="M231 0l623 594l-6 4q-148 -121 -326 -121q-176 0 -282.5 112t-106.5 294q0 145 70.5 266.5t196 192.5t278.5 71q196 0 319 -111t123 -307q0 -270 -278 -542l-465 -453h-146zM563 582q185 0 316 123.5t131 295.5q0 140 -89.5 224t-236.5 84q-184 0 -311 -122.5
t-127 -299.5q0 -142 85 -223.5t232 -81.5z" />
    <glyph glyph-name="colon" unicode=":" horiz-adv-x="407" 
d="M168 764l37 182h182l-37 -182h-182zM20 0l37 182h183l-37 -182h-183z" />
    <glyph glyph-name="semicolon" unicode=";" horiz-adv-x="434" 
d="M170 764l37 182h182l-37 -182h-182zM-29 -256l164 256h-88l35 182h182l-35 -182l-194 -256h-64z" />
    <glyph glyph-name="less" unicode="&#x3c;" 
d="M1049 1040v-79l-803 -349l803 -348v-78l-891 392v69z" />
    <glyph glyph-name="equal" unicode="=" 
d="M1159 819v-65h-1036v65h1036zM1159 471v-68h-1036v68h1036z" />
    <glyph glyph-name="greater" unicode="&#x3e;" 
d="M233 1040l891 -393v-69l-891 -392v78l803 348l-803 349v79z" />
    <glyph glyph-name="question" unicode="?" horiz-adv-x="958" 
d="M379 412l12 51q22 108 88.5 189.5t214.5 193.5q98 78 145.5 150.5t47.5 150.5q0 99 -69 156t-195 57q-137 0 -221 -65.5t-107 -194.5h-111q30 183 143.5 273.5t299.5 90.5q178 0 276 -82t98 -227q0 -108 -58.5 -200t-178.5 -185q-6 -5 -50.5 -38.5t-58.5 -45.5t-48.5 -44
t-50 -54t-33 -55t-23.5 -66l-11 -55h-110zM274 0l37 182h183l-35 -182h-185z" />
    <glyph glyph-name="at" unicode="@" horiz-adv-x="1943" 
d="M940 -307q-125 0 -241 27.5t-221.5 89.5t-183 152.5t-123.5 225.5t-46 299q0 202 69.5 374t193.5 293.5t300.5 190t384.5 68.5q240 0 422.5 -87t281.5 -244t99 -361q0 -148 -51 -282.5t-149 -222t-220 -87.5q-92 0 -134 51t-36 139h-6q-139 -213 -369 -213
q-164 0 -266 107t-102 289q0 111 40 205t107.5 157.5t156 99t185.5 35.5q125 0 209.5 -59t118.5 -166h6l37 195h92l-117 -604q-6 -27 -6 -50q0 -100 105 -100q86 0 157 72t109.5 186t38.5 240q0 190 -93.5 330.5t-252 211t-359.5 70.5q-241 0 -434.5 -101.5t-307.5 -293.5
t-114 -441q0 -146 40 -265t108 -200t161 -136t196 -80t216 -25q238 0 434 94l27 -86q-224 -98 -463 -98zM930 201q170 0 287.5 120.5t117.5 290.5q0 134 -78.5 213.5t-216.5 79.5q-174 0 -283.5 -117t-109.5 -288q0 -134 74 -216.5t209 -82.5z" />
    <glyph glyph-name="A" unicode="A" horiz-adv-x="1325" 
d="M1092 0l-84 403h-705l-233 -403h-136l840 1434h123l309 -1434h-114zM362 510h623l-166 793z" />
    <glyph glyph-name="B" unicode="B" horiz-adv-x="1261" 
d="M877 758q132 -23 201 -108t69 -216q0 -137 -72 -237t-188.5 -148.5t-259.5 -48.5h-559l278 1434h465q178 0 276.5 -82t98.5 -232q0 -131 -80 -229t-229 -129v-4zM442 1327l-102 -522h348q181 0 279 81t98 220q0 221 -277 221h-346zM629 106q181 0 291 90t110 234
q0 126 -81.5 197t-235.5 71h-396l-114 -592h426z" />
    <glyph glyph-name="C" unicode="C" horiz-adv-x="1433" 
d="M784 -31q-308 0 -482.5 177t-174.5 479q0 178 63 333t174 266.5t271.5 175.5t347.5 64q281 0 496 -164l-72 -94q-196 144 -434 144q-209 0 -376 -98t-258 -262t-91 -361q0 -256 145.5 -400.5t405.5 -144.5q126 0 229 36t209 105l63 -96q-121 -81 -244.5 -120.5
t-271.5 -39.5z" />
    <glyph glyph-name="D" unicode="D" horiz-adv-x="1413" 
d="M68 0l278 1434h426q279 0 445.5 -163t166.5 -450q0 -186 -67.5 -341t-185 -259.5t-278 -162.5t-345.5 -58h-440zM203 106h315q120 0 231.5 30.5t204.5 91t162.5 145t108.5 198t39 244.5q0 243 -138 377.5t-370 134.5h-314z" />
    <glyph glyph-name="E" unicode="E" horiz-adv-x="1050" 
d="M1116 1327h-674l-92 -471h621l-21 -106h-622l-125 -644h684l-21 -106h-798l278 1434h791z" />
    <glyph glyph-name="F" unicode="F" horiz-adv-x="1015" 
d="M1126 1327h-684l-100 -514h629l-23 -106h-626l-140 -707h-114l278 1434h801z" />
    <glyph glyph-name="G" unicode="G" horiz-adv-x="1654" 
d="M965 739h671l-8 -45q-21 -125 -60 -230.5t-103.5 -198.5t-151 -157.5t-207 -101.5t-266.5 -37q-324 0 -517.5 181t-193.5 493q0 175 61.5 327t170.5 260.5t265 171t337 62.5q182 0 318.5 -51.5t252.5 -144.5l-88 -92q-206 174 -490 174q-198 0 -359.5 -91t-254 -252.5
t-92.5 -361.5q0 -260 158.5 -410.5t433.5 -150.5q122 0 222.5 30t170.5 80.5t123 123t83.5 149.5t49.5 168h-551z" />
    <glyph glyph-name="H" unicode="H" horiz-adv-x="1388" 
d="M1300 1434h115l-278 -1434h-115l137 713h-837l-140 -713h-114l278 1434h115l-119 -615h838z" />
    <glyph glyph-name="I" unicode="I" horiz-adv-x="436" 
d="M68 0l278 1434h117l-279 -1434h-116z" />
    <glyph glyph-name="J" unicode="J" horiz-adv-x="559" 
d="M-55 -10l22 110h47q98 0 155 44.5t79 152.5l221 1137h117l-226 -1151q-32 -158 -115 -225.5t-235 -67.5h-65z" />
    <glyph glyph-name="K" unicode="K" horiz-adv-x="1216" 
d="M1266 1434l-799 -664l647 -770h-158l-624 764l-150 -764h-114l278 1434h115l-125 -641l754 641h176z" />
    <glyph glyph-name="L" unicode="L" horiz-adv-x="991" 
d="M68 0l278 1434h115l-258 -1328h698l-20 -106h-813z" />
    <glyph glyph-name="M" unicode="M" horiz-adv-x="1734" 
d="M-66 0l617 1434h108l189 -1024h4l575 1024h111l80 -1434h-119l-61 1212h-4l-557 -974h-103l-190 974h-4l-512 -1212h-134z" />
    <glyph glyph-name="N" unicode="N" horiz-adv-x="1413" 
d="M68 0l278 1434h125l606 -1256h4l244 1256h117l-279 -1434h-125l-608 1255h-4l-244 -1255h-114z" />
    <glyph glyph-name="O" unicode="O" horiz-adv-x="1710" 
d="M842 -31q-320 0 -515.5 185t-195.5 495q0 168 60.5 317.5t168 259.5t264 174t339.5 64q210 0 370.5 -82.5t250 -237.5t89.5 -360q0 -168 -60.5 -317.5t-167.5 -259.5t-263.5 -174t-339.5 -64zM842 84q159 0 293.5 57t225 154.5t141 226t50.5 271.5q0 171 -78.5 298.5
t-211.5 193t-301 65.5q-158 0 -292.5 -57.5t-225 -154.5t-141 -225.5t-50.5 -271.5q0 -128 45.5 -234t125 -176t187 -108.5t232.5 -38.5z" />
    <glyph glyph-name="P" unicode="P" horiz-adv-x="1124" 
d="M766 1434q192 0 300 -105t108 -272q0 -197 -140.5 -324t-384.5 -127h-348l-119 -606h-114l278 1434h420zM664 713q177 0 282 89t105 245q0 135 -79 207.5t-214 72.5h-318l-118 -614h342z" />
    <glyph glyph-name="Q" unicode="Q" horiz-adv-x="1722" 
d="M1673 784q0 -183 -70.5 -341.5t-199.5 -272.5l174 -186h-145l-113 122q-204 -137 -477 -137q-320 0 -515.5 185t-195.5 495q0 168 60.5 317.5t168 259.5t264 174t339.5 64q210 0 370.5 -82.5t250 -237.5t89.5 -360zM842 84q220 0 395 109l-276 296h145l215 -231
q110 98 170.5 238t60.5 297q0 171 -78.5 298.5t-211.5 193t-301 65.5q-158 0 -292.5 -57.5t-225 -154.5t-141 -225.5t-50.5 -271.5q0 -128 45.5 -234t125 -176t187 -108.5t232.5 -38.5z" />
    <glyph glyph-name="R" unicode="R" horiz-adv-x="1159" 
d="M1171 1075q0 -185 -124.5 -309.5t-346.5 -134.5l324 -631l-137 2l-312 627h-270l-123 -629h-114l278 1434h445q180 0 280 -98.5t100 -260.5zM668 735q171 0 277 87.5t106 242.5q0 125 -73.5 193.5t-203.5 68.5h-334l-114 -592h342z" />
    <glyph glyph-name="S" unicode="S" horiz-adv-x="1058" 
d="M516 -31q-299 0 -526 215l76 95q211 -195 454 -195q145 0 224 66.5t79 187.5q0 88 -46 157t-136 142l-168 139q-99 79 -153 164.5t-54 192.5q0 144 96 237.5t277 93.5q116 0 216.5 -37t207.5 -112l-72 -103q-79 63 -171.5 100.5t-182.5 37.5q-123 0 -186.5 -61
t-63.5 -156q0 -138 164 -265l180 -145q105 -85 159 -174.5t54 -208.5q0 -178 -114.5 -274.5t-313.5 -96.5z" />
    <glyph glyph-name="T" unicode="T" horiz-adv-x="1064" 
d="M1223 1434l-21 -107h-446l-258 -1327h-115l258 1327h-446l20 107h1008z" />
    <glyph glyph-name="U" unicode="U" horiz-adv-x="1423" 
d="M1456 1434l-178 -908q-23 -124 -69.5 -222.5t-121 -175t-185 -118t-251.5 -41.5q-240 0 -367.5 116.5t-127.5 326.5q0 73 14 147l172 875h121l-172 -891q-15 -77 -15 -121q0 -158 99.5 -247t281.5 -89q209 0 335 119.5t169 337.5l174 891h121z" />
    <glyph glyph-name="V" unicode="V" horiz-adv-x="1193" 
d="M451 0l-254 1434h129l202 -1262h4l697 1262h141l-809 -1434h-110z" />
    <glyph glyph-name="W" unicode="W" horiz-adv-x="1992" 
d="M2144 1434l-723 -1434h-118l-154 1243h-4l-639 -1243h-117l-168 1434h129l123 -1246h4l635 1246h125l154 -1246h4l608 1246h141z" />
    <glyph glyph-name="X" unicode="X" horiz-adv-x="1222" 
d="M1329 1434l-588 -686l353 -748h-127l-312 655l-561 -655h-149l655 762l-317 672h127l274 -578l498 578h147z" />
    <glyph glyph-name="Y" unicode="Y" horiz-adv-x="1079" 
d="M1249 1434l-637 -879l-106 -555h-117l109 553l-295 881h129l233 -764h4l537 764h143z" />
    <glyph glyph-name="Z" unicode="Z" horiz-adv-x="1132" 
d="M1239 1434l-20 -109l-1090 -1216h872l-20 -109h-1012l19 109l1089 1216h-772l21 109h913z" />
    <glyph glyph-name="bracketleft" unicode="[" horiz-adv-x="595" 
d="M780 1530l-18 -96h-262l-346 -1778h262l-19 -96h-366l385 1970h364z" />
    <glyph glyph-name="backslash" unicode="\" horiz-adv-x="1138" 
d="M874 -178l-606 1714l78 31l610 -1717z" />
    <glyph glyph-name="bracketright" unicode="]" horiz-adv-x="595" 
d="M-158 -440l21 96h260l346 1780h-262l18 94h367l-385 -1970h-365z" />
    <glyph glyph-name="asciicircum" unicode="^" 
d="M737 1464l303 -659h-98l-264 581l-264 -581h-99l303 659h119z" />
    <glyph glyph-name="underscore" unicode="_" horiz-adv-x="1091" 
d="M-96 -125l18 94h1051l-19 -94h-1050z" />
    <glyph glyph-name="grave" unicode="`" horiz-adv-x="542" 
d="M436 1448l133 -315h-84l-192 315h143z" />
    <glyph glyph-name="a" unicode="a" horiz-adv-x="1200" 
d="M504 -31q-192 0 -309 123.5t-117 325.5q0 156 69.5 284.5t191.5 201.5t271 73q145 0 251 -67.5t147 -188.5h4l43 225h106l-184 -946h-107l35 172h-4q-150 -203 -397 -203zM539 72q189 0 314.5 130.5t125.5 325.5q0 158 -97.5 252t-263.5 94q-181 0 -304.5 -132
t-123.5 -326q0 -158 94.5 -251t254.5 -93z" />
    <glyph glyph-name="b" unicode="b" horiz-adv-x="1216" 
d="M594 -31q-148 0 -246 67.5t-137 178.5h-6l-41 -215h-107l279 1434h106l-127 -656h4q66 89 171.5 144t230.5 55q184 0 302 -118.5t118 -319.5q0 -154 -67.5 -283.5t-193.5 -208t-286 -78.5zM582 72q103 0 189 39.5t141.5 105.5t85.5 149t30 171q0 155 -88.5 246t-241.5 91
q-97 0 -182.5 -38t-145.5 -102t-95 -149.5t-35 -178.5q0 -154 91 -244t251 -90z" />
    <glyph glyph-name="c" unicode="c" horiz-adv-x="1013" 
d="M563 -31q-219 0 -350 128.5t-131 340.5q0 234 155 386.5t398 152.5q204 0 364 -125l-63 -86q-144 108 -305 108q-189 0 -312.5 -124t-123.5 -310q0 -166 104 -267t266 -101q132 0 275 86l51 -92q-156 -97 -328 -97z" />
    <glyph glyph-name="d" unicode="d" horiz-adv-x="1218" 
d="M1147 1434h106l-276 -1434h-107l35 172h-4q-150 -203 -397 -203q-192 0 -309 123.5t-117 325.5q0 156 69.5 284.5t191.5 201.5t271 73q145 0 251 -67.5t147 -188.5h4zM539 72q189 0 314.5 130.5t125.5 325.5q0 158 -97.5 252t-263.5 94q-181 0 -304.5 -132t-123.5 -326
q0 -158 94.5 -251t254.5 -93z" />
    <glyph glyph-name="e" unicode="e" horiz-adv-x="1118" 
d="M1036 465h-848q-4 -40 -4 -59q0 -163 86.5 -248.5t247.5 -85.5q122 0 212 46.5t173 133.5l72 -80q-45 -44 -84 -74t-96 -63t-127.5 -50.5t-151.5 -17.5q-208 0 -324 113.5t-116 318.5q0 163 70.5 294.5t200 207.5t294.5 76q199 0 306.5 -106t107.5 -273q0 -40 -19 -133z
M635 879q-160 0 -274.5 -91t-155.5 -237h735q6 24 6 49q0 127 -81.5 203t-229.5 76z" />
    <glyph glyph-name="f" unicode="f" horiz-adv-x="649" 
d="M750 1454h30l-20 -100h-25q-204 0 -248 -228l-36 -180h231l-18 -90h-230l-168 -856h-106l168 856h-195l19 90h192l35 180q34 174 128 251t243 77z" />
    <glyph glyph-name="g" unicode="g" horiz-adv-x="1200" 
d="M1055 946h106l-184 -946q-44 -233 -159 -335.5t-333 -102.5q-202 0 -401 92l43 100q196 -90 362 -90t256.5 79.5t124.5 256.5l35 172h-4q-150 -203 -397 -203q-192 0 -309 123.5t-117 325.5q0 156 69.5 284.5t191.5 201.5t271 73q145 0 251 -67.5t147 -188.5h4zM539 72
q189 0 314.5 130.5t125.5 325.5q0 158 -97.5 252t-263.5 94q-181 0 -304.5 -132t-123.5 -326q0 -158 94.5 -251t254.5 -93z" />
    <glyph glyph-name="h" unicode="h" horiz-adv-x="1120" 
d="M57 0l279 1434h106l-137 -703h4q66 122 159.5 184t225.5 62q148 0 233 -80.5t85 -241.5q0 -53 -11 -112l-102 -543h-106l102 545q10 58 10 90q0 118 -61.5 178.5t-175.5 60.5q-71 0 -134.5 -24.5t-120.5 -75.5t-100.5 -141t-66.5 -211l-82 -422h-107z" />
    <glyph glyph-name="i" unicode="i" horiz-adv-x="372" 
d="M434 1413l-49 -246h-139l49 246h139zM41 0l184 946h107l-185 -946h-106z" />
    <glyph glyph-name="j" unicode="j" horiz-adv-x="372" 
d="M434 1413l-49 -246h-139l49 246h139zM-233 -317h53q159 0 194 170l213 1093h107l-215 -1098q-28 -144 -107 -205t-205 -61h-59z" />
    <glyph glyph-name="k" unicode="k" horiz-adv-x="919" 
d="M932 946l-551 -442l428 -504h-143l-408 489l-94 -489h-107l279 1434h106l-176 -908l500 420h166z" />
    <glyph glyph-name="l" unicode="l" horiz-adv-x="403" 
d="M57 0l279 1434h106l-278 -1434h-107z" />
    <glyph glyph-name="m" unicode="m" horiz-adv-x="1648" 
d="M39 0l184 946h107l-39 -194h4q118 225 342 225q240 0 270 -234h4q117 234 355 234q127 0 205.5 -67t78.5 -212q0 -64 -16 -143l-107 -555h-106l109 563q12 65 12 111q0 102 -52.5 151t-146.5 49q-288 0 -360 -378l-97 -496h-106l102 530q15 73 15 132q0 212 -199 212
q-138 0 -230.5 -103.5t-131.5 -311.5l-91 -459h-106z" />
    <glyph glyph-name="n" unicode="n" horiz-adv-x="1101" 
d="M39 0l184 946h107l-45 -215h4q72 127 167 186.5t226 59.5q153 0 235 -80t82 -221q0 -62 -16 -156l-102 -520h-107l100 516q15 67 15 131q0 117 -59 172t-179 55q-336 0 -424 -452l-82 -422h-106z" />
    <glyph glyph-name="o" unicode="o" horiz-adv-x="1185" 
d="M541 -31q-210 0 -336.5 116.5t-126.5 326.5q0 155 71 283.5t202 205t294 76.5q210 0 336.5 -116t126.5 -326q0 -116 -42 -219.5t-115.5 -180t-180 -121.5t-229.5 -45zM551 74q128 0 231 64.5t158 169.5t55 227q0 158 -96 247.5t-264 89.5q-128 0 -231 -64t-158.5 -169
t-55.5 -227q0 -158 96.5 -248t264.5 -90z" />
    <glyph glyph-name="p" unicode="p" horiz-adv-x="1196" 
d="M-41 -410l264 1356h107l-35 -178h4q71 97 176.5 153t229.5 56q188 0 302.5 -115.5t114.5 -308.5q0 -127 -44.5 -237t-119.5 -185.5t-177.5 -118.5t-215.5 -43q-144 0 -241 67t-131 173h-7l-120 -619h-107zM559 72q192 0 321.5 137t129.5 340q0 148 -87 236.5t-239 88.5
q-198 0 -330.5 -137t-132.5 -340q0 -148 90 -236.5t248 -88.5z" />
    <glyph glyph-name="q" unicode="q" horiz-adv-x="1200" 
d="M1055 946h106l-264 -1356h-106l114 582h-4q-150 -203 -397 -203q-192 0 -309 123.5t-117 325.5q0 156 69.5 284.5t191.5 201.5t271 73q145 0 251 -67.5t147 -188.5h4zM539 72q189 0 314.5 130.5t125.5 325.5q0 158 -97.5 252t-263.5 94q-181 0 -304.5 -132t-123.5 -326
q0 -158 94.5 -251t254.5 -93z" />
    <glyph glyph-name="r" unicode="r" horiz-adv-x="636" 
d="M39 0l184 946h107l-43 -215h4q46 112 136.5 178t213.5 66q19 0 47 -4l-24 -121q-20 4 -46 4q-153 0 -250 -102.5t-132 -286.5l-91 -465h-106z" />
    <glyph glyph-name="s" unicode="s" horiz-adv-x="806" 
d="M51 219q162 -149 340 -149q99 0 145 39.5t46 107.5q0 53 -30 94t-91 82l-117 78q-84 56 -130 116.5t-46 147.5q0 112 76.5 177t208.5 65q159 0 317 -105l-59 -92q-135 97 -258 97q-83 0 -127.5 -39.5t-44.5 -106.5q0 -55 31.5 -92t99.5 -82l112 -76q41 -28 68 -51.5
t52 -55t37.5 -70t12.5 -85.5q0 -127 -81.5 -188.5t-221.5 -61.5q-231 0 -411 166z" />
    <glyph glyph-name="t" unicode="t" horiz-adv-x="608" 
d="M418 856l-117 -598q-6 -34 -6 -63q0 -43 27 -70t79 -27h60l-19 -102h-65q-89 0 -140 48.5t-51 133.5q0 26 9 78l116 600h-198l18 90h197l73 379h107l-74 -379h225l-18 -90h-223z" />
    <glyph glyph-name="u" unicode="u" horiz-adv-x="1069" 
d="M401 -31q-149 0 -230 78.5t-81 216.5q0 58 14 135l109 547h111l-109 -547q-10 -65 -10 -108q0 -217 223 -217q320 0 412 465l82 407h108l-184 -946h-107l41 203h-4q-57 -104 -150.5 -169t-224.5 -65z" />
    <glyph glyph-name="v" unicode="v" horiz-adv-x="931" 
d="M866 946h133l-573 -946h-104l-203 946h119l153 -819z" />
    <glyph glyph-name="w" unicode="w" horiz-adv-x="1509" 
d="M1450 946h123l-506 -946h-109l-127 813l-446 -813h-106l-138 946h115l94 -813l443 813h116l123 -813z" />
    <glyph glyph-name="x" unicode="x" horiz-adv-x="942" 
d="M975 946l-434 -454l282 -492h-114l-240 418l-401 -418h-134l484 504l-254 442h117l208 -366l351 366h135z" />
    <glyph glyph-name="y" unicode="y" horiz-adv-x="919" 
d="M866 946h121l-864 -1356h-115l336 527l-225 829h114l181 -719z" />
    <glyph glyph-name="z" unicode="z" horiz-adv-x="909" 
d="M909 946l-18 -92l-766 -754h653l-18 -100h-793l19 94l764 754h-568l19 98h708z" />
    <glyph glyph-name="braceleft" unicode="{" horiz-adv-x="731" 
d="M915 1526l-18 -99h-53q-113 0 -180 -58t-95 -195l-61 -308q-27 -135 -84 -197t-174 -75v-4q84 -13 122 -56.5t38 -125.5q0 -34 -11 -105l-73 -385q-11 -64 -11 -90q0 -90 47 -130t136 -40h53l-19 -98h-49q-129 0 -202.5 62t-73.5 190q0 48 12 106l74 383q8 44 8 78
q0 84 -51.5 121.5t-163.5 42.5l20 110q144 6 208 49t89 170l60 302q38 195 133.5 273.5t263.5 78.5h55z" />
    <glyph glyph-name="bar" unicode="|" horiz-adv-x="540" 
d="M47 -440l375 1929h90l-375 -1929h-90z" />
    <glyph glyph-name="braceright" unicode="}" horiz-adv-x="731" 
d="M-158 -440l19 98h55q111 0 178 58.5t94 195.5l62 307q27 136 84 198t174 75v4q-84 13 -122 56.5t-38 125.5q0 39 10 104l74 385q10 58 10 90q0 91 -46 130.5t-136 39.5h-53l18 99h49q129 0 204 -62t75 -190q0 -48 -12 -107l-76 -383q-8 -44 -8 -77q0 -84 51.5 -121
t165.5 -43l-23 -111q-144 -6 -208 -49t-89 -170l-59 -301q-38 -195 -133.5 -273.5t-263.5 -78.5h-56z" />
    <glyph glyph-name="asciitilde" unicode="~" 
d="M410 764q54 0 107.5 -18t96.5 -43.5t85 -51t89.5 -43.5t94.5 -18q68 0 125.5 29t121.5 83l58 -84q-164 -129 -311 -129q-54 0 -107 18t-96.5 43.5t-85 50.5t-90 43t-95.5 18q-68 0 -126.5 -29.5t-122.5 -83.5l-56 84q162 131 312 131z" />
    <glyph glyph-name="exclamdown" unicode="&#xa1;" horiz-adv-x="593" 
d="M496 1024l-37 -182h-183l37 182h183zM61 -410l232 1024h74l-172 -1024h-134z" />
    <glyph glyph-name="cent" unicode="&#xa2;" horiz-adv-x="972" 
d="M956 809q-144 65 -268 65l-156 -802h17q118 0 280 73l-20 -114q-139 -62 -277 -62h-20l-20 -100h-58l23 104q-169 23 -267 139.5t-98 295.5q0 245 155.5 401t403.5 168l21 110h57l-20 -110q158 -6 270 -64zM205 408q0 -137 72.5 -223t197.5 -107l156 794
q-188 -19 -307 -145.5t-119 -318.5z" />
    <glyph glyph-name="sterling" unicode="&#xa3;" horiz-adv-x="1050" 
d="M743 1413q170 0 267.5 -76.5t97.5 -214.5q0 -34 -6 -71h-105q2 8 2 41q0 219 -260 219q-153 0 -245.5 -88t-92.5 -236q0 -79 39 -219h428l-12 -61h-397q45 -140 45 -236q0 -115 -76.5 -204t-230.5 -165l-2 -4h712l-18 -98h-842l21 98q169 90 247 176.5t78 194.5
q0 77 -49 238h-217l12 61h187q-37 126 -37 221q0 193 123.5 308.5t330.5 115.5z" />
    <glyph glyph-name="currency" unicode="&#xa4;" 
d="M211 186l-39 41l115 115q-115 134 -115 322q0 187 115 321l-115 115l41 41l115 -115q136 113 321 113q186 0 322 -113l114 115l41 -41l-114 -115q114 -133 114 -321q0 -190 -116 -322l116 -117l-41 -39l-114 115q-136 -113 -322 -113q-190 0 -321 115zM649 287
q167 0 270 105.5t103 271.5t-103 271t-270 105t-270 -105t-103 -271t103 -271.5t270 -105.5z" />
    <glyph glyph-name="yen" unicode="&#xa5;" horiz-adv-x="1036" 
d="M1161 1382l-446 -661h284l-12 -62h-313l-78 -114h369l-13 -62h-381l-94 -483h-104l94 483h-379l12 62h367l-33 114h-311l12 62h283l-191 661h111l203 -759l495 759h125z" />
    <glyph glyph-name="brokenbar" unicode="&#xa6;" horiz-adv-x="542" 
d="M463 1227l-156 -799h-43l-80 -414h-4l80 414h-43l156 799h90z" />
    <glyph glyph-name="section" unicode="&#xa7;" horiz-adv-x="1099" 
d="M692 1362q-139 0 -211.5 -60.5t-72.5 -156.5q0 -55 26 -98.5t68 -70t96 -52t110 -44.5t110 -48.5t96 -63t68 -88.5t26 -125q0 -64 -21 -117t-61 -92t-87 -66.5t-108 -50.5q113 -87 113 -231t-101 -234t-294 -90q-110 0 -216 30t-186 81l64 94q152 -102 335 -102
q139 0 213 61t74 156q0 55 -26 98t-68 69.5t-96.5 52t-110.5 45t-110.5 48.5t-96.5 63t-68 89t-26 125q0 64 21 117t61 91.5t87 66t108 50.5q-113 87 -113 232q0 144 101 233.5t294 89.5q110 0 216 -29.5t186 -80.5l-62 -94q-159 102 -338 102zM897 551q0 54 -23.5 95
t-70 70t-91.5 48.5t-112 45.5t-108 46q-250 -92 -250 -268q0 -54 23.5 -95t70 -70t91.5 -48.5t112 -45.5t108 -46q250 93 250 268z" />
    <glyph glyph-name="dieresis" unicode="&#xa8;" horiz-adv-x="714" 
d="M242 1184l45 229h129l-45 -229h-129zM618 1184l48 229h129l-45 -229h-132z" />
    <glyph glyph-name="copyright" unicode="&#xa9;" horiz-adv-x="1728" 
d="M911 -31q-156 0 -293.5 56t-237 153.5t-157 237.5t-57.5 301q0 215 98.5 386.5t268.5 266t378 94.5q156 0 293.5 -55.5t237 -153t157.5 -237.5t58 -301t-58 -301t-157.5 -237.5t-237 -153.5t-293.5 -56zM911 45q185 0 337 84.5t240.5 239t88.5 348.5t-88.5 348.5
t-240.5 239t-337 84.5t-336.5 -84.5t-240 -238.5t-88.5 -349t88.5 -349t240 -238.5t336.5 -84.5zM915 258q-208 0 -338.5 130t-130.5 335q0 206 130 335.5t339 129.5q174 0 312 -98l-49 -78q-122 82 -267 82q-165 0 -264.5 -101.5t-99.5 -269.5q0 -167 100 -268t264 -101
q145 0 267 82l51 -80q-143 -98 -314 -98z" />
    <glyph glyph-name="ordfeminine" unicode="&#xaa;" horiz-adv-x="870" 
d="M498 692q-128 0 -208.5 82.5t-80.5 222.5q0 156 99.5 259.5t252.5 103.5q95 0 162.5 -41.5t95.5 -116.5h4l25 137h92l-121 -626h-94l25 108h-5q-90 -129 -247 -129zM520 782q117 0 196 81.5t79 195.5q0 100 -63.5 155.5t-162.5 55.5q-118 0 -189 -79.5t-71 -191.5
q0 -99 56.5 -158t154.5 -59z" />
    <glyph glyph-name="guillemotleft" unicode="&#xab;" horiz-adv-x="739" 
d="M268 170l-225 309l346 309h133l-362 -319l221 -299h-113zM528 170l-225 309l346 309h133l-362 -319l221 -299h-113z" />
    <glyph glyph-name="logicalnot" unicode="&#xac;" 
d="M174 885h936v-66v-477h-70v477h-866v66z" />
    <glyph glyph-name="uni00AD" unicode="&#xad;" horiz-adv-x="688" 
d="M96 502l23 108h504l-21 -108h-506z" />
    <glyph glyph-name="registered" unicode="&#xae;" horiz-adv-x="1167" 
d="M684 1464q208 0 339.5 -132t131.5 -343t-131.5 -343t-339.5 -132t-339.5 132t-131.5 343t131.5 343t339.5 132zM684 569q181 0 296.5 115t115.5 305t-115.5 305t-296.5 115t-296.5 -115t-115.5 -305t115.5 -305t296.5 -115zM881 1112q0 -63 -36.5 -105t-96.5 -51
l149 -223h-74l-145 221h-88v-221h-60v533h191q70 0 115 -41t45 -113zM590 1210v-200h115q55 0 83.5 27t28.5 73q0 47 -29 73.5t-83 26.5h-115z" />
    <glyph glyph-name="macron" unicode="&#xaf;" horiz-adv-x="770" 
d="M836 1337l-19 -86h-563l16 86h566z" />
    <glyph glyph-name="degree" unicode="&#xb0;" horiz-adv-x="733" 
d="M496 1413q121 0 199.5 -77.5t78.5 -200.5q0 -124 -78.5 -201.5t-199.5 -77.5t-200 78t-79 201t79 200.5t200 77.5zM496 1348q-90 0 -150.5 -59.5t-60.5 -153.5t60.5 -153.5t150.5 -59.5t149.5 59.5t59.5 153.5t-59.5 153.5t-149.5 59.5z" />
    <glyph glyph-name="plusminus" unicode="&#xb1;" 
d="M655 1069v-297h455v-65h-455v-297h-69v297h-455v65h455v297h69zM1110 313v-65h-979v65h979z" />
    <glyph glyph-name="uni00B2" unicode="&#xb2;" horiz-adv-x="788" 
d="M604 1647q129 0 197.5 -61.5t68.5 -166.5q0 -162 -202 -317l-365 -295h457l-21 -94h-604l17 84l428 352q42 33 68.5 57t58 59t47.5 71.5t16 74.5q0 62 -43.5 101.5t-126.5 39.5q-80 0 -138 -42.5t-79 -129.5h-102q27 130 108 198.5t215 68.5z" />
    <glyph glyph-name="uni00B3" unicode="&#xb3;" horiz-adv-x="796" 
d="M463 690q-129 0 -210 52.5t-81 154.5q0 25 4 43h96q-2 -16 -2 -27q0 -59 54.5 -94t144.5 -35q111 0 172 52t61 151q0 90 -57.5 131t-185.5 41l18 86q129 0 196.5 44.5t67.5 131.5q0 133 -166 133q-77 0 -129 -36.5t-65 -106.5h-98q18 115 97.5 176.5t201.5 61.5t191 -56
t69 -157q0 -87 -53 -149.5t-160 -80.5v-2q77 -12 124.5 -64.5t47.5 -154.5q0 -61 -18.5 -112.5t-57.5 -93t-106 -65.5t-156 -24z" />
    <glyph glyph-name="acute" unicode="&#xb4;" horiz-adv-x="557" 
d="M231 1133l258 315h156l-317 -315h-97z" />
    <glyph glyph-name="paragraph" unicode="&#xb6;" horiz-adv-x="1196" 
d="M1280 1434l-18 -88h-115l-303 -1563h-96l305 1563h-281l-303 -1563h-96l166 852q-146 0 -237 99t-91 259q0 101 40 185t109 139.5t160.5 86t194.5 30.5h565z" />
    <glyph glyph-name="periodcentered" unicode="&#xb7;" horiz-adv-x="407" 
d="M168 764l37 182h182l-35 -182h-184z" />
    <glyph glyph-name="cedilla" unicode="&#xb8;" horiz-adv-x="473" 
d="M-45 -434l-18 45q108 50 153 81.5t45 69.5q0 28 -30 43.5t-97 30.5l111 191h59l-72 -119q28 -7 47 -14.5t40 -21.5t32 -35t11 -50q-1 -50 -45 -92.5t-83 -62t-135 -58.5q-12 -5 -18 -8z" />
    <glyph glyph-name="uni00B9" unicode="&#xb9;" horiz-adv-x="557" 
d="M543 1626l-178 -913h-99l158 815h-74l19 98h174z" />
    <glyph glyph-name="ordmasculine" unicode="&#xba;" horiz-adv-x="897" 
d="M590 1360q142 0 229.5 -78t87.5 -217q0 -158 -106.5 -265.5t-280.5 -107.5q-141 0 -228 78t-87 217q0 158 106 265.5t279 107.5zM590 1270q-123 0 -204 -79.5t-81 -199.5q0 -99 59.5 -154t157.5 -55q123 0 204 79.5t81 199.5q0 99 -60 154t-157 55z" />
    <glyph glyph-name="guillemotright" unicode="&#xbb;" horiz-adv-x="743" 
d="M215 788l225 -309l-346 -309h-131l363 319l-222 299h111zM479 788l226 -309l-347 -309h-133l363 319l-219 299h110z" />
    <glyph glyph-name="onequarter" unicode="&#xbc;" horiz-adv-x="1466" 
d="M1157 1382h84l-999 -1382h-84zM365 592h-78l139 711h-98l14 79h176zM1348 791l-109 -564h92l-14 -71h-92l-31 -156h-80l31 156h-428l14 71l514 564h103zM819 227h340l92 471h-2z" />
    <glyph glyph-name="onehalf" unicode="&#xbd;" horiz-adv-x="1484" 
d="M158 0l999 1382h84l-999 -1382h-84zM287 592l139 711h-98l14 79h176l-153 -790h-78zM776 0l12 70l357 309q43 38 63.5 57.5t48 51.5t39 61t11.5 61q0 54 -36.5 88.5t-109.5 34.5q-71 0 -119 -35.5t-63 -103.5h-82q20 105 89 160t177 55q109 0 167.5 -54t58.5 -141
q0 -77 -44.5 -137t-138.5 -143l-299 -256h387l-14 -78h-504z" />
    <glyph glyph-name="threequarters" unicode="&#xbe;" horiz-adv-x="1685" 
d="M713 831q0 -49 -15.5 -92.5t-47.5 -82t-91.5 -61t-138.5 -22.5q-121 0 -187.5 51.5t-66.5 133.5q0 25 2 39h78v-21q0 -64 48 -95.5t126 -31.5q97 0 154 45.5t57 132.5q0 84 -61 115t-191 31l16 74q138 3 207.5 41t69.5 120q0 60 -41.5 88.5t-108.5 28.5
q-76 0 -128.5 -31.5t-65.5 -97.5h-78q13 100 86.5 152.5t185.5 52.5q105 0 168.5 -48.5t63.5 -138.5q0 -81 -54 -131.5t-145 -66.5l-2 -2q74 -9 117 -57.5t43 -125.5zM1376 1382h84l-999 -1382h-84zM1567 791l-109 -564h92l-14 -71h-92l-31 -156h-80l31 156h-428l14 71
l514 564h103zM1038 227h340l92 471h-2z" />
    <glyph glyph-name="questiondown" unicode="&#xbf;" horiz-adv-x="835" 
d="M657 1022l-36 -182h-183l35 182h184zM553 610l-10 -51q-22 -108 -88.5 -188.5t-214.5 -194.5q-100 -78 -147.5 -150.5t-47.5 -150.5q0 -99 69.5 -156t196.5 -57q135 0 219.5 65.5t108.5 194.5h111q-32 -183 -145 -273.5t-298 -90.5q-178 0 -277.5 82t-99.5 227
q0 108 59 200t181 185q10 8 50 39t57 45t49.5 44.5t49 53.5t33.5 55.5t23 65.5l12 55h109z" />
    <glyph glyph-name="Agrave" unicode="&#xc0;" horiz-adv-x="1325" 
d="M895 1522h-78l-194 245h135zM1092 0l-84 403h-705l-233 -403h-136l840 1434h123l309 -1434h-114zM362 510h623l-166 793z" />
    <glyph glyph-name="Aacute" unicode="&#xc1;" horiz-adv-x="1325" 
d="M1202 1767l-307 -245h-96l252 245h151zM1092 0l-84 403h-705l-233 -403h-136l840 1434h123l309 -1434h-114zM362 510h623l-166 793z" />
    <glyph glyph-name="Acircumflex" unicode="&#xc2;" horiz-adv-x="1325" 
d="M891 1710l-248 -188h-137l325 245h123l209 -245h-123zM1092 0l-84 403h-705l-233 -403h-136l840 1434h123l309 -1434h-114zM362 510h623l-166 793z" />
    <glyph glyph-name="Atilde" unicode="&#xc3;" horiz-adv-x="1325" 
d="M733 1671q-71 0 -131 -94l-53 20q80 168 199 168q50 0 113 -27.5t119.5 -55t90.5 -27.5q72 0 131 92l53 -21q-36 -75 -82.5 -121t-115.5 -46q-50 0 -113 28t-120 56t-91 28zM774 1434h123l309 -1434h-114l-84 403h-705l-233 -403h-136zM362 510h623l-166 793z" />
    <glyph glyph-name="Adieresis" unicode="&#xc4;" horiz-adv-x="1325" 
d="M762 1720l-39 -198h-133l39 198h133zM1147 1720l-41 -198h-131l39 198h133zM1092 0l-84 403h-705l-233 -403h-136l840 1434h123l309 -1434h-114zM362 510h623l-166 793z" />
    <glyph glyph-name="Aring" unicode="&#xc5;" horiz-adv-x="1325" 
d="M1092 0l-84 403h-705l-233 -403h-136l809 1380q-66 20 -101.5 72t-35.5 127q0 107 72.5 179.5t181.5 72.5q105 0 164 -57t59 -156q0 -87 -48 -152t-128 -88l299 -1378h-114zM678 1583q0 -71 40.5 -110t115.5 -39q80 0 129 52t49 128q0 72 -40.5 110.5t-115.5 38.5
q-78 0 -128 -52t-50 -128zM362 510h623l-166 793z" />
    <glyph glyph-name="AE" unicode="&#xc6;" horiz-adv-x="1894" 
d="M1958 1327h-604l-90 -471h548l-20 -106h-549l-125 -644h613l-21 -106h-686h-43l80 403h-623l-352 -403h-152l1264 1434h176h604zM530 510h551l156 807z" />
    <glyph glyph-name="Ccedilla" unicode="&#xc7;" horiz-adv-x="1433" 
d="M973 1350q-209 0 -376 -98t-258 -262t-91 -361q0 -256 145.5 -400.5t405.5 -144.5q126 0 229 36t209 105l63 -96q-119 -81 -242 -120.5t-270 -39.5l-36 -61q27 -7 46.5 -15t40 -21.5t31.5 -34.5t11 -50q-1 -50 -45 -92.5t-83 -62t-135 -58.5q-12 -5 -18 -8l-18 45
q108 50 153 81.5t45 69.5q0 28 -30 43.5t-97 30.5l78 135q-284 15 -444 190.5t-160 463.5q0 178 63 333t174 266.5t271.5 175.5t347.5 64q281 0 496 -164l-72 -94q-196 144 -434 144z" />
    <glyph glyph-name="Egrave" unicode="&#xc8;" horiz-adv-x="1050" 
d="M817 1522h-78l-194 245h135zM1116 1327h-674l-92 -471h621l-21 -106h-622l-125 -644h684l-21 -106h-798l278 1434h791z" />
    <glyph glyph-name="Eacute" unicode="&#xc9;" horiz-adv-x="1050" 
d="M1124 1767l-307 -245h-96l252 245h151zM1116 1327h-674l-92 -471h621l-21 -106h-622l-125 -644h684l-21 -106h-798l278 1434h791z" />
    <glyph glyph-name="Ecircumflex" unicode="&#xca;" horiz-adv-x="1050" 
d="M813 1710l-248 -188h-137l326 245h123l208 -245h-122zM1116 1327h-674l-92 -471h621l-21 -106h-622l-125 -644h684l-21 -106h-798l278 1434h791z" />
    <glyph glyph-name="Edieresis" unicode="&#xcb;" horiz-adv-x="1050" 
d="M682 1720l-39 -198h-133l39 198h133zM1067 1720l-41 -198h-131l39 198h133zM1116 1327h-674l-92 -471h621l-21 -106h-622l-125 -644h684l-21 -106h-798l278 1434h791z" />
    <glyph glyph-name="Igrave" unicode="&#xcc;" horiz-adv-x="436" 
d="M330 1767l137 -245h-78l-194 245h135zM68 0l278 1434h117l-279 -1434h-116z" />
    <glyph glyph-name="Iacute" unicode="&#xcd;" horiz-adv-x="436" 
d="M371 1522l252 245h151l-307 -245h-96zM68 0l278 1434h117l-279 -1434h-116z" />
    <glyph glyph-name="Icircumflex" unicode="&#xce;" horiz-adv-x="436" 
d="M78 1522l325 245h123l209 -245h-123l-149 188l-248 -188h-137zM68 0l278 1434h117l-279 -1434h-116z" />
    <glyph glyph-name="Idieresis" unicode="&#xcf;" horiz-adv-x="436" 
d="M160 1522l39 198h133l-39 -198h-133zM545 1522l39 198h133l-41 -198h-131zM68 0l278 1434h117l-279 -1434h-116z" />
    <glyph glyph-name="Eth" unicode="&#xd0;" horiz-adv-x="1462" 
d="M819 1434q279 0 446 -163t167 -450q0 -247 -116.5 -435.5t-315 -287t-445.5 -98.5h-440l137 707h-191l19 88h188l125 639h426zM565 106q120 0 231.5 30.5t204.5 91t162.5 145t108.5 198t39 244.5q0 243 -138 377.5t-370 134.5h-314l-104 -532h367l-19 -88h-364l-119 -601
h315z" />
    <glyph glyph-name="Ntilde" unicode="&#xd1;" horiz-adv-x="1413" 
d="M1122 1559q-50 0 -113 28t-119.5 56t-90.5 28q-71 0 -131 -94l-54 20q80 168 199 168q50 0 113 -27.5t120 -55t91 -27.5q72 0 131 92l53 -21q-81 -167 -199 -167zM68 0l278 1434h125l606 -1256h4l244 1256h117l-279 -1434h-125l-608 1255h-4l-244 -1255h-114z" />
    <glyph glyph-name="Ograve" unicode="&#xd2;" horiz-adv-x="1710" 
d="M907 1767l137 -245h-77l-195 245h135zM842 -31q-320 0 -515.5 185t-195.5 495q0 168 60.5 317.5t168 259.5t264 174t339.5 64q210 0 370.5 -82.5t250 -237.5t89.5 -360q0 -168 -60.5 -317.5t-167.5 -259.5t-263.5 -174t-339.5 -64zM842 84q159 0 293.5 57t225 154.5
t141 226t50.5 271.5q0 171 -78.5 298.5t-211.5 193t-301 65.5q-158 0 -292.5 -57.5t-225 -154.5t-141 -225.5t-50.5 -271.5q0 -128 45.5 -234t125 -176t187 -108.5t232.5 -38.5z" />
    <glyph glyph-name="Oacute" unicode="&#xd3;" horiz-adv-x="1710" 
d="M948 1522l252 245h152l-308 -245h-96zM842 -31q-320 0 -515.5 185t-195.5 495q0 168 60.5 317.5t168 259.5t264 174t339.5 64q210 0 370.5 -82.5t250 -237.5t89.5 -360q0 -168 -60.5 -317.5t-167.5 -259.5t-263.5 -174t-339.5 -64zM842 84q159 0 293.5 57t225 154.5
t141 226t50.5 271.5q0 171 -78.5 298.5t-211.5 193t-301 65.5q-158 0 -292.5 -57.5t-225 -154.5t-141 -225.5t-50.5 -271.5q0 -128 45.5 -234t125 -176t187 -108.5t232.5 -38.5z" />
    <glyph glyph-name="Ocircumflex" unicode="&#xd4;" horiz-adv-x="1710" 
d="M655 1522l326 245h123l209 -245h-123l-150 188l-247 -188h-138zM842 -31q-320 0 -515.5 185t-195.5 495q0 168 60.5 317.5t168 259.5t264 174t339.5 64q210 0 370.5 -82.5t250 -237.5t89.5 -360q0 -168 -60.5 -317.5t-167.5 -259.5t-263.5 -174t-339.5 -64zM842 84
q159 0 293.5 57t225 154.5t141 226t50.5 271.5q0 171 -78.5 298.5t-211.5 193t-301 65.5q-158 0 -292.5 -57.5t-225 -154.5t-141 -225.5t-50.5 -271.5q0 -128 45.5 -234t125 -176t187 -108.5t232.5 -38.5z" />
    <glyph glyph-name="Otilde" unicode="&#xd5;" horiz-adv-x="1710" 
d="M1206 1559q-50 0 -113 28t-119.5 56t-90.5 28q-71 0 -131 -94l-54 20q80 168 199 168q50 0 113 -27.5t120 -55t91 -27.5q72 0 131 92l53 -21q-81 -167 -199 -167zM842 -31q-320 0 -515.5 185t-195.5 495q0 168 60.5 317.5t168 259.5t264 174t339.5 64q210 0 370.5 -82.5
t250 -237.5t89.5 -360q0 -168 -60.5 -317.5t-167.5 -259.5t-263.5 -174t-339.5 -64zM842 84q159 0 293.5 57t225 154.5t141 226t50.5 271.5q0 171 -78.5 298.5t-211.5 193t-301 65.5q-158 0 -292.5 -57.5t-225 -154.5t-141 -225.5t-50.5 -271.5q0 -128 45.5 -234t125 -176
t187 -108.5t232.5 -38.5z" />
    <glyph glyph-name="Odieresis" unicode="&#xd6;" horiz-adv-x="1710" 
d="M737 1522l39 198h133l-39 -198h-133zM1122 1522l39 198h133l-41 -198h-131zM842 -31q-320 0 -515.5 185t-195.5 495q0 168 60.5 317.5t168 259.5t264 174t339.5 64q210 0 370.5 -82.5t250 -237.5t89.5 -360q0 -168 -60.5 -317.5t-167.5 -259.5t-263.5 -174t-339.5 -64z
M842 84q159 0 293.5 57t225 154.5t141 226t50.5 271.5q0 171 -78.5 298.5t-211.5 193t-301 65.5q-158 0 -292.5 -57.5t-225 -154.5t-141 -225.5t-50.5 -271.5q0 -128 45.5 -234t125 -176t187 -108.5t232.5 -38.5z" />
    <glyph glyph-name="multiply" unicode="&#xd7;" 
d="M1022 1042l49 -51l-381 -381l381 -381l-49 -49l-381 381l-381 -383l-51 51l381 381l-381 381l49 51l383 -383z" />
    <glyph glyph-name="Oslash" unicode="&#xd8;" horiz-adv-x="1710" 
d="M1489 1268q184 -184 184 -484q0 -168 -60.5 -317.5t-167.5 -259.5t-263.5 -174t-339.5 -64q-282 0 -473 148l-144 -148l-45 41l144 148q-193 184 -193 491q0 168 60.5 317.5t168 259.5t264 174t339.5 64q290 0 481 -155l149 153l45 -41zM252 641q0 -241 156 -397l952 977
q-160 129 -399 129q-158 0 -292.5 -57.5t-225 -154.5t-141 -225.5t-50.5 -271.5zM842 84q159 0 293.5 57t225 154.5t141 226t50.5 271.5q0 239 -147 389l-950 -977q154 -121 387 -121z" />
    <glyph glyph-name="Ugrave" unicode="&#xd9;" horiz-adv-x="1423" 
d="M821 1767l137 -245h-77l-195 245h135zM1456 1434l-178 -908q-23 -124 -69.5 -222.5t-121 -175t-185 -118t-251.5 -41.5q-240 0 -367.5 116.5t-127.5 326.5q0 73 14 147l172 875h121l-172 -891q-15 -77 -15 -121q0 -158 99.5 -247t281.5 -89q209 0 335 119.5t169 337.5
l174 891h121z" />
    <glyph glyph-name="Uacute" unicode="&#xda;" horiz-adv-x="1423" 
d="M862 1522l252 245h152l-308 -245h-96zM1456 1434l-178 -908q-23 -124 -69.5 -222.5t-121 -175t-185 -118t-251.5 -41.5q-240 0 -367.5 116.5t-127.5 326.5q0 73 14 147l172 875h121l-172 -891q-15 -77 -15 -121q0 -158 99.5 -247t281.5 -89q209 0 335 119.5t169 337.5
l174 891h121z" />
    <glyph glyph-name="Ucircumflex" unicode="&#xdb;" horiz-adv-x="1423" 
d="M569 1522l326 245h123l209 -245h-123l-150 188l-247 -188h-138zM1456 1434l-178 -908q-23 -124 -69.5 -222.5t-121 -175t-185 -118t-251.5 -41.5q-240 0 -367.5 116.5t-127.5 326.5q0 73 14 147l172 875h121l-172 -891q-15 -77 -15 -121q0 -158 99.5 -247t281.5 -89
q209 0 335 119.5t169 337.5l174 891h121z" />
    <glyph glyph-name="Udieresis" unicode="&#xdc;" horiz-adv-x="1423" 
d="M651 1522l39 198h133l-39 -198h-133zM1036 1522l39 198h133l-41 -198h-131zM1456 1434l-178 -908q-23 -124 -69.5 -222.5t-121 -175t-185 -118t-251.5 -41.5q-240 0 -367.5 116.5t-127.5 326.5q0 73 14 147l172 875h121l-172 -891q-15 -77 -15 -121q0 -158 99.5 -247
t281.5 -89q209 0 335 119.5t169 337.5l174 891h121z" />
    <glyph glyph-name="Yacute" unicode="&#xdd;" horiz-adv-x="1079" 
d="M1085 1767l-307 -245h-96l252 245h151zM1249 1434l-637 -879l-106 -555h-117l109 553l-295 881h129l233 -764h4l537 764h143z" />
    <glyph glyph-name="Thorn" unicode="&#xde;" horiz-adv-x="1155" 
d="M733 1135q184 0 286.5 -102t102.5 -265q0 -201 -139 -331t-383 -130h-358l-60 -307h-114l278 1434h113l-58 -299h332zM614 414q176 0 281.5 92t105.5 254q0 129 -75 198.5t-201 69.5h-344l-119 -614h352z" />
    <glyph glyph-name="germandbls" unicode="&#xdf;" horiz-adv-x="1148" 
d="M719 813q162 -12 251 -99.5t89 -254.5q0 -224 -159.5 -346.5t-455.5 -122.5h-143l21 98h122q239 0 370.5 91t131.5 276q0 161 -103.5 234t-310.5 73l19 94q177 0 286 78t109 215q0 101 -62 157t-175 56q-124 0 -214 -73.5t-122 -235.5l-260 -1319h-107l258 1319
q81 411 449 411q88 0 156 -25t108 -67.5t60 -95.5t20 -113q0 -132 -90.5 -227.5t-247.5 -118.5v-4z" />
    <glyph glyph-name="agrave" unicode="&#xe0;" horiz-adv-x="1200" 
d="M614 1448l134 -315h-84l-193 315h143zM504 -31q-192 0 -309 123.5t-117 325.5q0 156 69.5 284.5t191.5 201.5t271 73q145 0 251 -67.5t147 -188.5h4l43 225h106l-184 -946h-107l35 172h-4q-150 -203 -397 -203zM539 72q189 0 314.5 130.5t125.5 325.5q0 158 -97.5 252
t-263.5 94q-181 0 -304.5 -132t-123.5 -326q0 -158 94.5 -251t254.5 -93z" />
    <glyph glyph-name="aacute" unicode="&#xe1;" horiz-adv-x="1200" 
d="M647 1133l258 315h156l-318 -315h-96zM504 -31q-192 0 -309 123.5t-117 325.5q0 156 69.5 284.5t191.5 201.5t271 73q145 0 251 -67.5t147 -188.5h4l43 225h106l-184 -946h-107l35 172h-4q-150 -203 -397 -203zM539 72q189 0 314.5 130.5t125.5 325.5q0 158 -97.5 252
t-263.5 94q-181 0 -304.5 -132t-123.5 -326q0 -158 94.5 -251t254.5 -93z" />
    <glyph glyph-name="acircumflex" unicode="&#xe2;" horiz-adv-x="1200" 
d="M352 1133l330 315h123l203 -315h-113l-156 247l-256 -247h-131zM504 -31q-192 0 -309 123.5t-117 325.5q0 156 69.5 284.5t191.5 201.5t271 73q145 0 251 -67.5t147 -188.5h4l43 225h106l-184 -946h-107l35 172h-4q-150 -203 -397 -203zM539 72q189 0 314.5 130.5
t125.5 325.5q0 158 -97.5 252t-263.5 94q-181 0 -304.5 -132t-123.5 -326q0 -158 94.5 -251t254.5 -93z" />
    <glyph glyph-name="atilde" unicode="&#xe3;" horiz-adv-x="1200" 
d="M889 1217q-50 0 -113 28.5t-120 57t-91 28.5q-72 0 -131 -96l-53 22q36 75 83 121.5t116 46.5q50 0 113 -28.5t119.5 -57t90.5 -28.5q72 0 131 96l53 -23q-18 -36 -34.5 -61.5t-40.5 -52t-55.5 -40t-67.5 -13.5zM504 -31q-192 0 -309 123.5t-117 325.5q0 156 69.5 284.5
t191.5 201.5t271 73q145 0 251 -67.5t147 -188.5h4l43 225h106l-184 -946h-107l35 172h-4q-150 -203 -397 -203zM539 72q189 0 314.5 130.5t125.5 325.5q0 158 -97.5 252t-263.5 94q-181 0 -304.5 -132t-123.5 -326q0 -158 94.5 -251t254.5 -93z" />
    <glyph glyph-name="adieresis" unicode="&#xe4;" horiz-adv-x="1200" 
d="M444 1184l45 229h129l-45 -229h-129zM821 1184l47 229h129l-45 -229h-131zM504 -31q-192 0 -309 123.5t-117 325.5q0 156 69.5 284.5t191.5 201.5t271 73q145 0 251 -67.5t147 -188.5h4l43 225h106l-184 -946h-107l35 172h-4q-150 -203 -397 -203zM539 72
q189 0 314.5 130.5t125.5 325.5q0 158 -97.5 252t-263.5 94q-181 0 -304.5 -132t-123.5 -326q0 -158 94.5 -251t254.5 -93z" />
    <glyph glyph-name="aring" unicode="&#xe5;" horiz-adv-x="1200" 
d="M727 1530q103 0 164 -62.5t61 -158.5q0 -108 -72.5 -183t-187.5 -75q-105 0 -166 62.5t-61 158.5q0 109 72.5 183.5t189.5 74.5zM723 1464q-86 0 -136 -54.5t-50 -135.5q0 -73 41.5 -115.5t115.5 -42.5q85 0 136 55t51 136q0 72 -42.5 114.5t-115.5 42.5zM504 -31
q-192 0 -309 123.5t-117 325.5q0 156 69.5 284.5t191.5 201.5t271 73q145 0 251 -67.5t147 -188.5h4l43 225h106l-184 -946h-107l35 172h-4q-150 -203 -397 -203zM539 72q189 0 314.5 130.5t125.5 325.5q0 158 -97.5 252t-263.5 94q-181 0 -304.5 -132t-123.5 -326
q0 -158 94.5 -251t254.5 -93z" />
    <glyph glyph-name="ae" unicode="&#xe6;" horiz-adv-x="1835" 
d="M389 -31q-166 0 -267.5 86t-101.5 232q0 158 120.5 263t310.5 105q127 0 216.5 -47t133.5 -137h2q33 129 33 203q0 106 -60.5 154.5t-183.5 48.5q-146 0 -338 -46l-23 101q208 45 363 45q161 0 244.5 -60.5t87.5 -187.5h4q63 118 177.5 183t256.5 65q201 0 302 -106.5
t101 -276.5q0 -45 -16 -133h-827q-6 -40 -6 -80q0 -137 82.5 -223t234.5 -86q125 0 213 48t170 132l72 -78q-43 -42 -78 -70t-92.5 -63t-130 -53.5t-156.5 -18.5q-161 0 -267 78t-130 207h-5q-60 -139 -174.5 -212t-267.5 -73zM944 549h709q2 16 2 51q0 127 -75 202t-226 75
q-146 0 -256 -84t-154 -244zM406 68q152 0 250 83.5t98 192.5q0 99 -81.5 157t-203.5 58q-145 0 -241.5 -77.5t-96.5 -194.5q0 -98 74.5 -158.5t200.5 -60.5z" />
    <glyph glyph-name="ccedilla" unicode="&#xe7;" horiz-adv-x="1013" 
d="M631 874q-189 0 -312.5 -124t-123.5 -310q0 -166 104 -267t266 -101q132 0 275 86l51 -92q-160 -97 -326 -97l-37 -61q27 -7 46.5 -15t40 -21.5t31.5 -34.5t11 -50q0 -26 -9.5 -48.5t-30.5 -42.5t-40 -34.5t-56 -32.5t-59.5 -27.5l-67.5 -28.5q-11 -5 -17 -7l-19 45
q109 50 154 81.5t45 69.5q0 28 -30 43.5t-97 30.5l78 135q-195 17 -310.5 143.5t-115.5 323.5q0 234 155 386.5t398 152.5q204 0 364 -125l-63 -86q-144 108 -305 108z" />
    <glyph glyph-name="egrave" unicode="&#xe8;" horiz-adv-x="1118" 
d="M743 1133h-84l-192 315h143zM1036 465h-848q-4 -40 -4 -59q0 -163 86.5 -248.5t247.5 -85.5q122 0 212 46.5t173 133.5l72 -80q-45 -44 -84 -74t-96 -63t-127.5 -50.5t-151.5 -17.5q-208 0 -324 113.5t-116 318.5q0 163 70.5 294.5t200 207.5t294.5 76q199 0 306.5 -106
t107.5 -273q0 -40 -19 -133zM635 879q-160 0 -274.5 -91t-155.5 -237h735q6 24 6 49q0 127 -81.5 203t-229.5 76z" />
    <glyph glyph-name="eacute" unicode="&#xe9;" horiz-adv-x="1118" 
d="M1057 1448l-318 -315h-96l258 315h156zM641 977q199 0 306.5 -106t107.5 -273q0 -40 -19 -133h-848q-4 -40 -4 -59q0 -163 86.5 -248.5t247.5 -85.5q122 0 212 46.5t173 133.5l72 -80q-45 -44 -84 -74t-96 -63t-127.5 -50.5t-151.5 -17.5q-208 0 -324 113.5t-116 318.5
q0 163 70.5 294.5t200 207.5t294.5 76zM940 551q6 24 6 49q0 127 -81.5 203t-229.5 76q-160 0 -274.5 -91t-155.5 -237h735z" />
    <glyph glyph-name="ecircumflex" unicode="&#xea;" horiz-adv-x="1118" 
d="M735 1380l-256 -247h-131l330 315h123l203 -315h-113zM1036 465h-848q-4 -40 -4 -59q0 -163 86.5 -248.5t247.5 -85.5q122 0 212 46.5t173 133.5l72 -80q-45 -44 -84 -74t-96 -63t-127.5 -50.5t-151.5 -17.5q-208 0 -324 113.5t-116 318.5q0 163 70.5 294.5t200 207.5
t294.5 76q199 0 306.5 -106t107.5 -273q0 -40 -19 -133zM635 879q-160 0 -274.5 -91t-155.5 -237h735q6 24 6 49q0 127 -81.5 203t-229.5 76z" />
    <glyph glyph-name="edieresis" unicode="&#xeb;" horiz-adv-x="1118" 
d="M612 1413l-45 -229h-129l45 229h129zM991 1413l-45 -229h-131l47 229h129zM1036 465h-848q-4 -40 -4 -59q0 -163 86.5 -248.5t247.5 -85.5q122 0 212 46.5t173 133.5l72 -80q-45 -44 -84 -74t-96 -63t-127.5 -50.5t-151.5 -17.5q-208 0 -324 113.5t-116 318.5
q0 163 70.5 294.5t200 207.5t294.5 76q199 0 306.5 -106t107.5 -273q0 -40 -19 -133zM635 879q-160 0 -274.5 -91t-155.5 -237h735q6 24 6 49q0 127 -81.5 203t-229.5 76z" />
    <glyph glyph-name="igrave" unicode="&#xec;" horiz-adv-x="372" 
d="M287 1448l67 -315h-90l-90 315h113zM41 0l184 946h107l-185 -946h-106z" />
    <glyph glyph-name="iacute" unicode="&#xed;" horiz-adv-x="372" 
d="M266 1133l176 315h127l-200 -315h-103zM41 0l184 946h107l-185 -946h-106z" />
    <glyph glyph-name="icircumflex" unicode="&#xee;" horiz-adv-x="372" 
d="M76 1133l229 315h121l102 -315h-100l-68 251l-170 -251h-114zM41 0l184 946h107l-185 -946h-106z" />
    <glyph glyph-name="idieresis" unicode="&#xef;" horiz-adv-x="372" 
d="M147 1184l46 229h129l-46 -229h-129zM377 1184l45 229h129l-45 -229h-129zM41 0l184 946h107l-185 -946h-106z" />
    <glyph glyph-name="eth" unicode="&#xf0;" horiz-adv-x="1249" 
d="M973 1370q213 -187 213 -577q0 -140 -23 -259t-65.5 -208.5t-100 -158.5t-128 -112t-149 -64.5t-163.5 -21.5q-216 0 -345.5 131t-129.5 340q0 146 63.5 267.5t186.5 195.5t282 74q88 0 165 -24t139.5 -72t102 -128.5t46.5 -185.5h4q14 79 14 240q0 340 -194 502
l-246 -185l-41 52l232 174q-131 87 -349 123l27 88q253 -44 404 -150l196 148l37 -56zM565 74q194 0 316.5 126.5t122.5 311.5q0 164 -101.5 262t-273.5 98q-106 0 -191.5 -37.5t-137 -100t-78.5 -138.5t-27 -158q0 -166 102 -265t268 -99z" />
    <glyph glyph-name="ntilde" unicode="&#xf1;" horiz-adv-x="1101" 
d="M891 1217q-50 0 -113 28.5t-120 57t-91 28.5q-72 0 -131 -96l-53 22q36 75 83 121.5t116 46.5q50 0 113 -28.5t119.5 -57t90.5 -28.5q72 0 131 96l54 -23q-38 -76 -84 -121.5t-115 -45.5zM39 0l184 946h107l-45 -215h4q72 127 167 186.5t226 59.5q153 0 235 -80t82 -221
q0 -62 -16 -156l-102 -520h-107l100 516q15 67 15 131q0 117 -59 172t-179 55q-336 0 -424 -452l-82 -422h-106z" />
    <glyph glyph-name="ograve" unicode="&#xf2;" horiz-adv-x="1185" 
d="M616 1448l134 -315h-84l-193 315h143zM541 -31q-210 0 -336.5 116.5t-126.5 326.5q0 155 71 283.5t202 205t294 76.5q210 0 336.5 -116t126.5 -326q0 -116 -42 -219.5t-115.5 -180t-180 -121.5t-229.5 -45zM551 74q128 0 231 64.5t158 169.5t55 227q0 158 -96 247.5
t-264 89.5q-128 0 -231 -64t-158.5 -169t-55.5 -227q0 -158 96.5 -248t264.5 -90z" />
    <glyph glyph-name="oacute" unicode="&#xf3;" horiz-adv-x="1185" 
d="M649 1133l258 315h156l-318 -315h-96zM541 -31q-210 0 -336.5 116.5t-126.5 326.5q0 155 71 283.5t202 205t294 76.5q210 0 336.5 -116t126.5 -326q0 -116 -42 -219.5t-115.5 -180t-180 -121.5t-229.5 -45zM551 74q128 0 231 64.5t158 169.5t55 227q0 158 -96 247.5
t-264 89.5q-128 0 -231 -64t-158.5 -169t-55.5 -227q0 -158 96.5 -248t264.5 -90z" />
    <glyph glyph-name="ocircumflex" unicode="&#xf4;" horiz-adv-x="1185" 
d="M352 1133l330 315h123l203 -315h-113l-156 247l-256 -247h-131zM541 -31q-210 0 -336.5 116.5t-126.5 326.5q0 155 71 283.5t202 205t294 76.5q210 0 336.5 -116t126.5 -326q0 -116 -42 -219.5t-115.5 -180t-180 -121.5t-229.5 -45zM551 74q128 0 231 64.5t158 169.5
t55 227q0 158 -96 247.5t-264 89.5q-128 0 -231 -64t-158.5 -169t-55.5 -227q0 -158 96.5 -248t264.5 -90z" />
    <glyph glyph-name="otilde" unicode="&#xf5;" horiz-adv-x="1185" 
d="M891 1217q-50 0 -113 28.5t-120 57t-91 28.5q-72 0 -131 -96l-53 22q36 75 83 121.5t116 46.5q50 0 113 -28.5t119.5 -57t90.5 -28.5q72 0 131 96l54 -23q-38 -76 -84 -121.5t-115 -45.5zM541 -31q-210 0 -336.5 116.5t-126.5 326.5q0 155 71 283.5t202 205t294 76.5
q210 0 336.5 -116t126.5 -326q0 -116 -42 -219.5t-115.5 -180t-180 -121.5t-229.5 -45zM551 74q128 0 231 64.5t158 169.5t55 227q0 158 -96 247.5t-264 89.5q-128 0 -231 -64t-158.5 -169t-55.5 -227q0 -158 96.5 -248t264.5 -90z" />
    <glyph glyph-name="odieresis" unicode="&#xf6;" horiz-adv-x="1185" 
d="M444 1184l45 229h129l-45 -229h-129zM821 1184l47 229h129l-45 -229h-131zM541 -31q-210 0 -336.5 116.5t-126.5 326.5q0 155 71 283.5t202 205t294 76.5q210 0 336.5 -116t126.5 -326q0 -116 -42 -219.5t-115.5 -180t-180 -121.5t-229.5 -45zM551 74q128 0 231 64.5
t158 169.5t55 227q0 158 -96 247.5t-264 89.5q-128 0 -231 -64t-158.5 -169t-55.5 -227q0 -158 96.5 -248t264.5 -90z" />
    <glyph glyph-name="divide" unicode="&#xf7;" 
d="M705 991v-149h-125v149h125zM1171 643v-65h-1060v65h1060zM705 381v-154h-125v154h125z" />
    <glyph glyph-name="oslash" unicode="&#xf8;" horiz-adv-x="1185" 
d="M1110 936l-104 -100q102 -114 102 -301q0 -116 -42 -219.5t-115.5 -180t-180 -121.5t-229.5 -45q-209 0 -334 113l-117 -111l-41 39l119 113q-90 117 -90 289q0 155 71 283.5t202 205t294 76.5q199 0 320 -100l106 100zM190 412q0 -129 62 -209l629 594q-90 75 -246 75
q-128 0 -231 -64t-158.5 -169t-55.5 -227zM995 535q0 141 -73 223l-631 -598q95 -86 260 -86q128 0 231 64.5t158 169.5t55 227z" />
    <glyph glyph-name="ugrave" unicode="&#xf9;" horiz-adv-x="1069" 
d="M578 1448l133 -315h-84l-193 315h144zM401 -31q-149 0 -230 78.5t-81 216.5q0 58 14 135l109 547h111l-109 -547q-10 -65 -10 -108q0 -217 223 -217q320 0 412 465l82 407h108l-184 -946h-107l41 203h-4q-57 -104 -150.5 -169t-224.5 -65z" />
    <glyph glyph-name="uacute" unicode="&#xfa;" horiz-adv-x="1069" 
d="M610 1133l258 315h156l-317 -315h-97zM401 -31q-149 0 -230 78.5t-81 216.5q0 58 14 135l109 547h111l-109 -547q-10 -65 -10 -108q0 -217 223 -217q320 0 412 465l82 407h108l-184 -946h-107l41 203h-4q-57 -104 -150.5 -169t-224.5 -65z" />
    <glyph glyph-name="ucircumflex" unicode="&#xfb;" horiz-adv-x="1069" 
d="M315 1133l330 315h123l203 -315h-113l-156 247l-256 -247h-131zM401 -31q-149 0 -230 78.5t-81 216.5q0 58 14 135l109 547h111l-109 -547q-10 -65 -10 -108q0 -217 223 -217q320 0 412 465l82 407h108l-184 -946h-107l41 203h-4q-57 -104 -150.5 -169t-224.5 -65z" />
    <glyph glyph-name="udieresis" unicode="&#xfc;" horiz-adv-x="1069" 
d="M408 1184l45 229h129l-45 -229h-129zM784 1184l47 229h130l-46 -229h-131zM401 -31q-149 0 -230 78.5t-81 216.5q0 58 14 135l109 547h111l-109 -547q-10 -65 -10 -108q0 -217 223 -217q320 0 412 465l82 407h108l-184 -946h-107l41 203h-4q-57 -104 -150.5 -169
t-224.5 -65z" />
    <glyph glyph-name="yacute" unicode="&#xfd;" horiz-adv-x="919" 
d="M944 1448l-317 -315h-97l258 315h156zM866 946h121l-864 -1356h-115l336 527l-225 829h114l181 -719z" />
    <glyph glyph-name="thorn" unicode="&#xfe;" horiz-adv-x="1214" 
d="M721 977q189 0 304.5 -115.5t115.5 -308.5q0 -127 -44.5 -237t-120 -185.5t-177.5 -118.5t-215 -43q-146 0 -243.5 67.5t-129.5 172.5h-6l-121 -619h-107l265 1356l94 488h106l-94 -488l-35 -178h4q71 97 176 153t228 56zM575 72q193 0 323 137t130 340
q0 148 -87.5 236.5t-240.5 88.5q-197 0 -328.5 -137t-131.5 -340q0 -148 88.5 -236.5t246.5 -88.5z" />
    <glyph glyph-name="ydieresis" unicode="&#xff;" horiz-adv-x="919" 
d="M500 1413l-45 -229h-129l45 229h129zM879 1413l-45 -229h-132l48 229h129zM866 946h121l-864 -1356h-115l336 527l-225 829h114l181 -719z" />
    <glyph glyph-name="Amacron" unicode="&#x100;" horiz-adv-x="1325" 
d="M1141 1669l-17 -84h-565l19 84h563zM1092 0l-84 403h-705l-233 -403h-136l840 1434h123l309 -1434h-114zM362 510h623l-166 793z" />
    <glyph glyph-name="amacron" unicode="&#x101;" horiz-adv-x="1200" 
d="M1008 1337l-19 -86h-563l16 86h566zM504 -31q-192 0 -309 123.5t-117 325.5q0 156 69.5 284.5t191.5 201.5t271 73q145 0 251 -67.5t147 -188.5h4l43 225h106l-184 -946h-107l35 172h-4q-150 -203 -397 -203zM539 72q189 0 314.5 130.5t125.5 325.5q0 158 -97.5 252
t-263.5 94q-181 0 -304.5 -132t-123.5 -326q0 -158 94.5 -251t254.5 -93z" />
    <glyph glyph-name="Abreve" unicode="&#x102;" horiz-adv-x="1325" 
d="M850 1522q-107 0 -170.5 50t-63.5 140q0 20 7 55h82q-5 -40 -5 -43q0 -58 40.5 -89t117.5 -31q90 0 149 42.5t83 120.5h88q-26 -115 -114.5 -180t-213.5 -65zM1092 0l-84 403h-705l-233 -403h-136l840 1434h123l309 -1434h-114zM362 510h623l-166 793z" />
    <glyph glyph-name="abreve" unicode="&#x103;" horiz-adv-x="1200" 
d="M1030 1432q-25 -137 -108.5 -213t-214.5 -76q-109 0 -174.5 57t-65.5 158q0 36 6 74h82q-6 -24 -6 -52q0 -74 42 -114.5t118 -40.5q186 0 233 207h88zM504 -31q-192 0 -309 123.5t-117 325.5q0 156 69.5 284.5t191.5 201.5t271 73q145 0 251 -67.5t147 -188.5h4l43 225
h106l-184 -946h-107l35 172h-4q-150 -203 -397 -203zM539 72q189 0 314.5 130.5t125.5 325.5q0 158 -97.5 252t-263.5 94q-181 0 -304.5 -132t-123.5 -326q0 -158 94.5 -251t254.5 -93z" />
    <glyph glyph-name="Aogonek" unicode="&#x104;" horiz-adv-x="1325" 
d="M1034 -303q47 0 101 14l4 -80q-67 -18 -121 -18q-75 0 -125.5 33t-50.5 98q0 140 241 297l-75 362h-705l-233 -403h-136l840 1434h123l309 -1434h-80q-97 -73 -142.5 -128.5t-45.5 -107.5q0 -67 96 -67zM362 510h623l-166 793z" />
    <glyph glyph-name="aogonek" unicode="&#x105;" horiz-adv-x="1200" 
d="M926 0q-98 -74 -143.5 -129t-45.5 -107q0 -67 97 -67q46 0 100 14l4 -80q-67 -18 -121 -18q-75 0 -125.5 33t-50.5 98q0 72 59 143.5t179 151.5l26 133h-4q-150 -203 -397 -203q-192 0 -309 123.5t-117 325.5q0 156 69.5 284.5t191.5 201.5t271 73q145 0 251 -67.5
t147 -188.5h4l43 225h106l-184 -946h-51zM539 72q189 0 314.5 130.5t125.5 325.5q0 158 -97.5 252t-263.5 94q-181 0 -304.5 -132t-123.5 -326q0 -158 94.5 -251t254.5 -93z" />
    <glyph glyph-name="Cacute" unicode="&#x106;" horiz-adv-x="1433" 
d="M950 1522l252 245h152l-307 -245h-97zM784 -31q-308 0 -482.5 177t-174.5 479q0 178 63 333t174 266.5t271.5 175.5t347.5 64q281 0 496 -164l-72 -94q-196 144 -434 144q-209 0 -376 -98t-258 -262t-91 -361q0 -256 145.5 -400.5t405.5 -144.5q126 0 229 36t209 105
l63 -96q-121 -81 -244.5 -120.5t-271.5 -39.5z" />
    <glyph glyph-name="cacute" unicode="&#x107;" horiz-adv-x="1013" 
d="M627 1133l258 315h155l-317 -315h-96zM563 -31q-219 0 -350 128.5t-131 340.5q0 234 155 386.5t398 152.5q204 0 364 -125l-63 -86q-144 108 -305 108q-189 0 -312.5 -124t-123.5 -310q0 -166 104 -267t266 -101q132 0 275 86l51 -92q-156 -97 -328 -97z" />
    <glyph glyph-name="Ccircumflex" unicode="&#x108;" horiz-adv-x="1433" 
d="M657 1522l326 245h123l209 -245h-123l-150 188l-247 -188h-138zM784 -31q-308 0 -482.5 177t-174.5 479q0 178 63 333t174 266.5t271.5 175.5t347.5 64q281 0 496 -164l-72 -94q-196 144 -434 144q-209 0 -376 -98t-258 -262t-91 -361q0 -256 145.5 -400.5t405.5 -144.5
q126 0 229 36t209 105l63 -96q-121 -81 -244.5 -120.5t-271.5 -39.5z" />
    <glyph glyph-name="ccircumflex" unicode="&#x109;" horiz-adv-x="1013" 
d="M332 1133l330 315h122l203 -315h-113l-155 247l-256 -247h-131zM563 -31q-219 0 -350 128.5t-131 340.5q0 234 155 386.5t398 152.5q204 0 364 -125l-63 -86q-144 108 -305 108q-189 0 -312.5 -124t-123.5 -310q0 -166 104 -267t266 -101q132 0 275 86l51 -92
q-156 -97 -328 -97z" />
    <glyph glyph-name="Cdotaccent" unicode="&#x10a;" horiz-adv-x="1433" 
d="M1112 1745l-43 -223h-133l45 223h131zM784 -31q-308 0 -482.5 177t-174.5 479q0 178 63 333t174 266.5t271.5 175.5t347.5 64q281 0 496 -164l-72 -94q-196 144 -434 144q-209 0 -376 -98t-258 -262t-91 -361q0 -256 145.5 -400.5t405.5 -144.5q126 0 229 36t209 105
l63 -96q-121 -81 -244.5 -120.5t-271.5 -39.5z" />
    <glyph glyph-name="cdotaccent" unicode="&#x10b;" horiz-adv-x="1013" 
d="M799 1413l-49 -246h-140l49 246h140zM563 -31q-219 0 -350 128.5t-131 340.5q0 234 155 386.5t398 152.5q204 0 364 -125l-63 -86q-144 108 -305 108q-189 0 -312.5 -124t-123.5 -310q0 -166 104 -267t266 -101q132 0 275 86l51 -92q-156 -97 -328 -97z" />
    <glyph glyph-name="Ccaron" unicode="&#x10c;" horiz-adv-x="1433" 
d="M932 1522l-205 245h117l153 -188l246 188h141l-329 -245h-123zM784 -31q-308 0 -482.5 177t-174.5 479q0 178 63 333t174 266.5t271.5 175.5t347.5 64q281 0 496 -164l-72 -94q-196 144 -434 144q-209 0 -376 -98t-258 -262t-91 -361q0 -256 145.5 -400.5t405.5 -144.5
q126 0 229 36t209 105l63 -96q-121 -81 -244.5 -120.5t-271.5 -39.5z" />
    <glyph glyph-name="ccaron" unicode="&#x10d;" horiz-adv-x="1013" 
d="M594 1114l-203 316h113l155 -248l256 248h132l-330 -316h-123zM563 -31q-219 0 -350 128.5t-131 340.5q0 234 155 386.5t398 152.5q204 0 364 -125l-63 -86q-144 108 -305 108q-189 0 -312.5 -124t-123.5 -310q0 -166 104 -267t266 -101q132 0 275 86l51 -92
q-156 -97 -328 -97z" />
    <glyph glyph-name="Dcaron" unicode="&#x10e;" horiz-adv-x="1413" 
d="M717 1522l-205 245h117l153 -188l246 188h141l-329 -245h-123zM68 0l278 1434h426q279 0 445.5 -163t166.5 -450q0 -186 -67.5 -341t-185 -259.5t-278 -162.5t-345.5 -58h-440zM203 106h315q120 0 231.5 30.5t204.5 91t162.5 145t108.5 198t39 244.5q0 243 -138 377.5
t-370 134.5h-314z" />
    <glyph glyph-name="dcaron" unicode="&#x10f;" horiz-adv-x="1374" 
d="M1389 1464h165l-32 -164l-191 -260h-59l155 260h-69zM1012 721l135 713h106l-276 -1434h-107l35 172h-4q-150 -203 -397 -203q-192 0 -309 123.5t-117 325.5q0 156 69.5 284.5t191.5 201.5t271 73q145 0 251 -67.5t147 -188.5h4zM539 72q189 0 314.5 130.5t125.5 325.5
q0 158 -97.5 252t-263.5 94q-181 0 -304.5 -132t-123.5 -326q0 -158 94.5 -251t254.5 -93z" />
    <glyph glyph-name="Dcroat" unicode="&#x110;" horiz-adv-x="1462" 
d="M819 1434q279 0 446 -163t167 -450q0 -247 -116.5 -435.5t-315 -287t-445.5 -98.5h-440l137 707h-191l19 88h188l125 639h426zM565 106q120 0 231.5 30.5t204.5 91t162.5 145t108.5 198t39 244.5q0 243 -138 377.5t-370 134.5h-314l-104 -532h367l-19 -88h-364l-119 -601
h315z" />
    <glyph glyph-name="dcroat" unicode="&#x111;" horiz-adv-x="1247" 
d="M1399 1255l-15 -75h-180l-227 -1180h-107l35 172h-4q-150 -203 -397 -203q-192 0 -309 123.5t-117 325.5q0 156 69.5 284.5t191.5 201.5t271 73q145 0 251 -67.5t147 -188.5h4l86 459h-307l16 75h305l35 179h106l-34 -179h180zM539 72q189 0 314.5 130.5t125.5 325.5
q0 158 -97.5 252t-263.5 94q-181 0 -304.5 -132t-123.5 -326q0 -158 94.5 -251t254.5 -93z" />
    <glyph glyph-name="Emacron" unicode="&#x112;" horiz-adv-x="1050" 
d="M1063 1669l-16 -84h-566l19 84h563zM1116 1327h-674l-92 -471h621l-21 -106h-622l-125 -644h684l-21 -106h-798l278 1434h791z" />
    <glyph glyph-name="emacron" unicode="&#x113;" horiz-adv-x="1118" 
d="M1001 1337l-18 -86h-563l16 86h565zM1036 465h-848q-4 -40 -4 -59q0 -163 86.5 -248.5t247.5 -85.5q122 0 212 46.5t173 133.5l72 -80q-45 -44 -84 -74t-96 -63t-127.5 -50.5t-151.5 -17.5q-208 0 -324 113.5t-116 318.5q0 163 70.5 294.5t200 207.5t294.5 76
q199 0 306.5 -106t107.5 -273q0 -40 -19 -133zM635 879q-160 0 -274.5 -91t-155.5 -237h735q6 24 6 49q0 127 -81.5 203t-229.5 76z" />
    <glyph glyph-name="Ebreve" unicode="&#x114;" horiz-adv-x="1050" 
d="M770 1522q-107 0 -170 50t-63 140q0 25 6 55h82q-4 -32 -4 -43q0 -58 40 -89t117 -31q90 0 149 42.5t83 120.5h88q-26 -115 -114.5 -180t-213.5 -65zM1116 1327h-674l-92 -471h621l-21 -106h-622l-125 -644h684l-21 -106h-798l278 1434h791z" />
    <glyph glyph-name="ebreve" unicode="&#x115;" horiz-adv-x="1118" 
d="M700 1143q-109 0 -174 57t-65 158q0 36 6 74h82q-6 -24 -6 -52q0 -74 41.5 -114.5t117.5 -40.5q187 0 234 207h88q-25 -136 -109 -212.5t-215 -76.5zM1036 465h-848q-4 -40 -4 -59q0 -163 86.5 -248.5t247.5 -85.5q122 0 212 46.5t173 133.5l72 -80q-45 -44 -84 -74
t-96 -63t-127.5 -50.5t-151.5 -17.5q-208 0 -324 113.5t-116 318.5q0 163 70.5 294.5t200 207.5t294.5 76q199 0 306.5 -106t107.5 -273q0 -40 -19 -133zM635 879q-160 0 -274.5 -91t-155.5 -237h735q6 24 6 49q0 127 -81.5 203t-229.5 76z" />
    <glyph glyph-name="Edotaccent" unicode="&#x116;" horiz-adv-x="1050" 
d="M883 1745l-43 -223h-133l45 223h131zM1116 1327h-674l-92 -471h621l-21 -106h-622l-125 -644h684l-21 -106h-798l278 1434h791z" />
    <glyph glyph-name="edotaccent" unicode="&#x117;" horiz-adv-x="1118" 
d="M815 1413l-49 -246h-139l49 246h139zM1036 465h-848q-4 -40 -4 -59q0 -163 86.5 -248.5t247.5 -85.5q122 0 212 46.5t173 133.5l72 -80q-45 -44 -84 -74t-96 -63t-127.5 -50.5t-151.5 -17.5q-208 0 -324 113.5t-116 318.5q0 163 70.5 294.5t200 207.5t294.5 76
q199 0 306.5 -106t107.5 -273q0 -40 -19 -133zM635 879q-160 0 -274.5 -91t-155.5 -237h735q6 24 6 49q0 127 -81.5 203t-229.5 76z" />
    <glyph glyph-name="Eogonek" unicode="&#x118;" horiz-adv-x="1050" 
d="M1116 1327h-674l-92 -471h621l-21 -106h-622l-125 -644h684l-17 -86h2q-2 0 -2 -2l-4 -18h-22q-98 -74 -143.5 -129t-45.5 -107q0 -67 97 -67q46 0 100 14l4 -80q-67 -18 -121 -18q-75 0 -125.5 33t-50.5 98q0 123 180 256h-671l278 1434h791z" />
    <glyph glyph-name="eogonek" unicode="&#x119;" horiz-adv-x="1118" 
d="M1036 465h-848q-4 -40 -4 -59q0 -163 86.5 -248.5t247.5 -85.5q122 0 212 46.5t173 133.5l72 -80q-110 -106 -213 -154q-111 -80 -163 -139.5t-52 -114.5q0 -67 96 -67q46 0 100 14l5 -80q-67 -18 -121 -18q-75 0 -125.5 33t-50.5 98q0 109 147 229q-40 -6 -82 -6
q-208 0 -324 113.5t-116 318.5q0 163 70.5 294.5t200 207.5t294.5 76q199 0 306.5 -106t107.5 -273q0 -40 -19 -133zM635 879q-160 0 -274.5 -91t-155.5 -237h735q6 24 6 49q0 127 -81.5 203t-229.5 76z" />
    <glyph glyph-name="Ecaron" unicode="&#x11a;" horiz-adv-x="1050" 
d="M825 1522h-123l-204 245h116l154 -188l246 188h141zM68 0l278 1434h791l-21 -107h-674l-92 -471h621l-21 -106h-622l-125 -644h684l-21 -106h-798z" />
    <glyph glyph-name="ecaron" unicode="&#x11b;" horiz-adv-x="1118" 
d="M733 1114h-123l-202 316h112l156 -248l256 248h131zM641 977q199 0 306.5 -106t107.5 -273q0 -40 -19 -133h-848q-4 -40 -4 -59q0 -163 86.5 -248.5t247.5 -85.5q122 0 212 46.5t173 133.5l72 -80q-45 -44 -84 -74t-96 -63t-127.5 -50.5t-151.5 -17.5q-208 0 -324 113.5
t-116 318.5q0 163 70.5 294.5t200 207.5t294.5 76zM940 551q6 24 6 49q0 127 -81.5 203t-229.5 76q-160 0 -274.5 -91t-155.5 -237h735z" />
    <glyph glyph-name="Gcircumflex" unicode="&#x11c;" horiz-adv-x="1654" 
d="M1053 1710l-248 -188h-137l325 245h123l209 -245h-123zM965 739h671l-8 -45q-21 -125 -60 -230.5t-103.5 -198.5t-151 -157.5t-207 -101.5t-266.5 -37q-324 0 -517.5 181t-193.5 493q0 175 61.5 327t170.5 260.5t265 171t337 62.5q182 0 318.5 -51.5t252.5 -144.5
l-88 -92q-206 174 -490 174q-198 0 -359.5 -91t-254 -252.5t-92.5 -361.5q0 -260 158.5 -410.5t433.5 -150.5q122 0 222.5 30t170.5 80.5t123 123t83.5 149.5t49.5 168h-551z" />
    <glyph glyph-name="gcircumflex" unicode="&#x11d;" horiz-adv-x="1200" 
d="M342 1133l330 315h123l202 -315h-112l-156 247l-256 -247h-131zM1055 946h106l-184 -946q-44 -233 -159 -335.5t-333 -102.5q-202 0 -401 92l43 100q196 -90 362 -90t256.5 79.5t124.5 256.5l35 172h-4q-150 -203 -397 -203q-192 0 -309 123.5t-117 325.5
q0 156 69.5 284.5t191.5 201.5t271 73q145 0 251 -67.5t147 -188.5h4zM539 72q189 0 314.5 130.5t125.5 325.5q0 158 -97.5 252t-263.5 94q-181 0 -304.5 -132t-123.5 -326q0 -158 94.5 -251t254.5 -93z" />
    <glyph glyph-name="Gbreve" unicode="&#x11e;" horiz-adv-x="1654" 
d="M1010 1522q-107 0 -170.5 50t-63.5 140q0 25 6 55h82q-4 -32 -4 -43q0 -58 40.5 -89t117.5 -31q89 0 148 42.5t83 120.5h88q-26 -115 -114 -180t-213 -65zM965 739h671l-8 -45q-21 -125 -60 -230.5t-103.5 -198.5t-151 -157.5t-207 -101.5t-266.5 -37q-324 0 -517.5 181
t-193.5 493q0 175 61.5 327t170.5 260.5t265 171t337 62.5q182 0 318.5 -51.5t252.5 -144.5l-88 -92q-206 174 -490 174q-198 0 -359.5 -91t-254 -252.5t-92.5 -361.5q0 -260 158.5 -410.5t433.5 -150.5q122 0 222.5 30t170.5 80.5t123 123t83.5 149.5t49.5 168h-551z" />
    <glyph glyph-name="gbreve" unicode="&#x11f;" horiz-adv-x="1200" 
d="M1020 1432q-25 -136 -109 -212.5t-215 -76.5q-109 0 -174 57t-65 158q0 36 6 74h82q-6 -24 -6 -52q0 -74 41.5 -114.5t117.5 -40.5q187 0 234 207h88zM1055 946h106l-184 -946q-44 -233 -159 -335.5t-333 -102.5q-202 0 -401 92l43 100q196 -90 362 -90t256.5 79.5
t124.5 256.5l35 172h-4q-150 -203 -397 -203q-192 0 -309 123.5t-117 325.5q0 156 69.5 284.5t191.5 201.5t271 73q145 0 251 -67.5t147 -188.5h4zM539 72q189 0 314.5 130.5t125.5 325.5q0 158 -97.5 252t-263.5 94q-181 0 -304.5 -132t-123.5 -326q0 -158 94.5 -251
t254.5 -93z" />
    <glyph glyph-name="Gdotaccent" unicode="&#x120;" horiz-adv-x="1654" 
d="M1122 1745l-43 -223h-133l45 223h131zM965 739h671l-8 -45q-21 -125 -60 -230.5t-103.5 -198.5t-151 -157.5t-207 -101.5t-266.5 -37q-324 0 -517.5 181t-193.5 493q0 175 61.5 327t170.5 260.5t265 171t337 62.5q182 0 318.5 -51.5t252.5 -144.5l-88 -92
q-206 174 -490 174q-198 0 -359.5 -91t-254 -252.5t-92.5 -361.5q0 -260 158.5 -410.5t433.5 -150.5q122 0 222.5 30t170.5 80.5t123 123t83.5 149.5t49.5 168h-551z" />
    <glyph glyph-name="gdotaccent" unicode="&#x121;" horiz-adv-x="1200" 
d="M811 1413l-49 -246h-139l49 246h139zM1055 946h106l-184 -946q-44 -233 -159 -335.5t-333 -102.5q-202 0 -401 92l43 100q196 -90 362 -90t256.5 79.5t124.5 256.5l35 172h-4q-150 -203 -397 -203q-192 0 -309 123.5t-117 325.5q0 156 69.5 284.5t191.5 201.5t271 73
q145 0 251 -67.5t147 -188.5h4zM539 72q189 0 314.5 130.5t125.5 325.5q0 158 -97.5 252t-263.5 94q-181 0 -304.5 -132t-123.5 -326q0 -158 94.5 -251t254.5 -93z" />
    <glyph glyph-name="Gcommaaccent" unicode="&#x122;" horiz-adv-x="1654" 
d="M965 739h671l-8 -45q-21 -125 -60 -230.5t-103.5 -198.5t-151 -157.5t-207 -101.5t-266.5 -37q-324 0 -517.5 181t-193.5 493q0 175 61.5 327t170.5 260.5t265 171t337 62.5q182 0 318.5 -51.5t252.5 -144.5l-88 -92q-206 174 -490 174q-198 0 -359.5 -91t-254 -252.5
t-92.5 -361.5q0 -260 158.5 -410.5t433.5 -150.5q122 0 222.5 30t170.5 80.5t123 123t83.5 149.5t49.5 168h-551zM700 -254l31 158h162l-31 -158l-155 -160h-52l115 160h-70z" />
    <glyph glyph-name="gcommaaccent" unicode="&#x123;" horiz-adv-x="1200" 
d="M801 1264l-31 -158h-162l31 158l156 159h51l-115 -159h70zM1055 946h106l-184 -946q-44 -233 -159 -335.5t-333 -102.5q-202 0 -401 92l43 100q196 -90 362 -90t256.5 79.5t124.5 256.5l35 172h-4q-150 -203 -397 -203q-192 0 -309 123.5t-117 325.5q0 156 69.5 284.5
t191.5 201.5t271 73q145 0 251 -67.5t147 -188.5h4zM539 72q189 0 314.5 130.5t125.5 325.5q0 158 -97.5 252t-263.5 94q-181 0 -304.5 -132t-123.5 -326q0 -158 94.5 -251t254.5 -93z" />
    <glyph glyph-name="Hcircumflex" unicode="&#x124;" horiz-adv-x="1388" 
d="M938 1710l-248 -188h-137l326 245h122l209 -245h-123zM1300 1434h115l-278 -1434h-115l137 713h-837l-140 -713h-114l278 1434h115l-119 -615h838z" />
    <glyph glyph-name="hcircumflex" unicode="&#x125;" horiz-adv-x="1120" 
d="M61 1522l326 245h123l209 -245h-123l-150 188l-247 -188h-138zM57 0l279 1434h106l-137 -703h4q66 122 159.5 184t225.5 62q148 0 233 -80.5t85 -241.5q0 -53 -11 -112l-102 -543h-106l102 545q10 58 10 90q0 118 -61.5 178.5t-175.5 60.5q-71 0 -134.5 -24.5
t-120.5 -75.5t-100.5 -141t-66.5 -211l-82 -422h-107z" />
    <glyph glyph-name="Hbar" unicode="&#x126;" horiz-adv-x="1378" 
d="M1513 1159l-18 -84h-152l-208 -1075h-115l139 713h-837l-140 -713h-116l208 1075h-157l16 84h158l53 275h117l-53 -275h837l53 275h115l-53 -275h153zM1180 819l49 256h-838l-49 -256h838z" />
    <glyph glyph-name="hbar" unicode="&#x127;" horiz-adv-x="1122" 
d="M696 977q148 0 233 -80.5t85 -241.5q0 -58 -10 -112l-103 -543h-106l102 545q10 58 10 90q0 118 -61.5 178.5t-175.5 60.5q-71 0 -134.5 -24.5t-120.5 -75.5t-100.5 -141t-66.5 -211l-82 -422h-107l230 1180h-152l17 75h149l35 179h106l-34 -179h335l-14 -75h-336
l-88 -449h4q66 122 159.5 184t225.5 62z" />
    <glyph glyph-name="Itilde" unicode="&#x128;" horiz-adv-x="436" 
d="M627 1559q-50 0 -113 28t-120 56t-91 28q-71 0 -131 -94l-53 20q36 75 82.5 121.5t115.5 46.5q50 0 113 -27.5t120 -55t91 -27.5q72 0 131 92l53 -21q-36 -75 -82.5 -121t-115.5 -46zM68 0l278 1434h117l-279 -1434h-116z" />
    <glyph glyph-name="itilde" unicode="&#x129;" horiz-adv-x="372" 
d="M254 1419q35 0 69 -19t56 -41.5t47.5 -41.5t46.5 -19q24 0 45 20.5t47 65.5l51 -24q-70 -158 -174 -158q-35 0 -69 18.5t-56 41t-47.5 41t-46.5 18.5q-24 0 -45 -20.5t-47 -65.5l-51 25q71 159 174 159zM41 0l184 946h107l-185 -946h-106z" />
    <glyph glyph-name="Imacron" unicode="&#x12a;" horiz-adv-x="436" 
d="M711 1669l-17 -84h-565l18 84h564zM68 0l278 1434h117l-279 -1434h-116z" />
    <glyph glyph-name="imacron" unicode="&#x12b;" horiz-adv-x="372" 
d="M551 1337l-19 -86h-399l17 86h401zM41 0l184 946h107l-185 -946h-106z" />
    <glyph glyph-name="Ibreve" unicode="&#x12c;" horiz-adv-x="436" 
d="M420 1522q-107 0 -170.5 50t-63.5 140q0 20 7 55h81q-4 -32 -4 -43q0 -58 40.5 -89t117.5 -31q89 0 148 42.5t83 120.5h89q-26 -115 -114.5 -180t-213.5 -65zM68 0l278 1434h117l-279 -1434h-116z" />
    <glyph glyph-name="ibreve" unicode="&#x12d;" horiz-adv-x="372" 
d="M580 1432q-23 -149 -83.5 -219t-164.5 -70q-89 0 -139 50t-50 150q0 39 9 89h81q-8 -41 -8 -82q0 -125 107 -125q71 0 106.5 50t53.5 157h88zM41 0l184 946h107l-185 -946h-106z" />
    <glyph glyph-name="Iogonek" unicode="&#x12e;" horiz-adv-x="436" 
d="M158 0q-110 -80 -160.5 -138.5t-50.5 -113.5q0 -67 96 -67q46 0 100 14l4 -80q-67 -18 -120 -18q-75 0 -126 33t-51 98q0 69 54.5 137t165.5 145l276 1424h117l-279 -1434h-26z" />
    <glyph glyph-name="iogonek" unicode="&#x12f;" horiz-adv-x="372" 
d="M295 1413h139l-49 -246h-139zM47 31l178 915h107l-185 -946h-41q-98 -72 -143 -127.5t-45 -108.5q0 -67 96 -67q47 0 101 14l4 -80q-67 -18 -121 -18q-75 0 -125.5 33t-50.5 98q0 134 225 287z" />
    <glyph glyph-name="Idotaccent" unicode="&#x130;" horiz-adv-x="436" 
d="M530 1745l-43 -223h-133l45 223h131zM68 0l278 1434h117l-279 -1434h-116z" />
    <glyph glyph-name="dotlessi" unicode="&#x131;" horiz-adv-x="372" 
d="M41 0l184 946h107l-185 -946h-106z" />
    <glyph glyph-name="IJ" unicode="&#x132;" horiz-adv-x="993" 
d="M68 0l278 1434h117l-279 -1434h-116zM381 -10l22 110h48q98 0 154.5 44.5t78.5 152.5l221 1137h117l-225 -1151q-32 -158 -115.5 -225.5t-235.5 -67.5h-65z" />
    <glyph glyph-name="ij" unicode="&#x133;" horiz-adv-x="745" 
d="M434 1413l-49 -246h-139l49 246h139zM807 1413l-49 -246h-140l50 246h139zM41 0l184 946h107l-185 -946h-106zM139 -317h54q159 0 194 170l213 1093h107l-215 -1098q-28 -144 -107 -205t-205 -61h-59z" />
    <glyph glyph-name="Jcircumflex" unicode="&#x134;" horiz-adv-x="559" 
d="M201 1522l325 245h123l209 -245h-123l-149 188l-248 -188h-137zM-55 -10l22 110h47q98 0 155 44.5t79 152.5l221 1137h117l-226 -1151q-32 -158 -115 -225.5t-235 -67.5h-65z" />
    <glyph glyph-name="jcircumflex" unicode="&#x135;" horiz-adv-x="372" 
d="M76 1133l229 315h121l102 -315h-100l-68 251l-170 -251h-114zM-233 -317h53q159 0 194 170l213 1093h107l-215 -1098q-28 -144 -107 -205t-205 -61h-59z" />
    <glyph glyph-name="Kcommaaccent" unicode="&#x136;" horiz-adv-x="1216" 
d="M1266 1434l-799 -664l647 -770h-158l-624 764l-150 -764h-114l278 1434h115l-125 -641l754 641h176zM420 -254l31 158h161l-30 -158l-156 -160h-51l114 160h-69z" />
    <glyph glyph-name="kcommaaccent" unicode="&#x137;" horiz-adv-x="919" 
d="M932 946l-551 -442l428 -504h-143l-408 489l-94 -489h-107l279 1434h106l-176 -908l500 420h166zM287 -254l30 158h162l-30 -158l-156 -160h-51l114 160h-69z" />
    <glyph glyph-name="kgreenlandic" unicode="&#x138;" horiz-adv-x="894" 
d="M909 946l-553 -442l428 -504h-139l-407 489l-95 -489h-104l184 946h103l-80 -420l499 420h164z" />
    <glyph glyph-name="Lacute" unicode="&#x139;" horiz-adv-x="991" 
d="M371 1522l252 245h151l-307 -245h-96zM68 0l278 1434h115l-258 -1328h698l-20 -106h-813z" />
    <glyph glyph-name="lacute" unicode="&#x13a;" horiz-adv-x="403" 
d="M354 1518l252 245h152l-307 -245h-97zM57 0l279 1434h106l-278 -1434h-107z" />
    <glyph glyph-name="Lcommaaccent" unicode="&#x13b;" horiz-adv-x="991" 
d="M203 106h698l-20 -106h-813l278 1434h115zM334 -254l31 158h161l-30 -158l-156 -160h-51l114 160h-69z" />
    <glyph glyph-name="lcommaaccent" unicode="&#x13c;" horiz-adv-x="403" 
d="M442 1434l-278 -1434h-107l279 1434h106zM-18 -254l30 158h162l-31 -158l-155 -160h-51l114 160h-69z" />
    <glyph glyph-name="Lcaron" unicode="&#x13d;" horiz-adv-x="991" 
d="M825 1464h166l-33 -164l-196 -278h-57l169 278h-79zM461 1434l-258 -1328h698l-20 -106h-813l278 1434h115z" />
    <glyph glyph-name="lcaron" unicode="&#x13e;" horiz-adv-x="563" 
d="M578 1464h163l-30 -164l-193 -260h-57l155 260h-69zM57 0l279 1434h106l-278 -1434h-107z" />
    <glyph glyph-name="Ldot" unicode="&#x13f;" horiz-adv-x="991" 
d="M68 0l278 1434h115l-258 -1328h698l-20 -106h-813zM705 764l36 182h183l-37 -182h-182z" />
    <glyph glyph-name="ldot" unicode="&#x140;" horiz-adv-x="557" 
d="M57 0l279 1434h106l-278 -1434h-107zM420 764l37 182h182l-37 -182h-182z" />
    <glyph glyph-name="Lslash" unicode="&#x141;" horiz-adv-x="1015" 
d="M227 106h699l-21 -106h-815l125 647l-197 -78l17 86l198 78l136 701h116l-127 -650l426 168l-14 -88l-428 -168z" />
    <glyph glyph-name="lslash" unicode="&#x142;" horiz-adv-x="489" 
d="M561 965l-14 -86l-187 -88l-153 -791h-107l144 735l-189 -88l17 86l188 90l119 611h106l-108 -555z" />
    <glyph glyph-name="Nacute" unicode="&#x143;" horiz-adv-x="1413" 
d="M864 1522l252 245h152l-307 -245h-97zM68 0l278 1434h125l606 -1256h4l244 1256h117l-279 -1434h-125l-608 1255h-4l-244 -1255h-114z" />
    <glyph glyph-name="nacute" unicode="&#x144;" horiz-adv-x="1101" 
d="M649 1133l258 315h156l-318 -315h-96zM39 0l184 946h107l-45 -215h4q72 127 167 186.5t226 59.5q153 0 235 -80t82 -221q0 -62 -16 -156l-102 -520h-107l100 516q15 67 15 131q0 117 -59 172t-179 55q-336 0 -424 -452l-82 -422h-106z" />
    <glyph glyph-name="Ncommaaccent" unicode="&#x145;" horiz-adv-x="1413" 
d="M1325 1434h117l-279 -1434h-125l-608 1255h-4l-244 -1255h-114l278 1434h125l606 -1256h4zM483 -254l31 158h162l-31 -158l-156 -160h-51l115 160h-70z" />
    <glyph glyph-name="ncommaaccent" unicode="&#x146;" horiz-adv-x="1101" 
d="M682 977q153 0 235 -80t82 -221q0 -62 -16 -156l-102 -520h-107l100 516q15 67 15 131q0 117 -59 172t-179 55q-336 0 -424 -452l-82 -422h-106l184 946h107l-45 -215h4q72 127 167 186.5t226 59.5zM352 -254l31 158h162l-31 -158l-156 -160h-51l115 160h-70z" />
    <glyph glyph-name="Ncaron" unicode="&#x147;" horiz-adv-x="1413" 
d="M848 1522l-205 245h117l153 -188l246 188h141l-329 -245h-123zM68 0l278 1434h125l606 -1256h4l244 1256h117l-279 -1434h-125l-608 1255h-4l-244 -1255h-114z" />
    <glyph glyph-name="ncaron" unicode="&#x148;" horiz-adv-x="1101" 
d="M614 1114l-202 316h112l156 -248l256 248h131l-330 -316h-123zM39 0l184 946h107l-45 -215h4q72 127 167 186.5t226 59.5q153 0 235 -80t82 -221q0 -62 -16 -156l-102 -520h-107l100 516q15 67 15 131q0 117 -59 172t-179 55q-336 0 -424 -452l-82 -422h-106z" />
    <glyph glyph-name="napostrophe" unicode="&#x149;" horiz-adv-x="1101" 
d="M143 1022h-57l170 278h-80l31 164h166l-33 -164zM682 977q153 0 235 -80t82 -221q0 -62 -16 -156l-102 -520h-107l100 516q15 67 15 131q0 117 -59 172t-179 55q-336 0 -424 -452l-82 -422h-106l184 946h107l-45 -215h4q72 127 167 186.5t226 59.5z" />
    <glyph glyph-name="Eng" unicode="&#x14a;" horiz-adv-x="1413" 
d="M1325 1434h117l-279 -1434l-30 -152q-28 -132 -96 -195t-185 -63h-94l20 109h86q64 0 101 33t55 118l29 150l-619 1255h-4l-244 -1255h-114l278 1434h125l606 -1252h4z" />
    <glyph glyph-name="eng" unicode="&#x14b;" horiz-adv-x="1101" 
d="M682 977q153 0 235 -80t82 -221q0 -62 -16 -156l-102 -520l-31 -164q-47 -248 -297 -248h-72l19 97h57q79 0 124.5 38.5t63.5 129.5l29 147l100 516q15 67 15 131q0 117 -59 172t-179 55q-336 0 -424 -452l-82 -422h-106l184 946h107l-45 -215h4q72 127 167 186.5
t226 59.5z" />
    <glyph glyph-name="Omacron" unicode="&#x14c;" horiz-adv-x="1710" 
d="M1290 1669l-16 -84h-565l18 84h563zM842 -31q-320 0 -515.5 185t-195.5 495q0 168 60.5 317.5t168 259.5t264 174t339.5 64q210 0 370.5 -82.5t250 -237.5t89.5 -360q0 -168 -60.5 -317.5t-167.5 -259.5t-263.5 -174t-339.5 -64zM842 84q159 0 293.5 57t225 154.5
t141 226t50.5 271.5q0 171 -78.5 298.5t-211.5 193t-301 65.5q-158 0 -292.5 -57.5t-225 -154.5t-141 -225.5t-50.5 -271.5q0 -128 45.5 -234t125 -176t187 -108.5t232.5 -38.5z" />
    <glyph glyph-name="omacron" unicode="&#x14d;" horiz-adv-x="1185" 
d="M1008 1337l-19 -86h-563l16 86h566zM541 -31q-210 0 -336.5 116.5t-126.5 326.5q0 155 71 283.5t202 205t294 76.5q210 0 336.5 -116t126.5 -326q0 -116 -42 -219.5t-115.5 -180t-180 -121.5t-229.5 -45zM551 74q128 0 231 64.5t158 169.5t55 227q0 158 -96 247.5
t-264 89.5q-128 0 -231 -64t-158.5 -169t-55.5 -227q0 -158 96.5 -248t264.5 -90z" />
    <glyph glyph-name="Obreve" unicode="&#x14e;" horiz-adv-x="1710" 
d="M997 1522q-107 0 -170 50t-63 140q0 25 6 55h82q-4 -32 -4 -43q0 -58 40.5 -89t117.5 -31q89 0 148 42.5t83 120.5h88q-26 -115 -114.5 -180t-213.5 -65zM842 -31q-320 0 -515.5 185t-195.5 495q0 168 60.5 317.5t168 259.5t264 174t339.5 64q210 0 370.5 -82.5
t250 -237.5t89.5 -360q0 -168 -60.5 -317.5t-167.5 -259.5t-263.5 -174t-339.5 -64zM842 84q159 0 293.5 57t225 154.5t141 226t50.5 271.5q0 171 -78.5 298.5t-211.5 193t-301 65.5q-158 0 -292.5 -57.5t-225 -154.5t-141 -225.5t-50.5 -271.5q0 -128 45.5 -234t125 -176
t187 -108.5t232.5 -38.5z" />
    <glyph glyph-name="obreve" unicode="&#x14f;" horiz-adv-x="1185" 
d="M1030 1432q-25 -137 -108.5 -213t-214.5 -76q-109 0 -174.5 57t-65.5 158q0 36 6 74h82q-6 -24 -6 -52q0 -74 42 -114.5t118 -40.5q186 0 233 207h88zM541 -31q-210 0 -336.5 116.5t-126.5 326.5q0 155 71 283.5t202 205t294 76.5q210 0 336.5 -116t126.5 -326
q0 -116 -42 -219.5t-115.5 -180t-180 -121.5t-229.5 -45zM551 74q128 0 231 64.5t158 169.5t55 227q0 158 -96 247.5t-264 89.5q-128 0 -231 -64t-158.5 -169t-55.5 -227q0 -158 96.5 -248t264.5 -90z" />
    <glyph glyph-name="Ohungarumlaut" unicode="&#x150;" horiz-adv-x="1710" 
d="M1217 1767l-302 -245h-88l277 245h113zM1411 1767l-299 -245h-88l274 245h113zM842 -31q-320 0 -515.5 185t-195.5 495q0 168 60.5 317.5t168 259.5t264 174t339.5 64q210 0 370.5 -82.5t250 -237.5t89.5 -360q0 -168 -60.5 -317.5t-167.5 -259.5t-263.5 -174t-339.5 -64
zM842 84q159 0 293.5 57t225 154.5t141 226t50.5 271.5q0 171 -78.5 298.5t-211.5 193t-301 65.5q-158 0 -292.5 -57.5t-225 -154.5t-141 -225.5t-50.5 -271.5q0 -128 45.5 -234t125 -176t187 -108.5t232.5 -38.5z" />
    <glyph glyph-name="ohungarumlaut" unicode="&#x151;" horiz-adv-x="1185" 
d="M895 1448l-299 -315h-88l274 315h113zM1094 1448l-297 -315h-90l274 315h113zM541 -31q-210 0 -336.5 116.5t-126.5 326.5q0 155 71 283.5t202 205t294 76.5q210 0 336.5 -116t126.5 -326q0 -116 -42 -219.5t-115.5 -180t-180 -121.5t-229.5 -45zM551 74q128 0 231 64.5
t158 169.5t55 227q0 158 -96 247.5t-264 89.5q-128 0 -231 -64t-158.5 -169t-55.5 -227q0 -158 96.5 -248t264.5 -90z" />
    <glyph glyph-name="OE" unicode="&#x152;" horiz-adv-x="2398" 
d="M2462 1327h-674l-92 -471h620l-20 -106h-621l-125 -644h684l-20 -106h-801l43 223q-111 -121 -269 -187.5t-347 -66.5q-210 0 -370.5 82.5t-249.5 237.5t-89 360q0 168 61 317.5t168.5 259.5t264.5 174t340 64q238 0 410 -108t243 -301l74 379h790zM842 84
q155 0 289 57.5t225.5 154t143.5 226t52 271.5q0 171 -78 298.5t-210.5 193t-300.5 65.5q-155 0 -289.5 -57.5t-226 -154t-143.5 -226t-52 -271.5q0 -171 78 -298.5t211 -193t301 -65.5z" />
    <glyph glyph-name="oe" unicode="&#x153;" horiz-adv-x="2037" 
d="M1956 465h-850q-4 -40 -4 -59q0 -163 87.5 -248.5t248.5 -85.5q122 0 210.5 46.5t174.5 133.5l71 -80q-47 -44 -85 -74t-96 -63.5t-128 -50.5t-151 -17q-158 0 -264.5 66.5t-147.5 191.5q-75 -118 -200.5 -187t-280.5 -69q-210 0 -336.5 116.5t-126.5 326.5
q0 155 71 283.5t202 205t294 76.5q160 0 273.5 -68t160.5 -194q72 122 197.5 192t284.5 70q198 0 304.5 -106t106.5 -273q0 -55 -16 -133zM1552 879q-160 0 -274.5 -91t-155.5 -237h738q4 32 4 49q0 127 -81.5 203t-230.5 76zM551 74q128 0 231 64.5t158 169.5t55 227
q0 158 -96 247.5t-264 89.5q-128 0 -231 -64t-158.5 -169t-55.5 -227q0 -158 96.5 -248t264.5 -90z" />
    <glyph glyph-name="Racute" unicode="&#x154;" horiz-adv-x="1159" 
d="M1096 1767l-308 -245h-96l252 245h152zM1171 1075q0 -185 -124.5 -309.5t-346.5 -134.5l324 -631l-137 2l-312 627h-270l-123 -629h-114l278 1434h445q180 0 280 -98.5t100 -260.5zM668 735q171 0 277 87.5t106 242.5q0 125 -73.5 193.5t-203.5 68.5h-334l-114 -592h342z
" />
    <glyph glyph-name="racute" unicode="&#x155;" horiz-adv-x="636" 
d="M432 1133l258 315h156l-318 -315h-96zM39 0l184 946h107l-43 -215h4q46 112 136.5 178t213.5 66q19 0 47 -4l-24 -121q-20 4 -46 4q-153 0 -250 -102.5t-132 -286.5l-91 -465h-106z" />
    <glyph glyph-name="Rcommaaccent" unicode="&#x156;" horiz-adv-x="1159" 
d="M1171 1075q0 -185 -124.5 -309.5t-346.5 -134.5l324 -631l-137 2l-312 627h-270l-123 -629h-114l278 1434h445q180 0 280 -98.5t100 -260.5zM668 735q171 0 277 87.5t106 242.5q0 125 -73.5 193.5t-203.5 68.5h-334l-114 -592h342zM389 -254l31 158h162l-31 -158
l-156 -160h-51l115 160h-70z" />
    <glyph glyph-name="rcommaaccent" unicode="&#x157;" horiz-adv-x="636" 
d="M641 975q19 0 47 -4l-24 -121q-20 4 -46 4q-153 0 -250 -102.5t-132 -286.5l-91 -465h-106l184 946h107l-43 -215h4q46 112 136.5 178t213.5 66zM-37 -254l31 158h162l-31 -158l-156 -160h-51l115 160h-70z" />
    <glyph glyph-name="Rcaron" unicode="&#x158;" horiz-adv-x="1159" 
d="M797 1522h-123l-205 245h117l153 -188l246 188h141zM1171 1075q0 -185 -124.5 -309.5t-346.5 -134.5l324 -631l-137 2l-312 627h-270l-123 -629h-114l278 1434h445q180 0 280 -98.5t100 -260.5zM668 735q171 0 277 87.5t106 242.5q0 125 -73.5 193.5t-203.5 68.5h-334
l-114 -592h342z" />
    <glyph glyph-name="rcaron" unicode="&#x159;" horiz-adv-x="636" 
d="M397 1114l-202 316h112l156 -248l256 248h131l-330 -316h-123zM39 0l184 946h107l-43 -215h4q46 112 136.5 178t213.5 66q19 0 47 -4l-24 -121q-20 4 -46 4q-153 0 -250 -102.5t-132 -286.5l-91 -465h-106z" />
    <glyph glyph-name="Sacute" unicode="&#x15a;" horiz-adv-x="1058" 
d="M641 1522l252 245h151l-307 -245h-96zM516 -31q-299 0 -526 215l76 95q211 -195 454 -195q145 0 224 66.5t79 187.5q0 88 -46 157t-136 142l-168 139q-99 79 -153 164.5t-54 192.5q0 144 96 237.5t277 93.5q116 0 216.5 -37t207.5 -112l-72 -103q-79 63 -171.5 100.5
t-182.5 37.5q-123 0 -186.5 -61t-63.5 -156q0 -138 164 -265l180 -145q105 -85 159 -174.5t54 -208.5q0 -178 -114.5 -274.5t-313.5 -96.5z" />
    <glyph glyph-name="sacute" unicode="&#x15b;" horiz-adv-x="806" 
d="M492 1133l258 315h155l-317 -315h-96zM51 219q162 -149 340 -149q99 0 145 39.5t46 107.5q0 53 -30 94t-91 82l-117 78q-84 56 -130 116.5t-46 147.5q0 112 76.5 177t208.5 65q159 0 317 -105l-59 -92q-135 97 -258 97q-83 0 -127.5 -39.5t-44.5 -106.5q0 -55 31.5 -92
t99.5 -82l112 -76q41 -28 68 -51.5t52 -55t37.5 -70t12.5 -85.5q0 -127 -81.5 -188.5t-221.5 -61.5q-231 0 -411 166z" />
    <glyph glyph-name="Scircumflex" unicode="&#x15c;" horiz-adv-x="1058" 
d="M348 1522l326 245h123l209 -245h-123l-150 188l-248 -188h-137zM516 -31q-299 0 -526 215l76 95q211 -195 454 -195q145 0 224 66.5t79 187.5q0 88 -46 157t-136 142l-168 139q-99 79 -153 164.5t-54 192.5q0 144 96 237.5t277 93.5q116 0 216.5 -37t207.5 -112l-72 -103
q-79 63 -171.5 100.5t-182.5 37.5q-123 0 -186.5 -61t-63.5 -156q0 -138 164 -265l180 -145q105 -85 159 -174.5t54 -208.5q0 -178 -114.5 -274.5t-313.5 -96.5z" />
    <glyph glyph-name="scircumflex" unicode="&#x15d;" horiz-adv-x="806" 
d="M195 1133l329 315h123l203 -315h-113l-155 247l-256 -247h-131zM51 219q162 -149 340 -149q99 0 145 39.5t46 107.5q0 53 -30 94t-91 82l-117 78q-84 56 -130 116.5t-46 147.5q0 112 76.5 177t208.5 65q159 0 317 -105l-59 -92q-135 97 -258 97q-83 0 -127.5 -39.5
t-44.5 -106.5q0 -55 31.5 -92t99.5 -82l112 -76q41 -28 68 -51.5t52 -55t37.5 -70t12.5 -85.5q0 -127 -81.5 -188.5t-221.5 -61.5q-231 0 -411 166z" />
    <glyph glyph-name="Scedilla" unicode="&#x15e;" horiz-adv-x="1058" 
d="M637 1350q-123 0 -186.5 -61t-63.5 -156q0 -138 164 -265l180 -145q105 -85 159 -174.5t54 -208.5q0 -178 -114.5 -274.5t-313.5 -96.5h-4l-37 -61q27 -7 46.5 -15t40 -21.5t31.5 -34.5t11 -50q0 -26 -9.5 -48.5t-30.5 -42.5t-40 -34.5t-56 -32.5t-59.5 -27.5
l-67.5 -28.5q-11 -5 -17 -7l-19 45q109 50 154 81.5t45 69.5q0 28 -30 43.5t-97 30.5l78 135q-265 21 -465 213l76 95q211 -195 454 -195q145 0 224 66.5t79 187.5q0 88 -46 157t-136 142l-168 139q-99 79 -153 164.5t-54 192.5q0 144 96 237.5t277 93.5q116 0 216.5 -37
t207.5 -112l-72 -103q-79 63 -171.5 100.5t-182.5 37.5z" />
    <glyph glyph-name="scedilla" unicode="&#x15f;" horiz-adv-x="806" 
d="M453 877q-83 0 -127.5 -39.5t-44.5 -106.5q0 -55 31.5 -92t99.5 -82l112 -76q41 -28 68 -51.5t52 -55t37.5 -70t12.5 -85.5q0 -127 -81.5 -188.5t-221.5 -61.5h-20l-37 -61q27 -7 46.5 -15t40 -21.5t31.5 -34.5t11 -50q-1 -50 -45 -92.5t-83 -62t-135 -58.5
q-12 -5 -18 -8l-18 45q108 50 153 81.5t45 69.5q0 28 -29.5 43.5t-96.5 30.5l79 137q-183 24 -335 162l71 84q162 -149 340 -149q99 0 145 39.5t46 107.5q0 53 -30 94t-91 82l-117 78q-84 56 -130 116.5t-46 147.5q0 112 76.5 177t208.5 65q159 0 317 -105l-59 -92
q-135 97 -258 97z" />
    <glyph glyph-name="Scaron" unicode="&#x160;" horiz-adv-x="1058" 
d="M625 1522l-205 245h117l153 -188l246 188h141l-329 -245h-123zM516 -31q-299 0 -526 215l76 95q211 -195 454 -195q145 0 224 66.5t79 187.5q0 88 -46 157t-136 142l-168 139q-99 79 -153 164.5t-54 192.5q0 144 96 237.5t277 93.5q116 0 216.5 -37t207.5 -112l-72 -103
q-79 63 -171.5 100.5t-182.5 37.5q-123 0 -186.5 -61t-63.5 -156q0 -138 164 -265l180 -145q105 -85 159 -174.5t54 -208.5q0 -178 -114.5 -274.5t-313.5 -96.5z" />
    <glyph glyph-name="scaron" unicode="&#x161;" horiz-adv-x="806" 
d="M457 1114l-203 316h113l155 -248l256 248h131l-329 -316h-123zM51 219q162 -149 340 -149q99 0 145 39.5t46 107.5q0 53 -30 94t-91 82l-117 78q-84 56 -130 116.5t-46 147.5q0 112 76.5 177t208.5 65q159 0 317 -105l-59 -92q-135 97 -258 97q-83 0 -127.5 -39.5
t-44.5 -106.5q0 -55 31.5 -92t99.5 -82l112 -76q41 -28 68 -51.5t52 -55t37.5 -70t12.5 -85.5q0 -127 -81.5 -188.5t-221.5 -61.5q-231 0 -411 166z" />
    <glyph glyph-name="uni0162" unicode="&#x162;" horiz-adv-x="1064" 
d="M498 0h-29l-55 -92q27 -7 46.5 -15t40 -21.5t31.5 -34.5t11 -50q-1 -50 -45 -92.5t-83 -62t-135 -58.5q-12 -5 -18 -8l-18 45q108 50 153 81.5t45 69.5q0 28 -30 43.5t-97 30.5l95 164h-27l258 1327h-446l20 107h1008l-21 -107h-446z" />
    <glyph glyph-name="uni0163" unicode="&#x163;" horiz-adv-x="608" 
d="M418 856l-117 -598q-6 -34 -6 -63q0 -43 27 -70t79 -27h60l-19 -102h-65h-19l-53 -88q27 -7 46.5 -15t40 -21.5t31.5 -34.5t11 -50q0 -26 -9.5 -48.5t-30.5 -42.5t-40 -34.5t-56 -32.5t-59.5 -27.5l-67.5 -28.5q-11 -5 -17 -7l-19 45q109 50 154 81.5t45 69.5
q0 28 -30 43.5t-97 30.5l98 170q-57 17 -88 61.5t-31 110.5q0 26 9 78l116 600h-198l18 90h197l73 379h107l-74 -379h225l-18 -90h-223z" />
    <glyph glyph-name="Tcaron" unicode="&#x164;" horiz-adv-x="1064" 
d="M805 1522h-123l-205 245h117l154 -188l245 188h142zM1223 1434l-21 -107h-446l-258 -1327h-115l258 1327h-446l20 107h1008z" />
    <glyph glyph-name="tcaron" unicode="&#x165;" horiz-adv-x="743" 
d="M713 1464h164l-31 -164l-191 -260h-59l156 260h-70zM508 1325l-74 -379h225l-18 -90h-223l-117 -598q-6 -34 -6 -63q0 -43 27 -70t79 -27h60l-19 -102h-65q-89 0 -140 48.5t-51 133.5q0 26 9 78l116 600h-198l18 90h197l73 379h107z" />
    <glyph glyph-name="Tbar" unicode="&#x166;" horiz-adv-x="1064" 
d="M1202 1327h-446l-64 -330h305l-14 -77h-307l-178 -920h-115l178 920h-295l17 77h292l66 330h-446l20 107h1008z" />
    <glyph glyph-name="tbar" unicode="&#x167;" horiz-adv-x="612" 
d="M645 856h-223l-41 -203h215l-16 -82h-213l-62 -313q-6 -34 -6 -63q0 -43 27.5 -70t79.5 -27h59l-19 -102h-65q-89 0 -140 48.5t-51 133.5q0 44 9 78l61 315h-199l19 82h196l39 203h-198l18 90h197l74 379h106l-74 -379h226z" />
    <glyph glyph-name="Utilde" unicode="&#x168;" horiz-adv-x="1423" 
d="M1120 1559q-50 0 -113 28t-119.5 56t-90.5 28q-71 0 -131 -94l-54 20q80 168 199 168q50 0 113 -27.5t120 -55t91 -27.5q72 0 131 92l53 -21q-81 -167 -199 -167zM1456 1434l-178 -908q-23 -124 -69.5 -222.5t-121 -175t-185 -118t-251.5 -41.5q-240 0 -367.5 116.5
t-127.5 326.5q0 73 14 147l172 875h121l-172 -891q-15 -77 -15 -121q0 -158 99.5 -247t281.5 -89q209 0 335 119.5t169 337.5l174 891h121z" />
    <glyph glyph-name="utilde" unicode="&#x169;" horiz-adv-x="1069" 
d="M852 1217q-50 0 -113 28.5t-120 57t-91 28.5q-72 0 -131 -96l-53 22q36 75 83 121.5t116 46.5q50 0 113 -28.5t119.5 -57t90.5 -28.5q72 0 131 96l54 -23q-38 -76 -84 -121.5t-115 -45.5zM401 -31q-149 0 -230 78.5t-81 216.5q0 58 14 135l109 547h111l-109 -547
q-10 -65 -10 -108q0 -217 223 -217q320 0 412 465l82 407h108l-184 -946h-107l41 203h-4q-57 -104 -150.5 -169t-224.5 -65z" />
    <glyph glyph-name="Umacron" unicode="&#x16a;" horiz-adv-x="1423" 
d="M1204 1669l-16 -84h-565l18 84h563zM1456 1434l-178 -908q-23 -124 -69.5 -222.5t-121 -175t-185 -118t-251.5 -41.5q-240 0 -367.5 116.5t-127.5 326.5q0 73 14 147l172 875h121l-172 -891q-15 -77 -15 -121q0 -158 99.5 -247t281.5 -89q209 0 335 119.5t169 337.5
l174 891h121z" />
    <glyph glyph-name="umacron" unicode="&#x16b;" horiz-adv-x="1069" 
d="M971 1337l-19 -86h-563l17 86h565zM401 -31q-149 0 -230 78.5t-81 216.5q0 58 14 135l109 547h111l-109 -547q-10 -65 -10 -108q0 -217 223 -217q320 0 412 465l82 407h108l-184 -946h-107l41 203h-4q-57 -104 -150.5 -169t-224.5 -65z" />
    <glyph glyph-name="Ubreve" unicode="&#x16c;" horiz-adv-x="1423" 
d="M911 1522q-107 0 -170 50t-63 140q0 25 6 55h82q-4 -32 -4 -43q0 -58 40.5 -89t117.5 -31q89 0 148 42.5t83 120.5h88q-26 -115 -114.5 -180t-213.5 -65zM1456 1434l-178 -908q-23 -124 -69.5 -222.5t-121 -175t-185 -118t-251.5 -41.5q-240 0 -367.5 116.5t-127.5 326.5
q0 73 14 147l172 875h121l-172 -891q-15 -77 -15 -121q0 -158 99.5 -247t281.5 -89q209 0 335 119.5t169 337.5l174 891h121z" />
    <glyph glyph-name="ubreve" unicode="&#x16d;" horiz-adv-x="1069" 
d="M993 1432q-25 -137 -108.5 -213t-214.5 -76q-109 0 -174.5 57t-65.5 158q0 36 6 74h82q-6 -24 -6 -52q0 -74 42 -114.5t118 -40.5q186 0 233 207h88zM401 -31q-149 0 -230 78.5t-81 216.5q0 58 14 135l109 547h111l-109 -547q-10 -65 -10 -108q0 -217 223 -217
q320 0 412 465l82 407h108l-184 -946h-107l41 203h-4q-57 -104 -150.5 -169t-224.5 -65z" />
    <glyph glyph-name="Uring" unicode="&#x16e;" horiz-adv-x="1423" 
d="M893 1368q-105 0 -164 56t-59 155q0 107 72.5 179.5t181.5 72.5q105 0 164 -57t59 -156q0 -108 -72 -179t-182 -71zM897 1434q80 0 129 52t49 128q0 72 -40 110.5t-115 38.5q-78 0 -128.5 -52t-50.5 -128q0 -71 40.5 -110t115.5 -39zM1456 1434l-178 -908
q-23 -124 -69.5 -222.5t-121 -175t-185 -118t-251.5 -41.5q-240 0 -367.5 116.5t-127.5 326.5q0 73 14 147l172 875h121l-172 -891q-15 -77 -15 -121q0 -158 99.5 -247t281.5 -89q209 0 335 119.5t169 337.5l174 891h121z" />
    <glyph glyph-name="uring" unicode="&#x16f;" horiz-adv-x="1069" 
d="M688 1530q103 0 164 -62.5t61 -158.5q0 -108 -72.5 -183t-187.5 -75q-105 0 -166 62.5t-61 158.5q0 109 72.5 183.5t189.5 74.5zM684 1464q-86 0 -136 -54.5t-50 -135.5q0 -73 41.5 -115.5t115.5 -42.5q85 0 136 55t51 136q0 72 -42.5 114.5t-115.5 42.5zM401 -31
q-149 0 -230 78.5t-81 216.5q0 58 14 135l109 547h111l-109 -547q-10 -65 -10 -108q0 -217 223 -217q320 0 412 465l82 407h108l-184 -946h-107l41 203h-4q-57 -104 -150.5 -169t-224.5 -65z" />
    <glyph glyph-name="Uhungarumlaut" unicode="&#x170;" horiz-adv-x="1423" 
d="M1130 1767l-301 -245h-88l277 245h112zM1325 1767l-299 -245h-88l274 245h113zM1456 1434l-178 -908q-23 -124 -69.5 -222.5t-121 -175t-185 -118t-251.5 -41.5q-240 0 -367.5 116.5t-127.5 326.5q0 73 14 147l172 875h121l-172 -891q-15 -77 -15 -121q0 -158 99.5 -247
t281.5 -89q209 0 335 119.5t169 337.5l174 891h121z" />
    <glyph glyph-name="uhungarumlaut" unicode="&#x171;" horiz-adv-x="1069" 
d="M858 1448l-299 -315h-88l274 315h113zM1057 1448l-297 -315h-90l274 315h113zM401 -31q-149 0 -230 78.5t-81 216.5q0 58 14 135l109 547h111l-109 -547q-10 -65 -10 -108q0 -217 223 -217q320 0 412 465l82 407h108l-184 -946h-107l41 203h-4q-57 -104 -150.5 -169
t-224.5 -65z" />
    <glyph glyph-name="Uogonek" unicode="&#x172;" horiz-adv-x="1423" 
d="M1335 1434h121l-178 -908q-22 -118 -66 -213.5t-113 -171t-170.5 -119.5t-230.5 -51q-77 -62 -114 -111.5t-37 -95.5q0 -67 96 -67q46 0 100 14l5 -80q-67 -18 -121 -18q-75 0 -125.5 33t-50.5 98q0 108 143 227q-212 13 -325 128.5t-113 312.5q0 73 14 147l172 875h121
l-172 -891q-15 -77 -15 -121q0 -158 99.5 -247t281.5 -89q209 0 335 119.5t169 337.5z" />
    <glyph glyph-name="uogonek" unicode="&#x173;" horiz-adv-x="1069" 
d="M801 0q-98 -74 -143.5 -129t-45.5 -107q0 -67 97 -67q46 0 100 14l4 -80q-67 -18 -121 -18q-75 0 -125.5 33t-50.5 98q0 137 232 291l32 168h-4q-57 -104 -150.5 -169t-224.5 -65q-149 0 -230 78.5t-81 216.5q0 58 14 135l109 547h111l-109 -547q-10 -65 -10 -108
q0 -217 223 -217q320 0 412 465l82 407h108l-184 -946h-45z" />
    <glyph glyph-name="Wcircumflex" unicode="&#x174;" horiz-adv-x="1992" 
d="M848 1522l326 245h122l209 -245h-123l-149 188l-248 -188h-137zM2144 1434l-723 -1434h-118l-154 1243h-4l-639 -1243h-117l-168 1434h129l123 -1246h4l635 1246h125l154 -1246h4l608 1246h141z" />
    <glyph glyph-name="wcircumflex" unicode="&#x175;" horiz-adv-x="1509" 
d="M928 1380l-256 -247h-131l329 315h123l203 -315h-113zM1450 946h123l-506 -946h-109l-127 813l-446 -813h-106l-138 946h115l94 -813l443 813h116l123 -813z" />
    <glyph glyph-name="Ycircumflex" unicode="&#x176;" horiz-adv-x="1079" 
d="M774 1710l-248 -188h-137l326 245h123l209 -245h-123zM1249 1434l-637 -879l-106 -555h-117l109 553l-295 881h129l233 -764h4l537 764h143z" />
    <glyph glyph-name="ycircumflex" unicode="&#x177;" horiz-adv-x="919" 
d="M621 1380l-256 -247h-132l330 315h123l203 -315h-113zM866 946h121l-864 -1356h-115l336 527l-225 829h114l181 -719z" />
    <glyph glyph-name="Ydieresis" unicode="&#x178;" horiz-adv-x="1079" 
d="M643 1720l-39 -198h-133l39 198h133zM1028 1720l-41 -198h-131l39 198h133zM1249 1434l-637 -879l-106 -555h-117l109 553l-295 881h129l233 -764h4l537 764h143z" />
    <glyph glyph-name="Zacute" unicode="&#x179;" horiz-adv-x="1132" 
d="M1151 1767l-307 -245h-96l251 245h152zM1239 1434l-20 -109l-1090 -1216h872l-20 -109h-1012l19 109l1089 1216h-772l21 109h913z" />
    <glyph glyph-name="zacute" unicode="&#x17a;" horiz-adv-x="909" 
d="M952 1448l-317 -315h-96l258 315h155zM182 848l19 98h708l-18 -92l-766 -754h653l-18 -100h-793l19 94l764 754h-568z" />
    <glyph glyph-name="Zdotaccent" unicode="&#x17b;" horiz-adv-x="1132" 
d="M909 1745l-43 -223h-133l45 223h131zM1239 1434l-20 -109l-1090 -1216h872l-20 -109h-1012l19 109l1089 1216h-772l21 109h913z" />
    <glyph glyph-name="zdotaccent" unicode="&#x17c;" horiz-adv-x="909" 
d="M711 1413l-49 -246h-140l49 246h140zM909 946l-18 -92l-766 -754h653l-18 -100h-793l19 94l764 754h-568l19 98h708z" />
    <glyph glyph-name="Zcaron" unicode="&#x17d;" horiz-adv-x="1132" 
d="M854 1522h-123l-205 245h117l154 -188l245 188h142zM1239 1434l-20 -109l-1090 -1216h872l-20 -109h-1012l19 109l1089 1216h-772l21 109h913z" />
    <glyph glyph-name="zcaron" unicode="&#x17e;" horiz-adv-x="909" 
d="M629 1114h-123l-203 316h113l155 -248l256 248h131zM182 848l19 98h708l-18 -92l-766 -754h653l-18 -100h-793l19 94l764 754h-568z" />
    <glyph glyph-name="florin" unicode="&#x192;" horiz-adv-x="788" 
d="M817 1303q-213 3 -260 -238l-22 -119h301l-13 -61h-301l-190 -985q-32 -161 -118.5 -235.5t-229.5 -74.5h-115l20 101h111q81 0 141.5 51.5t83.5 165.5l191 977h-256l12 61h256l23 117q19 98 54.5 166.5t86.5 105.5t107.5 52.5t127.5 15.5h95l-19 -100h-86z" />
    <glyph glyph-name="AEacute" unicode="&#x1fc;" horiz-adv-x="1894" 
d="M1956 1767l-307 -245h-97l252 245h152zM1958 1327h-604l-90 -471h548l-20 -106h-549l-125 -644h613l-21 -106h-686h-43l80 403h-623l-352 -403h-152l1264 1434h176h604zM530 510h551l156 807z" />
    <glyph glyph-name="aeacute" unicode="&#x1fd;" horiz-adv-x="1835" 
d="M971 1133l258 315h155l-317 -315h-96zM389 -31q-166 0 -267.5 86t-101.5 232q0 158 120.5 263t310.5 105q127 0 216.5 -47t133.5 -137h2q33 129 33 203q0 106 -60.5 154.5t-183.5 48.5q-146 0 -338 -46l-23 101q208 45 363 45q161 0 244.5 -60.5t87.5 -187.5h4
q63 118 177.5 183t256.5 65q201 0 302 -106.5t101 -276.5q0 -45 -16 -133h-827q-6 -40 -6 -80q0 -137 82.5 -223t234.5 -86q125 0 213 48t170 132l72 -78q-43 -42 -78 -70t-92.5 -63t-130 -53.5t-156.5 -18.5q-161 0 -267 78t-130 207h-5q-60 -139 -174.5 -212t-267.5 -73z
M944 549h709q2 16 2 51q0 127 -75 202t-226 75q-146 0 -256 -84t-154 -244zM406 68q152 0 250 83.5t98 192.5q0 99 -81.5 157t-203.5 58q-145 0 -241.5 -77.5t-96.5 -194.5q0 -98 74.5 -158.5t200.5 -60.5z" />
    <glyph glyph-name="Oslashacute" unicode="&#x1fe;" horiz-adv-x="1710" 
d="M1378 1767l-307 -245h-96l252 245h151zM1489 1268q184 -184 184 -484q0 -168 -60.5 -317.5t-167.5 -259.5t-263.5 -174t-339.5 -64q-282 0 -473 148l-144 -148l-45 41l144 148q-193 184 -193 491q0 168 60.5 317.5t168 259.5t264 174t339.5 64q290 0 481 -155l149 153
l45 -41zM252 641q0 -241 156 -397l952 977q-160 129 -399 129q-158 0 -292.5 -57.5t-225 -154.5t-141 -225.5t-50.5 -271.5zM842 84q159 0 293.5 57t225 154.5t141 226t50.5 271.5q0 239 -147 389l-950 -977q154 -121 387 -121z" />
    <glyph glyph-name="oslashacute" unicode="&#x1ff;" horiz-adv-x="1185" 
d="M1067 1448l-317 -315h-97l258 315h156zM1110 936l-104 -100q102 -114 102 -301q0 -116 -42 -219.5t-115.5 -180t-180 -121.5t-229.5 -45q-209 0 -334 113l-117 -111l-41 39l119 113q-90 117 -90 289q0 155 71 283.5t202 205t294 76.5q199 0 320 -100l106 100zM190 412
q0 -129 62 -209l629 594q-90 75 -246 75q-128 0 -231 -64t-158.5 -169t-55.5 -227zM995 535q0 141 -73 223l-631 -598q95 -86 260 -86q128 0 231 64.5t158 169.5t55 227z" />
    <glyph glyph-name="Scommaaccent" unicode="&#x218;" horiz-adv-x="1058" 
d="M637 1350q-123 0 -186.5 -61t-63.5 -156q0 -138 164 -265l180 -145q105 -85 159 -174.5t54 -208.5q0 -178 -114.5 -274.5t-313.5 -96.5q-299 0 -526 215l76 95q211 -195 454 -195q145 0 224 66.5t79 187.5q0 88 -46 157t-136 142l-168 139q-99 79 -153 164.5t-54 192.5
q0 144 96 237.5t277 93.5q116 0 216.5 -37t207.5 -112l-72 -103q-79 63 -171.5 100.5t-182.5 37.5zM377 -254l31 158h161l-30 -158l-156 -160h-51l114 160h-69z" />
    <glyph glyph-name="scommaaccent" unicode="&#x219;" horiz-adv-x="806" 
d="M453 877q-83 0 -127.5 -39.5t-44.5 -106.5q0 -55 31.5 -92t99.5 -82l112 -76q41 -28 68 -51.5t52 -55t37.5 -70t12.5 -85.5q0 -127 -81.5 -188.5t-221.5 -61.5q-231 0 -411 166l71 84q162 -149 340 -149q99 0 145 39.5t46 107.5q0 53 -30 94t-91 82l-117 78
q-84 56 -130 116.5t-46 147.5q0 112 76.5 177t208.5 65q159 0 317 -105l-59 -92q-135 97 -258 97zM238 -254l30 158h162l-31 -158l-155 -160h-51l114 160h-69z" />
    <glyph glyph-name="uni021A" unicode="&#x21a;" horiz-adv-x="1064" 
d="M1223 1434l-21 -107h-446l-258 -1327h-115l258 1327h-446l20 107h1008zM315 -254l31 158h162l-31 -158l-155 -160h-52l115 160h-70z" />
    <glyph glyph-name="uni021B" unicode="&#x21b;" horiz-adv-x="608" 
d="M418 856l-117 -598q-6 -34 -6 -63q0 -43 27 -70t79 -27h60l-19 -102h-65q-89 0 -140 48.5t-51 133.5q0 26 9 78l116 600h-198l18 90h197l73 379h107l-74 -379h225l-18 -90h-223zM209 -254l31 158h161l-30 -158l-156 -160h-51l115 160h-70z" />
    <glyph glyph-name="uni0237" unicode="&#x237;" horiz-adv-x="372" 
d="M-233 -317h53q159 0 194 170l213 1093h107l-215 -1098q-28 -144 -107 -205t-205 -61h-59z" />
    <glyph glyph-name="uni02BC" unicode="&#x2bc;" horiz-adv-x="333" 
d="M299 1464h166l-33 -164l-196 -278h-58l170 278h-80z" />
    <glyph glyph-name="circumflex" unicode="&#x2c6;" horiz-adv-x="860" 
d="M231 1133l330 315h123l203 -315h-113l-156 247l-256 -247h-131z" />
    <glyph glyph-name="caron" unicode="&#x2c7;" horiz-adv-x="860" 
d="M492 1114l-203 316h112l156 -248l256 248h131l-330 -316h-122z" />
    <glyph glyph-name="breve" unicode="&#x2d8;" horiz-adv-x="761" 
d="M846 1432q-25 -136 -109 -212.5t-215 -76.5q-109 0 -174 57t-65 158q0 36 6 74h82q-6 -24 -6 -52q0 -74 41.5 -114.5t117.5 -40.5q187 0 234 207h88z" />
    <glyph glyph-name="dotaccent" unicode="&#x2d9;" horiz-adv-x="346" 
d="M426 1413l-49 -246h-139l49 246h139z" />
    <glyph glyph-name="ring" unicode="&#x2da;" horiz-adv-x="694" 
d="M524 1530q103 0 164.5 -62.5t61.5 -158.5q0 -108 -73 -183t-188 -75q-105 0 -166 62.5t-61 158.5q0 109 72.5 183.5t189.5 74.5zM520 1464q-86 0 -136 -54.5t-50 -135.5q0 -73 42 -115.5t116 -42.5q85 0 135.5 55t50.5 136q0 72 -42.5 114.5t-115.5 42.5z" />
    <glyph glyph-name="ogonek" unicode="&#x2db;" horiz-adv-x="526" 
d="M217 53l62 -28q-113 -82 -165.5 -141.5t-52.5 -114.5q0 -68 97 -68q46 0 100 14l4 -80q-67 -18 -121 -18q-75 0 -125.5 33t-50.5 98q0 73 62.5 147t189.5 158z" />
    <glyph glyph-name="tilde" unicode="&#x2dc;" horiz-adv-x="886" 
d="M764 1217q-50 0 -113 28.5t-120 57t-91 28.5q-72 0 -131 -96l-53 22q36 75 83 121.5t116 46.5q50 0 113 -28.5t119.5 -57t90.5 -28.5q72 0 131 96l54 -23q-38 -76 -84 -121.5t-115 -45.5z" />
    <glyph glyph-name="hungarumlaut" unicode="&#x2dd;" horiz-adv-x="729" 
d="M618 1448l-299 -315h-88l275 315h112zM817 1448l-297 -315h-90l275 315h112z" />
    <glyph glyph-name="gravecomb" unicode="&#x300;" horiz-adv-x="0" 
d="M-106 1448l133 -315h-84l-193 315h144z" />
    <glyph glyph-name="acutecomb" unicode="&#x301;" horiz-adv-x="0" 
d="M-326 1133l258 315h156l-317 -315h-97z" />
    <glyph glyph-name="uni0302" unicode="&#x302;" horiz-adv-x="0" 
d="M-629 1133l330 315h123l203 -315h-113l-156 247l-256 -247h-131z" />
    <glyph glyph-name="tildecomb" unicode="&#x303;" horiz-adv-x="0" 
d="M-123 1217q-50 0 -113 28.5t-119.5 57t-90.5 28.5q-73 0 -132 -96l-53 22q36 75 83 121.5t116 46.5q50 0 113 -28.5t119.5 -57t90.5 -28.5q73 0 132 96l53 -23q-38 -76 -84 -121.5t-115 -45.5z" />
    <glyph glyph-name="uni0304" unicode="&#x304;" horiz-adv-x="0" 
d="M66 1337l-19 -86h-563l16 86h566z" />
    <glyph glyph-name="uni0306" unicode="&#x306;" horiz-adv-x="0" 
d="M84 1432q-25 -136 -109 -212.5t-215 -76.5q-109 0 -174 57t-65 158q0 36 6 74h82q-6 -24 -6 -52q0 -74 41.5 -114.5t117.5 -40.5q187 0 234 207h88z" />
    <glyph glyph-name="uni0307" unicode="&#x307;" horiz-adv-x="0" 
d="M80 1413l-49 -246h-140l50 246h139z" />
    <glyph glyph-name="uni0308" unicode="&#x308;" horiz-adv-x="0" 
d="M-473 1184l45 229h129l-45 -229h-129zM-96 1184l47 229h129l-45 -229h-131z" />
    <glyph glyph-name="uni030A" unicode="&#x30a;" horiz-adv-x="0" 
d="M-170 1530q103 0 164 -62.5t61 -158.5q0 -108 -72.5 -183t-187.5 -75q-105 0 -166 62.5t-61 158.5q0 109 72.5 183.5t189.5 74.5zM-174 1464q-86 0 -136 -54.5t-50 -135.5q0 -73 41.5 -115.5t115.5 -42.5q85 0 136 55t51 136q0 72 -42.5 114.5t-115.5 42.5z" />
    <glyph glyph-name="uni030B" unicode="&#x30b;" horiz-adv-x="0" 
d="M-111 1448l-299 -315h-88l275 315h112zM88 1448l-297 -315h-90l274 315h113z" />
    <glyph glyph-name="uni030C" unicode="&#x30c;" horiz-adv-x="0" 
d="M-369 1114l-202 316h112l156 -248l256 248h131l-330 -316h-123z" />
    <glyph glyph-name="uni0326" unicode="&#x326;" horiz-adv-x="0" 
d="M-375 -96h162l-31 -158l-155 -160h-52l117 160h-72z" />
    <glyph glyph-name="uni0327" unicode="&#x327;" horiz-adv-x="0" 
d="M-518 -434l-19 45q109 50 154 81.5t45 69.5q0 28 -30 43.5t-97 30.5l111 191h59l-72 -119q27 -7 46.5 -15t40 -21.5t31.5 -34.5t11 -50q0 -26 -9.5 -48.5t-30.5 -42.5t-40 -34.5t-56 -32.5t-59.5 -27.5l-67.5 -28.5q-11 -5 -17 -7z" />
    <glyph glyph-name="uni0328" unicode="&#x328;" horiz-adv-x="0" 
d="M-309 53l61 -28q-112 -82 -164.5 -141.5t-52.5 -114.5q0 -68 96 -68q47 0 101 14l4 -80q-67 -18 -121 -18q-75 0 -125.5 33t-50.5 98q0 73 62.5 147t189.5 158z" />
    <glyph glyph-name="uni0394" unicode="&#x394;" horiz-adv-x="1286" 
d="M606 1434l547 -1434h-1204l547 1434h110zM551 1313l-463 -1260h926z" />
    <glyph glyph-name="uni03A9" unicode="&#x3a9;" horiz-adv-x="1736" 
d="M881 1464q219 0 385 -90t254 -248t88 -360q0 -259 -150 -432.5t-397 -227.5v-6h504v-100h-602v162q247 41 391.5 203.5t144.5 394.5q0 173 -73 308.5t-214.5 214.5t-330.5 79t-331 -79t-215 -214.5t-73 -308.5q0 -232 144.5 -394.5t392.5 -203.5v-162h-602v100h503v6
q-246 54 -396 227.5t-150 432.5q0 202 88 360t254 248t385 90z" />
    <glyph glyph-name="uni03BC" unicode="&#x3bc;" horiz-adv-x="1069" 
d="M922 946h108l-184 -946h-107l41 203h-4q-57 -104 -150.5 -169t-224.5 -65q-187 0 -258 123l-98 -502h-98l266 1356h111l-109 -547q-10 -65 -10 -108q0 -217 223 -217q320 0 412 465z" />
    <glyph glyph-name="pi" unicode="&#x3c0;" horiz-adv-x="1234" 
d="M1272 977l-21 -100h-231l-170 -877h-100l170 877h-371l-369 -877h-106l370 877h-10q-170 0 -303 -41l21 100q125 41 290 41h830z" />
    <glyph glyph-name="uni0401" unicode="&#x401;" horiz-adv-x="1050" 
d="M682 1720l-39 -198h-133l39 198h133zM1067 1720l-41 -198h-131l39 198h133zM1116 1327h-674l-92 -471h621l-21 -106h-622l-125 -644h684l-21 -106h-798l278 1434h791z" />
    <glyph glyph-name="uni0402" unicode="&#x402;" horiz-adv-x="1447" 
d="M1053 825q88 0 150.5 -10t111.5 -35.5t73.5 -71.5t24.5 -114q0 -37 -10 -92l-29 -148q-33 -177 -135 -265.5t-297 -88.5h-166l21 106h151q146 0 215.5 61.5t98.5 201.5l22 120q10 67 10 76q0 47 -18 77.5t-55 47t-83.5 23t-113.5 6.5q-132 0 -410 -23l-135 -696h-114
l256 1327h-426l20 107h1075l-18 -107h-535l-102 -524q248 22 418 22z" />
    <glyph glyph-name="uni0403" unicode="&#x403;" horiz-adv-x="989" 
d="M1096 1767l-308 -245h-96l252 245h152zM1147 1434l-21 -109h-686l-258 -1325h-114l278 1434h801z" />
    <glyph glyph-name="uni0404" unicode="&#x404;" horiz-adv-x="1433" 
d="M973 1350q-183 0 -336 -76.5t-249.5 -207.5t-127.5 -296h709l-21 -106h-700v-35q0 -256 145.5 -400.5t405.5 -144.5q126 0 229 36t209 105l63 -96q-121 -81 -244.5 -120.5t-271.5 -39.5q-308 0 -482.5 177t-174.5 479q0 178 63 333t174 266.5t271.5 175.5t347.5 64
q281 0 496 -164l-72 -94q-196 144 -434 144z" />
    <glyph glyph-name="uni0405" unicode="&#x405;" horiz-adv-x="1058" 
d="M516 -31q-299 0 -526 215l76 95q211 -195 454 -195q145 0 224 66.5t79 187.5q0 88 -46 157t-136 142l-168 139q-99 79 -153 164.5t-54 192.5q0 144 96 237.5t277 93.5q116 0 216.5 -37t207.5 -112l-72 -103q-79 63 -171.5 100.5t-182.5 37.5q-123 0 -186.5 -61
t-63.5 -156q0 -138 164 -265l180 -145q105 -85 159 -174.5t54 -208.5q0 -178 -114.5 -274.5t-313.5 -96.5z" />
    <glyph glyph-name="uni0406" unicode="&#x406;" horiz-adv-x="436" 
d="M68 0l278 1434h117l-279 -1434h-116z" />
    <glyph glyph-name="uni0407" unicode="&#x407;" horiz-adv-x="436" 
d="M160 1522l39 198h133l-39 -198h-133zM545 1522l39 198h133l-41 -198h-131zM68 0l278 1434h117l-279 -1434h-116z" />
    <glyph glyph-name="uni0408" unicode="&#x408;" horiz-adv-x="559" 
d="M-55 -10l22 110h47q98 0 155 44.5t79 152.5l221 1137h117l-226 -1151q-32 -158 -115 -225.5t-235 -67.5h-65z" />
    <glyph glyph-name="uni0409" unicode="&#x409;" horiz-adv-x="2215" 
d="M1749 811q201 0 306.5 -93t105.5 -265q0 -209 -147 -331t-392 -122h-487l258 1325h-791l-203 -1042q-30 -156 -114 -224.5t-236 -68.5h-104l22 110h86q98 0 156.5 51t83.5 175l215 1108h117h843h62l-123 -623h342zM1616 106q206 0 314 94.5t108 248.5q0 124 -75.5 190
t-227.5 66h-349l-116 -599h346z" />
    <glyph glyph-name="uni040A" unicode="&#x40a;" horiz-adv-x="2127" 
d="M1663 811q200 0 305 -93t105 -265q0 -209 -147 -331t-392 -122h-487l137 705h-865l-135 -705h-116l278 1434h117l-121 -623h862l121 623h117l-123 -623h344zM1528 106q206 0 315 94.5t109 248.5q0 124 -76 190t-229 66h-349l-116 -599h346z" />
    <glyph glyph-name="uni040B" unicode="&#x40b;" horiz-adv-x="1423" 
d="M1075 805q159 0 233 -55.5t74 -176.5q0 -47 -12 -112l-90 -461h-115l95 492q6 34 6 63q0 77 -49 110t-154 33h-471l-135 -698h-115l258 1327h-405l20 107h520h555l-18 -107h-557l-103 -522h463z" />
    <glyph glyph-name="uni040C" unicode="&#x40c;" horiz-adv-x="1216" 
d="M1112 1767l-307 -245h-96l252 245h151zM1266 1434l-799 -664l647 -770h-158l-624 764l-150 -764h-114l278 1434h115l-125 -641l754 641h176z" />
    <glyph glyph-name="uni040E" unicode="&#x40e;" horiz-adv-x="1222" 
d="M842 1497q-114 0 -180 53.5t-66 149.5q0 21 8 67h82q-6 -27 -6 -51q0 -139 164 -139q186 0 227 190h86q-25 -132 -105 -201t-210 -69zM1262 1434h131l-965 -1434h-133l252 373l-344 1061h123l303 -938z" />
    <glyph glyph-name="uni040F" unicode="&#x40f;" horiz-adv-x="1411" 
d="M1440 1434l-279 -1434h-491l-56 -287h-112l55 287h-489l278 1434h117l-260 -1328h860l260 1328h117z" />
    <glyph glyph-name="uni0410" unicode="&#x410;" horiz-adv-x="1325" 
d="M1092 0l-84 403h-705l-233 -403h-136l840 1434h123l309 -1434h-114zM362 510h623l-166 793z" />
    <glyph glyph-name="uni0411" unicode="&#x411;" horiz-adv-x="1146" 
d="M1147 1327h-707l-100 -516h342q200 0 306 -93.5t106 -264.5q0 -209 -147.5 -331t-393.5 -122h-485l278 1434h115h706zM668 705h-349l-116 -599h346q206 0 314 94.5t108 248.5q0 124 -76 190t-227 66z" />
    <glyph glyph-name="uni0412" unicode="&#x412;" horiz-adv-x="1261" 
d="M877 758q132 -23 201 -108t69 -216q0 -137 -72 -237t-188.5 -148.5t-259.5 -48.5h-559l278 1434h465q178 0 276.5 -82t98.5 -232q0 -131 -80 -229t-229 -129v-4zM442 1327l-102 -522h348q181 0 279 81t98 220q0 221 -277 221h-346zM629 106q181 0 291 90t110 234
q0 126 -81.5 197t-235.5 71h-396l-114 -592h426z" />
    <glyph glyph-name="uni0413" unicode="&#x413;" horiz-adv-x="989" 
d="M1147 1434l-21 -109h-686l-258 -1325h-114l278 1434h801z" />
    <glyph glyph-name="uni0414" unicode="&#x414;" horiz-adv-x="1339" 
d="M1327 1434l-260 -1334h123l-74 -387h-108l53 279h-1012l-53 -279h-111l76 387h107q126 147 191 323.5t116 440.5l110 570h842zM489 866q-54 -275 -114.5 -447.5t-179.5 -318.5h759l240 1227h-616z" />
    <glyph glyph-name="uni0415" unicode="&#x415;" horiz-adv-x="1050" 
d="M1116 1327h-674l-92 -471h621l-21 -106h-622l-125 -644h684l-21 -106h-798l278 1434h791z" />
    <glyph glyph-name="uni0416" unicode="&#x416;" horiz-adv-x="1746" 
d="M1839 1434l-731 -689l537 -745h-150l-512 739l-143 -739h-111l143 739l-788 -739h-166l838 774l-463 660h145l441 -660l129 660h110l-129 -662l686 662h164z" />
    <glyph glyph-name="uni0417" unicode="&#x417;" horiz-adv-x="1191" 
d="M537 -31q-292 0 -531 154l72 100q97 -63 204.5 -101t252.5 -38q91 0 164 17.5t131 54t90 100t32 150.5q0 153 -100.5 229t-278.5 76h-227l21 102h225q193 0 315.5 81t122.5 224q0 116 -85 174t-226 58q-209 0 -432 -88l-47 102q127 47 239.5 73.5t245.5 26.5
q203 0 315.5 -88t112.5 -246q0 -318 -405 -362v-2q323 -38 323 -360q0 -201 -136.5 -319t-397.5 -118z" />
    <glyph glyph-name="uni0418" unicode="&#x418;" horiz-adv-x="1417" 
d="M68 0l278 1434h115l-242 -1239h4l1096 1239h125l-279 -1434h-114l243 1239h-4l-1097 -1239h-125z" />
    <glyph glyph-name="uni0419" unicode="&#x419;" horiz-adv-x="1417" 
d="M1219 1767q-25 -132 -105.5 -201t-210.5 -69q-114 0 -180 53.5t-66 149.5q0 15 9 67h82q-7 -31 -7 -51q0 -139 164 -139q187 0 228 190h86zM68 0l278 1434h115l-242 -1239h4l1096 1239h125l-279 -1434h-114l243 1239h-4l-1097 -1239h-125z" />
    <glyph glyph-name="uni041A" unicode="&#x41a;" horiz-adv-x="1216" 
d="M1266 1434l-799 -664l647 -770h-158l-624 764l-150 -764h-114l278 1434h115l-125 -641l754 641h176z" />
    <glyph glyph-name="uni041B" unicode="&#x41b;" horiz-adv-x="1497" 
d="M1524 1434l-279 -1434h-117l261 1325h-791l-195 -1012q-32 -169 -115.5 -246t-238.5 -77h-104l22 110h86q96 0 154.5 54t81.5 172l215 1108h1020z" />
    <glyph glyph-name="uni041C" unicode="&#x41c;" horiz-adv-x="1734" 
d="M-66 0l617 1434h108l189 -1024h4l575 1024h111l80 -1434h-119l-61 1212h-4l-557 -974h-103l-190 974h-4l-512 -1212h-134z" />
    <glyph glyph-name="uni041D" unicode="&#x41d;" horiz-adv-x="1388" 
d="M1300 1434h115l-278 -1434h-115l137 713h-837l-140 -713h-114l278 1434h115l-119 -615h838z" />
    <glyph glyph-name="uni041E" unicode="&#x41e;" horiz-adv-x="1710" 
d="M842 -31q-320 0 -515.5 185t-195.5 495q0 168 60.5 317.5t168 259.5t264 174t339.5 64q210 0 370.5 -82.5t250 -237.5t89.5 -360q0 -168 -60.5 -317.5t-167.5 -259.5t-263.5 -174t-339.5 -64zM842 84q159 0 293.5 57t225 154.5t141 226t50.5 271.5q0 171 -78.5 298.5
t-211.5 193t-301 65.5q-158 0 -292.5 -57.5t-225 -154.5t-141 -225.5t-50.5 -271.5q0 -128 45.5 -234t125 -176t187 -108.5t232.5 -38.5z" />
    <glyph glyph-name="uni041F" unicode="&#x41f;" horiz-adv-x="1404" 
d="M1432 1434l-279 -1434h-117l258 1327h-852l-258 -1327h-116l278 1434h1086z" />
    <glyph glyph-name="uni0420" unicode="&#x420;" horiz-adv-x="1124" 
d="M766 1434q192 0 300 -105t108 -272q0 -197 -140.5 -324t-384.5 -127h-348l-119 -606h-114l278 1434h420zM664 713q177 0 282 89t105 245q0 135 -79 207.5t-214 72.5h-318l-118 -614h342z" />
    <glyph glyph-name="uni0421" unicode="&#x421;" horiz-adv-x="1433" 
d="M784 -31q-308 0 -482.5 177t-174.5 479q0 178 63 333t174 266.5t271.5 175.5t347.5 64q281 0 496 -164l-72 -94q-196 144 -434 144q-209 0 -376 -98t-258 -262t-91 -361q0 -256 145.5 -400.5t405.5 -144.5q126 0 229 36t209 105l63 -96q-121 -81 -244.5 -120.5
t-271.5 -39.5z" />
    <glyph glyph-name="uni0422" unicode="&#x422;" horiz-adv-x="1064" 
d="M1223 1434l-21 -107h-446l-258 -1327h-115l258 1327h-446l20 107h1008z" />
    <glyph glyph-name="uni0423" unicode="&#x423;" horiz-adv-x="1222" 
d="M1262 1434h131l-965 -1434h-133l252 373l-344 1061h123l303 -938z" />
    <glyph glyph-name="uni0424" unicode="&#x424;" horiz-adv-x="1744" 
d="M1110 1354q275 -22 435.5 -177t160.5 -417q0 -222 -100.5 -378.5t-275.5 -233t-410 -76.5h-76l-27 -125h-115l27 129q-275 22 -434.5 178t-159.5 420q0 220 100 375.5t275 232t410 76.5h75l29 129h115zM256 676q0 -226 129.5 -351.5t372.5 -142.5l221 1067h-72
q-199 0 -343.5 -62.5t-226 -192.5t-81.5 -318zM934 180q301 0 475 147.5t174 430.5q0 226 -129.5 350t-372.5 139l-221 -1067h74z" />
    <glyph glyph-name="uni0425" unicode="&#x425;" horiz-adv-x="1222" 
d="M1329 1434l-588 -686l353 -748h-127l-312 655l-561 -655h-149l655 762l-317 672h127l274 -578l498 578h147z" />
    <glyph glyph-name="uni0426" unicode="&#x426;" horiz-adv-x="1378" 
d="M1044 -287l56 287h-1032l278 1434h117l-260 -1328h792l258 1328h117l-258 -1328h117l-76 -393h-109z" />
    <glyph glyph-name="uni0427" unicode="&#x427;" horiz-adv-x="1146" 
d="M1059 1434h117l-279 -1434h-117l123 629h-461q-160 0 -234.5 55t-74.5 176q0 48 12 113l91 461h116l-96 -492q-6 -35 -6 -63q0 -75 50 -109.5t153 -34.5h471z" />
    <glyph glyph-name="uni0428" unicode="&#x428;" horiz-adv-x="2099" 
d="M68 0l278 1434h117l-260 -1328h717l258 1328h116l-258 -1328h717l258 1328h117l-279 -1434h-1781z" />
    <glyph glyph-name="uni0429" unicode="&#x429;" horiz-adv-x="2134" 
d="M1870 106h117l-76 -393h-109l56 287h-1790l278 1434h117l-260 -1328h717l258 1328h116l-258 -1328h717l258 1328h117z" />
    <glyph glyph-name="uni042A" unicode="&#x42a;" horiz-adv-x="1441" 
d="M977 811q200 0 306 -93.5t106 -264.5q0 -209 -147 -331t-392 -122h-488l259 1327h-426l20 107h541l-4 -23l-117 -600h342zM844 106q206 0 314 94.5t108 248.5q0 124 -75.5 190t-227.5 66h-349l-116 -599h346z" />
    <glyph glyph-name="uni042B" unicode="&#x42b;" horiz-adv-x="1513" 
d="M682 811q200 0 306 -93.5t106 -264.5q0 -209 -147.5 -331t-393.5 -122h-485l278 1434h115l-121 -623h342zM1423 1434h117l-278 -1434h-117zM549 106q206 0 314 94.5t108 248.5q0 124 -76 190t-227 66h-349l-116 -599h346z" />
    <glyph glyph-name="uni042C" unicode="&#x42c;" horiz-adv-x="1146" 
d="M682 811q200 0 306 -93.5t106 -264.5q0 -209 -147.5 -331t-393.5 -122h-485l278 1434h115l-121 -623h342zM549 106q206 0 314 94.5t108 248.5q0 124 -76 190t-227 66h-349l-116 -599h346z" />
    <glyph glyph-name="uni042D" unicode="&#x42d;" horiz-adv-x="1437" 
d="M758 1464q306 0 475.5 -172t169.5 -489q0 -184 -60.5 -338.5t-170.5 -264t-272 -170.5t-359 -61q-318 0 -529 164l82 100q94 -72 201.5 -110.5t253.5 -38.5q295 0 488 158t233 422h-717l20 106h707v27q0 262 -139 407.5t-387 145.5q-243 0 -471 -127l-50 102
q241 139 525 139z" />
    <glyph glyph-name="uni042E" unicode="&#x42e;" horiz-adv-x="2107" 
d="M1362 1464q210 0 370.5 -82.5t249.5 -237.5t89 -360q0 -168 -60.5 -317.5t-168 -259.5t-264 -174t-339.5 -64q-210 0 -371 82.5t-250.5 237.5t-89.5 360q0 31 2 47h-213l-135 -696h-114l278 1434h115l-123 -631h205q25 141 94.5 262t174 209.5t246.5 139t304 50.5z
M1241 84q158 0 292.5 57.5t225 154.5t141 225.5t50.5 271.5q0 171 -78 298.5t-211 193t-301 65.5q-158 0 -292.5 -57.5t-225 -154.5t-141 -225.5t-50.5 -271.5q0 -171 78 -298.5t211 -193t301 -65.5z" />
    <glyph glyph-name="uni042F" unicode="&#x42f;" horiz-adv-x="1193" 
d="M741 1436h482l-279 -1436h-117l123 633h-250l-575 -631l-156 -2l586 637q-150 18 -237 108.5t-87 245.5q0 140 68.5 242.5t182.5 152.5t259 50zM627 739h344l114 590h-342q-178 0 -283.5 -91.5t-105.5 -240.5q0 -120 72 -189t201 -69z" />
    <glyph glyph-name="uni0430" unicode="&#x430;" horiz-adv-x="1200" 
d="M504 -31q-192 0 -309 123.5t-117 325.5q0 156 69.5 284.5t191.5 201.5t271 73q145 0 251 -67.5t147 -188.5h4l43 225h106l-184 -946h-107l35 172h-4q-150 -203 -397 -203zM539 72q189 0 314.5 130.5t125.5 325.5q0 158 -97.5 252t-263.5 94q-181 0 -304.5 -132
t-123.5 -326q0 -158 94.5 -251t254.5 -93z" />
    <glyph glyph-name="uni0431" unicode="&#x431;" horiz-adv-x="1220" 
d="M578 -31q-104 0 -188.5 28.5t-150.5 88t-102.5 159t-36.5 232.5q0 85 12 170t42.5 176.5t75.5 169t117.5 144t162.5 104.5q50 20 122 38.5t123 27.5t125 20.5t87 13.5q124 21 145 107h105q-13 -80 -63.5 -125t-143.5 -66q-37 -8 -130.5 -23.5t-177 -34.5t-147.5 -44
q-275 -112 -332 -479h6q67 143 192.5 214t274.5 71q199 0 322 -119t123 -322q0 -112 -38.5 -211.5t-109 -175t-178 -120t-237.5 -44.5zM586 74q195 0 318.5 127t123.5 319q0 162 -95.5 251t-250.5 89q-123 0 -230.5 -54.5t-174 -156t-66.5 -227.5q0 -161 105.5 -254.5
t269.5 -93.5z" />
    <glyph glyph-name="uni0432" unicode="&#x432;" horiz-adv-x="1026" 
d="M743 498q162 -29 162 -205q0 -135 -98 -214t-254 -79h-514l184 946h475q117 0 186.5 -54.5t69.5 -158.5q0 -90 -56.5 -151.5t-154.5 -81.5v-2zM666 854h-355l-61 -313h358q119 0 175.5 50t56.5 128q0 135 -174 135zM549 92q123 0 184.5 57.5t61.5 145.5q0 158 -193 158
h-369l-69 -361h385z" />
    <glyph glyph-name="uni0433" unicode="&#x433;" horiz-adv-x="741" 
d="M823 946l-20 -98h-494l-164 -848h-106l184 946h600z" />
    <glyph glyph-name="uni0434" unicode="&#x434;" horiz-adv-x="1093" 
d="M1020 946l-168 -860h121l-68 -352h-96l49 258h-821l-51 -258h-97l70 352h117q154 151 198 387l93 473h108h502h43zM381 469q-23 -120 -65.5 -211.5t-118.5 -171.5h548l150 764h-438z" />
    <glyph glyph-name="uni0435" unicode="&#x435;" horiz-adv-x="1118" 
d="M1036 465h-848q-4 -40 -4 -59q0 -163 86.5 -248.5t247.5 -85.5q122 0 212 46.5t173 133.5l72 -80q-45 -44 -84 -74t-96 -63t-127.5 -50.5t-151.5 -17.5q-208 0 -324 113.5t-116 318.5q0 163 70.5 294.5t200 207.5t294.5 76q199 0 306.5 -106t107.5 -273q0 -40 -19 -133z
M635 879q-160 0 -274.5 -91t-155.5 -237h735q6 24 6 49q0 127 -81.5 203t-229.5 76z" />
    <glyph glyph-name="uni0436" unicode="&#x436;" horiz-adv-x="1337" 
d="M1366 946l-524 -444l385 -502h-140l-362 492l-96 -492h-105l97 494l-535 -494h-160l584 518l-354 428h143l328 -424l82 424h104l-82 -422l475 422h160z" />
    <glyph glyph-name="uni0437" unicode="&#x437;" horiz-adv-x="940" 
d="M387 -31q-245 0 -428 97l51 92q86 -41 173.5 -64.5t205.5 -23.5q322 0 322 215q0 91 -56 128.5t-176 37.5h-205l19 96h205q256 0 256 176q0 81 -59.5 117.5t-180.5 36.5q-177 0 -350 -56l-31 101q197 55 381 55q352 0 352 -234q0 -102 -70 -165.5t-202 -73.5v-4
q225 -15 225 -219q0 -144 -108 -228t-324 -84z" />
    <glyph glyph-name="uni0438" unicode="&#x438;" horiz-adv-x="1089" 
d="M39 0l184 946h107l-156 -790h4l754 790h121l-185 -946h-108l155 791h-4l-751 -791h-121z" />
    <glyph glyph-name="uni0439" unicode="&#x439;" horiz-adv-x="1089" 
d="M952 1309q-25 -137 -108.5 -213t-214.5 -76q-109 0 -174.5 57t-65.5 158q0 37 6 74h82q-6 -24 -6 -52q0 -74 42 -114.5t118 -40.5q186 0 233 207h88zM39 0l184 946h107l-156 -790h4l754 790h121l-185 -946h-108l155 791h-4l-751 -791h-121z" />
    <glyph glyph-name="uni043A" unicode="&#x43a;" horiz-adv-x="894" 
d="M909 946l-553 -442l428 -504h-139l-407 489l-95 -489h-104l184 946h103l-80 -420l499 420h164z" />
    <glyph glyph-name="uni043B" unicode="&#x43b;" horiz-adv-x="1091" 
d="M1053 946l-185 -946h-106l166 850h-547l-127 -653q-19 -97 -83.5 -149t-162.5 -52h-82l19 100h75q108 0 134 137l139 713h760z" />
    <glyph glyph-name="uni043C" unicode="&#x43c;" horiz-adv-x="1325" 
d="M-53 0l448 946h101l135 -629h4l377 629h102l82 -946h-106l-62 770h-4l-367 -604h-92l-135 606h-4l-360 -772h-119z" />
    <glyph glyph-name="uni043D" unicode="&#x43d;" horiz-adv-x="1081" 
d="M936 946h106l-184 -946h-106l90 461h-606l-91 -461h-106l184 946h107l-76 -393h606z" />
    <glyph glyph-name="uni043E" unicode="&#x43e;" horiz-adv-x="1185" 
d="M541 -31q-210 0 -336.5 116.5t-126.5 326.5q0 155 71 283.5t202 205t294 76.5q210 0 336.5 -116t126.5 -326q0 -116 -42 -219.5t-115.5 -180t-180 -121.5t-229.5 -45zM551 74q128 0 231 64.5t158 169.5t55 227q0 158 -96 247.5t-264 89.5q-128 0 -231 -64t-158.5 -169
t-55.5 -227q0 -158 96.5 -248t264.5 -90z" />
    <glyph glyph-name="uni043F" unicode="&#x43f;" horiz-adv-x="1097" 
d="M1059 946l-185 -946h-106l166 850h-623l-166 -850h-106l184 946h107h729z" />
    <glyph glyph-name="uni0440" unicode="&#x440;" horiz-adv-x="1196" 
d="M-41 -410l264 1356h107l-35 -178h4q71 97 176.5 153t229.5 56q188 0 302.5 -115.5t114.5 -308.5q0 -127 -44.5 -237t-119.5 -185.5t-177.5 -118.5t-215.5 -43q-144 0 -241 67t-131 173h-7l-120 -619h-107zM559 72q192 0 321.5 137t129.5 340q0 148 -87 236.5t-239 88.5
q-198 0 -330.5 -137t-132.5 -340q0 -148 90 -236.5t248 -88.5z" />
    <glyph glyph-name="uni0441" unicode="&#x441;" horiz-adv-x="1013" 
d="M563 -31q-219 0 -350 128.5t-131 340.5q0 234 155 386.5t398 152.5q204 0 364 -125l-63 -86q-144 108 -305 108q-189 0 -312.5 -124t-123.5 -310q0 -166 104 -267t266 -101q132 0 275 86l51 -92q-156 -97 -328 -97z" />
    <glyph glyph-name="uni0442" unicode="&#x442;" horiz-adv-x="911" 
d="M991 946l-18 -96h-389l-166 -850h-107l166 850h-393l18 96h889z" />
    <glyph glyph-name="uni0443" unicode="&#x443;" horiz-adv-x="919" 
d="M866 946h121l-864 -1356h-115l336 527l-225 829h114l181 -719z" />
    <glyph glyph-name="uni0444" unicode="&#x444;" horiz-adv-x="1738" 
d="M647 -410l117 603h-4q-63 -114 -143.5 -169t-192.5 -55q-159 0 -247.5 105.5t-88.5 312.5q0 164 55 297t161 213t245 80q126 0 209 -64t108 -180h4l125 649h103l-123 -628h4q126 223 344 223q155 0 242.5 -105.5t87.5 -308.5q0 -166 -56.5 -300.5t-164 -214t-246.5 -79.5
q-129 0 -209 68.5t-103 179.5h-4l-120 -627h-103zM440 70q113 0 205 67t141.5 176t49.5 234q0 152 -74 241t-205 89q-86 0 -155 -40.5t-113 -109.5t-67 -157t-23 -185q0 -315 241 -315zM1182 70q112 0 195 71.5t123 183t40 244.5q0 308 -235 308q-114 0 -207 -68t-143 -177
t-50 -233q0 -150 74 -239.5t203 -89.5z" />
    <glyph glyph-name="uni0445" unicode="&#x445;" horiz-adv-x="942" 
d="M975 946l-434 -454l282 -492h-114l-240 418l-401 -418h-134l484 504l-254 442h117l208 -366l351 366h135z" />
    <glyph glyph-name="uni0446" unicode="&#x446;" horiz-adv-x="1079" 
d="M1028 946l-166 -850h99l-72 -362h-98l51 266h-697h-106l184 946h107l-166 -850h592l166 850h106z" />
    <glyph glyph-name="uni0447" unicode="&#x447;" horiz-adv-x="872" 
d="M729 946h105l-185 -946h-104l78 399h-342q-111 0 -167.5 41.5t-56.5 137.5q0 28 11 92l53 276h104l-55 -270q-8 -39 -8 -72q0 -61 34.5 -84.5t106.5 -23.5h338z" />
    <glyph glyph-name="uni0448" unicode="&#x448;" horiz-adv-x="1622" 
d="M1477 946h106l-184 -946h-107h-626h-584h-43l184 946h107l-166 -850h520l166 850h106l-165 -850h520z" />
    <glyph glyph-name="uni0449" unicode="&#x449;" horiz-adv-x="1634" 
d="M1583 946l-166 -850h96l-69 -362h-98l51 266h-625h-627h-106l184 946h107l-166 -850h520l166 850h106l-165 -850h520l166 850h106z" />
    <glyph glyph-name="uni044A" unicode="&#x44a;" horiz-adv-x="1181" 
d="M817 588q135 0 213 -61.5t78 -192.5q0 -150 -102.5 -242t-268.5 -92h-452l166 850h-367l18 96h471h2l-69 -358h311zM743 96q117 0 184.5 67t67.5 167q0 162 -194 162h-314l-75 -396h331z" />
    <glyph glyph-name="uni044B" unicode="&#x44b;" horiz-adv-x="1251" 
d="M571 588q134 0 212.5 -62t78.5 -192q0 -150 -103.5 -242t-269.5 -92h-450l184 946h107l-70 -358h311zM1106 946h106l-184 -946h-106zM496 96q117 0 185.5 67.5t68.5 166.5q0 80 -50 121t-147 41h-311l-78 -396h332z" />
    <glyph glyph-name="uni044C" unicode="&#x44c;" horiz-adv-x="935" 
d="M571 588q134 0 212.5 -62t78.5 -192q0 -150 -103.5 -242t-269.5 -92h-450l184 946h107l-70 -358h311zM496 96q117 0 185.5 67.5t68.5 166.5q0 80 -50 121t-147 41h-311l-78 -396h332z" />
    <glyph glyph-name="uni044D" unicode="&#x44d;" horiz-adv-x="983" 
d="M461 977q214 0 325 -117t111 -319q0 -121 -40 -225.5t-113 -181.5t-182 -121t-240 -44q-192 0 -345 97l60 88q131 -82 285 -82q179 0 298.5 100.5t153.5 255.5h-461l17 90h456v21q0 154 -85.5 244.5t-241.5 90.5q-140 0 -289 -63l-39 96q161 70 330 70z" />
    <glyph glyph-name="uni044E" unicode="&#x44e;" horiz-adv-x="1480" 
d="M940 977q210 0 336.5 -116t126.5 -326q0 -155 -71.5 -284t-202.5 -205.5t-295 -76.5q-209 0 -336 117t-127 326v16h-142l-84 -428h-106l184 946h107l-84 -428h135q36 199 189 329t370 130zM846 74q128 0 231 64.5t158 169.5t55 227q0 158 -96 247.5t-264 89.5
q-129 0 -232.5 -64t-159 -169t-55.5 -227q0 -158 97.5 -248t265.5 -90z" />
    <glyph glyph-name="uni044F" unicode="&#x44f;" horiz-adv-x="942" 
d="M455 946h448l-184 -946h-107l76 393h-231l-377 -393h-135l379 395q-111 8 -176.5 72t-65.5 174q0 142 103 223.5t270 81.5zM379 489h328l69 361h-323q-119 0 -188.5 -56.5t-69.5 -148.5q0 -75 47.5 -115.5t136.5 -40.5z" />
    <glyph glyph-name="uni0451" unicode="&#x451;" horiz-adv-x="1118" 
d="M635 1294l-43 -229h-125l43 229h125zM942 1294l-43 -229h-125l43 229h125zM1036 465h-848q-4 -40 -4 -59q0 -163 86.5 -248.5t247.5 -85.5q122 0 212 46.5t173 133.5l72 -80q-45 -44 -84 -74t-96 -63t-127.5 -50.5t-151.5 -17.5q-208 0 -324 113.5t-116 318.5
q0 163 70.5 294.5t200 207.5t294.5 76q199 0 306.5 -106t107.5 -273q0 -40 -19 -133zM635 879q-160 0 -274.5 -91t-155.5 -237h735q6 24 6 49q0 127 -81.5 203t-229.5 76z" />
    <glyph glyph-name="uni0452" unicode="&#x452;" horiz-adv-x="1122" 
d="M696 977q148 0 233 -80.5t85 -241.5q0 -58 -10 -112l-103 -543h-2l-31 -164q-47 -248 -297 -248h-71l18 97h57q79 0 125 38.5t64 129.5l29 147h2l102 545q10 58 10 90q0 118 -61.5 178.5t-175.5 60.5q-71 0 -134.5 -24.5t-120.5 -75.5t-100.5 -141t-66.5 -211l-82 -422
h-107l230 1180h-152l17 75h149l35 179h106l-34 -179h335l-14 -75h-336l-88 -449h4q66 122 159.5 184t225.5 62z" />
    <glyph glyph-name="uni0453" unicode="&#x453;" horiz-adv-x="741" 
d="M913 1346l-313 -316h-94l256 316h151zM823 946l-20 -98h-494l-164 -848h-106l184 946h600z" />
    <glyph glyph-name="uni0454" unicode="&#x454;" horiz-adv-x="1024" 
d="M584 877q-163 0 -276 -100t-140 -255h477l-16 -90h-467q3 -164 108 -263t265 -99q133 0 274 88l51 -92q-160 -97 -328 -97q-219 0 -350 128.5t-131 340.5q0 153 66.5 275.5t189.5 193t281 70.5q219 0 381 -125l-64 -86q-148 111 -321 111z" />
    <glyph glyph-name="uni0455" unicode="&#x455;" horiz-adv-x="806" 
d="M51 219q162 -149 340 -149q99 0 145 39.5t46 107.5q0 53 -30 94t-91 82l-117 78q-84 56 -130 116.5t-46 147.5q0 112 76.5 177t208.5 65q159 0 317 -105l-59 -92q-135 97 -258 97q-83 0 -127.5 -39.5t-44.5 -106.5q0 -55 31.5 -92t99.5 -82l112 -76q41 -28 68 -51.5
t52 -55t37.5 -70t12.5 -85.5q0 -127 -81.5 -188.5t-221.5 -61.5q-231 0 -411 166z" />
    <glyph glyph-name="uni0456" unicode="&#x456;" horiz-adv-x="372" 
d="M434 1413l-49 -246h-139l49 246h139zM41 0l184 946h107l-185 -946h-106z" />
    <glyph glyph-name="uni0457" unicode="&#x457;" horiz-adv-x="372" 
d="M297 1294l-45 -229h-127l43 229h129zM522 1294l-43 -229h-127l43 229h127zM41 0l184 946h107l-185 -946h-106z" />
    <glyph glyph-name="uni0458" unicode="&#x458;" horiz-adv-x="372" 
d="M434 1413l-49 -246h-139l49 246h139zM-233 -317h53q159 0 194 170l213 1093h107l-215 -1098q-28 -144 -107 -205t-205 -61h-59z" />
    <glyph glyph-name="uni0459" unicode="&#x459;" horiz-adv-x="1650" 
d="M1286 588q134 0 212.5 -62t78.5 -192q0 -150 -103 -242t-268 -92h-452l166 850h-539l-127 -653q-19 -97 -83.5 -149t-162.5 -52h-82l19 100h75q108 0 134 137l139 713h106h582h63l-69 -358h311zM1212 96q116 0 184 67.5t68 166.5q0 162 -196 162h-312l-75 -396h331z" />
    <glyph glyph-name="uni045A" unicode="&#x45a;" horiz-adv-x="1644" 
d="M1284 588q132 0 209.5 -61.5t77.5 -190.5q0 -151 -103 -243.5t-268 -92.5h-457l97 492h-598l-97 -492h-106l184 946h107l-70 -358h598l70 358h106l-69 -358h319zM1206 96q116 0 184 68.5t68 167.5q0 160 -194 160h-318l-76 -396h336z" />
    <glyph glyph-name="uni045B" unicode="&#x45b;" horiz-adv-x="1122" 
d="M696 977q148 0 233 -80.5t85 -241.5q0 -58 -10 -112l-103 -543h-106l102 545q10 58 10 90q0 118 -61.5 178.5t-175.5 60.5q-71 0 -134.5 -24.5t-120.5 -75.5t-100.5 -141t-66.5 -211l-82 -422h-107l230 1180h-152l17 75h149l35 179h106l-34 -179h335l-14 -75h-336
l-88 -449h4q66 122 159.5 184t225.5 62z" />
    <glyph glyph-name="uni045C" unicode="&#x45c;" horiz-adv-x="894" 
d="M913 1346l-313 -316h-94l256 316h151zM745 946h164l-553 -442l428 -504h-139l-407 489l-95 -489h-104l184 946h103l-80 -420z" />
    <glyph glyph-name="uni045E" unicode="&#x45e;" horiz-adv-x="919" 
d="M559 1020q-109 0 -174.5 57t-65.5 158q0 30 7 74h82q-7 -28 -7 -52q0 -74 42 -114.5t118 -40.5q187 0 234 207h88q-25 -136 -109 -212.5t-215 -76.5zM866 946h121l-864 -1356h-115l336 527l-225 829h114l181 -719z" />
    <glyph glyph-name="uni045F" unicode="&#x45f;" horiz-adv-x="1058" 
d="M913 946h107l-184 -946h-351l-51 -266h-98l51 266h-348l184 946h107l-166 -850h584z" />
    <glyph glyph-name="uni0462" unicode="&#x462;" horiz-adv-x="1257" 
d="M793 811q199 0 304 -93t105 -265q0 -209 -146.5 -331t-391.5 -122h-488l211 1083h-240l19 101h240l49 250h116l-49 -250h500l-18 -101h-500l-55 -272h344zM657 106q206 0 315 94.5t109 248.5q0 124 -76 190t-229 66h-348l-117 -599h346z" />
    <glyph glyph-name="uni0463" unicode="&#x463;" horiz-adv-x="976" 
d="M612 588q134 0 212.5 -62t78.5 -192q0 -150 -103.5 -242t-269.5 -92h-450l168 860h-170l14 86h172l94 488h107l-94 -488h385l-15 -86h-387l-53 -272h311zM537 96q117 0 185.5 67.5t68.5 166.5q0 80 -50 121t-147 41h-311l-78 -396h332z" />
    <glyph glyph-name="uni0472" unicode="&#x472;" horiz-adv-x="1710" 
d="M963 1464q210 0 370.5 -82.5t250 -237.5t89.5 -360q0 -168 -60.5 -317.5t-167.5 -259.5t-263.5 -174t-339.5 -64q-320 0 -515.5 185t-195.5 495q0 168 60.5 317.5t168 259.5t264 174t339.5 64zM961 1350q-187 0 -339 -79t-243 -212t-117 -299h1288q2 12 2 33
q0 171 -78.5 298.5t-211.5 193t-301 65.5zM842 84q142 0 265 46t211.5 126t146.5 187.5t77 230.5h-1290v-33q0 -128 45.5 -234t125 -176t187 -108.5t232.5 -38.5z" />
    <glyph glyph-name="uni0473" unicode="&#x473;" horiz-adv-x="1185" 
d="M645 977q210 0 336.5 -115t126.5 -327q0 -114 -41.5 -217.5t-114.5 -180.5t-180 -122.5t-231 -45.5q-210 0 -336.5 115.5t-126.5 327.5q0 153 70 281.5t201 206t296 77.5zM635 872q-170 0 -287 -103t-149 -257h798q0 3 1 11t1 12q0 158 -98.5 247.5t-265.5 89.5zM551 74
q170 0 287 103t149 257h-799q0 -3 -1 -10.5t-1 -11.5q0 -158 99 -248t266 -90z" />
    <glyph glyph-name="uni0474" unicode="&#x474;" horiz-adv-x="1304" 
d="M1163 1135l-612 -1135h-113l-241 1434h127l192 -1266h4l512 971q38 72 64.5 116t60.5 86.5t68 64.5t78.5 35t101.5 13q34 0 80 -4l-23 -109q-18 2 -65 2q-68 0 -119 -46t-115 -162z" />
    <glyph glyph-name="uni0475" unicode="&#x475;" horiz-adv-x="1017" 
d="M1069 965h18l-22 -111h-21q-53 0 -92 -23t-73 -79l-453 -752h-107l-200 946h114l156 -817l395 674q53 91 116.5 126.5t168.5 35.5z" />
    <glyph glyph-name="uni048E" unicode="&#x48e;" horiz-adv-x="1124" 
d="M1174 1057q0 -136 -71 -243.5t-200 -160.5l131 -178l-53 -39l-143 195q-86 -25 -189 -25h-348l-119 -606h-114l278 1434h420q192 0 300 -105t108 -272zM838 741q101 36 157 114.5t56 191.5q0 135 -79 207.5t-214 72.5h-318l-118 -614h342q51 0 106 10l-158 213l52 39z
" />
    <glyph glyph-name="uni048F" unicode="&#x48f;" horiz-adv-x="1220" 
d="M1122 553q0 -157 -64.5 -282.5t-176.5 -204.5l139 -189l-53 -35l-142 191q-122 -64 -260 -64q-144 0 -241 67t-131 173h-7l-120 -619h-107l264 1356h107l-35 -178h4q71 97 176.5 153t229.5 56q188 0 302.5 -115.5t114.5 -308.5zM559 72q107 0 203 49l-123 166l53 37
l125 -170q90 64 141.5 167.5t51.5 227.5q0 148 -87 236.5t-239 88.5q-198 0 -330.5 -137t-132.5 -340q0 -148 90 -236.5t248 -88.5z" />
    <glyph glyph-name="uni0490" unicode="&#x490;" horiz-adv-x="993" 
d="M68 0l278 1434h690l56 286h114l-76 -395h-690l-258 -1325h-114z" />
    <glyph glyph-name="uni0491" unicode="&#x491;" horiz-adv-x="747" 
d="M778 1233h107l-76 -385h-500l-164 -848h-106l184 946h500z" />
    <glyph glyph-name="uni0492" unicode="&#x492;" horiz-adv-x="1069" 
d="M1208 1325h-686l-104 -539h520l-18 -98h-523l-133 -688h-117l134 688h-209l18 98h211l125 648h801z" />
    <glyph glyph-name="uni0493" unicode="&#x493;" horiz-adv-x="811" 
d="M872 848h-493l-62 -313h357l-21 -99h-354l-84 -436h-106l86 436h-162l20 99h160l80 411h600z" />
    <glyph glyph-name="uni0494" unicode="&#x494;" horiz-adv-x="1185" 
d="M807 815q168 0 252 -55t84 -197q0 -44 -10 -112l-91 -463q-39 -203 -142.5 -300.5t-289.5 -97.5h-135l23 107h108q141 0 216 73t104 220l90 461q8 58 8 81q0 56 -16 92t-51 54.5t-76 24.5t-105 6q-179 0 -461 -25l-133 -684h-114l278 1434h801l-21 -109h-686l-104 -534
q282 24 471 24z" />
    <glyph glyph-name="uni0495" unicode="&#x495;" horiz-adv-x="958" 
d="M852 848h-545l-69 -354q205 28 325 28q279 0 279 -219q0 -47 -13 -117l-51 -270q-65 -326 -360 -326h-125l18 101h107q99 0 165 51.5t91 177.5l49 250q12 70 12 106q0 82 -50 116t-148 34q-136 0 -318 -31l-78 -395h-102l184 946h649z" />
    <glyph glyph-name="uni0496" unicode="&#x496;" horiz-adv-x="1824" 
d="M1108 745l489 -679h103l-70 -361h-108l57 295h-84l-512 739l-143 -739h-111l143 739l-788 -739h-166l838 774l-463 660h145l441 -660l129 660h110l-129 -662l686 662h164z" />
    <glyph glyph-name="uni0497" unicode="&#x497;" horiz-adv-x="1390" 
d="M842 502l340 -443h84l-64 -325h-98l51 266h-68l-362 492l-96 -492h-105l97 494l-535 -494h-160l584 518l-354 428h143l328 -424l82 424h104l-82 -422l475 422h160z" />
    <glyph glyph-name="uni0498" unicode="&#x498;" horiz-adv-x="1191" 
d="M748 766q323 -38 323 -360q0 -199 -133 -316.5t-389 -120.5l-37 -61q27 -7 46.5 -15t40 -21.5t31.5 -34.5t11 -50q-1 -50 -45 -92.5t-83 -62t-135 -58.5q-12 -5 -18 -8l-18 45q109 50 154 81.5t45 69.5q0 28 -30 43.5t-97 30.5l78 133q-261 9 -486 154l72 100
q97 -63 204.5 -101t252.5 -38q91 0 164 17.5t131 54t90 100t32 150.5q0 153 -100.5 229t-278.5 76h-227l21 102h225q193 0 315.5 81t122.5 224q0 116 -85 174t-226 58q-209 0 -432 -88l-47 102q127 47 239.5 73.5t245.5 26.5q203 0 315.5 -88t112.5 -246q0 -318 -405 -362
v-2z" />
    <glyph glyph-name="uni0499" unicode="&#x499;" horiz-adv-x="940" 
d="M594 500q225 -15 225 -219q0 -141 -105 -225t-315 -87l-37 -61q28 -7 47 -14.5t40 -21.5t32 -35t11 -50q-1 -50 -45 -92.5t-83 -62t-135 -58.5q-12 -5 -18 -8l-18 45q108 50 153 81.5t45 69.5q0 28 -30 43.5t-97 30.5l78 133q-217 10 -383 97l51 92q86 -41 173.5 -64.5
t205.5 -23.5q322 0 322 215q0 91 -56 128.5t-176 37.5h-205l19 96h205q256 0 256 176q0 81 -59.5 117.5t-180.5 36.5q-177 0 -350 -56l-31 101q197 55 381 55q352 0 352 -234q0 -102 -70 -165.5t-202 -73.5v-4z" />
    <glyph glyph-name="uni049A" unicode="&#x49a;" horiz-adv-x="1284" 
d="M467 770l594 -704h98l-69 -361h-109l57 295h-82l-624 764l-150 -764h-114l278 1434h115l-125 -641l754 641h176z" />
    <glyph glyph-name="uni049B" unicode="&#x49b;" horiz-adv-x="909" 
d="M356 504l379 -445h86l-63 -325h-99l52 266h-66l-407 489l-95 -489h-104l184 946h103l-80 -420l499 420h164z" />
    <glyph glyph-name="uni049C" unicode="&#x49c;" horiz-adv-x="1314" 
d="M1380 1434l-704 -664l536 -770h-151l-490 729h-77l-60 -311h-72l60 311h-98l-142 -729h-114l278 1434h115l-117 -600h98l64 321h69l-61 -321h82l614 600h170z" />
    <glyph glyph-name="uni049D" unicode="&#x49d;" horiz-adv-x="952" 
d="M979 946l-459 -442l322 -504h-123l-289 465h-59l-52 -264h-57l51 264h-77l-91 -465h-106l184 946h107l-76 -391h78l49 258h57l-49 -258h47l389 391h154z" />
    <glyph glyph-name="uni049E" unicode="&#x49e;" horiz-adv-x="1349" 
d="M1399 1434l-799 -664l647 -770h-157l-625 764l-150 -764h-116l223 1155h-260l16 84h262l37 195h117l-37 -195h258l-18 -84h-258l-70 -362l752 641h178z" />
    <glyph glyph-name="uni049F" unicode="&#x49f;" horiz-adv-x="921" 
d="M934 946l-551 -442l428 -504h-143l-408 489l-94 -489h-107l230 1180h-152l17 75h149l35 179h106l-34 -179h335l-14 -75h-336l-127 -654l500 420h166z" />
    <glyph glyph-name="uni04A0" unicode="&#x4a0;" horiz-adv-x="1511" 
d="M1561 1434l-799 -664l647 -770h-158l-624 764l-150 -764h-115l259 1327h-426l20 107h541l-2 -9l-123 -632l753 641h177z" />
    <glyph glyph-name="uni04A1" unicode="&#x4a1;" horiz-adv-x="1142" 
d="M1157 946l-553 -442l428 -504h-139l-408 489l-94 -489h-104l166 848h-369l18 98h416h55l-81 -420l501 420h164z" />
    <glyph glyph-name="uni04A2" unicode="&#x4a2;" horiz-adv-x="1351" 
d="M1415 1434l-266 -1368h78l-70 -361h-108l57 295h-84l137 713h-837l-140 -713h-114l278 1434h115l-119 -615h838l120 615h115z" />
    <glyph glyph-name="uni04A3" unicode="&#x4a3;" horiz-adv-x="1069" 
d="M1042 946l-172 -887h74l-63 -325h-99l52 266h-82l90 461h-606l-91 -461h-106l184 946h107l-76 -393h606l76 393h106z" />
    <glyph glyph-name="uni04A4" unicode="&#x4a4;" horiz-adv-x="1851" 
d="M2011 1434l-20 -105h-596l-258 -1329h-115l137 713h-837l-140 -713h-114l278 1434h115l-119 -615h838l120 615h711z" />
    <glyph glyph-name="uni04A5" unicode="&#x4a5;" horiz-adv-x="1413" 
d="M1493 946l-16 -98h-453l-166 -848h-106l90 461h-606l-91 -461h-106l184 946h107l-76 -393h606l76 393h106h451z" />
    <glyph glyph-name="uni04A6" unicode="&#x4a6;" horiz-adv-x="2156" 
d="M1761 825q180 0 270.5 -50t90.5 -181q0 -32 -11 -92l-28 -148q-33 -177 -135 -265.5t-297 -88.5h-166l20 106h152q146 0 215 61.5t98 201.5l23 120q10 67 10 76q0 47 -18 77.5t-55 47t-83.5 23t-113.5 6.5q-189 0 -445 -27l-135 -692h-117l258 1327h-852l-258 -1327h-116
l278 1434h1086l-123 -635q254 26 452 26z" />
    <glyph glyph-name="uni04A7" unicode="&#x4a7;" horiz-adv-x="1669" 
d="M1317 553q278 0 278 -217q0 -52 -12 -117l-61 -303q-32 -165 -120.5 -245.5t-238.5 -80.5h-125l19 101h106q100 0 165 51t91 178l58 281q12 70 12 108q0 81 -50.5 114.5t-148.5 33.5q-142 0 -332 -31l-84 -426h-106l166 850h-623l-166 -850h-106l184 946h107h702h27
l-82 -422q208 29 340 29z" />
    <glyph glyph-name="uni04A8" unicode="&#x4a8;" horiz-adv-x="1603" 
d="M1225 70q102 0 215 61l30 -94q-142 -68 -268 -68q-130 0 -215 51q-102 -51 -252 -51q-97 0 -182.5 22t-160 71.5t-128 123.5t-84 182.5t-30.5 243.5q0 107 19.5 209t58 198.5t103 176.5t148 140.5t199 94t250.5 33.5q166 0 301 -53l-51 -102q-124 43 -256 43
q-136 0 -247.5 -44t-185 -117t-123.5 -171t-72 -201t-22 -211q0 -268 128 -401t345 -133q71 0 146 16q-80 75 -123 200t-43 265q0 87 17 169t53 155.5t88 128.5t127.5 87.5t165.5 32.5q160 0 244.5 -98t84.5 -274q0 -89 -21.5 -181.5t-65.5 -185t-119.5 -174t-174.5 -133.5
q46 -12 101 -12zM842 555q0 -139 46 -248.5t130 -171.5q168 79 268 243.5t100 358.5q0 144 -57.5 211.5t-159.5 67.5q-150 0 -238.5 -131t-88.5 -330z" />
    <glyph glyph-name="uni04A9" unicode="&#x4a9;" horiz-adv-x="1144" 
d="M1010 98l28 -78q-117 -51 -219 -51t-166 37q-58 -37 -170 -37q-192 0 -299.5 112.5t-107.5 313.5q0 263 158 422.5t417 159.5q134 0 244 -43l-47 -94q-81 37 -193 37q-213 0 -342 -132.5t-129 -349.5q0 -162 82.5 -249t235.5 -87q19 0 55 4q-106 89 -106 261
q0 163 90 265.5t233 102.5q121 0 187.5 -66t66.5 -186q0 -122 -64 -221.5t-182 -161.5q28 -4 47 -4q83 0 181 45zM551 322q0 -165 121 -232q116 43 186 136t70 208q0 82 -40.5 125t-115.5 43q-98 0 -159.5 -78t-61.5 -202z" />
    <glyph glyph-name="uni04AA" unicode="&#x4aa;" horiz-adv-x="1441" 
d="M973 1350q-209 0 -376 -98t-258 -262t-91 -361q0 -256 145.5 -400.5t405.5 -144.5q126 0 229 36t209 105l63 -96q-119 -81 -242 -120.5t-270 -39.5l-36 -61q27 -7 46.5 -15t40 -21.5t31.5 -34.5t11 -50q-1 -50 -45 -92.5t-83 -62t-135 -58.5q-12 -5 -18 -8l-18 45
q108 50 153 81.5t45 69.5q0 28 -30 43.5t-97 30.5l78 135q-284 15 -444 190.5t-160 463.5q0 178 63 333t174 266.5t271.5 175.5t347.5 64q281 0 496 -164l-72 -94q-196 144 -434 144z" />
    <glyph glyph-name="uni04AB" unicode="&#x4ab;" horiz-adv-x="1013" 
d="M631 874q-189 0 -312.5 -124t-123.5 -310q0 -166 104 -267t266 -101q132 0 275 86l51 -92q-160 -97 -326 -97l-37 -61q27 -7 46.5 -15t40 -21.5t31.5 -34.5t11 -50q0 -26 -9.5 -48.5t-30.5 -42.5t-40 -34.5t-56 -32.5t-59.5 -27.5l-67.5 -28.5q-11 -5 -17 -7l-19 45
q109 50 154 81.5t45 69.5q0 28 -30 43.5t-97 30.5l78 135q-195 17 -310.5 143.5t-115.5 323.5q0 234 155 386.5t398 152.5q204 0 364 -125l-63 -86q-144 108 -305 108z" />
    <glyph glyph-name="uni04AC" unicode="&#x4ac;" horiz-adv-x="1064" 
d="M1202 1327h-446l-246 -1261h78l-70 -361h-108l57 295h-84l258 1327h-446l20 107h1008z" />
    <glyph glyph-name="uni04AD" unicode="&#x4ad;" horiz-adv-x="911" 
d="M973 850h-389l-156 -791h72l-64 -325h-98l51 266h-78l166 850h-393l18 96h889z" />
    <glyph glyph-name="uni04AE" unicode="&#x4ae;" horiz-adv-x="1069" 
d="M1245 1434l-637 -881l-108 -553h-117l109 555l-295 879h129l235 -764h4l535 764h145z" />
    <glyph glyph-name="uni04AF" unicode="&#x4af;" horiz-adv-x="931" 
d="M999 946l-571 -940l-80 -416h-106l80 416l-203 940h110l164 -819l475 819h131z" />
    <glyph glyph-name="uni04B0" unicode="&#x4b0;" horiz-adv-x="1079" 
d="M1249 1434l-620 -859h358l-18 -96h-371l-92 -479h-117l94 479h-354l18 96h342l-286 859h129l233 -764h4l537 764h143z" />
    <glyph glyph-name="uni04B1" unicode="&#x4b1;" horiz-adv-x="931" 
d="M999 946l-557 -917h248l-18 -90h-256l-68 -349h-106l67 349h-258l17 90h249l-198 917h110l164 -819l475 819h131z" />
    <glyph glyph-name="uni04B2" unicode="&#x4b2;" horiz-adv-x="1273" 
d="M741 748l322 -682h86l-70 -361h-108l57 295h-61l-312 655l-561 -655h-149l655 762l-317 672h127l274 -578l498 578h147z" />
    <glyph glyph-name="uni04B3" unicode="&#x4b3;" horiz-adv-x="1001" 
d="M541 492l247 -433h86l-63 -325h-96l51 266h-57l-240 418l-401 -418h-134l484 504l-254 442h117l208 -366l351 366h135z" />
    <glyph glyph-name="uni04B4" unicode="&#x4b4;" horiz-adv-x="1718" 
d="M1710 1434l-258 -1328h117l-76 -393h-109l56 287h-1032l258 1327h-471l20 107h588h373l-21 -107h-373l-237 -1221h790l258 1328h117z" />
    <glyph glyph-name="uni04B5" unicode="&#x4b5;" horiz-adv-x="1316" 
d="M1266 946l-166 -850h98l-72 -362h-96l51 266h-698h-107l166 848h-358l18 98h465h281l-17 -98h-282l-148 -752h592l166 850h107z" />
    <glyph glyph-name="uni04B6" unicode="&#x4b6;" horiz-adv-x="1120" 
d="M1176 1434l-267 -1368h86l-69 -361h-109l57 295h-94l123 629h-461q-160 0 -234.5 55t-74.5 176q0 48 12 113l91 461h116l-96 -492q-6 -35 -6 -63q0 -75 50 -109.5t153 -34.5h471l135 699h117z" />
    <glyph glyph-name="uni04B7" unicode="&#x4b7;" horiz-adv-x="866" 
d="M834 946l-175 -887h80l-63 -325h-98l51 266h-84l78 399h-342q-111 0 -167.5 41.5t-56.5 137.5q0 28 11 92l53 276h104l-55 -270q-8 -39 -8 -72q0 -61 34.5 -84.5t106.5 -23.5h338l88 450h105z" />
    <glyph glyph-name="uni04B8" unicode="&#x4b8;" horiz-adv-x="1146" 
d="M1059 1434h117l-279 -1434h-117l123 629h-291l-57 -299h-72l58 299h-99q-160 0 -234.5 55t-74.5 176q0 48 12 113l91 461h116l-96 -492q-6 -35 -6 -63q0 -75 50 -109.5t153 -34.5h108l66 332h69l-63 -332h291z" />
    <glyph glyph-name="uni04B9" unicode="&#x4b9;" horiz-adv-x="872" 
d="M729 946h105l-185 -946h-104l78 399h-209l-39 -198h-58l37 198h-73q-111 0 -167.5 41.5t-56.5 137.5q0 28 11 92l53 276h104l-55 -270q-8 -39 -8 -72q0 -61 34.5 -84.5t106.5 -23.5h70l45 225h57l-43 -225h209z" />
    <glyph glyph-name="uni04BA" unicode="&#x4ba;" horiz-adv-x="1146" 
d="M801 805q159 0 233 -55.5t74 -176.5q0 -47 -12 -112l-90 -461h-115l94 492q6 35 6 63q0 77 -49 110t-154 33h-471l-135 -698h-114l278 1434h115l-123 -629h463z" />
    <glyph glyph-name="uni04BB" unicode="&#x4bb;" horiz-adv-x="1120" 
d="M57 0l279 1434h106l-137 -703h4q66 122 159.5 184t225.5 62q148 0 233 -80.5t85 -241.5q0 -53 -11 -112l-102 -543h-106l102 545q10 58 10 90q0 118 -61.5 178.5t-175.5 60.5q-71 0 -134.5 -24.5t-120.5 -75.5t-100.5 -141t-66.5 -211l-82 -422h-107z" />
    <glyph glyph-name="uni04BC" unicode="&#x4bc;" horiz-adv-x="1896" 
d="M1237 1464q298 0 473.5 -155.5t175.5 -417.5q0 -68 -31 -223h-118h-1248v-41q0 -253 156 -398t406 -145q169 0 318.5 67t260.5 183l78 -90q-275 -275 -657 -275q-150 0 -276 45t-216.5 128t-141 207t-50.5 276q0 29 2 43h-41q-103 0 -162.5 49t-59.5 141q0 78 50 180h110
q-47 -107 -47 -155q0 -107 125 -107h37q25 146 98.5 272t183 218t258 145t316.5 53zM504 776h1253q8 55 8 103q0 216 -141 343.5t-389 127.5q-282 0 -480 -162.5t-251 -411.5z" />
    <glyph glyph-name="uni04BD" unicode="&#x4bd;" horiz-adv-x="1286" 
d="M1204 465h-850q-4 -40 -4 -59q0 -163 87.5 -248.5t248.5 -85.5q122 0 210.5 46.5t174.5 133.5l72 -80q-47 -44 -85.5 -74t-96 -63.5t-128 -50.5t-151.5 -17q-207 0 -322.5 113.5t-115.5 318.5q0 44 2 64h-47q-160 0 -160 137q0 33 8 64h84q-6 -42 -6 -43q0 -36 18.5 -54
t61.5 -18h55q45 192 192.5 310t356.5 118q198 0 305 -106t107 -273q0 -50 -17 -133zM801 879q-160 0 -274.5 -91t-155.5 -237h737q4 32 4 49q0 127 -81 203t-230 76z" />
    <glyph glyph-name="uni04BE" unicode="&#x4be;" horiz-adv-x="1896" 
d="M1237 1464q298 0 473.5 -155.5t175.5 -417.5q0 -68 -31 -223h-118h-1248v-41q0 -253 156 -398t406 -145q169 0 318.5 67t260.5 183l78 -90q-171 -167 -373 -232q-107 -78 -157 -136t-50 -112q0 -67 97 -67q46 0 100 14l4 -80q-67 -18 -121 -18q-75 0 -125.5 33t-50.5 98
q0 112 154 236q-79 -11 -135 -11q-150 0 -276 45t-216.5 128t-141 207t-50.5 276q0 29 2 43h-41q-103 0 -162.5 49t-59.5 141q0 78 50 180h110q-47 -107 -47 -155q0 -107 125 -107h37q25 146 98.5 272t183 218t258 145t316.5 53zM504 776h1253q8 55 8 103q0 216 -141 343.5
t-389 127.5q-282 0 -480 -162.5t-251 -411.5z" />
    <glyph glyph-name="uni04BF" unicode="&#x4bf;" horiz-adv-x="1286" 
d="M1204 465h-850q-4 -40 -4 -59q0 -163 87.5 -248.5t248.5 -85.5q122 0 210.5 46.5t174.5 133.5l72 -80q-126 -118 -232 -162q-102 -75 -150 -132t-48 -109q0 -68 96 -68q48 0 102 14l2 -80q-67 -18 -120 -18q-75 0 -126 33t-51 98q0 108 142 223q-50 -4 -76 -4
q-207 0 -322.5 113.5t-115.5 318.5q0 44 2 64h-47q-160 0 -160 137q0 33 8 64h84q-6 -42 -6 -43q0 -36 18.5 -54t61.5 -18h55q45 192 192.5 310t356.5 118q198 0 305 -106t107 -273q0 -50 -17 -133zM801 879q-160 0 -274.5 -91t-155.5 -237h737q4 32 4 49q0 127 -81 203
t-230 76z" />
    <glyph glyph-name="uni04C0" unicode="&#x4c0;" horiz-adv-x="436" 
d="M68 0l278 1434h117l-279 -1434h-116z" />
    <glyph glyph-name="uni04C1" unicode="&#x4c1;" horiz-adv-x="1746" 
d="M1075 1497q-114 0 -180 53.5t-66 149.5q0 15 9 67h82q-7 -31 -7 -51q0 -139 164 -139q187 0 228 190h86q-25 -132 -105.5 -201t-210.5 -69zM1839 1434l-731 -689l537 -745h-150l-512 739l-143 -739h-111l143 739l-788 -739h-166l838 774l-463 660h145l441 -660l129 660
h110l-129 -662l686 662h164z" />
    <glyph glyph-name="uni04C2" unicode="&#x4c2;" horiz-adv-x="1337" 
d="M772 1020q-109 0 -174.5 57t-65.5 158q0 30 7 74h82q-7 -28 -7 -52q0 -74 42 -114.5t118 -40.5q187 0 234 207h88q-25 -136 -109 -212.5t-215 -76.5zM1366 946l-524 -444l385 -502h-140l-362 492l-96 -492h-105l97 494l-535 -494h-160l584 518l-354 428h143l328 -424
l82 424h104l-82 -422l475 422h160z" />
    <glyph glyph-name="uni04C3" unicode="&#x4c3;" horiz-adv-x="1173" 
d="M791 774q168 0 251.5 -53.5t83.5 -194.5q0 -37 -10 -102l-88 -436q-37 -195 -140.5 -296.5t-289.5 -101.5h-135l20 107h111q140 0 215 72.5t104 220.5l86 426q11 53 11 73q0 103 -62 141t-184 38q-160 0 -457 -27l-125 -641h-114l278 1434h115l-133 -689l770 689h174
l-787 -676q212 16 306 16z" />
    <glyph glyph-name="uni04C4" unicode="&#x4c4;" horiz-adv-x="909" 
d="M530 508q293 0 293 -240q0 -40 -12 -102l-47 -250q-32 -167 -120 -246.5t-238 -79.5h-127l18 101h104q106 0 170 52t88 177l48 240q10 55 10 88q0 93 -54 128.5t-161 35.5q-116 0 -283 -21l-78 -391h-102l184 946h103l-88 -452l526 452h151l-557 -454q114 16 172 16z" />
    <glyph glyph-name="uni04C5" unicode="&#x4c5;" horiz-adv-x="1497" 
d="M1524 1434l-258 -1330h92l-225 -370h-101l158 266h-62l261 1325h-791l-195 -1012q-32 -169 -115.5 -246t-238.5 -77h-104l22 110h86q96 0 154.5 54t81.5 172l215 1108h114h906z" />
    <glyph glyph-name="uni04C6" unicode="&#x4c6;" horiz-adv-x="1112" 
d="M1053 946l-164 -842h90l-223 -370h-103l158 266h-49l166 850h-547l-127 -653q-19 -97 -83.5 -149t-162.5 -52h-82l19 100h75q108 0 134 137l139 713h106h654z" />
    <glyph glyph-name="uni04C7" unicode="&#x4c7;" horiz-adv-x="1417" 
d="M1327 1434h119l-309 -1586q-26 -132 -97.5 -195t-189.5 -63h-127l20 111h123q124 0 154 149l168 865h-866l-138 -715h-116l278 1434h117l-121 -613h866z" />
    <glyph glyph-name="uni04C8" unicode="&#x4c8;" horiz-adv-x="1081" 
d="M936 946h106l-184 -946l-31 -164q-47 -248 -297 -248h-71l18 97h58q79 0 124.5 38.5t63.5 129.5l29 147l90 461h-606l-91 -461h-106l184 946h107l-76 -393h606z" />
    <glyph glyph-name="uni04C9" unicode="&#x4c9;" horiz-adv-x="1388" 
d="M1415 1434l-258 -1330h92l-225 -370h-100l157 266h-59l137 713h-837l-140 -713h-114l278 1434h115l-119 -615h838l120 615h115z" />
    <glyph glyph-name="uni04CA" unicode="&#x4ca;" horiz-adv-x="1110" 
d="M1042 946l-163 -842h100l-225 -370h-101l156 266h-57l90 461h-606l-91 -461h-106l184 946h107l-76 -393h606l76 393h106z" />
    <glyph glyph-name="uni04CB" unicode="&#x4cb;" horiz-adv-x="1146" 
d="M1176 1434l-279 -1434h-84l-55 -287h-111l72 361h76l108 555h-461q-160 0 -234.5 55t-74.5 176q0 48 12 113l91 461h116l-96 -492q-6 -35 -6 -63q0 -75 50 -109.5t153 -34.5h471l135 699h117z" />
    <glyph glyph-name="uni04CC" unicode="&#x4cc;" horiz-adv-x="872" 
d="M834 946l-185 -946h-86l-51 -266h-98l63 325h80l66 340h-342q-111 0 -167.5 41.5t-56.5 137.5q0 28 11 92l53 276h104l-55 -270q-8 -39 -8 -72q0 -61 34.5 -84.5t106.5 -23.5h338l88 450h105z" />
    <glyph glyph-name="uni04CD" unicode="&#x4cd;" horiz-adv-x="1779" 
d="M1612 104h90l-225 -370h-101l156 266h-33l-61 1212h-4l-557 -974h-103l-190 974h-4l-512 -1212h-134l617 1434h108l189 -1024h4l575 1024h111z" />
    <glyph glyph-name="uni04CE" unicode="&#x4ce;" horiz-adv-x="1363" 
d="M1186 104h100l-225 -370h-100l157 266h-28l-62 770h-4l-367 -604h-92l-135 606h-4l-360 -772h-119l448 946h101l135 -629h4l377 629h102z" />
    <glyph glyph-name="uni04CF" unicode="&#x4cf;" horiz-adv-x="372" 
d="M41 0l184 946h107l-185 -946h-106z" />
    <glyph glyph-name="uni04D0" unicode="&#x4d0;" horiz-adv-x="1325" 
d="M846 1497q-114 0 -180 53.5t-66 149.5q0 21 8 67h82q-6 -27 -6 -51q0 -139 164 -139q186 0 227 190h86q-25 -132 -105 -201t-210 -69zM1092 0l-84 403h-705l-233 -403h-136l840 1434h123l309 -1434h-114zM362 510h623l-166 793z" />
    <glyph glyph-name="uni04D1" unicode="&#x4d1;" horiz-adv-x="1200" 
d="M999 1309q-25 -137 -108.5 -213t-214.5 -76q-109 0 -174.5 57t-65.5 158q0 37 6 74h82q-6 -24 -6 -52q0 -74 42 -114.5t118 -40.5q186 0 233 207h88zM504 -31q-192 0 -309 123.5t-117 325.5q0 156 69.5 284.5t191.5 201.5t271 73q145 0 251 -67.5t147 -188.5h4l43 225
h106l-184 -946h-107l35 172h-4q-150 -203 -397 -203zM539 72q189 0 314.5 130.5t125.5 325.5q0 158 -97.5 252t-263.5 94q-181 0 -304.5 -132t-123.5 -326q0 -158 94.5 -251t254.5 -93z" />
    <glyph glyph-name="uni04D2" unicode="&#x4d2;" horiz-adv-x="1325" 
d="M762 1720l-39 -198h-133l39 198h133zM1147 1720l-41 -198h-131l39 198h133zM1092 0l-84 403h-705l-233 -403h-136l840 1434h123l309 -1434h-114zM362 510h623l-166 793z" />
    <glyph glyph-name="uni04D3" unicode="&#x4d3;" horiz-adv-x="1200" 
d="M639 1294l-43 -229h-125l43 229h125zM946 1294l-43 -229h-125l43 229h125zM504 -31q-192 0 -309 123.5t-117 325.5q0 156 69.5 284.5t191.5 201.5t271 73q145 0 251 -67.5t147 -188.5h4l43 225h106l-184 -946h-107l35 172h-4q-150 -203 -397 -203zM539 72
q189 0 314.5 130.5t125.5 325.5q0 158 -97.5 252t-263.5 94q-181 0 -304.5 -132t-123.5 -326q0 -158 94.5 -251t254.5 -93z" />
    <glyph glyph-name="uni04D4" unicode="&#x4d4;" horiz-adv-x="1894" 
d="M1958 1327h-604l-90 -471h548l-20 -106h-549l-125 -644h613l-21 -106h-686h-43l80 403h-623l-352 -403h-152l1264 1434h176h604zM530 510h551l156 807z" />
    <glyph glyph-name="uni04D5" unicode="&#x4d5;" horiz-adv-x="1835" 
d="M389 -31q-166 0 -267.5 86t-101.5 232q0 158 120.5 263t310.5 105q127 0 216.5 -47t133.5 -137h2q33 129 33 203q0 106 -60.5 154.5t-183.5 48.5q-146 0 -338 -46l-23 101q208 45 363 45q161 0 244.5 -60.5t87.5 -187.5h4q63 118 177.5 183t256.5 65q201 0 302 -106.5
t101 -276.5q0 -45 -16 -133h-827q-6 -40 -6 -80q0 -137 82.5 -223t234.5 -86q125 0 213 48t170 132l72 -78q-43 -42 -78 -70t-92.5 -63t-130 -53.5t-156.5 -18.5q-161 0 -267 78t-130 207h-5q-60 -139 -174.5 -212t-267.5 -73zM944 549h709q2 16 2 51q0 127 -75 202t-226 75
q-146 0 -256 -84t-154 -244zM406 68q152 0 250 83.5t98 192.5q0 99 -81.5 157t-203.5 58q-145 0 -241.5 -77.5t-96.5 -194.5q0 -98 74.5 -158.5t200.5 -60.5z" />
    <glyph glyph-name="uni04D6" unicode="&#x4d6;" horiz-adv-x="1050" 
d="M766 1497q-114 0 -180 53.5t-66 149.5q0 21 8 67h82q-6 -27 -6 -51q0 -139 164 -139q186 0 227 190h86q-25 -132 -105 -201t-210 -69zM1116 1327h-674l-92 -471h621l-21 -106h-622l-125 -644h684l-21 -106h-798l278 1434h791z" />
    <glyph glyph-name="uni04D7" unicode="&#x4d7;" horiz-adv-x="1118" 
d="M672 1020q-109 0 -174.5 57t-65.5 158q0 37 6 74h82q-6 -24 -6 -52q0 -74 42 -114.5t118 -40.5q186 0 233 207h88q-25 -137 -108.5 -213t-214.5 -76zM1036 465h-848q-4 -40 -4 -59q0 -163 86.5 -248.5t247.5 -85.5q122 0 212 46.5t173 133.5l72 -80q-45 -44 -84 -74
t-96 -63t-127.5 -50.5t-151.5 -17.5q-208 0 -324 113.5t-116 318.5q0 163 70.5 294.5t200 207.5t294.5 76q199 0 306.5 -106t107.5 -273q0 -40 -19 -133zM635 879q-160 0 -274.5 -91t-155.5 -237h735q6 24 6 49q0 127 -81.5 203t-229.5 76z" />
    <glyph glyph-name="uni04D8" unicode="&#x4d8;" horiz-adv-x="1656" 
d="M961 1464q310 0 487.5 -171t177.5 -472q0 -174 -62 -329.5t-172.5 -271t-274 -183.5t-355.5 -68q-299 0 -476 157t-177 423q0 83 28 217h119h1247q2 16 2 53q0 250 -143.5 390.5t-394.5 140.5q-173 0 -326 -64t-270 -172l-72 96q131 119 300.5 186.5t361.5 67.5zM762 84
q144 0 269.5 44.5t216.5 122.5t153 182t88 224h-1251q-9 -62 -9 -102q0 -216 142.5 -343.5t390.5 -127.5z" />
    <glyph glyph-name="uni04D9" unicode="&#x4d9;" horiz-adv-x="1118" 
d="M602 979q208 0 324 -113.5t116 -318.5q0 -163 -70.5 -294.5t-200 -207.5t-294.5 -76q-199 0 -306.5 106t-107.5 273q0 40 19 133h848q4 40 4 60q0 163 -86.5 248t-247.5 85q-122 0 -210.5 -46.5t-174.5 -133.5l-72 80q45 44 84 74t96 63t127.5 50.5t151.5 17.5zM483 68
q161 0 275 90.5t155 236.5h-735q-6 -24 -6 -49q0 -127 81.5 -202.5t229.5 -75.5z" />
    <glyph glyph-name="uni04DA" unicode="&#x4da;" horiz-adv-x="1656" 
d="M903 1720l-39 -198h-133l39 198h133zM1288 1720l-41 -198h-131l39 198h133zM961 1464q310 0 487.5 -171t177.5 -472q0 -174 -62 -329.5t-172.5 -271t-274 -183.5t-355.5 -68q-299 0 -476 157t-177 423q0 83 28 217h119h1247q2 16 2 53q0 250 -143.5 390.5t-394.5 140.5
q-173 0 -326 -64t-270 -172l-72 96q131 119 300.5 186.5t361.5 67.5zM762 84q144 0 269.5 44.5t216.5 122.5t153 182t88 224h-1251q-9 -62 -9 -102q0 -216 142.5 -343.5t390.5 -127.5z" />
    <glyph glyph-name="uni04DB" unicode="&#x4db;" horiz-adv-x="1118" 
d="M612 1294l-43 -229h-125l43 229h125zM920 1294l-43 -229h-125l43 229h125zM602 979q208 0 324 -113.5t116 -318.5q0 -163 -70.5 -294.5t-200 -207.5t-294.5 -76q-199 0 -306.5 106t-107.5 273q0 40 19 133h848q4 40 4 60q0 163 -86.5 248t-247.5 85q-122 0 -210.5 -46.5
t-174.5 -133.5l-72 80q45 44 84 74t96 63t127.5 50.5t151.5 17.5zM483 68q161 0 275 90.5t155 236.5h-735q-6 -24 -6 -49q0 -127 81.5 -202.5t229.5 -75.5z" />
    <glyph glyph-name="uni04DC" unicode="&#x4dc;" horiz-adv-x="1746" 
d="M991 1720l-39 -198h-133l39 198h133zM1376 1720l-41 -198h-131l39 198h133zM1839 1434l-731 -689l537 -745h-150l-512 739l-143 -739h-111l143 739l-788 -739h-166l838 774l-463 660h145l441 -660l129 660h110l-129 -662l686 662h164z" />
    <glyph glyph-name="uni04DD" unicode="&#x4dd;" horiz-adv-x="1337" 
d="M735 1294l-43 -229h-125l43 229h125zM1042 1294l-43 -229h-125l44 229h124zM1366 946l-524 -444l385 -502h-140l-362 492l-96 -492h-105l97 494l-535 -494h-160l584 518l-354 428h143l328 -424l82 424h104l-82 -422l475 422h160z" />
    <glyph glyph-name="uni04DE" unicode="&#x4de;" horiz-adv-x="1191" 
d="M516 1522l39 198h133l-39 -198h-133zM901 1522l39 198h133l-41 -198h-131zM537 -31q-292 0 -531 154l72 100q97 -63 204.5 -101t252.5 -38q91 0 164 17.5t131 54t90 100t32 150.5q0 153 -100.5 229t-278.5 76h-227l21 102h225q193 0 315.5 81t122.5 224q0 116 -85 174
t-226 58q-209 0 -432 -88l-47 102q127 47 239.5 73.5t245.5 26.5q203 0 315.5 -88t112.5 -246q0 -318 -405 -362v-2q323 -38 323 -360q0 -201 -136.5 -319t-397.5 -118z" />
    <glyph glyph-name="uni04DF" unicode="&#x4df;" horiz-adv-x="940" 
d="M508 1294l-43 -229h-125l43 229h125zM815 1294l-43 -229h-125l43 229h125zM387 -31q-245 0 -428 97l51 92q86 -41 173.5 -64.5t205.5 -23.5q322 0 322 215q0 91 -56 128.5t-176 37.5h-205l19 96h205q256 0 256 176q0 81 -59.5 117.5t-180.5 36.5q-177 0 -350 -56l-31 101
q197 55 381 55q352 0 352 -234q0 -102 -70 -165.5t-202 -73.5v-4q225 -15 225 -219q0 -144 -108 -228t-324 -84z" />
    <glyph glyph-name="uni04E0" unicode="&#x4e0;" horiz-adv-x="1148" 
d="M455 -31q-285 0 -490 140l76 106q92 -62 189 -96.5t227 -34.5q210 0 335.5 95.5t125.5 277.5q0 154 -98.5 217t-309.5 63h-158l21 103l616 487h-686l23 107h860l-21 -105l-647 -498q2 0 38.5 3.5t57.5 3.5q197 0 310.5 -94t113.5 -285q0 -103 -35 -190.5t-104.5 -155.5
t-183 -106t-260.5 -38z" />
    <glyph glyph-name="uni04E1" unicode="&#x4e1;" horiz-adv-x="880" 
d="M227 -440q-249 0 -450 116l57 95q201 -111 391 -111q198 0 313 96t115 275q0 140 -79.5 203t-231.5 63h-246l19 96l592 453h-619l21 100h765l-20 -104l-610 -457q13 1 36.5 2.5t43 2.5t36.5 1q193 0 300.5 -89.5t107.5 -268.5q0 -77 -19 -145.5t-61 -129t-104 -104
t-153.5 -69t-203.5 -25.5z" />
    <glyph glyph-name="uni04E2" unicode="&#x4e2;" horiz-adv-x="1417" 
d="M1198 1669l-16 -84h-566l19 84h563zM68 0l278 1434h115l-242 -1239h4l1096 1239h125l-279 -1434h-114l243 1239h-4l-1097 -1239h-125z" />
    <glyph glyph-name="uni04E3" unicode="&#x4e3;" horiz-adv-x="1089" 
d="M948 1188l-18 -88h-563l16 88h565zM39 0l184 946h107l-156 -790h4l754 790h121l-185 -946h-108l155 791h-4l-751 -791h-121z" />
    <glyph glyph-name="uni04E4" unicode="&#x4e4;" horiz-adv-x="1417" 
d="M645 1522l39 198h133l-39 -198h-133zM1030 1522l39 198h133l-41 -198h-131zM68 0l278 1434h115l-242 -1239h4l1096 1239h125l-279 -1434h-114l243 1239h-4l-1097 -1239h-125z" />
    <glyph glyph-name="uni04E5" unicode="&#x4e5;" horiz-adv-x="1089" 
d="M592 1294l-43 -229h-125l43 229h125zM899 1294l-43 -229h-125l43 229h125zM39 0l184 946h107l-156 -790h4l754 790h121l-185 -946h-108l155 791h-4l-751 -791h-121z" />
    <glyph glyph-name="uni04E6" unicode="&#x4e6;" horiz-adv-x="1710" 
d="M737 1522l39 198h133l-39 -198h-133zM1122 1522l39 198h133l-41 -198h-131zM842 -31q-320 0 -515.5 185t-195.5 495q0 168 60.5 317.5t168 259.5t264 174t339.5 64q210 0 370.5 -82.5t250 -237.5t89.5 -360q0 -168 -60.5 -317.5t-167.5 -259.5t-263.5 -174t-339.5 -64z
M842 84q159 0 293.5 57t225 154.5t141 226t50.5 271.5q0 171 -78.5 298.5t-211.5 193t-301 65.5q-158 0 -292.5 -57.5t-225 -154.5t-141 -225.5t-50.5 -271.5q0 -128 45.5 -234t125 -176t187 -108.5t232.5 -38.5z" />
    <glyph glyph-name="uni04E7" unicode="&#x4e7;" horiz-adv-x="1185" 
d="M641 1294l-43 -229h-125l43 229h125zM948 1294l-43 -229h-125l43 229h125zM541 -31q-210 0 -336.5 116.5t-126.5 326.5q0 155 71 283.5t202 205t294 76.5q210 0 336.5 -116t126.5 -326q0 -116 -42 -219.5t-115.5 -180t-180 -121.5t-229.5 -45zM551 74q128 0 231 64.5
t158 169.5t55 227q0 158 -96 247.5t-264 89.5q-128 0 -231 -64t-158.5 -169t-55.5 -227q0 -158 96.5 -248t264.5 -90z" />
    <glyph glyph-name="uni04E8" unicode="&#x4e8;" horiz-adv-x="1710" 
d="M963 1464q210 0 370.5 -82.5t250 -237.5t89.5 -360q0 -168 -60.5 -317.5t-167.5 -259.5t-263.5 -174t-339.5 -64q-320 0 -515.5 185t-195.5 495q0 168 60.5 317.5t168 259.5t264 174t339.5 64zM961 1350q-187 0 -339 -79t-243 -212t-117 -299h1288q2 12 2 33
q0 171 -78.5 298.5t-211.5 193t-301 65.5zM842 84q142 0 265 46t211.5 126t146.5 187.5t77 230.5h-1290v-33q0 -128 45.5 -234t125 -176t187 -108.5t232.5 -38.5z" />
    <glyph glyph-name="uni04E9" unicode="&#x4e9;" horiz-adv-x="1185" 
d="M645 977q210 0 336.5 -115t126.5 -327q0 -114 -41.5 -217.5t-114.5 -180.5t-180 -122.5t-231 -45.5q-210 0 -336.5 115.5t-126.5 327.5q0 153 70 281.5t201 206t296 77.5zM635 872q-170 0 -287 -103t-149 -257h798q0 3 1 11t1 12q0 158 -98.5 247.5t-265.5 89.5zM551 74
q170 0 287 103t149 257h-799q0 -3 -1 -10.5t-1 -11.5q0 -158 99 -248t266 -90z" />
    <glyph glyph-name="uni04EA" unicode="&#x4ea;" horiz-adv-x="1710" 
d="M909 1720l-39 -198h-133l39 198h133zM1294 1720l-41 -198h-131l39 198h133zM963 1464q210 0 370.5 -82.5t250 -237.5t89.5 -360q0 -168 -60.5 -317.5t-167.5 -259.5t-263.5 -174t-339.5 -64q-320 0 -515.5 185t-195.5 495q0 168 60.5 317.5t168 259.5t264 174t339.5 64z
M961 1350q-187 0 -339 -79t-243 -212t-117 -299h1288q2 12 2 33q0 171 -78.5 298.5t-211.5 193t-301 65.5zM842 84q142 0 265 46t211.5 126t146.5 187.5t77 230.5h-1290v-33q0 -128 45.5 -234t125 -176t187 -108.5t232.5 -38.5z" />
    <glyph glyph-name="uni04EB" unicode="&#x4eb;" horiz-adv-x="1185" 
d="M633 1294l-43 -229h-125l43 229h125zM940 1294l-43 -229h-125l43 229h125zM645 977q210 0 336.5 -115t126.5 -327q0 -114 -41.5 -217.5t-114.5 -180.5t-180 -122.5t-231 -45.5q-210 0 -336.5 115.5t-126.5 327.5q0 153 70 281.5t201 206t296 77.5zM635 872
q-170 0 -287 -103t-149 -257h798q0 3 1 11t1 12q0 158 -98.5 247.5t-265.5 89.5zM551 74q170 0 287 103t149 257h-799q0 -3 -1 -10.5t-1 -11.5q0 -158 99 -248t266 -90z" />
    <glyph glyph-name="uni04EC" unicode="&#x4ec;" horiz-adv-x="1437" 
d="M731 1720l-39 -198h-133l39 198h133zM1116 1720l-41 -198h-131l39 198h133zM758 1464q306 0 475.5 -172t169.5 -489q0 -184 -60.5 -338.5t-170.5 -264t-272 -170.5t-359 -61q-318 0 -529 164l82 100q94 -72 201.5 -110.5t253.5 -38.5q295 0 488 158t233 422h-717l20 106
h707v27q0 262 -139 407.5t-387 145.5q-243 0 -471 -127l-50 102q241 139 525 139z" />
    <glyph glyph-name="uni04ED" unicode="&#x4ed;" horiz-adv-x="983" 
d="M494 1294l-43 -229h-125l43 229h125zM801 1294l-43 -229h-125l43 229h125zM461 977q214 0 325 -117t111 -319q0 -121 -40 -225.5t-113 -181.5t-182 -121t-240 -44q-192 0 -345 97l60 88q131 -82 285 -82q179 0 298.5 100.5t153.5 255.5h-461l17 90h456v21
q0 154 -85.5 244.5t-241.5 90.5q-140 0 -289 -63l-39 96q161 70 330 70z" />
    <glyph glyph-name="uni04EE" unicode="&#x4ee;" horiz-adv-x="1222" 
d="M1137 1669l-17 -84h-565l18 84h564zM1262 1434h131l-965 -1434h-133l252 373l-344 1061h123l303 -938z" />
    <glyph glyph-name="uni04EF" unicode="&#x4ef;" horiz-adv-x="919" 
d="M879 1188l-19 -88h-563l16 88h566zM866 946h121l-864 -1356h-115l336 527l-225 829h114l181 -719z" />
    <glyph glyph-name="uni04F0" unicode="&#x4f0;" horiz-adv-x="1222" 
d="M756 1720l-39 -198h-133l39 198h133zM1141 1720l-41 -198h-131l39 198h133zM1262 1434h131l-965 -1434h-133l252 373l-344 1061h123l303 -938z" />
    <glyph glyph-name="uni04F1" unicode="&#x4f1;" horiz-adv-x="919" 
d="M522 1294l-43 -229h-125l43 229h125zM829 1294l-43 -229h-124l43 229h124zM866 946h121l-864 -1356h-115l336 527l-225 829h114l181 -719z" />
    <glyph glyph-name="uni04F2" unicode="&#x4f2;" horiz-adv-x="1222" 
d="M1063 1767l-301 -245h-88l276 245h113zM958 1522h-88l275 245h112zM1262 1434h131l-965 -1434h-133l252 373l-344 1061h123l303 -938z" />
    <glyph glyph-name="uni04F3" unicode="&#x4f3;" horiz-adv-x="919" 
d="M791 1346l-299 -316h-89l275 316h113zM692 1030h-90l275 316h112zM414 227l452 719h121l-864 -1356h-115l336 527l-225 829h114z" />
    <glyph glyph-name="uni04F4" unicode="&#x4f4;" horiz-adv-x="1146" 
d="M633 1720l-39 -198h-133l39 198h133zM1018 1720l-41 -198h-131l39 198h133zM1059 1434h117l-279 -1434h-117l123 629h-461q-160 0 -234.5 55t-74.5 176q0 48 12 113l91 461h116l-96 -492q-6 -35 -6 -63q0 -75 50 -109.5t153 -34.5h471z" />
    <glyph glyph-name="uni04F5" unicode="&#x4f5;" horiz-adv-x="872" 
d="M453 1294l-43 -229h-125l43 229h125zM760 1294l-43 -229h-125l43 229h125zM729 946h105l-185 -946h-104l78 399h-342q-111 0 -167.5 41.5t-56.5 137.5q0 28 11 92l53 276h104l-55 -270q-8 -39 -8 -72q0 -61 34.5 -84.5t106.5 -23.5h338z" />
    <glyph glyph-name="uni04F8" unicode="&#x4f8;" horiz-adv-x="1513" 
d="M854 1720l-39 -198h-133l39 198h133zM1239 1720l-41 -198h-131l39 198h133zM682 811q200 0 306 -93.5t106 -264.5q0 -209 -147.5 -331t-393.5 -122h-485l278 1434h115l-121 -623h342zM1423 1434h117l-278 -1434h-117zM549 106q206 0 314 94.5t108 248.5q0 124 -76 190
t-227 66h-349l-116 -599h346z" />
    <glyph glyph-name="uni04F9" unicode="&#x4f9;" horiz-adv-x="1251" 
d="M676 1294l-43 -229h-125l43 229h125zM983 1294l-43 -229h-125l43 229h125zM571 588q134 0 212.5 -62t78.5 -192q0 -150 -103.5 -242t-269.5 -92h-450l184 946h107l-70 -358h311zM1106 946h106l-184 -946h-106zM496 96q117 0 185.5 67.5t68.5 166.5q0 80 -50 121t-147 41
h-311l-78 -396h332z" />
    <glyph glyph-name="uni04FC" unicode="&#x4fc;" horiz-adv-x="1243" 
d="M733 750l260 -547q90 -188 90 -328q0 -139 -80 -212t-215 -73h-114l20 105h90q90 0 138.5 46.5t48.5 135.5q0 109 -97 311l-221 471l-563 -659h-145l653 766l-311 668h123l270 -580l494 580h145z" />
    <glyph glyph-name="uni04FD" unicode="&#x4fd;" horiz-adv-x="931" 
d="M442 -410l19 99h94q76 0 119 49t43 133q0 106 -90 266l-160 279l-399 -416h-134l482 506l-254 440h117l208 -364l353 364h133l-434 -452l186 -328q49 -83 73.5 -151t24.5 -142q0 -127 -69 -205t-193 -78h-119z" />
    <glyph glyph-name="uni0510" unicode="&#x510;" horiz-adv-x="1191" 
d="M770 1464q148 0 276.5 -41.5t223.5 -107.5l-70 -98q-191 133 -432 133q-173 0 -267.5 -74t-94.5 -197q0 -127 103 -196.5t288 -69.5h112l-20 -102h-115q-281 0 -425 -81.5t-144 -262.5q0 -283 356 -283q226 0 455 119l35 -111q-237 -123 -492 -123q-237 0 -356 104.5
t-119 282.5q0 82 26 149.5t69 113.5t102.5 79t123.5 49.5t136 22.5v2q-123 34 -188.5 114t-65.5 199q0 80 30 148.5t88.5 120t152 81t212.5 29.5z" />
    <glyph glyph-name="uni0511" unicode="&#x511;" horiz-adv-x="931" 
d="M399 -31q-178 0 -270 69.5t-92 192.5q0 119 82.5 193.5t236.5 77.5l2 6q-182 22 -182 197q0 131 96.5 201.5t274.5 70.5q182 0 385 -78l-51 -96q-166 74 -334 74q-123 0 -194.5 -44t-71.5 -135q0 -73 47 -112t131 -39h237l-16 -94h-234q-301 0 -301 -199q0 -184 261 -184
q178 0 370 98l31 -96q-194 -103 -408 -103z" />
    <glyph glyph-name="uni0512" unicode="&#x512;" horiz-adv-x="1515" 
d="M1542 1434l-309 -1586q-26 -137 -92.5 -197.5t-188.5 -60.5h-121l21 111h104q66 0 107 38.5t55 110.5l287 1475h-817l-203 -1042q-32 -159 -114 -226t-232 -67h-94l22 110h72q97 0 153 44.5t78 152.5l224 1137h1048z" />
    <glyph glyph-name="uni0513" unicode="&#x513;" horiz-adv-x="1091" 
d="M1053 946l-185 -946l-30 -164q-47 -248 -297 -248h-72l18 97h58q79 0 124.5 38.5t63.5 129.5l29 147l166 850h-547l-127 -653q-19 -97 -83.5 -149t-162.5 -52h-82l19 100h75q108 0 134 137l139 713h760z" />
    <glyph glyph-name="uni051C" unicode="&#x51c;" horiz-adv-x="1992" 
d="M2144 1434l-723 -1434h-118l-154 1243h-4l-639 -1243h-117l-168 1434h129l123 -1246h4l635 1246h125l154 -1246h4l608 1246h141z" />
    <glyph glyph-name="uni051D" unicode="&#x51d;" horiz-adv-x="1509" 
d="M1450 946h123l-506 -946h-109l-127 813l-446 -813h-106l-138 946h115l94 -813l443 813h116l123 -813z" />
    <glyph glyph-name="uni0524" unicode="&#x524;" horiz-adv-x="1368" 
d="M1432 1434l-267 -1368h78l-69 -361h-109l57 295h-86l258 1327h-852l-258 -1327h-116l278 1434h1086z" />
    <glyph glyph-name="uni0525" unicode="&#x525;" horiz-adv-x="1091" 
d="M1059 946l-172 -887h78l-64 -325h-98l51 266h-86l166 850h-623l-166 -850h-106l184 946h107h702h27z" />
    <glyph glyph-name="uni0526" unicode="&#x526;" 
d="M1096 461l-78 -395h84l-70 -361h-108l57 295h-90l94 492q6 35 6 63q0 77 -49 110t-154 33h-471l-135 -698h-114l278 1434h115l-123 -629h463q159 0 233 -55.5t74 -176.5q0 -47 -12 -112z" />
    <glyph glyph-name="uni0527" unicode="&#x527;" horiz-adv-x="1103" 
d="M1012 655q0 -53 -11 -112l-92 -484h68l-64 -325h-98l51 266h-73l102 545q10 58 10 90q0 118 -61.5 178.5t-175.5 60.5q-71 0 -134.5 -24.5t-120.5 -75.5t-100.5 -141t-66.5 -211l-82 -422h-107l279 1434h106l-137 -703h4q66 122 159.5 184t225.5 62q148 0 233 -80.5
t85 -241.5z" />
    <glyph glyph-name="uni0E3F" unicode="&#xe3f;" horiz-adv-x="1032" 
d="M1028 1061q0 -154 -89.5 -248.5t-248.5 -124.5l-2 -6q117 -20 177.5 -93t60.5 -190q0 -195 -130.5 -297t-349.5 -102h-32l-35 -178h-57l34 178h-366l268 1382h367l34 179h58l-35 -179q160 -5 253 -83.5t93 -237.5zM344 1284l-104 -545h260l106 545h-262zM557 739
q168 7 263 91t95 221q0 116 -68 173.5t-183 59.5zM117 98h258l106 545h-260zM813 399q0 109 -69.5 173t-204.5 71l-107 -545h19q169 0 265.5 77t96.5 224z" />
    <glyph glyph-name="Wgrave" unicode="&#x1e80;" horiz-adv-x="1992" 
d="M1100 1767l137 -245h-78l-194 245h135zM2144 1434l-723 -1434h-118l-154 1243h-4l-639 -1243h-117l-168 1434h129l123 -1246h4l635 1246h125l154 -1246h4l608 1246h141z" />
    <glyph glyph-name="wgrave" unicode="&#x1e81;" horiz-adv-x="1509" 
d="M936 1133h-84l-193 315h144zM1450 946h123l-506 -946h-109l-127 813l-446 -813h-106l-138 946h115l94 -813l443 813h116l123 -813z" />
    <glyph glyph-name="Wacute" unicode="&#x1e82;" horiz-adv-x="1992" 
d="M1141 1522l252 245h151l-307 -245h-96zM2144 1434l-723 -1434h-118l-154 1243h-4l-639 -1243h-117l-168 1434h129l123 -1246h4l635 1246h125l154 -1246h4l608 1246h141z" />
    <glyph glyph-name="wacute" unicode="&#x1e83;" horiz-adv-x="1509" 
d="M1249 1448l-317 -315h-96l258 315h155zM1450 946h123l-506 -946h-109l-127 813l-446 -813h-106l-138 946h115l94 -813l443 813h116l123 -813z" />
    <glyph glyph-name="Wdieresis" unicode="&#x1e84;" horiz-adv-x="1992" 
d="M930 1522l39 198h133l-39 -198h-133zM1315 1522l39 198h133l-41 -198h-131zM2144 1434l-723 -1434h-118l-154 1243h-4l-639 -1243h-117l-168 1434h129l123 -1246h4l635 1246h125l154 -1246h4l608 1246h141z" />
    <glyph glyph-name="wdieresis" unicode="&#x1e85;" horiz-adv-x="1509" 
d="M805 1413l-45 -229h-129l45 229h129zM1184 1413l-45 -229h-131l47 229h129zM1450 946h123l-506 -946h-109l-127 813l-446 -813h-106l-138 946h115l94 -813l443 813h116l123 -813z" />
    <glyph glyph-name="Ygrave" unicode="&#x1ef2;" horiz-adv-x="1079" 
d="M778 1522h-78l-194 245h135zM1249 1434l-637 -879l-106 -555h-117l109 553l-295 881h129l233 -764h4l537 764h143z" />
    <glyph glyph-name="ygrave" unicode="&#x1ef3;" horiz-adv-x="919" 
d="M629 1133h-84l-193 315h144zM866 946h121l-864 -1356h-115l336 527l-225 829h114l181 -719z" />
    <glyph glyph-name="endash" unicode="&#x2013;" horiz-adv-x="1540" 
d="M1464 610l-18 -100h-1335l18 100h1335z" />
    <glyph glyph-name="emdash" unicode="&#x2014;" horiz-adv-x="2363" 
d="M2288 610l-19 -98h-2158l18 98h2159z" />
    <glyph glyph-name="quoteleft" unicode="&#x2018;" horiz-adv-x="333" 
d="M451 1448l-170 -279h79l-30 -163h-166l33 163l196 279h58z" />
    <glyph glyph-name="quoteright" unicode="&#x2019;" horiz-adv-x="333" 
d="M299 1464h166l-33 -164l-196 -278h-58l170 278h-80z" />
    <glyph glyph-name="quotesinglbase" unicode="&#x201a;" horiz-adv-x="333" 
d="M47 166h164l-31 -166l-196 -279h-58l170 279h-82z" />
    <glyph glyph-name="quotedblleft" unicode="&#x201c;" horiz-adv-x="565" 
d="M451 1448l-170 -279h79l-30 -163h-166l33 163l196 279h58zM684 1448l-170 -279h80l-31 -163h-166l33 163l195 279h59z" />
    <glyph glyph-name="quotedblright" unicode="&#x201d;" horiz-adv-x="565" 
d="M465 1464l-33 -164l-196 -278h-58l170 278h-80l31 164h166zM532 1464h164l-30 -164l-197 -278h-57l170 278h-80z" />
    <glyph glyph-name="quotedblbase" unicode="&#x201e;" horiz-adv-x="567" 
d="M211 166l-31 -166l-196 -279h-58l170 279h-82l33 166h164zM281 166h163l-30 -166l-197 -279h-59l170 279h-80z" />
    <glyph glyph-name="dagger" unicode="&#x2020;" horiz-adv-x="1005" 
d="M999 969l-18 -95h-350l-207 -1064h-100l206 1064h-350l19 95h350l90 465h100l-90 -465h350z" />
    <glyph glyph-name="daggerdbl" unicode="&#x2021;" horiz-adv-x="1005" 
d="M981 879h-348l-98 -506h348l-19 -94h-348l-92 -469h-100l92 469h-353l19 94h350l98 506h-348l19 94h348l90 461h100l-88 -461h348z" />
    <glyph glyph-name="bullet" unicode="&#x2022;" horiz-adv-x="630" 
d="M375 961q76 0 128 -52t52 -127t-52 -126.5t-128 -51.5q-75 0 -126.5 51.5t-51.5 126.5t51.5 127t126.5 52z" />
    <glyph glyph-name="ellipsis" unicode="&#x2026;" horiz-adv-x="1280" 
d="M20 0l37 182h183l-37 -182h-183zM457 0l37 182h182l-37 -182h-182zM893 0l37 182h182l-37 -182h-182z" />
    <glyph glyph-name="perthousand" unicode="&#x2030;" horiz-adv-x="2293" 
d="M518 805q-124 0 -207.5 71t-83.5 203q0 149 103 257t260 108q124 0 207.5 -72.5t83.5 -204.5q0 -148 -103.5 -255t-259.5 -107zM264 0l1000 1382h84l-1000 -1382h-84zM522 885q121 0 198 86.5t77 193.5q0 96 -60 147.5t-153 51.5q-121 0 -197 -87t-76 -196q0 -94 60 -145
t151 -51zM1055 -10q-124 0 -207.5 72t-83.5 204q0 149 102.5 256t259.5 107q124 0 207.5 -71.5t83.5 -203.5q0 -149 -102.5 -256.5t-259.5 -107.5zM1798 -10q-124 0 -206.5 71.5t-82.5 202.5q0 148 103.5 256.5t259.5 108.5q124 0 206.5 -71.5t82.5 -203.5
q0 -148 -103.5 -256t-259.5 -108zM1061 70q121 0 196.5 86.5t75.5 195.5q0 94 -60 145.5t-151 51.5q-121 0 -197.5 -87t-76.5 -194q0 -96 60 -147t153 -51zM1802 70q119 0 197 86t78 196q0 96 -60 146.5t-149 50.5q-120 0 -198.5 -86.5t-78.5 -196.5q0 -95 61 -145.5
t150 -50.5z" />
    <glyph glyph-name="guilsinglleft" unicode="&#x2039;" horiz-adv-x="479" 
d="M268 170l-225 309l346 309h133l-362 -319l221 -299h-113z" />
    <glyph glyph-name="guilsinglright" unicode="&#x203a;" horiz-adv-x="479" 
d="M215 788l225 -309l-346 -309h-131l363 319l-222 299h111z" />
    <glyph glyph-name="fraction" unicode="&#x2044;" horiz-adv-x="118" 
d="M-440 0l999 1382h84l-999 -1382h-84z" />
    <glyph glyph-name="uni2070" unicode="&#x2070;" horiz-adv-x="909" 
d="M659 1647q138 0 218.5 -91.5t80.5 -273.5q0 -83 -16.5 -165t-51.5 -159t-85 -136t-123 -94.5t-160 -35.5q-140 0 -220.5 90.5t-80.5 274.5q0 104 27 205.5t78.5 189t138 141.5t194.5 54zM651 1552q-65 0 -121 -31.5t-93.5 -83t-64 -116.5t-38.5 -132t-12 -130
q0 -133 54.5 -203t151.5 -70q81 0 146.5 48t104 123t59 159t20.5 164q0 133 -55 202.5t-152 69.5z" />
    <glyph glyph-name="uni2074" unicode="&#x2074;" horiz-adv-x="815" 
d="M852 1626l-125 -641h121l-21 -94h-118l-35 -178h-96l34 178h-489l14 80l598 655h117zM262 985h369l98 510h-4z" />
    <glyph glyph-name="uni2075" unicode="&#x2075;" horiz-adv-x="768" 
d="M526 1309q115 0 191 -71t76 -206q0 -150 -94.5 -244t-254.5 -94q-243 0 -319 191l84 49q59 -146 240 -146q121 0 182 70t61 174q0 92 -50 141.5t-138 49.5q-128 0 -203 -101h-88l149 504h494l-18 -92h-408l-94 -297h4q72 72 186 72z" />
    <glyph glyph-name="uni2076" unicode="&#x2076;" horiz-adv-x="786" 
d="M475 692q-132 0 -215.5 74t-83.5 215q0 95 45 184.5t148 190.5l284 284h131l-411 -395l2 -2q101 82 213 82q115 0 188.5 -76t73.5 -207q0 -145 -106.5 -247.5t-268.5 -102.5zM479 786q117 0 194 75t77 181q0 91 -52 143t-141 52q-125 0 -204 -76.5t-79 -183.5
q0 -87 55 -139t150 -52z" />
    <glyph glyph-name="uni2077" unicode="&#x2077;" horiz-adv-x="626" 
d="M825 1626l-18 -88l-557 -825h-115l561 817h-467l19 96h577z" />
    <glyph glyph-name="uni2078" unicode="&#x2078;" horiz-adv-x="829" 
d="M485 692q-140 0 -217.5 68t-77.5 176q0 102 65 172.5t167 89.5v2q-117 52 -117 189q0 112 86 185t230 73q126 0 197 -58t71 -159q0 -90 -58.5 -148.5t-142.5 -81.5v-2q65 -22 102 -79t37 -134q0 -124 -92 -208.5t-250 -84.5zM565 1241q96 0 159.5 50.5t63.5 129.5
q0 65 -44.5 100t-122.5 35q-101 0 -158 -47.5t-57 -124.5q0 -66 41 -104.5t118 -38.5zM489 784q108 0 173 55t65 150q0 77 -46 120.5t-140 43.5q-114 0 -183 -60t-69 -147q0 -76 53.5 -119t146.5 -43z" />
    <glyph glyph-name="uni2079" unicode="&#x2079;" horiz-adv-x="751" 
d="M260 713l410 379l-4 4q-98 -76 -203 -76q-113 0 -182.5 77.5t-69.5 200.5q0 148 100 248.5t256 100.5q61 0 115.5 -17t98.5 -50.5t70 -90t26 -129.5q0 -90 -45.5 -179t-153.5 -190l-293 -278h-125zM510 1110q117 0 192.5 73.5t75.5 176.5q0 87 -57.5 139.5t-153.5 52.5
q-113 0 -184.5 -72.5t-71.5 -181.5q0 -88 52 -138t147 -50z" />
    <glyph glyph-name="uni2080" unicode="&#x2080;" horiz-adv-x="909" 
d="M477 709q138 0 218.5 -91.5t80.5 -273.5q0 -83 -16.5 -165t-51.5 -159t-85 -136t-123 -94.5t-160 -35.5q-140 0 -220.5 90.5t-80.5 274.5q0 104 27 205.5t78.5 189t138 141.5t194.5 54zM469 614q-81 0 -146.5 -47.5t-104 -122.5t-59 -159t-20.5 -164q0 -133 55 -203
t152 -70q81 0 146.5 48t104 123t59 159t20.5 164q0 133 -55 202.5t-152 69.5z" />
    <glyph glyph-name="uni2081" unicode="&#x2081;" horiz-adv-x="557" 
d="M360 688l-178 -913h-98l158 815h-74l18 98h174z" />
    <glyph glyph-name="uni2082" unicode="&#x2082;" horiz-adv-x="788" 
d="M422 709q129 0 197.5 -61.5t68.5 -166.5q0 -161 -203 -317l-364 -295h457l-21 -94h-604l16 84l428 352q42 34 68.5 57.5t58.5 58.5t48 71.5t16 74.5q0 62 -43.5 101.5t-126.5 39.5q-80 0 -138 -42.5t-79 -129.5h-103q26 130 108 198.5t216 68.5z" />
    <glyph glyph-name="uni2083" unicode="&#x2083;" horiz-adv-x="796" 
d="M281 -248q-129 0 -210 52.5t-81 154.5q0 25 4 43h96q-2 -16 -2 -27q0 -59 54.5 -94t144.5 -35q111 0 172 52t61 151q0 90 -58 131t-186 41l19 86q129 0 196.5 44.5t67.5 131.5q0 133 -166 133q-77 0 -129 -36.5t-65 -106.5h-99q18 115 97.5 176.5t201.5 61.5t191 -56
t69 -157q0 -87 -53 -149.5t-160 -80.5v-2q77 -12 124.5 -64.5t47.5 -154.5q0 -61 -18.5 -112.5t-57 -93t-105.5 -65.5t-156 -24z" />
    <glyph glyph-name="uni2084" unicode="&#x2084;" horiz-adv-x="815" 
d="M670 688l-125 -641h121l-21 -94h-119l-34 -178h-97l35 178h-489l14 80l598 655h117zM80 47h369l98 510h-4z" />
    <glyph glyph-name="uni2085" unicode="&#x2085;" horiz-adv-x="768" 
d="M344 371q115 0 190.5 -71t75.5 -206q0 -150 -94 -244t-254 -94q-243 0 -319 191l84 49q59 -146 239 -146q121 0 182.5 70t61.5 174q0 92 -50 141.5t-138 49.5q-128 0 -203 -101h-88l149 504h494l-19 -92h-407l-94 -297h4q72 72 186 72z" />
    <glyph glyph-name="uni2086" unicode="&#x2086;" horiz-adv-x="786" 
d="M293 -246q-132 0 -215.5 74t-83.5 215q0 96 45 185t147 190l285 284h131l-412 -395l3 -2q101 82 213 82q115 0 188.5 -76t73.5 -207q0 -145 -106.5 -247.5t-268.5 -102.5zM297 -152q117 0 193.5 75t76.5 181q0 92 -51.5 143.5t-140.5 51.5q-125 0 -204 -76.5t-79 -183.5
q0 -87 55 -139t150 -52z" />
    <glyph glyph-name="uni2087" unicode="&#x2087;" horiz-adv-x="626" 
d="M643 688l-18 -88l-557 -825h-115l561 817h-467l19 96h577z" />
    <glyph glyph-name="uni2088" unicode="&#x2088;" horiz-adv-x="829" 
d="M303 -246q-140 0 -217.5 68t-77.5 176q0 102 65 172.5t167 89.5v2q-117 52 -117 189q0 113 85.5 185.5t229.5 72.5q127 0 198 -58t71 -159q0 -90 -58.5 -148.5t-142.5 -81.5v-2q65 -22 102 -79t37 -134q0 -124 -92 -208.5t-250 -84.5zM383 303q96 0 159.5 50.5
t63.5 129.5q0 65 -45 100t-123 35q-101 0 -158 -47.5t-57 -124.5q0 -66 41.5 -104.5t118.5 -38.5zM307 -154q108 0 173 55t65 150q0 76 -46.5 120t-140.5 44q-114 0 -183 -60t-69 -147q0 -76 54 -119t147 -43z" />
    <glyph glyph-name="uni2089" unicode="&#x2089;" horiz-adv-x="751" 
d="M78 -225l409 379l-4 4q-98 -76 -202 -76q-113 0 -182.5 77.5t-69.5 200.5q0 148 100 248.5t256 100.5q61 0 115 -17t98 -50.5t70 -90t26 -129.5q0 -90 -45.5 -179t-152.5 -190l-293 -278h-125zM328 172q117 0 192.5 73.5t75.5 176.5q0 87 -57.5 139.5t-153.5 52.5
q-113 0 -184.5 -72.5t-71.5 -181.5q0 -88 52 -138t147 -50z" />
    <glyph glyph-name="TRY" unicode="&#x20a4;" horiz-adv-x="1193" 
d="M1038 670h113q-61 -320 -264.5 -495t-513.5 -175h-105l117 600l-295 -119l12 64l295 119l29 147l-301 -121l12 64l301 120l99 508h106l-88 -460l430 174l-12 -64l-430 -174l-31 -149l438 178l-12 -64l-438 -178l-105 -539q253 0 422.5 150.5t220.5 413.5z" />
    <glyph glyph-name="uni20A9" unicode="&#x20a9;" horiz-adv-x="1894" 
d="M1995 1434l-252 -551h190l-12 -62h-207l-63 -139h243l-12 -61h-260l-283 -621h-139l-41 621h-364l-285 -621h-139l-41 621h-260l12 61h242l-9 139h-206l12 62h190l-37 551h113l29 -551h389l252 551h141l39 -551h389l244 551h125zM1108 1305l-195 -422h228l-29 422h-4z
M420 821l6 -139h287l63 139h-356zM821 682h334l-10 139h-258zM1538 682l61 139h-358l8 -139h289zM459 127l225 494h-254l25 -494h4zM1292 127l217 494h-256l35 -494h4z" />
    <glyph glyph-name="Euro" unicode="&#x20ac;" horiz-adv-x="1343" 
d="M1040 1309q-226 0 -387.5 -133t-222.5 -353h711l-43 -61h-682q-15 -71 -17 -121h629l-43 -61h-588v-7q0 -242 110 -369.5t316 -127.5q158 0 324 74l-23 -115q-142 -64 -305 -64q-136 0 -239.5 44.5t-167 125.5t-95.5 188.5t-32 239.5v11h-254l43 61h213q2 44 14 121h-225
l43 61h196q32 128 95.5 235t154.5 186.5t216 124t270 44.5q226 0 393 -115l-64 -92q-152 103 -340 103z" />
    <glyph glyph-name="uni20AE" unicode="&#x20ae;" horiz-adv-x="1087" 
d="M1204 1284h-448l-74 -379l338 158l-12 -64l-338 -157l-23 -115l338 158l-12 -64l-338 -157l-129 -664h-107l119 608l-338 -155l13 63l337 156l23 114l-338 -155l12 63l338 156l82 434h-448l20 98h1004z" />
    <glyph glyph-name="uni20B4" unicode="&#x20b4;" horiz-adv-x="1007" 
d="M768 809q-18 -13 -47 -31l-170 -108h455l-13 -62h-538q-144 -93 -203 -166.5t-59 -162.5q0 -93 65.5 -149t192.5 -56q85 0 171.5 26t225.5 84l-21 -116q-218 -99 -385 -99q-76 0 -140 17t-114.5 52t-79 94t-28.5 138q0 111 52 189.5t147 148.5h-211l12 62h289q14 8 41 26
l174 113h-478l13 61h559q110 73 165.5 136t55.5 145q0 76 -52.5 117t-158.5 41q-132 0 -348 -84l18 112q196 76 340 76q152 0 233 -64t81 -192q0 -91 -41 -159.5t-117 -127.5h190l-12 -61h-264z" />
    <glyph glyph-name="uni20B8" unicode="&#x20b8;" horiz-adv-x="1087" 
d="M219 1382h1004l-19 -98h-1005zM156 1059l18 100h1006l-21 -100h-448l-207 -1059h-107l207 1059h-448z" />
    <glyph glyph-name="uni20B9" unicode="&#x20b9;" horiz-adv-x="1048" 
d="M1143 1382l-58 -61h-350q73 -45 113.5 -122.5t40.5 -178.5v-4h182l-57 -62h-129q-25 -170 -167 -270t-362 -100h-125l416 -584h-131l-412 584l21 100h240q182 0 283.5 74.5t123.5 195.5h-596l12 62h588q0 121 -75 193.5t-220 72.5h-241l20 100h240h643z" />
    <glyph glyph-name="uni20BD" unicode="&#x20bd;" horiz-adv-x="1183" 
d="M686 606h-266l-35 -176h471l-12 -61h-471l-70 -369h-108l71 369h-205l13 61h205l34 176h-207l23 99h203l131 677h342q193 0 295 -91.5t102 -248.5q0 -201 -133.5 -318.5t-382.5 -117.5zM551 1284l-113 -579h252q189 0 294.5 84.5t105.5 242.5q0 123 -76 187.5t-209 64.5
h-254z" />
    <glyph glyph-name="uni2113" unicode="&#x2113;" horiz-adv-x="960" 
d="M1012 1192q0 -99 -51 -188.5t-143.5 -161.5t-203.5 -128.5t-249 -105.5q-19 -136 -19 -260q0 -154 36 -215t136 -61q59 0 117.5 18t148.5 60l-18 -107q-119 -49 -164 -59q-43 -9 -92 -9q-66 0 -114 18.5t-76.5 49.5t-45.5 80.5t-22.5 102t-5.5 124.5q0 109 12 223
q-130 -38 -166 -47l19 92q55 16 161 52q19 118 50 225t77.5 202.5t104 165t132.5 110t159 40.5q105 0 161 -58.5t56 -162.5zM788 1319q-96 0 -179.5 -85.5t-140 -221t-87.5 -305.5q530 203 530 479q0 133 -123 133z" />
    <glyph glyph-name="uni2116" unicode="&#x2116;" horiz-adv-x="2392" 
d="M68 0l278 1434h125l606 -1256h4l244 1256h117l-279 -1434h-125l-608 1255h-4l-244 -1255h-114zM1866 272q-179 0 -284 99.5t-105 267.5q0 134 62.5 245.5t173 175.5t245.5 64q179 0 283 -99t104 -267q0 -205 -138 -345.5t-341 -140.5zM1870 369q156 0 265.5 113.5
t109.5 273.5q0 124 -78.5 198t-214.5 74q-156 0 -264.5 -112.5t-108.5 -274.5q0 -123 78 -197.5t213 -74.5zM1395 0l18 94h811l-18 -94h-811z" />
    <glyph glyph-name="trademark" unicode="&#x2122;" horiz-adv-x="1714" 
d="M852 1386h-262l-152 -784h-84l152 784h-262l14 78h610zM1638 1464l33 -862h-84l-26 709l-334 -578h-72l-108 578l-297 -709h-93l367 862h82l108 -598l345 598h79z" />
    <glyph glyph-name="estimated" unicode="&#x212e;" horiz-adv-x="1615" 
d="M121 623q0 176 96.5 325t262 235.5t360.5 86.5q196 0 362 -86.5t262.5 -235.5t96.5 -325v-19h-1176v-287q0 -68 28 -124.5t79 -88.5q139 -92 352 -92q151 0 285 57t223 158h59q-101 -118 -252.5 -185t-318.5 -67q-146 0 -279.5 51.5t-229.5 138t-153 206.5t-57 252z
M1206 1130q-133 103 -362 103q-216 0 -352 -94q-107 -72 -107 -174v-324h911v311q0 109 -90 178z" />
    <glyph glyph-name="uni2153" unicode="&#x2153;" horiz-adv-x="1503" 
d="M158 0l999 1382h84l-999 -1382h-84zM287 592l139 711h-98l14 79h176l-153 -790h-78zM1053 -18q-121 0 -187.5 51t-66.5 133q0 25 2 39h78v-21q0 -64 48 -95.5t126 -31.5q97 0 154 46t57 133q0 84 -61 114.5t-191 30.5l16 74q138 3 207.5 41t69.5 120q0 60 -41.5 88.5
t-108.5 28.5q-76 0 -128.5 -31.5t-65.5 -97.5h-78q13 100 86.5 152.5t185.5 52.5q105 0 168 -48t63 -138q0 -82 -54 -132.5t-144 -66.5l-2 -2q74 -9 117 -57t43 -125q0 -49 -15.5 -92.5t-47.5 -82t-91.5 -61t-138.5 -22.5z" />
    <glyph glyph-name="uni2154" unicode="&#x2154;" horiz-adv-x="1724" 
d="M129 592l12 70l357 309q42 37 63 57.5t48 52t38.5 60.5t11.5 61q0 55 -36 89t-109 34q-71 0 -119 -35.5t-63 -103.5h-82q20 105 89 160t177 55q109 0 167 -54t58 -141q0 -77 -44.5 -137.5t-137.5 -142.5l-299 -256h387l-14 -78h-504zM379 0l999 1382h84l-999 -1382h-84z
M1274 -18q-121 0 -187.5 51t-66.5 133q0 25 2 39h78v-21q0 -64 48 -95.5t126 -31.5q97 0 154 46t57 133q0 84 -61 114.5t-191 30.5l16 74q138 3 207.5 41t69.5 120q0 60 -41.5 88.5t-108.5 28.5q-76 0 -128.5 -31.5t-65.5 -97.5h-78q13 100 86.5 152.5t185.5 52.5
q105 0 168.5 -48t63.5 -138q0 -82 -54.5 -132.5t-144.5 -66.5l-2 -2q74 -9 117 -57t43 -125q0 -49 -15.5 -92.5t-47.5 -82t-91.5 -61t-138.5 -22.5z" />
    <glyph glyph-name="oneeighth" unicode="&#x215b;" horiz-adv-x="1505" 
d="M158 0l999 1382h84l-999 -1382h-84zM287 592l139 711h-98l14 79h176l-153 -790h-78zM1040 -18q-120 0 -183.5 56.5t-63.5 151.5q0 90 55.5 152.5t148.5 79.5l2 4q-47 15 -76.5 54.5t-29.5 103.5q0 97 72 161t198 64q107 0 167.5 -50.5t60.5 -137.5q0 -83 -51.5 -133.5
t-125.5 -65.5v-4q58 -15 91.5 -62t33.5 -118q0 -109 -77.5 -182.5t-221.5 -73.5zM1114 461q85 0 139 43.5t54 111.5q0 54 -38.5 85.5t-109.5 31.5q-81 0 -132.5 -39t-51.5 -112q0 -57 35 -89t104 -32zM1047 57q95 0 151.5 46t56.5 128q0 69 -41.5 108.5t-121.5 39.5
q-95 0 -156.5 -48.5t-61.5 -129.5q0 -68 45.5 -106t127.5 -38z" />
    <glyph glyph-name="threeeighths" unicode="&#x215c;" horiz-adv-x="1724" 
d="M420 573q-121 0 -187.5 51.5t-66.5 133.5q0 25 2 39h78v-21q0 -64 48 -95.5t126 -31.5q97 0 154 45.5t57 132.5q0 84 -61 115t-191 31l16 74q138 3 207.5 41t69.5 120q0 60 -41.5 88.5t-108.5 28.5q-76 0 -128.5 -31.5t-65.5 -97.5h-78q13 100 86.5 152.5t185.5 52.5
q105 0 168.5 -48.5t63.5 -138.5q0 -81 -54 -131.5t-145 -66.5l-2 -2q74 -9 117 -57.5t43 -125.5q0 -49 -15.5 -92.5t-47.5 -82t-91.5 -61t-138.5 -22.5zM377 0l999 1382h84l-999 -1382h-84zM1260 -18q-120 0 -184 56.5t-64 151.5q0 90 56 152.5t149 79.5l2 4q-47 15 -77 55
t-30 103q0 97 72 161t198 64q107 0 167.5 -50.5t60.5 -137.5q0 -83 -51 -133.5t-125 -65.5v-4q58 -15 91.5 -62t33.5 -118q0 -109 -77.5 -182.5t-221.5 -73.5zM1333 461q85 0 139 43.5t54 111.5q0 54 -38.5 85.5t-109.5 31.5q-81 0 -132.5 -39t-51.5 -112q0 -57 35 -89
t104 -32zM1266 57q95 0 152 46t57 128q0 69 -42 108.5t-122 39.5q-94 0 -155.5 -48.5t-61.5 -129.5q0 -68 45.5 -106t126.5 -38z" />
    <glyph glyph-name="fiveeighths" unicode="&#x215d;" horiz-adv-x="1701" 
d="M379 573q-101 0 -170.5 46.5t-89.5 128.5l74 30q15 -61 64.5 -95t125.5 -34q111 0 167 64t56 155q0 86 -44 126t-120 40q-102 0 -172 -76h-73l131 424h413l-16 -75h-346l-82 -265h4q65 68 166 68q41 0 79 -13t71 -40t53 -75.5t20 -113.5q0 -129 -84 -212t-227 -83zM354 0
l1000 1382h84l-1000 -1382h-84zM1237 -18q-120 0 -184 56.5t-64 151.5q0 90 56 152.5t149 79.5l2 4q-47 15 -76.5 54.5t-29.5 103.5q0 97 72 161t198 64q107 0 167 -50.5t60 -137.5q0 -83 -51 -133.5t-125 -65.5v-4q58 -15 91.5 -62t33.5 -118q0 -109 -77.5 -182.5
t-221.5 -73.5zM1311 461q84 0 138 43.5t54 111.5q0 54 -38 85.5t-109 31.5q-81 0 -133 -39t-52 -112q0 -57 35.5 -89t104.5 -32zM1243 57q95 0 152 46t57 128q0 69 -42 108.5t-122 39.5q-94 0 -155.5 -48.5t-61.5 -129.5q0 -68 45.5 -106t126.5 -38z" />
    <glyph glyph-name="seveneighths" unicode="&#x215e;" horiz-adv-x="1488" 
d="M119 592l493 713h-407l14 77h496l-15 -73l-491 -717h-90zM143 0l1000 1382h84l-1000 -1382h-84zM1026 -18q-120 0 -184 56.5t-64 151.5q0 90 56 152.5t149 79.5l2 4q-47 15 -76.5 54.5t-29.5 103.5q0 97 72 161t198 64q107 0 167 -50.5t60 -137.5q0 -83 -51 -133.5
t-125 -65.5v-4q58 -15 91.5 -62t33.5 -118q0 -109 -77.5 -182.5t-221.5 -73.5zM1100 461q84 0 138 43.5t54 111.5q0 54 -38 85.5t-109 31.5q-81 0 -132.5 -39t-51.5 -112q0 -57 35 -89t104 -32zM1032 57q95 0 152 46t57 128q0 69 -42 108.5t-122 39.5q-94 0 -155.5 -48.5
t-61.5 -129.5q0 -68 45.5 -106t126.5 -38z" />
    <glyph glyph-name="arrowleft" unicode="&#x2190;" horiz-adv-x="1681" 
d="M1612 647l-21 -106h-1290l408 -516l-91 -72l-493 641l735 645l70 -80l-602 -512h1284z" />
    <glyph glyph-name="arrowup" unicode="&#x2191;" horiz-adv-x="1484" 
d="M1427 702l-84 -73l-413 510l-250 -1291h-107l250 1280l-610 -499l-63 82l763 614z" />
    <glyph glyph-name="arrowright" unicode="&#x2192;" horiz-adv-x="1681" 
d="M1106 1233l498 -637l-740 -645l-65 80l592 512h-1274l20 106h1295l-414 512z" />
    <glyph glyph-name="arrowdown" unicode="&#x2193;" horiz-adv-x="1488" 
d="M1323 561l66 -82l-764 -614l-521 622l89 74l413 -512l252 1292h105l-250 -1278z" />
    <glyph glyph-name="arrowboth" unicode="&#x2194;" horiz-adv-x="2582" 
d="M2005 1231l498 -637l-740 -645l-65 80l592 512h-1274h-715l408 -516l-91 -72l-493 641l735 645l70 -80l-602 -512h708h1297l-416 512z" />
    <glyph glyph-name="arrowupdn" unicode="&#x2195;" horiz-adv-x="1495" 
d="M555 -518l-518 622l88 74l414 -512l364 1878l-610 -500l-64 82l764 615l514 -623l-84 -74l-413 510l-365 -1873l610 497l64 -82z" />
    <glyph glyph-name="uni2196" unicode="&#x2196;" horiz-adv-x="1306" 
d="M1122 1020l-721 -4l734 -912l-88 -73l-734 909l-145 -719h-115l195 891l895 18z" />
    <glyph glyph-name="uni2197" unicode="&#x2197;" horiz-adv-x="1306" 
d="M420 1126l889 -14l-152 -891l-115 -2l132 717l-1082 -907l-63 73l1095 916l-725 2z" />
    <glyph glyph-name="uni2198" unicode="&#x2198;" horiz-adv-x="1306" 
d="M1188 967h112l-194 -891l-895 -10l18 100l725 4l-733 913l86 74l731 -909z" />
    <glyph glyph-name="uni2199" unicode="&#x2199;" horiz-adv-x="1308" 
d="M1325 1085l-999 -835l4 -47l-45 14l-115 -96l-59 74l69 57l-98 33l162 682l32 -168l39 -434l949 794zM332 170l-2 33l121 -41zM725 70l-274 92l495 -33z" />
    <glyph glyph-name="partialdiff" unicode="&#x2202;" horiz-adv-x="1185" 
d="M657 1464q233 0 363.5 -152.5t130.5 -461.5q0 -127 -21 -248.5t-70 -237.5t-120.5 -202.5t-181 -139.5t-242.5 -53q-203 0 -320.5 115t-117.5 313q0 104 34.5 197.5t99.5 167.5t168.5 118t231.5 44q145 0 252 -58.5t168 -165.5q8 65 8 144q0 246 -97 382t-290 136
q-80 0 -165.5 -21t-151.5 -51l-37 96q192 78 358 78zM528 72q98 0 180 38.5t139.5 106.5t96.5 150t62 180q-11 36 -29.5 70.5t-51.5 72.5t-75 66t-104 46.5t-134 18.5q-102 0 -185 -36t-134 -96t-78 -134t-27 -154q0 -152 93.5 -240.5t246.5 -88.5z" />
    <glyph glyph-name="emptyset" unicode="&#x2205;" 
d="M1022 983q125 -135 125 -319q0 -200 -142.5 -338t-353.5 -138q-193 0 -329 117l-125 -119l-39 41l121 117q-123 136 -123 320q0 200 142 337.5t353 137.5q194 0 330 -117l123 119l41 -41zM260 664q0 -147 92 -250l557 538q-109 88 -258 88q-170 0 -280.5 -107.5
t-110.5 -268.5zM651 287q170 0 280.5 108t110.5 269q0 146 -92 249l-557 -538q109 -88 258 -88z" />
    <glyph glyph-name="product" unicode="&#x220f;" horiz-adv-x="1478" 
d="M1599 1434v-101h-290v-1493h-103v1493h-585v-1493h-103v1493h-291v101h1372z" />
    <glyph glyph-name="summation" unicode="&#x2211;" horiz-adv-x="1449" 
d="M1233 1434v-103h-830l605 -727l-605 -727h830v-102h-965v104l604 725l-604 725v105h965z" />
    <glyph glyph-name="minus" unicode="&#x2212;" 
d="M1128 645v-67h-976v67h976z" />
    <glyph glyph-name="radical" unicode="&#x221a;" horiz-adv-x="1079" 
d="M1128 1464h103l-494 -1464h-98l-338 848h-168v98h238l313 -809z" />
    <glyph glyph-name="infinity" unicode="&#x221e;" horiz-adv-x="1568" 
d="M1223 922q138 0 231.5 -88.5t93.5 -225.5q0 -136 -93.5 -224.5t-231.5 -88.5q-64 0 -122 20.5t-111 62.5t-90 80t-89 99q-42 -49 -69.5 -79.5t-71 -69.5t-81 -60.5t-87.5 -37t-103 -15.5q-138 0 -231.5 88.5t-93.5 224.5q0 137 93.5 225.5t231.5 88.5q65 0 123 -20.5
t111.5 -63.5t89 -79.5t88.5 -99.5q52 62 88.5 99.5t90 80t111.5 63t122 20.5zM399 856q-105 0 -180.5 -71.5t-75.5 -176.5t75.5 -176.5t180.5 -71.5q56 0 106.5 19t98.5 58.5t82 75.5t82 95q-48 59 -82 95t-82 75.5t-98.5 58.5t-106.5 19zM1223 856q-55 0 -105 -18.5
t-98.5 -59t-81.5 -75.5t-84 -95q51 -60 84 -95t81.5 -75.5t98.5 -59t105 -18.5q105 0 180.5 71.5t75.5 176.5t-75.5 176.5t-180.5 71.5z" />
    <glyph glyph-name="integral" unicode="&#x222b;" horiz-adv-x="778" 
d="M889 1464l-19 -96q-257 0 -315 -291l-221 -1138q-39 -202 -144.5 -290.5t-285.5 -88.5l18 96q125 2 201 67t108 224l222 1138q39 199 147.5 289t288.5 90z" />
    <glyph glyph-name="approxequal" unicode="&#x2248;" 
d="M385 911q60 0 165 -35.5t205.5 -71.5t151.5 -36t90 33t60 98h69q-25 -101 -83 -152t-134 -51q-63 0 -168 36t-204.5 72t-149.5 36q-107 0 -149 -131h-70q25 102 84 152t133 50zM385 590q60 0 165 -36t205.5 -72t151.5 -36q107 0 150 132h69q-25 -101 -83 -152t-134 -51
q-63 0 -168 35.5t-204 70.5t-150 35q-106 0 -149 -129h-70q25 101 84 152t133 51z" />
    <glyph glyph-name="notequal" unicode="&#x2260;" 
d="M1159 754h-403l-166 -283h569v-68h-608l-127 -217h-66l127 217h-362v68h401l164 283h-565v65h604l127 217h68l-127 -217h364v-65z" />
    <glyph glyph-name="lessequal" unicode="&#x2264;" 
d="M1055 1001v-71l-785 -223l785 -224v-71l-889 260v69zM1071 324v-68h-907v68h907z" />
    <glyph glyph-name="greaterequal" unicode="&#x2265;" 
d="M199 1001l888 -260v-69l-888 -260v71l784 224l-784 223v71zM182 324h908v-68h-908v68z" />
    <glyph glyph-name="uni2460" unicode="&#x2460;" horiz-adv-x="1732" 
d="M913 -31q-217 0 -387.5 96.5t-265 267t-94.5 384.5t94.5 384.5t265 266.5t387.5 96q163 0 302.5 -56.5t237 -155t153 -237t55.5 -298.5q0 -214 -94.5 -384.5t-265.5 -267t-388 -96.5zM913 29q146 0 273 52.5t216.5 143t141 218.5t51.5 274t-51.5 274t-141 218.5
t-216.5 143t-273 52.5t-273 -52.5t-216.5 -143t-141 -218.5t-51.5 -274t51.5 -274t141 -218.5t216.5 -143t273 -52.5zM903 334v710h-98v80h176v-790h-78z" />
    <glyph glyph-name="uni2461" unicode="&#x2461;" horiz-adv-x="1732" 
d="M913 -31q-217 0 -387.5 96.5t-265 267t-94.5 384.5t94.5 384.5t265 266.5t387.5 96q163 0 302.5 -56.5t237 -155t153 -237t55.5 -298.5q0 -214 -94.5 -384.5t-265.5 -267t-388 -96.5zM913 29q146 0 273 52.5t216.5 143t141 218.5t51.5 274t-51.5 274t-141 218.5
t-216.5 143t-273 52.5t-273 -52.5t-216.5 -143t-141 -218.5t-51.5 -274t51.5 -274t141 -218.5t216.5 -143t273 -52.5zM668 360l-2 70l297 311q114 119 114 215q0 59 -39 98.5t-116 39.5q-74 0 -118 -36t-50 -106h-82q4 104 71 160.5t181 56.5q118 0 178.5 -59.5t60.5 -155.5
q0 -123 -133 -256l-252 -260h389v-78h-499z" />
    <glyph glyph-name="uni2462" unicode="&#x2462;" horiz-adv-x="1732" 
d="M913 -31q-217 0 -387.5 96.5t-265 267t-94.5 384.5t94.5 384.5t265 266.5t387.5 96q163 0 302.5 -56.5t237 -155t153 -237t55.5 -298.5q0 -214 -94.5 -384.5t-265.5 -267t-388 -96.5zM913 29q146 0 273 52.5t216.5 143t141 218.5t51.5 274t-51.5 274t-141 218.5
t-216.5 143t-273 52.5t-273 -52.5t-216.5 -143t-141 -218.5t-51.5 -274t51.5 -274t141 -218.5t216.5 -143t273 -52.5zM918 334q-116 0 -189.5 58t-79.5 167h82q4 -72 57.5 -109.5t129.5 -37.5q196 0 196 161q0 48 -18 80.5t-53.5 49.5t-76 23.5t-96.5 6.5v76q211 7 211 143
q0 133 -161 133q-163 0 -177 -137h-79q6 102 74.5 157.5t183.5 55.5q113 0 176 -52t63 -146q0 -69 -40.5 -118.5t-110.5 -64.5v-2q86 -9 135 -61.5t49 -145.5q0 -105 -67 -171t-209 -66z" />
    <glyph glyph-name="uni2463" unicode="&#x2463;" horiz-adv-x="1732" 
d="M913 1464q163 0 302.5 -56.5t237 -155t153 -237t55.5 -298.5q0 -214 -94.5 -384.5t-265.5 -267t-388 -96.5t-387.5 96.5t-265 267t-94.5 384.5t94.5 384.5t265 266.5t387.5 96zM913 29q146 0 273 52.5t216.5 143t141 218.5t51.5 274t-51.5 274t-141 218.5t-216.5 143
t-273 52.5t-273 -52.5t-216.5 -143t-141 -218.5t-51.5 -274t51.5 -274t141 -218.5t216.5 -143t273 -52.5zM1075 1135v-562h94v-73h-94v-156h-78v156h-428v71l406 564h100zM657 573h340v459h-4z" />
    <glyph glyph-name="uni2464" unicode="&#x2464;" horiz-adv-x="1732" 
d="M913 -31q-217 0 -387.5 96.5t-265 267t-94.5 384.5t94.5 384.5t265 266.5t387.5 96q163 0 302.5 -56.5t237 -155t153 -237t55.5 -298.5q0 -214 -94.5 -384.5t-265.5 -267t-388 -96.5zM913 29q146 0 273 52.5t216.5 143t141 218.5t51.5 274t-51.5 274t-141 218.5
t-216.5 143t-273 52.5t-273 -52.5t-216.5 -143t-141 -218.5t-51.5 -274t51.5 -274t141 -218.5t216.5 -143t273 -52.5zM918 311q-97 0 -168 43.5t-103 126.5l72 39q54 -131 203 -131q92 0 141 52.5t49 140.5q0 95 -53 142.5t-131 47.5q-52 0 -97.5 -20t-72.5 -56h-72l49 424
h410v-76h-346l-33 -264h6q23 31 68.5 49.5t99.5 18.5q47 0 90.5 -15.5t80.5 -45.5t59 -82.5t22 -120.5q0 -127 -74 -200t-200 -73z" />
    <glyph glyph-name="uni2465" unicode="&#x2465;" horiz-adv-x="1732" 
d="M913 -31q-217 0 -387.5 96.5t-265 267t-94.5 384.5t94.5 384.5t265 266.5t387.5 96q163 0 302.5 -56.5t237 -155t153 -237t55.5 -298.5q0 -214 -94.5 -384.5t-265.5 -267t-388 -96.5zM913 29q146 0 273 52.5t216.5 143t141 218.5t51.5 274t-51.5 274t-141 218.5
t-216.5 143t-273 52.5t-273 -52.5t-216.5 -143t-141 -218.5t-51.5 -274t51.5 -274t141 -218.5t216.5 -143t273 -52.5zM909 319q-120 0 -200 72.5t-80 202.5q0 107 35.5 182.5t111.5 161.5l168 207h103l-304 -359l2 -4q70 76 179 76q115 0 189.5 -72.5t74.5 -193.5
t-78.5 -197t-200.5 -76zM913 395q88 0 141.5 52t53.5 143q0 90 -55.5 142t-141.5 52q-90 0 -145 -51.5t-55 -142.5t55.5 -143t146.5 -52z" />
    </font>
</defs>
</svg>
