<?xml version="1.0" standalone="no"?>
<!DOCTYPE svg PUBLIC "-//W3C//DTD SVG 1.1//EN" "http://www.w3.org/Graphics/SVG/1.1/DTD/svg11.dtd" >
<svg xmlns="http://www.w3.org/2000/svg" xmlns:xlink="http://www.w3.org/1999/xlink" version="1.1">
<metadata>
Created by FontForge 20170731 at Sat Jul 23 01:25:01 2022
 By Aleksey,,,
Copyright (c) 2015 by Reto Moser. All rights reserved.
</metadata>
<defs>
<font id="GTEestiProDisplay-Thin" horiz-adv-x="1228" >
  <font-face 
    font-family="GT Eesti Pro Display Thin"
    font-weight="300"
    font-stretch="normal"
    units-per-em="2048"
    panose-1="0 0 4 0 0 0 0 0 0 0"
    ascent="1536"
    descent="-512"
    x-height="946"
    cap-height="1434"
    bbox="-784 -512 2478 1831"
    underline-thickness="102"
    underline-position="-307"
    unicode-range="U+0020-FB02"
  />
<missing-glyph horiz-adv-x="1576" 
d="M788 -31q-213 0 -384 96.5t-267 267.5t-96 384q0 160 56.5 299t155 237.5t237 154.5t298.5 56q214 0 385 -95.5t267 -266.5t96 -385q0 -213 -96 -384t-267 -267.5t-385 -96.5zM788 20q149 0 279 53.5t223 146.5t146 224.5t53 282.5l-105 133l-143 -61l-139 184l-162 -90
l-152 242l-151 -242l-162 90l-139 -184l-143 61l-105 -133q0 -201 90.5 -363t250.5 -253t359 -91zM578 651q-31 0 -51.5 20.5t-20.5 51.5t20.5 51.5t51.5 20.5t51 -20.5t20 -51.5t-20 -51.5t-51 -20.5zM997 651q-31 0 -51 20.5t-20 51.5t20 51.5t51 20.5t51.5 -20.5
t20.5 -51.5t-20.5 -51.5t-51.5 -20.5zM702 522l74 207q1 7 8.5 10t14.5 0q6 -2 9.5 -8.5t0.5 -13.5l-57 -160h69q8 0 13.5 -5.5t5.5 -12.5q0 -6 -6 -11.5t-13 -5.5h-119zM385 350q-61 0 -101 40t-40 102t40 101.5t101 39.5t101 -39.5t40 -101.5t-40 -102t-101 -40zM1190 350
q-61 0 -101 40t-40 102t39.5 101.5t101.5 39.5t101.5 -39.5t39.5 -101.5t-40 -102t-101 -40zM788 395q-95 0 -126 -61q-6 -12 -19 -12q-16 0 -16 18q0 35 49.5 63.5t111.5 28.5t112 -28.5t50 -63.5q0 -18 -16 -18q-13 0 -19 12q-31 61 -127 61z" />
    <glyph glyph-name="fi" unicode="fi" horiz-adv-x="1013" 
d="M248 1124q0 170 84 250t229 80h29v-100h-23q-215 0 -215 -232v-176h236v-92h-236v-854h-104v854h-191v92h191v178zM758 1413h139v-246h-139v246zM776 0v946h105v-946h-105z" />
    <glyph glyph-name="fl" unicode="fl" horiz-adv-x="1028" 
d="M248 1124q0 170 84 250t229 80h29v-100h-23q-215 0 -215 -232v-176h236v-92h-236v-854h-104v854h-191v92h191v178zM784 1434h103v-1434h-103v1434z" />
    <glyph glyph-name="f_f" unicode="ff" horiz-adv-x="1286" 
d="M248 1124q0 170 84 250t229 80h29v-100h-23q-215 0 -215 -232v-176h236v-92h-236v-854h-104v854h-191v92h191v178zM1210 1354q-215 0 -215 -232v-176h236v-92h-236v-854h-104v854h-191v92h191v178q0 170 84 250t229 80h29v-100h-23z" />
    <glyph glyph-name="f_f_i" unicode="ffi" horiz-adv-x="1656" 
d="M248 1124q0 170 84 250t229 80h29v-100h-23q-215 0 -215 -232v-176h236v-92h-236v-854h-104v854h-191v92h191v178zM891 1124q0 170 84 250t229 80h29v-100h-23q-215 0 -215 -232v-176h236v-92h-236v-854h-104v854h-191v92h191v178zM1401 1413h139v-246h-139v246zM1419 0
v946h105v-946h-105z" />
    <glyph glyph-name="f_f_l" unicode="ffl" horiz-adv-x="1671" 
d="M248 1124q0 170 84 250t229 80h29v-100h-23q-215 0 -215 -232v-176h236v-92h-236v-854h-104v854h-191v92h191v178zM891 1124q0 170 84 250t229 80h29v-100h-23q-215 0 -215 -232v-176h236v-92h-236v-854h-104v854h-191v92h191v178zM1427 1434h103v-1434h-103v1434z" />
    <glyph glyph-name=".notdef" horiz-adv-x="1576" 
d="M788 -31q-213 0 -384 96.5t-267 267.5t-96 384q0 160 56.5 299t155 237.5t237 154.5t298.5 56q214 0 385 -95.5t267 -266.5t96 -385q0 -213 -96 -384t-267 -267.5t-385 -96.5zM788 20q149 0 279 53.5t223 146.5t146 224.5t53 282.5l-105 133l-143 -61l-139 184l-162 -90
l-152 242l-151 -242l-162 90l-139 -184l-143 61l-105 -133q0 -201 90.5 -363t250.5 -253t359 -91zM578 651q-31 0 -51.5 20.5t-20.5 51.5t20.5 51.5t51.5 20.5t51 -20.5t20 -51.5t-20 -51.5t-51 -20.5zM997 651q-31 0 -51 20.5t-20 51.5t20 51.5t51 20.5t51.5 -20.5
t20.5 -51.5t-20.5 -51.5t-51.5 -20.5zM702 522l74 207q1 7 8.5 10t14.5 0q6 -2 9.5 -8.5t0.5 -13.5l-57 -160h69q8 0 13.5 -5.5t5.5 -12.5q0 -6 -6 -11.5t-13 -5.5h-119zM385 350q-61 0 -101 40t-40 102t40 101.5t101 39.5t101 -39.5t40 -101.5t-40 -102t-101 -40zM1190 350
q-61 0 -101 40t-40 102t39.5 101.5t101.5 39.5t101.5 -39.5t39.5 -101.5t-40 -102t-101 -40zM788 395q-95 0 -126 -61q-6 -12 -19 -12q-16 0 -16 18q0 35 49.5 63.5t111.5 28.5t112 -28.5t50 -63.5q0 -18 -16 -18q-13 0 -19 12q-31 61 -127 61z" />
    <glyph glyph-name=".null" horiz-adv-x="0" 
 />
    <glyph glyph-name="nonmarkingreturn" horiz-adv-x="682" 
 />
    <glyph glyph-name="NULL" horiz-adv-x="0" 
 />
    <glyph glyph-name="NULL" horiz-adv-x="0" 
 />
    <glyph glyph-name="space" unicode=" " horiz-adv-x="624" 
 />
    <glyph glyph-name="exclam" unicode="!" horiz-adv-x="591" 
d="M260 412l-24 1022h120l-24 -1022h-72zM387 182v-182h-182v182h182z" />
    <glyph glyph-name="quotedbl" unicode="&#x22;" horiz-adv-x="503" 
d="M133 946l-31 518h109l-31 -518h-47zM324 946l-31 518h108l-30 -518h-47z" />
    <glyph glyph-name="numbersign" unicode="#" horiz-adv-x="1294" 
d="M1192 942h-264l-74 -405h260v-70h-274l-84 -467h-80l84 467h-320l-84 -467h-80l84 467h-258v70h271l73 405h-266v70h279l78 422h79l-75 -422h317l78 422h80l-76 -422h252v-70zM772 537l74 405h-318l-73 -405h317z" />
    <glyph glyph-name="dollar" unicode="$" horiz-adv-x="1024" 
d="M963 350q0 -173 -108.5 -271.5t-299.5 -107.5v-129h-57v127q-199 5 -316.5 105t-120.5 282h109q4 -141 90.5 -211t237.5 -75v618q-51 20 -79.5 32t-74 34t-71 41t-57.5 49t-48.5 61.5t-28.5 74.5t-12 93q0 156 100.5 244t270.5 96v148h57v-148q84 -3 152.5 -24.5
t122 -62.5t83.5 -110t31 -161h-106q-11 248 -283 258v-533q161 -63 228 -105q160 -102 178 -276q2 -23 2 -49zM236 1079q0 -56 19.5 -99.5t59 -76t80.5 -54t103 -46.5v508q-121 -6 -191.5 -66t-70.5 -166zM555 72q150 9 224.5 83.5t74.5 192.5q0 65 -23 116.5t-69 89
t-92.5 62t-114.5 50.5v-594z" />
    <glyph glyph-name="percent" unicode="%" horiz-adv-x="1527" 
d="M422 1413q140 0 229.5 -89.5t89.5 -229.5t-90 -230t-229 -90q-140 0 -230 90t-90 230q0 139 90 229t230 90zM299 0l809 1382h84l-809 -1382h-84zM422 1333q-106 0 -170 -66t-64 -173q0 -108 64.5 -174t169.5 -66q107 0 171 66t64 174t-64 173.5t-171 65.5zM1106 629
q139 0 229 -90t90 -230q0 -139 -89.5 -229t-229.5 -90t-230 90t-90 229t90 229.5t230 90.5zM1106 549q-107 0 -170.5 -66t-63.5 -174t63.5 -173.5t170.5 -65.5t171 65.5t64 173.5t-64 174t-171 66z" />
    <glyph glyph-name="ampersand" unicode="&#x26;" horiz-adv-x="1378" 
d="M1296 0h-135l-143 176q-185 -207 -449 -207q-209 0 -343 119t-134 322q0 165 93 285t261 179q-127 163 -127 293q0 109 79.5 177.5t224.5 68.5q139 0 282 -61l-41 -99q-132 56 -241 56q-91 0 -140 -41t-49 -109q0 -55 31.5 -111t89.5 -128l459 -570q82 130 147 318
l103 -35q-81 -229 -179 -371zM569 74q222 0 379 188l-430 526q-313 -104 -313 -372q0 -157 101.5 -249.5t262.5 -92.5z" />
    <glyph glyph-name="quotesingle" unicode="'" horiz-adv-x="317" 
d="M215 1464l-31 -518h-51l-31 518h113z" />
    <glyph glyph-name="parenleft" unicode="(" horiz-adv-x="552" 
d="M432 1556l84 -63q-165 -215 -242 -435.5t-77 -484.5q0 -273 76.5 -501t240.5 -451l-84 -61q-109 148 -180 289t-115.5 327t-44.5 397q0 205 44.5 385t116 317.5t181.5 280.5z" />
    <glyph glyph-name="parenright" unicode=")" horiz-adv-x="552" 
d="M125 -440l-84 61q164 223 240.5 451t76.5 501q0 264 -77 484.5t-242 435.5l84 63q110 -143 181.5 -280.5t116 -317.5t44.5 -385q0 -211 -44.5 -397t-115.5 -327t-180 -289z" />
    <glyph glyph-name="asterisk" unicode="*" horiz-adv-x="817" 
d="M756 1182l-297 -84l192 -240l-71 -53l-170 258l-170 -260l-72 55l190 238l-297 84l29 84l287 -107l-15 307h91l-15 -307l289 109z" />
    <glyph glyph-name="plus" unicode="+" 
d="M649 1110v-467h465v-65h-465v-467h-69v467h-465v65h465v467h69z" />
    <glyph glyph-name="comma" unicode="," horiz-adv-x="407" 
d="M295 182v-182l-117 -289h-65l98 289h-98v182h182z" />
    <glyph glyph-name="hyphen" unicode="-" horiz-adv-x="688" 
d="M596 610v-108h-504v108h504z" />
    <glyph glyph-name="period" unicode="." horiz-adv-x="407" 
d="M295 182v-182h-182v182h182z" />
    <glyph glyph-name="slash" unicode="/" horiz-adv-x="1146" 
d="M1001 1581l84 -45l-940 -1714l-84 45z" />
    <glyph glyph-name="zero" unicode="0" horiz-adv-x="1159" 
d="M580 1413q222 0 354.5 -191t132.5 -530t-132.5 -531t-354.5 -192t-355 192t-133 531t133 530t355 191zM580 1313q-170 0 -274.5 -169.5t-104.5 -451.5q0 -283 104.5 -452.5t274.5 -169.5t274 169.5t104 452.5t-104 452t-274 169z" />
    <glyph glyph-name="one" unicode="1" horiz-adv-x="612" 
d="M377 1382v-1382h-105v1282h-127v100h232z" />
    <glyph glyph-name="two" unicode="2" horiz-adv-x="1028" 
d="M84 0v88l545 578q93 101 142.5 186t49.5 176q0 125 -82.5 205t-224.5 80q-133 0 -224 -76t-97 -221h-105q4 185 120 291t308 106q194 0 304 -103.5t110 -277.5q0 -112 -54.5 -213.5t-156.5 -208.5l-488 -510h705v-100h-852z" />
    <glyph glyph-name="three" unicode="3" horiz-adv-x="1075" 
d="M524 1413q187 0 293.5 -94t106.5 -254q0 -123 -69.5 -209t-205.5 -111v-2q158 -11 248 -106.5t90 -261.5q0 -186 -111.5 -296t-332.5 -110q-202 0 -323 95t-136 276h109q11 -126 97 -198t251 -72q162 0 250 78t88 237q0 161 -98.5 232t-325.5 71h-84v94h84
q170 0 265 68.5t95 204.5q0 121 -77 189.5t-212 68.5q-131 0 -216 -64t-91 -188h-106q9 165 118.5 258.5t292.5 93.5z" />
    <glyph glyph-name="four" unicode="4" horiz-adv-x="1140" 
d="M1073 379v-100h-186v-279h-105v279h-741v90l711 1013h135v-1003h186zM164 379h618v874h-4z" />
    <glyph glyph-name="five" unicode="5" horiz-adv-x="1067" 
d="M551 901q93 0 172.5 -29t139.5 -85t94 -145t34 -202q0 -216 -124 -343.5t-349 -127.5q-176 0 -297.5 78t-175.5 223l90 47q37 -81 84.5 -133.5t122 -83t174.5 -30.5q96 0 168 28.5t115 79.5t63.5 116t20.5 144q0 179 -96.5 273t-254.5 94q-206 0 -325 -172h-96l96 749
h674v-98h-590l-68 -514h4q127 131 324 131z" />
    <glyph glyph-name="six" unicode="6" horiz-adv-x="1064" 
d="M547 -31q-96 0 -181 31t-151.5 89.5t-105.5 152t-39 209.5q0 132 48 252t154 249l361 445h129l-498 -611l6 -4q71 65 144 93t164 28q200 0 323 -127.5t123 -333.5q0 -209 -134.5 -341t-342.5 -132zM549 70q161 0 263.5 101t102.5 267q0 163 -99 265t-259 102
q-166 0 -271.5 -104t-105.5 -265q0 -162 102 -264t267 -102z" />
    <glyph glyph-name="seven" unicode="7" horiz-adv-x="888" 
d="M864 1382v-94l-600 -1288h-110l600 1280h-723v102h833z" />
    <glyph glyph-name="eight" unicode="8" horiz-adv-x="1110" 
d="M555 -31q-217 0 -339 112t-122 292q0 134 74.5 233.5t196.5 130.5v4q-98 32 -164 114t-66 206q0 160 112 256t308 96t308 -96t112 -256q0 -124 -65.5 -206t-164.5 -114v-4q122 -31 196.5 -130.5t74.5 -233.5q0 -180 -122 -292t-339 -112zM555 786q141 0 226 74.5
t85 194.5q0 119 -84.5 189.5t-226.5 70.5t-226.5 -70.5t-84.5 -189.5q0 -120 85 -194.5t226 -74.5zM555 68q164 0 258 81.5t94 225.5q0 139 -92 225t-260 86t-259 -85.5t-91 -225.5q0 -144 93.5 -225.5t256.5 -81.5z" />
    <glyph glyph-name="nine" unicode="9" horiz-adv-x="1042" 
d="M319 0l494 602l-4 4q-129 -123 -307 -123q-199 0 -325 131t-126 328q0 215 132 343t343 128q210 0 342.5 -125.5t132.5 -359.5q0 -129 -47.5 -248.5t-150.5 -247.5l-354 -432h-130zM522 584q164 0 269.5 102.5t105.5 261.5q0 162 -103 263.5t-270 101.5
q-159 0 -261.5 -101.5t-102.5 -265.5q0 -160 101 -261t261 -101z" />
    <glyph glyph-name="colon" unicode=":" horiz-adv-x="407" 
d="M295 946v-182h-182v182h182zM295 182v-182h-182v182h182z" />
    <glyph glyph-name="semicolon" unicode=";" horiz-adv-x="407" 
d="M295 946v-182h-182v182h182zM295 182v-182l-117 -289h-65l98 289h-98v182h182z" />
    <glyph glyph-name="less" unicode="&#x3c;" 
d="M1059 1040v-77l-803 -351l803 -350v-76l-889 392v69z" />
    <glyph glyph-name="equal" unicode="=" 
d="M1133 819v-65h-1037v65h1037zM1133 471v-68h-1037v68h1037z" />
    <glyph glyph-name="greater" unicode="&#x3e;" 
d="M170 1040l889 -393v-69l-889 -392v76l803 350l-803 351v77z" />
    <glyph glyph-name="question" unicode="?" horiz-adv-x="946" 
d="M471 1464q187 0 290 -98t103 -260q0 -105 -44 -180.5t-124 -149.5q-6 -6 -32 -30t-33.5 -31.5l-29.5 -29.5t-30 -32.5t-24.5 -31.5t-22.5 -36t-15 -35.5t-12 -40.5t-3 -42v-55h-109v59q0 46 12.5 89t29.5 75t49.5 70.5t57 63t66.5 64.5q11 10 16 15q65 63 100.5 124.5
t35.5 137.5q0 108 -71 179t-210 71q-141 0 -220 -79.5t-79 -213.5h-111q0 188 109.5 292.5t300.5 104.5zM528 182v-182h-182v182h182z" />
    <glyph glyph-name="at" unicode="@" horiz-adv-x="1902" 
d="M975 1413q178 0 329.5 -55t261.5 -156t172 -250.5t62 -330.5q0 -134 -33.5 -243t-106 -179t-173.5 -70q-79 0 -133.5 44.5t-67.5 145.5h-6q-48 -99 -135 -156t-209 -57q-183 0 -305.5 122.5t-122.5 324.5t121.5 324t304.5 122q116 0 203 -52.5t137 -151.5h4v174h92v-604
q0 -78 34.5 -114t90.5 -36q101 0 158 112t57 287q0 168 -59.5 305t-161 224.5t-233.5 134.5t-281 47q-122 0 -235.5 -30.5t-213 -94t-173 -154t-116 -219t-42.5 -280.5q0 -153 46 -281t123.5 -216t181 -149t216 -89.5t229.5 -28.5q229 0 422 94l37 -86q-222 -98 -461 -98
q-129 0 -253.5 31t-240 99t-202.5 166t-139 242t-52 316q0 204 68.5 370t187.5 273.5t277 165t340 57.5zM944 905q-153 0 -243.5 -98t-90.5 -252t90.5 -254t243.5 -100t246.5 99.5t93.5 252.5q0 154 -93.5 253t-246.5 99z" />
    <glyph glyph-name="A" unicode="A" horiz-adv-x="1316" 
d="M1178 0l-162 403h-715l-162 -403h-121l584 1434h113l583 -1434h-120zM344 510h629l-316 780z" />
    <glyph glyph-name="B" unicode="B" horiz-adv-x="1241" 
d="M821 764q153 -19 241.5 -115.5t88.5 -249.5q0 -127 -64 -219.5t-166 -136t-229 -43.5h-532v1434h475q197 0 311.5 -94t114.5 -261q0 -119 -63.5 -202t-176.5 -109v-4zM610 1327h-338v-522h336q330 0 330 256q0 266 -328 266zM678 106q162 0 257 82.5t95 219.5
q0 134 -96.5 213t-269.5 79h-392v-594h406z" />
    <glyph glyph-name="C" unicode="C" horiz-adv-x="1406" 
d="M844 -31q-171 0 -314 55t-242 153t-153.5 237t-54.5 303q0 333 209.5 540t554.5 207q149 0 266.5 -41t228.5 -123l-69 -96q-97 71 -198 109.5t-230 38.5q-286 0 -463.5 -177t-177.5 -458t177.5 -458t463.5 -177q130 0 230.5 38t197.5 109l69 -96q-111 -82 -228.5 -123
t-266.5 -41z" />
    <glyph glyph-name="D" unicode="D" horiz-adv-x="1396" 
d="M596 1434q156 0 289 -50t228.5 -141t149.5 -226.5t54 -299.5t-54 -299.5t-149.5 -226.5t-228.5 -141t-289 -50h-436v1434h436zM596 1327h-324v-1223h324q127 0 236 41t191 117t128.5 193t46.5 262q0 192 -81 332t-216 209t-305 69z" />
    <glyph glyph-name="E" unicode="E" horiz-adv-x="1056" 
d="M272 106h684v-106h-796v1434h786v-107h-674v-471h621v-106h-621v-644z" />
    <glyph glyph-name="F" unicode="F" horiz-adv-x="1017" 
d="M956 1327h-684v-514h629v-106h-629v-707h-112v1434h796v-107z" />
    <glyph glyph-name="G" unicode="G" horiz-adv-x="1630" 
d="M903 743h660v-47q0 -105 -26.5 -207t-84.5 -196.5t-141 -166t-205.5 -114.5t-267.5 -43q-220 0 -392.5 93t-269 263t-96.5 388q0 217 95.5 388t268 267t392.5 96q167 0 296 -49t248 -139l-75 -98q-102 80 -215.5 127t-258.5 47q-180 0 -324 -82.5t-225 -228.5t-81 -328
q0 -179 78.5 -322.5t225 -226t335.5 -82.5q122 0 225 36.5t170 94t115 132t69.5 147.5t24.5 143h-541v108z" />
    <glyph glyph-name="H" unicode="H" horiz-adv-x="1411" 
d="M1139 1434h112v-1434h-112v713h-867v-713h-112v1434h112v-613h867v613z" />
    <glyph glyph-name="I" unicode="I" horiz-adv-x="432" 
d="M272 1434v-1434h-112v1434h112z" />
    <glyph glyph-name="J" unicode="J" horiz-adv-x="546" 
d="M387 1434v-1104q0 -176 -69.5 -258t-221.5 -82h-57v110h49q95 0 140.5 51.5t45.5 178.5v1104h113z" />
    <glyph glyph-name="K" unicode="K" horiz-adv-x="1191" 
d="M1174 0h-173l-731 745v-745h-110v1434h110v-656l652 656h163l-679 -668z" />
    <glyph glyph-name="L" unicode="L" horiz-adv-x="997" 
d="M272 1434v-1325h699v-109h-811v1434h112z" />
    <glyph glyph-name="M" unicode="M" horiz-adv-x="1701" 
d="M1333 1434l350 -1434h-118l-291 1212h-4l-373 -976h-92l-373 976h-4l-291 -1212h-119l351 1434h98l381 -1022h4l383 1022h98z" />
    <glyph glyph-name="N" unicode="N" horiz-adv-x="1411" 
d="M1251 1434v-1434h-123l-852 1243h-4v-1243h-112v1434h123l852 -1244h4v1244h112z" />
    <glyph glyph-name="O" unicode="O" horiz-adv-x="1654" 
d="M827 1464q211 0 381.5 -94t268.5 -265.5t98 -387.5t-98 -387.5t-268.5 -266t-381.5 -94.5t-381.5 94.5t-268 266t-97.5 387.5q0 162 57 302t156.5 237t237.5 152.5t296 55.5zM827 1352q-180 0 -323 -81t-223 -226t-80 -328t80 -328t223 -226t323 -81t323.5 81t223.5 226
t80 328t-80 328t-223.5 226t-323.5 81z" />
    <glyph glyph-name="P" unicode="P" horiz-adv-x="1112" 
d="M637 1434q193 0 306.5 -116t113.5 -298q0 -181 -113.5 -297.5t-306.5 -116.5h-365v-606h-112v1434h477zM631 713q138 0 222.5 80t84.5 227t-84.5 227t-222.5 80h-359v-614h359z" />
    <glyph glyph-name="Q" unicode="Q" horiz-adv-x="1669" 
d="M1575 717q0 -157 -53 -292t-150 -235l187 -190h-148l-117 121q-201 -152 -467 -152q-211 0 -381.5 94.5t-268 266t-97.5 387.5q0 162 57 302t156.5 237t237.5 152.5t296 55.5q211 0 381.5 -94t268.5 -265.5t98 -387.5zM827 82q221 0 385 123l-327 338h145l260 -269
q164 175 164 443q0 183 -80 328t-223.5 226t-323.5 81t-323 -81t-223 -226t-80 -328t80 -328t223 -226t323 -81z" />
    <glyph glyph-name="R" unicode="R" horiz-adv-x="1153" 
d="M967 0l-432 633h-263v-633h-112v1434h465q191 0 312.5 -104.5t121.5 -295.5q0 -180 -107.5 -283.5t-281.5 -115.5l438 -635h-141zM272 1327v-588h344q150 0 236 79t86 216t-85.5 215t-236.5 78h-344z" />
    <glyph glyph-name="S" unicode="S" horiz-adv-x="1011" 
d="M518 1464q166 0 350 -86l-53 -108q-158 82 -295 82q-126 0 -193 -54.5t-67 -146.5q0 -35 11 -66.5t26 -54.5t43.5 -50t49.5 -43.5t59 -43.5l219 -156q63 -45 106 -84.5t79 -87.5t53.5 -103.5t17.5 -121.5q0 -179 -119 -275t-316 -96q-117 0 -232.5 33.5t-209.5 95.5
l57 105q189 -121 385 -121q156 0 236 71.5t80 180.5q0 83 -49.5 151t-163.5 150l-227 166q-53 38 -88 69t-69 73.5t-50.5 93.5t-16.5 112q0 145 98 230t279 85z" />
    <glyph glyph-name="T" unicode="T" horiz-adv-x="1048" 
d="M1028 1434v-107h-448v-1327h-113v1327h-447v107h1008z" />
    <glyph glyph-name="U" unicode="U" horiz-adv-x="1421" 
d="M1268 1434v-908q0 -253 -146 -405t-411 -152q-264 0 -410.5 152t-146.5 405v908h120v-891q0 -216 118 -336.5t319 -120.5q202 0 319 120.5t117 336.5v891h121z" />
    <glyph glyph-name="V" unicode="V" horiz-adv-x="1220" 
d="M1194 1434l-528 -1434h-113l-526 1434h133l448 -1268h4l449 1268h133z" />
    <glyph glyph-name="W" unicode="W" horiz-adv-x="1972" 
d="M1942 1434l-439 -1434h-114l-400 1249h-6l-399 -1249h-115l-438 1434h127l364 -1252h4l398 1252h125l397 -1252h4l362 1252h130z" />
    <glyph glyph-name="X" unicode="X" horiz-adv-x="1210" 
d="M1174 0h-134l-434 659l-436 -659h-133l500 756l-449 678h135l383 -580l381 580h135l-448 -678z" />
    <glyph glyph-name="Y" unicode="Y" horiz-adv-x="1079" 
d="M1063 1434l-467 -883v-551h-113v551l-467 883h134l387 -758h6l387 758h133z" />
    <glyph glyph-name="Z" unicode="Z" horiz-adv-x="1093" 
d="M170 106h883v-106h-1012v106l860 1221h-782v107h915v-107z" />
    <glyph glyph-name="bracketleft" unicode="[" horiz-adv-x="595" 
d="M575 1530v-96h-262v-1778h262v-96h-366v1970h366z" />
    <glyph glyph-name="backslash" unicode="\" horiz-adv-x="1146" 
d="M1001 -178l-940 1714l84 45l940 -1714z" />
    <glyph glyph-name="bracketright" unicode="]" horiz-adv-x="595" 
d="M20 -440v96h263v1778h-263v96h367v-1970h-367z" />
    <glyph glyph-name="asciicircum" unicode="^" 
d="M674 1464l303 -659h-98l-265 584l-264 -584h-98l303 659h119z" />
    <glyph glyph-name="underscore" unicode="_" horiz-adv-x="1091" 
d="M1071 -31v-94h-1051v94h1051z" />
    <glyph glyph-name="grave" unicode="`" horiz-adv-x="550" 
d="M254 1448l195 -315h-93l-254 315h152z" />
    <glyph glyph-name="a" unicode="a" horiz-adv-x="1173" 
d="M545 -31q-134 0 -241.5 60.5t-170.5 176t-63 267.5t63 267.5t170.5 176t241.5 60.5q135 0 235 -60t154 -163h4v192h104v-946h-104v193h-4q-55 -104 -154.5 -164t-234.5 -60zM561 72q173 0 279 112.5t106 288.5t-106 288.5t-279 112.5q-172 0 -277.5 -112.5t-105.5 -288.5
t105.5 -288.5t277.5 -112.5z" />
    <glyph glyph-name="b" unicode="b" horiz-adv-x="1183" 
d="M639 -31q-135 0 -235 60t-156 164h-4v-193h-103v1434h103v-680h4q56 104 156 163.5t235 59.5q134 0 241.5 -60.5t170.5 -176t63 -267.5t-63 -267.5t-170.5 -176t-241.5 -60.5zM621 72q173 0 278 112t105 289t-105 289t-278 112q-172 0 -277.5 -112.5t-105.5 -288.5
t105.5 -288.5t277.5 -112.5z" />
    <glyph glyph-name="c" unicode="c" horiz-adv-x="956" 
d="M578 -31q-226 0 -367 140t-141 364t141 364t367 140q169 0 323 -92l-53 -92q-138 81 -275 81q-176 0 -285.5 -115.5t-109.5 -285.5t109.5 -285.5t285.5 -115.5q136 0 275 82l53 -93q-154 -92 -323 -92z" />
    <glyph glyph-name="d" unicode="d" horiz-adv-x="1183" 
d="M545 -31q-134 0 -241.5 60.5t-170.5 176t-63 267.5t63 267.5t170.5 176t241.5 60.5q135 0 235 -60t154 -163h4v680h104v-1434h-104v193h-4q-55 -104 -154.5 -164t-234.5 -60zM561 72q173 0 279 112.5t106 288.5t-106 288.5t-279 112.5q-172 0 -277.5 -112.5
t-105.5 -288.5t105.5 -288.5t277.5 -112.5z" />
    <glyph glyph-name="e" unicode="e" horiz-adv-x="1073" 
d="M549 977q117 0 207 -40t143 -109.5t79 -155.5t26 -187v-22h-830q1 -181 107 -286t278 -105q69 0 125.5 16.5t99 48.5t68.5 59t57 68l78 -65q-32 -45 -64.5 -79t-84 -71.5t-123 -58.5t-156.5 -21q-223 0 -356 137.5t-133 364.5q0 234 133 370t346 136zM543 877
q-144 0 -246 -85.5t-119 -242.5h713q-12 156 -101 242t-247 86z" />
    <glyph glyph-name="f" unicode="f" horiz-adv-x="643" 
d="M567 1354q-215 0 -215 -232v-176h236v-92h-236v-854h-104v854h-191v92h191v178q0 170 84 250t229 80h29v-100h-23z" />
    <glyph glyph-name="g" unicode="g" horiz-adv-x="1173" 
d="M610 -440q-179 0 -364 41l22 104q193 -43 342 -43q168 0 248 81.5t80 252.5v197h-4q-55 -104 -154.5 -164t-234.5 -60q-134 0 -241.5 60.5t-170.5 176t-63 267.5t63 267.5t170.5 176t241.5 60.5q135 0 235 -60t154 -163h4v192h104v-946q-1 -107 -24.5 -186.5
t-61.5 -127.5t-95.5 -77t-116.5 -39t-134 -10zM561 72q173 0 279 112.5t106 288.5t-106 288.5t-279 112.5q-172 0 -277.5 -112.5t-105.5 -288.5t105.5 -288.5t277.5 -112.5z" />
    <glyph glyph-name="h" unicode="h" horiz-adv-x="1105" 
d="M244 1434v-703h4q45 121 140 183.5t222 62.5q168 0 267.5 -101t99.5 -305v-571h-105v563q0 157 -74.5 233t-203.5 76q-55 0 -104 -13.5t-95 -46t-79 -83t-52.5 -129t-19.5 -178.5v-422h-103v1434h103z" />
    <glyph glyph-name="i" unicode="i" horiz-adv-x="370" 
d="M254 1413v-246h-139v246h139zM133 0v946h105v-946h-105z" />
    <glyph glyph-name="j" unicode="j" horiz-adv-x="370" 
d="M254 1413v-246h-139v246h139zM-82 -322h55q82 0 121 50t39 159v1059h105v-1063q0 -301 -258 -301h-62v96z" />
    <glyph glyph-name="k" unicode="k" horiz-adv-x="899" 
d="M881 0h-154l-483 492v-492h-103v1434h103v-910l438 422h152l-467 -434z" />
    <glyph glyph-name="l" unicode="l" horiz-adv-x="385" 
d="M244 1434v-1434h-103v1434h103z" />
    <glyph glyph-name="m" unicode="m" horiz-adv-x="1648" 
d="M139 0v946h103v-186h2q76 217 311 217q118 0 194 -54.5t115 -170.5h4q38 114 124 169.5t204 55.5q70 0 126.5 -20.5t102 -63.5t70.5 -118t25 -177v-598h-103v598q0 136 -62 205t-181 69q-135 0 -214 -91.5t-79 -284.5v-496h-103v547q0 325 -248 325q-136 0 -212 -101.5
t-76 -311.5v-459h-103z" />
    <glyph glyph-name="n" unicode="n" horiz-adv-x="1101" 
d="M606 977q170 0 269.5 -101t99.5 -305v-571h-105v563q0 156 -76 232.5t-206 76.5q-55 0 -103.5 -13.5t-94 -46t-77.5 -83t-51.5 -129t-19.5 -178.5v-422h-103v946h101v-215h4q96 246 362 246z" />
    <glyph glyph-name="o" unicode="o" horiz-adv-x="1153" 
d="M575 977q223 0 365.5 -141.5t142.5 -362.5t-142.5 -362.5t-365.5 -141.5q-221 0 -363 141.5t-142 362.5t142 362.5t363 141.5zM575 874q-170 0 -283.5 -111t-113.5 -290t113.5 -290t283.5 -111q172 0 286 111t114 290t-114 290t-286 111z" />
    <glyph glyph-name="p" unicode="p" horiz-adv-x="1179" 
d="M139 -410v1356h103v-192h4q56 104 155.5 163.5t235.5 59.5q134 0 241.5 -60.5t170.5 -176t63 -267.5t-63 -267.5t-170.5 -176t-241.5 -60.5q-136 0 -235.5 60t-155.5 164h-4v-603h-103zM618 72q172 0 277.5 112.5t105.5 288.5t-105.5 288.5t-277.5 112.5
q-173 0 -277.5 -112t-104.5 -289t104.5 -289t277.5 -112z" />
    <glyph glyph-name="q" unicode="q" horiz-adv-x="1173" 
d="M938 -410v603h-4q-55 -104 -154.5 -164t-234.5 -60q-134 0 -241.5 60.5t-170.5 176t-63 267.5t63 267.5t170.5 176t241.5 60.5q135 0 235 -60t154 -163h4v192h104v-1356h-104zM561 72q173 0 279 112.5t106 288.5t-106 288.5t-279 112.5q-172 0 -277.5 -112.5
t-105.5 -288.5t105.5 -288.5t277.5 -112.5z" />
    <glyph glyph-name="r" unicode="r" horiz-adv-x="628" 
d="M592 975v-119h-29q-150 0 -235.5 -105t-85.5 -286v-465h-103v946h103v-217h4q25 108 109.5 177t203.5 69h33z" />
    <glyph glyph-name="s" unicode="s" horiz-adv-x="837" 
d="M442 -31q-111 0 -214 32t-181 89l53 90q160 -110 346 -110q113 0 169.5 43t56.5 110q0 57 -39.5 96t-114.5 74l-178 82q-211 95 -211 260q0 116 85.5 179t229.5 63q162 0 314 -76l-47 -94q-137 70 -267 70q-94 0 -149 -35.5t-55 -102.5q0 -57 38 -95.5t119 -74.5l170 -77
q102 -47 157.5 -108t55.5 -159q0 -125 -90.5 -190.5t-247.5 -65.5z" />
    <glyph glyph-name="t" unicode="t" horiz-adv-x="622" 
d="M567 854h-223v-610q0 -72 35 -110t100 -38h51v-100h-65q-103 0 -163 58t-60 169v631h-195v92h195v379h102v-379h223v-92z" />
    <glyph glyph-name="u" unicode="u" horiz-adv-x="1077" 
d="M483 -31q-161 0 -257.5 100t-96.5 308v569h104v-571q0 -155 74 -229t197 -74q70 0 127 24t104.5 76t74 145.5t26.5 221.5v407h102v-946h-100v203h-4q-40 -102 -126.5 -168t-224.5 -66z" />
    <glyph glyph-name="v" unicode="v" horiz-adv-x="917" 
d="M780 946h119l-389 -946h-104l-388 946h119l322 -819z" />
    <glyph glyph-name="w" unicode="w" horiz-adv-x="1468" 
d="M1335 946h115l-322 -946h-102l-291 815l-293 -815h-102l-322 946h115l258 -817l287 817h115l284 -817z" />
    <glyph glyph-name="x" unicode="x" horiz-adv-x="935" 
d="M786 0l-317 414l-319 -414h-132l388 496l-349 450h133l279 -371l279 371h131l-349 -450l388 -496h-132z" />
    <glyph glyph-name="y" unicode="y" horiz-adv-x="927" 
d="M793 946h116l-641 -1356h-112l252 519l-390 837h121l322 -725z" />
    <glyph glyph-name="z" unicode="z" horiz-adv-x="909" 
d="M188 100h664v-100h-793v94l619 754h-578v98h709v-92z" />
    <glyph glyph-name="braceleft" unicode="{" horiz-adv-x="731" 
d="M711 1526v-99h-49q-112 0 -171 -60.5t-59 -199.5v-317q0 -128 -44.5 -195t-149.5 -90v-4q105 -23 149.5 -90t44.5 -195v-358q0 -140 59 -200t171 -60h49v-98h-52q-162 0 -247.5 86t-85.5 272v363q0 109 -60.5 165t-193.5 62v110q133 6 193.5 62.5t60.5 165.5v321
q0 359 333 359h52z" />
    <glyph glyph-name="bar" unicode="|" horiz-adv-x="540" 
d="M315 1489v-1929h-90v1929h90z" />
    <glyph glyph-name="braceright" unicode="}" horiz-adv-x="731" 
d="M20 -440v98h50q112 0 169.5 60t57.5 200v358q0 128 45.5 195t151.5 90v4q-106 23 -151.5 90t-45.5 195v317q0 139 -58 199.5t-169 60.5h-50v99h50q163 0 248 -86t85 -273v-321q0 -109 61.5 -165.5t194.5 -62.5v-110q-133 -6 -194.5 -62t-61.5 -165v-363
q0 -187 -84.5 -272.5t-248.5 -85.5h-50z" />
    <glyph glyph-name="asciitilde" unicode="~" 
d="M379 748q67 0 134.5 -23t115 -51t109.5 -51t118 -23q68 0 127 29.5t121 85.5l57 -84q-162 -131 -311 -131q-66 0 -133.5 23t-114.5 50.5t-109.5 50.5t-119.5 23q-67 0 -125 -29.5t-125 -85.5l-55 84q163 132 311 132z" />
    <glyph glyph-name="exclamdown" unicode="&#xa1;" horiz-adv-x="591" 
d="M205 842v182h182v-182h-182zM236 -410l24 1022h72l24 -1022h-120z" />
    <glyph glyph-name="cent" unicode="&#xa2;" horiz-adv-x="942" 
d="M881 147v-108q-136 -70 -283 -70v-100h-57v102q-200 20 -324.5 157.5t-124.5 344.5t125.5 345t323.5 157v112h57v-110q153 0 281 -68v-106q-85 41 -149 57.5t-132 16.5v-807q128 0 283 77zM201 473q0 -168 96 -274.5t244 -124.5v798q-150 -18 -245 -124.5t-95 -274.5z
" />
    <glyph glyph-name="sterling" unicode="&#xa3;" horiz-adv-x="1052" 
d="M270 104v-4h711v-100h-842v98q55 33 95 62.5t79.5 70t60.5 89t21 102.5q0 16 -1.5 31.5t-6.5 33.5t-7.5 29.5t-12 33t-12.5 29.5t-15.5 33l-15 30t-18 33.5t-17.5 31.5h-207v61h176q-65 141 -65 256q0 174 108 281.5t297 107.5q175 0 284 -91t109 -271h-108
q-4 130 -76.5 196t-206.5 66q-137 0 -218 -76.5t-81 -214.5q0 -109 76 -254h434v-61h-401q32 -61 47 -93.5t31 -86t16 -101.5q0 -49 -15.5 -94t-38.5 -77.5t-57 -63t-61.5 -49t-61.5 -38.5z" />
    <glyph glyph-name="currency" unicode="&#xa4;" 
d="M1110 664q0 -186 -123 -318l121 -121l-41 -39l-121 119q-136 -117 -332 -117q-195 0 -333 119l-121 -121l-39 41l119 119q-121 134 -121 318q0 183 121 317l-119 119l41 41l121 -119q136 117 331 117q196 0 332 -117l121 119l41 -41l-119 -119q121 -134 121 -317z
M614 287q171 0 281.5 107.5t110.5 269.5t-110.5 269t-281.5 107t-281 -107t-110 -269t110 -269.5t281 -107.5z" />
    <glyph glyph-name="yen" unicode="&#xa5;" horiz-adv-x="1036" 
d="M985 1382l-319 -661h284v-62h-313l-55 -114h368v-62h-381v-483h-104v483h-379v62h369l-56 114h-313v62h283l-318 661h123l344 -755l344 755h123z" />
    <glyph glyph-name="brokenbar" unicode="&#xa6;" horiz-adv-x="540" 
d="M315 1489v-795h-90v795h90zM315 371v-811h-90v811h90z" />
    <glyph glyph-name="section" unicode="&#xa7;" horiz-adv-x="1079" 
d="M764 233q158 -88 158 -256q0 -134 -100.5 -218.5t-280.5 -84.5q-203 0 -379 113l57 90q88 -51 164 -75.5t162 -24.5q129 0 199.5 56t70.5 144q0 52 -24.5 92.5t-65.5 67t-94.5 48t-113 40t-118.5 38.5t-112.5 49t-94.5 65.5t-65.5 93t-24.5 127.5q0 103 60.5 180.5
t152.5 126.5q-157 92 -157 256q0 133 101 218t280 85q211 0 381 -112l-60 -90q-161 100 -325 100q-128 0 -199.5 -56t-71.5 -143q0 -67 39.5 -114.5t102 -75.5t138.5 -52t152.5 -52.5t139 -66.5t102 -104.5t39.5 -156.5q0 -104 -61 -182.5t-152 -125.5zM209 602
q0 -50 20.5 -91t50.5 -67t80.5 -51t92.5 -39.5t106.5 -36t102.5 -36.5q208 104 208 251q0 51 -20.5 92t-50 67.5t-80.5 52t-92.5 40t-106 36.5t-102.5 38q-26 -13 -50.5 -28t-54.5 -39.5t-52 -51t-37 -62.5t-15 -75z" />
    <glyph glyph-name="dieresis" unicode="&#xa8;" horiz-adv-x="712" 
d="M231 1413v-229h-129v229h129zM610 1413v-229h-129v229h129z" />
    <glyph glyph-name="copyright" unicode="&#xa9;" horiz-adv-x="1695" 
d="M848 -31q-156 0 -293.5 56t-237 153.5t-157.5 237.5t-58 301t58 301t157.5 237.5t237 153t293.5 55.5q208 0 378 -94.5t268.5 -266t98.5 -386.5q0 -161 -57.5 -301t-157 -237.5t-237 -153.5t-293.5 -56zM848 45q185 0 336.5 84.5t240 238.5t88.5 349t-88.5 349
t-240 238.5t-336.5 84.5t-337 -84.5t-240.5 -239t-88.5 -348.5t88.5 -348.5t240.5 -239t337 -84.5zM852 258q-208 0 -338.5 130t-130.5 335q0 206 130 335.5t339 129.5q168 0 311 -98l-49 -80q-118 84 -266 84q-165 0 -265 -101.5t-100 -269.5q0 -167 100 -268t265 -101
q148 0 266 84l49 -80q-140 -100 -311 -100z" />
    <glyph glyph-name="ordfeminine" unicode="&#xaa;" horiz-adv-x="868" 
d="M418 692q-136 0 -226 91.5t-90 242.5t90 242.5t226 91.5q85 0 150.5 -37t99.5 -104h4v120h94v-626h-94v121h-4q-34 -67 -99.5 -104.5t-150.5 -37.5zM432 782q104 0 174 68.5t70 175.5t-70 175.5t-174 68.5q-103 0 -166 -67.5t-63 -176.5t63 -176.5t166 -67.5z" />
    <glyph glyph-name="guillemotleft" unicode="&#xab;" horiz-adv-x="753" 
d="M455 788l-293 -309l293 -309h-129l-285 309l285 309h129zM733 788l-291 -309l291 -309h-127l-284 309l284 309h127z" />
    <glyph glyph-name="logicalnot" unicode="&#xac;" 
d="M145 885h938v-68v-475h-71v475h-867v68z" />
    <glyph glyph-name="uni00AD" unicode="&#xad;" horiz-adv-x="688" 
d="M596 610v-108h-504v108h504z" />
    <glyph glyph-name="registered" unicode="&#xae;" horiz-adv-x="1146" 
d="M573 1464q208 0 339.5 -132t131.5 -343t-131.5 -343t-339.5 -132t-339.5 132t-131.5 343t131.5 343t339.5 132zM573 569q181 0 296.5 115t115.5 305t-115.5 305t-296.5 115t-296 -115t-115 -305t115 -305t296 -115zM770 1112q0 -63 -36.5 -105t-96.5 -51l149 -223h-73
l-146 221h-88v-221h-59v533h190q70 0 115 -41t45 -113zM479 1210v-200h115q55 0 84 27t29 73q0 47 -29 73.5t-84 26.5h-115z" />
    <glyph glyph-name="macron" unicode="&#xaf;" horiz-adv-x="768" 
d="M666 1337v-88h-564v88h564z" />
    <glyph glyph-name="degree" unicode="&#xb0;" horiz-adv-x="720" 
d="M360 1413q121 0 200 -77.5t79 -200.5t-79 -201t-200 -78t-199.5 77.5t-78.5 201.5q0 123 78.5 200.5t199.5 77.5zM360 1348q-90 0 -150 -59.5t-60 -153.5t60 -153.5t150 -59.5t149.5 59.5t59.5 153.5t-59.5 153.5t-149.5 59.5z" />
    <glyph glyph-name="plusminus" unicode="&#xb1;" 
d="M649 1069v-297h455v-65h-455v-297h-69v297h-455v65h455v297h69zM1104 315v-67h-979v67h979z" />
    <glyph glyph-name="uni00B2" unicode="&#xb2;" horiz-adv-x="731" 
d="M82 713v84l354 362q123 127 123 234q0 72 -48.5 116.5t-135.5 44.5q-79 0 -134 -42t-59 -132h-98q3 134 85 200.5t210 66.5q133 0 205.5 -68t72.5 -184q0 -146 -143 -289l-295 -299h443v-94h-580z" />
    <glyph glyph-name="uni00B3" unicode="&#xb3;" horiz-adv-x="778" 
d="M383 692q-137 0 -218.5 62t-84.5 188h98q8 -75 60.5 -116.5t148.5 -41.5q99 0 156 46t57 139q0 101 -67 141.5t-211 40.5v84q55 1 95.5 8.5t74.5 24.5t51.5 49t17.5 78q0 157 -176 157q-86 0 -139.5 -36.5t-57.5 -110.5h-98q5 109 83 175.5t212 66.5q130 0 203.5 -64.5
t73.5 -169.5q0 -76 -41.5 -134t-126.5 -77v-4q91 -13 147.5 -70.5t56.5 -164.5q0 -118 -78 -194.5t-237 -76.5z" />
    <glyph glyph-name="acute" unicode="&#xb4;" horiz-adv-x="550" 
d="M449 1448l-252 -315h-95l195 315h152z" />
    <glyph glyph-name="paragraph" unicode="&#xb6;" horiz-adv-x="1185" 
d="M1083 1434v-88h-114v-1563h-95v1563h-280v-1563h-94v852q-181 0 -289.5 111.5t-108.5 295.5q0 177 114 284.5t304 107.5h563z" />
    <glyph glyph-name="periodcentered" unicode="&#xb7;" horiz-adv-x="407" 
d="M295 946v-182h-182v182h182z" />
    <glyph glyph-name="cedilla" unicode="&#xb8;" horiz-adv-x="468" 
d="M266 25l-45 -117q32 -9 52 -16.5t44.5 -23t37 -41t12.5 -60.5q0 -27 -14 -52t-32.5 -42.5t-56.5 -38.5t-64 -33.5t-77 -34.5l-21 43q95 45 136 76t41 65q0 36 -30 54t-110 36l70 185h57z" />
    <glyph glyph-name="uni00B9" unicode="&#xb9;" horiz-adv-x="454" 
d="M195 713v815h-74v98h174v-913h-100z" />
    <glyph glyph-name="ordmasculine" unicode="&#xba;" horiz-adv-x="892" 
d="M446 1360q150 0 247.5 -92t97.5 -242t-97.5 -242t-247.5 -92t-247 92t-97 242t97 242t247 92zM446 1270q-106 0 -175.5 -66t-69.5 -178t69.5 -178t175.5 -66t176 66t70 178t-70 178t-176 66z" />
    <glyph glyph-name="guillemotright" unicode="&#xbb;" horiz-adv-x="753" 
d="M20 788h130l284 -309l-284 -309h-130l291 309zM301 788h127l285 -309l-285 -309h-127l291 309z" />
    <glyph glyph-name="onequarter" unicode="&#xbc;" horiz-adv-x="1218" 
d="M889 1382h84l-809 -1382h-84zM180 592v711h-98v79h176v-790h-78zM1159 227v-71h-94v-156h-78v156h-428v71l406 564h100v-564h94zM647 227h340v467h-4z" />
    <glyph glyph-name="onehalf" unicode="&#xbd;" horiz-adv-x="1273" 
d="M80 0l809 1382h84l-809 -1382h-84zM258 1382v-790h-78v711h-98v79h176zM952 809q119 0 179.5 -59.5t60.5 -155.5q0 -121 -131 -256l-250 -260h387v-78h-500l-2 70l297 311q115 120 115 215q0 59 -39.5 98t-116.5 39q-74 0 -118 -40t-50 -113h-82q4 108 72 168.5t178 60.5
z" />
    <glyph glyph-name="threequarters" unicode="&#xbe;" horiz-adv-x="1484" 
d="M608 809q0 -105 -67 -170.5t-209 -65.5q-119 0 -191 58t-78 166h82q4 -72 57.5 -110t129.5 -38q91 0 143.5 40t52.5 124q0 91 -63.5 125.5t-179.5 34.5v74q217 7 217 145q0 133 -166 133q-79 0 -127.5 -35.5t-52.5 -107.5h-80q6 107 73 163t189 56q117 0 181.5 -53
t64.5 -148q0 -69 -43 -117t-117 -63v-2q86 -11 135 -63.5t49 -145.5zM1155 1382h84l-809 -1382h-84zM1425 227v-71h-94v-156h-78v156h-428v71l406 564h100v-564h94zM913 227h340v467h-4z" />
    <glyph glyph-name="questiondown" unicode="&#xbf;" horiz-adv-x="823" 
d="M379 842v182h182v-182h-182zM434 -440q-185 0 -289 98t-104 260q0 105 44 180.5t124 149.5q4 4 35.5 33t38.5 36t32.5 33t33 38t24 36.5t22.5 42t11.5 42t5.5 48.5v55h108v-59q0 -46 -12.5 -89t-29.5 -75t-49.5 -70.5t-57 -63t-66.5 -64.5q-11 -10 -16 -15
q-64 -62 -98.5 -123.5t-34.5 -138.5q0 -108 70 -179t208 -71q141 0 221 79.5t80 213.5h109q0 -188 -109 -292.5t-301 -104.5z" />
    <glyph glyph-name="Agrave" unicode="&#xc0;" horiz-adv-x="1316" 
d="M707 1522h-93l-254 245h152zM1178 0l-162 403h-715l-162 -403h-121l584 1434h113l583 -1434h-120zM344 510h629l-316 780z" />
    <glyph glyph-name="Aacute" unicode="&#xc1;" horiz-adv-x="1316" 
d="M958 1767l-253 -245h-93l195 245h151zM1178 0l-162 403h-715l-162 -403h-121l584 1434h113l583 -1434h-120zM344 510h629l-316 780z" />
    <glyph glyph-name="Acircumflex" unicode="&#xc2;" horiz-adv-x="1316" 
d="M657 1698l-184 -176h-129l254 245h121l254 -245h-129zM1178 0l-162 403h-715l-162 -403h-121l584 1434h113l583 -1434h-120zM344 510h629l-316 780z" />
    <glyph glyph-name="Atilde" unicode="&#xc3;" horiz-adv-x="1316" 
d="M502 1655q-67 0 -111 -96l-59 20q61 172 184 172q48 0 112.5 -30t123.5 -59.5t92 -29.5q66 0 110 97l60 -21q-60 -170 -185 -170q-38 0 -87 18.5t-87.5 40t-81.5 40t-71 18.5zM1178 0l-162 403h-715l-162 -403h-121l584 1434h113l583 -1434h-120zM344 510h629l-316 780z
" />
    <glyph glyph-name="Adieresis" unicode="&#xc4;" horiz-adv-x="1316" 
d="M530 1720v-198h-133v198h133zM920 1720v-198h-134v198h134zM1178 0l-162 403h-715l-162 -403h-121l584 1434h113l583 -1434h-120zM344 510h629l-316 780z" />
    <glyph glyph-name="Aring" unicode="&#xc5;" horiz-adv-x="1316" 
d="M1178 0l-162 403h-715l-162 -403h-121l562 1380q-71 22 -113.5 80t-42.5 137q0 101 66 167.5t169 66.5q101 0 167.5 -66.5t66.5 -167.5q0 -78 -43 -136.5t-113 -80.5l561 -1380h-120zM494 1597q0 -71 45.5 -117t117.5 -46q73 0 119.5 46t46.5 117q0 73 -46.5 119.5
t-119.5 46.5q-72 0 -117.5 -46.5t-45.5 -119.5zM344 510h629l-316 780z" />
    <glyph glyph-name="AE" unicode="&#xc6;" horiz-adv-x="1888" 
d="M1171 106h617v-106h-686h-41v403h-625l-274 -403h-144l988 1434h165h607v-107h-607v-471h553v-106h-553v-644zM508 510h553v809z" />
    <glyph glyph-name="Ccedilla" unicode="&#xc7;" horiz-adv-x="1406" 
d="M1339 133q-111 -82 -226.5 -123t-262.5 -41l-25 -61q32 -9 52 -16.5t44.5 -23t37 -41t12.5 -60.5q0 -27 -14 -52t-32.5 -42.5t-56.5 -38.5t-64 -33.5t-77 -34.5l-20 43q94 45 135 75.5t41 65.5q0 36 -30 54t-110 36l50 131q-324 15 -518.5 220t-194.5 526
q0 333 209.5 540t554.5 207q149 0 266.5 -41t228.5 -123l-69 -96q-97 71 -198 109.5t-230 38.5q-286 0 -463.5 -177t-177.5 -458t177.5 -458t463.5 -177q130 0 230.5 38t197.5 109z" />
    <glyph glyph-name="Egrave" unicode="&#xc8;" horiz-adv-x="1056" 
d="M637 1522h-92l-254 245h151zM272 106h684v-106h-796v1434h786v-107h-674v-471h621v-106h-621v-644z" />
    <glyph glyph-name="Eacute" unicode="&#xc9;" horiz-adv-x="1056" 
d="M889 1767l-254 -245h-92l194 245h152zM272 106h684v-106h-796v1434h786v-107h-674v-471h621v-106h-621v-644z" />
    <glyph glyph-name="Ecircumflex" unicode="&#xca;" horiz-adv-x="1056" 
d="M588 1698l-185 -176h-129l254 245h121l254 -245h-129zM272 106h684v-106h-796v1434h786v-107h-674v-471h621v-106h-621v-644z" />
    <glyph glyph-name="Edieresis" unicode="&#xcb;" horiz-adv-x="1056" 
d="M461 1720v-198h-133v198h133zM850 1720v-198h-133v198h133zM272 106h684v-106h-796v1434h786v-107h-674v-471h621v-106h-621v-644z" />
    <glyph glyph-name="Igrave" unicode="&#xcc;" horiz-adv-x="432" 
d="M70 1767l194 -245h-92l-254 245h152zM272 1434v-1434h-112v1434h112z" />
    <glyph glyph-name="Iacute" unicode="&#xcd;" horiz-adv-x="432" 
d="M516 1767l-254 -245h-92l195 245h151zM272 1434v-1434h-112v1434h112z" />
    <glyph glyph-name="Icircumflex" unicode="&#xce;" horiz-adv-x="432" 
d="M276 1767l254 -245h-129l-186 176l-184 -176h-129l254 245h120zM272 1434v-1434h-112v1434h112z" />
    <glyph glyph-name="Idieresis" unicode="&#xcf;" horiz-adv-x="432" 
d="M88 1720v-198h-133v198h133zM477 1720v-198h-133v198h133zM272 1434v-1434h-112v1434h112z" />
    <glyph glyph-name="Eth" unicode="&#xd0;" horiz-adv-x="1417" 
d="M616 1434q156 0 289 -50t228.5 -141t149.5 -226.5t54 -299.5t-54 -299.5t-149.5 -226.5t-228.5 -141t-289 -50h-436v692h-164v96h164v646h436zM616 104q170 0 305 69.5t216.5 210.5t81.5 333q0 145 -47 261.5t-129 192t-191 116t-236 40.5h-323v-539h420v-96h-420v-588
h323z" />
    <glyph glyph-name="Ntilde" unicode="&#xd1;" horiz-adv-x="1411" 
d="M891 1538q-48 0 -112 29t-123 58.5t-93 29.5q-66 0 -110 -96l-60 20q61 172 185 172q48 0 112.5 -30t123 -59.5t91.5 -29.5q67 0 111 97l59 -21q-60 -170 -184 -170zM1251 1434v-1434h-123l-852 1243h-4v-1243h-112v1434h123l852 -1244h4v1244h112z" />
    <glyph glyph-name="Ograve" unicode="&#xd2;" horiz-adv-x="1654" 
d="M682 1767l195 -245h-93l-254 245h152zM827 1464q211 0 381.5 -94t268.5 -265.5t98 -387.5t-98 -387.5t-268.5 -266t-381.5 -94.5t-381.5 94.5t-268 266t-97.5 387.5q0 162 57 302t156.5 237t237.5 152.5t296 55.5zM827 1352q-180 0 -323 -81t-223 -226t-80 -328t80 -328
t223 -226t323 -81t323.5 81t223.5 226t80 328t-80 328t-223.5 226t-323.5 81z" />
    <glyph glyph-name="Oacute" unicode="&#xd3;" horiz-adv-x="1654" 
d="M1126 1767l-254 -245h-92l195 245h151zM827 1464q211 0 381.5 -94t268.5 -265.5t98 -387.5t-98 -387.5t-268.5 -266t-381.5 -94.5t-381.5 94.5t-268 266t-97.5 387.5q0 162 57 302t156.5 237t237.5 152.5t296 55.5zM827 1352q-180 0 -323 -81t-223 -226t-80 -328t80 -328
t223 -226t323 -81t323.5 81t223.5 226t80 328t-80 328t-223.5 226t-323.5 81z" />
    <glyph glyph-name="Ocircumflex" unicode="&#xd4;" horiz-adv-x="1654" 
d="M889 1767l254 -245h-129l-187 176l-184 -176h-129l254 245h121zM827 1464q211 0 381.5 -94t268.5 -265.5t98 -387.5t-98 -387.5t-268.5 -266t-381.5 -94.5t-381.5 94.5t-268 266t-97.5 387.5q0 162 57 302t156.5 237t237.5 152.5t296 55.5zM827 1352q-180 0 -323 -81
t-223 -226t-80 -328t80 -328t223 -226t323 -81t323.5 81t223.5 226t80 328t-80 328t-223.5 226t-323.5 81z" />
    <glyph glyph-name="Otilde" unicode="&#xd5;" horiz-adv-x="1654" 
d="M999 1538q-38 0 -87 18.5t-87.5 40t-81.5 40t-71 18.5q-67 0 -111 -96l-59 20q61 172 184 172q48 0 112.5 -30t123.5 -59.5t92 -29.5q66 0 110 97l60 -21q-60 -170 -185 -170zM827 1464q211 0 381.5 -94t268.5 -265.5t98 -387.5t-98 -387.5t-268.5 -266t-381.5 -94.5
t-381.5 94.5t-268 266t-97.5 387.5q0 162 57 302t156.5 237t237.5 152.5t296 55.5zM827 1352q-180 0 -323 -81t-223 -226t-80 -328t80 -328t223 -226t323 -81t323.5 81t223.5 226t80 328t-80 328t-223.5 226t-323.5 81z" />
    <glyph glyph-name="Odieresis" unicode="&#xd6;" horiz-adv-x="1654" 
d="M700 1720v-198h-133v198h133zM1090 1720v-198h-134v198h134zM827 1464q211 0 381.5 -94t268.5 -265.5t98 -387.5t-98 -387.5t-268.5 -266t-381.5 -94.5t-381.5 94.5t-268 266t-97.5 387.5q0 162 57 302t156.5 237t237.5 152.5t296 55.5zM827 1352q-180 0 -323 -81
t-223 -226t-80 -328t80 -328t223 -226t323 -81t323.5 81t223.5 226t80 328t-80 328t-223.5 226t-323.5 81z" />
    <glyph glyph-name="multiply" unicode="&#xd7;" 
d="M995 1042l52 -51l-383 -381l383 -381l-52 -51l-381 383l-381 -383l-51 51l383 381l-383 381l51 51l381 -383z" />
    <glyph glyph-name="Oslash" unicode="&#xd8;" horiz-adv-x="1654" 
d="M1292 1315q133 -102 208 -256t75 -342q0 -216 -98 -387.5t-268.5 -266t-381.5 -94.5q-231 0 -413 115l-80 -113l-53 33l81 115q-133 102 -207.5 256t-74.5 342q0 162 57 302t156.5 237t237.5 152.5t296 55.5q234 0 414 -114l80 112l53 -32zM201 717q0 -158 60 -288
t169 -216l744 1042q-153 97 -347 97q-180 0 -323 -81t-223 -226t-80 -328zM827 82q180 0 323.5 81t223.5 226t80 328q0 158 -60 288t-169 214l-744 -1041q151 -96 346 -96z" />
    <glyph glyph-name="Ugrave" unicode="&#xd9;" horiz-adv-x="1421" 
d="M565 1767l195 -245h-92l-254 245h151zM1268 1434v-908q0 -253 -146 -405t-411 -152q-264 0 -410.5 152t-146.5 405v908h120v-891q0 -216 118 -336.5t319 -120.5q202 0 319 120.5t117 336.5v891h121z" />
    <glyph glyph-name="Uacute" unicode="&#xda;" horiz-adv-x="1421" 
d="M1012 1767l-254 -245h-92l194 245h152zM1268 1434v-908q0 -253 -146 -405t-411 -152q-264 0 -410.5 152t-146.5 405v908h120v-891q0 -216 118 -336.5t319 -120.5q202 0 319 120.5t117 336.5v891h121z" />
    <glyph glyph-name="Ucircumflex" unicode="&#xdb;" horiz-adv-x="1421" 
d="M772 1767l254 -245h-129l-186 176l-185 -176h-129l254 245h121zM1268 1434v-908q0 -253 -146 -405t-411 -152q-264 0 -410.5 152t-146.5 405v908h120v-891q0 -216 118 -336.5t319 -120.5q202 0 319 120.5t117 336.5v891h121z" />
    <glyph glyph-name="Udieresis" unicode="&#xdc;" horiz-adv-x="1421" 
d="M584 1720v-198h-133v198h133zM973 1720v-198h-133v198h133zM1268 1434v-908q0 -253 -146 -405t-411 -152q-264 0 -410.5 152t-146.5 405v908h120v-891q0 -216 118 -336.5t319 -120.5q202 0 319 120.5t117 336.5v891h121z" />
    <glyph glyph-name="Yacute" unicode="&#xdd;" horiz-adv-x="1079" 
d="M840 1767l-254 -245h-92l194 245h152zM1063 1434l-467 -883v-551h-113v551l-467 883h134l387 -758h6l387 758h133z" />
    <glyph glyph-name="Thorn" unicode="&#xde;" horiz-adv-x="1118" 
d="M268 1434v-291h348q194 0 308 -114.5t114 -293.5q0 -184 -116 -302t-312 -118h-342v-315h-108v1434h108zM616 1036h-348v-614h344q141 0 227.5 80.5t86.5 232.5q0 142 -86 221.5t-224 79.5z" />
    <glyph glyph-name="germandbls" unicode="&#xdf;" horiz-adv-x="1085" 
d="M596 819q199 -13 309.5 -110t110.5 -289q0 -210 -134.5 -320t-392.5 -110h-133v98h123q428 0 428 334q0 183 -126 262.5t-392 79.5v92q189 0 287 68.5t98 199.5q0 112 -67 175t-185 63q-56 0 -104 -15.5t-88 -48t-63 -88.5t-23 -131v-1345h-103v1345q0 175 102 280
t281 105q91 0 161 -27t112 -73.5t63 -104.5t21 -124q0 -123 -72.5 -205.5t-212.5 -106.5v-4z" />
    <glyph glyph-name="agrave" unicode="&#xe0;" horiz-adv-x="1173" 
d="M416 1448l194 -315h-92l-254 315h152zM545 -31q-134 0 -241.5 60.5t-170.5 176t-63 267.5t63 267.5t170.5 176t241.5 60.5q135 0 235 -60t154 -163h4v192h104v-946h-104v193h-4q-55 -104 -154.5 -164t-234.5 -60zM561 72q173 0 279 112.5t106 288.5t-106 288.5
t-279 112.5q-172 0 -277.5 -112.5t-105.5 -288.5t105.5 -288.5t277.5 -112.5z" />
    <glyph glyph-name="aacute" unicode="&#xe1;" horiz-adv-x="1173" 
d="M864 1448l-252 -315h-94l195 315h151zM545 -31q-134 0 -241.5 60.5t-170.5 176t-63 267.5t63 267.5t170.5 176t241.5 60.5q135 0 235 -60t154 -163h4v192h104v-946h-104v193h-4q-55 -104 -154.5 -164t-234.5 -60zM561 72q173 0 279 112.5t106 288.5t-106 288.5
t-279 112.5q-172 0 -277.5 -112.5t-105.5 -288.5t105.5 -288.5t277.5 -112.5z" />
    <glyph glyph-name="acircumflex" unicode="&#xe2;" horiz-adv-x="1173" 
d="M627 1448l252 -315h-123l-191 241l-190 -241h-123l252 315h123zM545 -31q-134 0 -241.5 60.5t-170.5 176t-63 267.5t63 267.5t170.5 176t241.5 60.5q135 0 235 -60t154 -163h4v192h104v-946h-104v193h-4q-55 -104 -154.5 -164t-234.5 -60zM561 72q173 0 279 112.5
t106 288.5t-106 288.5t-279 112.5q-172 0 -277.5 -112.5t-105.5 -288.5t105.5 -288.5t277.5 -112.5z" />
    <glyph glyph-name="atilde" unicode="&#xe3;" horiz-adv-x="1173" 
d="M416 1419q48 0 111 -30.5t120 -60.5t90 -30q68 0 109 97l61 -21q-54 -172 -182 -172q-48 0 -111 30t-121 59.5t-92 29.5q-64 0 -108 -96l-62 20q59 174 185 174zM545 -31q-134 0 -241.5 60.5t-170.5 176t-63 267.5t63 267.5t170.5 176t241.5 60.5q135 0 235 -60t154 -163
h4v192h104v-946h-104v193h-4q-55 -104 -154.5 -164t-234.5 -60zM561 72q173 0 279 112.5t106 288.5t-106 288.5t-279 112.5q-172 0 -277.5 -112.5t-105.5 -288.5t105.5 -288.5t277.5 -112.5z" />
    <glyph glyph-name="adieresis" unicode="&#xe4;" horiz-adv-x="1173" 
d="M440 1413v-229h-129v229h129zM819 1413v-229h-129v229h129zM545 -31q-134 0 -241.5 60.5t-170.5 176t-63 267.5t63 267.5t170.5 176t241.5 60.5q135 0 235 -60t154 -163h4v192h104v-946h-104v193h-4q-55 -104 -154.5 -164t-234.5 -60zM561 72q173 0 279 112.5t106 288.5
t-106 288.5t-279 112.5q-172 0 -277.5 -112.5t-105.5 -288.5t105.5 -288.5t277.5 -112.5z" />
    <glyph glyph-name="aring" unicode="&#xe5;" horiz-adv-x="1173" 
d="M565 1530q106 0 175 -68t69 -172t-69 -171.5t-175 -67.5t-174.5 67.5t-68.5 171.5t68.5 172t174.5 68zM565 1464q-79 0 -126.5 -48t-47.5 -126t47.5 -126t126.5 -48t126.5 48t47.5 126t-47.5 126t-126.5 48zM545 -31q-134 0 -241.5 60.5t-170.5 176t-63 267.5t63 267.5
t170.5 176t241.5 60.5q135 0 235 -60t154 -163h4v192h104v-946h-104v193h-4q-55 -104 -154.5 -164t-234.5 -60zM561 72q173 0 279 112.5t106 288.5t-106 288.5t-279 112.5q-172 0 -277.5 -112.5t-105.5 -288.5t105.5 -288.5t277.5 -112.5z" />
    <glyph glyph-name="ae" unicode="&#xe6;" horiz-adv-x="1810" 
d="M436 -31q-174 0 -283.5 93t-109.5 251q0 152 106.5 247t282.5 95q121 0 215.5 -48t143.5 -144h4v129q0 144 -79.5 215.5t-228.5 71.5q-129 0 -313 -48l-24 103q174 43 339 43q319 0 379 -250h4q53 117 162.5 183.5t253.5 66.5q111 0 200 -41t143.5 -110.5t83 -156.5
t28.5 -184v-22h-828q2 -174 107 -282.5t276 -108.5q65 0 121 16.5t99 48t71 59.5t60 68l75 -65q-161 -230 -424 -230q-160 0 -277 78t-167 211h-4q-41 -136 -151.5 -212.5t-264.5 -76.5zM920 549h708q-12 152 -103 240t-243 88q-145 0 -245 -86t-117 -242zM451 66
q144 0 230.5 71.5t86.5 175.5q0 112 -92.5 179t-226.5 67q-136 0 -215.5 -69.5t-79.5 -180.5t80 -177t217 -66z" />
    <glyph glyph-name="ccedilla" unicode="&#xe7;" horiz-adv-x="956" 
d="M901 61q-145 -86 -303 -92l-25 -61q32 -9 52 -16.5t44.5 -23t37 -41t12.5 -60.5q0 -27 -14 -52t-32.5 -42.5t-56.5 -38.5t-64 -33.5t-77 -34.5l-20 43q94 45 135 75.5t41 65.5q0 36 -29.5 54t-109.5 36l49 131q-211 12 -341 149.5t-130 352.5q0 224 141 364t367 140
q169 0 323 -92l-53 -92q-138 81 -275 81q-176 0 -285.5 -115.5t-109.5 -285.5t109.5 -285.5t285.5 -115.5q136 0 275 82z" />
    <glyph glyph-name="egrave" unicode="&#xe8;" horiz-adv-x="1073" 
d="M401 1448l195 -315h-92l-254 315h151zM549 977q117 0 207 -40t143 -109.5t79 -155.5t26 -187v-22h-830q1 -181 107 -286t278 -105q69 0 125.5 16.5t99 48.5t68.5 59t57 68l78 -65q-32 -45 -64.5 -79t-84 -71.5t-123 -58.5t-156.5 -21q-223 0 -356 137.5t-133 364.5
q0 234 133 370t346 136zM543 877q-144 0 -246 -85.5t-119 -242.5h713q-12 156 -101 242t-247 86z" />
    <glyph glyph-name="eacute" unicode="&#xe9;" horiz-adv-x="1073" 
d="M850 1448l-252 -315h-94l194 315h152zM549 977q117 0 207 -40t143 -109.5t79 -155.5t26 -187v-22h-830q1 -181 107 -286t278 -105q69 0 125.5 16.5t99 48.5t68.5 59t57 68l78 -65q-32 -45 -64.5 -79t-84 -71.5t-123 -58.5t-156.5 -21q-223 0 -356 137.5t-133 364.5
q0 234 133 370t346 136zM543 877q-144 0 -246 -85.5t-119 -242.5h713q-12 156 -101 242t-247 86z" />
    <glyph glyph-name="ecircumflex" unicode="&#xea;" horiz-adv-x="1073" 
d="M610 1448l252 -315h-123l-190 241l-191 -241h-122l251 315h123zM549 977q117 0 207 -40t143 -109.5t79 -155.5t26 -187v-22h-830q1 -181 107 -286t278 -105q69 0 125.5 16.5t99 48.5t68.5 59t57 68l78 -65q-32 -45 -64.5 -79t-84 -71.5t-123 -58.5t-156.5 -21
q-223 0 -356 137.5t-133 364.5q0 234 133 370t346 136zM543 877q-144 0 -246 -85.5t-119 -242.5h713q-12 156 -101 242t-247 86z" />
    <glyph glyph-name="edieresis" unicode="&#xeb;" horiz-adv-x="1073" 
d="M424 1413v-229h-129v229h129zM803 1413v-229h-129v229h129zM549 977q117 0 207 -40t143 -109.5t79 -155.5t26 -187v-22h-830q1 -181 107 -286t278 -105q69 0 125.5 16.5t99 48.5t68.5 59t57 68l78 -65q-32 -45 -64.5 -79t-84 -71.5t-123 -58.5t-156.5 -21
q-223 0 -356 137.5t-133 364.5q0 234 133 370t346 136zM543 877q-144 0 -246 -85.5t-119 -242.5h713q-12 156 -101 242t-247 86z" />
    <glyph glyph-name="igrave" unicode="&#xec;" horiz-adv-x="370" 
d="M121 1448l110 -315h-92l-143 315h125zM133 0v946h105v-946h-105z" />
    <glyph glyph-name="iacute" unicode="&#xed;" horiz-adv-x="370" 
d="M139 1133l113 315h123l-144 -315h-92zM133 0v946h105v-946h-105z" />
    <glyph glyph-name="icircumflex" unicode="&#xee;" horiz-adv-x="370" 
d="M246 1448l153 -315h-108l-105 247l-106 -247h-109l154 315h121zM133 0v946h105v-946h-105z" />
    <glyph glyph-name="idieresis" unicode="&#xef;" horiz-adv-x="370" 
d="M135 1413v-229h-127v229h127zM362 1413v-229h-126v229h126zM133 0v946h105v-946h-105z" />
    <glyph glyph-name="eth" unicode="&#xf0;" horiz-adv-x="1191" 
d="M784 1374q318 -239 318 -749q0 -144 -30 -258.5t-80 -188t-118.5 -121.5t-141.5 -68t-154 -20q-156 0 -272.5 67t-176 181t-59.5 258q0 229 142.5 365.5t358.5 136.5q165 0 275.5 -83t152.5 -243h9q-9 442 -301 656l-213 -189l-52 53l203 179q-150 88 -356 123l22 92
q248 -46 412 -148l160 142l47 -56zM580 72q174 0 281.5 105t107.5 282q0 191 -108.5 303t-285.5 112t-287 -110t-110 -289q0 -183 113.5 -293t288.5 -110z" />
    <glyph glyph-name="ntilde" unicode="&#xf1;" horiz-adv-x="1101" 
d="M424 1419q48 0 111 -30.5t120 -60.5t90 -30q68 0 109 97l61 -21q-54 -172 -182 -172q-48 0 -111 30t-120.5 59.5t-91.5 29.5q-65 0 -109 -96l-61 20q59 174 184 174zM606 977q170 0 269.5 -101t99.5 -305v-571h-105v563q0 156 -76 232.5t-206 76.5q-55 0 -103.5 -13.5
t-94 -46t-77.5 -83t-51.5 -129t-19.5 -178.5v-422h-103v946h101v-215h4q96 246 362 246z" />
    <glyph glyph-name="ograve" unicode="&#xf2;" horiz-adv-x="1153" 
d="M428 1448l195 -315h-93l-254 315h152zM575 977q223 0 365.5 -141.5t142.5 -362.5t-142.5 -362.5t-365.5 -141.5q-221 0 -363 141.5t-142 362.5t142 362.5t363 141.5zM575 874q-170 0 -283.5 -111t-113.5 -290t113.5 -290t283.5 -111q172 0 286 111t114 290t-114 290
t-286 111z" />
    <glyph glyph-name="oacute" unicode="&#xf3;" horiz-adv-x="1153" 
d="M877 1448l-252 -315h-95l195 315h152zM575 977q223 0 365.5 -141.5t142.5 -362.5t-142.5 -362.5t-365.5 -141.5q-221 0 -363 141.5t-142 362.5t142 362.5t363 141.5zM575 874q-170 0 -283.5 -111t-113.5 -290t113.5 -290t283.5 -111q172 0 286 111t114 290t-114 290
t-286 111z" />
    <glyph glyph-name="ocircumflex" unicode="&#xf4;" horiz-adv-x="1153" 
d="M637 1448l252 -315h-123l-191 241l-190 -241h-123l252 315h123zM575 977q223 0 365.5 -141.5t142.5 -362.5t-142.5 -362.5t-365.5 -141.5q-221 0 -363 141.5t-142 362.5t142 362.5t363 141.5zM575 874q-170 0 -283.5 -111t-113.5 -290t113.5 -290t283.5 -111
q172 0 286 111t114 290t-114 290t-286 111z" />
    <glyph glyph-name="otilde" unicode="&#xf5;" horiz-adv-x="1153" 
d="M428 1419q48 0 111 -30.5t120.5 -60.5t90.5 -30q67 0 108 97l62 -21q-54 -172 -183 -172q-48 0 -111 30t-120.5 59.5t-91.5 29.5q-65 0 -109 -96l-61 20q59 174 184 174zM575 977q223 0 365.5 -141.5t142.5 -362.5t-142.5 -362.5t-365.5 -141.5q-221 0 -363 141.5
t-142 362.5t142 362.5t363 141.5zM575 874q-170 0 -283.5 -111t-113.5 -290t113.5 -290t283.5 -111q172 0 286 111t114 290t-114 290t-286 111z" />
    <glyph glyph-name="odieresis" unicode="&#xf6;" horiz-adv-x="1153" 
d="M451 1413v-229h-129v229h129zM829 1413v-229h-129v229h129zM575 977q223 0 365.5 -141.5t142.5 -362.5t-142.5 -362.5t-365.5 -141.5q-221 0 -363 141.5t-142 362.5t142 362.5t363 141.5zM575 874q-170 0 -283.5 -111t-113.5 -290t113.5 -290t283.5 -111q172 0 286 111
t114 290t-114 290t-286 111z" />
    <glyph glyph-name="divide" unicode="&#xf7;" 
d="M680 991v-149h-131v149h131zM1145 645v-67h-1061v67h1061zM680 381v-154h-131v154h131z" />
    <glyph glyph-name="oslash" unicode="&#xf8;" horiz-adv-x="1153" 
d="M938 838q145 -139 145 -365q0 -221 -142.5 -362.5t-365.5 -141.5q-175 0 -309 94l-80 -92l-47 39l80 92q-149 143 -149 371q0 221 142 362.5t363 141.5q182 0 316 -98l84 98l47 -41zM178 473q0 -176 113 -289l528 615q-101 75 -244 75q-170 0 -283.5 -111t-113.5 -290z
M575 72q172 0 286 111t114 290q0 171 -109 283l-528 -611q103 -73 237 -73z" />
    <glyph glyph-name="ugrave" unicode="&#xf9;" horiz-adv-x="1077" 
d="M387 1448l195 -315h-93l-253 315h151zM483 -31q-161 0 -257.5 100t-96.5 308v569h104v-571q0 -155 74 -229t197 -74q70 0 127 24t104.5 76t74 145.5t26.5 221.5v407h102v-946h-100v203h-4q-40 -102 -126.5 -168t-224.5 -66z" />
    <glyph glyph-name="uacute" unicode="&#xfa;" horiz-adv-x="1077" 
d="M836 1448l-252 -315h-95l195 315h152zM483 -31q-161 0 -257.5 100t-96.5 308v569h104v-571q0 -155 74 -229t197 -74q70 0 127 24t104.5 76t74 145.5t26.5 221.5v407h102v-946h-100v203h-4q-40 -102 -126.5 -168t-224.5 -66z" />
    <glyph glyph-name="ucircumflex" unicode="&#xfb;" horiz-adv-x="1077" 
d="M596 1448l252 -315h-123l-190 241l-191 -241h-123l252 315h123zM483 -31q-161 0 -257.5 100t-96.5 308v569h104v-571q0 -155 74 -229t197 -74q70 0 127 24t104.5 76t74 145.5t26.5 221.5v407h102v-946h-100v203h-4q-40 -102 -126.5 -168t-224.5 -66z" />
    <glyph glyph-name="udieresis" unicode="&#xfc;" horiz-adv-x="1077" 
d="M410 1413v-229h-129v229h129zM788 1413v-229h-129v229h129zM483 -31q-161 0 -257.5 100t-96.5 308v569h104v-571q0 -155 74 -229t197 -74q70 0 127 24t104.5 76t74 145.5t26.5 221.5v407h102v-946h-100v203h-4q-40 -102 -126.5 -168t-224.5 -66z" />
    <glyph glyph-name="yacute" unicode="&#xfd;" horiz-adv-x="927" 
d="M766 1448l-252 -315h-94l194 315h152zM793 946h116l-641 -1356h-112l252 519l-390 837h121l322 -725z" />
    <glyph glyph-name="thorn" unicode="&#xfe;" horiz-adv-x="1181" 
d="M141 -410v1844h103v-680h4q56 104 156 163.5t235 59.5q205 0 339 -137.5t134 -366.5t-134 -366.5t-339 -137.5q-135 0 -235 60t-156 164h-4v-603h-103zM621 72q173 0 278 112t105 289t-105 289t-278 112q-172 0 -277.5 -112.5t-105.5 -288.5t105.5 -288.5t277.5 -112.5z
" />
    <glyph glyph-name="ydieresis" unicode="&#xff;" horiz-adv-x="927" 
d="M342 1413v-229h-129v229h129zM721 1413v-229h-129v229h129zM793 946h116l-641 -1356h-112l252 519l-390 837h121l322 -725z" />
    <glyph glyph-name="Amacron" unicode="&#x100;" horiz-adv-x="1316" 
d="M938 1690v-88h-563v88h563zM1178 0l-162 403h-715l-162 -403h-121l584 1434h113l583 -1434h-120zM344 510h629l-316 780z" />
    <glyph glyph-name="amacron" unicode="&#x101;" horiz-adv-x="1173" 
d="M846 1337v-88h-563v88h563zM545 -31q-134 0 -241.5 60.5t-170.5 176t-63 267.5t63 267.5t170.5 176t241.5 60.5q135 0 235 -60t154 -163h4v192h104v-946h-104v193h-4q-55 -104 -154.5 -164t-234.5 -60zM561 72q173 0 279 112.5t106 288.5t-106 288.5t-279 112.5
q-172 0 -277.5 -112.5t-105.5 -288.5t105.5 -288.5t277.5 -112.5z" />
    <glyph glyph-name="Abreve" unicode="&#x102;" horiz-adv-x="1316" 
d="M657 1522q-124 0 -200.5 64.5t-77.5 180.5h86q3 -78 53.5 -120.5t138.5 -42.5t139 42.5t54 120.5h86q-1 -116 -78 -180.5t-201 -64.5zM1178 0l-162 403h-715l-162 -403h-121l584 1434h113l583 -1434h-120zM344 510h629l-316 780z" />
    <glyph glyph-name="abreve" unicode="&#x103;" horiz-adv-x="1173" 
d="M844 1434q0 -134 -77.5 -210.5t-201.5 -76.5t-201 76.5t-77 210.5h86q3 -95 53.5 -149t138.5 -54t139 54t54 149h86zM545 -31q-134 0 -241.5 60.5t-170.5 176t-63 267.5t63 267.5t170.5 176t241.5 60.5q135 0 235 -60t154 -163h4v192h104v-946h-104v193h-4
q-55 -104 -154.5 -164t-234.5 -60zM561 72q173 0 279 112.5t106 288.5t-106 288.5t-279 112.5q-172 0 -277.5 -112.5t-105.5 -288.5t105.5 -288.5t277.5 -112.5z" />
    <glyph glyph-name="Aogonek" unicode="&#x104;" horiz-adv-x="1316" 
d="M1135 -299q46 0 100 14l8 -80q-67 -18 -123 -18q-75 0 -126.5 34.5t-51.5 102.5q0 136 221 283l-147 366h-715l-162 -403h-121l584 1434h113l583 -1434h-81q-181 -137 -181 -229q0 -37 28.5 -53.5t70.5 -16.5zM344 510h629l-316 780z" />
    <glyph glyph-name="aogonek" unicode="&#x105;" horiz-adv-x="1173" 
d="M989 0q-180 -136 -180 -229q0 -37 28 -53.5t70 -16.5q47 0 101 14l8 -80q-67 -18 -123 -18q-75 0 -126.5 34.5t-51.5 102.5q0 136 223 285v154h-4q-55 -104 -154.5 -164t-234.5 -60q-134 0 -241.5 60.5t-170.5 176t-63 267.5t63 267.5t170.5 176t241.5 60.5
q135 0 235 -60t154 -163h4v192h104v-946h-53zM561 72q173 0 279 112.5t106 288.5t-106 288.5t-279 112.5q-172 0 -277.5 -112.5t-105.5 -288.5t105.5 -288.5t277.5 -112.5z" />
    <glyph glyph-name="Cacute" unicode="&#x106;" horiz-adv-x="1406" 
d="M1141 1767l-254 -245h-92l194 245h152zM844 -31q-171 0 -314 55t-242 153t-153.5 237t-54.5 303q0 333 209.5 540t554.5 207q149 0 266.5 -41t228.5 -123l-69 -96q-97 71 -198 109.5t-230 38.5q-286 0 -463.5 -177t-177.5 -458t177.5 -458t463.5 -177q130 0 230.5 38
t197.5 109l69 -96q-111 -82 -228.5 -123t-266.5 -41z" />
    <glyph glyph-name="cacute" unicode="&#x107;" horiz-adv-x="956" 
d="M866 1448l-252 -315h-94l195 315h151zM578 -31q-226 0 -367 140t-141 364t141 364t367 140q169 0 323 -92l-53 -92q-138 81 -275 81q-176 0 -285.5 -115.5t-109.5 -285.5t109.5 -285.5t285.5 -115.5q136 0 275 82l53 -93q-154 -92 -323 -92z" />
    <glyph glyph-name="Ccircumflex" unicode="&#x108;" horiz-adv-x="1406" 
d="M901 1767l254 -245h-129l-186 176l-185 -176h-129l254 245h121zM844 -31q-171 0 -314 55t-242 153t-153.5 237t-54.5 303q0 333 209.5 540t554.5 207q149 0 266.5 -41t228.5 -123l-69 -96q-97 71 -198 109.5t-230 38.5q-286 0 -463.5 -177t-177.5 -458t177.5 -458
t463.5 -177q130 0 230.5 38t197.5 109l69 -96q-111 -82 -228.5 -123t-266.5 -41z" />
    <glyph glyph-name="ccircumflex" unicode="&#x109;" horiz-adv-x="956" 
d="M629 1448l252 -315h-123l-191 241l-190 -241h-123l252 315h123zM578 -31q-226 0 -367 140t-141 364t141 364t367 140q169 0 323 -92l-53 -92q-138 81 -275 81q-176 0 -285.5 -115.5t-109.5 -285.5t109.5 -285.5t285.5 -115.5q136 0 275 82l53 -93q-154 -92 -323 -92z" />
    <glyph glyph-name="Cdotaccent" unicode="&#x10a;" horiz-adv-x="1406" 
d="M907 1745v-223h-133v223h133zM844 -31q-171 0 -314 55t-242 153t-153.5 237t-54.5 303q0 333 209.5 540t554.5 207q149 0 266.5 -41t228.5 -123l-69 -96q-97 71 -198 109.5t-230 38.5q-286 0 -463.5 -177t-177.5 -458t177.5 -458t463.5 -177q130 0 230.5 38t197.5 109
l69 -96q-111 -82 -228.5 -123t-266.5 -41z" />
    <glyph glyph-name="cdotaccent" unicode="&#x10b;" horiz-adv-x="956" 
d="M637 1413v-246h-139v246h139zM578 -31q-226 0 -367 140t-141 364t141 364t367 140q169 0 323 -92l-53 -92q-138 81 -275 81q-176 0 -285.5 -115.5t-109.5 -285.5t109.5 -285.5t285.5 -115.5q136 0 275 82l53 -93q-154 -92 -323 -92z" />
    <glyph glyph-name="Ccaron" unicode="&#x10c;" horiz-adv-x="1406" 
d="M901 1522h-121l-254 245h129l185 -176l186 176h129zM844 -31q-171 0 -314 55t-242 153t-153.5 237t-54.5 303q0 333 209.5 540t554.5 207q149 0 266.5 -41t228.5 -123l-69 -96q-97 71 -198 109.5t-230 38.5q-286 0 -463.5 -177t-177.5 -458t177.5 -458t463.5 -177
q130 0 230.5 38t197.5 109l69 -96q-111 -82 -228.5 -123t-266.5 -41z" />
    <glyph glyph-name="ccaron" unicode="&#x10d;" horiz-adv-x="956" 
d="M897 1434l-268 -316h-123l-268 316h122l207 -242l205 242h125zM578 -31q-226 0 -367 140t-141 364t141 364t367 140q169 0 323 -92l-53 -92q-138 81 -275 81q-176 0 -285.5 -115.5t-109.5 -285.5t109.5 -285.5t285.5 -115.5q136 0 275 82l53 -93q-154 -92 -323 -92z" />
    <glyph glyph-name="Dcaron" unicode="&#x10e;" horiz-adv-x="1396" 
d="M653 1522h-121l-253 245h129l184 -176l186 176h129zM596 1434q156 0 289 -50t228.5 -141t149.5 -226.5t54 -299.5t-54 -299.5t-149.5 -226.5t-228.5 -141t-289 -50h-436v1434h436zM596 1327h-324v-1223h324q127 0 236 41t191 117t128.5 193t46.5 262q0 192 -81 332
t-216 209t-305 69z" />
    <glyph glyph-name="dcaron" unicode="&#x10f;" horiz-adv-x="1333" 
d="M1163 1464h166v-164l-135 -274h-57l96 274h-70v164zM938 754v680h104v-1434h-104v193h-4q-55 -104 -154.5 -164t-234.5 -60q-134 0 -241.5 60.5t-170.5 176t-63 267.5t63 267.5t170.5 176t241.5 60.5q135 0 235 -60t154 -163h4zM561 72q173 0 279 112.5t106 288.5
t-106 288.5t-279 112.5q-172 0 -277.5 -112.5t-105.5 -288.5t105.5 -288.5t277.5 -112.5z" />
    <glyph glyph-name="Dcroat" unicode="&#x110;" horiz-adv-x="1417" 
d="M616 1434q156 0 289 -50t228.5 -141t149.5 -226.5t54 -299.5t-54 -299.5t-149.5 -226.5t-228.5 -141t-289 -50h-436v692h-164v96h164v646h436zM616 104q170 0 305 69.5t216.5 210.5t81.5 333q0 145 -47 261.5t-129 192t-191 116t-236 40.5h-323v-539h420v-96h-420v-588
h323z" />
    <glyph glyph-name="dcroat" unicode="&#x111;" horiz-adv-x="1165" 
d="M1165 1255v-75h-123v-1180h-104v193h-4q-55 -104 -154.5 -164t-234.5 -60q-134 0 -241.5 60.5t-170.5 176t-63 267.5t63 267.5t170.5 176t241.5 60.5q135 0 235 -60t154 -163h4v426h-289v75h289v179h104v-179h123zM561 72q173 0 279 112.5t106 288.5t-106 288.5
t-279 112.5q-172 0 -277.5 -112.5t-105.5 -288.5t105.5 -288.5t277.5 -112.5z" />
    <glyph glyph-name="Emacron" unicode="&#x112;" horiz-adv-x="1056" 
d="M868 1690v-88h-563v88h563zM272 106h684v-106h-796v1434h786v-107h-674v-471h621v-106h-621v-644z" />
    <glyph glyph-name="emacron" unicode="&#x113;" horiz-adv-x="1073" 
d="M829 1337v-88h-563v88h563zM549 977q117 0 207 -40t143 -109.5t79 -155.5t26 -187v-22h-830q1 -181 107 -286t278 -105q69 0 125.5 16.5t99 48.5t68.5 59t57 68l78 -65q-32 -45 -64.5 -79t-84 -71.5t-123 -58.5t-156.5 -21q-223 0 -356 137.5t-133 364.5q0 234 133 370
t346 136zM543 877q-144 0 -246 -85.5t-119 -242.5h713q-12 156 -101 242t-247 86z" />
    <glyph glyph-name="Ebreve" unicode="&#x114;" horiz-adv-x="1056" 
d="M590 1522q-124 0 -201 64.5t-78 180.5h86q3 -78 54 -120.5t139 -42.5t138.5 42.5t53.5 120.5h86q-1 -116 -77.5 -180.5t-200.5 -64.5zM272 106h684v-106h-796v1434h786v-107h-674v-471h621v-106h-621v-644z" />
    <glyph glyph-name="ebreve" unicode="&#x115;" horiz-adv-x="1073" 
d="M827 1434q0 -134 -77 -210.5t-201 -76.5t-201.5 76.5t-77.5 210.5h86q3 -95 54 -149t139 -54t138.5 54t53.5 149h86zM549 977q117 0 207 -40t143 -109.5t79 -155.5t26 -187v-22h-830q1 -181 107 -286t278 -105q69 0 125.5 16.5t99 48.5t68.5 59t57 68l78 -65
q-32 -45 -64.5 -79t-84 -71.5t-123 -58.5t-156.5 -21q-223 0 -356 137.5t-133 364.5q0 234 133 370t346 136zM543 877q-144 0 -246 -85.5t-119 -242.5h713q-12 156 -101 242t-247 86z" />
    <glyph glyph-name="Edotaccent" unicode="&#x116;" horiz-adv-x="1056" 
d="M655 1745v-223h-133v223h133zM272 106h684v-106h-796v1434h786v-107h-674v-471h621v-106h-621v-644z" />
    <glyph glyph-name="edotaccent" unicode="&#x117;" horiz-adv-x="1073" 
d="M621 1413v-246h-140v246h140zM549 977q117 0 207 -40t143 -109.5t79 -155.5t26 -187v-22h-830q1 -181 107 -286t278 -105q69 0 125.5 16.5t99 48.5t68.5 59t57 68l78 -65q-32 -45 -64.5 -79t-84 -71.5t-123 -58.5t-156.5 -21q-223 0 -356 137.5t-133 364.5q0 234 133 370
t346 136zM543 877q-144 0 -246 -85.5t-119 -242.5h713q-12 156 -101 242t-247 86z" />
    <glyph glyph-name="Eogonek" unicode="&#x118;" horiz-adv-x="1056" 
d="M911 0q-180 -136 -180 -229q0 -37 28 -53.5t70 -16.5q47 0 101 14l8 -80q-67 -18 -123 -18q-75 0 -126.5 34.5t-51.5 102.5q0 118 168 246h-645v1434h786v-107h-674v-471h621v-106h-621v-644h684v-106h-45z" />
    <glyph glyph-name="eogonek" unicode="&#x119;" horiz-adv-x="1073" 
d="M1004 485v-22h-830q1 -181 107 -286t278 -105q69 0 125.5 16.5t99 48.5t68.5 59t57 68l78 -65q-89 -126 -201 -181q-204 -151 -204 -247q0 -37 28 -53.5t70 -16.5q46 0 100 14l8 -80q-67 -18 -122 -18q-75 0 -127 34.5t-52 102.5q0 101 134 217q-8 0 -29 -1t-33 -1
q-223 0 -356 137.5t-133 364.5q0 234 133 370t346 136q117 0 207 -40t143 -109.5t79 -155.5t26 -187zM178 549h713q-12 156 -101 242t-247 86q-144 0 -246 -85.5t-119 -242.5z" />
    <glyph glyph-name="Ecaron" unicode="&#x11a;" horiz-adv-x="1056" 
d="M649 1522h-121l-254 245h129l185 -176l186 176h129zM272 106h684v-106h-796v1434h786v-107h-674v-471h621v-106h-621v-644z" />
    <glyph glyph-name="ecaron" unicode="&#x11b;" horiz-adv-x="1073" 
d="M881 1434l-269 -316h-123l-268 316h123l207 -242l205 242h125zM549 977q117 0 207 -40t143 -109.5t79 -155.5t26 -187v-22h-830q1 -181 107 -286t278 -105q69 0 125.5 16.5t99 48.5t68.5 59t57 68l78 -65q-32 -45 -64.5 -79t-84 -71.5t-123 -58.5t-156.5 -21
q-223 0 -356 137.5t-133 364.5q0 234 133 370t346 136zM543 877q-144 0 -246 -85.5t-119 -242.5h713q-12 156 -101 242t-247 86z" />
    <glyph glyph-name="Gcircumflex" unicode="&#x11c;" horiz-adv-x="1630" 
d="M827 1698l-184 -176h-129l254 245h121l254 -245h-129zM903 743h660v-47q0 -105 -26.5 -207t-84.5 -196.5t-141 -166t-205.5 -114.5t-267.5 -43q-220 0 -392.5 93t-269 263t-96.5 388q0 217 95.5 388t268 267t392.5 96q167 0 296 -49t248 -139l-75 -98q-102 80 -215.5 127
t-258.5 47q-180 0 -324 -82.5t-225 -228.5t-81 -328q0 -179 78.5 -322.5t225 -226t335.5 -82.5q122 0 225 36.5t170 94t115 132t69.5 147.5t24.5 143h-541v108z" />
    <glyph glyph-name="gcircumflex" unicode="&#x11d;" horiz-adv-x="1173" 
d="M651 1448l252 -315h-123l-190 241l-191 -241h-123l252 315h123zM610 -440q-179 0 -364 41l22 104q193 -43 342 -43q168 0 248 81.5t80 252.5v197h-4q-55 -104 -154.5 -164t-234.5 -60q-134 0 -241.5 60.5t-170.5 176t-63 267.5t63 267.5t170.5 176t241.5 60.5
q135 0 235 -60t154 -163h4v192h104v-946q-1 -107 -24.5 -186.5t-61.5 -127.5t-95.5 -77t-116.5 -39t-134 -10zM561 72q173 0 279 112.5t106 288.5t-106 288.5t-279 112.5q-172 0 -277.5 -112.5t-105.5 -288.5t105.5 -288.5t277.5 -112.5z" />
    <glyph glyph-name="Gbreve" unicode="&#x11e;" horiz-adv-x="1630" 
d="M829 1522q-124 0 -200.5 64.5t-77.5 180.5h86q3 -78 53.5 -120.5t138.5 -42.5t139 42.5t54 120.5h86q-1 -116 -78 -180.5t-201 -64.5zM903 743h660v-47q0 -105 -26.5 -207t-84.5 -196.5t-141 -166t-205.5 -114.5t-267.5 -43q-220 0 -392.5 93t-269 263t-96.5 388
q0 217 95.5 388t268 267t392.5 96q167 0 296 -49t248 -139l-75 -98q-102 80 -215.5 127t-258.5 47q-180 0 -324 -82.5t-225 -228.5t-81 -328q0 -179 78.5 -322.5t225 -226t335.5 -82.5q122 0 225 36.5t170 94t115 132t69.5 147.5t24.5 143h-541v108z" />
    <glyph glyph-name="gbreve" unicode="&#x11f;" horiz-adv-x="1173" 
d="M868 1434q0 -134 -77 -210.5t-201 -76.5t-201.5 76.5t-77.5 210.5h86q3 -95 54 -149t139 -54t138.5 54t53.5 149h86zM610 -440q-179 0 -364 41l22 104q193 -43 342 -43q168 0 248 81.5t80 252.5v197h-4q-55 -104 -154.5 -164t-234.5 -60q-134 0 -241.5 60.5t-170.5 176
t-63 267.5t63 267.5t170.5 176t241.5 60.5q135 0 235 -60t154 -163h4v192h104v-946q-1 -107 -24.5 -186.5t-61.5 -127.5t-95.5 -77t-116.5 -39t-134 -10zM561 72q173 0 279 112.5t106 288.5t-106 288.5t-279 112.5q-172 0 -277.5 -112.5t-105.5 -288.5t105.5 -288.5
t277.5 -112.5z" />
    <glyph glyph-name="Gdotaccent" unicode="&#x120;" horiz-adv-x="1630" 
d="M895 1745v-223h-133v223h133zM903 743h660v-47q0 -105 -26.5 -207t-84.5 -196.5t-141 -166t-205.5 -114.5t-267.5 -43q-220 0 -392.5 93t-269 263t-96.5 388q0 217 95.5 388t268 267t392.5 96q167 0 296 -49t248 -139l-75 -98q-102 80 -215.5 127t-258.5 47
q-180 0 -324 -82.5t-225 -228.5t-81 -328q0 -179 78.5 -322.5t225 -226t335.5 -82.5q122 0 225 36.5t170 94t115 132t69.5 147.5t24.5 143h-541v108z" />
    <glyph glyph-name="gdotaccent" unicode="&#x121;" horiz-adv-x="1173" 
d="M659 1413v-246h-139v246h139zM610 -440q-179 0 -364 41l22 104q193 -43 342 -43q168 0 248 81.5t80 252.5v197h-4q-55 -104 -154.5 -164t-234.5 -60q-134 0 -241.5 60.5t-170.5 176t-63 267.5t63 267.5t170.5 176t241.5 60.5q135 0 235 -60t154 -163h4v192h104v-946
q-1 -107 -24.5 -186.5t-61.5 -127.5t-95.5 -77t-116.5 -39t-134 -10zM561 72q173 0 279 112.5t106 288.5t-106 288.5t-279 112.5q-172 0 -277.5 -112.5t-105.5 -288.5t105.5 -288.5t277.5 -112.5z" />
    <glyph glyph-name="Gcommaaccent" unicode="&#x122;" horiz-adv-x="1630" 
d="M903 743h660v-47q0 -105 -26.5 -207t-84.5 -196.5t-141 -166t-205.5 -114.5t-267.5 -43q-220 0 -392.5 93t-269 263t-96.5 388q0 217 95.5 388t268 267t392.5 96q167 0 296 -49t248 -139l-75 -98q-102 80 -215.5 127t-258.5 47q-180 0 -324 -82.5t-225 -228.5t-81 -328
q0 -179 78.5 -322.5t225 -226t335.5 -82.5q122 0 225 36.5t170 94t115 132t69.5 147.5t24.5 143h-541v108zM766 -254v158h162v-158l-123 -160h-53l82 160h-68z" />
    <glyph glyph-name="gcommaaccent" unicode="&#x123;" horiz-adv-x="1173" 
d="M662 1264v-158h-162v158l123 159h53l-82 -159h68zM938 946h104v-946q-1 -107 -24.5 -186.5t-61.5 -127.5t-95.5 -77t-116.5 -39t-134 -10q-179 0 -364 41l22 104q193 -43 342 -43q168 0 248 81.5t80 252.5v197h-4q-55 -104 -154.5 -164t-234.5 -60q-134 0 -241.5 60.5
t-170.5 176t-63 267.5t63 267.5t170.5 176t241.5 60.5q135 0 235 -60t154 -163h4v192zM561 72q173 0 279 112.5t106 288.5t-106 288.5t-279 112.5q-172 0 -277.5 -112.5t-105.5 -288.5t105.5 -288.5t277.5 -112.5z" />
    <glyph glyph-name="Hcircumflex" unicode="&#x124;" horiz-adv-x="1411" 
d="M705 1698l-185 -176h-129l254 245h121l254 -245h-129zM1139 1434h112v-1434h-112v713h-867v-713h-112v1434h112v-613h867v613z" />
    <glyph glyph-name="hcircumflex" unicode="&#x125;" horiz-adv-x="1105" 
d="M254 1767l254 -245h-129l-186 176l-185 -176h-129l254 245h121zM244 1434v-703h4q45 121 140 183.5t222 62.5q168 0 267.5 -101t99.5 -305v-571h-105v563q0 157 -74.5 233t-203.5 76q-55 0 -104 -13.5t-95 -46t-79 -83t-52.5 -129t-19.5 -178.5v-422h-103v1434h103z" />
    <glyph glyph-name="Hbar" unicode="&#x126;" horiz-adv-x="1378" 
d="M1378 1169v-96h-141v-1073h-113v713h-868v-713h-113v1073h-143v96h143v265h113v-265h868v265h113v-265h141zM1124 821v252h-868v-252h868z" />
    <glyph glyph-name="hbar" unicode="&#x127;" horiz-adv-x="1105" 
d="M610 977q168 0 267.5 -101t99.5 -305v-571h-105v563q0 157 -74.5 233t-203.5 76q-55 0 -104 -13.5t-95 -46t-79 -83t-52.5 -129t-19.5 -178.5v-422h-103v1180h-141v75h141v179h103v-179h327v-75h-327v-449h4q45 121 140 183.5t222 62.5z" />
    <glyph glyph-name="Itilde" unicode="&#x128;" horiz-adv-x="432" 
d="M387 1538q-48 0 -112 29t-123 58.5t-93 29.5q-66 0 -110 -96l-60 20q61 172 185 172q48 0 112.5 -30t123 -59.5t91.5 -29.5q67 0 111 97l59 -21q-60 -170 -184 -170zM272 1434v-1434h-112v1434h112z" />
    <glyph glyph-name="itilde" unicode="&#x129;" horiz-adv-x="370" 
d="M76 1419q34 0 71 -19t63.5 -41.5t56 -41.5t50.5 -19q23 0 40.5 20.5t35.5 65.5l60 -20q-43 -162 -148 -162q-44 0 -91.5 30t-87 59.5t-63.5 29.5t-40.5 -20t-34.5 -66l-60 22q44 162 148 162zM133 0v946h105v-946h-105z" />
    <glyph glyph-name="Imacron" unicode="&#x12a;" horiz-adv-x="432" 
d="M496 1690v-88h-564v88h564zM272 1434v-1434h-112v1434h112z" />
    <glyph glyph-name="imacron" unicode="&#x12b;" horiz-adv-x="370" 
d="M379 1337v-88h-391v88h391zM133 0v946h105v-946h-105z" />
    <glyph glyph-name="Ibreve" unicode="&#x12c;" horiz-adv-x="432" 
d="M494 1767q-1 -116 -78 -180.5t-201 -64.5t-200.5 64.5t-77.5 180.5h86q3 -78 53.5 -120.5t138.5 -42.5t139 42.5t54 120.5h86zM272 1434v-1434h-112v1434h112z" />
    <glyph glyph-name="ibreve" unicode="&#x12d;" horiz-adv-x="370" 
d="M389 1434q0 -287 -205 -287q-204 0 -204 287h86q0 -106 26 -154.5t92 -48.5t92.5 48.5t26.5 154.5h86zM133 0v946h105v-946h-105z" />
    <glyph glyph-name="Iogonek" unicode="&#x12e;" horiz-adv-x="432" 
d="M256 0q-203 -150 -203 -246q0 -37 28.5 -53t70.5 -16q46 0 100 14l8 -80q-67 -18 -123 -18q-75 0 -126.5 34.5t-51.5 102.5q0 127 201 270v1426h112v-1434h-16z" />
    <glyph glyph-name="iogonek" unicode="&#x12f;" horiz-adv-x="370" 
d="M115 1413h139v-246h-139v246zM133 35v911h105v-946h-45q-181 -137 -181 -229q0 -37 28.5 -53.5t70.5 -16.5q46 0 100 14l8 -80q-67 -18 -123 -18q-75 0 -126.5 34.5t-51.5 102.5q0 133 215 281z" />
    <glyph glyph-name="Idotaccent" unicode="&#x130;" horiz-adv-x="432" 
d="M283 1745v-223h-133v223h133zM272 1434v-1434h-112v1434h112z" />
    <glyph glyph-name="dotlessi" unicode="&#x131;" horiz-adv-x="370" 
d="M133 0v946h105v-946h-105z" />
    <glyph glyph-name="IJ" unicode="&#x132;" horiz-adv-x="978" 
d="M272 1434v-1434h-112v1434h112zM819 1434v-1104q0 -176 -69.5 -258t-221.5 -82h-57v110h49q95 0 141 51.5t46 178.5v1104h112z" />
    <glyph glyph-name="ij" unicode="&#x133;" horiz-adv-x="741" 
d="M254 1413v-246h-139v246h139zM625 1413v-246h-140v246h140zM133 0v946h105v-946h-105zM289 -322h55q82 0 121 50t39 159v1059h104v-1063q0 -301 -258 -301h-61v96z" />
    <glyph glyph-name="Jcircumflex" unicode="&#x134;" horiz-adv-x="546" 
d="M391 1767l254 -245h-129l-186 176l-185 -176h-129l254 245h121zM387 1434v-1104q0 -176 -69.5 -258t-221.5 -82h-57v110h49q95 0 140.5 51.5t45.5 178.5v1104h113z" />
    <glyph glyph-name="jcircumflex" unicode="&#x135;" horiz-adv-x="370" 
d="M246 1448l153 -315h-108l-105 247l-106 -247h-109l154 315h121zM-82 -322h55q82 0 121 50t39 159v1059h105v-1063q0 -301 -258 -301h-62v96z" />
    <glyph glyph-name="Kcommaaccent" unicode="&#x136;" horiz-adv-x="1191" 
d="M406 766l768 -766h-173l-731 745v-745h-110v1434h110v-656l652 656h163zM522 -254v158h162v-158l-123 -160h-53l82 160h-68z" />
    <glyph glyph-name="kcommaaccent" unicode="&#x137;" horiz-adv-x="899" 
d="M367 512l514 -512h-154l-483 492v-492h-103v1434h103v-910l438 422h152zM377 -254v158h162v-158l-123 -160h-54l82 160h-67z" />
    <glyph glyph-name="kgreenlandic" unicode="&#x138;" horiz-adv-x="890" 
d="M872 0h-151l-479 485v-485h-103v946h103v-416l432 416h153l-469 -434z" />
    <glyph glyph-name="Lacute" unicode="&#x139;" horiz-adv-x="997" 
d="M535 1767l-254 -245h-93l195 245h152zM272 1434v-1325h699v-109h-811v1434h112z" />
    <glyph glyph-name="lacute" unicode="&#x13a;" horiz-adv-x="385" 
d="M492 1767l-254 -245h-93l195 245h152zM244 1434v-1434h-103v1434h103z" />
    <glyph glyph-name="Lcommaaccent" unicode="&#x13b;" horiz-adv-x="997" 
d="M272 109h699v-109h-811v1434h112v-1325zM514 -254v158h162v-158l-123 -160h-53l82 160h-68z" />
    <glyph glyph-name="lcommaaccent" unicode="&#x13c;" horiz-adv-x="385" 
d="M244 1434v-1434h-103v1434h103zM111 -96h161v-158l-122 -160h-54l82 160h-67v158z" />
    <glyph glyph-name="Lcaron" unicode="&#x13d;" horiz-adv-x="997" 
d="M666 1006h-58l111 294h-84v164h166v-164zM272 109h699v-109h-811v1434h112v-1325z" />
    <glyph glyph-name="lcaron" unicode="&#x13e;" horiz-adv-x="520" 
d="M350 1464h166v-164l-135 -274h-57l96 274h-70v164zM141 0v1434h103v-1434h-103z" />
    <glyph glyph-name="Ldot" unicode="&#x13f;" horiz-adv-x="997" 
d="M272 1434v-1325h699v-109h-811v1434h112zM778 946v-182h-182v182h182z" />
    <glyph glyph-name="ldot" unicode="&#x140;" horiz-adv-x="532" 
d="M244 1434v-1434h-103v1434h103zM510 946v-182h-182v182h182z" />
    <glyph glyph-name="Lslash" unicode="&#x141;" horiz-adv-x="997" 
d="M272 109h699v-109h-811v610l-164 -84v82l164 84v742h112v-684l406 206v-82l-406 -206v-559z" />
    <glyph glyph-name="lslash" unicode="&#x142;" horiz-adv-x="487" 
d="M467 965v-82l-178 -95v-788h-105v735l-164 -84v82l164 86v615h105v-562z" />
    <glyph glyph-name="Nacute" unicode="&#x143;" horiz-adv-x="1411" 
d="M1020 1767l-254 -245h-92l194 245h152zM1251 1434v-1434h-123l-852 1243h-4v-1243h-112v1434h123l852 -1244h4v1244h112z" />
    <glyph glyph-name="nacute" unicode="&#x144;" horiz-adv-x="1101" 
d="M872 1448l-251 -315h-95l195 315h151zM606 977q170 0 269.5 -101t99.5 -305v-571h-105v563q0 156 -76 232.5t-206 76.5q-55 0 -103.5 -13.5t-94 -46t-77.5 -83t-51.5 -129t-19.5 -178.5v-422h-103v946h101v-215h4q96 246 362 246z" />
    <glyph glyph-name="Ncommaaccent" unicode="&#x145;" horiz-adv-x="1411" 
d="M1139 1434h112v-1434h-123l-852 1243h-4v-1243h-112v1434h123l852 -1244h4v1244zM623 -254v158h161v-158l-122 -160h-54l82 160h-67z" />
    <glyph glyph-name="ncommaaccent" unicode="&#x146;" horiz-adv-x="1101" 
d="M606 977q170 0 269.5 -101t99.5 -305v-571h-105v563q0 156 -76 232.5t-206 76.5q-55 0 -103.5 -13.5t-94 -46t-77.5 -83t-51.5 -129t-19.5 -178.5v-422h-103v946h101v-215h4q96 246 362 246zM498 -254v158h161v-158l-122 -160h-54l82 160h-67z" />
    <glyph glyph-name="Ncaron" unicode="&#x147;" horiz-adv-x="1411" 
d="M780 1522h-121l-253 245h129l184 -176l186 176h129zM1251 1434v-1434h-123l-852 1243h-4v-1243h-112v1434h123l852 -1244h4v1244h112z" />
    <glyph glyph-name="ncaron" unicode="&#x148;" horiz-adv-x="1101" 
d="M903 1434l-268 -316h-123l-268 316h123l206 -242l205 242h125zM606 977q170 0 269.5 -101t99.5 -305v-571h-105v563q0 156 -76 232.5t-206 76.5q-55 0 -103.5 -13.5t-94 -46t-77.5 -83t-51.5 -129t-19.5 -178.5v-422h-103v946h101v-215h4q96 246 362 246z" />
    <glyph glyph-name="napostrophe" unicode="&#x149;" horiz-adv-x="1138" 
d="M213 1464v-164l-135 -294h-58l111 294h-84v164h166zM641 977q172 0 271.5 -100.5t99.5 -305.5v-571h-105v563q0 156 -76 232.5t-206 76.5q-55 0 -103.5 -13.5t-94 -46t-77.5 -83t-51.5 -129t-19.5 -178.5v-422h-105v946h102v-215h5q47 121 139 183.5t221 62.5z" />
    <glyph glyph-name="Eng" unicode="&#x14a;" horiz-adv-x="1411" 
d="M1139 1434h112v-1581q0 -123 -59.5 -193t-175.5 -70h-90v109h82q131 0 131 156v145l-863 1243h-4v-1243h-112v1434h123l852 -1231h4v1231z" />
    <glyph glyph-name="eng" unicode="&#x14b;" horiz-adv-x="1101" 
d="M975 -164q0 -120 -56 -183t-169 -63h-101v99h94q129 0 129 147v164h-2v563q0 156 -76 232.5t-206 76.5q-55 0 -103.5 -13.5t-94 -46t-77.5 -83t-51.5 -129t-19.5 -178.5v-422h-103v946h101v-215h4q96 246 362 246q170 0 269.5 -101t99.5 -305v-735z" />
    <glyph glyph-name="Omacron" unicode="&#x14c;" horiz-adv-x="1654" 
d="M1108 1690v-88h-563v88h563zM827 1464q211 0 381.5 -94t268.5 -265.5t98 -387.5t-98 -387.5t-268.5 -266t-381.5 -94.5t-381.5 94.5t-268 266t-97.5 387.5q0 162 57 302t156.5 237t237.5 152.5t296 55.5zM827 1352q-180 0 -323 -81t-223 -226t-80 -328t80 -328t223 -226
t323 -81t323.5 81t223.5 226t80 328t-80 328t-223.5 226t-323.5 81z" />
    <glyph glyph-name="omacron" unicode="&#x14d;" horiz-adv-x="1153" 
d="M856 1337v-88h-563v88h563zM575 977q223 0 365.5 -141.5t142.5 -362.5t-142.5 -362.5t-365.5 -141.5q-221 0 -363 141.5t-142 362.5t142 362.5t363 141.5zM575 874q-170 0 -283.5 -111t-113.5 -290t113.5 -290t283.5 -111q172 0 286 111t114 290t-114 290t-286 111z" />
    <glyph glyph-name="Obreve" unicode="&#x14e;" horiz-adv-x="1654" 
d="M1106 1767q-1 -116 -78 -180.5t-201 -64.5t-200.5 64.5t-77.5 180.5h86q3 -78 53.5 -120.5t138.5 -42.5t139 42.5t54 120.5h86zM827 1464q211 0 381.5 -94t268.5 -265.5t98 -387.5t-98 -387.5t-268.5 -266t-381.5 -94.5t-381.5 94.5t-268 266t-97.5 387.5q0 162 57 302
t156.5 237t237.5 152.5t296 55.5zM827 1352q-180 0 -323 -81t-223 -226t-80 -328t80 -328t223 -226t323 -81t323.5 81t223.5 226t80 328t-80 328t-223.5 226t-323.5 81z" />
    <glyph glyph-name="obreve" unicode="&#x14f;" horiz-adv-x="1153" 
d="M854 1434q0 -134 -77.5 -210.5t-201.5 -76.5t-201 76.5t-77 210.5h86q3 -95 53.5 -149t138.5 -54t139 54t54 149h86zM575 977q223 0 365.5 -141.5t142.5 -362.5t-142.5 -362.5t-365.5 -141.5q-221 0 -363 141.5t-142 362.5t142 362.5t363 141.5zM575 874
q-170 0 -283.5 -111t-113.5 -290t113.5 -290t283.5 -111q172 0 286 111t114 290t-114 290t-286 111z" />
    <glyph glyph-name="Ohungarumlaut" unicode="&#x150;" horiz-adv-x="1654" 
d="M989 1767l-213 -245h-88l189 245h112zM1184 1767l-211 -245h-88l186 245h113zM827 1464q211 0 381.5 -94t268.5 -265.5t98 -387.5t-98 -387.5t-268.5 -266t-381.5 -94.5t-381.5 94.5t-268 266t-97.5 387.5q0 162 57 302t156.5 237t237.5 152.5t296 55.5zM827 1352
q-180 0 -323 -81t-223 -226t-80 -328t80 -328t223 -226t323 -81t323.5 81t223.5 226t80 328t-80 328t-223.5 226t-323.5 81z" />
    <glyph glyph-name="ohungarumlaut" unicode="&#x151;" horiz-adv-x="1153" 
d="M770 1448l-238 -315h-88l213 315h113zM969 1448l-236 -315h-90l213 315h113zM575 977q223 0 365.5 -141.5t142.5 -362.5t-142.5 -362.5t-365.5 -141.5q-221 0 -363 141.5t-142 362.5t142 362.5t363 141.5zM575 874q-170 0 -283.5 -111t-113.5 -290t113.5 -290t283.5 -111
q172 0 286 111t114 290t-114 290t-286 111z" />
    <glyph glyph-name="OE" unicode="&#x152;" horiz-adv-x="2340" 
d="M1554 106h687v-106h-799v285q-99 -149 -260.5 -232.5t-356.5 -83.5q-210 0 -380 94.5t-267.5 266t-97.5 387.5q0 162 57 302t156 237t237 152.5t295 55.5q195 0 356.5 -83.5t260.5 -231.5v285h784v-107h-672v-471h623v-106h-623v-644zM825 82q181 0 324.5 81.5t223 226.5
t79.5 327t-79.5 327t-223 226.5t-324.5 81.5q-179 0 -322 -80.5t-223.5 -225.5t-80.5 -329t80.5 -329t223.5 -225.5t322 -80.5z" />
    <glyph glyph-name="oe" unicode="&#x153;" horiz-adv-x="1964" 
d="M1442 977q94 0 170.5 -26.5t128.5 -71.5t87.5 -107.5t51.5 -133t16 -149.5v-24h-829q1 -181 106 -287t277 -106q56 0 105.5 12.5t82 29t66.5 46.5t51.5 50t44.5 54l78 -65q-32 -45 -65.5 -80t-85 -72t-122 -57.5t-155.5 -20.5q-153 0 -266.5 70t-167.5 197h-4
q-53 -125 -168 -196t-269 -71q-229 0 -367 140t-138 364t138 364t367 140q154 0 267.5 -70.5t169.5 -197.5h4q52 128 164 198t262 70zM1438 877q-96 0 -174 -36t-130.5 -111.5t-62.5 -180.5h711q-12 156 -100 242t-244 86zM573 874q-175 0 -285 -110.5t-110 -290.5
t110 -290.5t285 -110.5q174 0 285 110.5t111 290.5t-111 290.5t-285 110.5z" />
    <glyph glyph-name="Racute" unicode="&#x154;" horiz-adv-x="1153" 
d="M834 1767l-254 -245h-93l195 245h152zM967 0l-432 633h-263v-633h-112v1434h465q191 0 312.5 -104.5t121.5 -295.5q0 -180 -107.5 -283.5t-281.5 -115.5l438 -635h-141zM272 1327v-588h344q150 0 236 79t86 216t-85.5 215t-236.5 78h-344z" />
    <glyph glyph-name="racute" unicode="&#x155;" horiz-adv-x="628" 
d="M666 1448l-252 -315h-95l195 315h152zM592 975v-119h-29q-150 0 -235.5 -105t-85.5 -286v-465h-103v946h103v-217h4q25 108 109.5 177t203.5 69h33z" />
    <glyph glyph-name="Rcommaaccent" unicode="&#x156;" horiz-adv-x="1153" 
d="M670 635l438 -635h-141l-432 633h-263v-633h-112v1434h465q191 0 312.5 -104.5t121.5 -295.5q0 -180 -107.5 -283.5t-281.5 -115.5zM272 1327v-588h344q150 0 236 79t86 216t-85.5 215t-236.5 78h-344zM510 -254v158h162v-158l-123 -160h-53l82 160h-68z" />
    <glyph glyph-name="rcommaaccent" unicode="&#x157;" horiz-adv-x="628" 
d="M559 975h33v-119h-29q-150 0 -235.5 -105t-85.5 -286v-465h-103v946h103v-217h4q25 108 109.5 177t203.5 69zM109 -254v158h161v-158l-123 -160h-53l82 160h-67z" />
    <glyph glyph-name="Rcaron" unicode="&#x158;" horiz-adv-x="1153" 
d="M594 1522h-121l-254 245h129l184 -176l187 176h129zM967 0l-432 633h-263v-633h-112v1434h465q191 0 312.5 -104.5t121.5 -295.5q0 -180 -107.5 -283.5t-281.5 -115.5l438 -635h-141zM272 1327v-588h344q150 0 236 79t86 216t-85.5 215t-236.5 78h-344z" />
    <glyph glyph-name="rcaron" unicode="&#x159;" horiz-adv-x="628" 
d="M696 1434l-268 -316h-123l-268 316h123l207 -242l204 242h125zM592 975v-119h-29q-150 0 -235.5 -105t-85.5 -286v-465h-103v946h103v-217h4q25 108 109.5 177t203.5 69h33z" />
    <glyph glyph-name="Sacute" unicode="&#x15a;" horiz-adv-x="1011" 
d="M813 1767l-254 -245h-92l195 245h151zM518 1464q166 0 350 -86l-53 -108q-158 82 -295 82q-126 0 -193 -54.5t-67 -146.5q0 -35 11 -66.5t26 -54.5t43.5 -50t49.5 -43.5t59 -43.5l219 -156q63 -45 106 -84.5t79 -87.5t53.5 -103.5t17.5 -121.5q0 -179 -119 -275t-316 -96
q-117 0 -232.5 33.5t-209.5 95.5l57 105q189 -121 385 -121q156 0 236 71.5t80 180.5q0 83 -49.5 151t-163.5 150l-227 166q-53 38 -88 69t-69 73.5t-50.5 93.5t-16.5 112q0 145 98 230t279 85z" />
    <glyph glyph-name="sacute" unicode="&#x15b;" horiz-adv-x="837" 
d="M723 1448l-252 -315h-94l194 315h152zM442 -31q-111 0 -214 32t-181 89l53 90q160 -110 346 -110q113 0 169.5 43t56.5 110q0 57 -39.5 96t-114.5 74l-178 82q-211 95 -211 260q0 116 85.5 179t229.5 63q162 0 314 -76l-47 -94q-137 70 -267 70q-94 0 -149 -35.5
t-55 -102.5q0 -57 38 -95.5t119 -74.5l170 -77q102 -47 157.5 -108t55.5 -159q0 -125 -90.5 -190.5t-247.5 -65.5z" />
    <glyph glyph-name="Scircumflex" unicode="&#x15c;" horiz-adv-x="1011" 
d="M575 1767l254 -245h-129l-186 176l-184 -176h-129l254 245h120zM518 1464q166 0 350 -86l-53 -108q-158 82 -295 82q-126 0 -193 -54.5t-67 -146.5q0 -35 11 -66.5t26 -54.5t43.5 -50t49.5 -43.5t59 -43.5l219 -156q63 -45 106 -84.5t79 -87.5t53.5 -103.5t17.5 -121.5
q0 -179 -119 -275t-316 -96q-117 0 -232.5 33.5t-209.5 95.5l57 105q189 -121 385 -121q156 0 236 71.5t80 180.5q0 83 -49.5 151t-163.5 150l-227 166q-53 38 -88 69t-69 73.5t-50.5 93.5t-16.5 112q0 145 98 230t279 85z" />
    <glyph glyph-name="scircumflex" unicode="&#x15d;" horiz-adv-x="837" 
d="M483 1448l252 -315h-123l-190 241l-191 -241h-122l251 315h123zM442 -31q-111 0 -214 32t-181 89l53 90q160 -110 346 -110q113 0 169.5 43t56.5 110q0 57 -39.5 96t-114.5 74l-178 82q-211 95 -211 260q0 116 85.5 179t229.5 63q162 0 314 -76l-47 -94q-137 70 -267 70
q-94 0 -149 -35.5t-55 -102.5q0 -57 38 -95.5t119 -74.5l170 -77q102 -47 157.5 -108t55.5 -159q0 -125 -90.5 -190.5t-247.5 -65.5z" />
    <glyph glyph-name="Scedilla" unicode="&#x15e;" horiz-adv-x="1011" 
d="M924 340q0 -169 -107.5 -264.5t-286.5 -104.5l-24 -63q25 -7 41 -12.5t38 -17t34.5 -25t22 -36t9.5 -50.5q0 -27 -14 -52t-32.5 -42.5t-55.5 -38.5t-64 -33.5t-77 -34.5l-21 43q94 45 135 75.5t41 65.5q0 36 -29.5 54t-109.5 36l49 129q-112 3 -223.5 36.5t-202.5 92.5
l57 105q189 -121 385 -121q156 0 236 71.5t80 180.5q0 83 -49.5 151t-163.5 150l-227 166q-53 38 -88 69t-69 73.5t-50.5 93.5t-16.5 112q0 145 98 230t279 85q166 0 350 -86l-53 -108q-158 82 -295 82q-126 0 -193 -54.5t-67 -146.5q0 -35 11 -66.5t26 -54.5t43.5 -50
t49.5 -43.5t59 -43.5l219 -156q63 -45 106 -84.5t79 -87.5t53.5 -103.5t17.5 -121.5z" />
    <glyph glyph-name="scedilla" unicode="&#x15f;" horiz-adv-x="837" 
d="M780 225q0 -123 -88.5 -188.5t-242.5 -67.5l-25 -61q25 -7 41 -12.5t38 -17t34.5 -25t22 -36t9.5 -50.5q0 -27 -14 -52t-32.5 -42.5t-55.5 -38.5t-64 -33.5t-77 -34.5l-21 43q94 45 135 75.5t41 65.5q0 36 -29.5 54t-109.5 36l49 131q-199 15 -344 119l53 90
q160 -110 346 -110q113 0 169.5 43t56.5 110q0 57 -39.5 96t-114.5 74l-178 82q-211 95 -211 260q0 116 85.5 179t229.5 63q162 0 314 -76l-47 -94q-137 70 -267 70q-94 0 -149 -35.5t-55 -102.5q0 -57 38 -95.5t119 -74.5l170 -77q102 -47 157.5 -108t55.5 -159z" />
    <glyph glyph-name="Scaron" unicode="&#x160;" horiz-adv-x="1011" 
d="M575 1522h-120l-254 245h129l184 -176l186 176h129zM518 1464q166 0 350 -86l-53 -108q-158 82 -295 82q-126 0 -193 -54.5t-67 -146.5q0 -35 11 -66.5t26 -54.5t43.5 -50t49.5 -43.5t59 -43.5l219 -156q63 -45 106 -84.5t79 -87.5t53.5 -103.5t17.5 -121.5
q0 -179 -119 -275t-316 -96q-117 0 -232.5 33.5t-209.5 95.5l57 105q189 -121 385 -121q156 0 236 71.5t80 180.5q0 83 -49.5 151t-163.5 150l-227 166q-53 38 -88 69t-69 73.5t-50.5 93.5t-16.5 112q0 145 98 230t279 85z" />
    <glyph glyph-name="scaron" unicode="&#x161;" horiz-adv-x="837" 
d="M752 1434l-269 -316h-123l-268 316h123l207 -242l205 242h125zM442 -31q-111 0 -214 32t-181 89l53 90q160 -110 346 -110q113 0 169.5 43t56.5 110q0 57 -39.5 96t-114.5 74l-178 82q-211 95 -211 260q0 116 85.5 179t229.5 63q162 0 314 -76l-47 -94q-137 70 -267 70
q-94 0 -149 -35.5t-55 -102.5q0 -57 38 -95.5t119 -74.5l170 -77q102 -47 157.5 -108t55.5 -159q0 -125 -90.5 -190.5t-247.5 -65.5z" />
    <glyph glyph-name="uni0162" unicode="&#x162;" horiz-adv-x="1048" 
d="M580 0h-17l-35 -92q32 -9 52 -16.5t44.5 -23t37 -41t12.5 -60.5q0 -27 -14 -52t-32.5 -42.5t-56.5 -38.5t-64 -33.5t-77 -34.5l-20 43q94 45 135 75.5t41 65.5q0 36 -30 54t-110 36l60 160h-39v1327h-447v107h1008v-107h-448v-1327z" />
    <glyph glyph-name="uni0163" unicode="&#x163;" horiz-adv-x="622" 
d="M567 854h-223v-610q0 -72 35 -110t100 -38h51v-100h-65h-10l-35 -92q31 -9 51.5 -17t44.5 -23.5t36.5 -41t12.5 -60.5q0 -27 -14 -52t-32 -42t-56 -38.5t-64 -33.5t-77 -34l-21 43q94 45 135 75.5t41 65.5q0 36 -29.5 54t-109.5 36l63 166q-159 37 -159 221v631h-195v92
h195v379h102v-379h223v-92z" />
    <glyph glyph-name="Tcaron" unicode="&#x164;" horiz-adv-x="1048" 
d="M584 1522h-121l-254 245h129l184 -176l187 176h129zM1028 1434v-107h-448v-1327h-113v1327h-447v107h1008z" />
    <glyph glyph-name="tcaron" unicode="&#x165;" horiz-adv-x="731" 
d="M514 1464h164v-164l-133 -274h-60l97 274h-68v164zM344 1325v-379h223v-92h-223v-610q0 -72 35 -110t100 -38h51v-100h-65q-103 0 -163 58t-60 169v631h-195v92h195v379h102z" />
    <glyph glyph-name="Tbar" unicode="&#x166;" horiz-adv-x="1048" 
d="M1028 1327h-448v-381h305v-96h-305v-850h-113v850h-287v96h287v381h-447v107h1008v-107z" />
    <glyph glyph-name="tbar" unicode="&#x167;" horiz-adv-x="620" 
d="M567 854h-223v-203h219v-80h-219v-327q0 -72 35 -110t100 -38h51v-100h-65q-103 0 -163 58t-60 169v348h-193v80h193v203h-195v92h195v379h102v-379h223v-92z" />
    <glyph glyph-name="Utilde" unicode="&#x168;" horiz-adv-x="1421" 
d="M883 1538q-48 0 -112 29t-123 58.5t-93 29.5q-67 0 -111 -96l-59 20q61 172 184 172q48 0 112.5 -30t123.5 -59.5t92 -29.5q67 0 111 97l59 -21q-60 -170 -184 -170zM1268 1434v-908q0 -253 -146 -405t-411 -152q-264 0 -410.5 152t-146.5 405v908h120v-891
q0 -216 118 -336.5t319 -120.5q202 0 319 120.5t117 336.5v891h121z" />
    <glyph glyph-name="utilde" unicode="&#x169;" horiz-adv-x="1077" 
d="M387 1419q48 0 111 -30.5t120.5 -60.5t90.5 -30q67 0 108 97l62 -21q-54 -172 -183 -172q-48 0 -111 30t-120.5 59.5t-91.5 29.5q-65 0 -109 -96l-61 20q59 174 184 174zM483 -31q-161 0 -257.5 100t-96.5 308v569h104v-571q0 -155 74 -229t197 -74q70 0 127 24t104.5 76
t74 145.5t26.5 221.5v407h102v-946h-100v203h-4q-40 -102 -126.5 -168t-224.5 -66z" />
    <glyph glyph-name="Umacron" unicode="&#x16a;" horiz-adv-x="1421" 
d="M991 1690v-88h-563v88h563zM1268 1434v-908q0 -253 -146 -405t-411 -152q-264 0 -410.5 152t-146.5 405v908h120v-891q0 -216 118 -336.5t319 -120.5q202 0 319 120.5t117 336.5v891h121z" />
    <glyph glyph-name="umacron" unicode="&#x16b;" horiz-adv-x="1077" 
d="M815 1337v-88h-563v88h563zM483 -31q-161 0 -257.5 100t-96.5 308v569h104v-571q0 -155 74 -229t197 -74q70 0 127 24t104.5 76t74 145.5t26.5 221.5v407h102v-946h-100v203h-4q-40 -102 -126.5 -168t-224.5 -66z" />
    <glyph glyph-name="Ubreve" unicode="&#x16c;" horiz-adv-x="1421" 
d="M989 1767q-1 -116 -77.5 -180.5t-200.5 -64.5t-201 64.5t-78 180.5h86q3 -78 54 -120.5t139 -42.5t138.5 42.5t53.5 120.5h86zM1268 1434v-908q0 -253 -146 -405t-411 -152q-264 0 -410.5 152t-146.5 405v908h120v-891q0 -216 118 -336.5t319 -120.5q202 0 319 120.5
t117 336.5v891h121z" />
    <glyph glyph-name="ubreve" unicode="&#x16d;" horiz-adv-x="1077" 
d="M813 1434q0 -134 -77 -210.5t-201 -76.5t-201.5 76.5t-77.5 210.5h86q3 -95 54 -149t139 -54t138.5 54t53.5 149h86zM483 -31q-161 0 -257.5 100t-96.5 308v569h104v-571q0 -155 74 -229t197 -74q70 0 127 24t104.5 76t74 145.5t26.5 221.5v407h102v-946h-100v203h-4
q-40 -102 -126.5 -168t-224.5 -66z" />
    <glyph glyph-name="Uring" unicode="&#x16e;" horiz-adv-x="1421" 
d="M711 1831q101 0 167 -66.5t66 -167.5q0 -100 -66 -164.5t-167 -64.5q-103 0 -169.5 64.5t-66.5 164.5q0 101 66.5 167.5t169.5 66.5zM709 1763q-72 0 -118 -46.5t-46 -119.5q0 -71 46 -117t118 -46q73 0 119 46t46 117q0 74 -46 120t-119 46zM1268 1434v-908
q0 -253 -146 -405t-411 -152q-264 0 -410.5 152t-146.5 405v908h120v-891q0 -216 118 -336.5t319 -120.5q202 0 319 120.5t117 336.5v891h121z" />
    <glyph glyph-name="uring" unicode="&#x16f;" horiz-adv-x="1077" 
d="M535 1530q106 0 174.5 -68t68.5 -172t-68.5 -171.5t-174.5 -67.5t-175 67.5t-69 171.5t69 172t175 68zM535 1464q-79 0 -127 -48t-48 -126t48 -126t127 -48t126.5 48t47.5 126t-47.5 126t-126.5 48zM483 -31q-161 0 -257.5 100t-96.5 308v569h104v-571q0 -155 74 -229
t197 -74q70 0 127 24t104.5 76t74 145.5t26.5 221.5v407h102v-946h-100v203h-4q-40 -102 -126.5 -168t-224.5 -66z" />
    <glyph glyph-name="Uhungarumlaut" unicode="&#x170;" horiz-adv-x="1421" 
d="M872 1767l-213 -245h-88l189 245h112zM1067 1767l-211 -245h-88l186 245h113zM1268 1434v-908q0 -253 -146 -405t-411 -152q-264 0 -410.5 152t-146.5 405v908h120v-891q0 -216 118 -336.5t319 -120.5q202 0 319 120.5t117 336.5v891h121z" />
    <glyph glyph-name="uhungarumlaut" unicode="&#x171;" horiz-adv-x="1077" 
d="M727 1448l-238 -315h-88l213 315h113zM926 1448l-236 -315h-90l213 315h113zM483 -31q-161 0 -257.5 100t-96.5 308v569h104v-571q0 -155 74 -229t197 -74q70 0 127 24t104.5 76t74 145.5t26.5 221.5v407h102v-946h-100v203h-4q-40 -102 -126.5 -168t-224.5 -66z" />
    <glyph glyph-name="Uogonek" unicode="&#x172;" horiz-adv-x="1421" 
d="M1147 1434h121v-908q0 -241 -133 -391.5t-375 -163.5q-144 -119 -144 -200q0 -37 28.5 -53.5t70.5 -16.5q46 0 100 14l8 -80q-67 -18 -123 -18q-75 0 -126.5 34.5t-51.5 102.5q0 105 133 217q-239 17 -370 167t-131 388v908h120v-891q0 -216 118 -336.5t319 -120.5
q202 0 319 120.5t117 336.5v891z" />
    <glyph glyph-name="uogonek" unicode="&#x173;" horiz-adv-x="1077" 
d="M885 0q-180 -136 -180 -229q0 -37 28 -53.5t70 -16.5q46 0 100 14l8 -80q-67 -18 -123 -18q-75 0 -126.5 34.5t-51.5 102.5q0 139 228 287v162h-4q-40 -102 -126.5 -168t-224.5 -66q-161 0 -257.5 100t-96.5 308v569h104v-571q0 -155 74 -229t197 -74q70 0 127 24
t104.5 76t74 145.5t26.5 221.5v407h102v-946h-53z" />
    <glyph glyph-name="Wcircumflex" unicode="&#x174;" horiz-adv-x="1972" 
d="M1047 1767l253 -245h-129l-186 176l-184 -176h-129l254 245h121zM1942 1434l-439 -1434h-114l-400 1249h-6l-399 -1249h-115l-438 1434h127l364 -1252h4l398 1252h125l397 -1252h4l362 1252h130z" />
    <glyph glyph-name="wcircumflex" unicode="&#x175;" horiz-adv-x="1468" 
d="M733 1374l-190 -241h-123l252 315h123l252 -315h-123zM1335 946h115l-322 -946h-102l-291 815l-293 -815h-102l-322 946h115l258 -817l287 817h115l284 -817z" />
    <glyph glyph-name="Ycircumflex" unicode="&#x176;" horiz-adv-x="1079" 
d="M539 1698l-185 -176h-129l254 245h121l254 -245h-129zM1063 1434l-467 -883v-551h-113v551l-467 883h134l387 -758h6l387 758h133z" />
    <glyph glyph-name="ycircumflex" unicode="&#x177;" horiz-adv-x="927" 
d="M467 1374l-191 -241h-122l252 315h122l252 -315h-123zM793 946h116l-641 -1356h-112l252 519l-390 837h121l322 -725z" />
    <glyph glyph-name="Ydieresis" unicode="&#x178;" horiz-adv-x="1079" 
d="M412 1720v-198h-133v198h133zM801 1720v-198h-133v198h133zM1063 1434l-467 -883v-551h-113v551l-467 883h134l387 -758h6l387 758h133z" />
    <glyph glyph-name="Zacute" unicode="&#x179;" horiz-adv-x="1093" 
d="M881 1767l-254 -245h-92l194 245h152zM170 106h883v-106h-1012v106l860 1221h-782v107h915v-107z" />
    <glyph glyph-name="zacute" unicode="&#x17a;" horiz-adv-x="909" 
d="M782 1448l-252 -315h-94l195 315h151zM188 100h664v-100h-793v94l619 754h-578v98h709v-92z" />
    <glyph glyph-name="Zdotaccent" unicode="&#x17b;" horiz-adv-x="1093" 
d="M647 1745v-223h-133v223h133zM170 106h883v-106h-1012v106l860 1221h-782v107h915v-107z" />
    <glyph glyph-name="zdotaccent" unicode="&#x17c;" horiz-adv-x="909" 
d="M553 1413v-246h-139v246h139zM188 100h664v-100h-793v94l619 754h-578v98h709v-92z" />
    <glyph glyph-name="Zcaron" unicode="&#x17d;" horiz-adv-x="1093" 
d="M641 1522h-121l-254 245h129l185 -176l186 176h129zM170 106h883v-106h-1012v106l860 1221h-782v107h915v-107z" />
    <glyph glyph-name="zcaron" unicode="&#x17e;" horiz-adv-x="909" 
d="M545 1118h-123l-268 316h122l207 -242l205 242h125zM188 100h664v-100h-793v94l619 754h-578v98h709v-92z" />
    <glyph glyph-name="florin" unicode="&#x192;" horiz-adv-x="788" 
d="M655 1286q-217 0 -217 -256v-84h305v-61h-305v-957q0 -338 -311 -338h-86v101h88q207 0 207 227v967h-256v61h256v78q0 182 81.5 270t233.5 88h92v-96h-88z" />
    <glyph glyph-name="AEacute" unicode="&#x1fc;" horiz-adv-x="1888" 
d="M1677 1767l-254 -245h-92l195 245h151zM1171 106h617v-106h-686h-41v403h-625l-274 -403h-144l988 1434h165h607v-107h-607v-471h553v-106h-553v-644zM508 510h553v809z" />
    <glyph glyph-name="aeacute" unicode="&#x1fd;" horiz-adv-x="1810" 
d="M1198 1448l-252 -315h-94l195 315h151zM436 -31q-174 0 -283.5 93t-109.5 251q0 152 106.5 247t282.5 95q121 0 215.5 -48t143.5 -144h4v129q0 144 -79.5 215.5t-228.5 71.5q-129 0 -313 -48l-24 103q174 43 339 43q319 0 379 -250h4q53 117 162.5 183.5t253.5 66.5
q111 0 200 -41t143.5 -110.5t83 -156.5t28.5 -184v-22h-828q2 -174 107 -282.5t276 -108.5q65 0 121 16.5t99 48t71 59.5t60 68l75 -65q-161 -230 -424 -230q-160 0 -277 78t-167 211h-4q-41 -136 -151.5 -212.5t-264.5 -76.5zM920 549h708q-12 152 -103 240t-243 88
q-145 0 -245 -86t-117 -242zM451 66q144 0 230.5 71.5t86.5 175.5q0 112 -92.5 179t-226.5 67q-136 0 -215.5 -69.5t-79.5 -180.5t80 -177t217 -66z" />
    <glyph glyph-name="Oslashacute" unicode="&#x1fe;" horiz-adv-x="1654" 
d="M1126 1767l-254 -245h-92l195 245h151zM1292 1315q133 -102 208 -256t75 -342q0 -216 -98 -387.5t-268.5 -266t-381.5 -94.5q-231 0 -413 115l-80 -113l-53 33l81 115q-133 102 -207.5 256t-74.5 342q0 162 57 302t156.5 237t237.5 152.5t296 55.5q234 0 414 -114l80 112
l53 -32zM201 717q0 -158 60 -288t169 -216l744 1042q-153 97 -347 97q-180 0 -323 -81t-223 -226t-80 -328zM827 82q180 0 323.5 81t223.5 226t80 328q0 158 -60 288t-169 214l-744 -1041q151 -96 346 -96z" />
    <glyph glyph-name="oslashacute" unicode="&#x1ff;" horiz-adv-x="1153" 
d="M885 1448l-252 -315h-94l194 315h152zM938 838q145 -139 145 -365q0 -221 -142.5 -362.5t-365.5 -141.5q-175 0 -309 94l-80 -92l-47 39l80 92q-149 143 -149 371q0 221 142 362.5t363 141.5q182 0 316 -98l84 98l47 -41zM178 473q0 -176 113 -289l528 615
q-101 75 -244 75q-170 0 -283.5 -111t-113.5 -290zM575 72q172 0 286 111t114 290q0 171 -109 283l-528 -611q103 -73 237 -73z" />
    <glyph glyph-name="Scommaaccent" unicode="&#x218;" horiz-adv-x="1011" 
d="M668 737q63 -45 106 -84.5t79 -87.5t53.5 -103.5t17.5 -121.5q0 -179 -119 -275t-316 -96q-117 0 -232.5 33.5t-209.5 95.5l57 105q189 -121 385 -121q156 0 236 71.5t80 180.5q0 83 -49.5 151t-163.5 150l-227 166q-53 38 -88 69t-69 73.5t-50.5 93.5t-16.5 112
q0 145 98 230t279 85q166 0 350 -86l-53 -108q-158 82 -295 82q-126 0 -193 -54.5t-67 -146.5q0 -35 11 -66.5t26 -54.5t43.5 -50t49.5 -43.5t59 -43.5zM420 -254v158h162v-158l-123 -160h-53l81 160h-67z" />
    <glyph glyph-name="scommaaccent" unicode="&#x219;" horiz-adv-x="837" 
d="M567 492q102 -47 157.5 -108t55.5 -159q0 -125 -90.5 -190.5t-247.5 -65.5q-111 0 -214 32t-181 89l53 90q160 -110 346 -110q113 0 169.5 43t56.5 110q0 57 -39.5 96t-114.5 74l-178 82q-211 95 -211 260q0 116 85.5 179t229.5 63q162 0 314 -76l-47 -94
q-137 70 -267 70q-94 0 -149 -35.5t-55 -102.5q0 -57 38 -95.5t119 -74.5zM336 -254v158h162v-158l-123 -160h-53l81 160h-67z" />
    <glyph glyph-name="uni021A" unicode="&#x21a;" horiz-adv-x="1048" 
d="M20 1434h1008v-107h-448v-1327h-113v1327h-447v107zM442 -254v158h162v-158l-123 -160h-53l82 160h-68z" />
    <glyph glyph-name="uni021B" unicode="&#x21b;" horiz-adv-x="622" 
d="M567 854h-223v-610q0 -72 35 -110t100 -38h51v-100h-65q-103 0 -163 58t-60 169v631h-195v92h195v379h102v-379h223v-92zM332 -258v158h162v-158l-123 -160h-54l82 160h-67z" />
    <glyph glyph-name="uni0237" unicode="&#x237;" horiz-adv-x="370" 
d="M-82 -322h55q82 0 121 50t39 159v1059h105v-1063q0 -301 -258 -301h-62v96z" />
    <glyph glyph-name="uni02BC" unicode="&#x2bc;" horiz-adv-x="325" 
d="M98 1464h166v-164l-135 -294h-57l110 294h-84v164z" />
    <glyph glyph-name="circumflex" unicode="&#x2c6;" horiz-adv-x="831" 
d="M477 1448l252 -315h-123l-190 241l-191 -241h-123l252 315h123z" />
    <glyph glyph-name="caron" unicode="&#x2c7;" horiz-adv-x="864" 
d="M762 1434l-268 -316h-123l-269 316h123l207 -242l205 242h125z" />
    <glyph glyph-name="breve" unicode="&#x2d8;" horiz-adv-x="761" 
d="M659 1434q0 -134 -77 -210.5t-201 -76.5t-201.5 76.5t-77.5 210.5h86q3 -95 54 -149t139 -54t138.5 54t53.5 149h86z" />
    <glyph glyph-name="dotaccent" unicode="&#x2d9;" horiz-adv-x="344" 
d="M242 1413v-246h-140v246h140z" />
    <glyph glyph-name="ring" unicode="&#x2da;" horiz-adv-x="692" 
d="M346 1530q106 0 175 -68t69 -172t-69 -171.5t-175 -67.5t-175 67.5t-69 171.5t69 172t175 68zM346 1464q-79 0 -126.5 -48t-47.5 -126t47.5 -126t126.5 -48t126.5 48t47.5 126t-47.5 126t-126.5 48z" />
    <glyph glyph-name="ogonek" unicode="&#x2db;" horiz-adv-x="516" 
d="M346 53l64 -28q-213 -156 -213 -254q0 -37 28 -53.5t70 -16.5q46 0 100 14l8 -80q-67 -18 -122 -18q-75 0 -127 34.5t-52 102.5q0 141 244 299z" />
    <glyph glyph-name="tilde" unicode="&#x2dc;" horiz-adv-x="880" 
d="M287 1419q48 0 111 -30.5t120 -60.5t90 -30q68 0 109 97l61 -21q-54 -172 -182 -172q-48 0 -111 30t-121 59.5t-92 29.5q-64 0 -108 -96l-62 20q59 174 185 174z" />
    <glyph glyph-name="hungarumlaut" unicode="&#x2dd;" horiz-adv-x="729" 
d="M428 1448l-238 -315h-88l213 315h113zM627 1448l-236 -315h-90l213 315h113z" />
    <glyph glyph-name="gravecomb" unicode="&#x300;" horiz-adv-x="0" 
d="M-297 1448l195 -315h-93l-254 315h152z" />
    <glyph glyph-name="acutecomb" unicode="&#x301;" horiz-adv-x="0" 
d="M-102 1448l-252 -315h-95l195 315h152z" />
    <glyph glyph-name="uni0302" unicode="&#x302;" horiz-adv-x="0" 
d="M-354 1448l252 -315h-123l-191 241l-190 -241h-123l252 315h123z" />
    <glyph glyph-name="tildecomb" unicode="&#x303;" horiz-adv-x="0" 
d="M-594 1419q48 0 111 -30.5t120.5 -60.5t90.5 -30q67 0 108 97l62 -21q-54 -172 -183 -172q-48 0 -111 30t-120.5 59.5t-91.5 29.5q-65 0 -109 -96l-61 20q59 174 184 174z" />
    <glyph glyph-name="uni0304" unicode="&#x304;" horiz-adv-x="0" 
d="M-102 1337v-88h-564v88h564z" />
    <glyph glyph-name="uni0306" unicode="&#x306;" horiz-adv-x="0" 
d="M-102 1434q0 -134 -77.5 -210.5t-201.5 -76.5t-201 76.5t-77 210.5h86q3 -95 53.5 -149t138.5 -54t139 54t54 149h86z" />
    <glyph glyph-name="uni0307" unicode="&#x307;" horiz-adv-x="0" 
d="M-102 1413v-246h-140v246h140z" />
    <glyph glyph-name="uni0308" unicode="&#x308;" horiz-adv-x="0" 
d="M-481 1413v-229h-129v229h129zM-102 1413v-229h-129v229h129z" />
    <glyph glyph-name="uni030A" unicode="&#x30a;" horiz-adv-x="0" 
d="M-346 1530q106 0 175 -68t69 -172t-69 -171.5t-175 -67.5t-175 67.5t-69 171.5t69 172t175 68zM-346 1464q-79 0 -126.5 -48t-47.5 -126t47.5 -126t126.5 -48t126.5 48t47.5 126t-47.5 126t-126.5 48z" />
    <glyph glyph-name="uni030B" unicode="&#x30b;" horiz-adv-x="0" 
d="M-301 1448l-238 -315h-88l213 315h113zM-102 1448l-236 -315h-90l213 315h113z" />
    <glyph glyph-name="uni030C" unicode="&#x30c;" horiz-adv-x="0" 
d="M-102 1434l-269 -316h-123l-268 316h123l207 -242l205 242h125z" />
    <glyph glyph-name="uni0326" unicode="&#x326;" horiz-adv-x="0" 
d="M-264 -96h162v-158l-123 -160h-54l84 160h-69v158z" />
    <glyph glyph-name="uni0327" unicode="&#x327;" horiz-adv-x="0" 
d="M-203 25l-45 -117q32 -9 52 -16.5t44.5 -23t37 -41t12.5 -60.5q0 -27 -14 -52t-32.5 -42.5t-56.5 -38.5t-64 -33.5t-77 -34.5l-21 43q95 45 136 76t41 65q0 36 -30 54t-110 36l70 185h57z" />
    <glyph glyph-name="uni0328" unicode="&#x328;" horiz-adv-x="0" 
d="M-170 53l64 -28q-213 -156 -213 -254q0 -37 28 -53.5t70 -16.5q46 0 100 14l8 -80q-67 -18 -123 -18q-75 0 -126.5 34.5t-51.5 102.5q0 141 244 299z" />
    <glyph glyph-name="uni0394" unicode="&#x394;" horiz-adv-x="1286" 
d="M698 1434l547 -1434h-1204l547 1434h110zM643 1313l-463 -1260h926z" />
    <glyph glyph-name="uni03A9" unicode="&#x3a9;" horiz-adv-x="1615" 
d="M807 1464q166 0 303 -52t230.5 -144.5t144.5 -221.5t51 -280q0 -258 -151 -432t-398 -228v-6h504v-100h-602v162q249 41 395 203.5t146 394.5q0 173 -73.5 309.5t-216.5 215.5t-333 79q-189 0 -331.5 -79t-216 -215.5t-73.5 -309.5q0 -231 145.5 -394t393.5 -204v-162
h-602v100h506v6q-248 54 -398.5 227.5t-150.5 432.5q0 202 88 360t254 248t385 90z" />
    <glyph glyph-name="uni03BC" unicode="&#x3bc;" horiz-adv-x="1077" 
d="M836 946h102v-946h-100v203h-4q-40 -102 -126.5 -168t-224.5 -66q-166 0 -260 103v-482h-94v1010v346h104v-571q0 -155 74 -229t197 -74q70 0 127 24t104.5 76t74 145.5t26.5 221.5v407z" />
    <glyph glyph-name="pi" unicode="&#x3c0;" horiz-adv-x="1234" 
d="M1174 977v-100h-232v-877h-100v877h-373l-201 -877h-102l201 877h-11q-171 0 -295 -41v100q118 41 283 41h830z" />
    <glyph glyph-name="uni0401" unicode="&#x401;" horiz-adv-x="1056" 
d="M461 1720v-198h-133v198h133zM850 1720v-198h-133v198h133zM272 106h684v-106h-796v1434h786v-107h-674v-471h621v-106h-621v-644z" />
    <glyph glyph-name="uni0402" unicode="&#x402;" horiz-adv-x="1398" 
d="M948 825q98 0 167.5 -14.5t124.5 -50t82.5 -99.5t27.5 -159v-135q0 -185 -84.5 -276t-280.5 -91h-162v106h154q146 0 203 61.5t57 201.5v131q0 67 -20 111t-61 67t-92 32t-124 9q-144 0 -418 -23v-696h-112v1327h-390v107h1078v-107h-576v-524q293 22 426 22z" />
    <glyph glyph-name="uni0403" unicode="&#x403;" horiz-adv-x="980" 
d="M864 1767l-254 -245h-92l195 245h151zM961 1434v-107h-689v-1327h-112v1434h801z" />
    <glyph glyph-name="uni0404" unicode="&#x404;" horiz-adv-x="1404" 
d="M797 82q256 0 479 151l61 -98q-244 -166 -540 -166q-325 0 -521 201t-196 547t196 546.5t521 200.5q296 0 540 -166l-61 -98q-224 152 -479 152q-252 0 -412 -150t-182 -411h739v-107h-741q10 -279 172 -440.5t424 -161.5z" />
    <glyph glyph-name="uni0405" unicode="&#x405;" horiz-adv-x="1011" 
d="M518 1464q166 0 350 -86l-53 -108q-158 82 -295 82q-126 0 -193 -54.5t-67 -146.5q0 -35 11 -66.5t26 -54.5t43.5 -50t49.5 -43.5t59 -43.5l219 -156q63 -45 106 -84.5t79 -87.5t53.5 -103.5t17.5 -121.5q0 -179 -119 -275t-316 -96q-117 0 -232.5 33.5t-209.5 95.5
l57 105q189 -121 385 -121q156 0 236 71.5t80 180.5q0 83 -49.5 151t-163.5 150l-227 166q-53 38 -88 69t-69 73.5t-50.5 93.5t-16.5 112q0 145 98 230t279 85z" />
    <glyph glyph-name="uni0406" unicode="&#x406;" horiz-adv-x="432" 
d="M272 1434v-1434h-112v1434h112z" />
    <glyph glyph-name="uni0407" unicode="&#x407;" horiz-adv-x="432" 
d="M88 1720v-198h-133v198h133zM477 1720v-198h-133v198h133zM272 1434v-1434h-112v1434h112z" />
    <glyph glyph-name="uni0408" unicode="&#x408;" horiz-adv-x="546" 
d="M387 1434v-1104q0 -176 -69.5 -258t-221.5 -82h-57v110h49q95 0 140.5 51.5t45.5 178.5v1104h113z" />
    <glyph glyph-name="uni0409" unicode="&#x409;" horiz-adv-x="2144" 
d="M1665 811q200 0 319 -109t119 -296t-119 -296.5t-319 -109.5h-475v1327h-768v-997q0 -175 -70.5 -257.5t-222.5 -82.5h-90v110h82q95 0 141.5 51.5t46.5 178.5v1104h994v-623h362zM1645 106q165 0 251 81t86 219t-85.5 218.5t-251.5 80.5h-342v-599h342z" />
    <glyph glyph-name="uni040A" unicode="&#x40a;" horiz-adv-x="2072" 
d="M1593 811q199 0 319 -109.5t120 -295.5t-120 -296t-319 -110h-477v705h-844v-705h-112v1434h112v-623h844v623h113v-623h364zM1573 106q164 0 251 81t87 219q0 137 -86.5 218t-251.5 81h-344v-599h344z" />
    <glyph glyph-name="uni040B" unicode="&#x40b;" horiz-adv-x="1398" 
d="M1008 805q176 0 259 -76.5t83 -236.5v-492h-113v492q0 111 -58.5 158.5t-183.5 47.5h-473v-698h-112v1327h-390v107h502h576v-107h-576v-522h486z" />
    <glyph glyph-name="uni040C" unicode="&#x40c;" horiz-adv-x="1191" 
d="M881 1767l-254 -245h-92l194 245h152zM1174 0h-173l-731 745v-745h-110v1434h110v-656l652 656h163l-679 -668z" />
    <glyph glyph-name="uni040E" unicode="&#x40e;" horiz-adv-x="1220" 
d="M616 1497q-125 0 -201.5 71.5t-76.5 198.5h86q1 -91 52 -140.5t140 -49.5q90 0 141 50t52 140h86q0 -127 -76.5 -198.5t-202.5 -71.5zM1081 1434h125l-688 -1434h-123l174 367l-553 1067h134l481 -942z" />
    <glyph glyph-name="uni040F" unicode="&#x40f;" horiz-adv-x="1404" 
d="M1245 1434v-1434h-487v-287h-111v287h-487v1434h112v-1328h861v1328h112z" />
    <glyph glyph-name="uni0410" unicode="&#x410;" horiz-adv-x="1316" 
d="M1178 0l-162 403h-715l-162 -403h-121l584 1434h113l583 -1434h-120zM344 510h629l-316 780z" />
    <glyph glyph-name="uni0411" unicode="&#x411;" horiz-adv-x="1163" 
d="M655 811q200 0 319.5 -109t119.5 -296t-119.5 -296.5t-319.5 -109.5h-495v1434h112h762v-107h-762v-516h383zM635 106q167 0 253.5 81t86.5 219t-86.5 218.5t-253.5 80.5h-363v-599h363z" />
    <glyph glyph-name="uni0412" unicode="&#x412;" horiz-adv-x="1241" 
d="M821 764q153 -19 241.5 -115.5t88.5 -249.5q0 -127 -64 -219.5t-166 -136t-229 -43.5h-532v1434h475q197 0 311.5 -94t114.5 -261q0 -119 -63.5 -202t-176.5 -109v-4zM610 1327h-338v-522h336q330 0 330 256q0 266 -328 266zM678 106q162 0 257 82.5t95 219.5
q0 134 -96.5 213t-269.5 79h-392v-594h406z" />
    <glyph glyph-name="uni0413" unicode="&#x413;" horiz-adv-x="980" 
d="M961 1434v-107h-689v-1327h-112v1434h801z" />
    <glyph glyph-name="uni0414" unicode="&#x414;" horiz-adv-x="1353" 
d="M1151 100h127v-387h-109v279h-1026v-279h-110v387h135q81 183 108 353t27 411v570h848v-1334zM416 866q0 -242 -25.5 -413t-101.5 -353h749v1227h-622v-461z" />
    <glyph glyph-name="uni0415" unicode="&#x415;" horiz-adv-x="1056" 
d="M272 106h684v-106h-796v1434h786v-107h-674v-471h621v-106h-621v-644z" />
    <glyph glyph-name="uni0416" unicode="&#x416;" horiz-adv-x="1767" 
d="M1749 0h-158l-653 739v-739h-109v739l-653 -739h-158l687 758l-596 676h155l565 -662v662h109v-662l567 662h154l-596 -676z" />
    <glyph glyph-name="uni0417" unicode="&#x417;" horiz-adv-x="1202" 
d="M594 1464q229 0 345 -93t116 -259q0 -270 -324 -342v-2q79 -6 144 -29.5t120 -67.5t86 -118t31 -172q0 -192 -132 -302t-398 -110q-285 0 -514 137l55 103q218 -129 461 -129q193 0 302 73t109 230q0 174 -126 249t-382 75h-172v108h170q211 0 331 74.5t120 214.5
q0 117 -89 183.5t-257 66.5q-236 0 -455 -123l-51 104q231 129 510 129z" />
    <glyph glyph-name="uni0418" unicode="&#x418;" horiz-adv-x="1411" 
d="M160 1434h112v-1250h4l852 1250h123v-1434h-112v1249h-4l-852 -1249h-123v1434z" />
    <glyph glyph-name="uni0419" unicode="&#x419;" horiz-adv-x="1411" 
d="M983 1767q0 -127 -76.5 -198.5t-201.5 -71.5q-126 0 -202.5 71.5t-76.5 198.5h86q1 -90 52 -140t141 -50q89 0 140 49.5t52 140.5h86zM160 1434h112v-1250h4l852 1250h123v-1434h-112v1249h-4l-852 -1249h-123v1434z" />
    <glyph glyph-name="uni041A" unicode="&#x41a;" horiz-adv-x="1191" 
d="M1174 0h-173l-731 745v-745h-110v1434h110v-656l652 656h163l-679 -668z" />
    <glyph glyph-name="uni041B" unicode="&#x41b;" horiz-adv-x="1447" 
d="M1290 1434v-1434h-112v1327h-770v-997q0 -176 -69.5 -258t-221.5 -82h-78v110h70q95 0 140.5 51.5t45.5 178.5v1104h995z" />
    <glyph glyph-name="uni041C" unicode="&#x41c;" horiz-adv-x="1701" 
d="M1333 1434l350 -1434h-118l-291 1212h-4l-373 -976h-92l-373 976h-4l-291 -1212h-119l351 1434h98l381 -1022h4l383 1022h98z" />
    <glyph glyph-name="uni041D" unicode="&#x41d;" horiz-adv-x="1411" 
d="M1139 1434h112v-1434h-112v713h-867v-713h-112v1434h112v-613h867v613z" />
    <glyph glyph-name="uni041E" unicode="&#x41e;" horiz-adv-x="1654" 
d="M827 1464q211 0 381.5 -94t268.5 -265.5t98 -387.5t-98 -387.5t-268.5 -266t-381.5 -94.5t-381.5 94.5t-268 266t-97.5 387.5q0 162 57 302t156.5 237t237.5 152.5t296 55.5zM827 1352q-180 0 -323 -81t-223 -226t-80 -328t80 -328t223 -226t323 -81t323.5 81t223.5 226
t80 328t-80 328t-223.5 226t-323.5 81z" />
    <glyph glyph-name="uni041F" unicode="&#x41f;" horiz-adv-x="1406" 
d="M1247 1434v-1434h-112v1327h-863v-1327h-112v1434h1087z" />
    <glyph glyph-name="uni0420" unicode="&#x420;" horiz-adv-x="1112" 
d="M637 1434q193 0 306.5 -116t113.5 -298q0 -181 -113.5 -297.5t-306.5 -116.5h-365v-606h-112v1434h477zM631 713q138 0 222.5 80t84.5 227t-84.5 227t-222.5 80h-359v-614h359z" />
    <glyph glyph-name="uni0421" unicode="&#x421;" horiz-adv-x="1406" 
d="M844 -31q-171 0 -314 55t-242 153t-153.5 237t-54.5 303q0 333 209.5 540t554.5 207q149 0 266.5 -41t228.5 -123l-69 -96q-97 71 -198 109.5t-230 38.5q-286 0 -463.5 -177t-177.5 -458t177.5 -458t463.5 -177q130 0 230.5 38t197.5 109l69 -96q-111 -82 -228.5 -123
t-266.5 -41z" />
    <glyph glyph-name="uni0422" unicode="&#x422;" horiz-adv-x="1048" 
d="M1028 1434v-107h-448v-1327h-113v1327h-447v107h1008z" />
    <glyph glyph-name="uni0423" unicode="&#x423;" horiz-adv-x="1220" 
d="M1081 1434h125l-688 -1434h-123l174 367l-553 1067h134l481 -942z" />
    <glyph glyph-name="uni0424" unicode="&#x424;" horiz-adv-x="1673" 
d="M893 1358q329 0 514.5 -168.5t185.5 -474.5q0 -305 -184.5 -474t-515.5 -169v-125h-113v125q-331 0 -515.5 169t-184.5 474q0 306 185 474.5t515 168.5v129h113v-129zM199 717q0 -255 153 -396t428 -141h4v1069h-4q-274 0 -427.5 -138t-153.5 -394zM893 180
q275 0 427.5 141t152.5 396t-153.5 393.5t-426.5 138.5h-6v-1069h6z" />
    <glyph glyph-name="uni0425" unicode="&#x425;" horiz-adv-x="1210" 
d="M1174 0h-134l-434 659l-436 -659h-133l500 756l-449 678h135l383 -580l381 580h135l-448 -678z" />
    <glyph glyph-name="uni0426" unicode="&#x426;" horiz-adv-x="1372" 
d="M1178 106h116v-393h-108v287h-1026v1434h112v-1328h793v1328h113v-1328z" />
    <glyph glyph-name="uni0427" unicode="&#x427;" horiz-adv-x="1146" 
d="M874 1434h113v-1434h-113v629h-483q-176 0 -259 76.5t-83 236.5v492h113v-492q0 -112 58.5 -159.5t182.5 -47.5h471v699z" />
    <glyph glyph-name="uni0428" unicode="&#x428;" horiz-adv-x="2086" 
d="M160 0v1434h112v-1328h715v1328h113v-1328h717v1328h112v-1434h-1769z" />
    <glyph glyph-name="uni0429" unicode="&#x429;" horiz-adv-x="2121" 
d="M1929 106h117v-393h-109v287h-1777v1434h112v-1328h715v1328h113v-1328h717v1328h112v-1328z" />
    <glyph glyph-name="uni042A" unicode="&#x42a;" horiz-adv-x="1400" 
d="M922 811q199 0 318.5 -109.5t119.5 -295.5q0 -187 -119.5 -296.5t-318.5 -109.5h-498v1327h-404v107h517v-107v-516h385zM901 106q166 0 252 81t86 219t-86 218.5t-252 80.5h-364v-599h364z" />
    <glyph glyph-name="uni042B" unicode="&#x42b;" horiz-adv-x="1564" 
d="M655 811q200 0 319.5 -109t119.5 -296t-119.5 -296.5t-319.5 -109.5h-495v1434h112v-623h383zM1292 1434h115v-1434h-115v1434zM635 106q167 0 253.5 81t86.5 219t-86.5 218.5t-253.5 80.5h-363v-599h363z" />
    <glyph glyph-name="uni042C" unicode="&#x42c;" horiz-adv-x="1134" 
d="M655 811q200 0 319.5 -109t119.5 -296t-119.5 -296.5t-319.5 -109.5h-495v1434h112v-623h383zM635 106q167 0 253.5 81t86.5 219t-86.5 218.5t-253.5 80.5h-363v-599h363z" />
    <glyph glyph-name="uni042D" unicode="&#x42d;" horiz-adv-x="1404" 
d="M608 1464q325 0 521 -200.5t196 -546.5t-196 -547t-521 -201q-296 0 -540 166l61 98q223 -151 479 -151q262 0 424.5 161.5t171.5 440.5h-741v107h739q-22 261 -182 411t-412 150q-255 0 -479 -152l-61 98q244 166 540 166z" />
    <glyph glyph-name="uni042E" unicode="&#x42e;" horiz-adv-x="2084" 
d="M1257 1464q211 0 381.5 -94t268.5 -265.5t98 -387.5t-98 -387.5t-268.5 -266t-381.5 -94.5q-308 0 -517 194t-228 501h-240v-664h-112v1434h112v-664h240q19 307 228 500.5t517 193.5zM1257 82q180 0 323.5 81t223.5 226t80 328t-80 328t-223.5 226t-323.5 81t-323 -81
t-223 -226t-80 -328t80 -328t223 -226t323 -81z" />
    <glyph glyph-name="uni042F" unicode="&#x42f;" horiz-adv-x="1193" 
d="M549 1434h485v-1434h-112v633h-283l-432 -633h-144l441 635q-174 12 -281.5 115.5t-107.5 283.5q0 191 121.5 295.5t312.5 104.5zM557 739h365v588h-365q-151 0 -237.5 -78.5t-86.5 -214.5q0 -137 86.5 -216t237.5 -79z" />
    <glyph glyph-name="uni0430" unicode="&#x430;" horiz-adv-x="1173" 
d="M545 -31q-134 0 -241.5 60.5t-170.5 176t-63 267.5t63 267.5t170.5 176t241.5 60.5q135 0 235 -60t154 -163h4v192h104v-946h-104v193h-4q-55 -104 -154.5 -164t-234.5 -60zM561 72q173 0 279 112.5t106 288.5t-106 288.5t-279 112.5q-172 0 -277.5 -112.5t-105.5 -288.5
t105.5 -288.5t277.5 -112.5z" />
    <glyph glyph-name="uni0431" unicode="&#x431;" horiz-adv-x="1169" 
d="M586 -31q-113 0 -204 35t-162.5 107.5t-110.5 195.5t-39 287q0 93 14 179t44.5 168.5t85 149t128.5 105.5q48 25 116.5 48t118.5 35.5t115 27.5l78 18q53 15 85.5 47t37.5 72h102q0 -159 -184 -207q-8 -2 -69.5 -15.5t-115 -26.5t-122 -35t-111.5 -44
q-98 -49 -157.5 -164.5t-71.5 -275.5h6q52 135 172 210t274 75q213 0 348.5 -136.5t135.5 -353.5q0 -222 -140 -362t-374 -140zM594 72q171 0 284 108t113 287q0 181 -114.5 288t-284.5 107t-286 -107t-116 -286q0 -181 116.5 -289t287.5 -108z" />
    <glyph glyph-name="uni0432" unicode="&#x432;" horiz-adv-x="1011" 
d="M733 498q96 -12 147.5 -73t51.5 -155q0 -130 -86 -200t-221 -70h-486v946h488q132 0 207 -57.5t75 -175.5q0 -82 -46.5 -141t-129.5 -72v-2zM606 854h-364v-313h350q207 0 207 159q0 154 -193 154zM610 92q106 0 159.5 48t53.5 134q0 85 -53.5 131t-159.5 46h-368v-359
h368z" />
    <glyph glyph-name="uni0433" unicode="&#x433;" horiz-adv-x="747" 
d="M737 946v-98h-495v-848h-103v946h598z" />
    <glyph glyph-name="uni0434" unicode="&#x434;" horiz-adv-x="1058" 
d="M915 90h105v-356h-96v258h-811v-258h-97v356h117q88 146 88 375v481h103h548h43v-856zM324 463q0 -224 -76 -373h565v760h-489v-387z" />
    <glyph glyph-name="uni0435" unicode="&#x435;" horiz-adv-x="1073" 
d="M549 977q117 0 207 -40t143 -109.5t79 -155.5t26 -187v-22h-830q1 -181 107 -286t278 -105q69 0 125.5 16.5t99 48.5t68.5 59t57 68l78 -65q-32 -45 -64.5 -79t-84 -71.5t-123 -58.5t-156.5 -21q-223 0 -356 137.5t-133 364.5q0 234 133 370t346 136zM543 877
q-144 0 -246 -85.5t-119 -242.5h713q-12 156 -101 242t-247 86z" />
    <glyph glyph-name="uni0436" unicode="&#x436;" horiz-adv-x="1335" 
d="M1317 0h-148l-450 492v-492h-103v492l-452 -492h-146l480 510l-435 436h148l405 -422v422h103v-422l405 422h148l-434 -436z" />
    <glyph glyph-name="uni0437" unicode="&#x437;" horiz-adv-x="927" 
d="M453 -31q-227 0 -396 90l45 95q172 -84 357 -84q293 0 293 190q0 104 -73.5 148.5t-232.5 44.5h-163v94h161q138 0 209.5 36t71.5 128q0 166 -270 166q-166 0 -328 -66l-37 94q179 72 369 72q176 0 276.5 -63t100.5 -185q0 -92 -58.5 -151t-169.5 -72v-4
q250 -21 250 -250q0 -133 -99 -208t-306 -75z" />
    <glyph glyph-name="uni0438" unicode="&#x438;" horiz-adv-x="1105" 
d="M139 0v946h107v-796h4l598 796h119v-946h-107v797h-4l-596 -797h-121z" />
    <glyph glyph-name="uni0439" unicode="&#x439;" horiz-adv-x="1105" 
d="M831 1311q0 -134 -77 -210.5t-201 -76.5t-201.5 76.5t-77.5 210.5h86q3 -95 54 -149t139 -54t138.5 54t53.5 149h86zM139 0v946h107v-796h4l598 796h119v-946h-107v797h-4l-596 -797h-121z" />
    <glyph glyph-name="uni043A" unicode="&#x43a;" horiz-adv-x="890" 
d="M872 0h-151l-479 485v-485h-103v946h103v-416l432 416h153l-469 -434z" />
    <glyph glyph-name="uni043B" unicode="&#x43b;" horiz-adv-x="1095" 
d="M956 946v-946h-102v848h-547v-617q0 -235 -203 -235h-84v96h76q55 0 82 33.5t27 105.5v715h751z" />
    <glyph glyph-name="uni043C" unicode="&#x43c;" horiz-adv-x="1325" 
d="M39 0l264 946h100l259 -629h4l258 629h98l266 -946h-108l-213 772h-4l-256 -606h-86l-256 606h-5l-215 -772h-106z" />
    <glyph glyph-name="uni043D" unicode="&#x43d;" horiz-adv-x="1091" 
d="M848 946h104v-946h-104v461h-606v-461h-103v946h103v-389h606v389z" />
    <glyph glyph-name="uni043E" unicode="&#x43e;" horiz-adv-x="1153" 
d="M575 977q223 0 365.5 -141.5t142.5 -362.5t-142.5 -362.5t-365.5 -141.5q-221 0 -363 141.5t-142 362.5t142 362.5t363 141.5zM575 874q-170 0 -283.5 -111t-113.5 -290t113.5 -290t283.5 -111q172 0 286 111t114 290t-114 290t-286 111z" />
    <glyph glyph-name="uni043F" unicode="&#x43f;" horiz-adv-x="1064" 
d="M928 946v-946h-105v848h-581v-848h-103v946h103h686z" />
    <glyph glyph-name="uni0440" unicode="&#x440;" horiz-adv-x="1179" 
d="M139 -410v1356h103v-192h4q56 104 155.5 163.5t235.5 59.5q134 0 241.5 -60.5t170.5 -176t63 -267.5t-63 -267.5t-170.5 -176t-241.5 -60.5q-136 0 -235.5 60t-155.5 164h-4v-603h-103zM618 72q172 0 277.5 112.5t105.5 288.5t-105.5 288.5t-277.5 112.5
q-173 0 -277.5 -112t-104.5 -289t104.5 -289t277.5 -112z" />
    <glyph glyph-name="uni0441" unicode="&#x441;" horiz-adv-x="956" 
d="M578 -31q-226 0 -367 140t-141 364t141 364t367 140q169 0 323 -92l-53 -92q-138 81 -275 81q-176 0 -285.5 -115.5t-109.5 -285.5t109.5 -285.5t285.5 -115.5q136 0 275 82l53 -93q-154 -92 -323 -92z" />
    <glyph glyph-name="uni0442" unicode="&#x442;" horiz-adv-x="909" 
d="M899 946v-96h-393v-850h-105v850h-391v96h889z" />
    <glyph glyph-name="uni0443" unicode="&#x443;" horiz-adv-x="927" 
d="M793 946h116l-641 -1356h-112l252 519l-390 837h121l322 -725z" />
    <glyph glyph-name="uni0444" unicode="&#x444;" horiz-adv-x="1740" 
d="M819 -410v603h-4q-99 -224 -338 -224q-183 0 -290 135.5t-107 368.5t107 368.5t290 135.5q239 0 338 -223h4v628h103v-628h4q99 223 336 223q185 0 292 -135.5t107 -368.5t-107 -368.5t-292 -135.5q-237 0 -336 224h-4v-603h-103zM498 68q157 0 241 111t84 294t-84 294.5
t-241 111.5q-152 0 -231 -111t-79 -295t79 -294.5t231 -110.5zM1243 68q150 0 228.5 110.5t78.5 294.5t-78.5 295t-228.5 111q-157 0 -241 -111.5t-84 -294.5t84 -294t241 -111z" />
    <glyph glyph-name="uni0445" unicode="&#x445;" horiz-adv-x="935" 
d="M786 0l-317 414l-319 -414h-132l388 496l-349 450h133l279 -371l279 371h131l-349 -450l388 -496h-132z" />
    <glyph glyph-name="uni0446" unicode="&#x446;" horiz-adv-x="1032" 
d="M897 98h96v-364h-98v266h-653h-103v946h103v-848h551v848h104v-848z" />
    <glyph glyph-name="uni0447" unicode="&#x447;" horiz-adv-x="888" 
d="M647 946h105v-946h-105v399h-362q-246 0 -246 230v317h102v-313q0 -73 37.5 -105t110.5 -32h358v450z" />
    <glyph glyph-name="uni0448" unicode="&#x448;" horiz-adv-x="1628" 
d="M1386 946h103v-946h-103h-624h-580h-43v946h103v-848h520v848h104v-848h520v848z" />
    <glyph glyph-name="uni0449" unicode="&#x449;" horiz-adv-x="1624" 
d="M1489 98h96v-364h-96v266h-623h-624h-103v946h103v-848h520v848h104v-848h520v848h103v-848z" />
    <glyph glyph-name="uni044A" unicode="&#x44a;" horiz-adv-x="1185" 
d="M838 588q138 0 223.5 -79t85.5 -214t-85.5 -215t-223.5 -80h-453v848h-375v98h479v-358h349zM823 94q107 0 159 52.5t52 146.5q0 95 -52 147t-159 52h-334v-398h334z" />
    <glyph glyph-name="uni044B" unicode="&#x44b;" horiz-adv-x="1239" 
d="M592 588q137 0 222 -79t85 -214t-85.5 -215t-223.5 -80h-451v946h103v-358h350zM997 946h103v-946h-103v946zM578 94q107 0 158.5 52.5t51.5 146.5q0 199 -210 199h-336v-398h336z" />
    <glyph glyph-name="uni044C" unicode="&#x44c;" horiz-adv-x="940" 
d="M592 588q137 0 222 -79t85 -214t-85.5 -215t-223.5 -80h-451v946h103v-358h350zM578 94q107 0 158.5 52.5t51.5 146.5q0 199 -210 199h-336v-398h336z" />
    <glyph glyph-name="uni044D" unicode="&#x44d;" horiz-adv-x="962" 
d="M399 977q227 0 355.5 -136t128.5 -368t-128.5 -368t-355.5 -136q-190 0 -342 103l54 88q145 -88 290 -88q164 0 262.5 98t110.5 256h-452v94h452q-12 158 -110.5 256t-262.5 98q-145 0 -290 -88l-54 88q152 103 342 103z" />
    <glyph glyph-name="uni044E" unicode="&#x44e;" horiz-adv-x="1484" 
d="M909 977q221 0 363.5 -141.5t142.5 -362.5t-142.5 -362.5t-363.5 -141.5q-210 0 -350.5 127t-155.5 330h-161v-426h-103v946h103v-426h161q15 203 155.5 330t350.5 127zM909 72q170 0 284 111.5t114 289.5t-114 289.5t-284 111.5q-172 0 -285.5 -111t-113.5 -290
t113.5 -290t285.5 -111z" />
    <glyph glyph-name="uni044F" unicode="&#x44f;" horiz-adv-x="946" 
d="M362 946h447v-946h-104v393h-242l-295 -393h-129l301 395q-129 5 -209 76t-80 199q0 132 86 204t225 72zM375 489h330v361h-330q-104 0 -158.5 -47t-54.5 -133t54.5 -133.5t158.5 -47.5z" />
    <glyph glyph-name="uni0451" unicode="&#x451;" horiz-adv-x="1073" 
d="M461 1294v-229h-127v229h127zM766 1294v-229h-129v229h129zM549 977q117 0 207 -40t143 -109.5t79 -155.5t26 -187v-22h-830q1 -181 107 -286t278 -105q69 0 125.5 16.5t99 48.5t68.5 59t57 68l78 -65q-32 -45 -64.5 -79t-84 -71.5t-123 -58.5t-156.5 -21
q-223 0 -356 137.5t-133 364.5q0 234 133 370t346 136zM543 877q-144 0 -246 -85.5t-119 -242.5h713q-12 156 -101 242t-247 86z" />
    <glyph glyph-name="uni0452" unicode="&#x452;" horiz-adv-x="1105" 
d="M977 -164q0 -120 -56 -183t-169 -63h-101v99h94q129 0 129 147v164h-2v563q0 157 -74.5 233t-203.5 76q-55 0 -104 -13.5t-95 -46t-79 -83t-52.5 -129t-19.5 -178.5v-422h-103v1180h-141v75h141v179h103v-179h327v-75h-327v-449h4q45 121 140 183.5t222 62.5
q168 0 267.5 -101t99.5 -305v-735z" />
    <glyph glyph-name="uni0453" unicode="&#x453;" horiz-adv-x="747" 
d="M756 1346l-252 -316h-94l194 316h152zM737 946v-98h-495v-848h-103v946h598z" />
    <glyph glyph-name="uni0454" unicode="&#x454;" horiz-adv-x="964" 
d="M561 72q146 0 291 88l55 -88q-156 -103 -344 -103q-227 0 -355 136t-128 368t128 368t355 136q188 0 344 -103l-55 -88q-145 88 -291 88q-164 0 -262.5 -98t-110.5 -256h455v-94h-455q12 -158 110.5 -256t262.5 -98z" />
    <glyph glyph-name="uni0455" unicode="&#x455;" horiz-adv-x="837" 
d="M442 -31q-111 0 -214 32t-181 89l53 90q160 -110 346 -110q113 0 169.5 43t56.5 110q0 57 -39.5 96t-114.5 74l-178 82q-211 95 -211 260q0 116 85.5 179t229.5 63q162 0 314 -76l-47 -94q-137 70 -267 70q-94 0 -149 -35.5t-55 -102.5q0 -57 38 -95.5t119 -74.5l170 -77
q102 -47 157.5 -108t55.5 -159q0 -125 -90.5 -190.5t-247.5 -65.5z" />
    <glyph glyph-name="uni0456" unicode="&#x456;" horiz-adv-x="370" 
d="M254 1413v-246h-139v246h139zM133 0v946h105v-946h-105z" />
    <glyph glyph-name="uni0457" unicode="&#x457;" horiz-adv-x="370" 
d="M135 1294v-229h-127v229h127zM362 1294v-229h-126v229h126zM133 0v946h105v-946h-105z" />
    <glyph glyph-name="uni0458" unicode="&#x458;" horiz-adv-x="370" 
d="M254 1413v-246h-139v246h139zM-82 -322h55q82 0 121 50t39 159v1059h105v-1063q0 -301 -258 -301h-62v96z" />
    <glyph glyph-name="uni0459" unicode="&#x459;" horiz-adv-x="1591" 
d="M1243 588q138 0 223.5 -79t85.5 -214t-85.5 -215t-223.5 -80h-432v848h-526v-617q0 -235 -203 -235h-62v96h54q108 0 108 139v715h731v-358h330zM1229 94q107 0 159 52.5t52 146.5q0 95 -52 147t-159 52h-316v-398h316z" />
    <glyph glyph-name="uni045A" unicode="&#x45a;" horiz-adv-x="1607" 
d="M1260 588q137 0 222 -78.5t85 -214.5q0 -135 -85 -215t-222 -80h-433v492h-585v-492h-103v946h103v-358h585v358h103v-358h330zM1245 94q107 0 160 52.5t53 146.5q0 95 -53 147t-160 52h-315v-398h315z" />
    <glyph glyph-name="uni045B" unicode="&#x45b;" horiz-adv-x="1105" 
d="M610 977q168 0 267.5 -101t99.5 -305v-571h-105v563q0 157 -74.5 233t-203.5 76q-55 0 -104 -13.5t-95 -46t-79 -83t-52.5 -129t-19.5 -178.5v-422h-103v1180h-141v75h141v179h103v-179h327v-75h-327v-449h4q45 121 140 183.5t222 62.5z" />
    <glyph glyph-name="uni045C" unicode="&#x45c;" horiz-adv-x="890" 
d="M748 1346l-252 -316h-95l195 316h152zM872 0h-151l-479 485v-485h-103v946h103v-416l432 416h153l-469 -434z" />
    <glyph glyph-name="uni045E" unicode="&#x45e;" horiz-adv-x="927" 
d="M467 1024q-124 0 -201.5 76.5t-77.5 210.5h86q3 -95 54 -149t139 -54t138.5 54t53.5 149h86q0 -134 -77 -210.5t-201 -76.5zM793 946h116l-641 -1356h-112l252 519l-390 837h121l322 -725z" />
    <glyph glyph-name="uni045F" unicode="&#x45f;" horiz-adv-x="1067" 
d="M825 946h103v-946h-344v-266h-99v266h-346v946h103v-848h583v848z" />
    <glyph glyph-name="uni0462" unicode="&#x462;" horiz-adv-x="1284" 
d="M807 811q199 0 317.5 -109t118.5 -296t-118.5 -296.5t-317.5 -109.5h-498v1083h-289v101h289v250h113v-250h455v-101h-455v-272h385zM786 106q166 0 252 81t86 219t-86 218.5t-252 80.5h-364v-599h364z" />
    <glyph glyph-name="uni0463" unicode="&#x463;" horiz-adv-x="997" 
d="M647 588q138 0 223.5 -79t85.5 -214t-85.5 -215t-223.5 -80h-452v860h-195v86h195v488h104v-488h365v-86h-365v-272h348zM633 96q107 0 160 52.5t53 144.5q0 94 -53 146.5t-160 52.5h-334v-396h334z" />
    <glyph glyph-name="uni0472" unicode="&#x472;" horiz-adv-x="1654" 
d="M827 1464q211 0 381.5 -94t268.5 -265.5t98 -387.5t-98 -387.5t-268.5 -266t-381.5 -94.5t-381.5 94.5t-268 266t-97.5 387.5q0 162 57 302t156.5 237t237.5 152.5t296 55.5zM827 1352q-263 0 -438 -165t-190 -427h1257q-15 261 -191 426.5t-438 165.5zM827 82
q264 0 439 165.5t190 426.5h-1257q14 -261 189 -426.5t439 -165.5z" />
    <glyph glyph-name="uni0473" unicode="&#x473;" horiz-adv-x="1153" 
d="M575 977q223 0 365.5 -141.5t142.5 -362.5t-142.5 -362.5t-365.5 -141.5q-221 0 -363 141.5t-142 362.5t142 362.5t363 141.5zM575 877q-162 0 -273.5 -100.5t-123.5 -264.5h797q-12 164 -124.5 264.5t-275.5 100.5zM575 70q163 0 275.5 100t124.5 264h-797
q12 -164 123.5 -264t273.5 -100z" />
    <glyph glyph-name="uni0474" unicode="&#x474;" horiz-adv-x="1337" 
d="M1057 1149l-400 -1149h-110l-520 1434h133l440 -1266h4l350 1051q42 128 103.5 181.5t175.5 53.5q28 0 78 -4v-111q-40 4 -68 4q-71 0 -109.5 -42t-76.5 -152z" />
    <glyph glyph-name="uni0475" unicode="&#x475;" horiz-adv-x="1001" 
d="M967 965h16v-105h-20q-54 0 -86.5 -22.5t-57.5 -85.5l-309 -752h-104l-388 946h121l320 -819l264 676q37 92 90.5 127t153.5 35z" />
    <glyph glyph-name="uni048E" unicode="&#x48e;" horiz-adv-x="1112" 
d="M1057 1020q0 -124 -55 -220t-156 -147l131 -178l-51 -39l-142 191q-79 -21 -147 -21h-365v-606h-112v1434h477q193 0 306.5 -116t113.5 -298zM631 713q48 0 84 8l-160 215l53 39l172 -232q74 35 116 105.5t42 171.5q0 147 -84.5 227t-222.5 80h-359v-614h359z" />
    <glyph glyph-name="uni048F" unicode="&#x48f;" horiz-adv-x="1179" 
d="M1112 473q0 -134 -49.5 -240t-136.5 -172l137 -167l-47 -39l-144 172q-107 -58 -235 -58q-136 0 -235.5 60t-155.5 164h-4v-603h-103v1356h103v-192h4q56 104 155.5 163.5t235.5 59.5q134 0 241.5 -60.5t170.5 -176t63 -267.5zM618 72q106 0 185 43l-139 170l45 39
l145 -177q71 53 109 137.5t38 188.5q0 176 -105.5 288.5t-277.5 112.5q-173 0 -277.5 -112t-104.5 -289t104.5 -289t277.5 -112z" />
    <glyph glyph-name="uni0490" unicode="&#x490;" horiz-adv-x="1005" 
d="M872 1720h113v-395h-713v-1325h-112v1434h712v286z" />
    <glyph glyph-name="uni0491" unicode="&#x491;" horiz-adv-x="772" 
d="M664 1174h98v-326h-520v-848h-103v946h525v228z" />
    <glyph glyph-name="uni0492" unicode="&#x492;" horiz-adv-x="1052" 
d="M1032 1327h-688v-541h461v-98h-461v-688h-113v688h-211v98h211v648h801v-107z" />
    <glyph glyph-name="uni0493" unicode="&#x493;" horiz-adv-x="825" 
d="M815 848h-496v-313h322v-99h-322v-436h-104v436h-168v99h168v411h600v-98z" />
    <glyph glyph-name="uni0494" unicode="&#x494;" horiz-adv-x="1181" 
d="M731 815q99 0 168.5 -14.5t124.5 -49.5t82 -99.5t27 -159.5v-504q0 -398 -375 -398h-111v107h109q141 0 202.5 73t61.5 220v502q0 67 -20 110.5t-61.5 66.5t-91.5 31.5t-124 8.5q-183 0 -451 -25v-684h-112v1434h801v-107h-689v-536q270 24 459 24z" />
    <glyph glyph-name="uni0495" unicode="&#x495;" horiz-adv-x="962" 
d="M586 522q155 0 231 -70.5t76 -224.5v-311q0 -326 -313 -326h-107v101h96q107 0 164.5 52.5t57.5 176.5v301q0 205 -211 205q-153 0 -338 -31v-395h-103v946h649v-98h-546v-354q196 28 344 28z" />
    <glyph glyph-name="uni0496" unicode="&#x496;" horiz-adv-x="1810" 
d="M1683 74h80v-361h-108v287h-64l-653 739v-739h-109v739l-653 -739h-158l687 758l-596 676h155l565 -662v662h109v-662l567 662h154l-596 -676z" />
    <glyph glyph-name="uni0497" unicode="&#x497;" horiz-adv-x="1382" 
d="M1262 59h81v-325h-96v266h-78l-450 492v-492h-103v492l-452 -492h-146l480 510l-435 436h148l405 -422v422h103v-422l405 422h148l-434 -436z" />
    <glyph glyph-name="uni0498" unicode="&#x498;" horiz-adv-x="1202" 
d="M1112 381q0 -183 -118.5 -291.5t-358.5 -118.5l-25 -63q32 -9 52 -16.5t44.5 -23t37 -41t12.5 -60.5q0 -27 -14 -52t-32.5 -42.5t-56.5 -38.5t-64 -33.5t-77 -34.5l-20 43q94 45 135 75.5t41 65.5q0 36 -30 54t-110 36l50 129q-279 3 -510 137l55 103q218 -129 461 -129
q193 0 302 73t109 230q0 174 -126 249t-382 75h-172v108h170q211 0 331 74.5t120 214.5q0 117 -89 183.5t-257 66.5q-236 0 -455 -123l-51 104q231 129 510 129q229 0 345 -93t116 -259q0 -270 -324 -342v-2q79 -6 144 -29.5t120 -67.5t86 -118t31 -172z" />
    <glyph glyph-name="uni0499" unicode="&#x499;" horiz-adv-x="927" 
d="M858 252q0 -128 -93 -202.5t-284 -80.5l-24 -61q25 -7 41 -12.5t38 -17t34.5 -25t22 -36t9.5 -50.5q0 -27 -14 -52t-32.5 -42.5t-56.5 -38.5t-64 -33.5t-77 -34.5l-20 43q94 45 135 75.5t41 65.5q0 36 -29.5 54t-109.5 36l49 129q-201 5 -367 90l45 95q172 -84 357 -84
q293 0 293 190q0 104 -73.5 148.5t-232.5 44.5h-163v94h161q138 0 209.5 36t71.5 128q0 166 -270 166q-166 0 -328 -66l-37 94q179 72 369 72q176 0 276.5 -63t100.5 -185q0 -92 -58.5 -151t-169.5 -72v-4q250 -21 250 -250z" />
    <glyph glyph-name="uni049A" unicode="&#x49a;" horiz-adv-x="1220" 
d="M1100 74h74v-361h-109v287h-64l-731 745v-745h-110v1434h110v-656l652 656h163l-679 -668z" />
    <glyph glyph-name="uni049B" unicode="&#x49b;" horiz-adv-x="925" 
d="M813 59h74v-325h-96v266h-70l-479 485v-485h-103v946h103v-416l432 416h153l-469 -434z" />
    <glyph glyph-name="uni049C" unicode="&#x49c;" horiz-adv-x="1355" 
d="M1167 0l-632 717h-78v-299h-68v299h-119v-717h-110v1434h110v-613h119v334h68v-334h90l534 613h158l-596 -668l694 -766h-170z" />
    <glyph glyph-name="uni049D" unicode="&#x49d;" horiz-adv-x="966" 
d="M803 0l-379 471h-47v-270h-58v270h-77v-471h-103v946h103v-397h77v264h58v-264h49l354 397h142l-400 -434l426 -512h-145z" />
    <glyph glyph-name="uni049E" unicode="&#x49e;" horiz-adv-x="1300" 
d="M1282 0h-170l-731 745v-745h-113v1155h-248v84h248v195h113v-195h270v-84h-270v-377l651 656h164l-682 -668z" />
    <glyph glyph-name="uni049F" unicode="&#x49f;" horiz-adv-x="899" 
d="M881 0h-154l-483 492v-492h-103v1180h-141v75h141v179h103v-179h327v-75h-327v-656l438 422h152l-467 -434z" />
    <glyph glyph-name="uni04A0" unicode="&#x4a0;" horiz-adv-x="1454" 
d="M1436 0h-172l-732 745v-745h-110v1327h-402v107h476h36v-656l654 656h162l-680 -668z" />
    <glyph glyph-name="uni04A1" unicode="&#x4a1;" horiz-adv-x="1136" 
d="M1120 0h-153l-478 485v-485h-104v848h-375v98h447h32v-416l431 416h153l-467 -434z" />
    <glyph glyph-name="uni04A2" unicode="&#x4a2;" horiz-adv-x="1359" 
d="M1251 74h62v-361h-109v287h-65v713h-867v-713h-112v1434h112v-613h867v613h112v-1360z" />
    <glyph glyph-name="uni04A3" unicode="&#x4a3;" horiz-adv-x="1060" 
d="M952 59h70v-325h-96v266h-78v461h-606v-461h-103v946h103v-389h606v389h104v-887z" />
    <glyph glyph-name="uni04A4" unicode="&#x4a4;" horiz-adv-x="1849" 
d="M1829 1434v-107h-619v-1327h-112v713h-826v-713h-112v1434h112v-613h826v613h731z" />
    <glyph glyph-name="uni04A5" unicode="&#x4a5;" horiz-adv-x="1380" 
d="M1370 946v-98h-459v-848h-104v461h-565v-461h-103v946h103v-389h565v389h563z" />
    <glyph glyph-name="uni04A6" unicode="&#x4a6;" horiz-adv-x="2121" 
d="M1671 825q98 0 168 -14.5t125 -50t82 -99.5t27 -159v-135q0 -186 -84 -276.5t-281 -90.5h-125v106h121q144 0 200 60.5t56 202.5v131q0 67 -20 111t-61 67t-91 32t-123 9q-148 0 -418 -23v-696h-112v1327h-863v-1327h-112v1434h1087v-631q288 22 424 22z" />
    <glyph glyph-name="uni04A7" unicode="&#x4a7;" horiz-adv-x="1646" 
d="M1284 559q293 0 293 -295v-346q0 -328 -303 -328h-109v101h97q102 0 157.5 53t55.5 178v336q0 205 -211 205q-154 0 -336 -31v-432h-105v848h-581v-848h-103v946h103h659h27v-416q232 29 356 29z" />
    <glyph glyph-name="uni04A8" unicode="&#x4a8;" horiz-adv-x="1562" 
d="M1534 37q-122 -68 -254 -68q-130 0 -236 56q-106 -56 -268 -56q-198 0 -352 96t-239 268.5t-85 393.5q0 332 188.5 534.5t499.5 202.5q128 0 244 -43l-41 -104q-119 35 -207 35q-252 0 -407.5 -176t-155.5 -457q0 -185 70 -332t199.5 -230t295.5 -83q82 0 152 18
q-119 86 -184.5 231t-65.5 322q0 221 99 352t278 131q174 0 270.5 -125.5t96.5 -338.5q0 -186 -71 -336t-206 -240q59 -18 123 -18q110 0 209 61zM805 639q0 -168 66 -300.5t178 -203.5q128 69 199 203.5t71 312.5q0 169 -68 267t-186 98q-123 0 -191.5 -102.5t-68.5 -274.5
z" />
    <glyph glyph-name="uni04A9" unicode="&#x4a9;" horiz-adv-x="1120" 
d="M1065 102l37 -84q-103 -49 -209 -49q-98 0 -170 37q-61 -37 -174 -37q-212 0 -345.5 129t-133.5 367t137.5 375t370.5 137q104 0 202 -31l-35 -94q-77 25 -163 25q-183 0 -293.5 -109t-110.5 -301q0 -186 102 -293.5t273 -107.5q31 0 45 2q-141 106 -141 311
q0 151 75.5 232t204.5 81q133 0 204 -81.5t71 -217.5q0 -104 -44.5 -191t-129.5 -143q16 -2 51 -2q91 0 176 45zM561 375q0 -103 41.5 -173t112.5 -106q92 37 144 114t52 179q0 91 -43 149t-129 58q-80 0 -129 -54t-49 -167z" />
    <glyph glyph-name="uni04AA" unicode="&#x4aa;" horiz-adv-x="1406" 
d="M1339 133q-111 -82 -226.5 -123t-262.5 -41l-25 -61q32 -9 52 -16.5t44.5 -23t37 -41t12.5 -60.5q0 -27 -14 -52t-32.5 -42.5t-56.5 -38.5t-64 -33.5t-77 -34.5l-20 43q94 45 135 75.5t41 65.5q0 36 -30 54t-110 36l50 131q-324 15 -518.5 220t-194.5 526
q0 333 209.5 540t554.5 207q149 0 266.5 -41t228.5 -123l-69 -96q-97 71 -198 109.5t-230 38.5q-286 0 -463.5 -177t-177.5 -458t177.5 -458t463.5 -177q130 0 230.5 38t197.5 109z" />
    <glyph glyph-name="uni04AB" unicode="&#x4ab;" horiz-adv-x="956" 
d="M901 61q-145 -86 -303 -92l-25 -61q32 -9 52 -16.5t44.5 -23t37 -41t12.5 -60.5q0 -27 -14 -52t-32.5 -42.5t-56.5 -38.5t-64 -33.5t-77 -34.5l-20 43q94 45 135 75.5t41 65.5q0 36 -29.5 54t-109.5 36l49 131q-211 12 -341 149.5t-130 352.5q0 224 141 364t367 140
q169 0 323 -92l-53 -92q-138 81 -275 81q-176 0 -285.5 -115.5t-109.5 -285.5t109.5 -285.5t285.5 -115.5q136 0 275 82z" />
    <glyph glyph-name="uni04AC" unicode="&#x4ac;" horiz-adv-x="1048" 
d="M1028 1327h-448v-1253h71v-361h-108v287h-76v1327h-447v107h1008v-107z" />
    <glyph glyph-name="uni04AD" unicode="&#x4ad;" horiz-adv-x="909" 
d="M899 850h-393v-791h72v-325h-99v266h-78v850h-391v96h889v-96z" />
    <glyph glyph-name="uni04AE" unicode="&#x4ae;" horiz-adv-x="1079" 
d="M1063 1434l-467 -883v-551h-113v551l-467 883h134l387 -758h6l387 758h133z" />
    <glyph glyph-name="uni04AF" unicode="&#x4af;" horiz-adv-x="917" 
d="M899 946l-389 -940v-416h-104v416l-388 940h121l320 -819l319 819h121z" />
    <glyph glyph-name="uni04B0" unicode="&#x4b0;" horiz-adv-x="1079" 
d="M1063 1434l-453 -859l267 3v-97l-281 -2v-479h-113v479h-280v96h266l-453 859h134l387 -758h6l387 758h133z" />
    <glyph glyph-name="uni04B1" unicode="&#x4b1;" horiz-adv-x="917" 
d="M899 946l-387 -936h281v-90h-283v-330h-104v330h-267v90h267l-388 936h121l320 -819l319 819h121z" />
    <glyph glyph-name="uni04B2" unicode="&#x4b2;" horiz-adv-x="1259" 
d="M1124 74h90v-361h-110v287h-64l-434 659l-436 -659h-133l500 756l-449 678h135l383 -580l381 580h135l-448 -678z" />
    <glyph glyph-name="uni04B3" unicode="&#x4b3;" horiz-adv-x="980" 
d="M872 59h82v-325h-96v266h-72l-317 414l-319 -414h-132l388 496l-349 450h133l279 -371l279 371h131l-349 -450z" />
    <glyph glyph-name="uni04B4" unicode="&#x4b4;" horiz-adv-x="1726" 
d="M1532 106h117v-393h-109v287h-1026v1327h-494v107h607h401v-107h-401v-1221h792v1328h113v-1328z" />
    <glyph glyph-name="uni04B5" unicode="&#x4b5;" horiz-adv-x="1290" 
d="M1155 98h96v-364h-96v266h-653h-105v848h-387v98h492h297v-98h-297v-750h549v848h104v-848z" />
    <glyph glyph-name="uni04B6" unicode="&#x4b6;" horiz-adv-x="1122" 
d="M987 74h88v-361h-108v287h-93v629h-483q-176 0 -259 76.5t-83 236.5v492h113v-492q0 -112 58.5 -159.5t182.5 -47.5h471v699h113v-1360z" />
    <glyph glyph-name="uni04B7" unicode="&#x4b7;" horiz-adv-x="858" 
d="M752 55h67v-325h-98v270h-74v399h-362q-246 0 -246 230v317h102v-313q0 -73 37.5 -105t110.5 -32h358v450h105v-891z" />
    <glyph glyph-name="uni04B8" unicode="&#x4b8;" horiz-adv-x="1146" 
d="M874 1434h113v-1434h-113v629h-290v-328h-70v328h-123q-176 0 -259 76.5t-83 236.5v492h113v-492q0 -112 58.5 -159.5t182.5 -47.5h111v303h70v-303h290v699z" />
    <glyph glyph-name="uni04B9" unicode="&#x4b9;" horiz-adv-x="888" 
d="M647 946h105v-946h-105v399h-174v-202h-59v202h-129q-246 0 -246 230v317h102v-313q0 -73 37.5 -105t110.5 -32h125v221h59v-221h174v450z" />
    <glyph glyph-name="uni04BA" unicode="&#x4ba;" horiz-adv-x="1146" 
d="M756 805q178 0 260 -76t82 -237v-492h-113v492q0 111 -58.5 158.5t-183.5 47.5h-471v-698h-112v1434h112v-629h484z" />
    <glyph glyph-name="uni04BB" unicode="&#x4bb;" horiz-adv-x="1105" 
d="M244 1434v-703h4q45 121 140 183.5t222 62.5q168 0 267.5 -101t99.5 -305v-571h-105v563q0 157 -74.5 233t-203.5 76q-55 0 -104 -13.5t-95 -46t-79 -83t-52.5 -129t-19.5 -178.5v-422h-103v1434h103z" />
    <glyph glyph-name="uni04BC" unicode="&#x4bc;" horiz-adv-x="1906" 
d="M1098 1464q330 0 529.5 -200t199.5 -537v-59h-121h-1241q17 -268 195 -427t452 -159q174 0 314 65.5t235 178.5l76 -84q-110 -127 -270 -200t-355 -73q-212 0 -381 84t-272 244t-115 371h-55q-120 0 -189 60t-69 177q0 70 18 133h111q-21 -68 -21 -118q0 -144 160 -144
h45q19 308 225 498t529 190zM1098 1352q-276 0 -445.5 -158.5t-187.5 -417.5h1241q-14 267 -177 421.5t-431 154.5z" />
    <glyph glyph-name="uni04BD" unicode="&#x4bd;" horiz-adv-x="1247" 
d="M1180 485v-22h-830q1 -181 106 -286t277 -105q56 0 105.5 12.5t83 29.5t66.5 46t51.5 50t43.5 54l78 -65q-30 -44 -63 -78.5t-84.5 -72t-123 -58.5t-155.5 -21q-222 0 -355 135t-136 359h-17q-89 0 -137.5 42.5t-48.5 127.5q0 45 18 104h88q-16 -53 -16 -96q0 -92 98 -92
h19q23 200 152.5 314t322.5 114q118 0 208 -40t143.5 -109.5t79.5 -155.5t26 -187zM354 549h711q-12 156 -100.5 242t-245.5 86q-95 0 -173 -36t-130 -111.5t-62 -180.5z" />
    <glyph glyph-name="uni04BE" unicode="&#x4be;" horiz-adv-x="1906" 
d="M1098 1464q330 0 529.5 -200t199.5 -537v-59h-121h-1241q17 -268 195 -427t452 -159q174 0 314 65.5t235 178.5l76 -84q-133 -155 -328 -224q-205 -154 -205 -247q0 -37 28.5 -53.5t70.5 -16.5q46 0 100 14l8 -80q-67 -18 -123 -18q-75 0 -126.5 34.5t-51.5 102.5
q0 107 143 226q-83 -11 -141 -11q-212 0 -381 84t-272 244t-115 371h-55q-120 0 -189 60t-69 177q0 70 18 133h111q-21 -68 -21 -118q0 -144 160 -144h45q19 308 225 498t529 190zM1098 1352q-276 0 -445.5 -158.5t-187.5 -417.5h1241q-14 267 -177 421.5t-431 154.5z" />
    <glyph glyph-name="uni04BF" unicode="&#x4bf;" horiz-adv-x="1247" 
d="M1180 485v-22h-830q1 -181 106 -286t277 -105q56 0 105.5 12.5t83 29.5t66.5 46t51.5 50t43.5 54l78 -65q-86 -124 -196 -181q-207 -150 -207 -247q0 -37 28 -53.5t70 -16.5q46 0 100 14l9 -80q-67 -18 -123 -18q-75 0 -126.5 34.5t-51.5 102.5q0 101 133 219
q-36 -4 -62 -4q-222 0 -355 135t-136 359h-17q-89 0 -137.5 42.5t-48.5 127.5q0 45 18 104h88q-16 -53 -16 -96q0 -92 98 -92h19q23 200 152.5 314t322.5 114q118 0 208 -40t143.5 -109.5t79.5 -155.5t26 -187zM354 549h711q-12 156 -100.5 242t-245.5 86q-95 0 -173 -36
t-130 -111.5t-62 -180.5z" />
    <glyph glyph-name="uni04C0" unicode="&#x4c0;" horiz-adv-x="432" 
d="M272 1434v-1434h-112v1434h112z" />
    <glyph glyph-name="uni04C1" unicode="&#x4c1;" horiz-adv-x="1767" 
d="M885 1497q-126 0 -202.5 71.5t-76.5 198.5h86q1 -90 52 -140t141 -50q89 0 140 49.5t52 140.5h86q0 -127 -76.5 -198.5t-201.5 -71.5zM1749 0h-158l-653 739v-739h-109v739l-653 -739h-158l687 758l-596 676h155l565 -662v662h109v-662l567 662h154l-596 -676z" />
    <glyph glyph-name="uni04C2" unicode="&#x4c2;" horiz-adv-x="1335" 
d="M668 1024q-124 0 -201.5 76.5t-77.5 210.5h86q3 -95 54 -149t139 -54t138.5 54t53.5 149h86q0 -134 -77 -210.5t-201 -76.5zM1317 0h-148l-450 492v-492h-103v492l-452 -492h-146l480 510l-435 436h148l405 -422v422h103v-422l405 422h148l-434 -436z" />
    <glyph glyph-name="uni04C3" unicode="&#x4c3;" horiz-adv-x="1165" 
d="M719 774q98 0 167 -14.5t123 -49.5t80.5 -99.5t26.5 -159.5v-463q0 -398 -375 -398h-110v107h110q141 0 202 73t61 220v454q0 68 -20 113t-61 69t-91 33t-123 9q-157 0 -437 -27v-641h-112v1434h112v-691h4l646 691h163l-659 -676q204 16 293 16z" />
    <glyph glyph-name="uni04C4" unicode="&#x4c4;" horiz-adv-x="917" 
d="M553 508q326 0 326 -285v-307q0 -158 -78 -242t-236 -84h-106v101h96q107 0 164 52.5t57 176.5v297q0 195 -241 195q-129 0 -293 -21v-391h-103v946h103v-450l436 450h153l-466 -452q93 14 188 14z" />
    <glyph glyph-name="uni04C5" unicode="&#x4c5;" horiz-adv-x="1458" 
d="M1290 104h94l-157 -370h-107l107 266h-49v1327h-770v-997q0 -176 -69.5 -258t-221.5 -82h-78v110h70q95 0 140.5 51.5t45.5 178.5v1104h995v-1330z" />
    <glyph glyph-name="uni04C6" unicode="&#x4c6;" horiz-adv-x="1097" 
d="M956 104h93l-160 -370h-107l107 266h-35v848h-547v-617q0 -235 -203 -235h-84v96h76q55 0 82 33.5t27 105.5v715h102h649v-842z" />
    <glyph glyph-name="uni04C7" unicode="&#x4c7;" horiz-adv-x="1411" 
d="M1251 0h2v-147q0 -123 -60 -193t-177 -70h-125v107h119q64 0 97.5 40.5t33.5 117.5v145h-2v713h-867v-713h-112v1434h112v-613h867v613h112v-1434z" />
    <glyph glyph-name="uni04C8" unicode="&#x4c8;" horiz-adv-x="1091" 
d="M952 -164q0 -120 -56 -183t-169 -63h-100v99h94q129 0 129 147v164h-2v461h-606v-461h-103v946h103v-389h606v389h104v-1110z" />
    <glyph glyph-name="uni04C9" unicode="&#x4c9;" horiz-adv-x="1425" 
d="M1251 104h103l-160 -370h-107l107 266h-55v713h-867v-713h-112v1434h112v-613h867v613h112v-1330z" />
    <glyph glyph-name="uni04CA" unicode="&#x4ca;" horiz-adv-x="1103" 
d="M952 104h103l-160 -370h-104l106 266h-49v461h-606v-461h-103v946h103v-389h606v389h104v-842z" />
    <glyph glyph-name="uni04CB" unicode="&#x4cb;" horiz-adv-x="1146" 
d="M987 1434v-1434h-90v-287h-109v361h86v555h-483q-176 0 -259 76.5t-83 236.5v492h113v-492q0 -112 58.5 -159.5t182.5 -47.5h471v699h113z" />
    <glyph glyph-name="uni04CC" unicode="&#x4cc;" horiz-adv-x="888" 
d="M752 946v-946h-78v-266h-96v325h69v340h-362q-246 0 -246 230v317h102v-313q0 -73 37.5 -105t110.5 -32h358v450h105z" />
    <glyph glyph-name="uni04CD" unicode="&#x4cd;" horiz-adv-x="1775" 
d="M1659 104h98l-160 -370h-106l106 266h-32l-291 1212h-4l-373 -976h-92l-373 976h-4l-291 -1212h-119l351 1434h98l381 -1022h4l383 1022h98z" />
    <glyph glyph-name="uni04CE" unicode="&#x4ce;" horiz-adv-x="1370" 
d="M1257 104h109l-158 -370h-106l106 266h-28l-213 772h-4l-256 -606h-86l-256 606h-5l-215 -772h-106l264 946h100l259 -629h4l258 629h98z" />
    <glyph glyph-name="uni04CF" unicode="&#x4cf;" horiz-adv-x="370" 
d="M133 0v946h105v-946h-105z" />
    <glyph glyph-name="uni04D0" unicode="&#x4d0;" horiz-adv-x="1316" 
d="M657 1497q-125 0 -201.5 71.5t-76.5 198.5h86q1 -91 52 -140.5t140 -49.5q90 0 141 50t52 140h86q0 -127 -76.5 -198.5t-202.5 -71.5zM1178 0l-162 403h-715l-162 -403h-121l584 1434h113l583 -1434h-120zM344 510h629l-316 780z" />
    <glyph glyph-name="uni04D1" unicode="&#x4d1;" horiz-adv-x="1173" 
d="M844 1311q0 -134 -77.5 -210.5t-201.5 -76.5t-201 76.5t-77 210.5h86q3 -95 53.5 -149t138.5 -54t139 54t54 149h86zM545 -31q-134 0 -241.5 60.5t-170.5 176t-63 267.5t63 267.5t170.5 176t241.5 60.5q135 0 235 -60t154 -163h4v192h104v-946h-104v193h-4
q-55 -104 -154.5 -164t-234.5 -60zM561 72q173 0 279 112.5t106 288.5t-106 288.5t-279 112.5q-172 0 -277.5 -112.5t-105.5 -288.5t105.5 -288.5t277.5 -112.5z" />
    <glyph glyph-name="uni04D2" unicode="&#x4d2;" horiz-adv-x="1316" 
d="M530 1720v-198h-133v198h133zM920 1720v-198h-134v198h134zM1178 0l-162 403h-715l-162 -403h-121l584 1434h113l583 -1434h-120zM344 510h629l-316 780z" />
    <glyph glyph-name="uni04D3" unicode="&#x4d3;" horiz-adv-x="1173" 
d="M475 1294v-229h-127v229h127zM780 1294v-229h-129v229h129zM545 -31q-134 0 -241.5 60.5t-170.5 176t-63 267.5t63 267.5t170.5 176t241.5 60.5q135 0 235 -60t154 -163h4v192h104v-946h-104v193h-4q-55 -104 -154.5 -164t-234.5 -60zM561 72q173 0 279 112.5t106 288.5
t-106 288.5t-279 112.5q-172 0 -277.5 -112.5t-105.5 -288.5t105.5 -288.5t277.5 -112.5z" />
    <glyph glyph-name="uni04D4" unicode="&#x4d4;" horiz-adv-x="1888" 
d="M1171 106h617v-106h-686h-41v403h-625l-274 -403h-144l988 1434h165h607v-107h-607v-471h553v-106h-553v-644zM508 510h553v809z" />
    <glyph glyph-name="uni04D5" unicode="&#x4d5;" horiz-adv-x="1810" 
d="M436 -31q-174 0 -283.5 93t-109.5 251q0 152 106.5 247t282.5 95q121 0 215.5 -48t143.5 -144h4v129q0 144 -79.5 215.5t-228.5 71.5q-129 0 -313 -48l-24 103q174 43 339 43q319 0 379 -250h4q53 117 162.5 183.5t253.5 66.5q111 0 200 -41t143.5 -110.5t83 -156.5
t28.5 -184v-22h-828q2 -174 107 -282.5t276 -108.5q65 0 121 16.5t99 48t71 59.5t60 68l75 -65q-161 -230 -424 -230q-160 0 -277 78t-167 211h-4q-41 -136 -151.5 -212.5t-264.5 -76.5zM920 549h708q-12 152 -103 240t-243 88q-145 0 -245 -86t-117 -242zM451 66
q144 0 230.5 71.5t86.5 175.5q0 112 -92.5 179t-226.5 67q-136 0 -215.5 -69.5t-79.5 -180.5t80 -177t217 -66z" />
    <glyph glyph-name="uni04D6" unicode="&#x4d6;" horiz-adv-x="1056" 
d="M590 1497q-126 0 -202.5 71.5t-76.5 198.5h86q1 -90 52 -140t141 -50q89 0 140 49.5t52 140.5h86q0 -127 -76.5 -198.5t-201.5 -71.5zM272 106h684v-106h-796v1434h786v-107h-674v-471h621v-106h-621v-644z" />
    <glyph glyph-name="uni04D7" unicode="&#x4d7;" horiz-adv-x="1073" 
d="M827 1311q0 -134 -77 -210.5t-201 -76.5t-201.5 76.5t-77.5 210.5h86q3 -95 54 -149t139 -54t138.5 54t53.5 149h86zM549 977q117 0 207 -40t143 -109.5t79 -155.5t26 -187v-22h-830q1 -181 107 -286t278 -105q69 0 125.5 16.5t99 48.5t68.5 59t57 68l78 -65
q-32 -45 -64.5 -79t-84 -71.5t-123 -58.5t-156.5 -21q-223 0 -356 137.5t-133 364.5q0 234 133 370t346 136zM543 877q-144 0 -246 -85.5t-119 -242.5h713q-12 156 -101 242t-247 86z" />
    <glyph glyph-name="uni04D8" unicode="&#x4d8;" horiz-adv-x="1642" 
d="M795 1464q347 0 557.5 -203t210.5 -546q0 -221 -91 -390.5t-259.5 -262.5t-391.5 -93q-337 0 -539 202t-202 536v59h119h1243q-15 269 -188.5 427.5t-458.5 158.5q-173 0 -316 -64t-235 -174l-74 88q108 121 269 191.5t356 70.5zM821 82q274 0 439 155.5t182 419.5h-1241
q14 -266 178.5 -420.5t441.5 -154.5z" />
    <glyph glyph-name="uni04D9" unicode="&#x4d9;" horiz-adv-x="1073" 
d="M524 -31q-117 0 -206.5 40t-142.5 109.5t-79 155.5t-26 187v22h829q-1 181 -107 286t-278 105q-69 0 -125.5 -16.5t-99 -48.5t-68.5 -59t-57 -68l-78 66q25 35 48.5 62t63 60t82.5 55t104 37t130 15q223 0 356.5 -137.5t133.5 -364.5q0 -234 -133.5 -370t-346.5 -136z
M530 70q145 0 246.5 85t118.5 242h-713q12 -156 101 -241.5t247 -85.5z" />
    <glyph glyph-name="uni04DA" unicode="&#x4da;" horiz-adv-x="1642" 
d="M694 1720v-198h-133v198h133zM1083 1720v-198h-133v198h133zM795 1464q347 0 557.5 -203t210.5 -546q0 -221 -91 -390.5t-259.5 -262.5t-391.5 -93q-337 0 -539 202t-202 536v59h119h1243q-15 269 -188.5 427.5t-458.5 158.5q-173 0 -316 -64t-235 -174l-74 88
q108 121 269 191.5t356 70.5zM821 82q274 0 439 155.5t182 419.5h-1241q14 -266 178.5 -420.5t441.5 -154.5z" />
    <glyph glyph-name="uni04DB" unicode="&#x4db;" horiz-adv-x="1073" 
d="M461 1294v-229h-127v229h127zM766 1294v-229h-129v229h129zM524 -31q-117 0 -206.5 40t-142.5 109.5t-79 155.5t-26 187v22h829q-1 181 -107 286t-278 105q-69 0 -125.5 -16.5t-99 -48.5t-68.5 -59t-57 -68l-78 66q25 35 48.5 62t63 60t82.5 55t104 37t130 15
q223 0 356.5 -137.5t133.5 -364.5q0 -234 -133.5 -370t-346.5 -136zM530 70q145 0 246.5 85t118.5 242h-713q12 -156 101 -241.5t247 -85.5z" />
    <glyph glyph-name="uni04DC" unicode="&#x4dc;" horiz-adv-x="1767" 
d="M756 1720v-198h-133v198h133zM1145 1720v-198h-133v198h133zM1749 0h-158l-653 739v-739h-109v739l-653 -739h-158l687 758l-596 676h155l565 -662v662h109v-662l567 662h154l-596 -676z" />
    <glyph glyph-name="uni04DD" unicode="&#x4dd;" horiz-adv-x="1335" 
d="M580 1294v-229h-127v229h127zM885 1294v-229h-129v229h129zM1317 0h-148l-450 492v-492h-103v492l-452 -492h-146l480 510l-435 436h148l405 -422v422h103v-422l405 422h148l-434 -436z" />
    <glyph glyph-name="uni04DE" unicode="&#x4de;" horiz-adv-x="1202" 
d="M473 1720v-198h-133v198h133zM862 1720v-198h-133v198h133zM594 1464q229 0 345 -93t116 -259q0 -270 -324 -342v-2q79 -6 144 -29.5t120 -67.5t86 -118t31 -172q0 -192 -132 -302t-398 -110q-285 0 -514 137l55 103q218 -129 461 -129q193 0 302 73t109 230
q0 174 -126 249t-382 75h-172v108h170q211 0 331 74.5t120 214.5q0 117 -89 183.5t-257 66.5q-236 0 -455 -123l-51 104q231 129 510 129z" />
    <glyph glyph-name="uni04DF" unicode="&#x4df;" horiz-adv-x="927" 
d="M365 1294v-229h-127v229h127zM670 1294v-229h-129v229h129zM453 -31q-227 0 -396 90l45 95q172 -84 357 -84q293 0 293 190q0 104 -73.5 148.5t-232.5 44.5h-163v94h161q138 0 209.5 36t71.5 128q0 166 -270 166q-166 0 -328 -66l-37 94q179 72 369 72q176 0 276.5 -63
t100.5 -185q0 -92 -58.5 -151t-169.5 -72v-4q250 -21 250 -250q0 -133 -99 -208t-306 -75z" />
    <glyph glyph-name="uni04E0" unicode="&#x4e0;" horiz-adv-x="1136" 
d="M537 -31q-275 0 -500 131l57 105q197 -123 436 -123q185 0 287.5 79.5t102.5 246.5q0 178 -119 253.5t-361 75.5h-129v103l527 487h-703v107h860v-105l-549 -502q57 11 95 11q73 0 139 -11.5t133 -41.5t115.5 -76.5t79 -123t30.5 -175.5q0 -202 -124 -321.5t-377 -119.5z
" />
    <glyph glyph-name="uni04E1" unicode="&#x4e1;" horiz-adv-x="956" 
d="M424 -440q-240 0 -447 110l50 97q198 -105 403 -105q169 0 263.5 81t94.5 243q0 166 -103 238.5t-302 72.5h-199v96l512 455h-635v98h768v-104l-518 -457q111 6 115 6q222 0 347.5 -99.5t125.5 -303.5q0 -197 -118.5 -312.5t-356.5 -115.5z" />
    <glyph glyph-name="uni04E2" unicode="&#x4e2;" horiz-adv-x="1411" 
d="M983 1690v-88h-563v88h563zM160 1434h112v-1250h4l852 1250h123v-1434h-112v1249h-4l-852 -1249h-123v1434z" />
    <glyph glyph-name="uni04E3" unicode="&#x4e3;" horiz-adv-x="1105" 
d="M834 1188v-88h-564v88h564zM139 0v946h107v-796h4l598 796h119v-946h-107v797h-4l-596 -797h-121z" />
    <glyph glyph-name="uni04E4" unicode="&#x4e4;" horiz-adv-x="1411" 
d="M575 1720v-198h-133v198h133zM965 1720v-198h-134v198h134zM160 1434h112v-1250h4l852 1250h123v-1434h-112v1249h-4l-852 -1249h-123v1434z" />
    <glyph glyph-name="uni04E5" unicode="&#x4e5;" horiz-adv-x="1105" 
d="M465 1294v-229h-127v229h127zM770 1294v-229h-129v229h129zM139 0v946h107v-796h4l598 796h119v-946h-107v797h-4l-596 -797h-121z" />
    <glyph glyph-name="uni04E6" unicode="&#x4e6;" horiz-adv-x="1654" 
d="M700 1720v-198h-133v198h133zM1090 1720v-198h-134v198h134zM827 1464q211 0 381.5 -94t268.5 -265.5t98 -387.5t-98 -387.5t-268.5 -266t-381.5 -94.5t-381.5 94.5t-268 266t-97.5 387.5q0 162 57 302t156.5 237t237.5 152.5t296 55.5zM827 1352q-180 0 -323 -81
t-223 -226t-80 -328t80 -328t223 -226t323 -81t323.5 81t223.5 226t80 328t-80 328t-223.5 226t-323.5 81z" />
    <glyph glyph-name="uni04E7" unicode="&#x4e7;" horiz-adv-x="1153" 
d="M487 1294v-229h-127v229h127zM793 1294v-229h-129v229h129zM575 977q223 0 365.5 -141.5t142.5 -362.5t-142.5 -362.5t-365.5 -141.5q-221 0 -363 141.5t-142 362.5t142 362.5t363 141.5zM575 874q-170 0 -283.5 -111t-113.5 -290t113.5 -290t283.5 -111q172 0 286 111
t114 290t-114 290t-286 111z" />
    <glyph glyph-name="uni04E8" unicode="&#x4e8;" horiz-adv-x="1654" 
d="M827 1464q211 0 381.5 -94t268.5 -265.5t98 -387.5t-98 -387.5t-268.5 -266t-381.5 -94.5t-381.5 94.5t-268 266t-97.5 387.5q0 162 57 302t156.5 237t237.5 152.5t296 55.5zM827 1352q-263 0 -438 -165t-190 -427h1257q-15 261 -191 426.5t-438 165.5zM827 82
q264 0 439 165.5t190 426.5h-1257q14 -261 189 -426.5t439 -165.5z" />
    <glyph glyph-name="uni04E9" unicode="&#x4e9;" horiz-adv-x="1153" 
d="M575 977q223 0 365.5 -141.5t142.5 -362.5t-142.5 -362.5t-365.5 -141.5q-221 0 -363 141.5t-142 362.5t142 362.5t363 141.5zM575 877q-162 0 -273.5 -100.5t-123.5 -264.5h797q-12 164 -124.5 264.5t-275.5 100.5zM575 70q163 0 275.5 100t124.5 264h-797
q12 -164 123.5 -264t273.5 -100z" />
    <glyph glyph-name="uni04EA" unicode="&#x4ea;" horiz-adv-x="1654" 
d="M700 1720v-198h-133v198h133zM1090 1720v-198h-134v198h134zM827 1464q211 0 381.5 -94t268.5 -265.5t98 -387.5t-98 -387.5t-268.5 -266t-381.5 -94.5t-381.5 94.5t-268 266t-97.5 387.5q0 162 57 302t156.5 237t237.5 152.5t296 55.5zM827 1352q-263 0 -438 -165
t-190 -427h1257q-15 261 -191 426.5t-438 165.5zM827 82q264 0 439 165.5t190 426.5h-1257q14 -261 189 -426.5t439 -165.5z" />
    <glyph glyph-name="uni04EB" unicode="&#x4eb;" horiz-adv-x="1153" 
d="M492 1294v-229h-127v229h127zM797 1294v-229h-129v229h129zM575 977q223 0 365.5 -141.5t142.5 -362.5t-142.5 -362.5t-365.5 -141.5q-221 0 -363 141.5t-142 362.5t142 362.5t363 141.5zM575 877q-162 0 -273.5 -100.5t-123.5 -264.5h797q-12 164 -124.5 264.5
t-275.5 100.5zM575 70q163 0 275.5 100t124.5 264h-797q12 -164 123.5 -264t273.5 -100z" />
    <glyph glyph-name="uni04EC" unicode="&#x4ec;" horiz-adv-x="1404" 
d="M498 1720v-198h-133v198h133zM887 1720v-198h-133v198h133zM608 1464q325 0 521 -200.5t196 -546.5t-196 -547t-521 -201q-296 0 -540 166l61 98q223 -151 479 -151q262 0 424.5 161.5t171.5 440.5h-741v107h739q-22 261 -182 411t-412 150q-255 0 -479 -152l-61 98
q244 166 540 166z" />
    <glyph glyph-name="uni04ED" unicode="&#x4ed;" horiz-adv-x="962" 
d="M340 1294v-229h-127v229h127zM645 1294v-229h-129v229h129zM399 977q227 0 355.5 -136t128.5 -368t-128.5 -368t-355.5 -136q-190 0 -342 103l54 88q145 -88 290 -88q164 0 262.5 98t110.5 256h-452v94h452q-12 158 -110.5 256t-262.5 98q-145 0 -290 -88l-54 88
q152 103 342 103z" />
    <glyph glyph-name="uni04EE" unicode="&#x4ee;" horiz-adv-x="1220" 
d="M897 1690v-88h-563v88h563zM1081 1434h125l-688 -1434h-123l174 367l-553 1067h134l481 -942z" />
    <glyph glyph-name="uni04EF" unicode="&#x4ef;" horiz-adv-x="927" 
d="M748 1188v-88h-564v88h564zM793 946h116l-641 -1356h-112l252 519l-390 837h121l322 -725z" />
    <glyph glyph-name="uni04F0" unicode="&#x4f0;" horiz-adv-x="1220" 
d="M489 1720v-198h-133v198h133zM879 1720v-198h-134v198h134zM1081 1434h125l-688 -1434h-123l174 367l-553 1067h134l481 -942z" />
    <glyph glyph-name="uni04F1" unicode="&#x4f1;" horiz-adv-x="927" 
d="M379 1294v-229h-127v229h127zM684 1294v-229h-129v229h129zM793 946h116l-641 -1356h-112l252 519l-390 837h121l322 -725z" />
    <glyph glyph-name="uni04F2" unicode="&#x4f2;" horiz-adv-x="1220" 
d="M778 1767l-213 -245h-88l189 245h112zM762 1522h-88l186 245h113zM1081 1434h125l-688 -1434h-123l174 367l-553 1067h134l481 -942z" />
    <glyph glyph-name="uni04F3" unicode="&#x4f3;" horiz-adv-x="927" 
d="M659 1346l-237 -316h-88l213 316h112zM623 1030h-91l213 316h113zM793 946h116l-641 -1356h-112l252 519l-390 837h121l322 -725z" />
    <glyph glyph-name="uni04F4" unicode="&#x4f4;" horiz-adv-x="1146" 
d="M391 1720v-198h-133v198h133zM780 1720v-198h-133v198h133zM874 1434h113v-1434h-113v629h-483q-176 0 -259 76.5t-83 236.5v492h113v-492q0 -112 58.5 -159.5t182.5 -47.5h471v699z" />
    <glyph glyph-name="uni04F5" unicode="&#x4f5;" horiz-adv-x="888" 
d="M305 1294v-229h-127v229h127zM610 1294v-229h-129v229h129zM647 946h105v-946h-105v399h-362q-246 0 -246 230v317h102v-313q0 -73 37.5 -105t110.5 -32h358v450z" />
    <glyph glyph-name="uni04F8" unicode="&#x4f8;" horiz-adv-x="1564" 
d="M674 1720v-198h-133v198h133zM1063 1720v-198h-133v198h133zM655 811q200 0 319.5 -109t119.5 -296t-119.5 -296.5t-319.5 -109.5h-495v1434h112v-623h383zM1292 1434h115v-1434h-115v1434zM635 106q167 0 253.5 81t86.5 219t-86.5 218.5t-253.5 80.5h-363v-599h363z" />
    <glyph glyph-name="uni04F9" unicode="&#x4f9;" horiz-adv-x="1239" 
d="M543 1294v-229h-127v229h127zM848 1294v-229h-129v229h129zM592 588q137 0 222 -79t85 -214t-85.5 -215t-223.5 -80h-451v946h103v-358h350zM997 946h103v-946h-103v946zM578 94q107 0 158.5 52.5t51.5 146.5q0 199 -210 199h-336v-398h336z" />
    <glyph glyph-name="uni04FC" unicode="&#x4fc;" horiz-adv-x="1239" 
d="M1047 203q48 -71 76 -119.5t53.5 -119t25.5 -132.5q0 -119 -76 -180.5t-211 -61.5h-94v107h97q81 0 125 36t44 105q0 37 -11 75.5t-41.5 92t-48 81.5t-66.5 101l-314 471l-436 -659h-133l500 756l-449 678h135l383 -580l381 580h135l-448 -676z" />
    <glyph glyph-name="uni04FD" unicode="&#x4fd;" horiz-adv-x="925" 
d="M602 -410v99h94q127 0 127 147q0 62 -32 127t-115 174l-211 277l-320 -414h-127l385 496l-346 450h129l279 -371l280 371h129l-348 -450l256 -326q78 -101 112 -177t34 -163q0 -115 -57.5 -177.5t-170.5 -62.5h-98z" />
    <glyph glyph-name="uni0510" unicode="&#x510;" horiz-adv-x="1202" 
d="M608 1464q279 0 510 -129l-51 -104q-219 123 -455 123q-168 0 -257 -66.5t-89 -183.5q0 -140 120 -214.5t331 -74.5h170v-108h-172q-254 0 -381 -75t-127 -249q0 -157 109 -230t302 -73q247 0 461 129l58 -103q-233 -137 -516 -137q-266 0 -398.5 110t-132.5 302
q0 98 31 172t86 118t120 67.5t144 29.5v2q-321 71 -321 342q0 166 114.5 259t343.5 93z" />
    <glyph glyph-name="uni0511" unicode="&#x511;" horiz-adv-x="899" 
d="M440 -31q-370 0 -370 273q0 114 70 181.5t196 78.5v4q-113 14 -178.5 75t-65.5 156q0 117 89.5 178.5t250.5 61.5q185 0 377 -72l-39 -94q-162 66 -328 66q-239 0 -239 -158q0 -95 76.5 -133.5t214.5 -38.5h153v-94h-155q-160 0 -237 -46.5t-77 -154.5q0 -182 256 -182
q116 0 198.5 22.5t162.5 61.5l47 -95q-91 -42 -184.5 -66t-217.5 -24z" />
    <glyph glyph-name="uni0512" unicode="&#x512;" horiz-adv-x="1447" 
d="M1290 -147q0 -123 -60 -193t-177 -70h-125v107h119q64 0 97.5 40.5t33.5 117.5v145v1327h-770v-997q0 -176 -69.5 -258t-221.5 -82h-78v110h70q95 0 140.5 51.5t45.5 178.5v1104h995v-1581z" />
    <glyph glyph-name="uni0513" unicode="&#x513;" horiz-adv-x="1095" 
d="M956 946v-946v-164q0 -120 -56 -183t-169 -63h-100v99h94q129 0 129 147v164v848h-547v-617q0 -235 -203 -235h-84v96h76q55 0 82 33.5t27 105.5v715h751z" />
    <glyph glyph-name="uni051C" unicode="&#x51c;" horiz-adv-x="1972" 
d="M1942 1434l-439 -1434h-114l-400 1249h-6l-399 -1249h-115l-438 1434h127l364 -1252h4l398 1252h125l397 -1252h4l362 1252h130z" />
    <glyph glyph-name="uni051D" unicode="&#x51d;" horiz-adv-x="1468" 
d="M1335 946h115l-322 -946h-102l-291 815l-293 -815h-102l-322 946h115l258 -817l287 817h115l284 -817z" />
    <glyph glyph-name="uni0524" unicode="&#x524;" horiz-adv-x="1386" 
d="M1247 74h92v-361h-108v287h-96v1327h-863v-1327h-112v1434h1087v-1360z" />
    <glyph glyph-name="uni0525" unicode="&#x525;" horiz-adv-x="1034" 
d="M928 59h67v-325h-98v266h-74v848h-581v-848h-103v946h103h659h27v-887z" />
    <glyph glyph-name="uni0526" unicode="&#x526;" horiz-adv-x="1224" 
d="M1098 74h80v-361h-109v287h-84v492q0 111 -58.5 158.5t-183.5 47.5h-471v-698h-112v1434h112v-629h484q178 0 260 -76t82 -237v-418z" />
    <glyph glyph-name="uni0527" unicode="&#x527;" horiz-adv-x="1089" 
d="M977 59h74v-325h-99v266h-80v563q0 157 -74.5 233t-203.5 76q-55 0 -104 -13.5t-95 -46t-79 -83t-52.5 -129t-19.5 -178.5v-422h-103v1434h103v-703h4q45 121 140 183.5t222 62.5q168 0 267.5 -101t99.5 -305v-512z" />
    <glyph glyph-name="uni0E3F" unicode="&#xe3f;" horiz-adv-x="995" 
d="M664 688q118 -28 183.5 -113.5t65.5 -220.5q0 -111 -53.5 -192.5t-140.5 -121.5t-195 -40h-26v-178h-58v178h-358v1382h358v179h58v-179h26q108 0 195 -40t140.5 -121.5t53.5 -192.5q0 -135 -65.5 -220.5t-183.5 -113.5v-6zM440 1284h-254v-545h254v545zM528 1284h-30
v-545q147 6 227 81t80 200q0 119 -80 191.5t-197 72.5zM186 98h254v545h-254v-545zM528 98q117 0 198 72.5t81 191.5q0 125 -80 200t-229 81v-545h30z" />
    <glyph glyph-name="Wgrave" unicode="&#x1e80;" horiz-adv-x="1972" 
d="M840 1767l194 -245h-92l-254 245h152zM1942 1434l-439 -1434h-114l-400 1249h-6l-399 -1249h-115l-438 1434h127l364 -1252h4l398 1252h125l397 -1252h4l362 1252h130z" />
    <glyph glyph-name="wgrave" unicode="&#x1e81;" horiz-adv-x="1468" 
d="M780 1133h-92l-254 315h152zM1335 946h115l-322 -946h-102l-291 815l-293 -815h-102l-322 946h115l258 -817l287 817h115l284 -817z" />
    <glyph glyph-name="Wacute" unicode="&#x1e82;" horiz-adv-x="1972" 
d="M1286 1767l-254 -245h-92l195 245h151zM1942 1434l-439 -1434h-114l-400 1249h-6l-399 -1249h-115l-438 1434h127l364 -1252h4l398 1252h125l397 -1252h4l362 1252h130z" />
    <glyph glyph-name="wacute" unicode="&#x1e83;" horiz-adv-x="1468" 
d="M1034 1448l-252 -315h-94l195 315h151zM1335 946h115l-322 -946h-102l-291 815l-293 -815h-102l-322 946h115l258 -817l287 817h115l284 -817z" />
    <glyph glyph-name="Wdieresis" unicode="&#x1e84;" horiz-adv-x="1972" 
d="M858 1720v-198h-133v198h133zM1247 1720v-198h-133v198h133zM1942 1434l-439 -1434h-114l-400 1249h-6l-399 -1249h-115l-438 1434h127l364 -1252h4l398 1252h125l397 -1252h4l362 1252h130z" />
    <glyph glyph-name="wdieresis" unicode="&#x1e85;" horiz-adv-x="1468" 
d="M608 1413v-229h-129v229h129zM987 1413v-229h-129v229h129zM1335 946h115l-322 -946h-102l-291 815l-293 -815h-102l-322 946h115l258 -817l287 817h115l284 -817z" />
    <glyph glyph-name="Ygrave" unicode="&#x1ef2;" horiz-adv-x="1079" 
d="M588 1522h-92l-254 245h151zM1063 1434l-467 -883v-551h-113v551l-467 883h134l387 -758h6l387 758h133z" />
    <glyph glyph-name="ygrave" unicode="&#x1ef3;" horiz-adv-x="927" 
d="M514 1133h-92l-254 315h151zM793 946h116l-641 -1356h-112l252 519l-390 837h121l322 -725z" />
    <glyph glyph-name="endash" unicode="&#x2013;" horiz-adv-x="1540" 
d="M1438 610v-100h-1336v100h1336z" />
    <glyph glyph-name="emdash" unicode="&#x2014;" horiz-adv-x="2363" 
d="M2261 610v-98h-2159v98h2159z" />
    <glyph glyph-name="quoteleft" unicode="&#x2018;" horiz-adv-x="325" 
d="M254 1513l-111 -292h84v-166h-166v166l136 292h57z" />
    <glyph glyph-name="quoteright" unicode="&#x2019;" horiz-adv-x="325" 
d="M98 1464h166v-164l-135 -294h-57l110 294h-84v164z" />
    <glyph glyph-name="quotesinglbase" unicode="&#x201a;" horiz-adv-x="325" 
d="M98 166h166v-166l-135 -293h-57l110 293h-84v166z" />
    <glyph glyph-name="quotedblleft" unicode="&#x201c;" horiz-adv-x="561" 
d="M197 1513h57l-111 -292h84v-166h-166v166zM489 1513l-110 -292h84v-166h-166v166l135 292h57z" />
    <glyph glyph-name="quotedblright" unicode="&#x201d;" horiz-adv-x="561" 
d="M98 1300v164h166v-164l-135 -294h-57l110 294h-84zM336 1464h164v-164l-135 -294h-58l111 294h-82v164z" />
    <glyph glyph-name="quotedblbase" unicode="&#x201e;" horiz-adv-x="561" 
d="M98 0v166h166v-166l-135 -293h-57l110 293h-84zM336 166h164v-166l-135 -293h-58l111 293h-82v166z" />
    <glyph glyph-name="dagger" unicode="&#x2020;" horiz-adv-x="1005" 
d="M903 969v-95h-350v-1064h-100v1064h-351v95h351v465h100v-465h350z" />
    <glyph glyph-name="daggerdbl" unicode="&#x2021;" horiz-adv-x="1003" 
d="M901 879h-348v-506h348v-94h-348v-469h-102v469h-349v94h349v506h-349v94h349v461h102v-461h348v-94z" />
    <glyph glyph-name="bullet" unicode="&#x2022;" horiz-adv-x="624" 
d="M311 961q75 0 128 -52t53 -127t-53 -126.5t-128 -51.5t-126.5 51.5t-51.5 126.5t51.5 127t126.5 52z" />
    <glyph glyph-name="ellipsis" unicode="&#x2026;" horiz-adv-x="1374" 
d="M295 182v-182h-182v182h182zM778 182v-182h-182v182h182zM1262 182v-182h-183v182h183z" />
    <glyph glyph-name="perthousand" unicode="&#x2030;" horiz-adv-x="2260" 
d="M422 1413q140 0 229.5 -89.5t89.5 -229.5t-90 -230t-229 -90q-140 0 -230 90t-90 230q0 139 90 229t230 90zM299 0l809 1382h84l-809 -1382h-84zM422 1333q-106 0 -170 -66t-64 -173q0 -108 64.5 -174t169.5 -66q107 0 171 66t64 174t-64 173.5t-171 65.5zM1106 629
q139 0 229 -90t90 -230q0 -139 -89.5 -229t-229.5 -90t-230 90t-90 229t90 229.5t230 90.5zM1839 629q139 0 229.5 -90.5t90.5 -229.5t-90 -229t-230 -90q-139 0 -229 90t-90 229q0 140 90 230t229 90zM1106 549q-107 0 -170.5 -66t-63.5 -174t63.5 -173.5t170.5 -65.5
t171 65.5t64 173.5t-64 174t-171 66zM1839 549q-107 0 -171 -66t-64 -174t64 -173.5t171 -65.5t170.5 65.5t63.5 173.5t-63.5 174t-170.5 66z" />
    <glyph glyph-name="guilsinglleft" unicode="&#x2039;" horiz-adv-x="475" 
d="M455 788l-293 -309l293 -309h-129l-285 309l285 309h129z" />
    <glyph glyph-name="guilsinglright" unicode="&#x203a;" horiz-adv-x="475" 
d="M20 788h130l284 -309l-284 -309h-130l291 309z" />
    <glyph glyph-name="fraction" unicode="&#x2044;" horiz-adv-x="196" 
d="M-348 0l809 1382h84l-809 -1382h-84z" />
    <glyph glyph-name="uni2070" unicode="&#x2070;" horiz-adv-x="843" 
d="M422 692q-158 0 -253 123t-95 354t95.5 354.5t252.5 123.5t252.5 -123.5t95.5 -354.5t-95 -354t-253 -123zM422 786q111 0 179.5 101t68.5 282t-68.5 282t-179.5 101t-179.5 -101t-68.5 -282t68.5 -282t179.5 -101z" />
    <glyph glyph-name="uni2074" unicode="&#x2074;" horiz-adv-x="802" 
d="M741 987v-96h-123v-178h-92v178h-485v80l475 655h102v-639h123zM162 987h364v498h-6z" />
    <glyph glyph-name="uni2075" unicode="&#x2075;" horiz-adv-x="774" 
d="M385 692q-107 0 -189 48.5t-124 142.5l80 53q74 -152 235 -152q107 0 160 61t53 161q0 107 -58 161t-151 54q-118 0 -196 -95h-86l59 500h469v-94h-391l-37 -293h4q78 70 195 70q122 0 207 -78t85 -227q0 -143 -83 -227.5t-232 -84.5z" />
    <glyph glyph-name="uni2076" unicode="&#x2076;" horiz-adv-x="782" 
d="M395 692q-134 0 -229.5 85t-95.5 233q0 92 35 179.5t122 196.5l207 254h127l-342 -403l4 -2q79 82 191 82q135 0 221 -87.5t86 -228.5q0 -132 -91.5 -220.5t-234.5 -88.5zM399 784q97 0 160.5 61t63.5 163q0 100 -63.5 159.5t-160.5 59.5q-98 0 -163.5 -61.5
t-65.5 -159.5q0 -101 64.5 -161.5t164.5 -60.5z" />
    <glyph glyph-name="uni2077" unicode="&#x2077;" horiz-adv-x="673" 
d="M111 713l401 817h-473v96h575v-88l-395 -825h-108z" />
    <glyph glyph-name="uni2078" unicode="&#x2078;" horiz-adv-x="784" 
d="M393 692q-154 0 -236.5 73.5t-82.5 192.5q0 94 50.5 156.5t131.5 83.5v4q-66 21 -111 73.5t-45 135.5q0 103 78 168.5t215 65.5t214 -65.5t77 -168.5q0 -83 -45 -135.5t-111 -73.5v-4q81 -21 132 -83.5t51 -156.5q0 -119 -82.5 -192.5t-235.5 -73.5zM393 1243
q86 0 138.5 44.5t52.5 115.5q0 73 -52.5 115.5t-138.5 42.5q-87 0 -138.5 -42.5t-51.5 -115.5q0 -71 51.5 -115.5t138.5 -44.5zM393 780q99 0 158 49t59 136q0 85 -58 137.5t-159 52.5q-102 0 -160.5 -52.5t-58.5 -137.5q0 -87 59 -136t160 -49z" />
    <glyph glyph-name="uni2079" unicode="&#x2079;" horiz-adv-x="770" 
d="M233 713l324 385l-2 4q-84 -68 -195 -68q-129 0 -214 86t-85 215q0 135 92 223.5t230 88.5q140 0 233 -85.5t93 -234.5q0 -100 -35.5 -186.5t-118.5 -184.5l-203 -243h-119zM385 1124q98 0 160.5 59.5t62.5 155.5q0 97 -63 156t-158 59q-98 0 -161.5 -60t-63.5 -157
q0 -95 63 -154t160 -59z" />
    <glyph glyph-name="uni2080" unicode="&#x2080;" horiz-adv-x="843" 
d="M422 -246q-158 0 -253 123t-95 354t95.5 354.5t252.5 123.5t252.5 -123.5t95.5 -354.5t-95 -354t-253 -123zM422 -152q111 0 179.5 101t68.5 282t-68.5 282t-179.5 101t-179.5 -101t-68.5 -282t68.5 -282t179.5 -101z" />
    <glyph glyph-name="uni2081" unicode="&#x2081;" horiz-adv-x="454" 
d="M195 -225v815h-74v98h174v-913h-100z" />
    <glyph glyph-name="uni2082" unicode="&#x2082;" horiz-adv-x="731" 
d="M82 -225v84l354 362q123 127 123 234q0 72 -48.5 116.5t-135.5 44.5q-79 0 -134 -42t-59 -132h-98q3 134 85 200.5t210 66.5q133 0 205.5 -68t72.5 -184q0 -146 -143 -289l-295 -299h443v-94h-580z" />
    <glyph glyph-name="uni2083" unicode="&#x2083;" horiz-adv-x="778" 
d="M383 -246q-137 0 -218.5 62t-84.5 188h98q8 -75 60.5 -116.5t148.5 -41.5q99 0 156 46t57 139q0 101 -67 141.5t-211 40.5v84q55 1 95.5 8.5t74.5 24.5t51.5 49t17.5 78q0 157 -176 157q-86 0 -139.5 -36.5t-57.5 -110.5h-98q5 109 83 175.5t212 66.5q130 0 203.5 -64.5
t73.5 -169.5q0 -76 -41.5 -134t-126.5 -77v-4q91 -13 147.5 -70.5t56.5 -164.5q0 -118 -78 -194.5t-237 -76.5z" />
    <glyph glyph-name="uni2084" unicode="&#x2084;" horiz-adv-x="802" 
d="M741 49v-96h-123v-178h-92v178h-485v80l475 655h102v-639h123zM162 49h364v498h-6z" />
    <glyph glyph-name="uni2085" unicode="&#x2085;" horiz-adv-x="774" 
d="M385 -246q-107 0 -189 48.5t-124 142.5l80 53q74 -152 235 -152q107 0 160 61t53 161q0 107 -58 161t-151 54q-118 0 -196 -95h-86l59 500h469v-94h-391l-37 -293h4q78 70 195 70q122 0 207 -78t85 -227q0 -143 -83 -227.5t-232 -84.5z" />
    <glyph glyph-name="uni2086" unicode="&#x2086;" horiz-adv-x="782" 
d="M395 -246q-134 0 -229.5 85t-95.5 233q0 93 35 180.5t122 196.5l207 253h127l-342 -403l4 -2q79 82 191 82q135 0 221 -87.5t86 -228.5q0 -132 -91.5 -220.5t-234.5 -88.5zM399 -154q97 0 160.5 61t63.5 163q0 100 -63.5 159.5t-160.5 59.5q-98 0 -163.5 -61.5
t-65.5 -159.5q0 -101 64.5 -161.5t164.5 -60.5z" />
    <glyph glyph-name="uni2087" unicode="&#x2087;" horiz-adv-x="673" 
d="M111 -225l401 817h-473v96h575v-88l-395 -825h-108z" />
    <glyph glyph-name="uni2088" unicode="&#x2088;" horiz-adv-x="784" 
d="M393 -246q-154 0 -236.5 73.5t-82.5 192.5q0 94 50.5 156.5t131.5 83.5v4q-66 21 -111 73.5t-45 135.5q0 103 78 168.5t215 65.5t214 -65.5t77 -168.5q0 -83 -45 -135.5t-111 -73.5v-4q81 -21 132 -83.5t51 -156.5q0 -119 -82.5 -192.5t-235.5 -73.5zM393 305
q86 0 138.5 44.5t52.5 115.5q0 73 -52.5 115.5t-138.5 42.5q-87 0 -138.5 -42.5t-51.5 -115.5q0 -71 51.5 -115.5t138.5 -44.5zM393 -158q99 0 158 49t59 136q0 85 -58 137.5t-159 52.5q-102 0 -160.5 -52.5t-58.5 -137.5q0 -87 59 -136t160 -49z" />
    <glyph glyph-name="uni2089" unicode="&#x2089;" horiz-adv-x="770" 
d="M233 -225l324 385l-2 4q-84 -68 -195 -68q-129 0 -214 86t-85 215q0 135 92 223.5t230 88.5q140 0 233 -85.5t93 -234.5q0 -100 -35.5 -186.5t-118.5 -184.5l-203 -243h-119zM385 186q98 0 160.5 59.5t62.5 155.5q0 97 -63 156t-158 59q-98 0 -161.5 -60t-63.5 -157
q0 -95 63 -154t160 -59z" />
    <glyph glyph-name="TRY" unicode="&#x20a4;" horiz-adv-x="1193" 
d="M1008 670h104q0 -311 -179 -490.5t-468 -179.5h-100v635l-283 -123v63l283 123v115l-283 -123v64l283 123v505h102v-460l397 174v-64l-397 -174v-115l397 175v-64l-397 -174v-576q249 0 395 152.5t146 413.5z" />
    <glyph glyph-name="uni20A9" unicode="&#x20a9;" horiz-adv-x="1894" 
d="M1853 805h-202l-37 -139h239v-62h-258l-163 -604h-138l-166 604h-360l-166 -604h-139l-164 604h-258v62h242l-39 139h-203v61h186l-139 516h115l135 -516h397l142 516h141l141 -516h400l133 516h116l-141 -516h186v-61zM946 1253l-106 -387h217l-107 387h-4zM352 805
l37 -139h291l39 139h-367zM784 666h326l-37 139h-252zM1505 666l37 139h-366l38 -139h291zM532 127l132 477h-258l122 -477h4zM1366 127l123 477h-258l131 -477h4z" />
    <glyph glyph-name="Euro" unicode="&#x20ac;" horiz-adv-x="1345" 
d="M887 1313q-203 0 -338.5 -131t-167.5 -359h692l-31 -61h-667q-4 -50 -4 -74q0 -33 2 -47h616l-31 -61h-581q22 -243 149.5 -375.5t352.5 -132.5q169 0 329 82v-113q-147 -70 -334 -70q-144 0 -256 46t-184 129.5t-113 192t-53 241.5h-258l31 61h223q-2 16 -2 51
q0 12 1 35t1 35h-244l31 61h219q16 128 63.5 235t123.5 186.5t186 124t244 44.5q211 0 401 -113l-51 -92q-168 105 -350 105z" />
    <glyph glyph-name="uni20AE" unicode="&#x20ae;" horiz-adv-x="1085" 
d="M1044 1284h-448v-379l307 158v-64l-307 -157v-115l307 158v-64l-307 -157v-664h-104v610l-310 -157v63l310 158v114l-310 -157v63l310 158v432h-451v98h1003v-98z" />
    <glyph glyph-name="uni20B4" unicode="&#x20b4;" horiz-adv-x="1007" 
d="M678 809q-7 -6 -19 -15l-16 -12l-156 -112h480v-62h-564q-99 -74 -144.5 -146t-45.5 -151q0 -104 73.5 -172.5t223.5 -68.5q95 0 192.5 31t221.5 98v-109q-202 -121 -420 -121q-185 0 -292.5 86t-107.5 258q0 155 144 295h-207v62h281q10 10 34 26l154 113h-469v61h553
q80 65 119 122t39 134q0 84 -62 135.5t-182 51.5q-124 0 -332 -90v108q193 82 338 82q167 0 256.5 -77t89.5 -208q0 -146 -112 -258h219v-61h-289z" />
    <glyph glyph-name="uni20B8" unicode="&#x20b8;" horiz-adv-x="1085" 
d="M41 1382h1003v-98h-1003v98zM41 1059v100h1003v-100h-448v-1059h-104v1059h-451z" />
    <glyph glyph-name="uni20B9" unicode="&#x20b9;" horiz-adv-x="1046" 
d="M586 1321q84 -46 135.5 -124t58.5 -181h185l-45 -62h-140q-10 -168 -135 -269t-311 -101h-119l524 -584h-133l-524 584v100h246q156 0 245.5 74.5t98.5 195.5h-590v62h590q-12 120 -101.5 193t-242.5 73h-246v100h244h639l-45 -61h-334z" />
    <glyph glyph-name="uni20BD" unicode="&#x20bd;" horiz-adv-x="1173" 
d="M659 606h-264v-176h469v-61h-469v-369h-104v369h-209v61h209v176h-209v99h209v677h368q206 0 319.5 -107.5t113.5 -283.5q0 -174 -113.5 -279.5t-319.5 -105.5zM395 1284v-579h264q150 0 237 73.5t87 212.5q0 143 -87 218t-237 75h-264z" />
    <glyph glyph-name="uni2113" unicode="&#x2113;" horiz-adv-x="917" 
d="M334 614q3 -287 60 -414.5t186 -127.5q53 0 108 20.5t137 69.5v-105q-6 -3 -27 -14t-26 -13.5l-23 -11.5t-24 -11.5t-22 -9t-24 -8t-23 -5.5t-26.5 -5.5t-26.5 -2.5t-30 -1q-173 0 -251 138.5t-84 464.5q-117 -41 -156 -52v92q60 21 156 58q1 173 20 303.5t50.5 212
t77.5 132t96 70t112 19.5q115 0 178.5 -70t63.5 -194q0 -321 -502 -535zM590 1319q-40 0 -72.5 -14t-66.5 -54t-58 -105t-40 -175t-19 -256q405 184 405 436q0 83 -40 125.5t-109 42.5z" />
    <glyph glyph-name="uni2116" unicode="&#x2116;" horiz-adv-x="2316" 
d="M1251 1434v-1434h-123l-852 1243h-4v-1243h-112v1434h123l852 -1244h4v1244h112zM1808 1112q189 0 307.5 -118.5t118.5 -307.5t-118.5 -307.5t-307.5 -118.5t-307.5 118.5t-118.5 307.5t118.5 307.5t307.5 118.5zM1808 1016q-143 0 -234 -92.5t-91 -237.5
q0 -143 91.5 -236.5t233.5 -93.5t234 93.5t92 236.5q0 145 -91.5 237.5t-234.5 92.5zM2204 92v-92h-791v92h791z" />
    <glyph glyph-name="trademark" unicode="&#x2122;" horiz-adv-x="1703" 
d="M672 1356h-264v-785h-82v785h-265v78h611v-78zM1442 1434l200 -863h-86l-165 707l-220 -576h-71l-221 576l-166 -707h-86l200 863h82l226 -603l227 603h80z" />
    <glyph glyph-name="estimated" unicode="&#x212e;" horiz-adv-x="1599" 
d="M80 623q0 176 96.5 325t262 235.5t360.5 86.5q196 0 362 -86.5t262.5 -235.5t96.5 -325v-19h-1176v-287q0 -68 28 -124.5t79 -88.5q139 -92 352 -92q151 0 285 57t223 158h59q-101 -118 -252.5 -185t-318.5 -67q-146 0 -279.5 51.5t-229.5 138t-153 206.5t-57 252z
M1165 1130q-133 103 -362 103q-216 0 -352 -94q-107 -72 -107 -174v-324h911v311q0 109 -90 178z" />
    <glyph glyph-name="uni2153" unicode="&#x2153;" horiz-adv-x="1314" 
d="M80 0l809 1382h84l-809 -1382h-84zM258 1382v-790h-78v711h-98v79h176zM963 809q117 0 181 -53t64 -148q0 -69 -42.5 -117t-116.5 -63v-2q86 -11 135 -63.5t49 -145.5q0 -105 -67.5 -170t-209.5 -65q-119 0 -190.5 57.5t-77.5 165.5h82q4 -72 57 -110t129 -38
q91 0 144 40t53 124q0 48 -18 80t-53 49t-76.5 24t-96.5 7v74q217 7 217 145q0 133 -165 133q-79 0 -128 -35.5t-53 -107.5h-80q6 107 73.5 163t189.5 56z" />
    <glyph glyph-name="uni2154" unicode="&#x2154;" horiz-adv-x="1617" 
d="M332 1401q119 0 179 -59.5t60 -155.5q0 -121 -131 -256l-250 -260h388v-78h-500l-2 70l297 311q114 119 114 215q0 59 -39 98t-116 39q-74 0 -118 -40.5t-50 -113.5h-82q4 108 72 169t178 61zM383 0l809 1382h84l-809 -1382h-84zM1266 809q117 0 181 -53t64 -148
q0 -69 -42.5 -117t-116.5 -63v-2q86 -11 135 -63.5t49 -145.5q0 -105 -67 -170t-209 -65q-119 0 -191 57.5t-78 165.5h82q4 -72 57.5 -110t129.5 -38q91 0 143.5 40t52.5 124q0 48 -18 80t-53 49t-76.5 24t-96.5 7v74q218 7 218 145q0 133 -166 133q-79 0 -128 -35.5
t-53 -107.5h-79q6 107 73 163t189 56z" />
    <glyph glyph-name="oneeighth" unicode="&#x215b;" horiz-adv-x="1320" 
d="M80 0l809 1382h84l-809 -1382h-84zM258 1382v-790h-78v711h-98v79h176zM971 -18q-128 0 -197 65t-69 164q0 89 44.5 140.5t112.5 68.5v4q-58 14 -96.5 58.5t-38.5 123.5q0 88 64.5 145.5t179.5 57.5t179 -57.5t64 -145.5q0 -79 -38.5 -123.5t-96.5 -58.5v-4
q68 -17 113 -69t45 -140q0 -99 -69 -164t-197 -65zM971 461q75 0 118.5 38t43.5 99t-44 98t-118 37t-119 -37t-45 -98t44.5 -99t119.5 -38zM971 57q89 0 136.5 42t47.5 118q0 75 -50 118.5t-134 43.5t-134.5 -43.5t-50.5 -118.5q0 -76 48 -118t137 -42z" />
    <glyph glyph-name="threeeighths" unicode="&#x215c;" horiz-adv-x="1587" 
d="M338 1401q117 0 181.5 -53t64.5 -148q0 -69 -43 -117t-117 -63v-2q86 -11 135 -63.5t49 -145.5q0 -105 -67 -170.5t-209 -65.5q-119 0 -191 58t-78 166h82q4 -72 57.5 -110t129.5 -38q91 0 143.5 40t52.5 124q0 91 -63.5 125.5t-179.5 34.5v74q217 7 217 145
q0 133 -166 133q-79 0 -127.5 -35.5t-52.5 -107.5h-80q6 107 73 163t189 56zM346 0l809 1382h84l-809 -1382h-84zM1237 -18q-128 0 -197 65t-69 164q0 89 44.5 140.5t112.5 68.5v4q-58 14 -96.5 58.5t-38.5 123.5q0 88 64.5 145.5t179.5 57.5t179.5 -57.5t64.5 -145.5
q0 -79 -38.5 -123.5t-96.5 -58.5v-4q67 -17 112 -69t45 -140q0 -99 -69 -164t-197 -65zM1237 461q75 0 118.5 38t43.5 99t-44 98t-118 37t-119 -37t-45 -98t44.5 -99t119.5 -38zM1237 57q89 0 136.5 42t47.5 118q0 75 -50 118.5t-134 43.5t-134 -43.5t-50 -118.5
q0 -76 47.5 -118t136.5 -42z" />
    <glyph glyph-name="fiveeighths" unicode="&#x215d;" horiz-adv-x="1587" 
d="M352 1110q103 0 178.5 -66.5t75.5 -197.5q0 -127 -74 -200t-200 -73q-99 0 -169 43t-102 127l70 39q57 -131 205 -131q92 0 141 52.5t49 140.5q0 95 -53.5 142.5t-132.5 47.5q-114 0 -168 -76h-72l50 424h393v-75h-332l-31 -265h4q23 31 69 49.5t99 18.5zM346 0l809 1382
h84l-809 -1382h-84zM1237 -18q-128 0 -197 65t-69 164q0 89 44.5 140.5t112.5 68.5v4q-58 14 -96.5 58.5t-38.5 123.5q0 88 64.5 145.5t179.5 57.5t179.5 -57.5t64.5 -145.5q0 -79 -38.5 -123.5t-96.5 -58.5v-4q67 -17 112 -69t45 -140q0 -99 -69 -164t-197 -65zM1237 461
q75 0 118.5 38t43.5 99t-44 98t-118 37t-119 -37t-45 -98t44.5 -99t119.5 -38zM1237 57q89 0 136.5 42t47.5 118q0 75 -50 118.5t-134 43.5t-134 -43.5t-50 -118.5q0 -76 47.5 -118t136.5 -42z" />
    <glyph glyph-name="seveneighths" unicode="&#x215e;" horiz-adv-x="1423" 
d="M537 1382v-73l-353 -717h-84l353 713h-412v77h496zM184 0l809 1382h84l-809 -1382h-84zM1073 -18q-128 0 -197 65t-69 164q0 89 44.5 140.5t113.5 68.5v4q-58 14 -97 59t-39 123q0 88 64.5 145.5t179.5 57.5t179.5 -57.5t64.5 -145.5q0 -79 -38.5 -123.5t-96.5 -58.5v-4
q67 -17 112 -69t45 -140q0 -99 -69 -164t-197 -65zM1073 461q75 0 118.5 38t43.5 99t-44 98t-118 37t-119 -37t-45 -98t44.5 -99t119.5 -38zM1073 57q89 0 136.5 42t47.5 118q0 75 -50 118.5t-134 43.5t-134 -43.5t-50 -118.5q0 -76 47.5 -118t136.5 -42z" />
    <glyph glyph-name="arrowleft" unicode="&#x2190;" horiz-adv-x="1681" 
d="M1579 647v-106h-1284l502 -512l-80 -80l-615 645l615 645l80 -80l-502 -512h1284z" />
    <glyph glyph-name="arrowup" unicode="&#x2191;" horiz-adv-x="1495" 
d="M1393 700l-80 -79l-512 501v-1284h-107v1284l-512 -501l-80 79l646 615z" />
    <glyph glyph-name="arrowright" unicode="&#x2192;" horiz-adv-x="1681" 
d="M965 1241l614 -645l-614 -645l-80 80l504 512h-1287v106h1287l-504 512z" />
    <glyph glyph-name="arrowdown" unicode="&#x2193;" horiz-adv-x="1495" 
d="M1313 569l80 -80l-645 -614l-646 614l80 80l512 -501v1284h107v-1284z" />
    <glyph glyph-name="arrowboth" unicode="&#x2194;" horiz-adv-x="2580" 
d="M1864 1239l614 -645l-614 -645l-80 80l502 512h-1285h-706l502 -512l-80 -80l-615 645l615 645l80 -80l-502 -512h1284h707l-502 512z" />
    <glyph glyph-name="arrowupdn" unicode="&#x2195;" horiz-adv-x="1495" 
d="M801 -287l512 502l80 -80l-645 -614l-646 614l80 80l512 -502v1284v498l-512 -502l-80 80l646 615l645 -615l-80 -80l-512 502v-1284v-498z" />
    <glyph glyph-name="uni2196" unicode="&#x2196;" horiz-adv-x="1306" 
d="M1204 98l-74 -75l-909 911l-6 -719l-113 -2l21 891l891 22l2 -112l-721 -6z" />
    <glyph glyph-name="uni2197" unicode="&#x2197;" horiz-adv-x="1308" 
d="M1206 213h-112l-7 719l-909 -909l-76 73l912 910l-721 6v112l891 -20z" />
    <glyph glyph-name="uni2198" unicode="&#x2198;" horiz-adv-x="1306" 
d="M1092 973l112 2l-20 -891l-891 -23v113l719 6l-910 910l74 75l909 -911z" />
    <glyph glyph-name="uni2199" unicode="&#x2199;" horiz-adv-x="1308" 
d="M295 182l721 -6v-113l-891 21l-23 891h113l6 -719l909 909l76 -73z" />
    <glyph glyph-name="partialdiff" unicode="&#x2202;" horiz-adv-x="1150" 
d="M469 1464q276 0 438 -197.5t162 -572.5q0 -118 -17 -222t-56 -197.5t-97.5 -160.5t-147 -106t-198.5 -39q-221 0 -346 131t-125 338q0 225 133 355.5t342 130.5q258 0 412 -201q-6 296 -136 467.5t-364 171.5q-80 0 -162 -24.5t-137 -59.5l-47 96q172 90 346 90zM555 70
q80 0 146 28.5t110.5 76.5t77 115t50 138.5t24.5 153.5q-24 43 -60 83t-86 76.5t-117 59t-139 22.5q-165 0 -269 -107t-104 -280q0 -161 101.5 -263.5t265.5 -102.5z" />
    <glyph glyph-name="emptyset" unicode="&#x2205;" 
d="M985 983q125 -135 125 -319q0 -200 -142.5 -338t-353.5 -138q-193 0 -329 117l-125 -119l-39 41l121 117q-123 136 -123 320q0 200 142 337.5t353 137.5q194 0 330 -117l123 119l41 -41zM223 664q0 -147 92 -250l557 538q-109 88 -258 88q-170 0 -280.5 -107.5
t-110.5 -268.5zM614 287q170 0 281 108t111 269q0 145 -93 249l-557 -538q109 -88 258 -88z" />
    <glyph glyph-name="product" unicode="&#x220f;" horiz-adv-x="1454" 
d="M1413 1434v-101h-291v-1493h-100v1493h-588v-1493h-100v1493h-293v101h1372z" />
    <glyph glyph-name="summation" unicode="&#x2211;" horiz-adv-x="1128" 
d="M1047 1434v-101h-836l610 -729l-610 -729h836v-100h-965v104l604 725l-604 725v105h965z" />
    <glyph glyph-name="minus" unicode="&#x2212;" 
d="M1104 643v-65h-979v65h979z" />
    <glyph glyph-name="radical" unicode="&#x221a;" horiz-adv-x="1179" 
d="M1036 1464h103l-494 -1464h-98l-338 848h-168v98h238l313 -809z" />
    <glyph glyph-name="infinity" unicode="&#x221e;" horiz-adv-x="1556" 
d="M1190 922q144 0 235 -85.5t91 -228.5t-91 -228t-235 -85q-64 0 -122 20.5t-111 62.5t-90 80t-89 99q-42 -50 -69.5 -79.5t-71 -69t-80.5 -61t-87 -37t-103 -15.5q-144 0 -235 85t-91 228t91 228.5t235 85.5q53 0 103 -16t87 -37.5t80.5 -61t71 -69t69.5 -79.5
q52 62 88.5 99.5t90 80t111.5 63t122 20.5zM367 856q-112 0 -184 -68.5t-72 -179.5t72 -179.5t184 -68.5q56 0 106.5 19t98 58.5t81 75.5t82.5 95q-49 59 -82.5 95t-81 75.5t-98 58.5t-106.5 19zM1190 856q-55 0 -105 -18.5t-98.5 -59t-81.5 -75.5t-84 -95q51 -60 84 -95
t81.5 -75.5t98.5 -59t105 -18.5q112 0 184 68.5t72 179.5t-72 179.5t-184 68.5z" />
    <glyph glyph-name="integral" unicode="&#x222b;" horiz-adv-x="778" 
d="M696 1464v-96q-258 0 -258 -291v-1138q0 -184 -92 -281.5t-264 -97.5v96q124 2 189 70.5t65 220.5v1138q0 184 92.5 281.5t267.5 97.5z" />
    <glyph glyph-name="approxequal" unicode="&#x2248;" 
d="M352 911q59 0 164 -35.5t206 -71.5t152 -36q106 0 152 131h70q-27 -101 -84.5 -152t-134.5 -51q-62 0 -167 36t-205 72t-151 36q-106 0 -151 -131h-70q26 102 85 152t134 50zM352 590q59 0 164 -36t206 -72t152 -36q107 0 152 132h70q-27 -101 -84.5 -152t-134.5 -51
q-62 0 -167 35.5t-205 70.5t-151 35q-106 0 -151 -129h-70q27 101 85.5 152t133.5 51z" />
    <glyph glyph-name="notequal" unicode="&#x2260;" 
d="M1133 754h-402l-166 -283h568v-68h-607l-127 -217h-65l127 217h-365v68h404l164 283h-568v65h606l127 217h68l-127 -217h363v-65z" />
    <glyph glyph-name="lessequal" unicode="&#x2264;" 
d="M1053 1001v-71l-785 -223l785 -224v-71l-891 260v69zM1067 324v-68h-905v68h905z" />
    <glyph glyph-name="greaterequal" unicode="&#x2265;" 
d="M176 1001l891 -260v-69l-891 -260v71l785 224l-785 223v71zM162 324h905v-68h-905v68z" />
    <glyph glyph-name="uni2460" unicode="&#x2460;" horiz-adv-x="1699" 
d="M850 -31q-217 0 -388 96.5t-265.5 267t-94.5 384.5q0 160 55.5 298.5t153 237t237 155t302.5 56.5q217 0 387.5 -96t265 -266.5t94.5 -384.5t-94.5 -384.5t-265 -267t-387.5 -96.5zM850 29q146 0 273 52.5t216.5 143t141 218.5t51.5 274t-51.5 274t-141 218.5t-216.5 143
t-273 52.5t-273 -52.5t-216.5 -143t-141 -218.5t-51.5 -274t51.5 -274t141 -218.5t216.5 -143t273 -52.5zM840 334v710h-99v80h177v-790h-78z" />
    <glyph glyph-name="uni2461" unicode="&#x2461;" horiz-adv-x="1699" 
d="M850 -31q-217 0 -388 96.5t-265.5 267t-94.5 384.5q0 160 55.5 298.5t153 237t237 155t302.5 56.5q217 0 387.5 -96t265 -266.5t94.5 -384.5t-94.5 -384.5t-265 -267t-387.5 -96.5zM850 29q146 0 273 52.5t216.5 143t141 218.5t51.5 274t-51.5 274t-141 218.5t-216.5 143
t-273 52.5t-273 -52.5t-216.5 -143t-141 -218.5t-51.5 -274t51.5 -274t141 -218.5t216.5 -143t273 -52.5zM604 360l-2 70l297 311q115 120 115 215q0 59 -39.5 98.5t-116.5 39.5q-74 0 -118 -36t-50 -106h-82q4 104 71 160.5t181 56.5q118 0 179 -59.5t61 -155.5
q0 -123 -133 -256l-252 -260h389v-78h-500z" />
    <glyph glyph-name="uni2462" unicode="&#x2462;" horiz-adv-x="1699" 
d="M850 -31q-217 0 -388 96.5t-265.5 267t-94.5 384.5q0 160 55.5 298.5t153 237t237 155t302.5 56.5q217 0 387.5 -96t265 -266.5t94.5 -384.5t-94.5 -384.5t-265 -267t-387.5 -96.5zM850 29q146 0 273 52.5t216.5 143t141 218.5t51.5 274t-51.5 274t-141 218.5t-216.5 143
t-273 52.5t-273 -52.5t-216.5 -143t-141 -218.5t-51.5 -274t51.5 -274t141 -218.5t216.5 -143t273 -52.5zM854 334q-116 0 -189 58t-79 167h82q4 -72 57 -109.5t129 -37.5q197 0 197 161q0 48 -18 80.5t-53.5 49.5t-76 23.5t-96.5 6.5v76q211 7 211 143q0 133 -162 133
t-176 -137h-80q6 102 74.5 157.5t183.5 55.5q113 0 176.5 -52t63.5 -146q0 -69 -41 -118.5t-111 -64.5v-2q86 -9 135 -61.5t49 -145.5q0 -105 -67 -171t-209 -66z" />
    <glyph glyph-name="uni2463" unicode="&#x2463;" horiz-adv-x="1699" 
d="M850 1464q217 0 387.5 -96t265 -266.5t94.5 -384.5t-94.5 -384.5t-265 -267t-387.5 -96.5t-388 96.5t-265.5 267t-94.5 384.5q0 160 55.5 298.5t153 237t237 155t302.5 56.5zM850 29q146 0 273 52.5t216.5 143t141 218.5t51.5 274t-51.5 274t-141 218.5t-216.5 143
t-273 52.5t-273 -52.5t-216.5 -143t-141 -218.5t-51.5 -274t51.5 -274t141 -218.5t216.5 -143t273 -52.5zM1012 1135v-562h94v-73h-94v-156h-78v156h-428v71l405 564h101zM594 573h340v459h-4z" />
    <glyph glyph-name="uni2464" unicode="&#x2464;" horiz-adv-x="1699" 
d="M850 -31q-217 0 -388 96.5t-265.5 267t-94.5 384.5q0 160 55.5 298.5t153 237t237 155t302.5 56.5q217 0 387.5 -96t265 -266.5t94.5 -384.5t-94.5 -384.5t-265 -267t-387.5 -96.5zM850 29q146 0 273 52.5t216.5 143t141 218.5t51.5 274t-51.5 274t-141 218.5t-216.5 143
t-273 52.5t-273 -52.5t-216.5 -143t-141 -218.5t-51.5 -274t51.5 -274t141 -218.5t216.5 -143t273 -52.5zM854 311q-97 0 -167.5 43.5t-102.5 126.5l71 39q54 -131 203 -131q92 0 141.5 52.5t49.5 140.5q0 95 -53.5 142.5t-131.5 47.5q-52 0 -97.5 -20t-72.5 -56h-71l49 424
h409v-76h-346l-33 -264h7q23 31 68.5 49.5t99.5 18.5q47 0 90.5 -15.5t80 -45.5t58.5 -82.5t22 -120.5q0 -127 -74 -200t-200 -73z" />
    <glyph glyph-name="uni2465" unicode="&#x2465;" horiz-adv-x="1699" 
d="M850 -31q-217 0 -388 96.5t-265.5 267t-94.5 384.5q0 160 55.5 298.5t153 237t237 155t302.5 56.5q217 0 387.5 -96t265 -266.5t94.5 -384.5t-94.5 -384.5t-265 -267t-387.5 -96.5zM850 29q146 0 273 52.5t216.5 143t141 218.5t51.5 274t-51.5 274t-141 218.5t-216.5 143
t-273 52.5t-273 -52.5t-216.5 -143t-141 -218.5t-51.5 -274t51.5 -274t141 -218.5t216.5 -143t273 -52.5zM846 319q-120 0 -200.5 72.5t-80.5 202.5q0 106 35.5 181.5t112.5 162.5l168 207h102l-303 -359l2 -4q70 76 178 76q115 0 189.5 -72.5t74.5 -193.5t-78 -197
t-200 -76zM850 395q88 0 141 52t53 143q0 90 -55 142t-141 52q-90 0 -145.5 -52t-55.5 -142q0 -91 56 -143t147 -52z" />
    <glyph glyph-name="uni2466" unicode="&#x2466;" horiz-adv-x="1699" 
d="M850 -31q-217 0 -388 96.5t-265.5 267t-94.5 384.5q0 160 55.5 298.5t153 237t237 155t302.5 56.5q217 0 387.5 -96t265 -266.5t94.5 -384.5t-94.5 -384.5t-265 -267t-387.5 -96.5zM850 29q146 0 273 52.5t216.5 143t141 218.5t51.5 274t-51.5 274t-141 218.5t-216.5 143
t-273 52.5t-273 -52.5t-216.5 -143t-141 -218.5t-51.5 -274t51.5 -274t141 -218.5t216.5 -143t273 -52.5zM690 313l350 713h-409v78h495v-74l-352 -717h-84z" />
    <glyph glyph-name="uni2467" unicode="&#x2467;" horiz-adv-x="1699" 
d="M850 -31q-217 0 -388 96.5t-265.5 267t-94.5 384.5q0 160 55.5 298.5t153 237t237 155t302.5 56.5q217 0 387.5 -96t265 -266.5t94.5 -384.5t-94.5 -384.5t-265 -267t-387.5 -96.5zM850 29q146 0 273 52.5t216.5 143t141 218.5t51.5 274t-51.5 274t-141 218.5t-216.5 143
t-273 52.5t-273 -52.5t-216.5 -143t-141 -218.5t-51.5 -274t51.5 -274t141 -218.5t216.5 -143t273 -52.5zM850 315q-128 0 -197 66.5t-69 165.5q0 85 44 135.5t113 71.5v4q-135 40 -135 182q0 88 64.5 145.5t179.5 57.5t179.5 -57.5t64.5 -145.5q0 -143 -136 -182v-4
q158 -48 158 -207q0 -100 -68.5 -166t-197.5 -66zM850 795q75 0 119.5 38t44.5 99t-45 98t-119 37t-118 -37t-44 -98t44 -99t118 -38zM850 391q88 0 137 43t49 119q0 74 -51 117t-135 43t-134 -43t-50 -117q0 -76 48.5 -119t135.5 -43z" />
    <glyph glyph-name="uni2468" unicode="&#x2468;" horiz-adv-x="1699" 
d="M850 -31q-217 0 -388 96.5t-265.5 267t-94.5 384.5q0 160 55.5 298.5t153 237t237 155t302.5 56.5q217 0 387.5 -96t265 -266.5t94.5 -384.5t-94.5 -384.5t-265 -267t-387.5 -96.5zM850 29q146 0 273 52.5t216.5 143t141 218.5t51.5 274t-51.5 274t-141 218.5t-216.5 143
t-273 52.5t-273 -52.5t-216.5 -143t-141 -218.5t-51.5 -274t51.5 -274t141 -218.5t216.5 -143t273 -52.5zM737 315l299 371l-2 2q-50 -45 -90.5 -65.5t-95.5 -20.5q-110 0 -182 71t-72 183q0 114 72 191t196 77q126 0 200.5 -71.5t74.5 -194.5q0 -85 -24 -155t-95 -160
l-182 -228h-99zM868 676q89 0 139 51t50 139q0 85 -50.5 134t-136.5 49q-89 0 -142.5 -51.5t-53.5 -141.5q0 -83 51.5 -131.5t142.5 -48.5z" />
    <glyph glyph-name="uni24EA" unicode="&#x24ea;" horiz-adv-x="1699" 
d="M850 -31q-217 0 -388 96.5t-265.5 267t-94.5 384.5q0 160 55.5 298.5t153 237t237 155t302.5 56.5q217 0 387.5 -96t265 -266.5t94.5 -384.5t-94.5 -384.5t-265 -267t-387.5 -96.5zM850 29q146 0 273 52.5t216.5 143t141 218.5t51.5 274t-51.5 274t-141 218.5t-216.5 143
t-273 52.5t-273 -52.5t-216.5 -143t-141 -218.5t-51.5 -274t51.5 -274t141 -218.5t216.5 -143t273 -52.5zM850 307q-147 0 -235.5 110t-88.5 306q0 195 88.5 304.5t235.5 109.5q146 0 235 -110t89 -304q0 -196 -89 -306t-235 -110zM850 385q111 0 176.5 93t65.5 245
q0 151 -65.5 243.5t-176.5 92.5q-112 0 -177 -92.5t-65 -243.5q0 -153 64.5 -245.5t177.5 -92.5z" />
    <glyph glyph-name="uni24FF" unicode="&#x24ff;" horiz-adv-x="1699" 
d="M850 -31q-159 0 -298 57.5t-237.5 156.5t-155.5 238t-57 296q0 210 96.5 381t268 268.5t383.5 97.5t383 -97.5t267.5 -268.5t96.5 -381t-96.5 -381.5t-267.5 -269t-383 -97.5zM850 307q146 0 235 110t89 306q0 194 -89 304t-235 110q-147 0 -235.5 -109.5t-88.5 -304.5
q0 -196 88.5 -306t235.5 -110zM850 385q-113 0 -177.5 92.5t-64.5 245.5q0 151 65 243.5t177 92.5q111 0 176.5 -92.5t65.5 -243.5q0 -152 -65.5 -245t-176.5 -93z" />
    <glyph glyph-name="lozenge" unicode="&#x25ca;" horiz-adv-x="1196" 
d="M647 1464l508 -747l-508 -748h-98l-508 748l508 747h98zM598 1356l-436 -639l436 -639l436 639z" />
    <glyph glyph-name="uni2776" unicode="&#x2776;" horiz-adv-x="1699" 
d="M850 -31q-159 0 -298 57.5t-237.5 156.5t-155.5 238t-57 296q0 210 96.5 381t268 268.5t383.5 97.5t383 -97.5t267.5 -268.5t96.5 -381t-96.5 -381.5t-267.5 -269t-383 -97.5zM840 334h78v790h-177v-80h99v-710z" />
    <glyph glyph-name="uni2777" unicode="&#x2777;" horiz-adv-x="1699" 
d="M850 -31q-159 0 -298 57.5t-237.5 156.5t-155.5 238t-57 296q0 210 96.5 381t268 268.5t383.5 97.5t383 -97.5t267.5 -268.5t96.5 -381t-96.5 -381.5t-267.5 -269t-383 -97.5zM594 352h502v78h-389l251 260q132 132 132 256q0 96 -60.5 155.5t-179.5 59.5
q-114 0 -180 -56t-70 -161h82q6 70 49.5 105.5t118.5 35.5t115.5 -39.5t40.5 -97.5q0 -95 -115 -215l-297 -311v-70z" />
    <glyph glyph-name="uni2778" unicode="&#x2778;" horiz-adv-x="1699" 
d="M850 -31q-159 0 -298 57.5t-237.5 156.5t-155.5 238t-57 296q0 210 96.5 381t268 268.5t383.5 97.5t383 -97.5t267.5 -268.5t96.5 -381t-96.5 -381.5t-267.5 -269t-383 -97.5zM846 336q142 0 210 66t68 171q0 92 -50 145t-136 62v2q71 15 112.5 64.5t41.5 118.5
q0 94 -63.5 146t-176.5 52q-115 0 -184.5 -55.5t-73.5 -157.5h80q11 137 176 137q160 0 160 -133q0 -136 -209 -143v-76q114 0 177.5 -34.5t63.5 -125.5q0 -161 -196 -161q-75 0 -129 37.5t-58 109.5h-81q6 -109 79.5 -167t188.5 -58z" />
    <glyph glyph-name="uni2779" unicode="&#x2779;" horiz-adv-x="1699" 
d="M850 -31q-159 0 -298 57.5t-237.5 156.5t-155.5 238t-57 296q0 210 96.5 381t268 268.5t383.5 97.5t383 -97.5t267.5 -268.5t96.5 -381t-96.5 -381.5t-267.5 -269t-383 -97.5zM930 348h80v156h92v71h-92v564h-103l-405 -564v-71h428v-156zM590 575l336 459h4v-459h-340z
" />
    <glyph glyph-name="uni277A" unicode="&#x277a;" horiz-adv-x="1699" 
d="M850 -31q-159 0 -298 57.5t-237.5 156.5t-155.5 238t-57 296q0 210 96.5 381t268 268.5t383.5 97.5t383 -97.5t267.5 -268.5t96.5 -381t-96.5 -381.5t-267.5 -269t-383 -97.5zM834 311q126 0 200 73t74 200q0 131 -75.5 197.5t-178.5 66.5q-53 0 -99 -18.5t-69 -49.5h-4
l31 264h364v76h-426l-49 -424h72q26 36 71.5 56t96.5 20q79 0 132.5 -47.5t53.5 -142.5q0 -88 -49 -140.5t-141 -52.5q-148 0 -205 131l-70 -39q32 -83 103 -126.5t168 -43.5z" />
    <glyph glyph-name="uni277B" unicode="&#x277b;" horiz-adv-x="1699" 
d="M850 -31q-159 0 -298 57.5t-237.5 156.5t-155.5 238t-57 296q0 210 96.5 381t268 268.5t383.5 97.5t383 -97.5t267.5 -268.5t96.5 -381t-96.5 -381.5t-267.5 -269t-383 -97.5zM844 322q122 0 200 75.5t78 196.5t-74.5 193.5t-189.5 72.5q-108 0 -178 -76l-2 4l303 359
h-102l-168 -207q-77 -87 -112.5 -162.5t-35.5 -181.5q0 -131 80.5 -202.5t200.5 -71.5zM848 397q-91 0 -147 52t-56 143q0 90 55.5 142t145.5 52q86 0 141 -52t55 -142q0 -91 -53 -143t-141 -52z" />
    <glyph glyph-name="uni277C" unicode="&#x277c;" horiz-adv-x="1699" 
d="M850 -31q-159 0 -298 57.5t-237.5 156.5t-155.5 238t-57 296q0 210 96.5 381t268 268.5t383.5 97.5t383 -97.5t267.5 -268.5t96.5 -381t-96.5 -381.5t-267.5 -269t-383 -97.5zM672 313h82l352 717v74h-494v-78h410z" />
    <glyph glyph-name="uni277D" unicode="&#x277d;" horiz-adv-x="1699" 
d="M850 -31q-159 0 -298 57.5t-237.5 156.5t-155.5 238t-57 296q0 210 96.5 381t268 268.5t383.5 97.5t383 -97.5t267.5 -268.5t96.5 -381t-96.5 -381.5t-267.5 -269t-383 -97.5zM850 315q128 0 197 65.5t69 160.5q0 87 -44.5 139.5t-113.5 73.5v4q136 39 136 182
q0 88 -64.5 145.5t-179.5 57.5t-179.5 -57.5t-64.5 -145.5q0 -142 135 -182v-4q-68 -21 -112.5 -73.5t-44.5 -139.5q0 -94 69.5 -160t196.5 -66zM850 795q-74 0 -118 38t-44 99t44 98t118 37t119 -37t45 -98t-44.5 -99t-119.5 -38zM850 391q-88 0 -136 41.5t-48 116.5
q0 74 50.5 119t133.5 45t134.5 -45.5t51.5 -118.5q0 -75 -48.5 -116.5t-137.5 -41.5z" />
    <glyph glyph-name="uni277E" unicode="&#x277e;" horiz-adv-x="1699" 
d="M850 -31q-159 0 -298 57.5t-237.5 156.5t-155.5 238t-57 296q0 210 96.5 381t268 268.5t383.5 97.5t383 -97.5t267.5 -268.5t96.5 -381t-96.5 -381.5t-267.5 -269t-383 -97.5zM723 315h100l183 228q71 90 94.5 159.5t23.5 155.5q0 123 -74 194.5t-200 71.5
q-124 0 -197 -78t-73 -192q0 -110 72.5 -181t183.5 -71q54 0 93.5 20t92.5 66l2 -4zM854 674q-89 0 -140.5 49t-51.5 133q0 89 53 140t141 51q86 0 137 -49t51 -132q0 -89 -50.5 -140.5t-139.5 -51.5z" />
    <glyph glyph-name="uniF8FF" unicode="&#xf8ff;" horiz-adv-x="1771" 
d="M102 1384q0 32 22 53t54 21q31 0 53.5 -21t22.5 -53q0 -48 -37 -69v-49q65 27 108 42t112 29.5t134 14.5q92 0 156 -43.5t64 -126.5v-52q118 25 213 25q53 0 98.5 -8t88 -26t67 -53t24.5 -83v-98q98 24 166 24q113 0 167 -44t54 -117v-492q-109 66 -219 66
q-52 0 -131 -20.5t-115 -20.5q-104 0 -104 94v176q-48 10 -96 10q-50 0 -149.5 -18.5t-137.5 -18.5q-111 0 -111 95v139h-28q-130 0 -361 -90v-670h-80v1317q-35 21 -35 67zM731 1182q0 57 -46 84.5t-112 27.5q-62 0 -135.5 -17.5t-110.5 -31t-110 -43.5v-471q225 86 358 86
q91 0 156 -29v394zM639 1188l-133 -195v-139h-62v139l-133 195h78l86 -131l86 131h78zM1225 971q0 17 -2 29t-13.5 32t-32.5 33t-64.5 23t-104.5 10q-86 0 -217 -25v-350q0 -23 -20.5 -38.5t-45.5 -21.5t-45.5 -18.5t-20.5 -32.5q0 -28 56 -28q35 0 134 17t155 17
q130 0 221 -51v404zM819 848q0 72 46 119t118 47t118 -47t46 -119t-46 -119t-118 -47t-118 47t-46 119zM1085 848q0 46 -29 76t-73 30t-73 -30t-29 -76t29 -76.5t73 -30.5t73 30.5t29 76.5zM1614 748q0 58 -43 81t-121 23q-65 0 -168 -25v-342q0 -25 -20 -41.5t-43.5 -23
t-43.5 -19t-20 -30.5q0 -33 51 -33q30 0 111 21.5t131 21.5q78 0 166 -31v398zM1452 764l-20 -205h-33l-21 205h74zM729 721q0 22 -65 33v-66q9 5 27 10.5t28 10.5t10 12zM1225 492q0 27 -70 49v-97q13 8 32.5 16t28.5 14.5t9 17.5zM1374 473q0 17 11 28t30 11t30 -11
t11 -28q0 -19 -11 -30t-30 -11t-30 11t-11 30z" />
    <glyph glyph-name="CR" horiz-adv-x="706" 
 />
    <glyph glyph-name="Adieresis.ss01" horiz-adv-x="1316" 
d="M451 1520q-44 0 -74.5 30t-30.5 74t30.5 75.5t74.5 31.5t75 -31.5t31 -75.5t-31 -74t-75 -30zM864 1520q-44 0 -74 30t-30 74q0 45 30 76t74 31t75.5 -31.5t31.5 -75.5t-31 -74t-76 -30zM1178 0l-162 403h-715l-162 -403h-121l584 1434h113l583 -1434h-120zM344 510h629
l-316 780z" />
    <glyph glyph-name="Adieresis.ss01.ss02" horiz-adv-x="1316" 
d="M389 1337q-44 0 -74 31t-30 76q0 44 30 74t74 30q45 0 76 -30t31 -74t-31.5 -75.5t-75.5 -31.5zM926 1337q-44 0 -75.5 31.5t-31.5 75.5t31 74t76 30q44 0 74 -30t30 -74q0 -45 -30 -76t-74 -31zM1178 0l-162 403h-715l-162 -403h-121l584 1434h113l583 -1434h-120z
M344 510h629l-316 780z" />
    <glyph glyph-name="Adieresis.ss02" horiz-adv-x="1316" 
d="M463 1542v-199h-133v199h133zM985 1542v-199h-131v199h131zM1178 0l-162 403h-715l-162 -403h-121l584 1434h113l583 -1434h-120zM344 510h629l-316 780z" />
    <glyph glyph-name="Cdotaccent.ss01" horiz-adv-x="1406" 
d="M840 1731q44 0 75 -31.5t31 -75.5t-31 -74t-75 -30t-74.5 30t-30.5 74t30.5 75.5t74.5 31.5zM844 -31q-171 0 -314 55t-242 153t-153.5 237t-54.5 303q0 333 209.5 540t554.5 207q149 0 266.5 -41t228.5 -123l-69 -96q-97 71 -198 109.5t-230 38.5q-286 0 -463.5 -177
t-177.5 -458t177.5 -458t463.5 -177q130 0 230.5 38t197.5 109l69 -96q-111 -82 -228.5 -123t-266.5 -41z" />
    <glyph glyph-name="Edieresis.ss01" horiz-adv-x="1056" 
d="M381 1520q-44 0 -74.5 30t-30.5 74t30.5 75.5t74.5 31.5t75 -31.5t31 -75.5t-31 -74t-75 -30zM795 1520q-44 0 -74.5 30t-30.5 74t30.5 75.5t74.5 31.5t75 -31.5t31 -75.5t-31 -74t-75 -30zM272 106h684v-106h-796v1434h786v-107h-674v-471h621v-106h-621v-644z" />
    <glyph glyph-name="Edotaccent.ss01" horiz-adv-x="1056" 
d="M588 1520q-44 0 -74.5 30t-30.5 74t30.5 75.5t74.5 31.5t75 -31.5t31 -75.5t-31 -74t-75 -30zM272 106h684v-106h-796v1434h786v-107h-674v-471h621v-106h-621v-644z" />
    <glyph glyph-name="Euro.tf" 
d="M825 1309q-211 0 -343 -128.5t-163 -357.5h662l-31 -61h-637q-2 -25 -2 -74q0 -33 2 -47h590l-31 -61h-555q25 -239 160 -371.5t361 -132.5q150 0 288 78v-117q-129 -66 -292 -66q-144 0 -258 46t-189.5 129t-120 192t-57.5 242h-182l30 61h148q-2 16 -2 51q0 47 2 70
h-168l31 61h143q15 129 60 235t119.5 186t185.5 124.5t249 44.5q204 0 377 -110l-47 -97q-159 103 -330 103z" />
    <glyph glyph-name="Gcommaaccent.ss01" horiz-adv-x="1630" 
d="M903 743h660v-47q0 -105 -26.5 -207t-84.5 -196.5t-141 -166t-205.5 -114.5t-267.5 -43q-220 0 -392.5 93t-269 263t-96.5 388q0 217 95.5 388t268 267t392.5 96q167 0 296 -49t248 -139l-75 -98q-102 80 -215.5 127t-258.5 47q-180 0 -324 -82.5t-225 -228.5t-81 -328
q0 -179 78.5 -322.5t225 -226t335.5 -82.5q122 0 225 36.5t170 94t115 132t69.5 147.5t24.5 143h-541v108zM852 -84q43 0 72.5 -29t29.5 -73q0 -48 -32 -88l-113 -140h-55l75 131q-34 4 -55.5 32.5t-21.5 64.5q0 43 28.5 72.5t71.5 29.5z" />
    <glyph glyph-name="Gdotaccent.ss01" horiz-adv-x="1630" 
d="M827 1520q-44 0 -74 30t-30 74q0 45 30 76t74 31t75.5 -31.5t31.5 -75.5t-31 -74t-76 -30zM903 743h660v-47q0 -105 -26.5 -207t-84.5 -196.5t-141 -166t-205.5 -114.5t-267.5 -43q-220 0 -392.5 93t-269 263t-96.5 388q0 217 95.5 388t268 267t392.5 96q167 0 296 -49
t248 -139l-75 -98q-102 80 -215.5 127t-258.5 47q-180 0 -324 -82.5t-225 -228.5t-81 -328q0 -179 78.5 -322.5t225 -226t335.5 -82.5q122 0 225 36.5t170 94t115 132t69.5 147.5t24.5 143h-541v108z" />
    <glyph glyph-name="Ghedescendercy" horiz-adv-x="313" 
d="M211 74v-361h-109v361h109z" />
    <glyph glyph-name="Idieresis.ss01" horiz-adv-x="432" 
d="M8 1731q44 0 75.5 -31.5t31.5 -75.5t-31 -74t-76 -30q-44 0 -74 30t-30 74q0 45 30 76t74 31zM422 1731q44 0 75 -31.5t31 -75.5t-31 -74t-75 -30t-74.5 30t-30.5 74t30.5 75.5t74.5 31.5zM272 1434v-1434h-112v1434h112z" />
    <glyph glyph-name="Idieresis.ss01.ss02" horiz-adv-x="432" 
d="M-29 1548q45 0 76 -30t31 -74t-31.5 -75.5t-75.5 -31.5t-74 31t-30 76q0 44 30 74t74 30zM461 1548q44 0 74 -30t30 -74q0 -45 -30 -76t-74 -31t-74.5 31.5t-30.5 75.5t30.5 74t74.5 30zM272 1434v-1434h-112v1434h112z" />
    <glyph glyph-name="Idieresis.ss02" horiz-adv-x="432" 
d="M78 1542v-199h-133v199h133zM485 1542v-199h-131v199h131zM272 1434v-1434h-112v1434h112z" />
    <glyph glyph-name="Idotaccent.ss01" horiz-adv-x="432" 
d="M215 1731q44 0 75.5 -31.5t31.5 -75.5t-31 -74t-76 -30q-44 0 -74 30t-30 74q0 45 30 76t74 31zM272 1434v-1434h-112v1434h112z" />
    <glyph glyph-name="Indianrupeesign.tf" 
d="M676 1321q84 -45 134.5 -123t57.5 -182h187l-45 -62h-140q-7 -111 -67.5 -196t-159 -129.5t-219.5 -44.5h-119l524 -584h-133l-524 584v100h246q156 0 245.5 74.5t98.5 195.5h-590v62h588q-11 120 -99.5 193t-242.5 73h-246v100h244h639l-45 -61h-334z" />
    <glyph glyph-name="Kcommaaccent.ss01" horiz-adv-x="1191" 
d="M406 766l768 -766h-173l-731 745v-745h-110v1434h110v-656l652 656h163zM606 -84q43 0 73 -29t30 -73q0 -47 -33 -88l-113 -140h-55l76 131q-34 4 -56 32.5t-22 64.5q0 43 28.5 72.5t71.5 29.5z" />
    <glyph glyph-name="Lcaron.ss01" horiz-adv-x="997" 
d="M727 1464q44 0 75.5 -31t31.5 -75q0 -27 -25 -78l-131 -270h-60l91 245q-40 4 -64 33t-24 70q0 45 30.5 75.5t75.5 30.5zM272 1434v-1325h699v-109h-811v1434h112z" />
    <glyph glyph-name="Lcommaaccent.ss01" horiz-adv-x="997" 
d="M272 1434v-1325h699v-109h-811v1434h112zM700 -186q0 -48 -32 -88l-113 -140h-55l75 131q-34 4 -55.5 32.5t-21.5 64.5q0 43 28.5 72.5t71.5 29.5t72.5 -29t29.5 -73z" />
    <glyph glyph-name="Ldot.ss01" horiz-adv-x="997" 
d="M272 1434v-1325h699v-109h-811v1434h112zM731 977q50 0 82.5 -32t32.5 -81t-32.5 -80.5t-82.5 -31.5t-81.5 31.5t-31.5 80.5q0 50 32 81.5t81 31.5z" />
    <glyph glyph-name="Ncommaaccent.ss01" horiz-adv-x="1411" 
d="M1251 1434v-1434h-123l-852 1243h-4v-1243h-112v1434h123l852 -1244h4v1244h112zM809 -186q0 -47 -33 -88l-112 -140h-56l76 131q-34 4 -56 32.5t-22 64.5q0 43 29 72.5t72 29.5t72.5 -29t29.5 -73z" />
    <glyph glyph-name="Odieresis.ss01" horiz-adv-x="1654" 
d="M621 1731q44 0 75 -31.5t31 -75.5t-31 -74t-75 -30t-74.5 30t-30.5 74t30.5 75.5t74.5 31.5zM1034 1731q44 0 75.5 -31.5t31.5 -75.5t-31 -74t-76 -30q-44 0 -74 30t-30 74q0 45 30 76t74 31zM827 1464q211 0 381.5 -94t268.5 -265.5t98 -387.5t-98 -387.5t-268.5 -266
t-381.5 -94.5t-381.5 94.5t-268 266t-97.5 387.5q0 162 57 302t156.5 237t237.5 152.5t296 55.5zM827 1352q-180 0 -323 -81t-223 -226t-80 -328t80 -328t223 -226t323 -81t323.5 81t223.5 226t80 328t-80 328t-223.5 226t-323.5 81z" />
    <glyph glyph-name="Odieresis.ss01.ss02" horiz-adv-x="1654" 
d="M229 1548q45 0 76 -30t31 -74t-31.5 -75.5t-75.5 -31.5t-74 31t-30 76q0 44 30 74t74 30zM1423 1548q44 0 74.5 -30t30.5 -74t-30.5 -75.5t-74.5 -31.5t-74 31t-30 76q0 44 30 74t74 30zM827 1464q211 0 381.5 -94t268.5 -265.5t98 -387.5t-98 -387.5t-268.5 -266
t-381.5 -94.5t-381.5 94.5t-268 266t-97.5 387.5q0 162 57 302t156.5 237t237.5 152.5t296 55.5zM827 1352q-180 0 -323 -81t-223 -226t-80 -328t80 -328t223 -226t323 -81t323.5 81t223.5 226t80 328t-80 328t-223.5 226t-323.5 81z" />
    <glyph glyph-name="Odieresis.ss02" horiz-adv-x="1654" 
d="M303 1542v-199h-133v199h133zM1485 1542v-199h-133v199h133zM827 1464q211 0 381.5 -94t268.5 -265.5t98 -387.5t-98 -387.5t-268.5 -266t-381.5 -94.5t-381.5 94.5t-268 266t-97.5 387.5q0 162 57 302t156.5 237t237.5 152.5t296 55.5zM827 1352q-180 0 -323 -81
t-223 -226t-80 -328t80 -328t223 -226t323 -81t323.5 81t223.5 226t80 328t-80 328t-223.5 226t-323.5 81z" />
    </font>
</defs>
</svg>
