<?xml version="1.0" standalone="no"?>
<!DOCTYPE svg PUBLIC "-//W3C//DTD SVG 1.1//EN" "http://www.w3.org/Graphics/SVG/1.1/DTD/svg11.dtd" >
<svg xmlns="http://www.w3.org/2000/svg" xmlns:xlink="http://www.w3.org/1999/xlink" version="1.1">
<metadata>
Created by FontForge 20170731 at Sat Jul 23 01:24:58 2022
 By Aleksey,,,
Copyright (c) 2015 by Reto Moser. All rights reserved.
</metadata>
<defs>
<font id="GTEestiProDisplay-RegularItalic" horiz-adv-x="1228" >
  <font-face 
    font-family="GT Eesti Pro Display"
    font-weight="400"
    font-style="italic"
    font-stretch="normal"
    units-per-em="2048"
    panose-1="0 0 5 0 0 0 0 0 0 0"
    ascent="1536"
    descent="-512"
    x-height="946"
    cap-height="1434"
    bbox="-682 -543 2531 1817"
    underline-thickness="102"
    underline-position="-307"
    slope="-11"
    unicode-range="U+000D-FB02"
  />
<missing-glyph horiz-adv-x="1609" 
d="M852 -31q-213 0 -384 96.5t-267.5 267.5t-96.5 384q0 214 96.5 385t267.5 266.5t384 95.5q160 0 299 -56t237.5 -154.5t154.5 -237.5t56 -299q0 -213 -95.5 -384t-266.5 -267.5t-385 -96.5zM852 20q199 0 359 91t250.5 253t90.5 363l-104 133l-143 -61l-140 184l-161 -90
l-152 242l-152 -242l-161 90l-140 -184l-143 61l-104 -133q0 -201 90.5 -363t250.5 -253t359 -91zM641 651q-31 0 -51.5 20.5t-20.5 51.5t20.5 51.5t51.5 20.5t51.5 -20.5t20.5 -51.5t-20.5 -51.5t-51.5 -20.5zM1061 651q-31 0 -51.5 20.5t-20.5 51.5t20.5 51.5t51.5 20.5
t51.5 -20.5t20.5 -51.5t-20.5 -51.5t-51.5 -20.5zM766 522l74 207q3 17 22 10q6 -2 9.5 -8.5t0.5 -13.5l-57 -160h70q7 0 12.5 -5.5t5.5 -12.5q0 -6 -5.5 -11.5t-12.5 -5.5h-119zM449 350q-61 0 -101.5 40t-40.5 102q0 61 40 101t102 40q61 0 101 -39.5t40 -101.5t-40 -102
t-101 -40zM1253 350q-61 0 -101 40t-40 102t40 101.5t101 39.5q62 0 102 -40t40 -101q0 -62 -40.5 -102t-101.5 -40zM852 395q-96 0 -127 -61q-6 -12 -18 -12q-17 0 -17 18q0 35 50 63.5t112 28.5t112 -28.5t50 -63.5q0 -18 -17 -18q-12 0 -18 12q-31 61 -127 61z" />
    <glyph glyph-name="fi" unicode="fi" horiz-adv-x="1105" 
d="M680 946l-33 -170h-182l-152 -776h-200l149 776h-151l32 170h154l25 131q35 188 140 282.5t271 94.5h43l-37 -190h-14q-165 0 -201 -181l-26 -137h182zM928 1413h246l-48 -246h-245zM680 0l184 946h201l-184 -946h-201z" />
    <glyph glyph-name="fl" unicode="fl" horiz-adv-x="1105" 
d="M680 946l-33 -170h-182l-152 -776h-200l149 776h-151l32 170h154l25 131q35 188 140 282.5t271 94.5h43l-37 -190h-14q-165 0 -201 -181l-26 -137h182zM958 1434h201l-278 -1434h-201z" />
    <glyph glyph-name="f_f" unicode="ff" horiz-adv-x="1277" 
d="M733 1454h43l-37 -190h-14q-165 0 -201 -181l-26 -137h182l-33 -170h-182l-152 -776h-200l149 776h-151l32 170h154l25 131q35 188 140 282.5t271 94.5zM1372 1454h43l-37 -190h-14q-165 0 -201 -181l-26 -137h182l-33 -170h-182l-152 -776h-200l149 776h-151l32 170h154
l25 131q35 188 140 282.5t271 94.5z" />
    <glyph glyph-name="f_f_i" unicode="ffi" horiz-adv-x="1744" 
d="M733 1454h43l-37 -190h-14q-165 0 -201 -181l-26 -137h182l-33 -170h-182l-152 -776h-200l149 776h-151l32 170h154l25 131q35 188 140 282.5t271 94.5zM1319 946l-33 -170h-182l-152 -776h-200l149 776h-151l32 170h154l25 131q35 188 140 282.5t271 94.5h43l-37 -190
h-14q-165 0 -201 -181l-26 -137h182zM1567 1413h245l-47 -246h-245zM1319 0l184 946h201l-184 -946h-201z" />
    <glyph glyph-name="f_f_l" unicode="ffl" horiz-adv-x="1744" 
d="M733 1454h43l-37 -190h-14q-165 0 -201 -181l-26 -137h182l-33 -170h-182l-152 -776h-200l149 776h-151l32 170h154l25 131q35 188 140 282.5t271 94.5zM1319 946l-33 -170h-182l-152 -776h-200l149 776h-151l32 170h154l25 131q35 188 140 282.5t271 94.5h43l-37 -190
h-14q-165 0 -201 -181l-26 -137h182zM1597 1434h201l-278 -1434h-201z" />
    <glyph glyph-name=".notdef" horiz-adv-x="1609" 
d="M852 -31q-213 0 -384 96.5t-267.5 267.5t-96.5 384q0 214 96.5 385t267.5 266.5t384 95.5q160 0 299 -56t237.5 -154.5t154.5 -237.5t56 -299q0 -213 -95.5 -384t-266.5 -267.5t-385 -96.5zM852 20q199 0 359 91t250.5 253t90.5 363l-104 133l-143 -61l-140 184l-161 -90
l-152 242l-152 -242l-161 90l-140 -184l-143 61l-104 -133q0 -201 90.5 -363t250.5 -253t359 -91zM641 651q-31 0 -51.5 20.5t-20.5 51.5t20.5 51.5t51.5 20.5t51.5 -20.5t20.5 -51.5t-20.5 -51.5t-51.5 -20.5zM1061 651q-31 0 -51.5 20.5t-20.5 51.5t20.5 51.5t51.5 20.5
t51.5 -20.5t20.5 -51.5t-20.5 -51.5t-51.5 -20.5zM766 522l74 207q3 17 22 10q6 -2 9.5 -8.5t0.5 -13.5l-57 -160h70q7 0 12.5 -5.5t5.5 -12.5q0 -6 -5.5 -11.5t-12.5 -5.5h-119zM449 350q-61 0 -101.5 40t-40.5 102q0 61 40 101t102 40q61 0 101 -39.5t40 -101.5t-40 -102
t-101 -40zM1253 350q-61 0 -101 40t-40 102t40 101.5t101 39.5q62 0 102 -40t40 -101q0 -62 -40.5 -102t-101.5 -40zM852 395q-96 0 -127 -61q-6 -12 -18 -12q-17 0 -17 18q0 35 50 63.5t112 28.5t112 -28.5t50 -63.5q0 -18 -17 -18q-12 0 -18 12q-31 61 -127 61z" />
    <glyph glyph-name=".null" horiz-adv-x="0" 
 />
    <glyph glyph-name="nonmarkingreturn" horiz-adv-x="682" 
 />
    <glyph glyph-name="CR" unicode="&#xd;" horiz-adv-x="0" 
 />
    <glyph glyph-name="CR" horiz-adv-x="0" 
 />
    <glyph glyph-name="space" unicode=" " horiz-adv-x="593" 
 />
    <glyph glyph-name="exclam" unicode="!" horiz-adv-x="661" 
d="M637 1434l-244 -1000h-137l135 1000h246zM121 0l47 244h244l-47 -244h-244z" />
    <glyph glyph-name="quotedbl" unicode="&#x22;" horiz-adv-x="598" 
d="M242 946l53 518h170l-148 -518h-75zM465 946l53 518h170l-147 -518h-76z" />
    <glyph glyph-name="numbersign" unicode="#" horiz-adv-x="1290" 
d="M1276 926h-244l-141 -373h239l-20 -102h-256l-170 -451h-117l170 451h-282l-170 -451h-117l170 451h-240l21 102h256l141 373h-252l21 102h270l152 406h116l-151 -406h282l152 406h117l-152 -406h225zM774 553l141 373h-282l-141 -373h282z" />
    <glyph glyph-name="dollar" unicode="$" horiz-adv-x="1060" 
d="M870 1008v32q0 72 -41.5 118t-121.5 56l-76 -393q125 -71 165 -100q144 -105 171 -260q6 -38 6 -80q0 -191 -124 -301.5t-349 -110.5h-35l-25 -127h-57l27 131q-171 20 -268 112.5t-97 240.5q0 26 4 84h207q-2 -16 -2 -45q0 -173 192 -197l91 467q-124 70 -171 109
q-134 117 -137 286q0 172 116 277.5t329 105.5h14l29 148h57l-29 -152q158 -15 246 -101t88 -225q0 -21 -4 -75h-205zM442 1040q0 -61 35 -103t103 -85l69 365q-94 -5 -150.5 -52.5t-56.5 -124.5zM760 367q0 81 -44.5 135.5t-127.5 103.5l-84 -440q130 0 193 54.5t63 146.5z
" />
    <glyph glyph-name="percent" unicode="%" horiz-adv-x="1642" 
d="M539 788q-133 0 -222.5 78t-89.5 215q0 94 42.5 176t126 134.5t190.5 52.5q133 0 222 -78t89 -215q0 -94 -42 -176t-125.5 -134.5t-190.5 -52.5zM281 0l1011 1382h117l-1012 -1382h-116zM545 903q60 0 107.5 24t74 62.5t40 79.5t13.5 80q0 83 -55.5 131.5t-144.5 48.5
q-49 0 -89.5 -16.5t-67 -42t-45 -58.5t-26.5 -65.5t-8 -63.5q0 -83 56 -131.5t145 -48.5zM1151 -10q-133 0 -222 78t-89 215q0 94 42 176t125.5 134t190.5 52q133 0 222 -78t89 -215q0 -94 -42 -176t-125.5 -134t-190.5 -52zM1157 104q49 0 89.5 16.5t67 42t45 58.5
t26.5 65.5t8 63.5q0 83 -56 131.5t-145 48.5q-49 0 -89.5 -16t-67 -42t-45 -58.5t-26.5 -65t-8 -63.5q0 -83 56 -132t145 -49z" />
    <glyph glyph-name="ampersand" unicode="&#x26;" horiz-adv-x="1433" 
d="M1346 643q-118 -239 -232 -381l146 -262h-240l-62 106q-175 -137 -403 -137q-210 0 -338.5 109t-128.5 315q0 197 116 318t318 176q-69 138 -69 233q0 132 82.5 212.5t246.5 80.5q172 0 334 -90l-100 -176q-122 72 -228 72q-62 0 -90 -31t-28 -74q0 -51 65 -168l273 -489
q81 125 143 272zM567 164q156 0 293 119l-237 422q-326 -65 -326 -297q0 -116 75 -180t195 -64z" />
    <glyph glyph-name="quotesingle" unicode="'" horiz-adv-x="393" 
d="M483 1464l-145 -518h-96l53 518h188z" />
    <glyph glyph-name="parenleft" unicode="(" horiz-adv-x="700" 
d="M324 -440q-32 49 -63.5 116.5t-64 163t-53 221t-20.5 256.5q0 137 24 268.5t59.5 233.5t91.5 204t104 170.5t113.5 143t104.5 113t92 88.5q9 8 13 12l139 -131q-73 -74 -117 -120.5t-108 -122.5t-103 -136t-84 -145.5t-69.5 -167t-41.5 -184.5t-17 -213q0 -365 165 -672z
" />
    <glyph glyph-name="parenright" unicode=")" horiz-adv-x="698" 
d="M406 1536q32 -49 63 -116.5t64 -163.5t53 -221.5t20 -256.5q0 -137 -24 -268.5t-59.5 -233.5t-91.5 -204t-104 -170.5t-113.5 -143t-104.5 -113t-92 -88.5q-9 -8 -13 -12l-139 131q56 56 91 93t86.5 94.5t84.5 101t75 105t68.5 116t55 124t44.5 138t26 150.5t10 168
q0 363 -166 672z" />
    <glyph glyph-name="asterisk" unicode="*" horiz-adv-x="833" 
d="M905 1153l-254 -72l164 -204l-121 -91l-145 222l-146 -224l-120 90l163 205l-253 72l47 141l245 -92l-12 264h152l-13 -262l246 92z" />
    <glyph glyph-name="plus" unicode="+" 
d="M692 1108v-451h449v-94h-449v-452h-102v452h-449v94h449v451h102z" />
    <glyph glyph-name="comma" unicode="," horiz-adv-x="499" 
d="M-37 -293l189 293h-101l47 244h244l-47 -244l-244 -293h-88z" />
    <glyph glyph-name="hyphen" unicode="-" horiz-adv-x="718" 
d="M86 444l39 197h534l-38 -197h-535z" />
    <glyph glyph-name="period" unicode="." horiz-adv-x="468" 
d="M20 0l48 244h243l-47 -244h-244z" />
    <glyph glyph-name="slash" unicode="/" horiz-adv-x="1249" 
d="M96 -207l-145 107l1296 1722l144 -109z" />
    <glyph glyph-name="zero" unicode="0" horiz-adv-x="1193" 
d="M563 -31q-207 0 -322.5 133.5t-115.5 391.5q0 138 23 269t71 249.5t116.5 207t167 141t214.5 52.5q205 0 320.5 -133.5t115.5 -390.5q0 -137 -23 -268.5t-71 -250t-116.5 -207.5t-166.5 -141.5t-213 -52.5zM567 166q76 0 139.5 43.5t106 116t72 168t42.5 196.5t13 205
q0 162 -64 242t-163 80q-95 0 -170 -66t-118 -174t-65 -233t-22 -257q0 -162 65 -241.5t164 -79.5z" />
    <glyph glyph-name="one" unicode="1" horiz-adv-x="645" 
d="M616 1382l-268 -1382h-201l230 1182h-86l39 200h286z" />
    <glyph glyph-name="two" unicode="2" horiz-adv-x="1089" 
d="M651 1413q197 0 310.5 -101t113.5 -261q0 -61 -17.5 -118t-41.5 -100.5t-67.5 -93.5t-78 -82.5t-90.5 -81.5l-440 -382h602l-37 -193h-921l28 158l596 522q51 44 76 67t65.5 65.5t60.5 74t36 73t16 82.5q0 72 -57 123.5t-166 51.5q-106 0 -178 -52t-88 -164h-207
q28 193 152.5 302.5t332.5 109.5z" />
    <glyph glyph-name="three" unicode="3" horiz-adv-x="1105" 
d="M498 -31q-136 0 -239 36.5t-163.5 112.5t-60.5 183q0 33 6 70h201v-11q0 -93 65.5 -143.5t202.5 -50.5q136 0 212.5 61.5t76.5 180.5q0 123 -89 175t-282 52l35 178q206 0 312 51.5t106 169.5q0 90 -61.5 136.5t-170.5 46.5q-106 0 -178 -46.5t-86 -140.5h-201
q18 173 138.5 278t332.5 105q208 0 323.5 -98t115.5 -252q0 -143 -87 -228.5t-249 -107.5v-4q110 -16 182 -100.5t72 -216.5q0 -82 -28.5 -156.5t-87 -139t-161 -103t-237.5 -38.5z" />
    <glyph glyph-name="four" unicode="4" horiz-adv-x="1130" 
d="M1077 459l-41 -187h-186l-53 -272h-195l53 272h-653l31 162l856 948h176l-180 -923h192zM272 459h418l115 585h-8z" />
    <glyph glyph-name="five" unicode="5" horiz-adv-x="1097" 
d="M651 905q79 0 148 -27.5t122 -78.5t84 -131.5t31 -180.5q0 -107 -32.5 -199t-96 -164t-167 -113.5t-236.5 -41.5q-168 0 -295.5 71.5t-188.5 217.5l177 104q57 -100 129 -148t184 -48q71 0 126.5 19t90 49.5t57 72.5t31 84t8.5 88q0 119 -68.5 182.5t-174.5 63.5
q-148 0 -240 -100h-193l230 757h690l-39 -192h-512l-129 -385h4q96 100 260 100z" />
    <glyph glyph-name="six" unicode="6" horiz-adv-x="1134" 
d="M539 -31q-219 0 -348.5 115t-129.5 332q0 162 79 304t253 316l367 367h284l-636 -596l4 -4q140 123 288 123q72 0 139.5 -26.5t123.5 -76.5t90 -133.5t34 -187.5q0 -106 -37.5 -202t-105.5 -170t-173 -117.5t-232 -43.5zM539 166q153 0 244 93.5t91 229.5
q0 119 -73 183.5t-195 64.5q-153 0 -244.5 -93.5t-91.5 -229.5q0 -119 73.5 -183.5t195.5 -64.5z" />
    <glyph glyph-name="seven" unicode="7" horiz-adv-x="931" 
d="M1067 1382l-33 -174l-790 -1208h-232l785 1188h-627l37 194h860z" />
    <glyph glyph-name="eight" unicode="8" horiz-adv-x="1124" 
d="M514 -31q-217 0 -338 107t-121 276q0 161 107 274t258 134v4q-88 30 -140.5 96t-52.5 168q0 76 31.5 145t90.5 123t152.5 85.5t207.5 31.5q201 0 309 -93t108 -245q0 -139 -87 -224t-226 -108v-4q103 -27 163 -105t60 -200q0 -87 -31.5 -167.5t-93 -148t-164.5 -108.5
t-233 -41zM647 829q120 0 192 62t72 160q0 78 -53.5 122t-155.5 44q-119 0 -191.5 -59.5t-72.5 -153.5q0 -81 54 -128t155 -47zM518 166q142 0 223.5 76.5t81.5 189.5q0 101 -64.5 158t-183.5 57q-142 0 -223.5 -79t-81.5 -195q0 -98 64.5 -152.5t183.5 -54.5z" />
    <glyph glyph-name="nine" unicode="9" horiz-adv-x="1097" 
d="M180 0l635 594l-4 4q-129 -111 -291 -111q-167 0 -272 115.5t-105 294.5q0 102 38 195.5t106 164.5t172 113.5t227 42.5q70 0 133.5 -12.5t124 -44t104.5 -79t70.5 -122.5t26.5 -170q0 -161 -75.5 -304t-223.5 -286l-412 -395h-254zM608 680q147 0 239.5 88t92.5 219
q0 111 -68 170.5t-184 59.5q-147 0 -239.5 -88.5t-92.5 -219.5q0 -111 68 -170t184 -59z" />
    <glyph glyph-name="colon" unicode=":" horiz-adv-x="468" 
d="M158 702l47 244h244l-48 -244h-243zM20 0l48 244h243l-47 -244h-244z" />
    <glyph glyph-name="semicolon" unicode=";" horiz-adv-x="499" 
d="M168 702l47 244h244l-47 -244h-244zM-37 -293l189 293h-101l47 244h244l-47 -244l-244 -293h-88z" />
    <glyph glyph-name="less" unicode="&#x3c;" 
d="M1061 1071v-110l-801 -349l801 -346v-110l-920 405v105z" />
    <glyph glyph-name="equal" unicode="=" 
d="M1159 854v-94h-1036v94h1036zM1159 467v-94h-1036v94h1036z" />
    <glyph glyph-name="greater" unicode="&#x3e;" 
d="M221 1071l920 -405v-105l-920 -405v110l801 346l-801 349v110z" />
    <glyph glyph-name="question" unicode="?" horiz-adv-x="995" 
d="M362 434l13 60q15 72 44.5 131t72.5 104t80 75t88 67q8 5 12 8q71 50 111 105t40 126q0 72 -46 116t-142 44q-220 0 -256 -213h-203q19 110 62 190t105.5 126.5t137 68.5t164.5 22q185 0 286 -90.5t101 -245.5q0 -65 -18.5 -121.5t-53 -102.5t-70 -80t-83.5 -70
q-14 -10 -53.5 -38.5t-54 -40t-43 -37.5t-41 -46t-27 -51t-21.5 -66l-8 -41h-197zM258 0l47 244h244l-47 -244h-244z" />
    <glyph glyph-name="at" unicode="@" horiz-adv-x="1970" 
d="M952 -307q-127 0 -244 28t-224 90.5t-185.5 154t-125 227.5t-46.5 301q0 203 73 375.5t199.5 291t300 185.5t371.5 67q185 0 340.5 -53.5t262 -148t165.5 -225.5t59 -284q0 -154 -58.5 -288t-166 -217.5t-239.5 -83.5q-93 0 -147 42.5t-70 118.5h-7q-106 -170 -303 -170
q-158 0 -259 108.5t-101 297.5q0 113 39 206.5t104 154t148 93.5t172 33q213 0 286 -182h2l27 152h180l-110 -574q-6 -27 -6 -49q0 -86 86 -86q75 0 133.5 65.5t88 164.5t29.5 208q0 136 -51.5 244.5t-140.5 176.5t-205.5 104t-251.5 36q-157 0 -298 -52t-248 -147
t-169.5 -239.5t-62.5 -318.5q0 -138 37.5 -249t100.5 -185t149.5 -124t181 -72t199.5 -22q218 0 405 86l39 -151q-227 -90 -459 -90zM973 285q134 0 213.5 89.5t79.5 215.5q0 107 -60.5 169t-169.5 62q-134 0 -213.5 -89.5t-79.5 -215.5q0 -107 60.5 -169t169.5 -62z" />
    <glyph glyph-name="A" unicode="A" horiz-adv-x="1392" 
d="M1077 0l-69 358h-637l-205 -358h-248l848 1434h221l303 -1434h-213zM481 553h488l-125 633z" />
    <glyph glyph-name="B" unicode="B" horiz-adv-x="1280" 
d="M942 758q242 -56 242 -309q0 -210 -144 -329.5t-383 -119.5h-606l281 1434h512q178 0 276.5 -89.5t98.5 -246.5q0 -120 -73.5 -212t-203.5 -124v-4zM788 1233h-282l-78 -397h309q108 0 183 58.5t75 160.5q0 81 -49.5 129.5t-157.5 48.5zM668 201q150 0 222.5 68.5
t72.5 168.5q0 203 -238 203h-336l-88 -440h367z" />
    <glyph glyph-name="C" unicode="C" horiz-adv-x="1402" 
d="M799 -31q-308 0 -492 186t-184 496q0 166 58 313.5t163 258.5t263.5 176t348.5 65q291 0 500 -159l-133 -181q-55 37 -98 59.5t-120 44t-161 21.5q-138 0 -251.5 -48.5t-187 -131.5t-113.5 -190.5t-40 -227.5q0 -219 124 -343t337 -124q104 0 186.5 29.5t167.5 85.5
l115 -180q-220 -150 -483 -150z" />
    <glyph glyph-name="D" unicode="D" horiz-adv-x="1417" 
d="M51 0l281 1434h430q283 0 457 -170.5t174 -460.5q0 -177 -63 -325.5t-179 -254t-287.5 -164.5t-380.5 -59h-432zM303 201h246q130 0 242.5 42.5t195 120t129.5 191.5t47 250q0 204 -115.5 316t-302.5 112h-239z" />
    <glyph glyph-name="E" unicode="E" horiz-adv-x="1060" 
d="M1108 1233h-602l-68 -340h555l-37 -201h-557l-96 -491h612l-38 -201h-826l281 1434h815z" />
    <glyph glyph-name="F" unicode="F" horiz-adv-x="1011" 
d="M1118 1233h-612l-78 -404h567l-37 -200h-569l-123 -629h-215l281 1434h825z" />
    <glyph glyph-name="G" unicode="G" horiz-adv-x="1646" 
d="M975 782h665l-12 -84q-17 -117 -52.5 -219.5t-98 -197.5t-147.5 -162t-207.5 -107.5t-270.5 -40.5q-330 0 -528.5 186t-198.5 507q0 170 59.5 318t165.5 253.5t258.5 166t331.5 60.5q189 0 345 -58t265 -159l-166 -166q-181 168 -450 168q-116 0 -213 -33.5t-164 -90
t-113.5 -132t-68 -159.5t-21.5 -173q0 -228 137.5 -350.5t370.5 -122.5q116 0 206 31t149 87.5t95.5 125t55.5 154.5h-444z" />
    <glyph glyph-name="H" unicode="H" horiz-adv-x="1466" 
d="M1296 1434h213l-278 -1434h-213l127 651h-754l-127 -651h-213l279 1434h213l-113 -578h754z" />
    <glyph glyph-name="I" unicode="I" horiz-adv-x="505" 
d="M51 0l281 1434h217l-281 -1434h-217z" />
    <glyph glyph-name="J" unicode="J" horiz-adv-x="583" 
d="M-59 -10l36 207h54q70 0 109.5 30.5t58.5 114.5l213 1092h213l-222 -1147q-31 -159 -119.5 -228t-240.5 -69h-102z" />
    <glyph glyph-name="K" unicode="K" horiz-adv-x="1300" 
d="M1407 1434l-770 -691l561 -743h-276l-519 721l-139 -721h-213l279 1434h213l-125 -641l682 641h307z" />
    <glyph glyph-name="L" unicode="L" horiz-adv-x="987" 
d="M51 0l281 1434h213l-240 -1231h619l-39 -203h-834z" />
    <glyph glyph-name="M" unicode="M" horiz-adv-x="1804" 
d="M-82 0l578 1434h184l199 -914h4l522 914h184l113 -1434h-213l-76 1042h-4l-479 -819h-176l-193 811h-4l-393 -1034h-246z" />
    <glyph glyph-name="N" unicode="N" horiz-adv-x="1417" 
d="M51 0l279 1434h219l485 -1088h4l209 1088h213l-278 -1434h-221l-484 1090h-2l-211 -1090h-213z" />
    <glyph glyph-name="O" unicode="O" horiz-adv-x="1693" 
d="M838 -31q-208 0 -370 82.5t-253.5 237.5t-91.5 360q0 168 60 317.5t166 259.5t262 174t339 64q208 0 370 -82.5t253.5 -237.5t91.5 -360q0 -168 -60 -317.5t-166 -259.5t-262 -174t-339 -64zM846 182q138 0 251.5 49t186.5 133.5t112.5 195.5t39.5 237q0 138 -67 243
t-178.5 158t-248.5 53q-138 0 -251.5 -49t-186.5 -133t-112.5 -195t-39.5 -237q0 -139 67 -243.5t178.5 -158t248.5 -53.5z" />
    <glyph glyph-name="P" unicode="P" horiz-adv-x="1120" 
d="M750 1434q211 0 325.5 -111.5t114.5 -282.5q0 -209 -154 -342t-426 -133h-235l-111 -565h-213l279 1434h420zM664 766q137 0 217 70t80 192q0 103 -63 154t-169 51h-225l-90 -467h250z" />
    <glyph glyph-name="Q" unicode="Q" horiz-adv-x="1699" 
d="M1665 784q0 -173 -62 -324.5t-176 -262.5l189 -209h-252l-86 96q-191 -115 -440 -115q-208 0 -370 82.5t-253.5 237.5t-91.5 360q0 168 60 317.5t166 259.5t262 174t339 64q208 0 370 -82.5t253.5 -237.5t91.5 -360zM846 182q159 0 284 64l-251 280h249l150 -166
q158 172 158 437q0 138 -67 243t-178.5 158t-248.5 53q-138 0 -251.5 -49t-186.5 -133t-112.5 -195t-39.5 -237q0 -139 67 -243.5t178.5 -158t248.5 -53.5z" />
    <glyph glyph-name="R" unicode="R" horiz-adv-x="1202" 
d="M1188 1057q0 -176 -115 -300t-313 -151l340 -606h-252l-313 598h-154l-117 -598h-213l281 1434h442q199 0 306.5 -101t107.5 -276zM504 1233l-86 -438h237q136 0 219.5 64.5t83.5 178.5q0 93 -59 144t-178 51h-217z" />
    <glyph glyph-name="S" unicode="S" horiz-adv-x="1040" 
d="M485 -31q-149 0 -284 55t-230 142l131 182q88 -75 188.5 -118.5t198.5 -43.5q104 0 162 50t58 135q0 98 -119 200l-225 201q-156 139 -156 328q0 159 109.5 261.5t304.5 102.5q202 0 409 -135l-121 -190q-166 110 -297 110q-91 0 -133.5 -44t-42.5 -103q0 -82 109 -176
l209 -185q102 -90 143 -177.5t41 -186.5q0 -194 -126 -301t-329 -107z" />
    <glyph glyph-name="T" unicode="T" horiz-adv-x="1060" 
d="M1227 1434l-39 -201h-404l-239 -1233h-213l239 1233h-403l39 201h1020z" />
    <glyph glyph-name="U" unicode="U" horiz-adv-x="1396" 
d="M1460 1434l-172 -881q-55 -284 -224 -434t-433 -150q-239 0 -370.5 120.5t-131.5 338.5q0 82 18 170l164 836h221l-170 -875q-10 -44 -10 -94q0 -130 80 -202.5t223 -72.5q163 0 270 95.5t142 273.5l172 875h221z" />
    <glyph glyph-name="V" unicode="V" horiz-adv-x="1263" 
d="M442 0l-245 1434h233l154 -1125h4l590 1125h262l-801 -1434h-197z" />
    <glyph glyph-name="W" unicode="W" horiz-adv-x="2058" 
d="M2193 1434l-714 -1434h-209l-117 1073h-4l-533 -1073h-208l-170 1434h227l100 -1094h4l531 1094h211l116 -1094h5l514 1094h247z" />
    <glyph glyph-name="X" unicode="X" horiz-adv-x="1269" 
d="M1399 1434l-580 -693l338 -741h-223l-264 571l-480 -571h-262l641 764l-307 670h225l232 -502l422 502h258z" />
    <glyph glyph-name="Y" unicode="Y" horiz-adv-x="1112" 
d="M1298 1434l-616 -861l-113 -573h-213l113 571l-283 863h234l176 -654h4l436 654h262z" />
    <glyph glyph-name="Z" unicode="Z" horiz-adv-x="1130" 
d="M1235 1434l-39 -201l-936 -1032h766l-39 -201h-1028l39 201l938 1032h-672l39 201h932z" />
    <glyph glyph-name="bracketleft" unicode="[" horiz-adv-x="706" 
d="M895 1546l-37 -182h-260l-315 -1624h260l-35 -180h-461l387 1986h461z" />
    <glyph glyph-name="backslash" unicode="\" horiz-adv-x="1234" 
d="M891 -207l-627 1720l160 64l629 -1722z" />
    <glyph glyph-name="bracketright" unicode="]" horiz-adv-x="706" 
d="M-158 -440l37 182h260l316 1624h-260l34 180h461l-387 -1986h-461z" />
    <glyph glyph-name="asciicircum" unicode="^" 
d="M768 1464l295 -659h-158l-227 520l-229 -520h-158l295 659h182z" />
    <glyph glyph-name="underscore" unicode="_" horiz-adv-x="1091" 
d="M-111 -201l33 170h1051l-33 -170h-1051z" />
    <glyph glyph-name="grave" unicode="`" horiz-adv-x="638" 
d="M535 1448l131 -315h-138l-235 315h242z" />
    <glyph glyph-name="a" unicode="a" horiz-adv-x="1200" 
d="M487 -31q-186 0 -303.5 129.5t-117.5 333.5q0 235 146.5 390t367.5 155q125 0 216 -52t134 -147h6l31 168h200l-182 -946h-201l27 131h-6q-131 -162 -318 -162zM557 160q146 0 241 97.5t95 246.5q0 129 -75.5 205.5t-203.5 76.5q-145 0 -240 -100t-95 -252
q0 -126 74.5 -200t203.5 -74z" />
    <glyph glyph-name="b" unicode="b" horiz-adv-x="1208" 
d="M627 -31q-124 0 -212.5 51t-133.5 144h-7l-30 -164h-201l276 1434h201l-117 -603h7q130 146 315 146q184 0 302 -124t118 -331q0 -153 -65 -279t-184.5 -200t-268.5 -74zM586 160q106 0 186.5 53t120 134t39.5 173q0 123 -71 194.5t-197 71.5q-106 0 -187 -53
t-120.5 -134t-39.5 -173q0 -123 71.5 -194.5t197.5 -71.5z" />
    <glyph glyph-name="c" unicode="c" horiz-adv-x="991" 
d="M559 -31q-223 0 -357 129.5t-134 343.5q0 238 154 386.5t401 148.5q212 0 383 -123l-117 -162q-129 94 -279 94q-145 0 -237 -93.5t-92 -241.5q0 -130 78 -210.5t204 -80.5q112 0 236 65l82 -168q-157 -88 -322 -88z" />
    <glyph glyph-name="d" unicode="d" horiz-adv-x="1210" 
d="M1061 1434h201l-277 -1434h-201l27 131h-6q-131 -162 -318 -162q-186 0 -303.5 129.5t-117.5 333.5q0 235 146.5 390t367.5 155q125 0 216 -52t134 -147h6zM557 160q146 0 241 97.5t95 246.5q0 129 -75.5 205.5t-203.5 76.5q-145 0 -240 -100t-95 -252q0 -126 74.5 -200
t203.5 -74z" />
    <glyph glyph-name="e" unicode="e" horiz-adv-x="1105" 
d="M1026 438h-768v-2q0 -274 268 -274q94 0 174.5 35.5t165.5 113.5l117 -149q-208 -191 -457 -191q-215 0 -339 120t-124 327q0 244 155.5 401.5t397.5 157.5q199 0 311.5 -106.5t112.5 -295.5q0 -49 -14 -137zM606 807q-117 0 -201.5 -58t-121.5 -161h561v10
q0 100 -62 154.5t-176 54.5z" />
    <glyph glyph-name="f" unicode="f" horiz-adv-x="638" 
d="M733 1454h43l-37 -190h-14q-165 0 -201 -181l-26 -137h182l-33 -170h-182l-152 -776h-200l149 776h-151l32 170h154l25 131q35 188 140 282.5t271 94.5z" />
    <glyph glyph-name="g" unicode="g" horiz-adv-x="1200" 
d="M967 946h200l-182 -946q-44 -235 -153 -337.5t-316 -102.5q-223 0 -442 92l76 186q200 -86 370 -86q115 0 175.5 57t88.5 191l27 131h-6q-131 -162 -318 -162q-186 0 -303.5 129.5t-117.5 333.5q0 235 146.5 390t367.5 155q125 0 216 -52t134 -147h6zM557 160
q146 0 241 97.5t95 246.5q0 129 -75.5 205.5t-203.5 76.5q-145 0 -240 -100t-95 -252q0 -126 74.5 -200t203.5 -74z" />
    <glyph glyph-name="h" unicode="h" horiz-adv-x="1116" 
d="M41 0l278 1434h201l-123 -633h4q124 176 324 176q138 0 219.5 -78t81.5 -235q0 -69 -14 -138l-101 -526h-200l104 541q6 35 6 61q0 83 -45 132.5t-133 49.5q-111 0 -195.5 -78t-117.5 -253l-88 -453h-201z" />
    <glyph glyph-name="i" unicode="i" horiz-adv-x="466" 
d="M535 1413l-48 -246h-245l47 246h246zM41 0l184 946h201l-184 -946h-201z" />
    <glyph glyph-name="j" unicode="j" horiz-adv-x="456" 
d="M535 1413l-48 -246h-245l47 246h246zM-178 -233h65q61 0 90.5 27.5t40.5 86.5l207 1065h201l-211 -1085q-29 -148 -114 -212.5t-218 -64.5h-96z" />
    <glyph glyph-name="k" unicode="k" horiz-adv-x="991" 
d="M1008 946l-467 -452l348 -494h-246l-311 461l-90 -461h-201l278 1434h201l-172 -887l391 399h269z" />
    <glyph glyph-name="l" unicode="l" horiz-adv-x="466" 
d="M41 0l278 1434h201l-278 -1434h-201z" />
    <glyph glyph-name="m" unicode="m" horiz-adv-x="1638" 
d="M31 0l184 946h201l-29 -147h4q105 178 303 178q106 0 174.5 -50t89.5 -147h5q111 197 309 197q58 0 106.5 -16t89 -50.5t63.5 -95.5t23 -143q0 -60 -24 -180l-98 -492h-201l102 520q10 46 10 92q0 174 -161 174q-102 0 -163.5 -71.5t-90.5 -222.5l-97 -492h-200l98 506
q12 62 12 108q0 172 -159 172q-102 0 -164.5 -72t-91.5 -225l-95 -489h-200z" />
    <glyph glyph-name="n" unicode="n" horiz-adv-x="1105" 
d="M31 0l184 946h201l-29 -143h4q65 89 146 131.5t188 42.5q138 0 215.5 -80.5t77.5 -224.5q0 -71 -14 -148l-103 -524h-201l97 500q10 52 10 108q0 178 -186 178q-123 0 -195.5 -80t-106.5 -253l-88 -453h-200z" />
    <glyph glyph-name="o" unicode="o" horiz-adv-x="1159" 
d="M530 -31q-215 0 -342 121.5t-127 325.5q0 120 43 224t118.5 178t180.5 116.5t226 42.5q215 0 342 -121.5t127 -325.5q0 -120 -43 -224t-118.5 -178t-180.5 -116.5t-226 -42.5zM549 166q148 0 242 99t94 253q0 123 -73 192.5t-202 69.5q-148 0 -242 -99t-94 -253
q0 -123 73 -192.5t202 -69.5z" />
    <glyph glyph-name="p" unicode="p" horiz-adv-x="1198" 
d="M-47 -412l262 1358h201l-23 -115h6q131 146 316 146q187 0 303.5 -126t116.5 -329q0 -156 -67.5 -283t-186.5 -198.5t-265 -71.5q-121 0 -210.5 50.5t-135.5 144.5h-6l-110 -576h-201zM575 160q148 0 247.5 103t99.5 257q0 124 -72 195t-197 71q-148 0 -247 -103
t-99 -257q0 -124 71.5 -195t196.5 -71z" />
    <glyph glyph-name="q" unicode="q" horiz-adv-x="1200" 
d="M967 946h200l-262 -1356h-200l106 541h-6q-131 -162 -318 -162q-186 0 -303.5 129.5t-117.5 333.5q0 235 146.5 390t367.5 155q125 0 216 -52t134 -147h6zM557 160q146 0 241 97.5t95 246.5q0 129 -75.5 205.5t-203.5 76.5q-145 0 -240 -100t-95 -252q0 -126 74.5 -200
t203.5 -74z" />
    <glyph glyph-name="r" unicode="r" horiz-adv-x="686" 
d="M31 0l184 946h201l-41 -201h4q57 119 141 174.5t205 55.5h29l-47 -236h-45q-147 0 -231.5 -76t-117.5 -243l-82 -420h-200z" />
    <glyph glyph-name="s" unicode="s" horiz-adv-x="806" 
d="M76 279q152 -127 295 -127q62 0 97.5 24.5t35.5 67.5q0 56 -80 112l-133 90q-156 108 -156 265q0 122 84.5 194t226.5 72q173 0 338 -109l-98 -159q-133 86 -229 86q-54 0 -83.5 -23.5t-29.5 -66.5q0 -31 22 -59.5t74 -61.5l117 -78q83 -55 120.5 -117.5t37.5 -144.5
q0 -130 -88 -202.5t-246 -72.5q-118 0 -228 41t-190 115z" />
    <glyph glyph-name="t" unicode="t" horiz-adv-x="653" 
d="M459 776l-97 -495q-4 -24 -4 -31q0 -68 84 -68h50l-37 -184h-74q-108 0 -168.5 51t-60.5 152q0 39 8 78l98 497h-168l33 170h168l74 379h200l-73 -379h213l-33 -170h-213z" />
    <glyph glyph-name="u" unicode="u" horiz-adv-x="1071" 
d="M369 -31q-139 0 -217 77.5t-78 215.5q0 55 16 146l107 538h204l-102 -518q-10 -62 -10 -98q0 -82 45 -124t131 -42q114 0 183.5 80.5t101.5 249.5l88 452h200l-182 -946h-201l27 143h-4q-116 -174 -309 -174z" />
    <glyph glyph-name="v" unicode="v" horiz-adv-x="968" 
d="M803 946h248l-566 -946h-188l-195 946h224l100 -706z" />
    <glyph glyph-name="w" unicode="w" horiz-adv-x="1517" 
d="M1368 946h221l-504 -946h-184l-92 680l-358 -680h-185l-133 946h205l65 -686l353 686h194l86 -686z" />
    <glyph glyph-name="x" unicode="x" horiz-adv-x="964" 
d="M1016 946l-410 -454l256 -492h-211l-178 342l-309 -342h-246l465 516l-225 430h213l145 -280l254 280h246z" />
    <glyph glyph-name="y" unicode="y" horiz-adv-x="962" 
d="M817 946h227l-808 -1358h-211l309 516l-232 842h215l146 -620z" />
    <glyph glyph-name="z" unicode="z" horiz-adv-x="892" 
d="M897 946l-35 -176l-614 -584h538l-36 -186h-791l35 176l616 584h-483l37 186h733z" />
    <glyph glyph-name="braceleft" unicode="{" horiz-adv-x="819" 
d="M1004 1526l-35 -176h-82q-46 0 -77 -7.5t-62.5 -30.5t-53.5 -70t-37 -120l-53 -268q-25 -128 -93 -189.5t-214 -78.5v-4q108 -22 155.5 -71.5t47.5 -145.5q0 -57 -15 -134l-47 -241q-10 -49 -10 -96q0 -49 12 -82t34 -48.5t45 -21.5t54 -6h82l-34 -176h-80q-64 0 -118 15
t-100.5 47.5t-73 92t-26.5 140.5q0 47 13 120l49 256q10 54 10 78q0 93 -56 136t-163 49l39 204q265 10 295 170l49 267q17 93 50 163t74 113t95 69t107.5 36t117.5 10h101z" />
    <glyph glyph-name="bar" unicode="|" horiz-adv-x="632" 
d="M47 -440l377 1929h180l-377 -1929h-180z" />
    <glyph glyph-name="braceright" unicode="}" horiz-adv-x="819" 
d="M-158 -440l35 176h82q46 0 77 7.5t62 30t53 69.5t37 120l54 268q25 128 93 190t214 79v4q-108 22 -155.5 71.5t-47.5 145.5q0 62 14 133l48 242q10 49 10 96q0 49 -12 82t-34.5 48.5t-45.5 21.5t-54 6h-82l35 176h80q64 0 118 -15t100.5 -47.5t73 -92t26.5 -140.5
q0 -48 -13 -121l-49 -256q-10 -54 -10 -78q0 -93 56 -135.5t163 -48.5l-39 -205q-265 -10 -295 -170l-49 -266q-17 -93 -50 -163t-74 -113t-95 -69t-107.5 -36t-117.5 -10h-101z" />
    <glyph glyph-name="asciitilde" unicode="~" 
d="M430 774q65 0 127 -19.5t103 -43t96.5 -43t107.5 -19.5q49 0 96 19t74.5 39t73.5 59l90 -143q-90 -77 -171.5 -113.5t-170.5 -36.5q-52 0 -100.5 12.5t-86.5 30.5t-75.5 36.5t-81.5 31t-90 12.5q-50 0 -98 -19t-76.5 -39.5t-73.5 -58.5l-88 144q91 78 172.5 114.5
t171.5 36.5z" />
    <glyph glyph-name="exclamdown" unicode="&#xa1;" horiz-adv-x="661" 
d="M555 1026l-47 -244h-244l47 244h244zM39 -408l244 1000h137l-135 -1000h-246z" />
    <glyph glyph-name="cent" unicode="&#xa2;" horiz-adv-x="966" 
d="M934 717q-155 63 -260 63l-121 -614h16q114 0 289 67l-41 -213q-134 -51 -274 -51h-27l-20 -100h-58l21 106q-171 23 -268 139.5t-97 301.5q0 127 43.5 232.5t119.5 176t177.5 110t218.5 42.5l23 110h57l-22 -112q82 -4 155.5 -22t116.5 -38zM307 430q0 -108 52.5 -172
t138.5 -84l116 602q-131 -16 -219 -105.5t-88 -240.5z" />
    <glyph glyph-name="sterling" unicode="&#xa3;" horiz-adv-x="1071" 
d="M1116 1020h-207v22q0 175 -196 175q-110 0 -172 -57t-62 -167q0 -76 49 -225h363l-12 -61h-332q35 -107 35 -177q0 -203 -289 -329v-4h637l-39 -197h-868l30 154q61 33 113.5 70t100 84.5t75 105t27.5 116.5q0 58 -39 177h-203l12 61h168q-41 135 -41 225
q0 197 121.5 308.5t333.5 111.5q181 0 290 -81t109 -238q0 -24 -4 -74z" />
    <glyph glyph-name="currency" unicode="&#xa4;" 
d="M211 186l-39 41l117 117q-117 133 -117 320q0 186 117 319l-117 117l41 41l117 -117q134 115 319 115q186 0 320 -115l116 117l41 -41l-116 -117q116 -132 116 -319q0 -191 -116 -320l116 -119l-41 -39l-116 117q-134 -115 -320 -115q-189 0 -319 117zM649 377
q122 0 199.5 81t77.5 206t-77.5 205.5t-199.5 80.5t-199 -80.5t-77 -205.5t77 -206t199 -81z" />
    <glyph glyph-name="yen" unicode="&#xa5;" horiz-adv-x="1167" 
d="M1292 1382l-448 -661h235l-12 -62h-266l-78 -114h321l-12 -62h-348l-94 -483h-201l94 483h-346l13 62h321l-33 114h-266l12 62h236l-193 661h217l172 -690l439 690h237z" />
    <glyph glyph-name="brokenbar" unicode="&#xa6;" horiz-adv-x="632" 
d="M604 1489l-155 -795h-181l156 795h180zM387 371l-158 -811h-180l158 811h180z" />
    <glyph glyph-name="section" unicode="&#xa7;" horiz-adv-x="1140" 
d="M530 1135q0 -45 28.5 -80.5t74.5 -61t101.5 -51t110.5 -58t101 -73t74.5 -105t28.5 -145.5q0 -70 -20.5 -126t-59.5 -97.5t-83 -70.5t-104 -56q72 -82 72 -201q0 -147 -102 -241.5t-306 -94.5q-214 0 -405 115l119 172q135 -96 291 -96q94 0 146 37t52 100
q0 44 -28.5 79.5t-74.5 61.5t-101 51.5t-110 58.5t-101 73.5t-74.5 105.5t-28.5 146q0 70 20.5 126t59.5 97.5t82.5 70.5t103.5 56q-71 81 -71 200q0 70 24 129.5t71.5 106.5t127.5 73.5t184 26.5q217 0 406 -114l-119 -172q-135 96 -291 96q-94 0 -146.5 -37.5
t-52.5 -101.5zM653 311q189 87 189 234q0 38 -14 70t-34.5 54t-56 45.5t-64 38t-74.5 37t-73 37.5q-188 -87 -188 -233q0 -38 14 -70t34.5 -54.5t56 -46t63.5 -38t74 -37t73 -37.5z" />
    <glyph glyph-name="dieresis" unicode="&#xa8;" horiz-adv-x="794" 
d="M238 1167l47 246h204l-47 -246h-204zM623 1167l47 246h204l-47 -246h-204z" />
    <glyph glyph-name="copyright" unicode="&#xa9;" horiz-adv-x="1726" 
d="M911 -31q-204 0 -374.5 96t-270.5 268t-100 384q0 159 59 298.5t159 237.5t237 154.5t290 56.5t290 -56.5t237.5 -154.5t159.5 -237.5t59 -298.5t-59 -298.5t-159.5 -238t-237.5 -155t-290 -56.5zM911 90q170 0 310.5 78.5t223.5 223t83 325.5t-83 325.5t-223.5 222.5
t-310.5 78q-127 0 -240.5 -46t-196 -127.5t-131 -199t-48.5 -253.5q0 -181 82.5 -325.5t223 -223t310.5 -78.5zM920 262q-204 0 -339 132.5t-135 332.5t135 332.5t339 132.5q169 0 309 -96l-76 -140q-38 21 -62.5 33.5t-75.5 26.5t-102 14q-131 0 -213 -83.5t-82 -219.5
t82 -219.5t213 -83.5q51 0 102 14t75.5 26.5t62.5 33.5l76 -140q-140 -96 -309 -96z" />
    <glyph glyph-name="ordfeminine" unicode="&#xaa;" horiz-adv-x="897" 
d="M481 692q-124 0 -206 79.5t-82 223.5q0 160 99 262.5t251 102.5q170 0 243 -143h2l21 122h174l-121 -626h-174l23 92h-2q-83 -113 -228 -113zM551 852q91 0 145 56.5t54 133.5q0 72 -49.5 115t-127.5 43q-93 0 -144.5 -57t-51.5 -135q0 -74 49 -115t125 -41z" />
    <glyph glyph-name="guillemotleft" unicode="&#xab;" horiz-adv-x="944" 
d="M281 154l-238 325l365 326h225l-389 -340l227 -311h-190zM635 154l-238 325l365 326h225l-389 -340l227 -311h-190z" />
    <glyph glyph-name="logicalnot" unicode="&#xac;" 
d="M174 885h936v-94v-449h-92v449h-844v94z" />
    <glyph glyph-name="uni00AD" unicode="&#xad;" horiz-adv-x="718" 
d="M86 444l39 197h534l-38 -197h-535z" />
    <glyph glyph-name="registered" unicode="&#xae;" horiz-adv-x="1167" 
d="M684 1464q208 0 339.5 -132t131.5 -343t-131.5 -343t-339.5 -132t-339.5 132t-131.5 343t131.5 343t339.5 132zM684 586q173 0 284 110.5t111 292.5t-111 293t-284 111t-284 -111t-111 -293t111 -292.5t284 -110.5zM881 1120q0 -59 -34 -101t-89 -54l147 -226h-88
l-141 222h-76v-222h-72v533h191q70 0 116 -42t46 -110zM600 1206v-180h105q49 0 74.5 25t25.5 63q0 41 -26 66.5t-74 25.5h-105z" />
    <glyph glyph-name="macron" unicode="&#xaf;" horiz-adv-x="798" 
d="M868 1356l-28 -148h-594l28 148h594z" />
    <glyph glyph-name="degree" unicode="&#xb0;" horiz-adv-x="733" 
d="M496 1413q121 0 199.5 -77.5t78.5 -200.5q0 -124 -78.5 -201.5t-199.5 -77.5t-200 78t-79 201t79 200.5t200 77.5zM496 1317q-78 0 -129.5 -50.5t-51.5 -131.5t51.5 -132t129.5 -51q76 0 127 51t51 132t-51 131.5t-127 50.5z" />
    <glyph glyph-name="plusminus" unicode="&#xb1;" 
d="M670 1069v-281h438v-98h-438v-280h-101v280h-438v98h438v281h101zM1108 313v-92h-977v92h977z" />
    <glyph glyph-name="uni00B2" unicode="&#xb2;" horiz-adv-x="831" 
d="M594 1647q149 0 232 -69t83 -189q0 -182 -233 -334l-252 -168h395l-35 -174h-665l33 164l391 276q93 65 136.5 111.5t43.5 99.5q0 48 -36.5 77t-104.5 29q-63 0 -107.5 -29t-54.5 -91h-189q22 142 115.5 219.5t247.5 77.5z" />
    <glyph glyph-name="uni00B3" unicode="&#xb3;" horiz-adv-x="819" 
d="M473 692q-87 0 -157 22t-116 73t-46 126q0 27 6 62h180q0 -4 -1 -9t-1 -10q0 -43 40 -66.5t105 -23.5q90 0 134.5 35.5t44.5 99.5q0 60 -45.5 85.5t-153.5 27.5l29 150q114 1 160 31.5t46 82.5q0 92 -127 92q-64 0 -104.5 -22.5t-44.5 -63.5h-182q11 120 99 190.5
t241 70.5q137 0 220 -58.5t83 -169.5q0 -82 -50.5 -138t-148.5 -73v-4q160 -28 160 -201q0 -62 -19.5 -115t-61 -98t-115.5 -70.5t-175 -25.5z" />
    <glyph glyph-name="acute" unicode="&#xb4;" horiz-adv-x="686" 
d="M231 1133l269 315h274l-377 -315h-166z" />
    <glyph glyph-name="paragraph" unicode="&#xb6;" horiz-adv-x="1273" 
d="M1358 1434l-31 -152h-121l-293 -1499h-161l292 1499h-215l-290 -1499h-162l166 852q-146 0 -237 103.5t-91 265.5q0 196 137 313t367 117h639z" />
    <glyph glyph-name="periodcentered" unicode="&#xb7;" horiz-adv-x="468" 
d="M158 702l47 244h244l-48 -244h-243z" />
    <glyph glyph-name="cedilla" unicode="&#xb8;" horiz-adv-x="491" 
d="M-29 -434l-30 61q41 21 60 31t45.5 27t37 32t10.5 31q0 46 -117 78l144 237h80l-86 -135q66 -25 102.5 -56t36.5 -85q0 -30 -17.5 -58t-40 -47.5t-64.5 -42t-69 -34.5t-75 -32q-12 -5 -17 -7z" />
    <glyph glyph-name="uni00B9" unicode="&#xb9;" horiz-adv-x="606" 
d="M625 1626l-179 -913h-196l143 733h-51l35 180h248z" />
    <glyph glyph-name="ordmasculine" unicode="&#xba;" horiz-adv-x="892" 
d="M584 1360q151 0 242.5 -82t91.5 -221q0 -155 -109 -260t-285 -105q-151 0 -242.5 82t-91.5 221q0 155 109 260t285 105zM575 1202q-94 0 -149 -60t-55 -141q0 -72 43.5 -111.5t117.5 -39.5q94 0 149.5 60t55.5 141q0 72 -44 111.5t-118 39.5z" />
    <glyph glyph-name="guillemotright" unicode="&#xbb;" horiz-adv-x="958" 
d="M311 805l238 -326l-365 -325h-225l389 340l-227 311h190zM682 805l238 -326l-365 -325h-225l389 340l-227 311h190z" />
    <glyph glyph-name="onequarter" unicode="&#xbc;" horiz-adv-x="1533" 
d="M1165 1382h117l-1012 -1382h-116zM391 592h-117l132 674h-78l22 116h195zM1421 264l-22 -114h-105l-28 -150h-121l29 150h-416l20 108l482 533h159l-102 -527h104zM913 264h283l78 393h-4z" />
    <glyph glyph-name="onehalf" unicode="&#xbd;" horiz-adv-x="1570" 
d="M154 0l1011 1382h117l-1012 -1382h-116zM274 592l132 674h-78l22 116h195l-154 -790h-117zM811 0l18 104l351 277q35 27 55.5 44.5t46.5 45t38.5 57t12.5 60.5q0 48 -32 78t-95 30q-62 0 -103.5 -30t-53.5 -86h-119q14 113 90 171t190 58t180 -57.5t66 -157.5
q0 -79 -44.5 -143.5t-143.5 -139.5l-260 -196h381l-23 -115h-555z" />
    <glyph glyph-name="threequarters" unicode="&#xbe;" horiz-adv-x="1759" 
d="M729 829q0 -38 -9 -72.5t-31.5 -68.5t-56 -59t-86.5 -40.5t-120 -15.5q-133 0 -208 51t-75 144q0 17 4 45h115v-12q0 -115 168 -115q90 0 133 40t43 97q0 71 -50.5 101.5t-172.5 27.5l23 111q124 1 176.5 30t52.5 97q0 98 -123 98q-65 0 -105 -29t-49 -79h-118
q15 110 86 165.5t188 55.5q108 0 176 -45t68 -144q0 -78 -46.5 -129.5t-131.5 -70.5v-2q72 -10 110.5 -57t38.5 -124zM1391 1382h116l-1011 -1382h-117zM1647 264l-23 -114h-104l-29 -150h-121l29 150h-416l21 108l481 533h160l-103 -527h105zM1139 264h282l78 393h-4z" />
    <glyph glyph-name="questiondown" unicode="&#xbf;" horiz-adv-x="870" 
d="M711 1022l-47 -244h-244l47 244h244zM606 588l-12 -60q-15 -72 -44.5 -131t-72.5 -104t-80 -75t-88 -67q-4 -2 -6.5 -4t-5.5 -4q-72 -50 -112 -105t-40 -126q0 -72 46.5 -116t142.5 -44q220 0 256 213h203q-19 -110 -62 -190t-105.5 -126.5t-137 -68.5t-164.5 -22
q-185 0 -286 90.5t-101 245.5q0 65 18.5 121.5t53 102.5t70 80t83.5 70q13 10 53.5 39t54 39.5t42 37t41 46.5t27 51t21.5 66l9 41h196z" />
    <glyph glyph-name="Agrave" unicode="&#xc0;" horiz-adv-x="1392" 
d="M973 1522h-121l-252 245h242zM1077 0l-69 358h-637l-205 -358h-248l848 1434h221l303 -1434h-213zM481 553h488l-125 633z" />
    <glyph glyph-name="Aacute" unicode="&#xc1;" horiz-adv-x="1392" 
d="M1303 1767l-349 -245h-151l241 245h259zM766 1434h221l303 -1434h-213l-69 358h-637l-205 -358h-248zM481 553h488l-125 633z" />
    <glyph glyph-name="Acircumflex" unicode="&#xc2;" horiz-adv-x="1392" 
d="M940 1679l-199 -157h-204l309 245h209l188 -245h-184zM1077 0l-69 358h-637l-205 -358h-248l848 1434h221l303 -1434h-213zM481 553h488l-125 633z" />
    <glyph glyph-name="Atilde" unicode="&#xc3;" horiz-adv-x="1392" 
d="M768 1610q-67 0 -127 -84l-78 22q85 219 244 219q53 0 109.5 -22t106 -44t85.5 -22q67 0 127 84l78 -22q-85 -219 -244 -219q-53 0 -109.5 22t-106 44t-85.5 22zM766 1434h221l303 -1434h-213l-69 358h-637l-205 -358h-248zM481 553h488l-125 633z" />
    <glyph glyph-name="Adieresis" unicode="&#xc4;" horiz-adv-x="1392" 
d="M831 1735l-40 -213h-218l41 213h217zM1241 1735l-41 -213h-217l41 213h217zM1077 0l-69 358h-637l-205 -358h-248l848 1434h221l303 -1434h-213zM481 553h488l-125 633z" />
    <glyph glyph-name="Aring" unicode="&#xc5;" horiz-adv-x="1392" 
d="M1077 0l-69 358h-637l-205 -358h-248l813 1376q-80 58 -80 172q0 113 77 191t198 78q102 0 158.5 -58t56.5 -153q0 -76 -37.5 -139.5t-102.5 -98.5l289 -1368h-213zM915 1720q-78 0 -119.5 -51.5t-41.5 -116.5q0 -55 32 -86.5t91 -31.5q78 0 119.5 51.5t41.5 116.5
q0 55 -32 86.5t-91 31.5zM481 553h488l-125 633z" />
    <glyph glyph-name="AE" unicode="&#xc6;" horiz-adv-x="1921" 
d="M1966 1233h-553l-65 -340h503l-39 -201h-503l-97 -491h564l-39 -201h-650h-122l69 356h-542l-295 -356h-279l1210 1434h324h553zM653 553h418l129 659z" />
    <glyph glyph-name="Ccedilla" unicode="&#xc7;" horiz-adv-x="1402" 
d="M944 1249q-138 0 -251.5 -48.5t-187 -131.5t-113.5 -190.5t-40 -227.5q0 -219 124 -343t337 -124q104 0 186.5 29.5t167.5 85.5l115 -180q-220 -150 -483 -150q-36 0 -54 2l-26 -43q66 -25 102.5 -56t36.5 -85q0 -30 -17.5 -58t-40 -47.5t-64.5 -42t-69 -34.5t-75 -32
q-4 -2 -6 -2.5t-5 -2t-6 -2.5l-30 61q41 21 60 31t45.5 27t37 32t10.5 31q0 46 -116 78l92 151q-256 38 -403.5 218t-147.5 456q0 166 58 313.5t163 258.5t263.5 176t348.5 65q291 0 500 -159l-133 -181q-55 37 -98 59.5t-120 44t-161 21.5z" />
    <glyph glyph-name="Egrave" unicode="&#xc8;" horiz-adv-x="1060" 
d="M842 1522h-121l-252 245h242zM1108 1233h-602l-68 -340h555l-37 -201h-557l-96 -491h612l-38 -201h-826l281 1434h815z" />
    <glyph glyph-name="Eacute" unicode="&#xc9;" horiz-adv-x="1060" 
d="M1171 1767l-348 -245h-151l241 245h258zM51 0l281 1434h815l-39 -201h-602l-68 -340h555l-37 -201h-557l-96 -491h612l-38 -201h-826z" />
    <glyph glyph-name="Ecircumflex" unicode="&#xca;" horiz-adv-x="1060" 
d="M809 1679l-199 -157h-204l309 245h209l188 -245h-184zM1108 1233h-602l-68 -340h555l-37 -201h-557l-96 -491h612l-38 -201h-826l281 1434h815z" />
    <glyph glyph-name="Edieresis" unicode="&#xcb;" horiz-adv-x="1060" 
d="M700 1735l-41 -213h-217l41 213h217zM1110 1735l-41 -213h-217l41 213h217zM1108 1233h-602l-68 -340h555l-37 -201h-557l-96 -491h612l-38 -201h-826l281 1434h815z" />
    <glyph glyph-name="Igrave" unicode="&#xcc;" horiz-adv-x="505" 
d="M406 1767l131 -245h-121l-252 245h242zM51 0l281 1434h217l-281 -1434h-217z" />
    <glyph glyph-name="Iacute" unicode="&#xcd;" horiz-adv-x="505" 
d="M367 1522l241 245h258l-348 -245h-151zM51 0l281 1434h217l-281 -1434h-217z" />
    <glyph glyph-name="Icircumflex" unicode="&#xce;" horiz-adv-x="505" 
d="M100 1522l310 245h208l189 -245h-184l-119 157l-199 -157h-205zM51 0l281 1434h217l-281 -1434h-217z" />
    <glyph glyph-name="Idieresis" unicode="&#xcf;" horiz-adv-x="505" 
d="M137 1522l41 213h217l-41 -213h-217zM547 1522l41 213h217l-41 -213h-217zM51 0l281 1434h217l-281 -1434h-217z" />
    <glyph glyph-name="Eth" unicode="&#xd0;" horiz-adv-x="1411" 
d="M756 1434q283 0 456.5 -170.5t173.5 -460.5q0 -177 -63 -325.5t-178.5 -254t-287 -164.5t-380.5 -59h-432l129 655h-139l39 172h133l119 607h430zM543 201q130 0 242.5 42.5t195 120t129.5 191.5t47 250q0 204 -115.5 316t-302.5 112h-239l-80 -406h309l-39 -172h-303
l-90 -454h246z" />
    <glyph glyph-name="Ntilde" unicode="&#xd1;" horiz-adv-x="1417" 
d="M1092 1522q-53 0 -109.5 22t-106 44t-85.5 22q-67 0 -127 -84l-78 22q85 219 243 219q53 0 109.5 -22t106 -44t85.5 -22q67 0 127 84l78 -22q-85 -219 -243 -219zM51 0l279 1434h219l485 -1088h4l209 1088h213l-278 -1434h-221l-484 1090h-2l-211 -1090h-213z" />
    <glyph glyph-name="Ograve" unicode="&#xd2;" horiz-adv-x="1693" 
d="M928 1767l131 -245h-121l-252 245h242zM838 -31q-208 0 -370 82.5t-253.5 237.5t-91.5 360q0 168 60 317.5t166 259.5t262 174t339 64q208 0 370 -82.5t253.5 -237.5t91.5 -360q0 -168 -60 -317.5t-166 -259.5t-262 -174t-339 -64zM846 182q138 0 251.5 49t186.5 133.5
t112.5 195.5t39.5 237q0 138 -67 243t-178.5 158t-248.5 53q-138 0 -251.5 -49t-186.5 -133t-112.5 -195t-39.5 -237q0 -139 67 -243.5t178.5 -158t248.5 -53.5z" />
    <glyph glyph-name="Oacute" unicode="&#xd3;" horiz-adv-x="1693" 
d="M889 1522l241 245h259l-349 -245h-151zM838 -31q-208 0 -370 82.5t-253.5 237.5t-91.5 360q0 168 60 317.5t166 259.5t262 174t339 64q208 0 370 -82.5t253.5 -237.5t91.5 -360q0 -168 -60 -317.5t-166 -259.5t-262 -174t-339 -64zM846 182q138 0 251.5 49t186.5 133.5
t112.5 195.5t39.5 237q0 138 -67 243t-178.5 158t-248.5 53q-138 0 -251.5 -49t-186.5 -133t-112.5 -195t-39.5 -237q0 -139 67 -243.5t178.5 -158t248.5 -53.5z" />
    <glyph glyph-name="Ocircumflex" unicode="&#xd4;" horiz-adv-x="1693" 
d="M623 1522l309 245h209l188 -245h-184l-119 157l-199 -157h-204zM838 -31q-208 0 -370 82.5t-253.5 237.5t-91.5 360q0 168 60 317.5t166 259.5t262 174t339 64q208 0 370 -82.5t253.5 -237.5t91.5 -360q0 -168 -60 -317.5t-166 -259.5t-262 -174t-339 -64zM846 182
q138 0 251.5 49t186.5 133.5t112.5 195.5t39.5 237q0 138 -67 243t-178.5 158t-248.5 53q-138 0 -251.5 -49t-186.5 -133t-112.5 -195t-39.5 -237q0 -139 67 -243.5t178.5 -158t248.5 -53.5z" />
    <glyph glyph-name="Otilde" unicode="&#xd5;" horiz-adv-x="1693" 
d="M1155 1522q-53 0 -109.5 22t-106 44t-85.5 22q-67 0 -127 -84l-78 22q85 219 244 219q53 0 109.5 -22t106 -44t85.5 -22q67 0 127 84l78 -22q-85 -219 -244 -219zM838 -31q-208 0 -370 82.5t-253.5 237.5t-91.5 360q0 168 60 317.5t166 259.5t262 174t339 64
q208 0 370 -82.5t253.5 -237.5t91.5 -360q0 -168 -60 -317.5t-166 -259.5t-262 -174t-339 -64zM846 182q138 0 251.5 49t186.5 133.5t112.5 195.5t39.5 237q0 138 -67 243t-178.5 158t-248.5 53q-138 0 -251.5 -49t-186.5 -133t-112.5 -195t-39.5 -237q0 -139 67 -243.5
t178.5 -158t248.5 -53.5z" />
    <glyph glyph-name="Odieresis" unicode="&#xd6;" horiz-adv-x="1693" 
d="M659 1522l41 213h218l-41 -213h-218zM1069 1522l41 213h217l-41 -213h-217zM838 -31q-208 0 -370 82.5t-253.5 237.5t-91.5 360q0 168 60 317.5t166 259.5t262 174t339 64q208 0 370 -82.5t253.5 -237.5t91.5 -360q0 -168 -60 -317.5t-166 -259.5t-262 -174t-339 -64z
M846 182q138 0 251.5 49t186.5 133.5t112.5 195.5t39.5 237q0 138 -67 243t-178.5 158t-248.5 53q-138 0 -251.5 -49t-186.5 -133t-112.5 -195t-39.5 -237q0 -139 67 -243.5t178.5 -158t248.5 -53.5z" />
    <glyph glyph-name="multiply" unicode="&#xd7;" 
d="M1010 1053l71 -72l-372 -371l372 -370l-71 -70l-369 369l-371 -371l-73 74l370 370l-368 369l69 72l371 -371z" />
    <glyph glyph-name="Oslash" unicode="&#xd8;" horiz-adv-x="1693" 
d="M1468 1276q95 -89 146 -214.5t51 -277.5q0 -168 -60 -317.5t-166 -259.5t-262 -174t-339 -64q-267 0 -451 133l-129 -139l-61 51l127 140q-201 185 -201 495q0 168 60 317.5t166 259.5t262 174t339 64q271 0 459 -137l125 135l59 -51zM352 637q0 -194 127 -318l774 840
q-131 92 -311 92q-138 0 -251.5 -49t-186.5 -133t-112.5 -195t-39.5 -237zM846 182q138 0 251.5 49t186.5 133.5t112.5 195.5t39.5 237q0 190 -121 311l-774 -838q130 -88 305 -88z" />
    <glyph glyph-name="Ugrave" unicode="&#xd9;" horiz-adv-x="1396" 
d="M840 1767l131 -245h-121l-252 245h242zM1460 1434l-172 -881q-55 -284 -224 -434t-433 -150q-239 0 -370.5 120.5t-131.5 338.5q0 82 18 170l164 836h221l-170 -875q-10 -44 -10 -94q0 -130 80 -202.5t223 -72.5q163 0 270 95.5t142 273.5l172 875h221z" />
    <glyph glyph-name="Uacute" unicode="&#xda;" horiz-adv-x="1396" 
d="M801 1522l241 245h258l-348 -245h-151zM1460 1434l-172 -881q-55 -284 -224 -434t-433 -150q-239 0 -370.5 120.5t-131.5 338.5q0 82 18 170l164 836h221l-170 -875q-10 -44 -10 -94q0 -130 80 -202.5t223 -72.5q163 0 270 95.5t142 273.5l172 875h221z" />
    <glyph glyph-name="Ucircumflex" unicode="&#xdb;" horiz-adv-x="1396" 
d="M535 1522l309 245h209l188 -245h-184l-119 157l-199 -157h-204zM1460 1434l-172 -881q-55 -284 -224 -434t-433 -150q-239 0 -370.5 120.5t-131.5 338.5q0 82 18 170l164 836h221l-170 -875q-10 -44 -10 -94q0 -130 80 -202.5t223 -72.5q163 0 270 95.5t142 273.5
l172 875h221z" />
    <glyph glyph-name="Udieresis" unicode="&#xdc;" horiz-adv-x="1396" 
d="M571 1522l41 213h217l-41 -213h-217zM981 1522l41 213h217l-41 -213h-217zM1460 1434l-172 -881q-55 -284 -224 -434t-433 -150q-239 0 -370.5 120.5t-131.5 338.5q0 82 18 170l164 836h221l-170 -875q-10 -44 -10 -94q0 -130 80 -202.5t223 -72.5q163 0 270 95.5
t142 273.5l172 875h221z" />
    <glyph glyph-name="Yacute" unicode="&#xdd;" horiz-adv-x="1112" 
d="M1155 1767l-348 -245h-152l242 245h258zM1298 1434l-616 -861l-113 -573h-213l113 571l-283 863h234l176 -654h4l436 654h262z" />
    <glyph glyph-name="Thorn" unicode="&#xde;" horiz-adv-x="1191" 
d="M723 1135q211 0 325.5 -111.5t114.5 -282.5q0 -209 -153.5 -342t-425.5 -133h-269l-51 -266h-213l279 1434h213l-58 -299h238zM637 467q136 0 215.5 70t79.5 192q0 103 -62.5 154t-167.5 51h-256l-92 -467h283z" />
    <glyph glyph-name="germandbls" unicode="&#xdf;" horiz-adv-x="1159" 
d="M741 809q169 -12 256.5 -101t87.5 -245q0 -216 -158.5 -344.5t-424.5 -128.5h-140l37 188h80q189 0 292 69.5t103 211.5q0 131 -91 188.5t-275 57.5l35 176q334 0 334 223q0 87 -49 127.5t-130 40.5q-94 0 -160.5 -55t-88.5 -170l-256 -1313h-201l250 1300
q39 207 158 318.5t317 111.5q177 0 273.5 -92.5t96.5 -230.5q0 -128 -87.5 -221t-258.5 -107v-4z" />
    <glyph glyph-name="agrave" unicode="&#xe0;" horiz-adv-x="1200" 
d="M627 1448l131 -315h-137l-236 315h242zM487 -31q-186 0 -303.5 129.5t-117.5 333.5q0 235 146.5 390t367.5 155q125 0 216 -52t134 -147h6l31 168h200l-182 -946h-201l27 131h-6q-131 -162 -318 -162zM557 160q146 0 241 97.5t95 246.5q0 129 -75.5 205.5t-203.5 76.5
q-145 0 -240 -100t-95 -252q0 -126 74.5 -200t203.5 -74z" />
    <glyph glyph-name="aacute" unicode="&#xe1;" horiz-adv-x="1200" 
d="M616 1133l269 315h274l-377 -315h-166zM487 -31q-186 0 -303.5 129.5t-117.5 333.5q0 235 146.5 390t367.5 155q125 0 216 -52t134 -147h6l31 168h200l-182 -946h-201l27 131h-6q-131 -162 -318 -162zM557 160q146 0 241 97.5t95 246.5q0 129 -75.5 205.5t-203.5 76.5
q-145 0 -240 -100t-95 -252q0 -126 74.5 -200t203.5 -74z" />
    <glyph glyph-name="acircumflex" unicode="&#xe2;" horiz-adv-x="1200" 
d="M285 1133l319 315h197l192 -315h-182l-119 204l-203 -204h-204zM487 -31q-186 0 -303.5 129.5t-117.5 333.5q0 235 146.5 390t367.5 155q125 0 216 -52t134 -147h6l31 168h200l-182 -946h-201l27 131h-6q-131 -162 -318 -162zM557 160q146 0 241 97.5t95 246.5
q0 129 -75.5 205.5t-203.5 76.5q-145 0 -240 -100t-95 -252q0 -126 74.5 -200t203.5 -74z" />
    <glyph glyph-name="atilde" unicode="&#xe3;" horiz-adv-x="1200" 
d="M836 1180q-54 0 -110.5 26t-105.5 52t-85 26q-67 0 -127 -92l-80 22q87 228 245 228q42 0 87 -16.5t77 -36t69.5 -36t67.5 -16.5q35 0 64.5 22.5t60.5 70.5l78 -23q-18 -48 -38 -85t-49 -71t-68 -52.5t-86 -18.5zM487 -31q-186 0 -303.5 129.5t-117.5 333.5
q0 235 146.5 390t367.5 155q125 0 216 -52t134 -147h6l31 168h200l-182 -946h-201l27 131h-6q-131 -162 -318 -162zM557 160q146 0 241 97.5t95 246.5q0 129 -75.5 205.5t-203.5 76.5q-145 0 -240 -100t-95 -252q0 -126 74.5 -200t203.5 -74z" />
    <glyph glyph-name="adieresis" unicode="&#xe4;" horiz-adv-x="1200" 
d="M379 1167l47 246h205l-47 -246h-205zM764 1167l47 246h205l-47 -246h-205zM487 -31q-186 0 -303.5 129.5t-117.5 333.5q0 235 146.5 390t367.5 155q125 0 216 -52t134 -147h6l31 168h200l-182 -946h-201l27 131h-6q-131 -162 -318 -162zM557 160q146 0 241 97.5t95 246.5
q0 129 -75.5 205.5t-203.5 76.5q-145 0 -240 -100t-95 -252q0 -126 74.5 -200t203.5 -74z" />
    <glyph glyph-name="aring" unicode="&#xe5;" horiz-adv-x="1200" 
d="M702 1530q103 0 168.5 -62.5t65.5 -160.5q0 -103 -70 -179.5t-186 -76.5q-103 0 -167 62.5t-64 160.5q0 103 68.5 179.5t184.5 76.5zM700 1434q-75 0 -112 -48.5t-37 -109.5q0 -59 35 -94t96 -35q75 0 112 48.5t37 109.5q0 59 -35 94t-96 35zM487 -31
q-186 0 -303.5 129.5t-117.5 333.5q0 235 146.5 390t367.5 155q125 0 216 -52t134 -147h6l31 168h200l-182 -946h-201l27 131h-6q-131 -162 -318 -162zM557 160q146 0 241 97.5t95 246.5q0 129 -75.5 205.5t-203.5 76.5q-145 0 -240 -100t-95 -252q0 -126 74.5 -200
t203.5 -74z" />
    <glyph glyph-name="ae" unicode="&#xe6;" horiz-adv-x="1708" 
d="M381 -31q-165 0 -268 82.5t-103 231.5q0 71 25.5 133.5t73.5 110.5t124 76t170 28q200 0 302 -121h2q28 92 28 156q0 61 -49.5 96t-144.5 35q-149 0 -324 -49l-39 174q202 55 381 55q277 0 313 -178h5q58 84 156.5 131t223.5 47q172 0 275.5 -99.5t103.5 -281.5
q0 -56 -18 -158h-727q-4 -24 -4 -43q0 -30 6.5 -59.5t24.5 -62t45.5 -56.5t74.5 -39.5t107 -15.5q56 0 105.5 12.5t90.5 36.5t67 44t58 50l121 -139q-76 -82 -190 -139.5t-252 -57.5q-140 0 -237 62.5t-126 158.5h-4q-134 -221 -397 -221zM930 586h495q2 10 2 30
q0 84 -53.5 132.5t-154.5 48.5q-106 0 -180.5 -55.5t-108.5 -155.5zM424 141q115 0 180.5 54.5t65.5 128.5q0 70 -57 104.5t-152 34.5q-113 0 -179.5 -47t-66.5 -125q0 -74 57.5 -112t151.5 -38z" />
    <glyph glyph-name="ccedilla" unicode="&#xe7;" horiz-adv-x="991" 
d="M610 786q-145 0 -237 -93.5t-92 -241.5q0 -130 78 -210.5t204 -80.5q112 0 236 65l82 -168q-153 -88 -318 -88l-26 -41q66 -25 102.5 -56t36.5 -85q0 -30 -17.5 -58t-40 -47.5t-64.5 -42t-69 -34.5t-75 -32q-12 -5 -17 -7l-31 61q29 15 40.5 20.5t35 18.5t33.5 20.5
t22.5 18.5t17.5 21.5t5 21.5q0 46 -117 78l88 147q-192 20 -305.5 146.5t-113.5 322.5q0 238 154 386.5t401 148.5q212 0 383 -123l-117 -162q-129 94 -279 94z" />
    <glyph glyph-name="egrave" unicode="&#xe8;" horiz-adv-x="1105" 
d="M743 1133h-137l-235 315h241zM1026 438h-768v-2q0 -274 268 -274q94 0 174.5 35.5t165.5 113.5l117 -149q-208 -191 -457 -191q-215 0 -339 120t-124 327q0 244 155.5 401.5t397.5 157.5q199 0 311.5 -106.5t112.5 -295.5q0 -49 -14 -137zM606 807q-117 0 -201.5 -58
t-121.5 -161h561v10q0 100 -62 154.5t-176 54.5z" />
    <glyph glyph-name="eacute" unicode="&#xe9;" horiz-adv-x="1105" 
d="M1145 1448l-377 -315h-166l268 315h275zM616 977q199 0 311.5 -106.5t112.5 -295.5q0 -49 -14 -137h-768v-2q0 -274 268 -274q94 0 174.5 35.5t165.5 113.5l117 -149q-208 -191 -457 -191q-215 0 -339 120t-124 327q0 244 155.5 401.5t397.5 157.5zM844 588v10
q0 100 -62 154.5t-176 54.5q-117 0 -201.5 -58t-121.5 -161h561z" />
    <glyph glyph-name="ecircumflex" unicode="&#xea;" horiz-adv-x="1105" 
d="M678 1337l-203 -204h-205l320 315h196l193 -315h-182zM1026 438h-768v-2q0 -274 268 -274q94 0 174.5 35.5t165.5 113.5l117 -149q-208 -191 -457 -191q-215 0 -339 120t-124 327q0 244 155.5 401.5t397.5 157.5q199 0 311.5 -106.5t112.5 -295.5q0 -49 -14 -137z
M606 807q-117 0 -201.5 -58t-121.5 -161h561v10q0 100 -62 154.5t-176 54.5z" />
    <glyph glyph-name="edieresis" unicode="&#xeb;" horiz-adv-x="1105" 
d="M616 1413l-47 -246h-204l47 246h204zM1001 1413l-47 -246h-204l47 246h204zM1026 438h-768v-2q0 -274 268 -274q94 0 174.5 35.5t165.5 113.5l117 -149q-208 -191 -457 -191q-215 0 -339 120t-124 327q0 244 155.5 401.5t397.5 157.5q199 0 311.5 -106.5t112.5 -295.5
q0 -49 -14 -137zM606 807q-117 0 -201.5 -58t-121.5 -161h561v10q0 100 -62 154.5t-176 54.5z" />
    <glyph glyph-name="igrave" unicode="&#xec;" horiz-adv-x="466" 
d="M385 1448l49 -315h-141l-88 315h180zM41 0l184 946h201l-184 -946h-201z" />
    <glyph glyph-name="iacute" unicode="&#xed;" horiz-adv-x="466" 
d="M289 1133l186 315h217l-237 -315h-166zM41 0l184 946h201l-184 -946h-201z" />
    <glyph glyph-name="icircumflex" unicode="&#xee;" horiz-adv-x="466" 
d="M86 1133l225 315h197l98 -315h-162l-43 215l-131 -215h-184zM41 0l184 946h201l-184 -946h-201z" />
    <glyph glyph-name="idieresis" unicode="&#xef;" horiz-adv-x="466" 
d="M129 1167l47 246h205l-47 -246h-205zM412 1167l47 246h205l-48 -246h-204zM41 0l184 946h201l-184 -946h-201z" />
    <glyph glyph-name="eth" unicode="&#xf0;" horiz-adv-x="1214" 
d="M961 1348q204 -187 204 -551q0 -173 -32 -313t-88 -235t-135.5 -158.5t-170.5 -92.5t-196 -29q-218 0 -346.5 134t-128.5 341q0 230 148.5 381.5t371.5 151.5q136 0 236.5 -61t138.5 -185h4q6 50 6 98q0 264 -174 408l-224 -156l-55 78l195 133q-114 63 -277 88l54 164
q232 -36 389 -135l219 150l51 -80zM557 166q158 0 253 98t95 242q0 128 -75.5 201t-204.5 73q-85 0 -152.5 -28.5t-108.5 -76t-62 -107t-21 -124.5q0 -128 74.5 -203t201.5 -75z" />
    <glyph glyph-name="ntilde" unicode="&#xf1;" horiz-adv-x="1105" 
d="M852 1180q-54 0 -110.5 26t-105.5 52t-85 26q-67 0 -127 -92l-80 22q87 228 246 228q42 0 87 -16.5t77 -36t69.5 -36t67.5 -16.5q35 0 64.5 22.5t60.5 70.5l78 -23q-18 -48 -38.5 -85t-49 -71t-68 -52.5t-86.5 -18.5zM31 0l184 946h201l-29 -143h4q65 89 146 131.5
t188 42.5q138 0 215.5 -80.5t77.5 -224.5q0 -71 -14 -148l-103 -524h-201l97 500q10 52 10 108q0 178 -186 178q-123 0 -195.5 -80t-106.5 -253l-88 -453h-200z" />
    <glyph glyph-name="ograve" unicode="&#xf2;" horiz-adv-x="1159" 
d="M631 1448l131 -315h-137l-236 315h242zM530 -31q-215 0 -342 121.5t-127 325.5q0 120 43 224t118.5 178t180.5 116.5t226 42.5q215 0 342 -121.5t127 -325.5q0 -120 -43 -224t-118.5 -178t-180.5 -116.5t-226 -42.5zM549 166q148 0 242 99t94 253q0 123 -73 192.5
t-202 69.5q-148 0 -242 -99t-94 -253q0 -123 73 -192.5t202 -69.5z" />
    <glyph glyph-name="oacute" unicode="&#xf3;" horiz-adv-x="1159" 
d="M621 1133l268 315h274l-377 -315h-165zM530 -31q-215 0 -342 121.5t-127 325.5q0 120 43 224t118.5 178t180.5 116.5t226 42.5q215 0 342 -121.5t127 -325.5q0 -120 -43 -224t-118.5 -178t-180.5 -116.5t-226 -42.5zM549 166q148 0 242 99t94 253q0 123 -73 192.5
t-202 69.5q-148 0 -242 -99t-94 -253q0 -123 73 -192.5t202 -69.5z" />
    <glyph glyph-name="ocircumflex" unicode="&#xf4;" horiz-adv-x="1159" 
d="M289 1133l319 315h197l192 -315h-182l-119 204l-202 -204h-205zM530 -31q-215 0 -342 121.5t-127 325.5q0 120 43 224t118.5 178t180.5 116.5t226 42.5q215 0 342 -121.5t127 -325.5q0 -120 -43 -224t-118.5 -178t-180.5 -116.5t-226 -42.5zM549 166q148 0 242 99t94 253
q0 123 -73 192.5t-202 69.5q-148 0 -242 -99t-94 -253q0 -123 73 -192.5t202 -69.5z" />
    <glyph glyph-name="otilde" unicode="&#xf5;" horiz-adv-x="1159" 
d="M840 1180q-54 0 -110.5 26t-105.5 52t-85 26q-67 0 -127 -92l-80 22q87 228 246 228q42 0 87 -16.5t77 -36t69.5 -36t67.5 -16.5q35 0 64.5 22.5t60.5 70.5l77 -23q-18 -48 -38 -85t-49 -71t-68 -52.5t-86 -18.5zM530 -31q-215 0 -342 121.5t-127 325.5q0 120 43 224
t118.5 178t180.5 116.5t226 42.5q215 0 342 -121.5t127 -325.5q0 -120 -43 -224t-118.5 -178t-180.5 -116.5t-226 -42.5zM549 166q148 0 242 99t94 253q0 123 -73 192.5t-202 69.5q-148 0 -242 -99t-94 -253q0 -123 73 -192.5t202 -69.5z" />
    <glyph glyph-name="odieresis" unicode="&#xf6;" horiz-adv-x="1159" 
d="M383 1167l47 246h205l-47 -246h-205zM768 1167l47 246h205l-47 -246h-205zM530 -31q-215 0 -342 121.5t-127 325.5q0 120 43 224t118.5 178t180.5 116.5t226 42.5q215 0 342 -121.5t127 -325.5q0 -120 -43 -224t-118.5 -178t-180.5 -116.5t-226 -42.5zM549 166
q148 0 242 99t94 253q0 123 -73 192.5t-202 69.5q-148 0 -242 -99t-94 -253q0 -123 73 -192.5t202 -69.5z" />
    <glyph glyph-name="divide" unicode="&#xf7;" 
d="M719 1018v-172h-156v172h156zM1171 659v-96h-1060v96h1060zM719 377v-174h-156v174h156z" />
    <glyph glyph-name="oslash" unicode="&#xf8;" horiz-adv-x="1159" 
d="M1100 928l-105 -99q103 -119 103 -299q0 -120 -43 -224t-118.5 -178t-180.5 -116.5t-226 -42.5q-208 0 -335 115l-121 -113l-49 47l125 117q-89 116 -89 281q0 120 43 224t118.5 178t180.5 116.5t226 42.5q194 0 315 -98l107 98zM274 428q0 -84 35 -143l477 446
q-67 49 -176 49q-148 0 -242 -99t-94 -253zM885 518q0 99 -47 164l-486 -451q71 -65 197 -65q148 0 242 99t94 253z" />
    <glyph glyph-name="ugrave" unicode="&#xf9;" horiz-adv-x="1071" 
d="M582 1448l131 -315h-138l-235 315h242zM369 -31q-139 0 -217 77.5t-78 215.5q0 55 16 146l107 538h204l-102 -518q-10 -62 -10 -98q0 -82 45 -124t131 -42q114 0 183.5 80.5t101.5 249.5l88 452h200l-182 -946h-201l27 143h-4q-116 -174 -309 -174z" />
    <glyph glyph-name="uacute" unicode="&#xfa;" horiz-adv-x="1071" 
d="M571 1133l269 315h274l-377 -315h-166zM369 -31q-139 0 -217 77.5t-78 215.5q0 55 16 146l107 538h204l-102 -518q-10 -62 -10 -98q0 -82 45 -124t131 -42q114 0 183.5 80.5t101.5 249.5l88 452h200l-182 -946h-201l27 143h-4q-116 -174 -309 -174z" />
    <glyph glyph-name="ucircumflex" unicode="&#xfb;" horiz-adv-x="1071" 
d="M240 1133l319 315h197l192 -315h-182l-119 204l-203 -204h-204zM369 -31q-139 0 -217 77.5t-78 215.5q0 55 16 146l107 538h204l-102 -518q-10 -62 -10 -98q0 -82 45 -124t131 -42q114 0 183.5 80.5t101.5 249.5l88 452h200l-182 -946h-201l27 143h-4
q-116 -174 -309 -174z" />
    <glyph glyph-name="udieresis" unicode="&#xfc;" horiz-adv-x="1071" 
d="M334 1167l47 246h205l-47 -246h-205zM719 1167l47 246h205l-47 -246h-205zM369 -31q-139 0 -217 77.5t-78 215.5q0 55 16 146l107 538h204l-102 -518q-10 -62 -10 -98q0 -82 45 -124t131 -42q114 0 183.5 80.5t101.5 249.5l88 452h200l-182 -946h-201l27 143h-4
q-116 -174 -309 -174z" />
    <glyph glyph-name="yacute" unicode="&#xfd;" horiz-adv-x="962" 
d="M1063 1448l-377 -315h-166l268 315h275zM463 326l354 620h227l-808 -1358h-211l309 516l-232 842h215z" />
    <glyph glyph-name="thorn" unicode="&#xfe;" horiz-adv-x="1208" 
d="M725 977q187 0 303.5 -126t116.5 -329q0 -156 -67 -283t-186 -198.5t-265 -71.5q-121 0 -210.5 50.5t-135.5 144.5h-7l-110 -576h-201l356 1846h201l-94 -488l-23 -115h7q131 146 315 146zM586 160q148 0 247 103t99 257q0 124 -71.5 195t-196.5 71q-148 0 -247.5 -103
t-99.5 -257q0 -124 72 -195t197 -71z" />
    <glyph glyph-name="ydieresis" unicode="&#xff;" horiz-adv-x="962" 
d="M535 1413l-48 -246h-204l47 246h205zM920 1413l-48 -246h-204l47 246h205zM817 946h227l-808 -1358h-211l309 516l-232 842h215l146 -620z" />
    <glyph glyph-name="Amacron" unicode="&#x100;" horiz-adv-x="1392" 
d="M1214 1706l-28 -147h-594l29 147h593zM1077 0l-69 358h-637l-205 -358h-248l848 1434h221l303 -1434h-213zM481 553h488l-125 633z" />
    <glyph glyph-name="amacron" unicode="&#x101;" horiz-adv-x="1200" 
d="M1006 1356l-29 -148h-594l29 148h594zM487 -31q-186 0 -303.5 129.5t-117.5 333.5q0 235 146.5 390t367.5 155q125 0 216 -52t134 -147h6l31 168h200l-182 -946h-201l27 131h-6q-131 -162 -318 -162zM557 160q146 0 241 97.5t95 246.5q0 129 -75.5 205.5t-203.5 76.5
q-145 0 -240 -100t-95 -252q0 -126 74.5 -200t203.5 -74z" />
    <glyph glyph-name="Abreve" unicode="&#x102;" horiz-adv-x="1392" 
d="M901 1522q-109 0 -170 54.5t-61 152.5q0 24 2 38h125v-16q0 -100 123 -100q61 0 100 29.5t65 86.5h138q-32 -116 -117 -180.5t-205 -64.5zM1077 0l-69 358h-637l-205 -358h-248l848 1434h221l303 -1434h-213zM481 553h488l-125 633z" />
    <glyph glyph-name="abreve" unicode="&#x103;" horiz-adv-x="1200" 
d="M1024 1427q-25 -138 -106 -216t-211 -78q-106 0 -176 56t-70 154q0 32 10 84h119q-6 -24 -6 -49q0 -57 32.5 -89t92.5 -32q79 0 119 44t59 126h137zM487 -31q-186 0 -303.5 129.5t-117.5 333.5q0 235 146.5 390t367.5 155q125 0 216 -52t134 -147h6l31 168h200l-182 -946
h-201l27 131h-6q-131 -162 -318 -162zM557 160q146 0 241 97.5t95 246.5q0 129 -75.5 205.5t-203.5 76.5q-145 0 -240 -100t-95 -252q0 -126 74.5 -200t203.5 -74z" />
    <glyph glyph-name="Aogonek" unicode="&#x104;" horiz-adv-x="1392" 
d="M1022 -209q0 -39 51 -39q24 0 82 12v-126q-65 -21 -127 -21q-76 0 -122 32.5t-46 92.5q0 127 213 276l-65 340h-637l-205 -358h-248l848 1434h221l303 -1434h-106q-162 -140 -162 -209zM481 553h488l-125 633z" />
    <glyph glyph-name="aogonek" unicode="&#x105;" horiz-adv-x="1200" 
d="M866 0q-161 -139 -161 -209q0 -39 51 -39q24 0 82 12v-126q-64 -21 -127 -21q-76 0 -122 32.5t-46 92.5q0 138 250 303l18 86h-6q-131 -162 -318 -162q-186 0 -303.5 129.5t-117.5 333.5q0 235 146.5 390t367.5 155q125 0 216 -52t134 -147h6l31 168h200l-182 -946h-119z
M557 160q146 0 241 97.5t95 246.5q0 129 -75.5 205.5t-203.5 76.5q-145 0 -240 -100t-95 -252q0 -126 74.5 -200t203.5 -74z" />
    <glyph glyph-name="Cacute" unicode="&#x106;" horiz-adv-x="1402" 
d="M889 1522l241 245h259l-349 -245h-151zM799 -31q-308 0 -492 186t-184 496q0 166 58 313.5t163 258.5t263.5 176t348.5 65q291 0 500 -159l-133 -181q-55 37 -98 59.5t-120 44t-161 21.5q-138 0 -251.5 -48.5t-187 -131.5t-113.5 -190.5t-40 -227.5q0 -219 124 -343
t337 -124q104 0 186.5 29.5t167.5 85.5l115 -180q-220 -150 -483 -150z" />
    <glyph glyph-name="cacute" unicode="&#x107;" horiz-adv-x="991" 
d="M623 1133l268 315h274l-377 -315h-165zM559 -31q-223 0 -357 129.5t-134 343.5q0 238 154 386.5t401 148.5q212 0 383 -123l-117 -162q-129 94 -279 94q-145 0 -237 -93.5t-92 -241.5q0 -130 78 -210.5t204 -80.5q112 0 236 65l82 -168q-157 -88 -322 -88z" />
    <glyph glyph-name="Ccircumflex" unicode="&#x108;" horiz-adv-x="1402" 
d="M623 1522l309 245h209l188 -245h-184l-119 157l-199 -157h-204zM799 -31q-308 0 -492 186t-184 496q0 166 58 313.5t163 258.5t263.5 176t348.5 65q291 0 500 -159l-133 -181q-55 37 -98 59.5t-120 44t-161 21.5q-138 0 -251.5 -48.5t-187 -131.5t-113.5 -190.5
t-40 -227.5q0 -219 124 -343t337 -124q104 0 186.5 29.5t167.5 85.5l115 -180q-220 -150 -483 -150z" />
    <glyph glyph-name="ccircumflex" unicode="&#x109;" horiz-adv-x="991" 
d="M291 1133l319 315h197l192 -315h-182l-119 204l-202 -204h-205zM559 -31q-223 0 -357 129.5t-134 343.5q0 238 154 386.5t401 148.5q212 0 383 -123l-117 -162q-129 94 -279 94q-145 0 -237 -93.5t-92 -241.5q0 -130 78 -210.5t204 -80.5q112 0 236 65l82 -168
q-157 -88 -322 -88z" />
    <glyph glyph-name="Cdotaccent" unicode="&#x10a;" horiz-adv-x="1402" 
d="M1130 1735l-40 -213h-218l41 213h217zM799 -31q-308 0 -492 186t-184 496q0 166 58 313.5t163 258.5t263.5 176t348.5 65q291 0 500 -159l-133 -181q-55 37 -98 59.5t-120 44t-161 21.5q-138 0 -251.5 -48.5t-187 -131.5t-113.5 -190.5t-40 -227.5q0 -219 124 -343
t337 -124q104 0 186.5 29.5t167.5 85.5l115 -180q-220 -150 -483 -150z" />
    <glyph glyph-name="cdotaccent" unicode="&#x10b;" horiz-adv-x="991" 
d="M864 1413l-47 -246h-246l47 246h246zM559 -31q-223 0 -357 129.5t-134 343.5q0 238 154 386.5t401 148.5q212 0 383 -123l-117 -162q-129 94 -279 94q-145 0 -237 -93.5t-92 -241.5q0 -130 78 -210.5t204 -80.5q112 0 236 65l82 -168q-157 -88 -322 -88z" />
    <glyph glyph-name="Ccaron" unicode="&#x10c;" horiz-adv-x="1402" 
d="M893 1522l-188 245h174l120 -157l197 157h215l-317 -245h-201zM799 -31q-308 0 -492 186t-184 496q0 166 58 313.5t163 258.5t263.5 176t348.5 65q291 0 500 -159l-133 -181q-55 37 -98 59.5t-120 44t-161 21.5q-138 0 -251.5 -48.5t-187 -131.5t-113.5 -190.5
t-40 -227.5q0 -219 124 -343t337 -124q104 0 186.5 29.5t167.5 85.5l115 -180q-220 -150 -483 -150z" />
    <glyph glyph-name="ccaron" unicode="&#x10d;" horiz-adv-x="991" 
d="M578 1118l-193 316h182l119 -205l203 205h205l-320 -316h-196zM559 -31q-223 0 -357 129.5t-134 343.5q0 238 154 386.5t401 148.5q212 0 383 -123l-117 -162q-129 94 -279 94q-145 0 -237 -93.5t-92 -241.5q0 -130 78 -210.5t204 -80.5q112 0 236 65l82 -168
q-157 -88 -322 -88z" />
    <glyph glyph-name="Dcaron" unicode="&#x10e;" horiz-adv-x="1417" 
d="M680 1522l-188 245h174l120 -157l197 157h215l-317 -245h-201zM51 0l281 1434h430q283 0 457 -170.5t174 -460.5q0 -177 -63 -325.5t-179 -254t-287.5 -164.5t-380.5 -59h-432zM303 201h246q130 0 242.5 42.5t195 120t129.5 191.5t47 250q0 204 -115.5 316t-302.5 112
h-239z" />
    <glyph glyph-name="dcaron" unicode="&#x10f;" horiz-adv-x="1425" 
d="M1382 1464h215l-41 -215l-215 -219h-75l149 219h-74zM936 778l125 656h201l-277 -1434h-201l27 131h-6q-131 -162 -318 -162q-186 0 -303.5 129.5t-117.5 333.5q0 235 146.5 390t367.5 155q125 0 216 -52t134 -147h6zM557 160q146 0 241 97.5t95 246.5q0 129 -75.5 205.5
t-203.5 76.5q-145 0 -240 -100t-95 -252q0 -126 74.5 -200t203.5 -74z" />
    <glyph glyph-name="Dcroat" unicode="&#x110;" horiz-adv-x="1411" 
d="M756 1434q283 0 456.5 -170.5t173.5 -460.5q0 -177 -63 -325.5t-178.5 -254t-287 -164.5t-380.5 -59h-432l129 655h-139l39 172h133l119 607h430zM543 201q130 0 242.5 42.5t195 120t129.5 191.5t47 250q0 204 -115.5 316t-302.5 112h-239l-80 -406h309l-39 -172h-303
l-90 -454h246z" />
    <glyph glyph-name="dcroat" unicode="&#x111;" horiz-adv-x="1230" 
d="M1389 1280l-25 -123h-156l-223 -1157h-201l27 131h-6q-131 -162 -318 -162q-186 0 -303.5 129.5t-117.5 333.5q0 235 146.5 390t367.5 155q125 0 216 -52t134 -147h6l72 379h-295l24 123h295l29 154h201l-29 -154h156zM557 160q146 0 241 97.5t95 246.5
q0 129 -75.5 205.5t-203.5 76.5q-145 0 -240 -100t-95 -252q0 -126 74.5 -200t203.5 -74z" />
    <glyph glyph-name="Emacron" unicode="&#x112;" horiz-adv-x="1060" 
d="M1083 1706l-28 -147h-594l28 147h594zM1108 1233h-602l-68 -340h555l-37 -201h-557l-96 -491h612l-38 -201h-826l281 1434h815z" />
    <glyph glyph-name="emacron" unicode="&#x113;" horiz-adv-x="1105" 
d="M991 1356l-28 -148h-594l28 148h594zM1026 438h-768v-2q0 -274 268 -274q94 0 174.5 35.5t165.5 113.5l117 -149q-208 -191 -457 -191q-215 0 -339 120t-124 327q0 244 155.5 401.5t397.5 157.5q199 0 311.5 -106.5t112.5 -295.5q0 -49 -14 -137zM606 807
q-117 0 -201.5 -58t-121.5 -161h561v10q0 100 -62 154.5t-176 54.5z" />
    <glyph glyph-name="Ebreve" unicode="&#x114;" horiz-adv-x="1060" 
d="M770 1522q-109 0 -170 54.5t-61 152.5q0 24 2 38h125v-16q0 -100 122 -100q62 0 101 29.5t65 86.5h138q-32 -116 -117 -180.5t-205 -64.5zM1108 1233h-602l-68 -340h555l-37 -201h-557l-96 -491h612l-38 -201h-826l281 1434h815z" />
    <glyph glyph-name="ebreve" unicode="&#x115;" horiz-adv-x="1105" 
d="M692 1133q-106 0 -176 56t-70 154q0 27 11 84h118q-6 -24 -6 -49q0 -57 32.5 -89t92.5 -32q79 0 119 44t59 126h138q-25 -137 -106.5 -215.5t-211.5 -78.5zM1026 438h-768v-2q0 -274 268 -274q94 0 174.5 35.5t165.5 113.5l117 -149q-208 -191 -457 -191q-215 0 -339 120
t-124 327q0 244 155.5 401.5t397.5 157.5q199 0 311.5 -106.5t112.5 -295.5q0 -49 -14 -137zM606 807q-117 0 -201.5 -58t-121.5 -161h561v10q0 100 -62 154.5t-176 54.5z" />
    <glyph glyph-name="Edotaccent" unicode="&#x116;" horiz-adv-x="1060" 
d="M913 1735l-41 -213h-217l41 213h217zM1108 1233h-602l-68 -340h555l-37 -201h-557l-96 -491h612l-38 -201h-826l281 1434h815z" />
    <glyph glyph-name="edotaccent" unicode="&#x117;" horiz-adv-x="1105" 
d="M844 1413l-47 -246h-246l47 246h246zM1026 438h-768v-2q0 -274 268 -274q94 0 174.5 35.5t165.5 113.5l117 -149q-208 -191 -457 -191q-215 0 -339 120t-124 327q0 244 155.5 401.5t397.5 157.5q199 0 311.5 -106.5t112.5 -295.5q0 -49 -14 -137zM606 807
q-117 0 -201.5 -58t-121.5 -161h561v10q0 100 -62 154.5t-176 54.5z" />
    <glyph glyph-name="Eogonek" unicode="&#x118;" horiz-adv-x="1060" 
d="M1108 1233h-602l-68 -340h555l-37 -201h-557l-96 -491h612l-38 -201h-33q-162 -140 -162 -209q0 -39 51 -39q24 0 82 12v-126q-65 -21 -127 -21q-76 0 -122 32.5t-46 92.5q0 120 187 258h-656l281 1434h815z" />
    <glyph glyph-name="eogonek" unicode="&#x119;" horiz-adv-x="1105" 
d="M1026 438h-768v-2q0 -274 268 -274q94 0 174.5 35.5t165.5 113.5l117 -149q-103 -97 -215 -144q-91 -75 -137.5 -134t-46.5 -93q0 -39 51 -39q24 0 82 12v-126q-65 -21 -127 -21q-76 0 -122 32.5t-46 92.5q0 110 151 231q-16 -2 -47 -2q-215 0 -339 120t-124 327
q0 244 155.5 401.5t397.5 157.5q199 0 311.5 -106.5t112.5 -295.5q0 -49 -14 -137zM606 807q-117 0 -201.5 -58t-121.5 -161h561v10q0 100 -62 154.5t-176 54.5z" />
    <glyph glyph-name="Ecaron" unicode="&#x11a;" horiz-adv-x="1060" 
d="M877 1522h-201l-189 245h175l120 -157l197 157h215zM51 0l281 1434h815l-39 -201h-602l-68 -340h555l-37 -201h-557l-96 -491h612l-38 -201h-826z" />
    <glyph glyph-name="ecaron" unicode="&#x11b;" horiz-adv-x="1105" 
d="M754 1118h-197l-192 316h182l119 -205l202 205h205zM616 977q199 0 311.5 -106.5t112.5 -295.5q0 -49 -14 -137h-768v-2q0 -274 268 -274q94 0 174.5 35.5t165.5 113.5l117 -149q-208 -191 -457 -191q-215 0 -339 120t-124 327q0 244 155.5 401.5t397.5 157.5zM844 588
v10q0 100 -62 154.5t-176 54.5q-117 0 -201.5 -58t-121.5 -161h561z" />
    <glyph glyph-name="Gcircumflex" unicode="&#x11c;" horiz-adv-x="1646" 
d="M1047 1679l-199 -157h-205l309 245h209l189 -245h-185zM975 782h665l-12 -84q-17 -117 -52.5 -219.5t-98 -197.5t-147.5 -162t-207.5 -107.5t-270.5 -40.5q-330 0 -528.5 186t-198.5 507q0 170 59.5 318t165.5 253.5t258.5 166t331.5 60.5q189 0 345 -58t265 -159
l-166 -166q-181 168 -450 168q-116 0 -213 -33.5t-164 -90t-113.5 -132t-68 -159.5t-21.5 -173q0 -228 137.5 -350.5t370.5 -122.5q116 0 206 31t149 87.5t95.5 125t55.5 154.5h-444z" />
    <glyph glyph-name="gcircumflex" unicode="&#x11d;" horiz-adv-x="1200" 
d="M326 1133l319 315h197l192 -315h-182l-119 204l-203 -204h-204zM967 946h200l-182 -946q-44 -235 -153 -337.5t-316 -102.5q-223 0 -442 92l76 186q200 -86 370 -86q115 0 175.5 57t88.5 191l27 131h-6q-131 -162 -318 -162q-186 0 -303.5 129.5t-117.5 333.5
q0 235 146.5 390t367.5 155q125 0 216 -52t134 -147h6zM557 160q146 0 241 97.5t95 246.5q0 129 -75.5 205.5t-203.5 76.5q-145 0 -240 -100t-95 -252q0 -126 74.5 -200t203.5 -74z" />
    <glyph glyph-name="Gbreve" unicode="&#x11e;" horiz-adv-x="1646" 
d="M1008 1522q-109 0 -170.5 54.5t-61.5 152.5q0 24 2 38h125v-16q0 -100 123 -100q62 0 101 29.5t65 86.5h137q-32 -116 -116.5 -180.5t-204.5 -64.5zM975 782h665l-12 -84q-17 -117 -52.5 -219.5t-98 -197.5t-147.5 -162t-207.5 -107.5t-270.5 -40.5q-330 0 -528.5 186
t-198.5 507q0 170 59.5 318t165.5 253.5t258.5 166t331.5 60.5q189 0 345 -58t265 -159l-166 -166q-181 168 -450 168q-116 0 -213 -33.5t-164 -90t-113.5 -132t-68 -159.5t-21.5 -173q0 -228 137.5 -350.5t370.5 -122.5q116 0 206 31t149 87.5t95.5 125t55.5 154.5h-444z
" />
    <glyph glyph-name="gbreve" unicode="&#x11f;" horiz-adv-x="1200" 
d="M1065 1427q-25 -138 -106 -216t-211 -78q-106 0 -176 56t-70 154q0 32 10 84h119q-6 -24 -6 -49q0 -57 32.5 -89t92.5 -32q79 0 119 44t59 126h137zM967 946h200l-182 -946q-44 -235 -153 -337.5t-316 -102.5q-223 0 -442 92l76 186q200 -86 370 -86q115 0 175.5 57
t88.5 191l27 131h-6q-131 -162 -318 -162q-186 0 -303.5 129.5t-117.5 333.5q0 235 146.5 390t367.5 155q125 0 216 -52t134 -147h6zM557 160q146 0 241 97.5t95 246.5q0 129 -75.5 205.5t-203.5 76.5q-145 0 -240 -100t-95 -252q0 -126 74.5 -200t203.5 -74z" />
    <glyph glyph-name="Gdotaccent" unicode="&#x120;" horiz-adv-x="1646" 
d="M1151 1735l-41 -213h-217l41 213h217zM975 782h665l-12 -84q-17 -117 -52.5 -219.5t-98 -197.5t-147.5 -162t-207.5 -107.5t-270.5 -40.5q-330 0 -528.5 186t-198.5 507q0 170 59.5 318t165.5 253.5t258.5 166t331.5 60.5q189 0 345 -58t265 -159l-166 -166
q-181 168 -450 168q-116 0 -213 -33.5t-164 -90t-113.5 -132t-68 -159.5t-21.5 -173q0 -228 137.5 -350.5t370.5 -122.5q116 0 206 31t149 87.5t95.5 125t55.5 154.5h-444z" />
    <glyph glyph-name="gdotaccent" unicode="&#x121;" horiz-adv-x="1200" 
d="M899 1413l-47 -246h-246l47 246h246zM967 946h200l-182 -946q-44 -235 -153 -337.5t-316 -102.5q-223 0 -442 92l76 186q200 -86 370 -86q115 0 175.5 57t88.5 191l27 131h-6q-131 -162 -318 -162q-186 0 -303.5 129.5t-117.5 333.5q0 235 146.5 390t367.5 155
q125 0 216 -52t134 -147h6zM557 160q146 0 241 97.5t95 246.5q0 129 -75.5 205.5t-203.5 76.5q-145 0 -240 -100t-95 -252q0 -126 74.5 -200t203.5 -74z" />
    <glyph glyph-name="Gcommaaccent" unicode="&#x122;" horiz-adv-x="1646" 
d="M975 782h665l-12 -84q-17 -117 -52.5 -219.5t-98 -197.5t-147.5 -162t-207.5 -107.5t-270.5 -40.5q-330 0 -528.5 186t-198.5 507q0 170 59.5 318t165.5 253.5t258.5 166t331.5 60.5q189 0 345 -58t265 -159l-166 -166q-181 168 -450 168q-116 0 -213 -33.5t-164 -90
t-113.5 -132t-68 -159.5t-21.5 -173q0 -228 137.5 -350.5t370.5 -122.5q116 0 206 31t149 87.5t95.5 125t55.5 154.5h-444zM680 -279l37 183h203l-37 -183l-160 -151h-74l117 151h-86z" />
    <glyph glyph-name="gcommaaccent" unicode="&#x123;" horiz-adv-x="1200" 
d="M852 1288l-37 -182h-203l37 182l160 152h74l-117 -152h86zM967 946h200l-182 -946q-44 -235 -153 -337.5t-316 -102.5q-223 0 -442 92l76 186q200 -86 370 -86q115 0 175.5 57t88.5 191l27 131h-6q-131 -162 -318 -162q-186 0 -303.5 129.5t-117.5 333.5q0 235 146.5 390
t367.5 155q125 0 216 -52t134 -147h6zM557 160q146 0 241 97.5t95 246.5q0 129 -75.5 205.5t-203.5 76.5q-145 0 -240 -100t-95 -252q0 -126 74.5 -200t203.5 -74z" />
    <glyph glyph-name="Hcircumflex" unicode="&#x124;" horiz-adv-x="1466" 
d="M981 1679l-199 -157h-204l309 245h209l188 -245h-184zM1296 1434h213l-278 -1434h-213l127 651h-754l-127 -651h-213l279 1434h213l-113 -578h754z" />
    <glyph glyph-name="hcircumflex" unicode="&#x125;" horiz-adv-x="1116" 
d="M78 1522l309 245h209l188 -245h-184l-119 157l-198 -157h-205zM41 0l278 1434h201l-123 -633h4q124 176 324 176q138 0 219.5 -78t81.5 -235q0 -69 -14 -138l-101 -526h-200l104 541q6 35 6 61q0 83 -45 132.5t-133 49.5q-111 0 -195.5 -78t-117.5 -253l-88 -453h-201z
" />
    <glyph glyph-name="Hbar" unicode="&#x126;" horiz-adv-x="1468" 
d="M1604 1169l-25 -131h-137l-203 -1038h-213l127 651h-754l-127 -651h-213l203 1038h-151l24 131h152l51 265h213l-51 -265h753l52 265h213l-52 -265h138zM1192 856l37 182h-754l-37 -182h754z" />
    <glyph glyph-name="hbar" unicode="&#x127;" horiz-adv-x="1118" 
d="M727 977q138 0 219.5 -78t81.5 -235q0 -69 -14 -138l-101 -526h-200l104 541q6 35 6 61q0 83 -45 132.5t-133 49.5q-111 0 -195.5 -78t-117.5 -253l-88 -453h-201l225 1157h-135l25 123h133l31 154h200l-30 -154h317l-25 -123h-315l-70 -356h4q124 176 324 176z" />
    <glyph glyph-name="Itilde" unicode="&#x128;" horiz-adv-x="505" 
d="M633 1522q-53 0 -109.5 22t-106 44t-85.5 22q-67 0 -127 -84l-78 22q85 219 244 219q53 0 109.5 -22t106 -44t85.5 -22q67 0 127 84l78 -22q-85 -219 -244 -219zM51 0l281 1434h217l-281 -1434h-217z" />
    <glyph glyph-name="itilde" unicode="&#x129;" horiz-adv-x="466" 
d="M297 1442q41 0 85.5 -26t82 -52.5t61.5 -26.5t43.5 23t42.5 70l78 -23q-35 -102 -88 -164.5t-121 -62.5q-41 0 -85.5 26t-82 52t-61.5 26q-25 0 -45.5 -23t-42.5 -69l-78 22q35 102 89 165t122 63zM41 0l184 946h201l-184 -946h-201z" />
    <glyph glyph-name="Imacron" unicode="&#x12a;" horiz-adv-x="505" 
d="M778 1706l-28 -147h-594l28 147h594zM51 0l281 1434h217l-281 -1434h-217z" />
    <glyph glyph-name="imacron" unicode="&#x12b;" horiz-adv-x="466" 
d="M621 1356l-29 -148h-430l28 148h431zM41 0l184 946h201l-184 -946h-201z" />
    <glyph glyph-name="Ibreve" unicode="&#x12c;" horiz-adv-x="505" 
d="M465 1522q-109 0 -170.5 54.5t-61.5 152.5q0 17 3 38h124v-16q0 -100 123 -100q62 0 101 29.5t65 86.5h137q-32 -116 -116.5 -180.5t-204.5 -64.5zM51 0l281 1434h217l-281 -1434h-217z" />
    <glyph glyph-name="ibreve" unicode="&#x12d;" horiz-adv-x="466" 
d="M653 1427q-24 -145 -89 -219.5t-181 -74.5q-98 0 -148.5 52.5t-50.5 149.5q0 31 11 92h118q-6 -41 -6 -71q0 -99 78 -99q63 0 90 42t41 128h137zM41 0l184 946h201l-184 -946h-201z" />
    <glyph glyph-name="Iogonek" unicode="&#x12e;" horiz-adv-x="505" 
d="M182 0q-162 -140 -162 -209q0 -18 14 -28.5t38 -10.5t82 12v-126q-64 -21 -127 -21q-76 0 -122 32.5t-46 92.5q0 122 192 262l281 1430h217l-281 -1434h-86z" />
    <glyph glyph-name="iogonek" unicode="&#x12f;" horiz-adv-x="466" 
d="M289 1413h246l-48 -246h-245zM45 23l180 923h201l-184 -946h-92q-162 -140 -162 -209q0 -39 51 -39q24 0 82 12v-126q-64 -21 -127 -21q-76 0 -122 32.5t-46 92.5q0 132 219 281z" />
    <glyph glyph-name="Idotaccent" unicode="&#x130;" horiz-adv-x="505" 
d="M608 1735l-41 -213h-217l41 213h217zM51 0l281 1434h217l-281 -1434h-217z" />
    <glyph glyph-name="dotlessi" unicode="&#x131;" horiz-adv-x="466" 
d="M41 0l184 946h201l-184 -946h-201z" />
    <glyph glyph-name="IJ" unicode="&#x132;" horiz-adv-x="1089" 
d="M51 0l281 1434h217l-281 -1434h-217zM446 -10l37 207h54q70 0 109.5 30.5t58.5 114.5l213 1092h212l-221 -1147q-31 -159 -119.5 -228t-240.5 -69h-103z" />
    <glyph glyph-name="ij" unicode="&#x133;" horiz-adv-x="923" 
d="M535 1413l-48 -246h-245l47 246h246zM1001 1413l-47 -246h-245l47 246h245zM41 0l184 946h201l-184 -946h-201zM289 -233h65q61 0 90.5 27.5t40.5 86.5l207 1065h201l-211 -1085q-29 -148 -114 -212.5t-218 -64.5h-96z" />
    <glyph glyph-name="Jcircumflex" unicode="&#x134;" horiz-adv-x="583" 
d="M178 1522l309 245h209l189 -245h-185l-118 157l-199 -157h-205zM-59 -10l36 207h54q70 0 109.5 30.5t58.5 114.5l213 1092h213l-222 -1147q-31 -159 -119.5 -228t-240.5 -69h-102z" />
    <glyph glyph-name="jcircumflex" unicode="&#x135;" horiz-adv-x="456" 
d="M86 1133l225 315h197l98 -315h-162l-43 215l-131 -215h-184zM-178 -233h65q61 0 90.5 27.5t40.5 86.5l207 1065h201l-211 -1085q-29 -148 -114 -212.5t-218 -64.5h-96z" />
    <glyph glyph-name="Kcommaaccent" unicode="&#x136;" horiz-adv-x="1300" 
d="M1407 1434l-770 -691l561 -743h-276l-519 721l-139 -721h-213l279 1434h213l-125 -641l682 641h307zM444 -279l37 183h203l-37 -183l-160 -151h-73l116 151h-86z" />
    <glyph glyph-name="kcommaaccent" unicode="&#x137;" horiz-adv-x="991" 
d="M1008 946l-467 -452l348 -494h-246l-311 461l-90 -461h-201l278 1434h201l-172 -887l391 399h269zM279 -279l36 183h203l-37 -183l-159 -151h-74l117 151h-86z" />
    <glyph glyph-name="kgreenlandic" unicode="&#x138;" horiz-adv-x="983" 
d="M999 946l-467 -452l349 -494h-246l-313 461l-89 -461h-200l182 946h201l-78 -399l393 399h268z" />
    <glyph glyph-name="Lacute" unicode="&#x139;" horiz-adv-x="987" 
d="M367 1522l241 245h258l-348 -245h-151zM51 0l281 1434h213l-240 -1231h619l-39 -203h-834z" />
    <glyph glyph-name="lacute" unicode="&#x13a;" horiz-adv-x="466" 
d="M346 1522l242 245h258l-348 -245h-152zM41 0l278 1434h201l-278 -1434h-201z" />
    <glyph glyph-name="Lcommaaccent" unicode="&#x13b;" horiz-adv-x="987" 
d="M305 203h619l-39 -203h-834l281 1434h213zM305 -279l37 183h203l-37 -183l-160 -151h-74l117 151h-86z" />
    <glyph glyph-name="lcommaaccent" unicode="&#x13c;" horiz-adv-x="466" 
d="M319 1434h201l-278 -1434h-201zM-23 -279l37 183h203l-37 -183l-160 -151h-73l116 151h-86z" />
    <glyph glyph-name="Lcaron" unicode="&#x13d;" horiz-adv-x="987" 
d="M819 1464h215l-41 -215l-235 -301h-76l172 301h-76zM545 1434l-240 -1231h619l-39 -203h-834l281 1434h213z" />
    <glyph glyph-name="lcaron" unicode="&#x13e;" horiz-adv-x="679" 
d="M637 1464h215l-41 -215l-215 -219h-76l150 219h-74zM319 1434h201l-278 -1434h-201z" />
    <glyph glyph-name="Ldot" unicode="&#x13f;" horiz-adv-x="987" 
d="M51 0l281 1434h213l-240 -1231h619l-39 -203h-834zM635 702l47 244h244l-47 -244h-244z" />
    <glyph glyph-name="ldot" unicode="&#x140;" horiz-adv-x="679" 
d="M41 0l278 1434h201l-278 -1434h-201zM471 700l47 244h244l-47 -244h-244z" />
    <glyph glyph-name="Lslash" unicode="&#x141;" horiz-adv-x="987" 
d="M305 203h619l-39 -203h-834l117 600l-156 -59l31 157l156 60l133 676h213l-115 -588l397 151l-30 -157l-398 -152z" />
    <glyph glyph-name="lslash" unicode="&#x142;" horiz-adv-x="569" 
d="M651 999l-30 -157l-181 -86l-147 -756h-201l127 649l-180 -86l31 158l180 86l121 627h200l-100 -521z" />
    <glyph glyph-name="Nacute" unicode="&#x143;" horiz-adv-x="1417" 
d="M825 1522l242 245h258l-348 -245h-152zM51 0l279 1434h219l485 -1088h4l209 1088h213l-278 -1434h-221l-484 1090h-2l-211 -1090h-213z" />
    <glyph glyph-name="nacute" unicode="&#x144;" horiz-adv-x="1105" 
d="M633 1133l268 315h275l-377 -315h-166zM31 0l184 946h201l-29 -143h4q65 89 146 131.5t188 42.5q138 0 215.5 -80.5t77.5 -224.5q0 -71 -14 -148l-103 -524h-201l97 500q10 52 10 108q0 178 -186 178q-123 0 -195.5 -80t-106.5 -253l-88 -453h-200z" />
    <glyph glyph-name="Ncommaaccent" unicode="&#x145;" horiz-adv-x="1417" 
d="M1247 1434h213l-278 -1434h-221l-484 1090h-2l-211 -1090h-213l279 1434h219l485 -1088h4zM449 -279l36 183h203l-37 -183l-159 -151h-74l117 151h-86z" />
    <glyph glyph-name="ncommaaccent" unicode="&#x146;" horiz-adv-x="1105" 
d="M725 977q138 0 215.5 -80.5t77.5 -224.5q0 -71 -14 -148l-103 -524h-201l97 500q10 52 10 108q0 178 -186 178q-123 0 -195.5 -80t-106.5 -253l-88 -453h-200l184 946h201l-29 -143h4q65 89 146 131.5t188 42.5zM303 -279l37 183h203l-37 -183l-160 -151h-74l117 151h-86
z" />
    <glyph glyph-name="Ncaron" unicode="&#x147;" horiz-adv-x="1417" 
d="M829 1522l-188 245h174l121 -157l197 157h215l-318 -245h-201zM51 0l279 1434h219l485 -1088h4l209 1088h213l-278 -1434h-221l-484 1090h-2l-211 -1090h-213z" />
    <glyph glyph-name="ncaron" unicode="&#x148;" horiz-adv-x="1105" 
d="M588 1118l-193 316h183l118 -205l203 205h205l-320 -316h-196zM31 0l184 946h201l-29 -143h4q65 89 146 131.5t188 42.5q138 0 215.5 -80.5t77.5 -224.5q0 -71 -14 -148l-103 -524h-201l97 500q10 52 10 108q0 178 -186 178q-123 0 -195.5 -80t-106.5 -253l-88 -453h-200
z" />
    <glyph glyph-name="napostrophe" unicode="&#x149;" horiz-adv-x="1105" 
d="M104 948h-75l172 301h-76l41 215h215l-41 -215zM725 977q138 0 215.5 -80.5t77.5 -224.5q0 -71 -14 -148l-103 -524h-201l97 500q10 52 10 108q0 178 -186 178q-123 0 -195.5 -80t-106.5 -253l-88 -453h-200l184 946h201l-29 -143h4q65 89 146 131.5t188 42.5z" />
    <glyph glyph-name="Eng" unicode="&#x14a;" horiz-adv-x="1415" 
d="M1247 1434h211l-278 -1434l-23 -111q-31 -152 -111.5 -226t-220.5 -73l-145 2l39 203h102q54 0 81.5 22t39.5 81l21 102l-486 1090h-2l-213 -1090h-211l281 1434h217l485 -1088h4z" />
    <glyph glyph-name="eng" unicode="&#x14b;" horiz-adv-x="1105" 
d="M725 977q138 0 215.5 -80.5t77.5 -224.5q0 -71 -14 -148l-103 -524l-27 -139q-52 -277 -331 -277h-99l35 183h68q61 0 90.5 27.5t40.5 86.5l22 119l97 500q10 52 10 108q0 178 -186 178q-123 0 -195.5 -80t-106.5 -253l-88 -453h-200l184 946h201l-29 -143h4
q65 89 146 131.5t188 42.5z" />
    <glyph glyph-name="Omacron" unicode="&#x14c;" horiz-adv-x="1693" 
d="M1300 1706l-28 -147h-594l29 147h593zM838 -31q-208 0 -370 82.5t-253.5 237.5t-91.5 360q0 168 60 317.5t166 259.5t262 174t339 64q208 0 370 -82.5t253.5 -237.5t91.5 -360q0 -168 -60 -317.5t-166 -259.5t-262 -174t-339 -64zM846 182q138 0 251.5 49t186.5 133.5
t112.5 195.5t39.5 237q0 138 -67 243t-178.5 158t-248.5 53q-138 0 -251.5 -49t-186.5 -133t-112.5 -195t-39.5 -237q0 -139 67 -243.5t178.5 -158t248.5 -53.5z" />
    <glyph glyph-name="omacron" unicode="&#x14d;" horiz-adv-x="1159" 
d="M1010 1356l-29 -148h-594l29 148h594zM530 -31q-215 0 -342 121.5t-127 325.5q0 120 43 224t118.5 178t180.5 116.5t226 42.5q215 0 342 -121.5t127 -325.5q0 -120 -43 -224t-118.5 -178t-180.5 -116.5t-226 -42.5zM549 166q148 0 242 99t94 253q0 123 -73 192.5
t-202 69.5q-148 0 -242 -99t-94 -253q0 -123 73 -192.5t202 -69.5z" />
    <glyph glyph-name="Obreve" unicode="&#x14e;" horiz-adv-x="1693" 
d="M987 1522q-109 0 -170 54.5t-61 152.5q0 24 2 38h125v-16q0 -100 123 -100q61 0 100 29.5t65 86.5h138q-32 -116 -117 -180.5t-205 -64.5zM838 -31q-208 0 -370 82.5t-253.5 237.5t-91.5 360q0 168 60 317.5t166 259.5t262 174t339 64q208 0 370 -82.5t253.5 -237.5
t91.5 -360q0 -168 -60 -317.5t-166 -259.5t-262 -174t-339 -64zM846 182q138 0 251.5 49t186.5 133.5t112.5 195.5t39.5 237q0 138 -67 243t-178.5 158t-248.5 53q-138 0 -251.5 -49t-186.5 -133t-112.5 -195t-39.5 -237q0 -139 67 -243.5t178.5 -158t248.5 -53.5z" />
    <glyph glyph-name="obreve" unicode="&#x14f;" horiz-adv-x="1159" 
d="M1028 1427q-25 -138 -106 -216t-211 -78q-106 0 -176 56t-70 154q0 32 10 84h119q-6 -24 -6 -49q0 -57 32.5 -89t92.5 -32q79 0 119 44t59 126h137zM530 -31q-215 0 -342 121.5t-127 325.5q0 120 43 224t118.5 178t180.5 116.5t226 42.5q215 0 342 -121.5t127 -325.5
q0 -120 -43 -224t-118.5 -178t-180.5 -116.5t-226 -42.5zM549 166q148 0 242 99t94 253q0 123 -73 192.5t-202 69.5q-148 0 -242 -99t-94 -253q0 -123 73 -192.5t202 -69.5z" />
    <glyph glyph-name="Ohungarumlaut" unicode="&#x150;" horiz-adv-x="1693" 
d="M1188 1767l-318 -245h-141l281 245h178zM1436 1767l-318 -245h-141l280 245h179zM838 -31q-208 0 -370 82.5t-253.5 237.5t-91.5 360q0 168 60 317.5t166 259.5t262 174t339 64q208 0 370 -82.5t253.5 -237.5t91.5 -360q0 -168 -60 -317.5t-166 -259.5t-262 -174
t-339 -64zM846 182q138 0 251.5 49t186.5 133.5t112.5 195.5t39.5 237q0 138 -67 243t-178.5 158t-248.5 53q-138 0 -251.5 -49t-186.5 -133t-112.5 -195t-39.5 -237q0 -139 67 -243.5t178.5 -158t248.5 -53.5z" />
    <glyph glyph-name="ohungarumlaut" unicode="&#x151;" horiz-adv-x="1159" 
d="M866 1448l-313 -315h-143l274 315h182zM1128 1448l-313 -315h-143l274 315h182zM530 -31q-215 0 -342 121.5t-127 325.5q0 120 43 224t118.5 178t180.5 116.5t226 42.5q215 0 342 -121.5t127 -325.5q0 -120 -43 -224t-118.5 -178t-180.5 -116.5t-226 -42.5zM549 166
q148 0 242 99t94 253q0 123 -73 192.5t-202 69.5q-148 0 -242 -99t-94 -253q0 -123 73 -192.5t202 -69.5z" />
    <glyph glyph-name="OE" unicode="&#x152;" horiz-adv-x="2304" 
d="M2351 1233h-602l-68 -340h555l-36 -201h-558l-96 -491h613l-39 -201h-826l21 109q-208 -140 -484 -140q-316 0 -512 185.5t-196 494.5q0 168 61 317.5t168.5 259.5t264 174t339.5 64q185 0 333.5 -66t242.5 -188l43 224h815zM840 182q138 0 252 49t188.5 133.5t115 195.5
t40.5 237q0 208 -139 331t-349 123q-138 0 -252 -49t-188.5 -133t-115 -195t-40.5 -237q0 -208 139 -331.5t349 -123.5z" />
    <glyph glyph-name="oe" unicode="&#x153;" horiz-adv-x="1933" 
d="M1853 438h-761l-7 -28q12 -248 269 -248q94 0 174.5 35.5t165.5 113.5l116 -149q-208 -191 -456 -191q-272 0 -393 185q-76 -89 -188 -138t-243 -49q-215 0 -342 121.5t-127 325.5q0 120 43 224t118.5 178t180.5 116.5t226 42.5q132 0 233 -47.5t162 -134.5
q74 87 182.5 134.5t237.5 47.5q199 0 311.5 -106.5t112.5 -295.5q0 -43 -15 -137zM1434 807q-117 0 -202 -58.5t-122 -160.5h561v10q0 100 -61.5 154.5t-175.5 54.5zM549 166q148 0 242 99t94 253q0 123 -73 192.5t-202 69.5q-148 0 -242 -99t-94 -253q0 -123 73 -192.5
t202 -69.5z" />
    <glyph glyph-name="Racute" unicode="&#x154;" horiz-adv-x="1202" 
d="M1143 1767l-348 -245h-152l242 245h258zM1188 1057q0 -176 -115 -300t-313 -151l340 -606h-252l-313 598h-154l-117 -598h-213l281 1434h442q199 0 306.5 -101t107.5 -276zM504 1233l-86 -438h237q136 0 219.5 64.5t83.5 178.5q0 93 -59 144t-178 51h-217z" />
    <glyph glyph-name="racute" unicode="&#x155;" horiz-adv-x="686" 
d="M463 1133l268 315h275l-377 -315h-166zM31 0l184 946h201l-41 -201h4q57 119 141 174.5t205 55.5h29l-47 -236h-45q-147 0 -231.5 -76t-117.5 -243l-82 -420h-200z" />
    <glyph glyph-name="Rcommaaccent" unicode="&#x156;" horiz-adv-x="1202" 
d="M1188 1057q0 -176 -115 -300t-313 -151l340 -606h-252l-313 598h-154l-117 -598h-213l281 1434h442q199 0 306.5 -101t107.5 -276zM504 1233l-86 -438h237q136 0 219.5 64.5t83.5 178.5q0 93 -59 144t-178 51h-217zM442 -279l37 183h203l-37 -183l-160 -151h-73l116 151
h-86z" />
    <glyph glyph-name="rcommaaccent" unicode="&#x157;" horiz-adv-x="686" 
d="M725 975h29l-47 -236h-45q-147 0 -231.5 -76t-117.5 -243l-82 -420h-200l184 946h201l-41 -201h4q57 119 141 174.5t205 55.5zM-33 -279l37 183h203l-37 -183l-160 -151h-73l116 151h-86z" />
    <glyph glyph-name="Rcaron" unicode="&#x158;" horiz-adv-x="1202" 
d="M848 1522h-201l-188 245h174l121 -157l196 157h215zM1188 1057q0 -176 -115 -300t-313 -151l340 -606h-252l-313 598h-154l-117 -598h-213l281 1434h442q199 0 306.5 -101t107.5 -276zM504 1233l-86 -438h237q136 0 219.5 64.5t83.5 178.5q0 93 -59 144t-178 51h-217z
" />
    <glyph glyph-name="rcaron" unicode="&#x159;" horiz-adv-x="686" 
d="M418 1118l-193 316h183l118 -205l203 205h205l-320 -316h-196zM31 0l184 946h201l-41 -201h4q57 119 141 174.5t205 55.5h29l-47 -236h-45q-147 0 -231.5 -76t-117.5 -243l-82 -420h-200z" />
    <glyph glyph-name="Sacute" unicode="&#x15a;" horiz-adv-x="1040" 
d="M537 1522l241 245h258l-348 -245h-151zM485 -31q-149 0 -284 55t-230 142l131 182q88 -75 188.5 -118.5t198.5 -43.5q104 0 162 50t58 135q0 98 -119 200l-225 201q-156 139 -156 328q0 159 109.5 261.5t304.5 102.5q202 0 409 -135l-121 -190q-166 110 -297 110
q-91 0 -133.5 -44t-42.5 -103q0 -82 109 -176l209 -185q102 -90 143 -177.5t41 -186.5q0 -194 -126 -301t-329 -107z" />
    <glyph glyph-name="sacute" unicode="&#x15b;" horiz-adv-x="806" 
d="M487 1133l269 315h274l-377 -315h-166zM76 279q152 -127 295 -127q62 0 97.5 24.5t35.5 67.5q0 56 -80 112l-133 90q-156 108 -156 265q0 122 84.5 194t226.5 72q173 0 338 -109l-98 -159q-133 86 -229 86q-54 0 -83.5 -23.5t-29.5 -66.5q0 -31 22 -59.5t74 -61.5
l117 -78q83 -55 120.5 -117.5t37.5 -144.5q0 -130 -88 -202.5t-246 -72.5q-118 0 -228 41t-190 115z" />
    <glyph glyph-name="Scircumflex" unicode="&#x15c;" horiz-adv-x="1040" 
d="M270 1522l310 245h208l189 -245h-184l-119 157l-199 -157h-205zM485 -31q-149 0 -284 55t-230 142l131 182q88 -75 188.5 -118.5t198.5 -43.5q104 0 162 50t58 135q0 98 -119 200l-225 201q-156 139 -156 328q0 159 109.5 261.5t304.5 102.5q202 0 409 -135l-121 -190
q-166 110 -297 110q-91 0 -133.5 -44t-42.5 -103q0 -82 109 -176l209 -185q102 -90 143 -177.5t41 -186.5q0 -194 -126 -301t-329 -107z" />
    <glyph glyph-name="scircumflex" unicode="&#x15d;" horiz-adv-x="806" 
d="M156 1133l319 315h197l192 -315h-182l-119 204l-203 -204h-204zM76 279q152 -127 295 -127q62 0 97.5 24.5t35.5 67.5q0 56 -80 112l-133 90q-156 108 -156 265q0 122 84.5 194t226.5 72q173 0 338 -109l-98 -159q-133 86 -229 86q-54 0 -83.5 -23.5t-29.5 -66.5
q0 -31 22 -59.5t74 -61.5l117 -78q83 -55 120.5 -117.5t37.5 -144.5q0 -130 -88 -202.5t-246 -72.5q-118 0 -228 41t-190 115z" />
    <glyph glyph-name="Scedilla" unicode="&#x15e;" horiz-adv-x="1040" 
d="M756 741q102 -90 143 -177.5t41 -186.5q0 -193 -125 -299.5t-326 -108.5l-26 -41q66 -25 102.5 -56t36.5 -85q0 -30 -17.5 -58t-40 -47.5t-64.5 -42t-69 -34.5t-75 -32q-12 -5 -17 -7l-30 61q41 21 60 31t45.5 27t37 32t10.5 31q0 46 -116 78l88 147q-129 11 -244.5 64
t-198.5 129l131 182q88 -75 188.5 -118.5t198.5 -43.5q104 0 162 50t58 135q0 98 -119 200l-225 201q-156 139 -156 328q0 159 109.5 261.5t304.5 102.5q202 0 409 -135l-121 -190q-166 110 -297 110q-91 0 -133.5 -44t-42.5 -103q0 -82 109 -176z" />
    <glyph glyph-name="scedilla" unicode="&#x15f;" horiz-adv-x="806" 
d="M557 506q83 -55 120.5 -117.5t37.5 -144.5q0 -130 -88 -202.5t-246 -72.5h-8l-27 -41q66 -25 102.5 -56t36.5 -85q0 -30 -17 -58t-41.5 -48.5t-63 -41.5t-70 -35t-75.5 -32q-3 -1 -5 -2t-5 -2t-5 -2l-31 61q29 15 40.5 20.5t35 18.5t33.5 20.5t22.5 18.5t17.5 21.5
t5 21.5q0 46 -117 78l90 149q-198 21 -336 150l113 154q152 -127 295 -127q62 0 97.5 24.5t35.5 67.5q0 56 -80 112l-133 90q-156 108 -156 265q0 122 84.5 194t226.5 72q173 0 338 -109l-98 -159q-133 86 -229 86q-54 0 -83.5 -23.5t-29.5 -66.5q0 -31 22 -59.5t74 -61.5z
" />
    <glyph glyph-name="Scaron" unicode="&#x160;" horiz-adv-x="1040" 
d="M541 1522l-189 245h174l121 -157l197 157h215l-318 -245h-200zM485 -31q-149 0 -284 55t-230 142l131 182q88 -75 188.5 -118.5t198.5 -43.5q104 0 162 50t58 135q0 98 -119 200l-225 201q-156 139 -156 328q0 159 109.5 261.5t304.5 102.5q202 0 409 -135l-121 -190
q-166 110 -297 110q-91 0 -133.5 -44t-42.5 -103q0 -82 109 -176l209 -185q102 -90 143 -177.5t41 -186.5q0 -194 -126 -301t-329 -107z" />
    <glyph glyph-name="scaron" unicode="&#x161;" horiz-adv-x="806" 
d="M442 1118l-192 316h182l119 -205l203 205h204l-319 -316h-197zM76 279q152 -127 295 -127q62 0 97.5 24.5t35.5 67.5q0 56 -80 112l-133 90q-156 108 -156 265q0 122 84.5 194t226.5 72q173 0 338 -109l-98 -159q-133 86 -229 86q-54 0 -83.5 -23.5t-29.5 -66.5
q0 -31 22 -59.5t74 -61.5l117 -78q83 -55 120.5 -117.5t37.5 -144.5q0 -130 -88 -202.5t-246 -72.5q-118 0 -228 41t-190 115z" />
    <glyph glyph-name="uni0162" unicode="&#x162;" horiz-adv-x="1060" 
d="M545 0h-60l-45 -72q66 -25 103 -56t37 -85q0 -30 -17.5 -58t-40 -47.5t-64.5 -42t-69 -34.5t-75 -32q-12 -5 -17 -7l-31 61q29 15 40.5 20.5t35 18.5t33.5 20.5t22.5 18.5t17.5 21.5t5 21.5q0 46 -117 78l105 174h-76l239 1233h-403l39 201h1020l-39 -201h-404z" />
    <glyph glyph-name="uni0163" unicode="&#x163;" horiz-adv-x="653" 
d="M459 776l-97 -495q-4 -24 -4 -31q0 -68 84 -68h50l-37 -184h-74l-45 -70q66 -25 102.5 -56t36.5 -85q0 -30 -17 -58t-41.5 -48.5t-63 -41.5t-70 -35t-75.5 -32q-3 -1 -5 -2t-5 -2t-5 -2l-31 61q41 21 60 31t45.5 27t37 32t10.5 31q0 46 -116 78l108 178
q-74 15 -114.5 64.5t-40.5 132.5q0 39 8 78l98 497h-168l33 170h168l74 379h200l-73 -379h213l-33 -170h-213z" />
    <glyph glyph-name="Tcaron" unicode="&#x164;" horiz-adv-x="1060" 
d="M848 1522h-201l-188 245h174l121 -157l196 157h215zM1227 1434l-39 -201h-404l-239 -1233h-213l239 1233h-403l39 201h1020z" />
    <glyph glyph-name="tcaron" unicode="&#x165;" horiz-adv-x="819" 
d="M745 1464h216l-41 -215l-215 -219h-76l149 219h-73zM565 1325l-73 -379h213l-33 -170h-213l-97 -495q-4 -24 -4 -31q0 -68 84 -68h50l-37 -184h-74q-108 0 -168.5 51t-60.5 152q0 39 8 78l98 497h-168l33 170h168l74 379h200z" />
    <glyph glyph-name="Tbar" unicode="&#x166;" horiz-adv-x="1060" 
d="M1188 1233h-404l-57 -287h279l-25 -131h-279l-157 -815h-213l157 815h-278l25 131h278l57 287h-403l39 201h1020z" />
    <glyph glyph-name="tbar" unicode="&#x167;" horiz-adv-x="669" 
d="M688 776h-213l-24 -123h182l-33 -145h-176l-45 -227q-4 -24 -4 -31q0 -68 84 -68h49l-37 -184h-74q-108 0 -168.5 51t-60.5 152q0 39 8 78l45 229h-184l35 145h178l24 123h-168l33 170h168l74 379h201l-74 -379h213z" />
    <glyph glyph-name="Utilde" unicode="&#x168;" horiz-adv-x="1396" 
d="M1067 1522q-53 0 -109.5 22t-106 44t-85.5 22q-67 0 -127 -84l-78 22q85 219 244 219q53 0 109.5 -22t106 -44t85.5 -22q67 0 127 84l78 -22q-85 -219 -244 -219zM1460 1434l-172 -881q-55 -284 -224 -434t-433 -150q-239 0 -370.5 120.5t-131.5 338.5q0 82 18 170
l164 836h221l-170 -875q-10 -44 -10 -94q0 -130 80 -202.5t223 -72.5q163 0 270 95.5t142 273.5l172 875h221z" />
    <glyph glyph-name="utilde" unicode="&#x169;" horiz-adv-x="1071" 
d="M791 1180q-54 0 -111 26t-106 52t-85 26q-67 0 -127 -92l-79 22q87 228 245 228q42 0 87 -16.5t77 -36t69.5 -36t67.5 -16.5q35 0 64.5 22.5t60.5 70.5l78 -23q-18 -48 -38 -85t-49 -71t-68 -52.5t-86 -18.5zM369 -31q-139 0 -217 77.5t-78 215.5q0 55 16 146l107 538
h204l-102 -518q-10 -62 -10 -98q0 -82 45 -124t131 -42q114 0 183.5 80.5t101.5 249.5l88 452h200l-182 -946h-201l27 143h-4q-116 -174 -309 -174z" />
    <glyph glyph-name="Umacron" unicode="&#x16a;" horiz-adv-x="1396" 
d="M1212 1706l-28 -147h-594l28 147h594zM1460 1434l-172 -881q-55 -284 -224 -434t-433 -150q-239 0 -370.5 120.5t-131.5 338.5q0 82 18 170l164 836h221l-170 -875q-10 -44 -10 -94q0 -130 80 -202.5t223 -72.5q163 0 270 95.5t142 273.5l172 875h221z" />
    <glyph glyph-name="umacron" unicode="&#x16b;" horiz-adv-x="1071" 
d="M961 1356l-29 -148h-594l29 148h594zM369 -31q-139 0 -217 77.5t-78 215.5q0 55 16 146l107 538h204l-102 -518q-10 -62 -10 -98q0 -82 45 -124t131 -42q114 0 183.5 80.5t101.5 249.5l88 452h200l-182 -946h-201l27 143h-4q-116 -174 -309 -174z" />
    <glyph glyph-name="Ubreve" unicode="&#x16c;" horiz-adv-x="1396" 
d="M899 1522q-109 0 -170 54.5t-61 152.5q0 24 2 38h125v-16q0 -100 123 -100q61 0 100 29.5t65 86.5h138q-32 -116 -117 -180.5t-205 -64.5zM1460 1434l-172 -881q-55 -284 -224 -434t-433 -150q-239 0 -370.5 120.5t-131.5 338.5q0 82 18 170l164 836h221l-170 -875
q-10 -44 -10 -94q0 -130 80 -202.5t223 -72.5q163 0 270 95.5t142 273.5l172 875h221z" />
    <glyph glyph-name="ubreve" unicode="&#x16d;" horiz-adv-x="1071" 
d="M979 1427q-25 -138 -106 -216t-211 -78q-106 0 -176 56t-70 154q0 32 10 84h119q-6 -24 -6 -49q0 -57 32.5 -89t92.5 -32q79 0 119 44t59 126h137zM369 -31q-139 0 -217 77.5t-78 215.5q0 55 16 146l107 538h204l-102 -518q-10 -62 -10 -98q0 -82 45 -124t131 -42
q114 0 183.5 80.5t101.5 249.5l88 452h200l-182 -946h-201l27 143h-4q-116 -174 -309 -174z" />
    <glyph glyph-name="Uring" unicode="&#x16e;" horiz-adv-x="1396" 
d="M864 1337q-102 0 -158.5 58t-56.5 153q0 113 77 191t198 78q102 0 158.5 -58t56.5 -153q0 -113 -77 -191t-198 -78zM874 1434q78 0 120 51.5t42 116.5q0 55 -32 86.5t-91 31.5q-78 0 -119.5 -51.5t-41.5 -116.5q0 -55 31.5 -86.5t90.5 -31.5zM1460 1434l-172 -881
q-55 -284 -224 -434t-433 -150q-239 0 -370.5 120.5t-131.5 338.5q0 82 18 170l164 836h221l-170 -875q-10 -44 -10 -94q0 -130 80 -202.5t223 -72.5q163 0 270 95.5t142 273.5l172 875h221z" />
    <glyph glyph-name="uring" unicode="&#x16f;" horiz-adv-x="1071" 
d="M657 1530q103 0 168.5 -62.5t65.5 -160.5q0 -103 -70 -179.5t-186 -76.5q-103 0 -167.5 62.5t-64.5 160.5q0 103 69 179.5t185 76.5zM655 1434q-75 0 -112 -48.5t-37 -109.5q0 -59 35 -94t96 -35q75 0 112 48.5t37 109.5q0 59 -35 94t-96 35zM369 -31q-139 0 -217 77.5
t-78 215.5q0 55 16 146l107 538h204l-102 -518q-10 -62 -10 -98q0 -82 45 -124t131 -42q114 0 183.5 80.5t101.5 249.5l88 452h200l-182 -946h-201l27 143h-4q-116 -174 -309 -174z" />
    <glyph glyph-name="Uhungarumlaut" unicode="&#x170;" horiz-adv-x="1396" 
d="M1100 1767l-318 -245h-141l281 245h178zM1348 1767l-318 -245h-141l280 245h179zM1460 1434l-172 -881q-55 -284 -224 -434t-433 -150q-239 0 -370.5 120.5t-131.5 338.5q0 82 18 170l164 836h221l-170 -875q-10 -44 -10 -94q0 -130 80 -202.5t223 -72.5q163 0 270 95.5
t142 273.5l172 875h221z" />
    <glyph glyph-name="uhungarumlaut" unicode="&#x171;" horiz-adv-x="1071" 
d="M817 1448l-313 -315h-144l275 315h182zM1079 1448l-313 -315h-143l274 315h182zM369 -31q-139 0 -217 77.5t-78 215.5q0 55 16 146l107 538h204l-102 -518q-10 -62 -10 -98q0 -82 45 -124t131 -42q114 0 183.5 80.5t101.5 249.5l88 452h200l-182 -946h-201l27 143h-4
q-116 -174 -309 -174z" />
    <glyph glyph-name="Uogonek" unicode="&#x172;" horiz-adv-x="1396" 
d="M1239 1434h221l-172 -881q-55 -281 -221 -431t-424 -153q-129 -120 -129 -178q0 -39 51 -39q24 0 82 12v-126q-64 -21 -127 -21q-76 0 -122 32.5t-46 92.5q0 110 158 235q-183 29 -282 145.5t-99 305.5q0 82 18 170l164 836h221l-170 -875q-10 -44 -10 -94
q0 -130 80 -202.5t223 -72.5q163 0 270 95.5t142 273.5z" />
    <glyph glyph-name="uogonek" unicode="&#x173;" horiz-adv-x="1071" 
d="M756 0q-162 -140 -162 -209q0 -39 51 -39q24 0 82 12v-126q-64 -21 -127 -21q-76 0 -122 32.5t-46 92.5q0 133 230 289l20 112h-4q-116 -174 -309 -174q-139 0 -217 77.5t-78 215.5q0 55 16 146l107 538h204l-102 -518q-10 -62 -10 -98q0 -82 45 -124t131 -42
q114 0 183.5 80.5t101.5 249.5l88 452h200l-182 -946h-100z" />
    <glyph glyph-name="Wcircumflex" unicode="&#x174;" horiz-adv-x="2058" 
d="M866 1522l310 245h208l189 -245h-184l-119 157l-199 -157h-205zM2193 1434l-714 -1434h-209l-117 1073h-4l-533 -1073h-208l-170 1434h227l100 -1094h4l531 1094h211l116 -1094h5l514 1094h247z" />
    <glyph glyph-name="wcircumflex" unicode="&#x175;" horiz-adv-x="1517" 
d="M897 1337l-203 -204h-205l320 315h197l192 -315h-182zM1368 946h221l-504 -946h-184l-92 680l-358 -680h-185l-133 946h205l65 -686l353 686h194l86 -686z" />
    <glyph glyph-name="Ycircumflex" unicode="&#x176;" horiz-adv-x="1112" 
d="M793 1679l-199 -157h-205l309 245h209l189 -245h-185zM1298 1434l-616 -861l-113 -573h-213l113 571l-283 863h234l176 -654h4l436 654h262z" />
    <glyph glyph-name="ycircumflex" unicode="&#x177;" horiz-adv-x="962" 
d="M596 1337l-203 -204h-205l320 315h197l192 -315h-182zM817 946h227l-808 -1358h-211l309 516l-232 842h215l146 -620z" />
    <glyph glyph-name="Ydieresis" unicode="&#x178;" horiz-adv-x="1112" 
d="M684 1735l-41 -213h-217l41 213h217zM1094 1735l-41 -213h-217l41 213h217zM1298 1434l-616 -861l-113 -573h-213l113 571l-283 863h234l176 -654h4l436 654h262z" />
    <glyph glyph-name="Zacute" unicode="&#x179;" horiz-adv-x="1130" 
d="M1196 1767l-348 -245h-152l242 245h258zM1235 1434l-39 -201l-936 -1032h766l-39 -201h-1028l39 201l938 1032h-672l39 201h932z" />
    <glyph glyph-name="zacute" unicode="&#x17a;" horiz-adv-x="892" 
d="M1040 1448l-376 -315h-166l268 315h274zM127 760l37 186h733l-35 -176l-614 -584h538l-36 -186h-791l35 176l616 584h-483z" />
    <glyph glyph-name="Zdotaccent" unicode="&#x17b;" horiz-adv-x="1130" 
d="M938 1735l-41 -213h-217l41 213h217zM1235 1434l-39 -201l-936 -1032h766l-39 -201h-1028l39 201l938 1032h-672l39 201h932z" />
    <glyph glyph-name="zdotaccent" unicode="&#x17c;" horiz-adv-x="892" 
d="M739 1413l-47 -246h-246l48 246h245zM897 946l-35 -176l-614 -584h538l-36 -186h-791l35 176l616 584h-483l37 186h733z" />
    <glyph glyph-name="Zcaron" unicode="&#x17d;" horiz-adv-x="1130" 
d="M901 1522h-201l-188 245h174l121 -157l197 157h215zM1235 1434l-39 -201l-936 -1032h766l-39 -201h-1028l39 201l938 1032h-672l39 201h932z" />
    <glyph glyph-name="zcaron" unicode="&#x17e;" horiz-adv-x="892" 
d="M649 1118h-196l-193 316h182l119 -205l203 205h205zM127 760l37 186h733l-35 -176l-614 -584h538l-36 -186h-791l35 176l616 584h-483z" />
    <glyph glyph-name="florin" unicode="&#x192;" horiz-adv-x="821" 
d="M829 1219q-101 0 -156 -42.5t-75 -144.5l-16 -86h270l-12 -61h-271l-180 -924q-37 -199 -129.5 -285t-279.5 -86h-109l35 185h82q73 0 125.5 39t70.5 127l185 944h-207l12 61h207l12 66q20 102 56 176t77 115t97.5 64t103.5 29.5t109 6.5h98l-35 -184h-70z" />
    <glyph glyph-name="AEacute" unicode="&#x1fc;" horiz-adv-x="1921" 
d="M2023 1767l-348 -245h-151l241 245h258zM2005 1434l-39 -201h-553l-65 -340h503l-39 -201h-503l-97 -491h564l-39 -201h-650h-122l69 356h-542l-295 -356h-279l1210 1434h877zM653 553h418l129 659z" />
    <glyph glyph-name="aeacute" unicode="&#x1fd;" horiz-adv-x="1708" 
d="M870 1133l269 315h274l-377 -315h-166zM381 -31q-165 0 -268 82.5t-103 231.5q0 71 25.5 133.5t73.5 110.5t124 76t170 28q200 0 302 -121h2q28 92 28 156q0 61 -49.5 96t-144.5 35q-149 0 -324 -49l-39 174q202 55 381 55q277 0 313 -178h5q58 84 156.5 131t223.5 47
q172 0 275.5 -99.5t103.5 -281.5q0 -56 -18 -158h-727q-4 -24 -4 -43q0 -30 6.5 -59.5t24.5 -62t45.5 -56.5t74.5 -39.5t107 -15.5q56 0 105.5 12.5t90.5 36.5t67 44t58 50l121 -139q-76 -82 -190 -139.5t-252 -57.5q-140 0 -237 62.5t-126 158.5h-4q-134 -221 -397 -221z
M930 586h495q2 10 2 30q0 84 -53.5 132.5t-154.5 48.5q-106 0 -180.5 -55.5t-108.5 -155.5zM424 141q115 0 180.5 54.5t65.5 128.5q0 70 -57 104.5t-152 34.5q-113 0 -179.5 -47t-66.5 -125q0 -74 57.5 -112t151.5 -38z" />
    <glyph glyph-name="Oslashacute" unicode="&#x1fe;" horiz-adv-x="1693" 
d="M1407 1767l-348 -245h-152l242 245h258zM1468 1276q95 -89 146 -214.5t51 -277.5q0 -168 -60 -317.5t-166 -259.5t-262 -174t-339 -64q-267 0 -451 133l-129 -139l-61 51l127 140q-201 185 -201 495q0 168 60 317.5t166 259.5t262 174t339 64q271 0 459 -137l125 135
l59 -51zM352 637q0 -194 127 -318l774 840q-131 92 -311 92q-138 0 -251.5 -49t-186.5 -133t-112.5 -195t-39.5 -237zM846 182q138 0 251.5 49t186.5 133.5t112.5 195.5t39.5 237q0 190 -121 311l-774 -838q130 -88 305 -88z" />
    <glyph glyph-name="oslashacute" unicode="&#x1ff;" horiz-adv-x="1159" 
d="M1176 1448l-377 -315h-166l268 315h275zM1051 977l49 -49l-105 -99q103 -119 103 -299q0 -120 -43 -224t-118.5 -178t-180.5 -116.5t-226 -42.5q-208 0 -335 115l-121 -113l-49 47l125 117q-89 116 -89 281q0 120 43 224t118.5 178t180.5 116.5t226 42.5q194 0 315 -98z
M274 428q0 -84 35 -143l477 446q-67 49 -176 49q-148 0 -242 -99t-94 -253zM885 518q0 99 -47 164l-486 -451q71 -65 197 -65q148 0 242 99t94 253z" />
    <glyph glyph-name="Scommaaccent" unicode="&#x218;" horiz-adv-x="1040" 
d="M756 741q102 -90 143 -177.5t41 -186.5q0 -194 -126 -301t-329 -107q-149 0 -284 55t-230 142l131 182q88 -75 188.5 -118.5t198.5 -43.5q104 0 162 50t58 135q0 98 -119 200l-225 201q-156 139 -156 328q0 159 109.5 261.5t304.5 102.5q202 0 409 -135l-121 -190
q-166 110 -297 110q-91 0 -133.5 -44t-42.5 -103q0 -82 109 -176zM313 -279l37 183h203l-37 -183l-160 -151h-73l116 151h-86z" />
    <glyph glyph-name="scommaaccent" unicode="&#x219;" horiz-adv-x="806" 
d="M557 506q83 -55 120.5 -117.5t37.5 -144.5q0 -130 -88 -202.5t-246 -72.5q-118 0 -228 41t-190 115l113 154q152 -127 295 -127q62 0 97.5 24.5t35.5 67.5q0 56 -80 112l-133 90q-156 108 -156 265q0 122 84.5 194t226.5 72q173 0 338 -109l-98 -159q-133 86 -229 86
q-54 0 -83.5 -23.5t-29.5 -66.5q0 -31 22 -59.5t74 -61.5zM197 -279l36 183h203l-37 -183l-159 -151h-74l117 151h-86z" />
    <glyph glyph-name="uni021A" unicode="&#x21a;" horiz-adv-x="1060" 
d="M1227 1434l-39 -201h-404l-239 -1233h-213l239 1233h-403l39 201h1020zM291 -279l37 183h202l-36 -183l-160 -151h-74l117 151h-86z" />
    <glyph glyph-name="uni021B" unicode="&#x21b;" horiz-adv-x="653" 
d="M459 776l-97 -495q-4 -24 -4 -31q0 -68 84 -68h50l-37 -184h-74q-108 0 -168.5 51t-60.5 152q0 39 8 78l98 497h-168l33 170h168l74 379h200l-73 -379h213l-33 -170h-213zM186 -279l37 183h203l-37 -183l-160 -151h-73l116 151h-86z" />
    <glyph glyph-name="uni0237" unicode="&#x237;" horiz-adv-x="456" 
d="M-178 -233h65q61 0 90.5 27.5t40.5 86.5l207 1065h201l-211 -1085q-29 -148 -114 -212.5t-218 -64.5h-96z" />
    <glyph glyph-name="uni02BC" unicode="&#x2bc;" horiz-adv-x="385" 
d="M301 1464h215l-41 -215l-235 -301h-76l172 301h-76z" />
    <glyph glyph-name="circumflex" unicode="&#x2c6;" horiz-adv-x="913" 
d="M231 1133l320 315h197l192 -315h-182l-119 204l-203 -204h-205z" />
    <glyph glyph-name="caron" unicode="&#x2c7;" horiz-adv-x="913" 
d="M481 1118l-192 316h182l119 -205l203 205h204l-319 -316h-197z" />
    <glyph glyph-name="breve" unicode="&#x2d8;" horiz-adv-x="757" 
d="M842 1427q-25 -137 -106.5 -215.5t-211.5 -78.5q-105 0 -175 56t-70 154q0 32 10 84h119q-7 -28 -7 -49q0 -57 32.5 -89t92.5 -32q79 0 119.5 44t59.5 126h137z" />
    <glyph glyph-name="dotaccent" unicode="&#x2d9;" horiz-adv-x="450" 
d="M530 1413l-47 -246h-245l47 246h245z" />
    <glyph glyph-name="ring" unicode="&#x2da;" horiz-adv-x="694" 
d="M516 1530q103 0 168.5 -62.5t65.5 -160.5q0 -103 -70 -179.5t-186 -76.5q-103 0 -167.5 62.5t-64.5 160.5q0 103 69 179.5t185 76.5zM514 1434q-75 0 -112 -48.5t-37 -109.5q0 -59 35 -94t96 -35q75 0 112 48.5t37 109.5q0 59 -35 94t-96 35z" />
    <glyph glyph-name="ogonek" unicode="&#x2db;" horiz-adv-x="522" 
d="M221 49l90 -29q-92 -77 -139 -136t-47 -93q0 -39 51 -39q24 0 82 12v-126q-64 -21 -127 -21q-76 0 -122 32.5t-46 92.5q0 139 258 307z" />
    <glyph glyph-name="tilde" unicode="&#x2dc;" horiz-adv-x="915" 
d="M754 1180q-54 0 -110.5 26t-105.5 52t-85 26q-67 0 -127 -92l-80 22q87 228 246 228q42 0 87 -16.5t77 -36t69.5 -36t67.5 -16.5q35 0 64.5 22.5t60.5 70.5l77 -23q-18 -48 -38 -85t-49 -71t-68 -52.5t-86 -18.5z" />
    <glyph glyph-name="hungarumlaut" unicode="&#x2dd;" horiz-adv-x="862" 
d="M688 1448l-313 -315h-144l275 315h182zM950 1448l-313 -315h-143l274 315h182z" />
    <glyph glyph-name="gravecomb" unicode="&#x300;" horiz-adv-x="0" 
d="M-104 1448l131 -315h-138l-235 315h242z" />
    <glyph glyph-name="acutecomb" unicode="&#x301;" horiz-adv-x="0" 
d="M-455 1133l269 315h274l-377 -315h-166z" />
    <glyph glyph-name="uni0302" unicode="&#x302;" horiz-adv-x="0" 
d="M-682 1133l320 315h196l193 -315h-183l-118 204l-203 -204h-205z" />
    <glyph glyph-name="tildecomb" unicode="&#x303;" horiz-adv-x="0" 
d="M-162 1180q-54 0 -110.5 26t-105.5 52t-85 26q-67 0 -127 -92l-80 22q87 228 246 228q42 0 87 -16.5t77 -36t69.5 -36t67.5 -16.5q35 0 64.5 22.5t60.5 70.5l78 -23q-18 -48 -38.5 -85t-49 -71t-68 -52.5t-86.5 -18.5z" />
    <glyph glyph-name="uni0304" unicode="&#x304;" horiz-adv-x="0" 
d="M70 1356l-29 -148h-594l29 148h594z" />
    <glyph glyph-name="uni0306" unicode="&#x306;" horiz-adv-x="0" 
d="M84 1427q-25 -138 -106 -216t-211 -78q-106 0 -176 56t-70 154q0 32 10 84h119q-6 -24 -6 -49q0 -57 32.5 -89t92.5 -32q79 0 119 44t59 126h137z" />
    <glyph glyph-name="uni0307" unicode="&#x307;" horiz-adv-x="0" 
d="M80 1413l-47 -246h-246l47 246h246z" />
    <glyph glyph-name="uni0308" unicode="&#x308;" horiz-adv-x="0" 
d="M-557 1167l47 246h205l-47 -246h-205zM-172 1167l47 246h205l-47 -246h-205z" />
    <glyph glyph-name="uni030A" unicode="&#x30a;" horiz-adv-x="0" 
d="M-178 1530q103 0 168 -62.5t65 -160.5q0 -103 -70 -179.5t-186 -76.5q-103 0 -167 62.5t-64 160.5q0 103 69 179.5t185 76.5zM-180 1434q-75 0 -112.5 -48.5t-37.5 -109.5q0 -59 35 -94t96 -35q75 0 112.5 48.5t37.5 109.5q0 59 -35 94t-96 35z" />
    <glyph glyph-name="uni030B" unicode="&#x30b;" horiz-adv-x="0" 
d="M-174 1448l-313 -315h-144l275 315h182zM88 1448l-313 -315h-144l275 315h182z" />
    <glyph glyph-name="uni030C" unicode="&#x30c;" horiz-adv-x="0" 
d="M-432 1118l-193 316h183l118 -205l203 205h205l-320 -316h-196z" />
    <glyph glyph-name="uni0326" unicode="&#x326;" horiz-adv-x="0" 
d="M-416 -96h203l-37 -183l-160 -151h-73l116 151h-86z" />
    <glyph glyph-name="uni0327" unicode="&#x327;" horiz-adv-x="0" 
d="M-520 -434l-31 61q29 15 40.5 20.5t35 18.5t33.5 20.5t22.5 18.5t17.5 21.5t5 21.5q0 46 -117 78l143 237h80l-86 -135q66 -25 102.5 -56t36.5 -85q0 -30 -17 -58t-41.5 -48.5t-63 -41.5t-70 -35t-75.5 -32q-3 -1 -5 -2t-5 -2t-5 -2z" />
    <glyph glyph-name="uni0328" unicode="&#x328;" horiz-adv-x="0" 
d="M-301 49l90 -29q-92 -77 -139 -136t-47 -93q0 -39 51 -39q24 0 82 12v-126q-64 -21 -127 -21q-76 0 -122 32.5t-46 92.5q0 139 258 307z" />
    <glyph glyph-name="uni0394" unicode="&#x394;" horiz-adv-x="1286" 
d="M641 1434l512 -1434h-1204l512 1434h180zM551 1161l-358 -1071h716z" />
    <glyph glyph-name="uni03A9" unicode="&#x3a9;" horiz-adv-x="1679" 
d="M848 1464q210 0 369 -86t243 -237t84 -344q0 -115 -34 -216t-93.5 -175.5t-135 -127.5t-163.5 -81v-7h398v-190h-586v291q192 43 302.5 176.5t110.5 323.5q0 221 -132 352t-363 131q-232 0 -365 -131t-133 -352q0 -190 111 -323.5t305 -176.5v-291h-588v190h397v7
q-87 28 -162.5 81t-135 127.5t-93.5 176t-34 215.5q0 144 49 267t138 211.5t221 138.5t290 50z" />
    <glyph glyph-name="uni03BC" unicode="&#x3bc;" horiz-adv-x="1071" 
d="M838 946h200l-182 -946h-201l27 143h-4q-116 -174 -309 -174q-110 0 -174 49l-84 -428h-181l267 1356h204l-102 -518q-10 -62 -10 -98q0 -82 45 -124t131 -42q114 0 183.5 80.5t101.5 249.5z" />
    <glyph glyph-name="pi" unicode="&#x3c0;" horiz-adv-x="1234" 
d="M1272 977l-39 -193h-215l-154 -784h-188l153 784h-266l-346 -784h-188l346 784q-145 -6 -260 -41l37 193q125 41 290 41h830z" />
    <glyph glyph-name="uni0401" unicode="&#x401;" horiz-adv-x="1060" 
d="M700 1735l-41 -213h-217l41 213h217zM1110 1735l-41 -213h-217l41 213h217zM1108 1233h-602l-68 -340h555l-37 -201h-557l-96 -491h612l-38 -201h-826l281 1434h815z" />
    <glyph glyph-name="uni0402" unicode="&#x402;" horiz-adv-x="1472" 
d="M1049 870q202 0 300.5 -58.5t98.5 -203.5q0 -40 -10 -102l-33 -170q-29 -150 -142 -243t-286 -93h-182l39 201h118q102 0 163.5 41.5t84.5 150.5l14 66q13 75 13 90q0 65 -57 93t-195 28q-80 0 -307 -15l-127 -655h-213l239 1233h-399l39 201h612h502l-39 -201h-502
l-73 -379q226 16 342 16z" />
    <glyph glyph-name="uni0403" unicode="&#x403;" horiz-adv-x="972" 
d="M1180 1767l-349 -245h-151l242 245h258zM330 1434h809l-39 -205h-596l-240 -1229h-213z" />
    <glyph glyph-name="uni0404" unicode="&#x404;" horiz-adv-x="1402" 
d="M944 1249q-225 0 -374 -120t-197 -312h624l-39 -201h-606q10 -204 133.5 -318t327.5 -114q104 0 186.5 29.5t167.5 85.5l115 -180q-220 -150 -483 -150q-308 0 -492 186t-184 496q0 166 58 313.5t163 258.5t263.5 176t348.5 65q291 0 500 -159l-133 -181q-55 37 -98 59.5
t-120 44t-161 21.5z" />
    <glyph glyph-name="uni0405" unicode="&#x405;" horiz-adv-x="1040" 
d="M485 -31q-149 0 -284 55t-230 142l131 182q88 -75 188.5 -118.5t198.5 -43.5q104 0 162 50t58 135q0 98 -119 200l-225 201q-156 139 -156 328q0 159 109.5 261.5t304.5 102.5q202 0 409 -135l-121 -190q-166 110 -297 110q-91 0 -133.5 -44t-42.5 -103q0 -82 109 -176
l209 -185q102 -90 143 -177.5t41 -186.5q0 -194 -126 -301t-329 -107z" />
    <glyph glyph-name="uni0406" unicode="&#x406;" horiz-adv-x="505" 
d="M51 0l281 1434h217l-281 -1434h-217z" />
    <glyph glyph-name="uni0407" unicode="&#x407;" horiz-adv-x="505" 
d="M137 1522l41 213h217l-41 -213h-217zM547 1522l41 213h217l-41 -213h-217zM51 0l281 1434h217l-281 -1434h-217z" />
    <glyph glyph-name="uni0408" unicode="&#x408;" horiz-adv-x="583" 
d="M-59 -10l36 207h54q70 0 109.5 30.5t58.5 114.5l213 1092h213l-222 -1147q-31 -159 -119.5 -228t-240.5 -69h-102z" />
    <glyph glyph-name="uni0409" unicode="&#x409;" horiz-adv-x="2179" 
d="M1679 862q213 0 331 -102.5t118 -290.5q0 -92 -28 -169.5t-77 -132t-116.5 -92.5t-146.5 -56.5t-167 -18.5h-559l240 1229h-658l-182 -942q-31 -159 -119.5 -228t-240.5 -69h-133l36 207h84q70 0 109.5 30.5t58.5 114.5l213 1092h213h693h178l-111 -572h264zM1591 201
q145 0 224 70t79 188q0 97 -60 150t-173 53h-285l-90 -461h305z" />
    <glyph glyph-name="uni040A" unicode="&#x40a;" horiz-adv-x="2158" 
d="M1659 862q213 0 330.5 -102.5t117.5 -290.5q0 -115 -42.5 -205.5t-116.5 -147.5t-169.5 -86.5t-205.5 -29.5h-559l129 662h-746l-129 -662h-217l279 1434h217l-111 -572h746l110 572h213l-110 -572h264zM1571 201q145 0 224 70t79 188q0 97 -60.5 150t-173.5 53h-284
l-90 -461h305z" />
    <glyph glyph-name="uni040B" unicode="&#x40b;" horiz-adv-x="1472" 
d="M1087 850q353 0 353 -283q0 -43 -13 -110l-90 -457h-213l90 461q7 35 7 57q0 68 -44.5 99.5t-140.5 31.5h-368l-127 -649h-213l239 1233h-399l39 201h612h502l-39 -201h-502l-73 -383h380z" />
    <glyph glyph-name="uni040C" unicode="&#x40c;" horiz-adv-x="1300" 
d="M1229 1767l-348 -245h-152l242 245h258zM1407 1434l-770 -691l561 -743h-276l-519 721l-139 -721h-213l279 1434h213l-125 -641l682 641h307z" />
    <glyph glyph-name="uni040E" unicode="&#x40e;" horiz-adv-x="1236" 
d="M809 1481q-120 0 -183 56.5t-63 160.5q0 32 6 69h133q-8 -39 -8 -61q0 -107 125 -107q78 0 114.5 43t51.5 125h137q-29 -148 -106 -217t-207 -69zM1174 1434h249l-938 -1434h-249l258 393l-308 1041h232l233 -799z" />
    <glyph glyph-name="uni040F" unicode="&#x40f;" horiz-adv-x="1445" 
d="M1489 1434l-279 -1434h-481l-55 -287h-197l55 287h-481l279 1434h217l-240 -1233h725l240 1233h217z" />
    <glyph glyph-name="uni0410" unicode="&#x410;" horiz-adv-x="1392" 
d="M1077 0l-69 358h-637l-205 -358h-248l848 1434h221l303 -1434h-213zM481 553h488l-125 633z" />
    <glyph glyph-name="uni0411" unicode="&#x411;" horiz-adv-x="1196" 
d="M1178 1233h-674l-72 -371h264q213 0 331 -102.5t118 -290.5q0 -92 -28 -169.5t-77 -132t-116.5 -92.5t-146.5 -56.5t-167 -18.5h-559l279 1434h213h674zM678 662h-285l-90 -461h305q145 0 224 70t79 188q0 97 -60 150t-173 53z" />
    <glyph glyph-name="uni0412" unicode="&#x412;" horiz-adv-x="1280" 
d="M942 758q242 -56 242 -309q0 -210 -144 -329.5t-383 -119.5h-606l281 1434h512q178 0 276.5 -89.5t98.5 -246.5q0 -120 -73.5 -212t-203.5 -124v-4zM788 1233h-282l-78 -397h309q108 0 183 58.5t75 160.5q0 81 -49.5 129.5t-157.5 48.5zM668 201q150 0 222.5 68.5
t72.5 168.5q0 203 -238 203h-336l-88 -440h367z" />
    <glyph glyph-name="uni0413" unicode="&#x413;" horiz-adv-x="972" 
d="M1139 1434l-39 -205h-596l-240 -1229h-213l279 1434h809z" />
    <glyph glyph-name="uni0414" unicode="&#x414;" horiz-adv-x="1376" 
d="M1358 1434l-246 -1264h143l-88 -457h-196l49 256h-911l-50 -256h-196l88 457h121q107 128 167 271t101 354l125 639h893zM559 803q-42 -221 -95.5 -363.5t-146.5 -269.5h582l207 1063h-465z" />
    <glyph glyph-name="uni0415" unicode="&#x415;" horiz-adv-x="1060" 
d="M1108 1233h-602l-68 -340h555l-37 -201h-557l-96 -491h612l-38 -201h-826l281 1434h815z" />
    <glyph glyph-name="uni0416" unicode="&#x416;" horiz-adv-x="2013" 
d="M2103 1434l-686 -699l494 -735h-277l-460 731l-142 -731h-209l142 733l-736 -733h-311l819 784l-407 650h272l373 -658l127 658h209l-129 -660l624 660h297z" />
    <glyph glyph-name="uni0417" unicode="&#x417;" horiz-adv-x="1171" 
d="M532 -31q-315 0 -530 150l129 194q205 -131 404 -131q65 0 119.5 12.5t99 38.5t69.5 72.5t25 108.5q0 235 -371 235h-100l39 205h98q182 0 291.5 60t109.5 171q0 166 -245 166q-183 0 -359 -94l-90 191q238 116 473 116q216 0 335.5 -92t119.5 -258q0 -284 -365 -348v-4
q128 -19 205.5 -110.5t77.5 -241.5q0 -206 -136 -323.5t-399 -117.5z" />
    <glyph glyph-name="uni0418" unicode="&#x418;" horiz-adv-x="1431" 
d="M51 0l279 1434h213l-207 -1063h4l911 1063h224l-279 -1434h-213l207 1063h-4l-912 -1063h-223z" />
    <glyph glyph-name="uni0419" unicode="&#x419;" horiz-adv-x="1431" 
d="M1223 1767q-29 -148 -106.5 -217t-207.5 -69q-120 0 -182.5 56.5t-62.5 160.5q0 32 6 69h133q-8 -39 -8 -61q0 -107 125 -107q77 0 113.5 43t51.5 125h138zM51 0l279 1434h213l-207 -1063h4l911 1063h224l-279 -1434h-213l207 1063h-4l-912 -1063h-223z" />
    <glyph glyph-name="uni041A" unicode="&#x41a;" horiz-adv-x="1300" 
d="M1407 1434l-770 -691l561 -743h-276l-519 721l-139 -721h-213l279 1434h213l-125 -641l682 641h307z" />
    <glyph glyph-name="uni041B" unicode="&#x41b;" horiz-adv-x="1480" 
d="M1524 1434l-279 -1434h-213l240 1229h-656l-182 -942q-31 -159 -119.5 -228t-240.5 -69h-133l36 207h84q70 0 109.5 30.5t58.5 114.5l213 1092h1082z" />
    <glyph glyph-name="uni041C" unicode="&#x41c;" horiz-adv-x="1804" 
d="M-82 0l578 1434h184l199 -914h4l522 914h184l113 -1434h-213l-76 1042h-4l-479 -819h-176l-193 811h-4l-393 -1034h-246z" />
    <glyph glyph-name="uni041D" unicode="&#x41d;" horiz-adv-x="1466" 
d="M1296 1434h213l-278 -1434h-213l127 651h-754l-127 -651h-213l279 1434h213l-113 -578h754z" />
    <glyph glyph-name="uni041E" unicode="&#x41e;" horiz-adv-x="1693" 
d="M838 -31q-208 0 -370 82.5t-253.5 237.5t-91.5 360q0 168 60 317.5t166 259.5t262 174t339 64q208 0 370 -82.5t253.5 -237.5t91.5 -360q0 -168 -60 -317.5t-166 -259.5t-262 -174t-339 -64zM846 182q138 0 251.5 49t186.5 133.5t112.5 195.5t39.5 237q0 138 -67 243
t-178.5 158t-248.5 53q-138 0 -251.5 -49t-186.5 -133t-112.5 -195t-39.5 -237q0 -139 67 -243.5t178.5 -158t248.5 -53.5z" />
    <glyph glyph-name="uni041F" unicode="&#x41f;" horiz-adv-x="1417" 
d="M1460 1434l-278 -1434h-217l239 1233h-696l-240 -1233h-217l279 1434h1130z" />
    <glyph glyph-name="uni0420" unicode="&#x420;" horiz-adv-x="1120" 
d="M750 1434q211 0 325.5 -111.5t114.5 -282.5q0 -209 -154 -342t-426 -133h-235l-111 -565h-213l279 1434h420zM664 766q137 0 217 70t80 192q0 103 -63 154t-169 51h-225l-90 -467h250z" />
    <glyph glyph-name="uni0421" unicode="&#x421;" horiz-adv-x="1402" 
d="M799 -31q-308 0 -492 186t-184 496q0 166 58 313.5t163 258.5t263.5 176t348.5 65q291 0 500 -159l-133 -181q-55 37 -98 59.5t-120 44t-161 21.5q-138 0 -251.5 -48.5t-187 -131.5t-113.5 -190.5t-40 -227.5q0 -219 124 -343t337 -124q104 0 186.5 29.5t167.5 85.5
l115 -180q-220 -150 -483 -150z" />
    <glyph glyph-name="uni0422" unicode="&#x422;" horiz-adv-x="1060" 
d="M1227 1434l-39 -201h-404l-239 -1233h-213l239 1233h-403l39 201h1020z" />
    <glyph glyph-name="uni0423" unicode="&#x423;" horiz-adv-x="1236" 
d="M1174 1434h249l-938 -1434h-249l258 393l-308 1041h232l233 -799z" />
    <glyph glyph-name="uni0424" unicode="&#x424;" horiz-adv-x="1755" 
d="M1161 1352q265 -27 415 -179t150 -411q0 -144 -52.5 -270t-147.5 -218.5t-237.5 -146t-313.5 -53.5h-78l-27 -135h-208l28 141q-263 28 -414 180t-151 412q0 144 51.5 268.5t146.5 216.5t237.5 146t316.5 55h75l29 135h209zM360 674q0 -191 97.5 -285t283.5 -108l181 872
h-54q-132 0 -232.5 -39.5t-159 -107.5t-87.5 -152t-29 -180zM983 279q106 0 191.5 26t144 71t98 107t57 131t17.5 146q0 191 -97.5 284t-283.5 107l-180 -872h53z" />
    <glyph glyph-name="uni0425" unicode="&#x425;" horiz-adv-x="1269" 
d="M1399 1434l-580 -693l338 -741h-223l-264 571l-480 -571h-262l641 764l-307 670h225l232 -502l422 502h258z" />
    <glyph glyph-name="uni0426" unicode="&#x426;" horiz-adv-x="1417" 
d="M1012 -287l55 287h-1016l279 1434h217l-240 -1233h635l240 1233h217l-240 -1233h144l-95 -488h-196z" />
    <glyph glyph-name="uni0427" unicode="&#x427;" horiz-adv-x="1196" 
d="M1026 1434h213l-278 -1434h-213l112 584h-381q-352 0 -352 282q0 50 12 111l90 457h213l-90 -461q-6 -30 -6 -58q0 -68 44 -99.5t140 -31.5h369z" />
    <glyph glyph-name="uni0428" unicode="&#x428;" horiz-adv-x="2002" 
d="M51 0l279 1434h217l-240 -1233h533l239 1233h217l-239 -1233h532l240 1233h217l-279 -1434h-1716z" />
    <glyph glyph-name="uni0429" unicode="&#x429;" horiz-adv-x="2064" 
d="M1806 201h144l-95 -488h-196l55 287h-1663l279 1434h217l-240 -1233h533l239 1233h217l-239 -1233h532l240 1233h217z" />
    <glyph glyph-name="uni042A" unicode="&#x42a;" horiz-adv-x="1484" 
d="M985 862q213 0 331 -102.5t118 -290.5q0 -92 -28 -169.5t-77 -132t-116.5 -92.5t-146.5 -56.5t-167 -18.5h-559l240 1233h-412l39 201h624l-38 -201l-72 -371h264zM897 201q145 0 224 70t79 188q0 97 -60 150t-173 53h-285l-90 -461h305z" />
    <glyph glyph-name="uni042B" unicode="&#x42b;" horiz-adv-x="1630" 
d="M696 862q213 0 331 -102.5t118 -290.5q0 -92 -28 -169.5t-77 -132t-116.5 -92.5t-146.5 -56.5t-167 -18.5h-559l279 1434h213l-111 -572h264zM1456 1434h217l-280 -1434h-217zM608 201q145 0 224 70t79 188q0 97 -60 150t-173 53h-285l-90 -461h305z" />
    <glyph glyph-name="uni042C" unicode="&#x42c;" horiz-adv-x="1196" 
d="M696 862q213 0 331 -102.5t118 -290.5q0 -92 -28 -169.5t-77 -132t-116.5 -92.5t-146.5 -56.5t-167 -18.5h-559l279 1434h213l-111 -572h264zM608 201q145 0 224 70t79 188q0 97 -60 150t-173 53h-285l-90 -461h305z" />
    <glyph glyph-name="uni042D" unicode="&#x42d;" horiz-adv-x="1433" 
d="M752 1464q308 0 482.5 -164.5t174.5 -480.5q0 -136 -33 -260t-102 -232t-168 -187.5t-240 -125t-309 -45.5q-179 0 -317 47t-228 123l148 185q179 -142 413 -142q122 0 222.5 33.5t171 93.5t117 137.5t69.5 169.5h-614l39 201h598q-6 214 -124.5 324t-308.5 110
q-212 0 -430 -118l-96 194q261 137 535 137z" />
    <glyph glyph-name="uni042E" unicode="&#x42e;" horiz-adv-x="2115" 
d="M1372 1464q208 0 370 -82.5t253.5 -237.5t91.5 -360q0 -168 -60 -317.5t-166 -259.5t-262 -174t-339 -64q-206 0 -367 81t-253 233t-95 354h-158l-123 -637h-213l279 1434h213l-117 -596h139q60 277 277.5 451.5t529.5 174.5zM1268 182q138 0 251.5 49t186.5 133.5
t112.5 195.5t39.5 237q0 138 -67 243t-178.5 158t-248.5 53q-138 0 -251.5 -49t-186.5 -133t-112.5 -195t-39.5 -237q0 -139 67 -243.5t178.5 -158t248.5 -53.5z" />
    <glyph glyph-name="uni042F" unicode="&#x42f;" horiz-adv-x="1222" 
d="M784 1434h482l-279 -1434h-213l117 596h-121l-553 -596h-278l581 616q-132 35 -203 128.5t-71 230.5q0 208 143 333.5t395 125.5zM930 797l84 436h-230q-83 0 -144.5 -21t-95 -57.5t-49.5 -77.5t-16 -88q0 -87 53.5 -139.5t157.5 -52.5h240z" />
    <glyph glyph-name="uni0430" unicode="&#x430;" horiz-adv-x="1200" 
d="M487 -31q-186 0 -303.5 129.5t-117.5 333.5q0 235 146.5 390t367.5 155q125 0 216 -52t134 -147h6l31 168h200l-182 -946h-201l27 131h-6q-131 -162 -318 -162zM557 160q146 0 241 97.5t95 246.5q0 129 -75.5 205.5t-203.5 76.5q-145 0 -240 -100t-95 -252
q0 -126 74.5 -200t203.5 -74z" />
    <glyph glyph-name="uni0431" unicode="&#x431;" horiz-adv-x="1210" 
d="M584 -31q-233 0 -363.5 137t-130.5 383q0 290 103 494.5t286 276.5q35 14 82.5 26.5t104.5 23t96 17t99.5 15t72.5 10.5q100 15 115 98h200q-30 -210 -235 -256q-19 -4 -197 -34t-252 -58q-225 -86 -266 -379h6q132 242 412 242q194 0 312 -119t118 -314
q0 -249 -157 -406t-406 -157zM600 166q155 0 245.5 95t90.5 257q0 124 -71 193t-199 69q-156 0 -257.5 -98t-101.5 -250q0 -123 79 -194.5t214 -71.5z" />
    <glyph glyph-name="uni0432" unicode="&#x432;" horiz-adv-x="1042" 
d="M754 494q178 -25 178 -193q0 -75 -31.5 -134.5t-83.5 -95t-114 -53.5t-128 -18h-544l184 946h487q128 0 201.5 -54.5t73.5 -168.5q0 -85 -55 -145t-168 -82v-2zM604 563q70 0 112 31t42 84q0 98 -113 98h-262l-41 -213h262zM555 170q81 0 126.5 34.5t45.5 102.5
q0 109 -141 109h-273l-49 -246h291z" />
    <glyph glyph-name="uni0433" unicode="&#x433;" horiz-adv-x="747" 
d="M829 946l-36 -188h-414l-148 -758h-200l184 946h614z" />
    <glyph glyph-name="uni0434" unicode="&#x434;" horiz-adv-x="1083" 
d="M1012 946l-154 -792h133l-82 -420h-176l45 235h-690l-45 -235h-176l82 420h117q74 78 107 151.5t58 198.5l86 442h209h408h78zM438 492q-26 -130 -52 -198t-87 -140h358l119 612h-284z" />
    <glyph glyph-name="uni0435" unicode="&#x435;" horiz-adv-x="1105" 
d="M1026 438h-768v-2q0 -274 268 -274q94 0 174.5 35.5t165.5 113.5l117 -149q-208 -191 -457 -191q-215 0 -339 120t-124 327q0 244 155.5 401.5t397.5 157.5q199 0 311.5 -106.5t112.5 -295.5q0 -49 -14 -137zM606 807q-117 0 -201.5 -58t-121.5 -161h561v10
q0 100 -62 154.5t-176 54.5z" />
    <glyph glyph-name="uni0436" unicode="&#x436;" horiz-adv-x="1507" 
d="M1548 946l-475 -448l332 -498h-246l-307 477l-92 -477h-197l92 475l-465 -475h-272l533 526l-308 420h246l277 -416l82 416h196l-80 -414l404 414h280z" />
    <glyph glyph-name="uni0437" unicode="&#x437;" horiz-adv-x="948" 
d="M403 -31q-263 0 -450 99l88 168q180 -82 373 -82q239 0 239 139q0 65 -35 91t-122 26h-226l35 174h227q75 0 109.5 26t34.5 84q0 99 -168 99q-150 0 -328 -41l-51 178q192 47 377 47q189 0 286 -61t97 -181q0 -88 -70 -150.5t-182 -74.5l-2 -6q103 -9 156 -64.5
t53 -152.5q0 -151 -116 -234.5t-325 -83.5z" />
    <glyph glyph-name="uni0438" unicode="&#x438;" horiz-adv-x="1105" 
d="M31 0l184 946h201l-125 -624h4l594 624h186l-184 -946h-201l125 625h-4l-594 -625h-186z" />
    <glyph glyph-name="uni0439" unicode="&#x439;" horiz-adv-x="1105" 
d="M961 1305q-25 -138 -106.5 -216.5t-211.5 -78.5q-105 0 -175.5 56.5t-70.5 154.5q0 27 11 84h118q-6 -24 -6 -50q0 -57 32.5 -88.5t92.5 -31.5q79 0 119 44t59 126h138zM31 0l184 946h201l-125 -624h4l594 624h186l-184 -946h-201l125 625h-4l-594 -625h-186z" />
    <glyph glyph-name="uni043A" unicode="&#x43a;" horiz-adv-x="983" 
d="M999 946l-467 -452l349 -494h-246l-313 461l-89 -461h-200l182 946h201l-78 -399l393 399h268z" />
    <glyph glyph-name="uni043B" unicode="&#x43b;" horiz-adv-x="1103" 
d="M1073 946l-184 -946h-201l150 762h-389l-99 -502q-28 -138 -103 -206t-202 -68h-96l35 188h63q47 0 70 23.5t33 70.5l133 678h790z" />
    <glyph glyph-name="uni043C" unicode="&#x43c;" horiz-adv-x="1361" 
d="M-61 0l444 946h182l107 -504h4l305 504h182l76 -946h-192l-37 649h-4l-308 -499h-141l-111 499h-4l-284 -649h-219z" />
    <glyph glyph-name="uni043D" unicode="&#x43d;" horiz-adv-x="1128" 
d="M897 946h201l-185 -946h-200l78 397h-482l-78 -397h-200l184 946h201l-72 -364h481z" />
    <glyph glyph-name="uni043E" unicode="&#x43e;" horiz-adv-x="1159" 
d="M530 -31q-215 0 -342 121.5t-127 325.5q0 120 43 224t118.5 178t180.5 116.5t226 42.5q215 0 342 -121.5t127 -325.5q0 -120 -43 -224t-118.5 -178t-180.5 -116.5t-226 -42.5zM549 166q148 0 242 99t94 253q0 123 -73 192.5t-202 69.5q-148 0 -242 -99t-94 -253
q0 -123 73 -192.5t202 -69.5z" />
    <glyph glyph-name="uni043F" unicode="&#x43f;" horiz-adv-x="1130" 
d="M1100 946l-185 -946h-200l147 762h-483l-148 -762h-200l184 946h201h684z" />
    <glyph glyph-name="uni0440" unicode="&#x440;" horiz-adv-x="1198" 
d="M-47 -412l262 1358h201l-23 -115h6q131 146 316 146q187 0 303.5 -126t116.5 -329q0 -156 -67.5 -283t-186.5 -198.5t-265 -71.5q-121 0 -210.5 50.5t-135.5 144.5h-6l-110 -576h-201zM575 160q148 0 247.5 103t99.5 257q0 124 -72 195t-197 71q-148 0 -247 -103
t-99 -257q0 -124 71.5 -195t196.5 -71z" />
    <glyph glyph-name="uni0441" unicode="&#x441;" horiz-adv-x="991" 
d="M559 -31q-223 0 -357 129.5t-134 343.5q0 238 154 386.5t401 148.5q212 0 383 -123l-117 -162q-129 94 -279 94q-145 0 -237 -93.5t-92 -241.5q0 -130 78 -210.5t204 -80.5q112 0 236 65l82 -168q-157 -88 -322 -88z" />
    <glyph glyph-name="uni0442" unicode="&#x442;" horiz-adv-x="880" 
d="M961 946l-35 -184h-330l-147 -762h-201l147 762h-327l34 184h859z" />
    <glyph glyph-name="uni0443" unicode="&#x443;" horiz-adv-x="962" 
d="M817 946h227l-808 -1358h-211l309 516l-232 842h215l146 -620z" />
    <glyph glyph-name="uni0444" unicode="&#x444;" horiz-adv-x="1710" 
d="M588 -410l106 549h-4q-113 -170 -287 -170q-67 0 -125.5 26t-105 76.5t-73.5 133t-27 188.5q0 112 30.5 216t87.5 186.5t145.5 132t196.5 49.5q112 0 185.5 -51t99.5 -135h4l115 591h192l-112 -575h4q113 170 287 170q67 0 125.5 -26t105 -76.5t73.5 -133t27 -188.5
q0 -112 -30.5 -216t-87.5 -186.5t-145.5 -132t-196.5 -49.5q-112 0 -185.5 51.5t-99.5 135.5h-4l-109 -566h-192zM483 152q72 0 130 34t93 89.5t53.5 121.5t18.5 135q0 125 -58 193t-161 68q-62 0 -111 -25t-79.5 -64t-50 -91.5t-27.5 -103t-8 -101.5q0 -256 200 -256z
M1151 152q62 0 111 25t79 64.5t50 92.5t28 103.5t8 101.5q0 137 -55 195.5t-145 58.5q-72 0 -130 -34t-93 -89.5t-53.5 -121t-18.5 -134.5q0 -125 58 -193.5t161 -68.5z" />
    <glyph glyph-name="uni0445" unicode="&#x445;" horiz-adv-x="964" 
d="M1016 946l-410 -454l256 -492h-211l-178 342l-309 -342h-246l465 516l-225 430h213l145 -280l254 280h246z" />
    <glyph glyph-name="uni0446" unicode="&#x446;" horiz-adv-x="1118" 
d="M1067 946l-147 -762h110l-86 -450h-176l51 266h-588h-200l184 946h201l-148 -762h451l147 762h201z" />
    <glyph glyph-name="uni0447" unicode="&#x447;" horiz-adv-x="929" 
d="M698 946h201l-184 -946h-201l70 358h-267q-138 0 -203 49t-65 166q0 50 10 99l54 274h202l-49 -252q-8 -39 -8 -71q0 -47 24.5 -65.5t88.5 -18.5h247z" />
    <glyph glyph-name="uni0448" unicode="&#x448;" horiz-adv-x="1605" 
d="M1374 946h201l-184 -946h-201h-580h-516h-63l184 946h201l-148 -762h379l148 762h200l-147 -762h379z" />
    <glyph glyph-name="uni0449" unicode="&#x449;" horiz-adv-x="1626" 
d="M1575 946l-148 -762h111l-86 -450h-176l51 266h-516h-580h-200l184 946h201l-148 -762h379l148 762h200l-147 -762h379l147 762h201z" />
    <glyph glyph-name="uni044A" unicode="&#x44a;" horiz-adv-x="1142" 
d="M760 606q86 0 155 -27t114.5 -89t45.5 -152q0 -151 -109 -244.5t-284 -93.5h-434l147 762h-327l34 184h510h21l-66 -340h193zM696 182q78 0 122 35.5t44 99.5q0 107 -139 107h-193l-47 -242h213z" />
    <glyph glyph-name="uni044B" unicode="&#x44b;" horiz-adv-x="1316" 
d="M543 606q86 0 155 -27t114.5 -89t45.5 -152q0 -151 -109 -244.5t-284 -93.5h-434l184 946h201l-66 -340h193zM1085 946h201l-184 -946h-201zM479 182q78 0 122 35.5t44 99.5q0 107 -139 107h-193l-47 -242h213z" />
    <glyph glyph-name="uni044C" unicode="&#x44c;" horiz-adv-x="925" 
d="M543 606q86 0 155 -27t114.5 -89t45.5 -152q0 -151 -109 -244.5t-284 -93.5h-434l184 946h201l-66 -340h193zM479 182q78 0 122 35.5t44 99.5q0 107 -139 107h-193l-47 -242h213z" />
    <glyph glyph-name="uni044D" unicode="&#x44d;" horiz-adv-x="966" 
d="M434 977q213 0 336 -121t123 -334q0 -113 -36.5 -212.5t-105.5 -176t-177.5 -120.5t-243.5 -44q-185 0 -350 84l100 170q130 -65 258 -65q131 0 216.5 61.5t117.5 167.5h-369l33 172h352q-10 117 -78.5 172t-181.5 55q-119 0 -244 -47l-67 174q163 64 317 64z" />
    <glyph glyph-name="uni044E" unicode="&#x44e;" horiz-adv-x="1546" 
d="M1016 977q215 0 342 -121.5t127 -325.5q0 -160 -73.5 -288.5t-203 -200.5t-290.5 -72q-207 0 -333.5 113.5t-135.5 306.5h-142l-76 -389h-200l184 946h201l-76 -387h125q44 187 195.5 302.5t355.5 115.5zM936 166q148 0 242 99t94 253q0 123 -73 192.5t-202 69.5
q-147 0 -241 -99t-94 -253q0 -123 72.5 -192.5t201.5 -69.5z" />
    <glyph glyph-name="uni044F" unicode="&#x44f;" horiz-adv-x="999" 
d="M485 946h484l-185 -946h-200l67 342h-133l-336 -342h-254l359 356q-99 28 -152 97t-53 168q0 141 104 233t299 92zM686 522l47 244h-244q-90 0 -140 -35t-50 -102q0 -107 131 -107h256z" />
    <glyph glyph-name="uni0451" unicode="&#x451;" horiz-adv-x="1105" 
d="M625 1311l-47 -246h-185l47 246h185zM969 1311l-47 -246h-185l47 246h185zM1026 438h-768v-2q0 -274 268 -274q94 0 174.5 35.5t165.5 113.5l117 -149q-208 -191 -457 -191q-215 0 -339 120t-124 327q0 244 155.5 401.5t397.5 157.5q199 0 311.5 -106.5t112.5 -295.5
q0 -49 -14 -137zM606 807q-117 0 -201.5 -58t-121.5 -161h561v10q0 100 -62 154.5t-176 54.5z" />
    <glyph glyph-name="uni0452" unicode="&#x452;" horiz-adv-x="1118" 
d="M727 977q138 0 219.5 -78t81.5 -235q0 -69 -14 -138l-101 -526l-26 -139q-52 -277 -332 -277h-98l35 183h67q61 0 90.5 27.5t40.5 86.5l23 119l104 541q6 35 6 61q0 83 -45 132.5t-133 49.5q-111 0 -195.5 -78t-117.5 -253l-88 -453h-201l225 1157h-135l25 123h133
l31 154h200l-30 -154h317l-25 -123h-315l-70 -356h4q124 176 324 176z" />
    <glyph glyph-name="uni0453" unicode="&#x453;" horiz-adv-x="747" 
d="M975 1346l-357 -316h-157l256 316h258zM829 946l-36 -188h-414l-148 -758h-200l184 946h614z" />
    <glyph glyph-name="uni0454" unicode="&#x454;" horiz-adv-x="1001" 
d="M580 793q-122 0 -204 -59.5t-116 -155.5h402l-33 -172h-387q13 -118 93 -185t197 -67q113 0 236 71l82 -168q-155 -88 -322 -88q-223 0 -357 129.5t-134 343.5q0 151 64.5 271t192.5 192t298 72q215 0 383 -123l-117 -162q-130 101 -278 101z" />
    <glyph glyph-name="uni0455" unicode="&#x455;" horiz-adv-x="806" 
d="M76 279q152 -127 295 -127q62 0 97.5 24.5t35.5 67.5q0 56 -80 112l-133 90q-156 108 -156 265q0 122 84.5 194t226.5 72q173 0 338 -109l-98 -159q-133 86 -229 86q-54 0 -83.5 -23.5t-29.5 -66.5q0 -31 22 -59.5t74 -61.5l117 -78q83 -55 120.5 -117.5t37.5 -144.5
q0 -130 -88 -202.5t-246 -72.5q-118 0 -228 41t-190 115z" />
    <glyph glyph-name="uni0456" unicode="&#x456;" horiz-adv-x="466" 
d="M535 1413l-48 -246h-245l47 246h246zM41 0l184 946h201l-184 -946h-201z" />
    <glyph glyph-name="uni0457" unicode="&#x457;" horiz-adv-x="466" 
d="M356 1311l-47 -246h-194l47 246h194zM629 1311l-47 -246h-195l47 246h195zM41 0l184 946h201l-184 -946h-201z" />
    <glyph glyph-name="uni0458" unicode="&#x458;" horiz-adv-x="456" 
d="M535 1413l-48 -246h-245l47 246h246zM-178 -233h65q61 0 90.5 27.5t40.5 86.5l207 1065h201l-211 -1085q-29 -148 -114 -212.5t-218 -64.5h-96z" />
    <glyph glyph-name="uni0459" unicode="&#x459;" horiz-adv-x="1583" 
d="M1200 606q63 0 118.5 -16t100.5 -47.5t71 -84t26 -120.5q0 -151 -109.5 -244.5t-284.5 -93.5h-434l148 762h-387l-99 -502q-28 -138 -103 -206t-202 -68h-96l35 188h63q47 0 70 23.5t33 70.5l133 678h200h437h153l-65 -340h192zM1137 182q78 0 122 35.5t44 99.5
q0 107 -140 107h-192l-47 -242h213z" />
    <glyph glyph-name="uni045A" unicode="&#x45a;" horiz-adv-x="1628" 
d="M1255 606q130 0 218 -66t88 -198q0 -150 -112 -246t-282 -96h-454l82 422h-482l-82 -422h-200l184 946h201l-66 -340h481l66 340h201l-66 -340h223zM1182 182q73 0 119.5 38t46.5 102q0 102 -140 102h-213l-47 -242h234z" />
    <glyph glyph-name="uni045B" unicode="&#x45b;" horiz-adv-x="1118" 
d="M727 977q138 0 219.5 -78t81.5 -235q0 -69 -14 -138l-101 -526h-200l104 541q6 35 6 61q0 83 -45 132.5t-133 49.5q-111 0 -195.5 -78t-117.5 -253l-88 -453h-201l225 1157h-135l25 123h133l31 154h200l-30 -154h317l-25 -123h-315l-70 -356h4q124 176 324 176z" />
    <glyph glyph-name="uni045C" unicode="&#x45c;" horiz-adv-x="983" 
d="M1036 1346l-356 -316h-158l256 316h258zM731 946h268l-467 -452l349 -494h-246l-313 461l-89 -461h-200l182 946h201l-78 -399z" />
    <glyph glyph-name="uni045E" unicode="&#x45e;" horiz-adv-x="962" 
d="M569 1010q-105 0 -175 56.5t-70 154.5q0 32 10 84h119q-7 -28 -7 -50q0 -57 32.5 -88.5t92.5 -31.5q79 0 119.5 44t59.5 126h137q-25 -138 -106.5 -216.5t-211.5 -78.5zM817 946h227l-808 -1358h-211l309 516l-232 842h215l146 -620z" />
    <glyph glyph-name="uni045F" unicode="&#x45f;" horiz-adv-x="1089" 
d="M858 946h201l-185 -946h-333l-52 -266h-176l52 266h-334l184 946h201l-150 -762h443z" />
    <glyph glyph-name="uni0462" unicode="&#x462;" horiz-adv-x="1288" 
d="M788 862q213 0 331 -102.5t118 -290.5q0 -92 -28 -169.5t-77 -132t-116.5 -92.5t-146.5 -56.5t-167 -18.5h-559l203 1047h-215l37 188h215l39 199h213l-39 -199h467l-37 -188h-467l-35 -185h264zM700 201q145 0 224.5 70t79.5 188q0 97 -60.5 150t-173.5 53h-285
l-90 -461h305z" />
    <glyph glyph-name="uni0463" unicode="&#x463;" horiz-adv-x="966" 
d="M584 606q86 0 155 -27t114.5 -89t45.5 -152q0 -151 -109 -244.5t-284 -93.5h-434l151 782h-162l31 164h164l94 488h201l-94 -488h321l-30 -164h-324l-33 -176h193zM520 182q78 0 122 35.5t44 99.5q0 107 -139 107h-193l-47 -242h213z" />
    <glyph glyph-name="uni0472" unicode="&#x472;" horiz-adv-x="1693" 
d="M950 1464q208 0 370 -82.5t253.5 -237.5t91.5 -360q0 -168 -60 -317.5t-166 -259.5t-262 -174t-339 -64q-208 0 -370 82.5t-253.5 237.5t-91.5 360q0 168 60 317.5t166 259.5t262 174t339 64zM942 1251q-233 0 -383 -130.5t-192 -338.5h1069v15q0 138 -67 243t-178.5 158
t-248.5 53zM846 182q233 0 383 130.5t192 338.5h-1069v-14q0 -139 67 -243.5t178.5 -158t248.5 -53.5z" />
    <glyph glyph-name="uni0473" unicode="&#x473;" horiz-adv-x="1159" 
d="M629 977q209 0 339 -118.5t130 -328.5q0 -154 -69.5 -281t-200.5 -203.5t-298 -76.5q-209 0 -339 118.5t-130 328.5q0 154 69.5 281t200.5 203.5t298 76.5zM610 780q-135 0 -217.5 -69t-113.5 -176h616q-6 120 -83.5 182.5t-201.5 62.5zM549 166q135 0 218 69.5
t114 176.5h-617q6 -120 84 -183t201 -63z" />
    <glyph glyph-name="uni0474" unicode="&#x474;" horiz-adv-x="1335" 
d="M1200 1073l-579 -1073h-197l-227 1434h227l141 -1104h4l389 757q44 87 75 139t71.5 103t81.5 77t96.5 42t126.5 16q54 0 107 -6l-37 -194q-31 2 -76 2q-57 0 -98.5 -39t-104.5 -154z" />
    <glyph glyph-name="uni0475" unicode="&#x475;" horiz-adv-x="987" 
d="M1059 965h14l-39 -197h-14q-50 0 -82.5 -23.5t-65.5 -80.5l-387 -664h-188l-195 946h209l109 -708l295 542q60 105 134.5 145t209.5 40z" />
    <glyph glyph-name="uni048E" unicode="&#x48e;" horiz-adv-x="1120" 
d="M1190 1040q0 -135 -67 -242.5t-193 -166.5l123 -174l-76 -56l-137 195q-105 -31 -230 -31h-235l-111 -565h-213l279 1434h420q211 0 325.5 -111.5t114.5 -282.5zM815 795q146 65 146 233q0 103 -63 154t-169 51h-225l-90 -467h250q19 0 55 4l-127 178l76 56z" />
    <glyph glyph-name="uni048F" unicode="&#x48f;" horiz-adv-x="1198" 
d="M1135 522q0 -153 -65 -277t-177 -196l98 -135l-78 -55l-106 145q-90 -35 -191 -35q-121 0 -210.5 50.5t-135.5 144.5h-6l-110 -576h-201l262 1358h201l-23 -115h6q131 146 316 146q187 0 303.5 -126t116.5 -329zM575 160q54 0 107 16l-102 139l77 56l111 -154
q72 48 113 128t41 175q0 124 -72 195t-197 71q-148 0 -247 -103t-99 -257q0 -124 71.5 -195t196.5 -71z" />
    <glyph glyph-name="uni0490" unicode="&#x490;" horiz-adv-x="993" 
d="M51 0l279 1434h616l55 286h213l-94 -491h-616l-240 -1229h-213z" />
    <glyph glyph-name="uni0491" unicode="&#x491;" horiz-adv-x="770" 
d="M711 1233h196l-92 -475h-436l-148 -758h-200l184 946h440z" />
    <glyph glyph-name="uni0492" unicode="&#x492;" horiz-adv-x="1050" 
d="M1178 1229h-596l-80 -406h379l-37 -188h-379l-123 -635h-213l123 635h-201l37 188h201l119 611h809z" />
    <glyph glyph-name="uni0493" unicode="&#x493;" horiz-adv-x="808" 
d="M854 758h-414l-39 -205h277l-37 -188h-276l-72 -365h-201l72 365h-154l37 188h154l75 393h615z" />
    <glyph glyph-name="uni0494" unicode="&#x494;" horiz-adv-x="1234" 
d="M803 829q189 0 289 -70t100 -224q0 -77 -16 -156l-78 -402q-37 -191 -136.5 -289t-254.5 -98h-191l39 201h133q156 0 195 195l78 393q10 62 10 96q0 83 -58.5 118.5t-179.5 35.5q-136 0 -350 -19l-119 -610h-213l279 1434h809l-39 -205h-596l-82 -418q272 18 381 18z" />
    <glyph glyph-name="uni0495" unicode="&#x495;" horiz-adv-x="974" 
d="M594 516q295 0 295 -223q0 -53 -12 -117l-50 -254q-33 -168 -121.5 -250t-248.5 -82h-166l37 189h110q79 0 126 33.5t63 115.5l35 181q20 102 20 137q0 48 -36 73t-122 25q-45 0 -227 -10l-66 -334h-200l184 946h696l-37 -188h-495l-49 -252q147 10 264 10z" />
    <glyph glyph-name="uni0496" unicode="&#x496;" horiz-adv-x="2074" 
d="M1417 735l398 -592h165l-84 -430h-196l55 287h-121l-460 731l-142 -731h-209l142 733l-736 -733h-311l819 784l-407 650h272l373 -658l127 658h209l-129 -660l624 660h297z" />
    <glyph glyph-name="uni0497" unicode="&#x497;" horiz-adv-x="1554" 
d="M1073 498l248 -373h135l-76 -391h-176l51 266h-96l-307 477l-92 -477h-197l92 475l-465 -475h-272l533 526l-308 420h246l277 -416l82 416h196l-80 -414l404 414h280z" />
    <glyph glyph-name="uni0498" unicode="&#x498;" horiz-adv-x="1171" 
d="M784 762q128 -19 205.5 -110.5t77.5 -241.5q0 -206 -136 -323.5t-399 -117.5h-8l-26 -41q66 -25 102.5 -56t36.5 -85q0 -30 -17.5 -58t-40 -47.5t-64.5 -42t-69 -34.5t-75 -32q-12 -5 -17 -7l-30 61q41 21 60 31t45.5 27t37 32t10.5 31q0 46 -117 78l89 145
q-262 20 -447 148l129 194q205 -131 404 -131q65 0 119.5 12.5t99 38.5t69.5 72.5t25 108.5q0 235 -371 235h-100l39 205h98q182 0 291.5 60t109.5 171q0 166 -245 166q-183 0 -359 -94l-90 191q238 116 473 116q216 0 335.5 -92t119.5 -258q0 -284 -365 -348v-4z" />
    <glyph glyph-name="uni0499" unicode="&#x499;" horiz-adv-x="948" 
d="M635 504q103 -9 156 -64.5t53 -152.5q0 -149 -113 -233t-317 -85l-27 -41q66 -25 102.5 -56t36.5 -85q0 -30 -17 -58t-41.5 -48.5t-63 -41.5t-70 -35t-75.5 -32q-3 -1 -5 -2t-5 -2t-5 -2l-31 61q29 15 40.5 20.5t35 18.5t33.5 20.5t22.5 18.5t17.5 21.5t5 21.5
q0 46 -117 78l88 145q-225 12 -385 97l88 168q180 -82 373 -82q239 0 239 139q0 65 -35 91t-122 26h-226l35 174h227q75 0 109.5 26t34.5 84q0 99 -168 99q-150 0 -328 -41l-51 178q192 47 377 47q189 0 286 -61t97 -181q0 -88 -70 -150.5t-182 -74.5z" />
    <glyph glyph-name="uni049A" unicode="&#x49a;" horiz-adv-x="1378" 
d="M637 743l453 -600h194l-84 -430h-196l55 287h-137l-519 721l-139 -721h-213l279 1434h213l-125 -641l682 641h307z" />
    <glyph glyph-name="uni049B" unicode="&#x49b;" horiz-adv-x="1040" 
d="M532 494l261 -369h139l-76 -391h-176l51 266h-96l-313 461l-89 -461h-200l182 946h201l-78 -399l393 399h268z" />
    <glyph glyph-name="uni049C" unicode="&#x49c;" horiz-adv-x="1443" 
d="M1550 1434l-686 -691l477 -743h-276l-393 668h-64l-51 -258h-102l51 258h-113l-129 -668h-213l279 1434h213l-111 -570h111l61 314h103l-62 -314h76l522 570h307z" />
    <glyph glyph-name="uni049D" unicode="&#x49d;" horiz-adv-x="1064" 
d="M1102 946l-432 -454l293 -492h-234l-248 428h-41l-45 -227h-57l45 227h-68l-84 -428h-200l184 946h201l-70 -354h68l43 221h57l-43 -221h47l311 354h273z" />
    <glyph glyph-name="uni049E" unicode="&#x49e;" horiz-adv-x="1425" 
d="M1532 1434l-770 -691l561 -743h-276l-519 721l-139 -721h-213l223 1145h-247l24 131h248l31 158h213l-31 -158h227l-24 -131h-228l-69 -352l682 641h307z" />
    <glyph glyph-name="uni049F" unicode="&#x49f;" horiz-adv-x="993" 
d="M1010 946l-467 -452l348 -494h-246l-311 461l-90 -461h-201l225 1157h-135l25 123h133l31 154h200l-30 -154h317l-25 -123h-315l-119 -610l391 399h269z" />
    <glyph glyph-name="uni04A0" unicode="&#x4a0;" horiz-adv-x="1589" 
d="M1696 1434l-770 -691l561 -743h-277l-518 721l-139 -721h-213l240 1233h-412l39 201h624l-124 -641l682 641h307z" />
    <glyph glyph-name="uni04A1" unicode="&#x4a1;" horiz-adv-x="1198" 
d="M1214 946l-466 -452l348 -494h-246l-313 461l-88 -461h-201l145 758h-327l36 188h400h129l-78 -399l393 399h268z" />
    <glyph glyph-name="uni04A2" unicode="&#x4a2;" horiz-adv-x="1472" 
d="M1509 1434l-249 -1291h118l-84 -430h-196l55 287h-135l127 651h-754l-127 -651h-213l279 1434h213l-113 -578h754l112 578h213z" />
    <glyph glyph-name="uni04A3" unicode="&#x4a3;" horiz-adv-x="1153" 
d="M1098 946l-160 -821h117l-76 -391h-176l51 266h-141l78 397h-482l-78 -397h-200l184 946h201l-72 -364h481l72 364h201z" />
    <glyph glyph-name="uni04A4" unicode="&#x4a4;" horiz-adv-x="1888" 
d="M2054 1434l-37 -195h-544l-242 -1239h-213l127 651h-754l-127 -651h-213l279 1434h213l-113 -578h754l112 578h758z" />
    <glyph glyph-name="uni04A5" unicode="&#x4a5;" horiz-adv-x="1388" 
d="M1470 946l-36 -188h-373l-148 -758h-200l78 397h-482l-78 -397h-200l184 946h201l-72 -364h481l72 364h573z" />
    <glyph glyph-name="uni04A6" unicode="&#x4a6;" horiz-adv-x="2160" 
d="M1737 870q202 0 300.5 -58.5t98.5 -203.5q0 -40 -10 -102l-33 -170q-29 -150 -142 -243t-286 -93h-182l39 201h118q102 0 163.5 41.5t84.5 150.5l15 66q12 69 12 90q0 65 -57 93t-195 28q-90 0 -354 -19l-127 -651h-217l239 1233h-696l-240 -1233h-217l279 1434h1130
l-112 -582q272 18 389 18z" />
    <glyph glyph-name="uni04A7" unicode="&#x4a7;" horiz-adv-x="1646" 
d="M1294 557q295 0 295 -223q0 -65 -12 -117l-66 -295q-34 -169 -122 -250.5t-248 -81.5h-166l37 189h110q78 0 124 33t65 116l51 222q20 82 20 137q0 48 -36 73t-121 25q-51 0 -236 -10l-74 -375h-200l147 762h-483l-148 -762h-200l184 946h201h639h45l-78 -399
q220 10 272 10z" />
    <glyph glyph-name="uni04A8" unicode="&#x4a8;" horiz-adv-x="1667" 
d="M1552 43q-103 -41 -172.5 -57.5t-142.5 -16.5q-148 0 -236 56q-101 -56 -262 -56q-281 0 -438.5 175.5t-157.5 488.5q0 249 101 437.5t286.5 291t430.5 102.5q170 0 323 -49l-98 -198q-99 30 -230 30q-264 0 -420.5 -166.5t-156.5 -447.5q0 -233 104 -358t299 -125
q22 0 68 4q-129 141 -129 385q0 242 128.5 394t332.5 152q169 0 265.5 -104.5t96.5 -286.5q0 -168 -80.5 -308t-230.5 -234q10 -2 35 -2q105 0 235 65zM938 539q0 -207 123 -314q124 70 199 192.5t75 262.5q0 192 -161 192q-109 0 -172.5 -89.5t-63.5 -243.5z" />
    <glyph glyph-name="uni04A9" unicode="&#x4a9;" horiz-adv-x="1196" 
d="M1051 147l47 -124q-131 -54 -230 -54q-114 0 -178 45q-82 -45 -207 -45q-195 0 -307.5 121t-112.5 328q0 258 159 408.5t433 150.5q149 0 250 -39l-78 -174q-108 27 -170 27q-178 0 -282.5 -102t-104.5 -275q0 -126 60 -198.5t174 -84.5q-62 87 -62 209q0 159 99 258.5
t256 99.5q132 0 206 -67.5t74 -186.5q0 -94 -48 -181.5t-132 -151.5q92 3 154 36zM788 541q-75 0 -120 -57.5t-45 -151.5q0 -119 82 -176q92 34 146 102t54 152q0 62 -31 96.5t-86 34.5z" />
    <glyph glyph-name="uni04AA" unicode="&#x4aa;" horiz-adv-x="1402" 
d="M944 1249q-138 0 -251.5 -48.5t-187 -131.5t-113.5 -190.5t-40 -227.5q0 -219 124 -343t337 -124q104 0 186.5 29.5t167.5 85.5l115 -180q-220 -150 -483 -150q-36 0 -54 2l-26 -43q66 -25 102.5 -56t36.5 -85q0 -30 -17.5 -58t-40 -47.5t-64.5 -42t-69 -34.5t-75 -32
q-4 -2 -6 -2.5t-5 -2t-6 -2.5l-30 61q41 21 60 31t45.5 27t37 32t10.5 31q0 46 -116 78l92 151q-256 38 -403.5 218t-147.5 456q0 166 58 313.5t163 258.5t263.5 176t348.5 65q291 0 500 -159l-133 -181q-55 37 -98 59.5t-120 44t-161 21.5z" />
    <glyph glyph-name="uni04AB" unicode="&#x4ab;" horiz-adv-x="991" 
d="M610 786q-145 0 -237 -93.5t-92 -241.5q0 -130 78 -210.5t204 -80.5q112 0 236 65l82 -168q-153 -88 -318 -88l-26 -41q66 -25 102.5 -56t36.5 -85q0 -30 -17.5 -58t-40 -47.5t-64.5 -42t-69 -34.5t-75 -32q-12 -5 -17 -7l-31 61q29 15 40.5 20.5t35 18.5t33.5 20.5
t22.5 18.5t17.5 21.5t5 21.5q0 46 -117 78l88 147q-192 20 -305.5 146.5t-113.5 322.5q0 238 154 386.5t401 148.5q212 0 383 -123l-117 -162q-129 94 -279 94z" />
    <glyph glyph-name="uni04AC" unicode="&#x4ac;" horiz-adv-x="1060" 
d="M1188 1233h-404l-211 -1090h119l-84 -430h-196l55 287h-135l239 1233h-403l39 201h1020z" />
    <glyph glyph-name="uni04AD" unicode="&#x4ad;" horiz-adv-x="880" 
d="M926 762h-330l-123 -637h117l-76 -391h-176l51 266h-141l147 762h-327l34 184h859z" />
    <glyph glyph-name="uni04AE" unicode="&#x4ae;" horiz-adv-x="1132" 
d="M1309 1434l-617 -861l-112 -573h-213l112 571l-282 863h233l176 -654h4l437 654h262z" />
    <glyph glyph-name="uni04AF" unicode="&#x4af;" horiz-adv-x="966" 
d="M1049 946l-555 -936l-82 -420h-201l82 420l-191 936h211l111 -704l385 704h240z" />
    <glyph glyph-name="uni04B0" unicode="&#x4b0;" horiz-adv-x="1112" 
d="M1298 1434l-602 -838h332l-33 -176h-344l-82 -420h-213l82 418h-336l31 176h328l-275 840h234l176 -654h4l436 654h262z" />
    <glyph glyph-name="uni04B1" unicode="&#x4b1;" horiz-adv-x="966" 
d="M1049 946l-531 -895h236l-33 -174h-254l-55 -287h-201l55 287h-254l33 174h240l-183 895h211l111 -704l385 704h240z" />
    <glyph glyph-name="uni04B2" unicode="&#x4b2;" horiz-adv-x="1337" 
d="M819 741l273 -598h151l-84 -430h-196l55 287h-84l-264 571l-480 -571h-262l641 764l-307 670h225l232 -502l422 502h258z" />
    <glyph glyph-name="uni04B3" unicode="&#x4b3;" horiz-adv-x="1048" 
d="M606 492l191 -367h153l-76 -391h-176l52 266h-99l-178 342l-309 -342h-246l465 516l-225 430h213l145 -280l254 280h246z" />
    <glyph glyph-name="uni04B4" unicode="&#x4b4;" horiz-adv-x="1705" 
d="M1688 1434l-240 -1233h143l-94 -488h-197l56 287h-1016l240 1233h-412l39 201h629h325l-39 -201h-325l-201 -1032h635l239 1233h218z" />
    <glyph glyph-name="uni04B5" unicode="&#x4b5;" horiz-adv-x="1349" 
d="M1298 946l-147 -762h111l-86 -450h-177l52 266h-588h-201l148 758h-344l36 188h545h258l-37 -188h-258l-110 -574h450l148 762h200z" />
    <glyph glyph-name="uni04B6" unicode="&#x4b6;" horiz-adv-x="1243" 
d="M1239 1434l-250 -1291h160l-84 -430h-197l56 287h-176l112 584h-381q-352 0 -352 282q0 50 12 111l90 457h213l-90 -461q-6 -30 -6 -58q0 -68 44 -99.5t140 -31.5h369l127 650h213z" />
    <glyph glyph-name="uni04B7" unicode="&#x4b7;" horiz-adv-x="976" 
d="M899 946l-160 -821h140l-76 -391h-176l51 266h-164l70 358h-267q-138 0 -203 49t-65 166q0 50 10 99l54 274h202l-49 -252q-8 -39 -8 -71q0 -47 24.5 -65.5t88.5 -18.5h247l80 407h201z" />
    <glyph glyph-name="uni04B8" unicode="&#x4b8;" horiz-adv-x="1196" 
d="M1026 1434h213l-278 -1434h-213l112 584h-203l-53 -279h-102l53 279h-76q-352 0 -352 282q0 50 12 111l90 457h213l-90 -461q-6 -30 -6 -58q0 -68 44 -99.5t140 -31.5h66l55 289h103l-56 -289h201z" />
    <glyph glyph-name="uni04B9" unicode="&#x4b9;" horiz-adv-x="929" 
d="M698 946h201l-184 -946h-201l70 358h-156l-33 -170h-61l33 170h-50q-138 0 -203 49t-65 166q0 50 10 99l54 274h202l-49 -252q-8 -39 -8 -71q0 -47 24.5 -65.5t88.5 -18.5h30l39 200h62l-39 -200h155z" />
    <glyph glyph-name="uni04BA" unicode="&#x4ba;" horiz-adv-x="1196" 
d="M811 850q352 0 352 -283q0 -49 -12 -110l-90 -457h-213l90 461q6 30 6 57q0 68 -44 99.5t-140 31.5h-369l-127 -649h-213l279 1434h213l-113 -584h381z" />
    <glyph glyph-name="uni04BB" unicode="&#x4bb;" horiz-adv-x="1116" 
d="M41 0l278 1434h201l-123 -633h4q124 176 324 176q138 0 219.5 -78t81.5 -235q0 -69 -14 -138l-101 -526h-200l104 541q6 35 6 61q0 83 -45 132.5t-133 49.5q-111 0 -195.5 -78t-117.5 -253l-88 -453h-201z" />
    <glyph glyph-name="uni04BC" unicode="&#x4bc;" horiz-adv-x="1900" 
d="M1247 1464q296 0 472.5 -153.5t176.5 -419.5q0 -95 -41 -266h-223h-983q3 -145 64 -246t165 -149t244 -48q278 0 486 201l131 -164q-135 -126 -284.5 -188t-334.5 -62q-152 0 -279.5 42t-222 122.5t-148 205.5t-54.5 284h-21q-135 0 -219 63t-84 174q0 99 60 199h196
q-41 -96 -41 -139q0 -91 103 -91h26q30 133 97 247t167.5 201.5t241 137t305.5 49.5zM676 829h991q2 18 2 50q0 178 -113.5 275t-312.5 97q-223 0 -368.5 -117.5t-198.5 -304.5z" />
    <glyph glyph-name="uni04BD" unicode="&#x4bd;" horiz-adv-x="1302" 
d="M1223 438h-768v-2q0 -274 268 -274q94 0 174.5 35.5t165.5 113.5l117 -149q-208 -191 -457 -191q-215 0 -339 120t-124 327v22h-41q-178 0 -178 164q0 29 10 74h142q-7 -28 -7 -47q0 -45 54 -45h43q50 178 192.5 284.5t337.5 106.5q199 0 311.5 -106.5t112.5 -295.5
q0 -49 -14 -137zM803 807q-117 0 -202 -58.5t-122 -160.5h561v10q0 100 -61.5 154.5t-175.5 54.5z" />
    <glyph glyph-name="uni04BE" unicode="&#x4be;" horiz-adv-x="1900" 
d="M1247 1464q296 0 472.5 -153.5t176.5 -419.5q0 -95 -41 -266h-223h-983q3 -145 64 -246t165 -149t244 -48q278 0 486 201l131 -164q-149 -140 -312 -199q-92 -77 -139 -136t-47 -93q0 -39 51 -39q24 0 82 12v-126q-64 -21 -127 -21q-76 0 -122 32.5t-46 92.5
q0 110 156 233q-55 -6 -115 -6q-152 0 -279.5 42t-222 122.5t-148 205.5t-54.5 284h-21q-135 0 -219 63t-84 174q0 99 60 199h196q-41 -96 -41 -139q0 -91 103 -91h26q30 133 97 247t167.5 201.5t241 137t305.5 49.5zM676 829h991q2 18 2 50q0 178 -113.5 275t-312.5 97
q-223 0 -368.5 -117.5t-198.5 -304.5z" />
    <glyph glyph-name="uni04BF" unicode="&#x4bf;" horiz-adv-x="1302" 
d="M1223 438h-768v-2q0 -274 268 -274q94 0 174.5 35.5t165.5 113.5l117 -149q-110 -101 -228 -148q-178 -153 -178 -223q0 -39 51 -39q24 0 82 12v-126q-64 -21 -127 -21q-76 0 -122 32.5t-46 92.5q0 109 152 231q-14 -2 -41 -2q-215 0 -339 120t-124 327v22h-41
q-178 0 -178 164q0 29 10 74h142q-7 -28 -7 -47q0 -45 54 -45h43q50 178 192.5 284.5t337.5 106.5q199 0 311.5 -106.5t112.5 -295.5q0 -49 -14 -137zM803 807q-117 0 -202 -58.5t-122 -160.5h561v10q0 100 -61.5 154.5t-175.5 54.5z" />
    <glyph glyph-name="uni04C0" unicode="&#x4c0;" horiz-adv-x="505" 
d="M51 0l281 1434h217l-281 -1434h-217z" />
    <glyph glyph-name="uni04C1" unicode="&#x4c1;" horiz-adv-x="2013" 
d="M1219 1481q-120 0 -183 56.5t-63 160.5q0 32 6 69h133q-8 -39 -8 -61q0 -107 125 -107q78 0 114.5 43t51.5 125h137q-29 -148 -106 -217t-207 -69zM2103 1434l-686 -699l494 -735h-277l-460 731l-142 -731h-209l142 733l-736 -733h-311l819 784l-407 650h272l373 -658
l127 658h209l-129 -660l624 660h297z" />
    <glyph glyph-name="uni04C2" unicode="&#x4c2;" horiz-adv-x="1507" 
d="M862 1010q-105 0 -175.5 56.5t-70.5 154.5q0 27 11 84h118q-6 -24 -6 -50q0 -57 32.5 -88.5t92.5 -31.5q79 0 119 44t59 126h138q-25 -138 -106.5 -216.5t-211.5 -78.5zM1548 946l-475 -448l332 -498h-246l-307 477l-92 -477h-197l92 475l-465 -475h-272l533 526
l-308 420h246l277 -416l82 416h196l-80 -414l404 414h280z" />
    <glyph glyph-name="uni04C3" unicode="&#x4c3;" horiz-adv-x="1241" 
d="M834 784q184 0 273 -61.5t89 -208.5q0 -68 -14 -139l-78 -398q-37 -192 -135 -289.5t-252 -97.5h-191l39 201h133q156 0 195 195l70 360q10 52 10 84q0 82 -49 118t-152 36q-133 0 -397 -19l-111 -565h-213l279 1434h213l-127 -658l651 658h299l-694 -658q68 8 162 8z
" />
    <glyph glyph-name="uni04C4" unicode="&#x4c4;" horiz-adv-x="964" 
d="M608 530q285 0 285 -221q0 -51 -12 -112l-54 -275q-30 -168 -119.5 -250t-250.5 -82h-166l37 189h110q79 0 126 33.5t63 115.5l47 246q8 39 8 76q0 64 -34.5 90.5t-117.5 26.5q-35 0 -229 -11l-70 -356h-200l184 946h201l-78 -403l416 403h264l-471 -418q23 2 61 2z" />
    <glyph glyph-name="uni04C5" unicode="&#x4c5;" horiz-adv-x="1480" 
d="M1524 1434l-252 -1299h153l-249 -401h-170l155 266h-129l240 1229h-656l-182 -942q-31 -159 -119.5 -228t-240.5 -69h-133l36 207h84q70 0 109.5 30.5t58.5 114.5l213 1092h213h869z" />
    <glyph glyph-name="uni04C6" unicode="&#x4c6;" horiz-adv-x="1124" 
d="M1073 946l-158 -811h154l-250 -401h-170l156 266h-117l150 762h-389l-99 -502q-28 -138 -103 -206t-202 -68h-96l35 188h63q47 0 70 23.5t33 70.5l133 678h200h590z" />
    <glyph glyph-name="uni04C7" unicode="&#x4c7;" horiz-adv-x="1472" 
d="M1296 1434h220l-302 -1545q-29 -153 -111 -226.5t-222 -72.5l-162 2l41 203h119q53 0 79.5 22t38.5 81l148 759h-750l-127 -657h-217l279 1434h217l-113 -576h750z" />
    <glyph glyph-name="uni04C8" unicode="&#x4c8;" horiz-adv-x="1128" 
d="M897 946h201l-185 -946l-26 -139q-52 -277 -332 -277h-98l35 183h67q61 0 90.5 27.5t40.5 86.5l23 119l78 397h-482l-78 -397h-200l184 946h201l-72 -364h481z" />
    <glyph glyph-name="uni04C9" unicode="&#x4c9;" horiz-adv-x="1466" 
d="M1509 1434l-252 -1299h154l-250 -401h-170l156 266h-129l127 651h-754l-127 -651h-213l279 1434h213l-113 -578h754l112 578h213z" />
    <glyph glyph-name="uni04CA" unicode="&#x4ca;" horiz-adv-x="1144" 
d="M1098 946l-158 -811h150l-250 -401h-170l155 266h-112l78 397h-482l-78 -397h-200l184 946h201l-72 -364h481l72 364h201z" />
    <glyph glyph-name="uni04CB" unicode="&#x4cb;" horiz-adv-x="1196" 
d="M1239 1434l-278 -1434h-152l-55 -287h-197l84 430h135l84 441h-381q-352 0 -352 282q0 50 12 111l90 457h213l-90 -461q-6 -30 -6 -58q0 -68 44 -99.5t140 -31.5h369l127 650h213z" />
    <glyph glyph-name="uni04CC" unicode="&#x4cc;" horiz-adv-x="929" 
d="M899 946l-184 -946h-154l-51 -266h-176l76 391h129l45 233h-267q-138 0 -203 49t-65 166q0 50 10 99l54 274h202l-49 -252q-8 -39 -8 -71q0 -47 24.5 -65.5t88.5 -18.5h247l80 407h201z" />
    <glyph glyph-name="uni04CD" unicode="&#x4cd;" horiz-adv-x="1896" 
d="M1692 135h149l-250 -401h-170l156 266h-88l-76 1042h-4l-479 -819h-176l-193 811h-4l-393 -1034h-246l578 1434h184l199 -914h4l522 914h184z" />
    <glyph glyph-name="uni04CE" unicode="&#x4ce;" horiz-adv-x="1441" 
d="M1229 135h157l-249 -401h-170l155 266h-75l-37 649h-4l-308 -499h-141l-111 499h-4l-284 -649h-219l444 946h182l107 -504h4l305 504h182z" />
    <glyph glyph-name="uni04CF" unicode="&#x4cf;" horiz-adv-x="466" 
d="M41 0l184 946h201l-184 -946h-201z" />
    <glyph glyph-name="uni04D0" unicode="&#x4d0;" horiz-adv-x="1392" 
d="M889 1481q-120 0 -183 56.5t-63 160.5q0 32 6 69h133q-8 -39 -8 -61q0 -107 125 -107q78 0 114.5 43t51.5 125h137q-29 -148 -106 -217t-207 -69zM1077 0l-69 358h-637l-205 -358h-248l848 1434h221l303 -1434h-213zM481 553h488l-125 633z" />
    <glyph glyph-name="uni04D1" unicode="&#x4d1;" horiz-adv-x="1200" 
d="M983 1305q-26 -138 -106.5 -216.5t-210.5 -78.5q-105 0 -175.5 56.5t-70.5 154.5q0 32 10 84h119q-6 -24 -6 -50q0 -57 32.5 -88.5t92.5 -31.5q79 0 119 44t59 126h137zM487 -31q-186 0 -303.5 129.5t-117.5 333.5q0 235 146.5 390t367.5 155q125 0 216 -52t134 -147h6
l31 168h200l-182 -946h-201l27 131h-6q-131 -162 -318 -162zM557 160q146 0 241 97.5t95 246.5q0 129 -75.5 205.5t-203.5 76.5q-145 0 -240 -100t-95 -252q0 -126 74.5 -200t203.5 -74z" />
    <glyph glyph-name="uni04D2" unicode="&#x4d2;" horiz-adv-x="1392" 
d="M831 1735l-40 -213h-218l41 213h217zM1241 1735l-41 -213h-217l41 213h217zM1077 0l-69 358h-637l-205 -358h-248l848 1434h221l303 -1434h-213zM481 553h488l-125 633z" />
    <glyph glyph-name="uni04D3" unicode="&#x4d3;" horiz-adv-x="1200" 
d="M639 1311l-47 -246h-184l47 246h184zM983 1311l-47 -246h-184l47 246h184zM487 -31q-186 0 -303.5 129.5t-117.5 333.5q0 235 146.5 390t367.5 155q125 0 216 -52t134 -147h6l31 168h200l-182 -946h-201l27 131h-6q-131 -162 -318 -162zM557 160q146 0 241 97.5t95 246.5
q0 129 -75.5 205.5t-203.5 76.5q-145 0 -240 -100t-95 -252q0 -126 74.5 -200t203.5 -74z" />
    <glyph glyph-name="uni04D4" unicode="&#x4d4;" horiz-adv-x="1921" 
d="M1966 1233h-553l-65 -340h503l-39 -201h-503l-97 -491h564l-39 -201h-650h-122l69 356h-542l-295 -356h-279l1210 1434h324h553zM653 553h418l129 659z" />
    <glyph glyph-name="uni04D5" unicode="&#x4d5;" horiz-adv-x="1708" 
d="M381 -31q-165 0 -268 82.5t-103 231.5q0 71 25.5 133.5t73.5 110.5t124 76t170 28q200 0 302 -121h2q28 92 28 156q0 61 -49.5 96t-144.5 35q-149 0 -324 -49l-39 174q202 55 381 55q277 0 313 -178h5q58 84 156.5 131t223.5 47q172 0 275.5 -99.5t103.5 -281.5
q0 -56 -18 -158h-727q-4 -24 -4 -43q0 -30 6.5 -59.5t24.5 -62t45.5 -56.5t74.5 -39.5t107 -15.5q56 0 105.5 12.5t90.5 36.5t67 44t58 50l121 -139q-76 -82 -190 -139.5t-252 -57.5q-140 0 -237 62.5t-126 158.5h-4q-134 -221 -397 -221zM930 586h495q2 10 2 30
q0 84 -53.5 132.5t-154.5 48.5q-106 0 -180.5 -55.5t-108.5 -155.5zM424 141q115 0 180.5 54.5t65.5 128.5q0 70 -57 104.5t-152 34.5q-113 0 -179.5 -47t-66.5 -125q0 -74 57.5 -112t151.5 -38z" />
    <glyph glyph-name="uni04D6" unicode="&#x4d6;" horiz-adv-x="1060" 
d="M758 1481q-120 0 -183 56.5t-63 160.5q0 32 6 69h133q-8 -39 -8 -61q0 -107 125 -107q78 0 114.5 43t51.5 125h137q-29 -148 -106 -217t-207 -69zM1108 1233h-602l-68 -340h555l-37 -201h-557l-96 -491h612l-38 -201h-826l281 1434h815z" />
    <glyph glyph-name="uni04D7" unicode="&#x4d7;" horiz-adv-x="1105" 
d="M651 1010q-105 0 -175 56.5t-70 154.5q0 32 10 84h119q-7 -28 -7 -50q0 -57 32.5 -88.5t92.5 -31.5q79 0 119 44t59 126h138q-25 -138 -106.5 -216.5t-211.5 -78.5zM1026 438h-768v-2q0 -274 268 -274q94 0 174.5 35.5t165.5 113.5l117 -149q-208 -191 -457 -191
q-215 0 -339 120t-124 327q0 244 155.5 401.5t397.5 157.5q199 0 311.5 -106.5t112.5 -295.5q0 -49 -14 -137zM606 807q-117 0 -201.5 -58t-121.5 -161h561v10q0 100 -62 154.5t-176 54.5z" />
    <glyph glyph-name="uni04D8" unicode="&#x4d8;" horiz-adv-x="1609" 
d="M889 1464q151 0 275 -39t219 -117t147.5 -205.5t52.5 -295.5q0 -108 -22 -210t-65.5 -196.5t-113.5 -172.5t-159.5 -136t-210 -90.5t-260.5 -32.5q-308 0 -480 153t-172 425q0 85 37 262h228h987q-3 226 -127.5 334t-335.5 108q-224 0 -475 -133l-95 201q288 145 570 145
zM762 182q124 0 224 34t167 94t110.5 133t65.5 161h-999q-2 -14 -2 -43q0 -181 109 -280t325 -99z" />
    <glyph glyph-name="uni04D9" unicode="&#x4d9;" horiz-adv-x="1105" 
d="M580 975q215 0 338.5 -120t123.5 -327q0 -244 -155.5 -401.5t-397.5 -157.5q-199 0 -311 106.5t-112 295.5q0 49 14 137h768v2q0 274 -268 274q-94 0 -174.5 -35.5t-165.5 -113.5l-117 149q208 191 457 191zM500 139q117 0 201.5 58t121.5 161h-561v-10q0 -100 62 -154.5
t176 -54.5z" />
    <glyph glyph-name="uni04DA" unicode="&#x4da;" horiz-adv-x="1609" 
d="M870 1735l-41 -213h-217l41 213h217zM1280 1735l-41 -213h-217l41 213h217zM889 1464q151 0 275 -39t219 -117t147.5 -205.5t52.5 -295.5q0 -108 -22 -210t-65.5 -196.5t-113.5 -172.5t-159.5 -136t-210 -90.5t-260.5 -32.5q-308 0 -480 153t-172 425q0 85 37 262h228
h987q-3 226 -127.5 334t-335.5 108q-224 0 -475 -133l-95 201q288 145 570 145zM762 182q124 0 224 34t167 94t110.5 133t65.5 161h-999q-2 -14 -2 -43q0 -181 109 -280t325 -99z" />
    <glyph glyph-name="uni04DB" unicode="&#x4db;" horiz-adv-x="1105" 
d="M610 1311l-47 -246h-184l47 246h184zM954 1311l-47 -246h-184l47 246h184zM580 975q215 0 338.5 -120t123.5 -327q0 -244 -155.5 -401.5t-397.5 -157.5q-199 0 -311 106.5t-112 295.5q0 49 14 137h768v2q0 274 -268 274q-94 0 -174.5 -35.5t-165.5 -113.5l-117 149
q208 191 457 191zM500 139q117 0 201.5 58t121.5 161h-561v-10q0 -100 62 -154.5t176 -54.5z" />
    <glyph glyph-name="uni04DC" unicode="&#x4dc;" horiz-adv-x="2013" 
d="M1161 1735l-41 -213h-217l41 213h217zM1571 1735l-41 -213h-217l41 213h217zM2103 1434l-686 -699l494 -735h-277l-460 731l-142 -731h-209l142 733l-736 -733h-311l819 784l-407 650h272l373 -658l127 658h209l-129 -660l624 660h297z" />
    <glyph glyph-name="uni04DD" unicode="&#x4dd;" horiz-adv-x="1507" 
d="M836 1311l-48 -246h-184l47 246h185zM1180 1311l-47 -246h-185l47 246h185zM1548 946l-475 -448l332 -498h-246l-307 477l-92 -477h-197l92 475l-465 -475h-272l533 526l-308 420h246l277 -416l82 416h196l-80 -414l404 414h280z" />
    <glyph glyph-name="uni04DE" unicode="&#x4de;" horiz-adv-x="1171" 
d="M440 1522l41 213h217l-41 -213h-217zM850 1522l41 213h217l-41 -213h-217zM532 -31q-315 0 -530 150l129 194q205 -131 404 -131q65 0 119.5 12.5t99 38.5t69.5 72.5t25 108.5q0 235 -371 235h-100l39 205h98q182 0 291.5 60t109.5 171q0 166 -245 166q-183 0 -359 -94
l-90 191q238 116 473 116q216 0 335.5 -92t119.5 -258q0 -284 -365 -348v-4q128 -19 205.5 -110.5t77.5 -241.5q0 -206 -136 -323.5t-399 -117.5z" />
    <glyph glyph-name="uni04DF" unicode="&#x4df;" horiz-adv-x="948" 
d="M555 1311l-47 -246h-184l47 246h184zM899 1311l-47 -246h-184l47 246h184zM403 -31q-263 0 -450 99l88 168q180 -82 373 -82q239 0 239 139q0 65 -35 91t-122 26h-226l35 174h227q75 0 109.5 26t34.5 84q0 99 -168 99q-150 0 -328 -41l-51 178q192 47 377 47
q189 0 286 -61t97 -181q0 -88 -70 -150.5t-182 -74.5l-2 -6q103 -9 156 -64.5t53 -152.5q0 -151 -116 -234.5t-325 -83.5z" />
    <glyph glyph-name="uni04E0" unicode="&#x4e0;" horiz-adv-x="1142" 
d="M477 -31q-156 0 -291 43.5t-231 120.5l135 199q100 -74 193.5 -111t201.5 -37q152 0 241 67.5t89 188.5q0 114 -85.5 169t-262.5 55h-172l35 176l495 393h-559l39 201h881l-39 -201l-539 -399q62 8 97 8q148 0 245 -107.5t97 -285.5q0 -100 -34 -185t-101.5 -152
t-179 -105t-255.5 -38z" />
    <glyph glyph-name="uni04E1" unicode="&#x4e1;" horiz-adv-x="864" 
d="M211 -440q-238 0 -457 125l107 170q93 -56 175 -84.5t173 -28.5q157 0 245.5 80.5t88.5 204.5q0 202 -244 202h-221l33 164l464 367h-518l35 186h778l-39 -201l-485 -358q62 8 94 8q138 0 228 -99.5t90 -262.5q0 -69 -17 -133.5t-57.5 -127.5t-101.5 -109t-156.5 -74.5
t-214.5 -28.5z" />
    <glyph glyph-name="uni04E2" unicode="&#x4e2;" horiz-adv-x="1431" 
d="M1235 1706l-29 -147h-594l29 147h594zM51 0l279 1434h213l-207 -1063h4l911 1063h224l-279 -1434h-213l207 1063h-4l-912 -1063h-223z" />
    <glyph glyph-name="uni04E3" unicode="&#x4e3;" horiz-adv-x="1105" 
d="M989 1233l-28 -148h-594l28 148h594zM31 0l184 946h201l-125 -624h4l594 624h186l-184 -946h-201l125 625h-4l-594 -625h-186z" />
    <glyph glyph-name="uni04E4" unicode="&#x4e4;" horiz-adv-x="1431" 
d="M594 1522l41 213h217l-41 -213h-217zM1004 1522l40 213h218l-41 -213h-217zM51 0l279 1434h213l-207 -1063h4l911 1063h224l-279 -1434h-213l207 1063h-4l-912 -1063h-223z" />
    <glyph glyph-name="uni04E5" unicode="&#x4e5;" horiz-adv-x="1105" 
d="M616 1311l-47 -246h-184l47 246h184zM961 1311l-48 -246h-184l47 246h185zM31 0l184 946h201l-125 -624h4l594 624h186l-184 -946h-201l125 625h-4l-594 -625h-186z" />
    <glyph glyph-name="uni04E6" unicode="&#x4e6;" horiz-adv-x="1693" 
d="M659 1522l41 213h218l-41 -213h-218zM1069 1522l41 213h217l-41 -213h-217zM838 -31q-208 0 -370 82.5t-253.5 237.5t-91.5 360q0 168 60 317.5t166 259.5t262 174t339 64q208 0 370 -82.5t253.5 -237.5t91.5 -360q0 -168 -60 -317.5t-166 -259.5t-262 -174t-339 -64z
M846 182q138 0 251.5 49t186.5 133.5t112.5 195.5t39.5 237q0 138 -67 243t-178.5 158t-248.5 53q-138 0 -251.5 -49t-186.5 -133t-112.5 -195t-39.5 -237q0 -139 67 -243.5t178.5 -158t248.5 -53.5z" />
    <glyph glyph-name="uni04E7" unicode="&#x4e7;" horiz-adv-x="1159" 
d="M643 1311l-47 -246h-184l47 246h184zM987 1311l-47 -246h-184l47 246h184zM530 -31q-215 0 -342 121.5t-127 325.5q0 120 43 224t118.5 178t180.5 116.5t226 42.5q215 0 342 -121.5t127 -325.5q0 -120 -43 -224t-118.5 -178t-180.5 -116.5t-226 -42.5zM549 166
q148 0 242 99t94 253q0 123 -73 192.5t-202 69.5q-148 0 -242 -99t-94 -253q0 -123 73 -192.5t202 -69.5z" />
    <glyph glyph-name="uni04E8" unicode="&#x4e8;" horiz-adv-x="1693" 
d="M950 1464q208 0 370 -82.5t253.5 -237.5t91.5 -360q0 -168 -60 -317.5t-166 -259.5t-262 -174t-339 -64q-208 0 -370 82.5t-253.5 237.5t-91.5 360q0 168 60 317.5t166 259.5t262 174t339 64zM942 1251q-233 0 -383 -130.5t-192 -338.5h1069v15q0 138 -67 243t-178.5 158
t-248.5 53zM846 182q233 0 383 130.5t192 338.5h-1069v-14q0 -139 67 -243.5t178.5 -158t248.5 -53.5z" />
    <glyph glyph-name="uni04E9" unicode="&#x4e9;" horiz-adv-x="1159" 
d="M629 977q209 0 339 -118.5t130 -328.5q0 -154 -69.5 -281t-200.5 -203.5t-298 -76.5q-209 0 -339 118.5t-130 328.5q0 154 69.5 281t200.5 203.5t298 76.5zM610 780q-135 0 -217.5 -69t-113.5 -176h616q-6 120 -83.5 182.5t-201.5 62.5zM549 166q135 0 218 69.5
t114 176.5h-617q6 -120 84 -183t201 -63z" />
    <glyph glyph-name="uni04EA" unicode="&#x4ea;" horiz-adv-x="1693" 
d="M918 1735l-41 -213h-218l41 213h218zM1327 1735l-41 -213h-217l41 213h217zM950 1464q208 0 370 -82.5t253.5 -237.5t91.5 -360q0 -168 -60 -317.5t-166 -259.5t-262 -174t-339 -64q-208 0 -370 82.5t-253.5 237.5t-91.5 360q0 168 60 317.5t166 259.5t262 174t339 64z
M942 1251q-233 0 -383 -130.5t-192 -338.5h1069v15q0 138 -67 243t-178.5 158t-248.5 53zM846 182q233 0 383 130.5t192 338.5h-1069v-14q0 -139 67 -243.5t178.5 -158t248.5 -53.5z" />
    <glyph glyph-name="uni04EB" unicode="&#x4eb;" horiz-adv-x="1159" 
d="M639 1311l-47 -246h-184l47 246h184zM983 1311l-47 -246h-184l47 246h184zM629 977q209 0 339 -118.5t130 -328.5q0 -154 -69.5 -281t-200.5 -203.5t-298 -76.5q-209 0 -339 118.5t-130 328.5q0 154 69.5 281t200.5 203.5t298 76.5zM610 780q-135 0 -217.5 -69
t-113.5 -176h616q-6 120 -83.5 182.5t-201.5 62.5zM549 166q135 0 218 69.5t114 176.5h-617q6 -120 84 -183t201 -63z" />
    <glyph glyph-name="uni04EC" unicode="&#x4ec;" horiz-adv-x="1433" 
d="M739 1735l-41 -213h-217l41 213h217zM1149 1735l-41 -213h-217l41 213h217zM752 1464q308 0 482.5 -164.5t174.5 -480.5q0 -136 -33 -260t-102 -232t-168 -187.5t-240 -125t-309 -45.5q-179 0 -317 47t-228 123l148 185q179 -142 413 -142q122 0 222.5 33.5t171 93.5
t117 137.5t69.5 169.5h-614l39 201h598q-6 214 -124.5 324t-308.5 110q-212 0 -430 -118l-96 194q261 137 535 137z" />
    <glyph glyph-name="uni04ED" unicode="&#x4ed;" horiz-adv-x="966" 
d="M530 1311l-47 -246h-184l47 246h184zM874 1311l-47 -246h-184l47 246h184zM434 977q213 0 336 -121t123 -334q0 -113 -36.5 -212.5t-105.5 -176t-177.5 -120.5t-243.5 -44q-185 0 -350 84l100 170q130 -65 258 -65q131 0 216.5 61.5t117.5 167.5h-369l33 172h352
q-10 117 -78.5 172t-181.5 55q-119 0 -244 -47l-67 174q163 64 317 64z" />
    <glyph glyph-name="uni04EE" unicode="&#x4ee;" horiz-adv-x="1236" 
d="M1135 1706l-29 -147h-594l29 147h594zM1174 1434h249l-938 -1434h-249l258 393l-308 1041h232l233 -799z" />
    <glyph glyph-name="uni04EF" unicode="&#x4ef;" horiz-adv-x="962" 
d="M915 1233l-28 -148h-594l29 148h593zM817 946h227l-808 -1358h-211l309 516l-232 842h215l146 -620z" />
    <glyph glyph-name="uni04F0" unicode="&#x4f0;" horiz-adv-x="1236" 
d="M752 1735l-41 -213h-217l41 213h217zM1161 1735l-41 -213h-217l41 213h217zM1174 1434h249l-938 -1434h-249l258 393l-308 1041h232l233 -799z" />
    <glyph glyph-name="uni04F1" unicode="&#x4f1;" horiz-adv-x="962" 
d="M543 1311l-47 -246h-185l47 246h185zM887 1311l-47 -246h-185l47 246h185zM817 946h227l-808 -1358h-211l309 516l-232 842h215l146 -620z" />
    <glyph glyph-name="uni04F2" unicode="&#x4f2;" horiz-adv-x="1236" 
d="M1022 1767l-317 -245h-142l281 245h178zM952 1522h-141l281 245h178zM1174 1434h249l-938 -1434h-249l258 393l-308 1041h232l233 -799z" />
    <glyph glyph-name="uni04F3" unicode="&#x4f3;" horiz-adv-x="962" 
d="M801 1346l-314 -316h-143l274 316h183zM750 1030h-144l275 316h182zM463 326l354 620h227l-808 -1358h-211l309 516l-232 842h215z" />
    <glyph glyph-name="uni04F4" unicode="&#x4f4;" horiz-adv-x="1196" 
d="M690 1735l-41 -213h-217l41 213h217zM1100 1735l-41 -213h-217l41 213h217zM1026 1434h213l-278 -1434h-213l112 584h-381q-352 0 -352 282q0 50 12 111l90 457h213l-90 -461q-6 -30 -6 -58q0 -68 44 -99.5t140 -31.5h369z" />
    <glyph glyph-name="uni04F5" unicode="&#x4f5;" horiz-adv-x="929" 
d="M498 1311l-47 -246h-185l47 246h185zM842 1311l-47 -246h-185l47 246h185zM698 946h201l-184 -946h-201l70 358h-267q-138 0 -203 49t-65 166q0 50 10 99l54 274h202l-49 -252q-8 -39 -8 -71q0 -47 24.5 -65.5t88.5 -18.5h247z" />
    <glyph glyph-name="uni04F8" unicode="&#x4f8;" horiz-adv-x="1630" 
d="M944 1735l-41 -213h-217l41 213h217zM1354 1735l-41 -213h-217l41 213h217zM696 862q213 0 331 -102.5t118 -290.5q0 -92 -28 -169.5t-77 -132t-116.5 -92.5t-146.5 -56.5t-167 -18.5h-559l279 1434h213l-111 -572h264zM1456 1434h217l-280 -1434h-217zM608 201
q145 0 224 70t79 188q0 97 -60 150t-173 53h-285l-90 -461h305z" />
    <glyph glyph-name="uni04F9" unicode="&#x4f9;" horiz-adv-x="1316" 
d="M741 1311l-47 -246h-184l47 246h184zM1085 1311l-47 -246h-184l47 246h184zM543 606q86 0 155 -27t114.5 -89t45.5 -152q0 -151 -109 -244.5t-284 -93.5h-434l184 946h201l-66 -340h193zM1085 946h201l-184 -946h-201zM479 182q78 0 122 35.5t44 99.5q0 107 -139 107
h-193l-47 -242h213z" />
    <glyph glyph-name="uni04FC" unicode="&#x4fc;" horiz-adv-x="1245" 
d="M838 758l184 -424q94 -215 94 -371q0 -186 -107.5 -279.5t-283.5 -93.5h-125l39 197h80q192 0 192 168q0 43 -13.5 96.5t-28.5 91.5t-43 104l-3 7.5t-3 6.5t-3 7l-137 326l-479 -594h-273l645 786l-276 648h235l199 -484l389 484h271z" />
    <glyph glyph-name="uni04FD" unicode="&#x4fd;" horiz-adv-x="960" 
d="M420 -410l37 189h88q56 0 88.5 33t32.5 90q0 65 -56 174l-137 266l-309 -342h-246l465 516l-225 430h213l145 -280l254 280h244l-408 -454l176 -338q44 -84 65 -144.5t21 -126.5q0 -130 -77 -211.5t-226 -81.5h-145z" />
    <glyph glyph-name="uni0510" unicode="&#x510;" horiz-adv-x="1155" 
d="M739 1464q153 0 284 -44t224 -111l-131 -187q-192 129 -385 129q-115 0 -184.5 -42t-69.5 -136q0 -103 87 -161t237 -58h98l-41 -205h-100q-227 0 -345 -68t-118 -200q0 -99 66 -149t190 -50q192 0 418 109l59 -205q-251 -117 -485 -117q-122 0 -215 31.5t-148 87
t-82.5 125.5t-27.5 154q0 93 32.5 165.5t91.5 120.5t134.5 77t169.5 40v4q-236 85 -236 313q0 175 126.5 276t350.5 101z" />
    <glyph glyph-name="uni0511" unicode="&#x511;" horiz-adv-x="929" 
d="M414 -31q-193 0 -292 70.5t-99 200.5q0 122 82.5 189.5t220.5 76.5v6q-82 12 -124 64.5t-42 136.5q0 124 92.5 194t271.5 70q101 0 211.5 -21t188.5 -53l-74 -172q-64 26 -152.5 44t-169.5 18q-182 0 -182 -107q0 -47 33.5 -74.5t91.5 -27.5h236l-33 -174h-219
q-232 0 -232 -138q0 -64 48.5 -91t146.5 -27q178 0 348 71l51 -176q-196 -80 -403 -80z" />
    <glyph glyph-name="uni0512" unicode="&#x512;" horiz-adv-x="1501" 
d="M1544 1434l-301 -1545q-32 -164 -110 -231.5t-222 -67.5h-161l41 205h118q104 0 123 103l258 1331h-674l-182 -942q-31 -159 -119.5 -228t-240.5 -69h-133l36 207h84q70 0 109.5 30.5t58.5 114.5l213 1092h1102z" />
    <glyph glyph-name="uni0513" unicode="&#x513;" horiz-adv-x="1103" 
d="M1073 946l-184 -946l-27 -139q-52 -277 -332 -277h-98l35 183h68q61 0 90.5 27.5t40.5 86.5l22 119l150 762h-389l-99 -502q-28 -138 -103 -206t-202 -68h-96l35 188h63q47 0 70 23.5t33 70.5l133 678h790z" />
    <glyph glyph-name="uni051C" unicode="&#x51c;" horiz-adv-x="2058" 
d="M2193 1434l-714 -1434h-209l-117 1073h-4l-533 -1073h-208l-170 1434h227l100 -1094h4l531 1094h211l116 -1094h5l514 1094h247z" />
    <glyph glyph-name="uni051D" unicode="&#x51d;" horiz-adv-x="1517" 
d="M1368 946h221l-504 -946h-184l-92 680l-358 -680h-185l-133 946h205l65 -686l353 686h194l86 -686z" />
    <glyph glyph-name="uni0524" unicode="&#x524;" horiz-adv-x="1423" 
d="M1460 1434l-250 -1291h119l-84 -430h-196l55 287h-139l239 1233h-696l-240 -1233h-217l279 1434h1130z" />
    <glyph glyph-name="uni0525" unicode="&#x525;" horiz-adv-x="1175" 
d="M1100 946l-160 -821h137l-76 -391h-176l52 266h-162l147 762h-483l-148 -762h-200l184 946h201h639h45z" />
    <glyph glyph-name="uni0526" unicode="&#x526;" horiz-adv-x="1333" 
d="M1090 143h149l-84 -430h-197l56 287h-166l90 461q6 30 6 57q0 68 -44 99.5t-140 31.5h-369l-127 -649h-213l279 1434h213l-113 -584h381q352 0 352 -283q0 -49 -12 -110z" />
    <glyph glyph-name="uni0527" unicode="&#x527;" horiz-adv-x="1155" 
d="M936 125h121l-76 -391h-176l51 266h-145l104 541q6 35 6 61q0 83 -45 132.5t-133 49.5q-111 0 -195.5 -78t-117.5 -253l-88 -453h-201l278 1434h201l-123 -633h4q124 176 324 176q138 0 219.5 -78t81.5 -235q0 -69 -14 -138z" />
    <glyph glyph-name="uni0E3F" unicode="&#xe3f;" horiz-adv-x="1071" 
d="M748 686q107 -15 164 -86t57 -188q0 -129 -67.5 -223.5t-182.5 -141.5t-262 -47h-31l-35 -178h-57l35 178h-379l268 1382h379l35 179h57l-35 -179q82 -3 147.5 -22t116.5 -56.5t79 -100t28 -146.5q0 -147 -83.5 -242t-231.5 -123zM600 1194h-178l-80 -414h178zM852 1012
q0 89 -52.5 134t-142.5 48l-79 -414q129 3 201.5 65.5t72.5 166.5zM227 188h179l79 414h-178zM471 188q128 0 206.5 58.5t78.5 165.5q0 87 -54 137t-159 53l-80 -414h8z" />
    <glyph glyph-name="Wgrave" unicode="&#x1e80;" horiz-adv-x="2058" 
d="M1171 1767l132 -245h-121l-252 245h241zM2193 1434l-714 -1434h-209l-117 1073h-4l-533 -1073h-208l-170 1434h227l100 -1094h4l531 1094h211l116 -1094h5l514 1094h247z" />
    <glyph glyph-name="wgrave" unicode="&#x1e81;" horiz-adv-x="1517" 
d="M963 1133h-138l-235 315h241zM1368 946h221l-504 -946h-184l-92 680l-358 -680h-185l-133 946h205l65 -686l353 686h194l86 -686z" />
    <glyph glyph-name="Wacute" unicode="&#x1e82;" horiz-adv-x="2058" 
d="M1133 1522l241 245h258l-348 -245h-151zM2193 1434l-714 -1434h-209l-117 1073h-4l-533 -1073h-208l-170 1434h227l100 -1094h4l531 1094h211l116 -1094h5l514 1094h247z" />
    <glyph glyph-name="wacute" unicode="&#x1e83;" horiz-adv-x="1517" 
d="M1364 1448l-377 -315h-166l269 315h274zM1368 946h221l-504 -946h-184l-92 680l-358 -680h-185l-133 946h205l65 -686l353 686h194l86 -686z" />
    <glyph glyph-name="Wdieresis" unicode="&#x1e84;" horiz-adv-x="2058" 
d="M903 1522l41 213h217l-41 -213h-217zM1313 1522l41 213h217l-41 -213h-217zM2193 1434l-714 -1434h-209l-117 1073h-4l-533 -1073h-208l-170 1434h227l100 -1094h4l531 1094h211l116 -1094h5l514 1094h247z" />
    <glyph glyph-name="wdieresis" unicode="&#x1e85;" horiz-adv-x="1517" 
d="M836 1413l-48 -246h-204l47 246h205zM1221 1413l-47 -246h-205l47 246h205zM1368 946h221l-504 -946h-184l-92 680l-358 -680h-185l-133 946h205l65 -686l353 686h194l86 -686z" />
    <glyph glyph-name="Ygrave" unicode="&#x1ef2;" horiz-adv-x="1112" 
d="M825 1522h-120l-252 245h241zM1298 1434l-616 -861l-113 -573h-213l113 571l-283 863h234l176 -654h4l436 654h262z" />
    <glyph glyph-name="ygrave" unicode="&#x1ef3;" horiz-adv-x="962" 
d="M662 1133h-138l-235 315h241zM817 946h227l-808 -1358h-211l309 516l-232 842h215l146 -620z" />
    <glyph glyph-name="endash" unicode="&#x2013;" horiz-adv-x="1540" 
d="M1470 639l-34 -180h-1336l35 180h1335z" />
    <glyph glyph-name="emdash" unicode="&#x2014;" horiz-adv-x="2363" 
d="M2294 639l-35 -180h-2159l35 180h2159z" />
    <glyph glyph-name="quoteleft" unicode="&#x2018;" horiz-adv-x="385" 
d="M506 1460l-172 -301h76l-41 -215h-215l41 215l235 301h76z" />
    <glyph glyph-name="quoteright" unicode="&#x2019;" horiz-adv-x="385" 
d="M301 1464h215l-41 -215l-235 -301h-76l172 301h-76z" />
    <glyph glyph-name="quotesinglbase" unicode="&#x201a;" horiz-adv-x="387" 
d="M59 215h215l-41 -215l-235 -301h-76l172 301h-76z" />
    <glyph glyph-name="quotedblleft" unicode="&#x201c;" horiz-adv-x="669" 
d="M506 1460l-172 -301h76l-41 -215h-215l41 215l235 301h76zM791 1460l-173 -301h76l-41 -215h-215l41 215l236 301h76z" />
    <glyph glyph-name="quotedblright" unicode="&#x201d;" horiz-adv-x="669" 
d="M516 1464l-41 -215l-235 -301h-76l172 301h-76l41 215h215zM586 1464h215l-41 -215l-236 -301h-75l172 301h-76z" />
    <glyph glyph-name="quotedblbase" unicode="&#x201e;" horiz-adv-x="671" 
d="M274 215l-41 -215l-235 -301h-76l172 301h-76l41 215h215zM344 215h215l-41 -215l-235 -301h-76l172 301h-76z" />
    <glyph glyph-name="dagger" unicode="&#x2020;" horiz-adv-x="1036" 
d="M1030 977l-31 -162h-325l-195 -1005h-176l195 1005h-328l31 162h329l88 457h177l-88 -457h323z" />
    <glyph glyph-name="daggerdbl" unicode="&#x2021;" horiz-adv-x="1036" 
d="M1004 831h-326l-74 -382h324l-31 -160h-326l-92 -479h-176l92 479h-327l30 160h330l74 382h-328l31 162h327l86 441h177l-86 -441h325z" />
    <glyph glyph-name="bullet" unicode="&#x2022;" horiz-adv-x="729" 
d="M418 977q97 0 162 -65t65 -162q0 -98 -65 -163t-162 -65t-162.5 65t-65.5 163q0 97 65.5 162t162.5 65z" />
    <glyph glyph-name="ellipsis" unicode="&#x2026;" horiz-adv-x="1435" 
d="M20 0l48 244h243l-47 -244h-244zM504 0l47 244h244l-47 -244h-244zM987 0l47 244h244l-47 -244h-244z" />
    <glyph glyph-name="perthousand" unicode="&#x2030;" horiz-adv-x="2379" 
d="M539 788q-133 0 -222.5 78t-89.5 215q0 94 42.5 176t126 134.5t190.5 52.5q133 0 222 -78t89 -215q0 -94 -42 -176t-125.5 -134.5t-190.5 -52.5zM281 0l1011 1382h117l-1012 -1382h-116zM545 903q60 0 107.5 24t74 62.5t40 79.5t13.5 80q0 83 -55.5 131.5t-144.5 48.5
q-49 0 -89.5 -16.5t-67 -42t-45 -58.5t-26.5 -65.5t-8 -63.5q0 -83 56 -131.5t145 -48.5zM1151 -10q-133 0 -222 78t-89 215q0 94 42 176t125.5 134t190.5 52q133 0 222 -78t89 -215q0 -94 -42 -176t-125.5 -134t-190.5 -52zM1882 -10q-130 0 -216.5 76.5t-86.5 209.5
q0 148 104 258.5t263 110.5q130 0 216.5 -77t86.5 -210q0 -148 -104 -258t-263 -110zM1157 104q49 0 89.5 16.5t67 42t45 58.5t26.5 65.5t8 63.5q0 83 -56 131.5t-145 48.5q-49 0 -89.5 -16t-67 -42t-45 -58.5t-26.5 -65t-8 -63.5q0 -83 56 -132t145 -49zM1886 104
q110 0 178 76.5t68 175.5q0 87 -54.5 130.5t-135.5 43.5q-110 0 -178 -76.5t-68 -174.5q0 -87 55 -131t135 -44z" />
    <glyph glyph-name="guilsinglleft" unicode="&#x2039;" horiz-adv-x="589" 
d="M281 154l-238 325l365 326h225l-389 -340l227 -311h-190z" />
    <glyph glyph-name="guilsinglright" unicode="&#x203a;" horiz-adv-x="587" 
d="M311 805l238 -326l-365 -325h-225l389 340l-227 311h190z" />
    <glyph glyph-name="fraction" unicode="&#x2044;" horiz-adv-x="163" 
d="M-440 0l1011 1382h117l-1012 -1382h-116z" />
    <glyph glyph-name="uni2070" unicode="&#x2070;" horiz-adv-x="976" 
d="M676 1645q156 0 250 -98t94 -300q0 -85 -17.5 -165t-54 -151t-88.5 -124t-126.5 -84t-162.5 -31q-156 0 -250 98t-94 300q0 85 17.5 165t54 151t88.5 124t126.5 84t162.5 31zM666 1470q-68 0 -119.5 -36.5t-79.5 -95t-41.5 -121t-13.5 -125.5q0 -120 46.5 -173t123.5 -53
q55 0 99.5 24.5t72.5 63.5t47 90t27 101.5t8 99.5q0 225 -170 225z" />
    <glyph glyph-name="uni2074" unicode="&#x2074;" horiz-adv-x="872" 
d="M936 1626l-113 -579h109l-35 -177h-109l-30 -157h-176l30 157h-493l28 146l568 610h221zM367 1047h278l70 364h-6z" />
    <glyph glyph-name="uni2075" unicode="&#x2075;" horiz-adv-x="804" 
d="M590 1313q118 0 191 -72t73 -209q0 -161 -102.5 -250.5t-270.5 -89.5q-116 0 -205.5 42t-142.5 110l139 123q38 -45 95 -73t118 -28q76 0 130.5 41.5t54.5 120.5q0 65 -38 101t-102 36q-48 0 -91 -20t-68 -60h-148l150 541h510l-33 -176h-363l-49 -182h4q57 45 148 45z
" />
    <glyph glyph-name="uni2076" unicode="&#x2076;" horiz-adv-x="817" 
d="M504 692q-148 0 -240 81.5t-92 219.5q0 118 54 214.5t190 232.5l205 205h245l-420 -375l5 -2q77 65 178 65q108 0 180 -74t72 -215q0 -140 -103.5 -246t-273.5 -106zM514 866q88 0 135 53.5t47 122.5q0 62 -41.5 100t-113.5 38q-89 0 -137 -55.5t-48 -127.5
q0 -60 42.5 -95.5t115.5 -35.5z" />
    <glyph glyph-name="uni2077" unicode="&#x2077;" horiz-adv-x="700" 
d="M883 1626l-35 -172l-524 -741h-211l530 729h-424l37 184h627z" />
    <glyph glyph-name="uni2078" unicode="&#x2078;" horiz-adv-x="862" 
d="M498 692q-154 0 -242 69t-88 181q0 100 63.5 166t165.5 84l2 4q-57 18 -86.5 64t-29.5 112q0 120 96 196.5t258 76.5q146 0 226.5 -62t80.5 -164q0 -83 -53.5 -142t-140.5 -81l-2 -4q65 -21 102 -72t37 -125q0 -128 -105.5 -215.5t-283.5 -87.5zM592 1270
q71 0 116.5 32.5t45.5 88.5q0 48 -34.5 73t-94.5 25q-71 0 -116.5 -32.5t-45.5 -88.5q0 -48 34.5 -73t94.5 -25zM510 858q92 0 142 42t50 106q0 55 -39.5 85.5t-113.5 30.5q-90 0 -143.5 -42.5t-53.5 -106.5q0 -54 40.5 -84.5t117.5 -30.5z" />
    <glyph glyph-name="uni2079" unicode="&#x2079;" horiz-adv-x="804" 
d="M231 713l402 348l-4 4q-91 -61 -180 -61q-99 0 -166.5 80.5t-67.5 197.5q0 71 26 136t73.5 116t120.5 81t161 30q66 0 123.5 -17t104.5 -52t74.5 -94t27.5 -136q0 -114 -63 -216t-212 -241l-190 -176h-230zM555 1155q90 0 138 53.5t48 122.5q0 62 -41 99.5t-114 37.5
q-89 0 -137 -55t-48 -127q0 -60 41 -95.5t113 -35.5z" />
    <glyph glyph-name="uni2080" unicode="&#x2080;" horiz-adv-x="976" 
d="M494 707q156 0 250 -98t94 -300q0 -85 -17.5 -165t-54 -151t-88.5 -124t-126.5 -84t-162.5 -31q-156 0 -250 98t-94 300q0 85 17.5 165t54 151t88.5 124t126.5 84t162.5 31zM483 532q-68 0 -119.5 -36.5t-79.5 -95t-41.5 -121t-13.5 -125.5q0 -120 46.5 -173t123.5 -53
q55 0 99.5 24.5t72.5 63.5t47 90t27 101.5t8 99.5q0 225 -170 225z" />
    <glyph glyph-name="uni2081" unicode="&#x2081;" horiz-adv-x="606" 
d="M442 688l-178 -913h-196l143 733h-51l35 180h247z" />
    <glyph glyph-name="uni2082" unicode="&#x2082;" horiz-adv-x="831" 
d="M412 709q149 0 232 -69t83 -189q0 -182 -233 -334l-252 -168h395l-35 -174h-665l32 164l391 276q94 65 137.5 111.5t43.5 99.5q0 47 -37 76.5t-105 29.5q-63 0 -107 -29t-54 -91h-189q22 142 115.5 219.5t247.5 77.5z" />
    <glyph glyph-name="uni2083" unicode="&#x2083;" horiz-adv-x="819" 
d="M291 -246q-87 0 -157 22t-116.5 73t-46.5 126q0 28 6 62h181q0 -4 -1 -9t-1 -10q0 -43 40 -66.5t105 -23.5q90 0 134 35.5t44 99.5q0 60 -45.5 85.5t-152.5 27.5l28 150q207 3 207 114q0 92 -127 92q-64 0 -104.5 -22.5t-44.5 -63.5h-183q11 120 99 190.5t241 70.5
q137 0 220 -58.5t83 -169.5q0 -82 -50 -138t-148 -73v-4q160 -28 160 -201q0 -62 -19.5 -115t-61 -98t-115.5 -70.5t-175 -25.5z" />
    <glyph glyph-name="uni2084" unicode="&#x2084;" horiz-adv-x="872" 
d="M754 688l-113 -579h109l-35 -177h-109l-31 -157h-176l31 157h-493l28 146l567 610h222zM184 109h279l69 364h-6z" />
    <glyph glyph-name="uni2085" unicode="&#x2085;" horiz-adv-x="804" 
d="M408 375q118 0 191 -72t73 -209q0 -161 -102.5 -250.5t-270.5 -89.5q-116 0 -205.5 42t-142.5 110l139 123q38 -45 95 -73t118 -28q76 0 130 41.5t54 120.5q0 65 -37.5 101t-101.5 36q-48 0 -91.5 -20.5t-68.5 -59.5h-147l149 541h510l-32 -176h-363l-49 -182h4
q57 45 148 45z" />
    <glyph glyph-name="uni2086" unicode="&#x2086;" horiz-adv-x="817" 
d="M322 -246q-148 0 -240 81.5t-92 219.5q0 119 53.5 215t189.5 232l205 205h246l-420 -375l4 -2q77 65 178 65q108 0 180 -74t72 -215q0 -67 -26 -129.5t-72.5 -112.5t-119 -80t-158.5 -30zM332 -72q88 0 135 53.5t47 122.5q0 62 -41.5 100t-114.5 38q-89 0 -136.5 -55.5
t-47.5 -127.5q0 -60 42.5 -95.5t115.5 -35.5z" />
    <glyph glyph-name="uni2087" unicode="&#x2087;" horiz-adv-x="700" 
d="M700 688l-34 -172l-525 -741h-211l531 729h-424l37 184h626z" />
    <glyph glyph-name="uni2088" unicode="&#x2088;" horiz-adv-x="862" 
d="M315 -246q-154 0 -241.5 69t-87.5 181q0 100 63.5 166t165.5 84l2 4q-117 38 -117 176q0 120 96.5 196.5t258.5 76.5q146 0 226.5 -62t80.5 -164q0 -83 -54 -142t-141 -81l-2 -4q66 -21 103 -72t37 -125q0 -128 -105.5 -215.5t-284.5 -87.5zM410 332q71 0 116 32.5
t45 88.5q0 48 -34.5 73t-94.5 25q-71 0 -116 -32.5t-45 -88.5q0 -48 34.5 -73t94.5 -25zM328 -80q92 0 142 42t50 106q0 55 -39.5 85.5t-113.5 30.5q-90 0 -143.5 -42.5t-53.5 -106.5q0 -54 40.5 -84.5t117.5 -30.5z" />
    <glyph glyph-name="uni2089" unicode="&#x2089;" horiz-adv-x="804" 
d="M49 -225l402 348l-5 4q-91 -61 -180 -61q-99 0 -166 80.5t-67 197.5q0 71 26 136t73.5 116t120.5 81t161 30q66 0 123.5 -17t104.5 -52t74 -94t27 -136q0 -114 -62.5 -216t-211.5 -241l-190 -176h-230zM373 217q90 0 138 53.5t48 122.5q0 62 -41.5 99.5t-114.5 37.5
q-89 0 -136.5 -55t-47.5 -127q0 -60 41 -95.5t113 -35.5z" />
    <glyph glyph-name="TRY" unicode="&#x20a4;" horiz-adv-x="1239" 
d="M985 670h209q-50 -319 -258.5 -494.5t-515.5 -175.5h-189l117 604l-262 -106l12 63l262 107l23 114l-262 -106l12 63l262 107l105 536h200l-88 -450l437 176l-13 -64l-436 -176l-22 -114l436 176l-13 -64l-436 -176l-96 -487q210 0 343 122.5t173 344.5z" />
    <glyph glyph-name="uni20A9" unicode="&#x20a9;" horiz-adv-x="1996" 
d="M2105 1434l-252 -551h183l-13 -62h-198l-64 -139h236l-12 -61h-252l-285 -621h-225l-49 621h-293l-293 -621h-223l-43 621h-252l12 61h235l-10 139h-198l12 62h182l-39 551h217l17 -551h301l258 551h231l45 -551h299l230 551h243zM1126 1145l-122 -262h149l-20 262h-7z
M500 821l4 -139h201l65 139h-270zM909 682h260l-12 139h-182zM1548 682l58 139h-269l13 -139h198zM520 291l156 330h-170l10 -330h4zM1384 291l138 330h-168l26 -330h4z" />
    <glyph glyph-name="Euro" unicode="&#x20ac;" horiz-adv-x="1347" 
d="M1014 1217q-187 0 -323 -106t-191 -288h641l-43 -61h-613q-11 -52 -14 -121h555l-43 -61h-514q4 -205 98.5 -308.5t259.5 -103.5q149 0 342 80l-43 -219q-155 -58 -309 -58q-187 0 -314.5 78t-187 212.5t-59.5 318.5h-225l43 61h184q3 63 12 121h-194l43 61h164
q24 102 66.5 190t107 162t147 126.5t190.5 82t232 29.5q242 0 420 -115l-119 -176q-147 95 -313 95z" />
    <glyph glyph-name="uni20AE" unicode="&#x20ae;" horiz-adv-x="1089" 
d="M1188 1194h-404l-55 -281l287 134l-12 -64l-287 -133l-23 -115l287 133l-12 -63l-287 -133l-129 -672h-201l111 569l-287 -133l12 64l287 133l21 115l-285 -134l12 64l285 133l76 383h-404l37 188h1008z" />
    <glyph glyph-name="uni20B4" unicode="&#x20b4;" horiz-adv-x="1064" 
d="M864 809l-61 -41l-152 -98h412l-12 -62h-494l-51 -33q-111 -72 -159 -128t-48 -123q0 -70 52 -112t159 -42q76 0 166.5 25t228.5 84l-39 -222q-194 -88 -377 -88q-86 0 -156.5 18.5t-127 57t-88 105.5t-31.5 157q0 94 35.5 165t111.5 136h-165l12 62h231q41 30 82 55
l131 84h-418l13 61h499l62 39q82 53 120 99.5t38 95.5q0 115 -176 115q-133 0 -351 -76l37 209q201 61 340 61q79 0 143 -15.5t114.5 -48t78 -89t27.5 -134.5q0 -151 -113 -256h164l-12 -61h-226z" />
    <glyph glyph-name="uni20B8" unicode="&#x20b8;" horiz-adv-x="1089" 
d="M217 1382h1008l-37 -188h-1008zM121 887l37 188h1007l-37 -188h-403l-172 -887h-201l172 887h-403z" />
    <glyph glyph-name="uni20B9" unicode="&#x20b9;" horiz-adv-x="1060" 
d="M1155 1382l-57 -61h-348q73 -45 114 -121.5t41 -175.5v-8h178l-57 -62h-125q-24 -166 -156 -268t-360 -102h-43l393 -584h-250l-381 584l37 192h256q255 0 289 178h-510l12 62h504q-2 85 -55.5 129.5t-157.5 44.5h-256l37 192h252h643z" />
    <glyph glyph-name="uni20BD" unicode="&#x20bd;" horiz-adv-x="1267" 
d="M782 575h-272l-27 -145h449l-12 -61h-449l-72 -369h-200l71 369h-209l13 61h209l28 145h-209l37 189h207l121 618h381q212 0 323 -99.5t111 -268.5q0 -194 -136 -316.5t-364 -122.5zM631 1194l-84 -430h231q143 0 217 60t74 177q0 95 -58.5 144t-162.5 49h-217z" />
    <glyph glyph-name="uni2113" unicode="&#x2113;" horiz-adv-x="966" 
d="M1010 1155q0 -353 -594 -575q-10 -102 -10 -172q0 -144 37 -200t126 -56q79 0 230 53l-35 -185q-5 -2 -25.5 -9t-25.5 -9t-22.5 -7.5t-25 -7t-23.5 -5t-28 -4.5t-28 -2t-33 -1q-79 0 -136.5 20t-93.5 55.5t-57 93t-29 122t-8 152.5q0 65 2 100q-94 -28 -147 -41l33 172
q79 22 131 39q19 147 58.5 273.5t100 229.5t149.5 162.5t196 59.5q117 0 187.5 -68.5t70.5 -189.5zM748 1251q-45 0 -86 -27.5t-73.5 -73t-61 -109.5t-49 -133t-36.5 -146q389 171 389 393q0 96 -83 96z" />
    <glyph glyph-name="uni2116" unicode="&#x2116;" horiz-adv-x="2369" 
d="M51 0l279 1434h219l485 -1088h4l209 1088h213l-278 -1434h-221l-484 1090h-2l-211 -1090h-213zM1853 289q-176 0 -281.5 96.5t-105.5 273.5q0 97 33.5 184t94 153t152.5 104.5t202 38.5q176 0 281.5 -96.5t105.5 -274.5q0 -130 -56.5 -238t-168 -174.5t-257.5 -66.5z
M1866 459q131 0 209.5 87.5t78.5 209.5q0 101 -58.5 157t-160.5 56q-131 0 -209.5 -87.5t-78.5 -209.5q0 -101 58.5 -157t160.5 -56zM1382 0l33 168h760l-33 -168h-760z" />
    <glyph glyph-name="trademark" unicode="&#x2122;" horiz-adv-x="1759" 
d="M856 1329h-233l-142 -727h-139l141 727h-235l26 135h609zM1702 602h-137v584l-279 -453h-115l-104 453l-219 -584h-160l340 862h123l113 -506l309 506h123z" />
    <glyph glyph-name="estimated" unicode="&#x212e;" horiz-adv-x="1599" 
d="M113 623q0 176 96 325t261.5 235.5t360.5 86.5q196 0 362 -86.5t262.5 -235.5t96.5 -325v-19h-1175v-287q0 -68 27.5 -124.5t78.5 -88.5q139 -92 353 -92q150 0 284 57t223 158h60q-101 -118 -253 -185t-319 -67q-146 0 -279 51.5t-229 138t-153 206.5t-57 252z
M1198 1130q-133 103 -362 103q-217 0 -353 -94q-106 -71 -106 -174v-324h911v311q0 109 -90 178z" />
    <glyph glyph-name="uni2153" unicode="&#x2153;" horiz-adv-x="1576" 
d="M154 0l1011 1382h117l-1012 -1382h-116zM274 592l132 674h-78l22 116h195l-154 -790h-117zM1130 -18q-133 0 -207.5 50.5t-74.5 143.5q0 17 4 45h115v-12q0 -115 168 -115q90 0 133 40t43 97q0 71 -51 101.5t-173 27.5l23 111q124 1 176.5 30t52.5 97q0 98 -122 98
q-65 0 -105 -29t-49 -79h-119q15 110 86.5 165.5t188.5 55.5q109 0 176 -44.5t67 -143.5q0 -78 -47 -130t-131 -71v-2q72 -11 111 -57.5t39 -122.5q0 -48 -15.5 -91t-49 -81t-95 -61t-144.5 -23z" />
    <glyph glyph-name="uni2154" unicode="&#x2154;" horiz-adv-x="1816" 
d="M106 592l19 104l350 277q36 27 56 44.5t46.5 45.5t39 57t12.5 60q0 48 -32 78t-95 30q-62 0 -104 -30.5t-54 -86.5h-119q14 113 90.5 171.5t190.5 58.5t180 -57.5t66 -157.5q0 -79 -45 -143.5t-144 -139.5l-260 -196h381l-22 -115h-556zM393 0l1012 1382h117l-1012 -1382
h-117zM1370 -18q-133 0 -208 50.5t-75 143.5q0 10 5 45h114v-12q0 -115 168 -115q90 0 133 40t43 97q0 71 -50.5 101.5t-172.5 27.5l23 111q124 1 176.5 30t52.5 97q0 98 -123 98q-65 0 -104.5 -29t-48.5 -79h-119q15 110 86 165.5t188 55.5q109 0 176.5 -44.5t67.5 -143.5
q0 -78 -47 -130t-131 -71v-2q72 -11 110.5 -57.5t38.5 -122.5q0 -38 -9 -72.5t-31.5 -68.5t-56 -59t-86.5 -40.5t-120 -15.5z" />
    <glyph glyph-name="oneeighth" unicode="&#x215b;" horiz-adv-x="1572" 
d="M154 0l1011 1382h117l-1012 -1382h-116zM274 592l132 674h-78l22 116h195l-154 -790h-117zM1114 -18q-130 0 -201 60.5t-71 158.5q0 92 59.5 153.5t142.5 69.5l3 4q-48 15 -76.5 55t-28.5 97q0 97 79.5 163t207.5 66q116 0 183 -56.5t67 -146.5q0 -79 -49.5 -130
t-122.5 -64l-2 -4q127 -30 127 -164q0 -111 -86 -186.5t-232 -75.5zM1192 471q74 0 118 34t44 89q0 47 -33 74.5t-96 27.5q-72 0 -116 -33.5t-44 -91.5q0 -46 31.5 -73t95.5 -27zM1124 94q84 0 133.5 40.5t49.5 107.5q0 60 -42 92.5t-114 32.5q-82 0 -133 -40.5t-51 -107.5
q0 -62 43 -93.5t114 -31.5z" />
    <glyph glyph-name="threeeighths" unicode="&#x215c;" horiz-adv-x="1798" 
d="M426 573q-133 0 -208 51t-75 144q0 17 4 45h115v-12q0 -115 168 -115q90 0 133 40t43 97q0 71 -50.5 101.5t-172.5 27.5l23 111q124 1 176.5 30t52.5 97q0 98 -123 98q-65 0 -105 -29t-49 -79h-118q15 110 86 165.5t188 55.5q108 0 176 -45t68 -144q0 -78 -46.5 -129.5
t-131.5 -70.5v-2q72 -10 110.5 -57t38.5 -124q0 -38 -9 -72.5t-31.5 -68.5t-56 -59t-86.5 -40.5t-120 -15.5zM379 0l1012 1382h116l-1011 -1382h-117zM1339 -18q-130 0 -201 60.5t-71 158.5q0 92 60 153.5t143 69.5l2 4q-48 15 -76.5 55t-28.5 97q0 97 79.5 163t207.5 66
q116 0 183 -56.5t67 -146.5q0 -79 -49.5 -130t-122.5 -64l-2 -4q127 -30 127 -164q0 -111 -86 -186.5t-232 -75.5zM1417 471q74 0 118 34t44 89q0 47 -33 74.5t-96 27.5q-72 0 -116 -33.5t-44 -91.5q0 -46 31.5 -73t95.5 -27zM1350 94q84 0 133 40.5t49 107.5q0 60 -42 92.5
t-114 32.5q-82 0 -133 -40.5t-51 -107.5q0 -62 43.5 -93.5t114.5 -31.5z" />
    <glyph glyph-name="fiveeighths" unicode="&#x215d;" horiz-adv-x="1796" 
d="M420 573q-103 0 -172.5 40.5t-114.5 123.5l109 64q58 -115 186 -115q52 0 89.5 16.5t56.5 43.5t27.5 55t8.5 59q0 69 -40 105t-105 36q-89 0 -152 -73h-112l139 454h438l-22 -116h-336l-74 -228h6q58 74 158 74q39 0 77 -14.5t71.5 -42.5t54 -78.5t20.5 -114.5
q0 -130 -81 -209.5t-232 -79.5zM377 0l1012 1382h116l-1011 -1382h-117zM1337 -18q-130 0 -201 60.5t-71 158.5q0 92 60 153.5t143 69.5l2 4q-48 15 -76.5 55t-28.5 97q0 97 79.5 163t207.5 66q116 0 183 -56.5t67 -146.5q0 -79 -49.5 -130t-122.5 -64l-2 -4
q127 -30 127 -164q0 -111 -86 -186.5t-232 -75.5zM1415 471q74 0 118 34t44 89q0 47 -33 74.5t-96 27.5q-72 0 -116 -33.5t-44 -91.5q0 -46 31.5 -73t95.5 -27zM1348 94q84 0 133 40.5t49 107.5q0 60 -42 92.5t-114 32.5q-82 0 -133 -40.5t-51 -107.5q0 -62 43.5 -93.5
t114.5 -31.5z" />
    <glyph glyph-name="seveneighths" unicode="&#x215e;" horiz-adv-x="1609" 
d="M109 592l477 670h-381l22 120h518l-22 -114l-483 -676h-131zM190 0l1012 1382h117l-1012 -1382h-117zM1151 -18q-130 0 -201 60.5t-71 158.5q0 92 59.5 153.5t142.5 69.5l2 4q-48 15 -76 55t-28 97q0 97 79.5 163t207.5 66q116 0 183 -56.5t67 -146.5q0 -79 -50 -130
t-123 -64l-2 -4q127 -30 127 -164q0 -111 -85.5 -186.5t-231.5 -75.5zM1229 471q74 0 118 34t44 89q0 47 -33 74.5t-96 27.5q-72 0 -116 -33.5t-44 -91.5q0 -46 31.5 -73t95.5 -27zM1161 94q84 0 133 40.5t49 107.5q0 60 -41.5 92.5t-113.5 32.5q-82 0 -133 -40.5
t-51 -107.5q0 -62 43 -93.5t114 -31.5z" />
    <glyph glyph-name="arrowleft" unicode="&#x2190;" horiz-adv-x="1675" 
d="M1614 684l-37 -180h-1153l354 -416l-145 -123l-508 629l739 645l111 -139l-498 -416h1137z" />
    <glyph glyph-name="arrowup" unicode="&#x2191;" horiz-adv-x="1480" 
d="M1427 721l-149 -123l-332 428l-223 -1147h-180l219 1133l-496 -414l-112 137l764 615z" />
    <glyph glyph-name="arrowright" unicode="&#x2192;" horiz-adv-x="1677" 
d="M1096 1229l503 -633l-743 -645l-106 139l487 416h-1128l34 180h1155l-352 416z" />
    <glyph glyph-name="arrowdown" unicode="&#x2193;" horiz-adv-x="1484" 
d="M1266 592l112 -137l-764 -615l-514 623l154 129l332 -432l223 1151h180l-219 -1133z" />
    <glyph glyph-name="arrowboth" unicode="&#x2194;" horiz-adv-x="2578" 
d="M1995 1227l504 -633l-744 -645l-106 139l487 416h-1128h-584l354 -416l-145 -123l-508 629l739 645l111 -139l-498 -416h1137h584l-353 416z" />
    <glyph glyph-name="arrowupdn" unicode="&#x2195;" horiz-adv-x="1495" 
d="M551 -543l-514 623l153 129l332 -432l320 1650l-496 -413l-113 137l764 614l510 -628l-149 -123l-332 428l-319 -1647l495 414l113 -137z" />
    <glyph glyph-name="uni2196" unicode="&#x2196;" horiz-adv-x="1329" 
d="M1165 154l-151 -127l-645 800l-117 -587h-195l193 888l893 7l-37 -179l-596 9z" />
    <glyph glyph-name="uni2197" unicode="&#x2197;" horiz-adv-x="1327" 
d="M446 1149l887 -19l-153 -892l-195 2l117 589l-961 -804l-102 127l969 811l-598 -7z" />
    <glyph glyph-name="uni2198" unicode="&#x2198;" horiz-adv-x="1329" 
d="M1124 948h195l-195 -889h-891l33 166l604 -8l-659 817l151 127l648 -803z" />
    <glyph glyph-name="uni2199" unicode="&#x2199;" horiz-adv-x="1329" 
d="M1335 1036l-975 -815l607 12l-35 -174h-889l152 891l192 -2l-115 -588l961 803z" />
    <glyph glyph-name="partialdiff" unicode="&#x2202;" horiz-adv-x="1204" 
d="M647 1464q116 0 209 -34t164.5 -106t110 -192.5t38.5 -283.5q0 -102 -15 -202t-46 -200t-83.5 -185t-121.5 -151t-166.5 -103.5t-212.5 -37.5q-211 0 -328.5 118.5t-117.5 309.5q0 102 35 195.5t99.5 168t166.5 119t225 44.5q124 0 218.5 -42t146.5 -110q2 27 2 76
q0 217 -87.5 320.5t-246.5 103.5q-150 0 -285 -64l-63 174q185 82 358 82zM537 158q78 0 144 31t113 86.5t80 121.5t56 146q-39 83 -120 136.5t-202 53.5q-89 0 -155.5 -32t-101.5 -83.5t-51.5 -104.5t-16.5 -107q0 -110 66.5 -179t187.5 -69z" />
    <glyph glyph-name="emptyset" unicode="&#x2205;" 
d="M1016 987q123 -132 123 -323q0 -204 -139.5 -340t-348.5 -136q-188 0 -323 113l-115 -115l-39 41l113 113q-123 132 -123 324q0 204 139 339.5t348 135.5q190 0 322 -113l114 115l41 -41zM365 664q0 -108 61 -185l410 410q-74 61 -185 61q-127 0 -206.5 -80.5
t-79.5 -205.5zM651 377q127 0 207 81t80 206q0 107 -61 184l-412 -410q77 -61 186 -61z" />
    <glyph glyph-name="product" unicode="&#x220f;" horiz-adv-x="1515" 
d="M1599 1434v-191h-247v-1403h-189v1403h-499v-1403h-189v1403h-248v191h1372z" />
    <glyph glyph-name="summation" unicode="&#x2211;" horiz-adv-x="1449" 
d="M1233 1434v-191h-725l543 -639l-543 -639h725v-190h-965v190l543 639l-543 639v191h965z" />
    <glyph glyph-name="minus" unicode="&#x2212;" 
d="M1130 662v-101h-978v101h978z" />
    <glyph glyph-name="radical" unicode="&#x221a;" horiz-adv-x="1138" 
d="M1102 1464h188l-463 -1464h-182l-311 772h-201v174h320l272 -688z" />
    <glyph glyph-name="infinity" unicode="&#x221e;" horiz-adv-x="1568" 
d="M1221 922q140 0 233.5 -88.5t93.5 -225.5t-93 -225t-234 -88q-65 0 -123 19t-110.5 58t-89.5 75.5t-87 93.5q-49 -57 -86 -93.5t-88.5 -75.5t-110 -58t-123.5 -19q-142 0 -235.5 88t-93.5 225t93.5 225.5t235.5 88.5q65 0 123.5 -19t110 -58t88.5 -75.5t86 -93.5
q50 57 87 93.5t89.5 75.5t110.5 58t123 19zM403 834q-100 0 -168.5 -65.5t-68.5 -160.5t68.5 -160t168.5 -65q53 0 101.5 17t93 52t78.5 69.5t78 86.5q-44 52 -78 86.5t-78.5 69.5t-93 52.5t-101.5 17.5zM1221 834q-53 0 -101 -17t-93 -52.5t-78 -69.5t-79 -87
q46 -53 79 -86.5t78 -69t93 -52.5t101 -17q99 0 167 65t68 160t-68.5 160.5t-166.5 65.5z" />
    <glyph glyph-name="integral" unicode="&#x222b;" horiz-adv-x="778" 
d="M889 1464l-35 -180q-109 0 -170 -47t-86 -176l-219 -1122q-40 -207 -155.5 -293t-319.5 -86l35 180q56 1 89.5 7.5t67.5 28t56 67.5t36 120l220 1122q38 196 158 287.5t323 91.5z" />
    <glyph glyph-name="approxequal" unicode="&#x2248;" 
d="M375 913q56 0 134.5 -25t144.5 -55.5t139 -55.5t118 -25q114 0 162 139h94q-32 -124 -99.5 -183t-154.5 -59q-72 0 -177 40.5t-204 81t-155 40.5q-114 0 -162 -139h-94q32 124 100.5 182.5t153.5 58.5zM375 608q70 0 175 -40.5t205 -81t156 -40.5q113 0 162 142h94
q-32 -124 -99.5 -183t-154.5 -59q-72 0 -177 40t-204 80t-155 40q-114 0 -162 -141h-94q32 125 100.5 184t153.5 59z" />
    <glyph glyph-name="notequal" unicode="&#x2260;" 
d="M1159 760h-389l-174 -293h563v-94h-620l-121 -203h-96l120 203h-319v94h375l176 293h-551v94h606l119 199h98l-119 -199h332v-94z" />
    <glyph glyph-name="lessequal" unicode="&#x2264;" 
d="M1069 1001v-102l-776 -201l776 -196v-105l-919 250v105zM1081 319v-94h-936v94h936z" />
    <glyph glyph-name="greaterequal" unicode="&#x2265;" 
d="M178 1001l920 -249v-105l-920 -250v105l776 196l-776 201v102zM166 319h936v-94h-936v94z" />
    <glyph glyph-name="uni2460" unicode="&#x2460;" horiz-adv-x="1732" 
d="M913 -31q-217 0 -387.5 96.5t-265 267t-94.5 384.5t94.5 384.5t265 266.5t387.5 96q163 0 302.5 -56.5t237 -155t153 -237t55.5 -298.5q0 -214 -94.5 -384.5t-265.5 -267t-388 -96.5zM913 92q175 0 316 81t220 224t79 320t-79 319.5t-220 223.5t-316 81t-316 -81
t-219.5 -223.5t-78.5 -319.5q0 -132 46 -248t127 -199t195.5 -130.5t245.5 -47.5zM874 332v674h-77v116h194v-790h-117z" />
    <glyph glyph-name="uni2461" unicode="&#x2461;" horiz-adv-x="1732" 
d="M913 -31q-217 0 -387.5 96.5t-265 267t-94.5 384.5t94.5 384.5t265 266.5t387.5 96q163 0 302.5 -56.5t237 -155t153 -237t55.5 -298.5q0 -214 -94.5 -384.5t-265.5 -267t-388 -96.5zM913 92q175 0 316 81t220 224t79 320t-79 319.5t-220 223.5t-316 81t-316 -81
t-219.5 -223.5t-78.5 -319.5q0 -132 46 -248t127 -199t195.5 -130.5t245.5 -47.5zM672 360l-2 105l301 285q52 49 81 91t29 89q0 53 -35 87t-98 34q-140 0 -157 -121h-119q6 115 77 177t197 62q127 0 193.5 -64.5t66.5 -172.5q0 -70 -34.5 -126.5t-104.5 -123.5l-223 -207
h362v-115h-534z" />
    <glyph glyph-name="uni2462" unicode="&#x2462;" horiz-adv-x="1732" 
d="M913 -31q-217 0 -387.5 96.5t-265 267t-94.5 384.5t94.5 384.5t265 266.5t387.5 96q163 0 302.5 -56.5t237 -155t153 -237t55.5 -298.5q0 -214 -94.5 -384.5t-265.5 -267t-388 -96.5zM913 92q175 0 316 81t220 224t79 320t-79 319.5t-220 223.5t-316 81t-316 -81
t-219.5 -223.5t-78.5 -319.5q0 -132 46 -248t127 -199t195.5 -130.5t245.5 -47.5zM913 311q-128 0 -206 62.5t-84 177.5h125q6 -59 48 -90t117 -31q172 0 172 131q0 69 -56.5 99t-170.5 30v111q95 2 142 29t47 85q0 49 -33 77t-99 28q-133 0 -141 -102h-121
q8 104 74.5 162.5t190.5 58.5q120 0 186.5 -57t66.5 -148q0 -65 -36 -113t-101 -65v-2q174 -27 174 -205q0 -108 -72 -173t-223 -65z" />
    <glyph glyph-name="uni2463" unicode="&#x2463;" horiz-adv-x="1732" 
d="M913 1464q163 0 302.5 -56.5t237 -155t153 -237t55.5 -298.5q0 -214 -94.5 -384.5t-265.5 -267t-388 -96.5t-387.5 96.5t-265 267t-94.5 384.5t94.5 384.5t265 266.5t387.5 96zM913 92q175 0 316 81t220 224t79 320t-79 319.5t-220 223.5t-316 81t-316 -81t-219.5 -223.5
t-78.5 -319.5q0 -132 46 -248t127 -199t195.5 -130.5t245.5 -47.5zM1106 1124v-526h104v-115h-104v-149h-121v149h-416v109l377 532h160zM702 598h283v397h-4z" />
    <glyph glyph-name="uni2464" unicode="&#x2464;" horiz-adv-x="1732" 
d="M913 -31q-217 0 -387.5 96.5t-265 267t-94.5 384.5t94.5 384.5t265 266.5t387.5 96q163 0 302.5 -56.5t237 -155t153 -237t55.5 -298.5q0 -214 -94.5 -384.5t-265.5 -267t-388 -96.5zM913 92q175 0 316 81t220 224t79 320t-79 319.5t-220 223.5t-316 81t-316 -81
t-219.5 -223.5t-78.5 -319.5q0 -132 46 -248t127 -199t195.5 -130.5t245.5 -47.5zM922 311q-190 0 -285 146l92 80q38 -55 83 -81t110 -26q76 0 119.5 41.5t43.5 112.5q0 69 -40.5 112t-106.5 43q-94 0 -160 -73h-104l55 454h426v-116h-338l-29 -220h7q66 66 170 66
q100 0 171.5 -70.5t71.5 -195.5q0 -131 -79 -202t-207 -71z" />
    <glyph glyph-name="uni2465" unicode="&#x2465;" horiz-adv-x="1732" 
d="M913 -31q-217 0 -387.5 96.5t-265 267t-94.5 384.5t94.5 384.5t265 266.5t387.5 96q163 0 302.5 -56.5t237 -155t153 -237t55.5 -298.5q0 -214 -94.5 -384.5t-265.5 -267t-388 -96.5zM913 92q175 0 316 81t220 224t79 320t-79 319.5t-220 223.5t-316 81t-316 -81
t-219.5 -223.5t-78.5 -319.5q0 -132 46 -248t127 -199t195.5 -130.5t245.5 -47.5zM913 313q-127 0 -209.5 76.5t-82.5 220.5q0 67 22.5 130t43.5 94t61 81l180 226h151l-284 -334l2 -2q69 55 149 55q108 0 181 -70.5t73 -191.5q0 -123 -76.5 -204t-210.5 -81zM911 432
q72 0 119 43t47 117q0 73 -47.5 116.5t-118.5 43.5q-73 0 -120.5 -43.5t-47.5 -116.5q0 -74 47.5 -117t120.5 -43z" />
    <glyph glyph-name="uni2466" unicode="&#x2466;" horiz-adv-x="1732" 
d="M913 -31q-217 0 -387.5 96.5t-265 267t-94.5 384.5t94.5 384.5t265 266.5t387.5 96q163 0 302.5 -56.5t237 -155t153 -237t55.5 -298.5q0 -214 -94.5 -384.5t-265.5 -267t-388 -96.5zM913 92q175 0 316 81t220 224t79 320t-79 319.5t-220 223.5t-316 81t-316 -81
t-219.5 -223.5t-78.5 -319.5q0 -132 46 -248t127 -199t195.5 -130.5t245.5 -47.5zM731 313l350 670h-387v121h518v-115l-352 -676h-129z" />
    <glyph glyph-name="uni2467" unicode="&#x2467;" horiz-adv-x="1732" 
d="M913 -31q-217 0 -387.5 96.5t-265 267t-94.5 384.5t94.5 384.5t265 266.5t387.5 96q163 0 302.5 -56.5t237 -155t153 -237t55.5 -298.5q0 -214 -94.5 -384.5t-265.5 -267t-388 -96.5zM913 92q175 0 316 81t220 224t79 320t-79 319.5t-220 223.5t-316 81t-316 -81
t-219.5 -223.5t-78.5 -319.5q0 -132 46 -248t127 -199t195.5 -130.5t245.5 -47.5zM915 315q-137 0 -213.5 65.5t-76.5 170.5q0 75 39.5 126.5t109.5 72.5v4q-55 19 -89 66.5t-34 111.5q0 96 70.5 153.5t193.5 57.5t194 -57.5t71 -153.5q0 -64 -34 -111.5t-89 -66.5v-4
q70 -21 109.5 -72.5t39.5 -126.5q0 -104 -77 -170t-214 -66zM915 805q62 0 101 29.5t39 80.5t-39 80t-101 29t-100.5 -29t-38.5 -80t38.5 -80.5t100.5 -29.5zM915 434q82 0 125 34t43 99q0 63 -43.5 98t-124.5 35t-124 -34.5t-43 -98.5q0 -65 42.5 -99t124.5 -34z" />
    <glyph glyph-name="uni2468" unicode="&#x2468;" horiz-adv-x="1732" 
d="M913 -31q-217 0 -387.5 96.5t-265 267t-94.5 384.5t94.5 384.5t265 266.5t387.5 96q163 0 302.5 -56.5t237 -155t153 -237t55.5 -298.5q0 -214 -94.5 -384.5t-265.5 -267t-388 -96.5zM913 92q175 0 316 81t220 224t79 320t-79 319.5t-220 223.5t-316 81t-316 -81
t-219.5 -223.5t-78.5 -319.5q0 -132 46 -248t127 -199t195.5 -130.5t245.5 -47.5zM760 317l289 312l-2 4q-48 -32 -83 -46t-77 -14q-106 0 -176 76.5t-70 190.5q0 123 79.5 203.5t215.5 80.5q133 0 214 -78t81 -219q0 -156 -115 -286l-194 -224h-162zM936 680q78 0 125 45
t47 119q0 73 -46.5 117.5t-123.5 44.5q-76 0 -125 -46t-49 -120q0 -72 47.5 -116t124.5 -44z" />
    <glyph glyph-name="uni24EA" unicode="&#x24ea;" horiz-adv-x="1732" 
d="M913 -31q-217 0 -387.5 96.5t-265 267t-94.5 384.5t94.5 384.5t265 266.5t387.5 96q163 0 302.5 -56.5t237 -155t153 -237t55.5 -298.5q0 -214 -94.5 -384.5t-265.5 -267t-388 -96.5zM913 92q175 0 316 81t220 224t79 320t-79 319.5t-220 223.5t-316 81t-316 -81
t-219.5 -223.5t-78.5 -319.5q0 -132 46 -248t127 -199t195.5 -130.5t245.5 -47.5zM915 307q-159 0 -250.5 110t-91.5 306q0 194 91.5 303t250.5 109q155 0 246.5 -109.5t91.5 -302.5q0 -195 -91.5 -305.5t-246.5 -110.5zM913 428q101 0 157 79.5t56 215.5q0 134 -56 213.5
t-157 79.5q-100 0 -157.5 -80t-57.5 -213q0 -136 57 -215.5t158 -79.5z" />
    </font>
</defs>
</svg>
