<?xml version="1.0" standalone="no"?>
<!DOCTYPE svg PUBLIC "-//W3C//DTD SVG 1.1//EN" "http://www.w3.org/Graphics/SVG/1.1/DTD/svg11.dtd" >
<svg xmlns="http://www.w3.org/2000/svg" xmlns:xlink="http://www.w3.org/1999/xlink" version="1.1">
<metadata>
Created by FontForge 20170731 at Sat Jul 23 01:25:00 2022
 By Aleksey,,,
Copyright (c) 2015 by Reto Moser. All rights reserved.
</metadata>
<defs>
<font id="GTEestiProDisplay-Regular" horiz-adv-x="1228" >
  <font-face 
    font-family="GT Eesti Pro Display"
    font-weight="400"
    font-stretch="normal"
    units-per-em="2048"
    panose-1="0 0 5 0 0 0 0 0 0 0"
    ascent="1536"
    descent="-512"
    x-height="946"
    cap-height="1434"
    bbox="-838 -516 2472 1815"
    underline-thickness="102"
    underline-position="-307"
    unicode-range="U+0020-FB02"
  />
<missing-glyph horiz-adv-x="1576" 
d="M788 -31q-213 0 -384 96.5t-267 267.5t-96 384q0 160 56.5 299t155 237.5t237 154.5t298.5 56q214 0 385 -95.5t267 -266.5t96 -385q0 -213 -96 -384t-267 -267.5t-385 -96.5zM788 20q149 0 279 53.5t223 146.5t146 224.5t53 282.5l-105 133l-143 -61l-139 184l-162 -90
l-152 242l-151 -242l-162 90l-139 -184l-143 61l-105 -133q0 -201 90.5 -363t250.5 -253t359 -91zM578 651q-31 0 -51.5 20.5t-20.5 51.5t20.5 51.5t51.5 20.5t51 -20.5t20 -51.5t-20 -51.5t-51 -20.5zM997 651q-31 0 -51 20.5t-20 51.5t20 51.5t51 20.5t51.5 -20.5
t20.5 -51.5t-20.5 -51.5t-51.5 -20.5zM702 522l74 207q1 7 8.5 10t14.5 0q6 -2 9.5 -8.5t0.5 -13.5l-57 -160h69q8 0 13.5 -5.5t5.5 -12.5q0 -6 -6 -11.5t-13 -5.5h-119zM385 350q-61 0 -101 40t-40 102t40 101.5t101 39.5t101 -39.5t40 -101.5t-40 -102t-101 -40zM1190 350
q-61 0 -101 40t-40 102t39.5 101.5t101.5 39.5t101.5 -39.5t39.5 -101.5t-40 -102t-101 -40zM788 395q-95 0 -126 -61q-6 -12 -19 -12q-16 0 -16 18q0 35 49.5 63.5t111.5 28.5t112 -28.5t50 -63.5q0 -18 -16 -18q-13 0 -19 12q-31 61 -127 61z" />
    <glyph glyph-name="fi" unicode="fi" horiz-adv-x="1081" 
d="M190 1077q0 176 96 276.5t269 100.5h39v-186h-31q-78 0 -125 -44t-47 -141v-137h187v-170h-187v-776h-201v776h-149v170h149v131zM725 1413h246v-246h-246v246zM748 0v946h200v-946h-200z" />
    <glyph glyph-name="fl" unicode="fl" horiz-adv-x="1081" 
d="M190 1077q0 176 96 276.5t269 100.5h39v-186h-31q-78 0 -125 -44t-47 -141v-137h187v-170h-187v-776h-201v776h-149v170h149v131zM748 1434h200v-1434h-200v1434z" />
    <glyph glyph-name="f_f" unicode="ff" 
d="M190 1077q0 176 96 276.5t269 100.5h39v-186h-31q-78 0 -125 -44t-47 -141v-137h187v-170h-187v-776h-201v776h-149v170h149v131zM1178 1268q-78 0 -125 -44t-47 -141v-137h186v-170h-186v-776h-201v776h-150v170h150v131q0 176 95.5 276.5t268.5 100.5h39v-186h-30z" />
    <glyph glyph-name="f_f_i" unicode="ffi" horiz-adv-x="1695" 
d="M190 1077q0 176 96 276.5t269 100.5h39v-186h-31q-78 0 -125 -44t-47 -141v-137h187v-170h-187v-776h-201v776h-149v170h149v131zM805 1077q0 176 95.5 276.5t268.5 100.5h39v-186h-30q-78 0 -125 -44t-47 -141v-137h186v-170h-186v-776h-201v776h-150v170h150v131z
M1339 1413h246v-246h-246v246zM1362 0v946h201v-946h-201z" />
    <glyph glyph-name="f_f_l" unicode="ffl" horiz-adv-x="1695" 
d="M190 1077q0 176 96 276.5t269 100.5h39v-186h-31q-78 0 -125 -44t-47 -141v-137h187v-170h-187v-776h-201v776h-149v170h149v131zM805 1077q0 176 95.5 276.5t268.5 100.5h39v-186h-30q-78 0 -125 -44t-47 -141v-137h186v-170h-186v-776h-201v776h-150v170h150v131z
M1362 1434h201v-1434h-201v1434z" />
    <glyph glyph-name=".notdef" horiz-adv-x="1576" 
d="M788 -31q-213 0 -384 96.5t-267 267.5t-96 384q0 160 56.5 299t155 237.5t237 154.5t298.5 56q214 0 385 -95.5t267 -266.5t96 -385q0 -213 -96 -384t-267 -267.5t-385 -96.5zM788 20q149 0 279 53.5t223 146.5t146 224.5t53 282.5l-105 133l-143 -61l-139 184l-162 -90
l-152 242l-151 -242l-162 90l-139 -184l-143 61l-105 -133q0 -201 90.5 -363t250.5 -253t359 -91zM578 651q-31 0 -51.5 20.5t-20.5 51.5t20.5 51.5t51.5 20.5t51 -20.5t20 -51.5t-20 -51.5t-51 -20.5zM997 651q-31 0 -51 20.5t-20 51.5t20 51.5t51 20.5t51.5 -20.5
t20.5 -51.5t-20.5 -51.5t-51.5 -20.5zM702 522l74 207q1 7 8.5 10t14.5 0q6 -2 9.5 -8.5t0.5 -13.5l-57 -160h69q8 0 13.5 -5.5t5.5 -12.5q0 -6 -6 -11.5t-13 -5.5h-119zM385 350q-61 0 -101 40t-40 102t40 101.5t101 39.5t101 -39.5t40 -101.5t-40 -102t-101 -40zM1190 350
q-61 0 -101 40t-40 102t39.5 101.5t101.5 39.5t101.5 -39.5t39.5 -101.5t-40 -102t-101 -40zM788 395q-95 0 -126 -61q-6 -12 -19 -12q-16 0 -16 18q0 35 49.5 63.5t111.5 28.5t112 -28.5t50 -63.5q0 -18 -16 -18q-13 0 -19 12q-31 61 -127 61z" />
    <glyph glyph-name=".null" horiz-adv-x="0" 
 />
    <glyph glyph-name="nonmarkingreturn" horiz-adv-x="682" 
 />
    <glyph glyph-name="NULL" horiz-adv-x="0" 
 />
    <glyph glyph-name="NULL" horiz-adv-x="0" 
 />
    <glyph glyph-name="space" unicode=" " horiz-adv-x="593" 
 />
    <glyph glyph-name="exclam" unicode="!" horiz-adv-x="653" 
d="M258 434l-49 1000h235l-49 -1000h-137zM449 244v-244h-244v244h244z" />
    <glyph glyph-name="quotedbl" unicode="&#x22;" horiz-adv-x="598" 
d="M150 946l-48 518h170l-47 -518h-75zM373 946l-47 518h170l-47 -518h-76z" />
    <glyph glyph-name="numbersign" unicode="#" horiz-adv-x="1290" 
d="M1188 926h-250l-68 -373h244v-102h-262l-82 -451h-111l82 451h-288l-82 -451h-111l82 451h-240v102h258l68 373h-252v102h270l74 406h111l-74 -406h289l74 406h110l-74 -406h232v-102zM760 553l67 373h-288l-68 -373h289z" />
    <glyph glyph-name="dollar" unicode="$" horiz-adv-x="1036" 
d="M975 377q0 -182 -112 -290.5t-308 -117.5v-127h-57v127q-207 7 -322 120t-115 300h205q10 -120 68.5 -173t163.5 -58v479q-146 62 -201 96q-150 94 -175 246q-5 33 -5 70q0 160 99.5 257.5t281.5 106.5v148h57v-148q176 -6 284.5 -99.5t108.5 -273.5h-205
q-9 176 -188 185v-391q147 -65 185 -86q156 -86 207 -212q28 -71 28 -159zM326 1059q0 -69 44 -115t128 -86v365q-83 -8 -127.5 -49.5t-44.5 -114.5zM555 160q107 6 159 57.5t52 140.5q0 92 -55 149t-156 103v-450z" />
    <glyph glyph-name="percent" unicode="%" horiz-adv-x="1550" 
d="M430 1413q145 0 236.5 -92.5t91.5 -235.5t-91.5 -235t-236.5 -92t-236.5 92t-91.5 235t91.5 235.5t236.5 92.5zM303 0l809 1382h117l-809 -1382h-117zM430 1298q-94 0 -149.5 -59t-55.5 -154t55.5 -154t149.5 -59t149.5 59t55.5 154t-55.5 154t-149.5 59zM1120 645
q145 0 236.5 -92.5t91.5 -235.5t-91.5 -235t-236.5 -92t-236 92t-91 235t91 235.5t236 92.5zM1120 530q-94 0 -149.5 -59t-55.5 -154t55.5 -154t149.5 -59t149.5 59t55.5 154t-55.5 154t-149.5 59z" />
    <glyph glyph-name="ampersand" unicode="&#x26;" horiz-adv-x="1378" 
d="M1296 643q-90 -233 -192 -377l190 -266h-237l-84 117q-167 -148 -395 -148q-217 0 -351.5 120.5t-134.5 324.5q0 163 90 281.5t254 174.5l-22 31q-95 136 -95 256q0 121 87 188.5t237 67.5q145 0 279 -51l-64 -182q-119 39 -217 39q-117 0 -117 -82q0 -54 64 -144
l397 -559q67 107 131 277zM580 164q159 0 280 112l-319 447q-118 -37 -182 -113t-64 -184q0 -122 77.5 -192t207.5 -70z" />
    <glyph glyph-name="quotesingle" unicode="'" horiz-adv-x="393" 
d="M291 1464l-45 -518h-96l-48 518h189z" />
    <glyph glyph-name="parenleft" unicode="(" horiz-adv-x="610" 
d="M428 1573l152 -113q-155 -205 -227 -418.5t-72 -472.5q0 -258 71 -475.5t219 -421.5l-151 -112q-165 229 -251.5 467.5t-86.5 541.5q0 305 87.5 540.5t258.5 463.5z" />
    <glyph glyph-name="parenright" unicode=")" horiz-adv-x="610" 
d="M190 -440l-151 112q149 204 220 421.5t71 475.5q0 259 -72 472.5t-227 418.5l151 113q171 -228 258.5 -463.5t87.5 -540.5q0 -303 -86.5 -541.5t-251.5 -467.5z" />
    <glyph glyph-name="asterisk" unicode="*" horiz-adv-x="835" 
d="M774 1153l-254 -72l164 -204l-121 -91l-145 222l-146 -224l-120 90l163 205l-254 72l48 141l245 -92l-12 264h152l-13 -262l246 92z" />
    <glyph glyph-name="plus" unicode="+" 
d="M666 1108v-451h448v-94h-448v-450h-103v450h-448v94h448v451h103z" />
    <glyph glyph-name="comma" unicode="," horiz-adv-x="471" 
d="M358 244v-244l-145 -293h-100l108 293h-106v244h243z" />
    <glyph glyph-name="hyphen" unicode="-" horiz-adv-x="718" 
d="M627 641v-197h-535v197h535z" />
    <glyph glyph-name="period" unicode="." horiz-adv-x="468" 
d="M356 244v-244h-243v244h243z" />
    <glyph glyph-name="slash" unicode="/" horiz-adv-x="1243" 
d="M1024 1602l158 -89l-961 -1720l-160 86z" />
    <glyph glyph-name="zero" unicode="0" horiz-adv-x="1159" 
d="M580 1413q235 0 361 -187t126 -534q0 -348 -126 -535.5t-361 -187.5t-361.5 188t-126.5 535t126.5 534t361.5 187zM580 1225q-131 0 -205 -141.5t-74 -391.5t74 -392t205 -142q130 0 204 141.5t74 392.5q0 250 -73.5 391.5t-204.5 141.5z" />
    <glyph glyph-name="one" unicode="1" horiz-adv-x="645" 
d="M440 1382v-1382h-200v1182h-86v200h286z" />
    <glyph glyph-name="two" unicode="2" horiz-adv-x="1019" 
d="M61 0v147l478 541q100 113 140 186.5t40 143.5q0 95 -58.5 151t-158.5 56q-106 0 -169.5 -61t-66.5 -167h-200q5 192 124 304t320 112q195 0 306.5 -102.5t111.5 -282.5q0 -107 -50.5 -209t-170.5 -235l-353 -391h572v-193h-865z" />
    <glyph glyph-name="three" unicode="3" horiz-adv-x="1054" 
d="M510 1413q192 0 308 -97t116 -257q0 -122 -65.5 -207t-182.5 -113v-4q143 -17 220 -107.5t77 -242.5q0 -194 -122 -305t-335 -111t-336 106.5t-129 295.5h201q7 -101 77 -157t187 -56q246 0 246 239q0 127 -77 183t-249 53h-65v180h65q279 0 279 211q0 97 -56.5 149
t-162.5 52q-108 0 -168.5 -51t-63.5 -144h-200q6 177 123.5 280t312.5 103z" />
    <glyph glyph-name="four" unicode="4" horiz-adv-x="1105" 
d="M1055 436v-192h-146v-244h-196v244h-672v168l678 970h190v-946h146zM258 436h455v641h-8z" />
    <glyph glyph-name="five" unicode="5" horiz-adv-x="1073" 
d="M600 909q192 0 307 -123t115 -327q0 -228 -128.5 -359t-352.5 -131q-170 0 -294 74.5t-186 212.5l170 104q54 -105 129 -153.5t181 -48.5q127 0 199.5 79.5t72.5 217.5q0 130 -71 206t-193 76q-74 0 -138.5 -30t-99.5 -82h-178l72 757h706v-192h-544l-39 -371h4
q46 41 118 65.5t150 24.5z" />
    <glyph glyph-name="six" unicode="6" horiz-adv-x="1077" 
d="M551 -31q-223 0 -356.5 136t-133.5 362q0 171 63.5 316.5t215.5 322.5l242 287h249l-507 -594l6 -4q116 125 270 125q194 0 315 -131t121 -340q0 -212 -135 -346t-350 -134zM549 158q127 0 202.5 79.5t75.5 211.5t-75.5 210t-204.5 78q-127 0 -203 -79.5t-76 -211.5
t76 -210t205 -78z" />
    <glyph glyph-name="seven" unicode="7" horiz-adv-x="931" 
d="M891 1382v-174l-555 -1208h-213l553 1188h-645v194h860z" />
    <glyph glyph-name="eight" unicode="8" horiz-adv-x="1085" 
d="M543 -31q-217 0 -344 111.5t-127 302.5q0 132 67.5 226.5t186.5 129.5v4q-96 29 -155.5 113.5t-59.5 192.5q0 164 118.5 264t313.5 100t313.5 -100t118.5 -264q0 -108 -59.5 -192.5t-155.5 -113.5v-4q119 -35 186.5 -129.5t67.5 -226.5q0 -191 -127 -302.5t-344 -111.5z
M543 829q101 0 161 54.5t60 148.5t-59 148.5t-162 54.5t-162 -54.5t-59 -148.5t60 -148.5t161 -54.5zM543 147q124 0 192 66t68 186q0 114 -70 181t-190 67t-190 -67t-70 -181q0 -120 68 -186t192 -66z" />
    <glyph glyph-name="nine" unicode="9" horiz-adv-x="1048" 
d="M272 0l490 600l-4 4q-108 -117 -277 -117q-184 0 -307 131t-123 326q0 207 133.5 338t345.5 131q221 0 349.5 -139t128.5 -377q0 -151 -60.5 -290.5t-202.5 -317.5l-233 -289h-240zM532 672q122 0 195.5 75t73.5 199q0 126 -74.5 202.5t-198.5 76.5q-122 0 -195 -75.5
t-73 -201.5q0 -125 74.5 -200.5t197.5 -75.5z" />
    <glyph glyph-name="colon" unicode=":" horiz-adv-x="468" 
d="M356 946v-244h-243v244h243zM356 244v-244h-243v244h243z" />
    <glyph glyph-name="semicolon" unicode=";" horiz-adv-x="471" 
d="M358 946v-244h-243v244h243zM358 244v-244l-145 -293h-100l108 293h-106v244h243z" />
    <glyph glyph-name="less" unicode="&#x3c;" 
d="M1075 1071v-110l-803 -349l803 -346v-110l-921 405v105z" />
    <glyph glyph-name="equal" unicode="=" 
d="M1133 856v-98h-1037v98h1037zM1133 469v-98h-1037v98h1037z" />
    <glyph glyph-name="greater" unicode="&#x3e;" 
d="M154 1071l921 -405v-105l-921 -405v110l802 346l-802 349v110z" />
    <glyph glyph-name="question" unicode="?" horiz-adv-x="983" 
d="M494 1464q188 0 297.5 -106t109.5 -279q0 -105 -41.5 -178.5t-114.5 -140.5q-11 -10 -43.5 -38.5t-45.5 -40.5t-36 -39t-32.5 -48t-18 -52.5t-8.5 -66.5v-41h-194v60q0 48 11 92t25 74t40.5 64t45.5 53t53 51.5t50 48.5q51 53 77.5 99t26.5 105q0 83 -51.5 136t-150.5 53
q-102 0 -166 -64.5t-64 -169.5h-203q0 200 118.5 314t314.5 114zM586 244v-244h-244v244h244z" />
    <glyph glyph-name="at" unicode="@" horiz-adv-x="1925" 
d="M987 1413q246 0 436 -98.5t295 -278.5t105 -415q0 -141 -41.5 -255.5t-124 -183.5t-191.5 -69q-97 0 -154.5 40.5t-88.5 118.5h-6q-33 -70 -109 -119t-186 -49q-171 0 -290.5 123.5t-119.5 323.5q0 201 119.5 323.5t292.5 122.5q189 0 274 -157h2v127h180v-574
q0 -71 29 -103t74 -32q83 0 127.5 93.5t44.5 258.5q0 153 -52.5 277t-143.5 204t-212 123t-260 43q-117 0 -222 -26.5t-196 -83t-157 -138.5t-104 -200t-38 -260q0 -143 43.5 -261.5t116 -198.5t168.5 -135.5t198.5 -80.5t209.5 -25q210 0 401 86l63 -147q-247 -94 -466 -94
q-129 0 -254.5 30.5t-243.5 98.5t-207 165t-143 241t-54 317q0 206 66.5 371.5t185.5 273.5t280.5 165.5t352.5 57.5zM961 821q-114 0 -185 -76.5t-71 -191.5q0 -116 70.5 -192t185.5 -76q114 0 183.5 76t69.5 192q0 115 -70 191.5t-183 76.5z" />
    <glyph glyph-name="A" unicode="A" horiz-adv-x="1388" 
d="M1145 0l-137 356h-627l-137 -356h-234l586 1434h197l585 -1434h-233zM457 553h475l-238 614z" />
    <glyph glyph-name="B" unicode="B" horiz-adv-x="1265" 
d="M895 762q133 -20 211 -114t78 -240q0 -130 -61 -224t-159 -139t-221 -45h-600v1434h545q189 0 303.5 -98t114.5 -267q0 -109 -55 -190t-156 -113v-4zM643 1233h-287v-397h269q124 0 186.5 51t62.5 147q0 98 -62.5 148.5t-168.5 50.5zM700 201q119 0 185.5 60.5
t66.5 160.5q0 101 -68.5 161t-203.5 60h-324v-442h344z" />
    <glyph glyph-name="C" unicode="C" horiz-adv-x="1396" 
d="M840 -31q-225 0 -400 93.5t-271.5 264t-96.5 390.5q0 165 56.5 304.5t156.5 236.5t243 151.5t312 54.5q287 0 506 -157l-132 -187q-175 127 -383 127q-229 0 -377.5 -145.5t-148.5 -384.5t148.5 -385t377.5 -146q208 0 383 127l132 -186q-220 -158 -506 -158z" />
    <glyph glyph-name="D" unicode="D" horiz-adv-x="1398" 
d="M606 1434q154 0 286.5 -50t228.5 -141t151 -226.5t55 -299.5t-55 -299.5t-151 -226.5t-228.5 -141t-286.5 -50h-463v1434h463zM604 1233h-248v-1032h248q218 0 354 135t136 381t-136 381t-354 135z" />
    <glyph glyph-name="E" unicode="E" horiz-adv-x="1064" 
d="M356 201h617v-201h-830v1434h820v-201h-607v-340h559v-201h-559v-491z" />
    <glyph glyph-name="F" unicode="F" horiz-adv-x="1034" 
d="M973 1233h-617v-404h570v-200h-570v-629h-213v1434h830v-201z" />
    <glyph glyph-name="G" unicode="G" horiz-adv-x="1601" 
d="M870 793h680v-86q0 -112 -27.5 -218.5t-86.5 -201t-142.5 -165t-203 -112t-261.5 -41.5q-161 0 -300.5 53t-240.5 148.5t-158.5 235.5t-57.5 307q0 163 55.5 302.5t154 238t240.5 154.5t309 56q324 0 551 -192l-145 -178q-75 68 -182 110.5t-234 42.5
q-231 0 -373.5 -150.5t-142.5 -381.5q0 -232 147 -380.5t384 -148.5q112 0 204.5 36.5t150 96t91 129.5t39.5 144h-451v201z" />
    <glyph glyph-name="H" unicode="H" horiz-adv-x="1470" 
d="M1114 1434h213v-1434h-213v653h-758v-653h-213v1434h213v-576h758v576z" />
    <glyph glyph-name="I" unicode="I" horiz-adv-x="503" 
d="M360 1434v-1434h-217v1434h217z" />
    <glyph glyph-name="J" unicode="J" horiz-adv-x="561" 
d="M418 1434v-1082q0 -184 -78.5 -273t-235.5 -89h-73v207h53q63 0 92 33.5t29 121.5v1082h213z" />
    <glyph glyph-name="K" unicode="K" horiz-adv-x="1329" 
d="M1319 0h-315l-648 715v-715h-213v1434h213v-637l570 637h295l-623 -658z" />
    <glyph glyph-name="L" unicode="L" horiz-adv-x="989" 
d="M356 1434v-1229h623v-205h-836v1434h213z" />
    <glyph glyph-name="M" unicode="M" horiz-adv-x="1761" 
d="M1403 1434l348 -1434h-227l-238 1024h-4l-321 -805h-160l-322 805h-4l-237 -1024h-228l348 1434h174l347 -881h4l346 881h174z" />
    <glyph glyph-name="N" unicode="N" horiz-adv-x="1431" 
d="M1288 1434v-1434h-223l-705 1071h-4v-1071h-213v1434h224l704 -1072h4v1072h213z" />
    <glyph glyph-name="O" unicode="O" horiz-adv-x="1638" 
d="M819 1464q211 0 381.5 -94t268.5 -265.5t98 -387.5t-98 -387.5t-268.5 -266t-381.5 -94.5t-381.5 94.5t-268 266t-97.5 387.5q0 162 57 302t156.5 237t237.5 152.5t296 55.5zM819 1247q-226 0 -370 -149.5t-144 -380.5t144 -381t370 -150t370 150t144 381t-144 380.5
t-370 149.5z" />
    <glyph glyph-name="P" unicode="P" horiz-adv-x="1107" 
d="M633 1434q208 0 326 -121.5t118 -313.5q0 -190 -118 -312t-326 -122h-277v-565h-213v1434h490zM604 766q113 0 178.5 60t65.5 173t-65.5 173.5t-178.5 60.5h-248v-467h248z" />
    <glyph glyph-name="Q" unicode="Q" horiz-adv-x="1636" 
d="M1595 0h-270l-86 88q-186 -119 -420 -119q-211 0 -381.5 94.5t-268 266t-97.5 387.5q0 162 57 302t156.5 237t237.5 152.5t296 55.5q211 0 381.5 -94t268.5 -265.5t98 -387.5q0 -148 -47.5 -276.5t-133.5 -225.5zM819 186q146 0 260 66l-305 311h273l180 -184
q106 140 106 338q0 231 -144 380.5t-370 149.5t-370 -149.5t-144 -380.5t144 -381t370 -150z" />
    <glyph glyph-name="R" unicode="R" horiz-adv-x="1191" 
d="M903 0l-418 596h-129v-596h-213v1434h490q193 0 315.5 -114t122.5 -308q0 -161 -91 -270.5t-243 -137.5l434 -604h-268zM356 1233v-436h242q123 0 183.5 58.5t60.5 156.5q0 101 -60.5 161t-183.5 60h-242z" />
    <glyph glyph-name="S" unicode="S" horiz-adv-x="1024" 
d="M532 1464q191 0 379 -96l-96 -203q-147 84 -289 84q-164 0 -164 -123q0 -47 26.5 -85t86.5 -85l256 -196q114 -88 167.5 -178.5t53.5 -210.5q0 -192 -124.5 -297t-333.5 -105q-129 0 -250 37t-213 96l96 201q203 -117 369 -117q111 0 169 48t58 124q0 58 -36 107.5
t-116 112.5l-243 192q-97 76 -147 159t-50 189q0 159 106.5 252.5t294.5 93.5z" />
    <glyph glyph-name="T" unicode="T" horiz-adv-x="1060" 
d="M1040 1434v-201h-403v-1233h-213v1233h-404v201h1020z" />
    <glyph glyph-name="U" unicode="U" horiz-adv-x="1396" 
d="M1274 1434v-881q0 -267 -156.5 -425.5t-419.5 -158.5t-419 158.5t-156 425.5v881h223v-875q0 -170 99 -269.5t253 -99.5t253.5 99.5t99.5 269.5v875h223z" />
    <glyph glyph-name="V" unicode="V" horiz-adv-x="1259" 
d="M1249 1434l-520 -1434h-199l-520 1434h246l371 -1131h6l371 1131h245z" />
    <glyph glyph-name="W" unicode="W" horiz-adv-x="2017" 
d="M1987 1434l-431 -1434h-208l-336 1073h-6l-336 -1073h-209l-430 1434h237l295 -1094h4l336 1094h211l336 -1094h4l295 1094h238z" />
    <glyph glyph-name="X" unicode="X" horiz-adv-x="1269" 
d="M1249 0h-252l-362 588l-361 -588h-254l482 764l-418 670h254l297 -490l299 490h252l-418 -670z" />
    <glyph glyph-name="Y" unicode="Y" horiz-adv-x="1112" 
d="M1112 1434l-448 -859v-575h-215v573l-449 861h248l305 -633h6l305 633h248z" />
    <glyph glyph-name="Z" unicode="Z" horiz-adv-x="1110" 
d="M297 201h772v-201h-1028v201l741 1032h-676v201h932v-201z" />
    <glyph glyph-name="bracketleft" unicode="[" horiz-adv-x="712" 
d="M692 1546v-182h-266v-1624h266v-180h-467v1986h467z" />
    <glyph glyph-name="backslash" unicode="\" horiz-adv-x="1243" 
d="M1022 -207l-961 1720l158 89l963 -1723z" />
    <glyph glyph-name="bracketright" unicode="]" horiz-adv-x="712" 
d="M20 -440v180h267v1624h-267v182h467v-1986h-467z" />
    <glyph glyph-name="asciicircum" unicode="^" 
d="M707 1464l294 -659h-157l-230 532l-229 -532h-158l295 659h185z" />
    <glyph glyph-name="underscore" unicode="_" horiz-adv-x="1091" 
d="M1071 -31v-168h-1051v168h1051z" />
    <glyph glyph-name="grave" unicode="`" horiz-adv-x="657" 
d="M362 1448l193 -315h-156l-297 315h260z" />
    <glyph glyph-name="a" unicode="a" horiz-adv-x="1169" 
d="M522 -31q-94 0 -177.5 35t-146.5 98.5t-100 159.5t-37 211t37 211t100 159.5t146.5 98.5t177.5 35q222 0 320 -170h4v139h201v-946h-201v139h-4q-98 -170 -320 -170zM565 166q131 0 211 85.5t80 221.5t-80 221.5t-211 85.5t-211 -85.5t-80 -221.5t80 -221.5t211 -85.5z
" />
    <glyph glyph-name="b" unicode="b" horiz-adv-x="1179" 
d="M657 -31q-221 0 -319 170h-4v-139h-201v1434h201v-627h4q98 170 319 170q94 0 177.5 -35t146.5 -98.5t100 -159.5t37 -211t-37 -211t-100 -159.5t-146.5 -98.5t-177.5 -35zM614 166q131 0 211 85.5t80 221.5t-80 221.5t-211 85.5t-210.5 -85.5t-79.5 -221.5t79.5 -221.5
t210.5 -85.5z" />
    <glyph glyph-name="c" unicode="c" horiz-adv-x="946" 
d="M582 -31q-230 0 -375.5 139.5t-145.5 364.5t145.5 364.5t375.5 139.5q177 0 323 -96l-94 -170q-114 71 -236 71q-135 0 -218 -87t-83 -222t83 -222t218 -87q120 0 236 72l94 -170q-148 -97 -323 -97z" />
    <glyph glyph-name="d" unicode="d" horiz-adv-x="1179" 
d="M522 -31q-94 0 -177.5 35t-146.5 98.5t-100 159.5t-37 211t37 211t100 159.5t146.5 98.5t177.5 35q222 0 320 -170h4v627h201v-1434h-201v139h-4q-98 -170 -320 -170zM565 166q131 0 211 85.5t80 221.5t-80 221.5t-211 85.5t-211 -85.5t-80 -221.5t80 -221.5t211 -85.5z
" />
    <glyph glyph-name="e" unicode="e" horiz-adv-x="1058" 
d="M545 977q214 0 333 -136t119 -368v-33h-733q6 -125 85.5 -201.5t201.5 -76.5q167 0 291 166l141 -133q-165 -226 -428 -226q-225 0 -359.5 138.5t-134.5 363.5q0 221 131 363.5t353 142.5zM532 793q-103 0 -171.5 -53t-86.5 -154h506q-6 97 -73 152t-175 55z" />
    <glyph glyph-name="f" unicode="f" horiz-adv-x="614" 
d="M563 1268q-78 0 -125 -44t-47 -141v-137h187v-170h-187v-776h-201v776h-149v170h149v131q0 176 96 276.5t269 100.5h39v-186h-31z" />
    <glyph glyph-name="g" unicode="g" horiz-adv-x="1169" 
d="M600 -440q-145 0 -364 43l38 194q190 -43 326 -43q137 0 191.5 59t54.5 214v112h-4q-98 -170 -320 -170q-94 0 -177.5 35t-146.5 98.5t-100 159.5t-37 211t37 211t100 159.5t146.5 98.5t177.5 35q222 0 320 -170h4v139h201v-946q-3 -108 -27.5 -188t-63 -127.5t-97 -76
t-119.5 -38.5t-140 -10zM565 166q131 0 211 85.5t80 221.5t-80 221.5t-211 85.5t-211 -85.5t-80 -221.5t80 -221.5t211 -85.5z" />
    <glyph glyph-name="h" unicode="h" horiz-adv-x="1116" 
d="M334 1434v-631h4q97 174 309 174q162 0 259.5 -95.5t97.5 -299.5v-582h-201v547q0 229 -217 229q-118 0 -185 -77t-67 -246v-453h-201v1434h201z" />
    <glyph glyph-name="i" unicode="i" horiz-adv-x="466" 
d="M356 1413v-246h-245v246h245zM133 0v946h201v-946h-201z" />
    <glyph glyph-name="j" unicode="j" horiz-adv-x="466" 
d="M356 1413v-246h-245v246h245zM-12 -233h37q58 0 83 26t25 88v1065h201v-1085q0 -132 -73 -204.5t-206 -72.5h-67v183z" />
    <glyph glyph-name="k" unicode="k" horiz-adv-x="989" 
d="M979 0h-264l-381 465v-465h-201v1434h201v-891l338 403h264l-397 -430z" />
    <glyph glyph-name="l" unicode="l" horiz-adv-x="466" 
d="M334 1434v-1434h-201v1434h201z" />
    <glyph glyph-name="m" unicode="m" horiz-adv-x="1636" 
d="M123 0v946h201v-147h4q39 91 113.5 134.5t170.5 43.5q207 0 287 -193h4q41 96 121.5 144.5t175.5 48.5q144 0 234 -96t90 -295v-586h-201v575q0 98 -47.5 149.5t-138.5 51.5q-98 0 -155.5 -68.5t-57.5 -215.5v-492h-201v575q0 98 -48 149.5t-140 51.5q-97 0 -154 -69.5
t-57 -217.5v-489h-201z" />
    <glyph glyph-name="n" unicode="n" horiz-adv-x="1105" 
d="M637 977q163 0 259.5 -95.5t96.5 -299.5v-582h-200v547q0 229 -218 229q-117 0 -184 -77t-67 -246v-453h-201v946h201v-143h4q97 174 309 174z" />
    <glyph glyph-name="o" unicode="o" horiz-adv-x="1159" 
d="M580 977q223 0 370.5 -143t147.5 -361t-147.5 -361t-370.5 -143t-371 143t-148 361t148 361t371 143zM580 780q-136 0 -221 -84t-85 -223t85 -223t221 -84t220.5 84t84.5 223t-84.5 223t-220.5 84z" />
    <glyph glyph-name="p" unicode="p" horiz-adv-x="1169" 
d="M123 -410v1356h201v-139h4q98 170 319 170q94 0 177.5 -35t146.5 -98.5t100 -159.5t37 -211t-37 -211t-100 -159.5t-146.5 -98.5t-177.5 -35q-221 0 -319 170h-4v-549h-201zM604 166q131 0 211 85.5t80 221.5t-80 221.5t-211 85.5t-211 -85.5t-80 -221.5t80 -221.5
t211 -85.5z" />
    <glyph glyph-name="q" unicode="q" horiz-adv-x="1169" 
d="M846 -410v549h-4q-98 -170 -320 -170q-94 0 -177.5 35t-146.5 98.5t-100 159.5t-37 211t37 211t100 159.5t146.5 98.5t177.5 35q222 0 320 -170h4v139h201v-1356h-201zM565 166q131 0 211 85.5t80 221.5t-80 221.5t-211 85.5t-211 -85.5t-80 -221.5t80 -221.5t211 -85.5z
" />
    <glyph glyph-name="r" unicode="r" horiz-adv-x="675" 
d="M655 975v-236h-30q-151 0 -226 -76.5t-75 -242.5v-420h-201v946h201v-207h4q35 109 115.5 172.5t197.5 63.5h14z" />
    <glyph glyph-name="s" unicode="s" horiz-adv-x="825" 
d="M416 -31q-210 0 -385 101l90 178q155 -90 301 -90q147 0 147 88q0 31 -21 54.5t-79 51.5l-172 84q-199 95 -199 273q0 129 89.5 198.5t246.5 69.5q164 0 328 -74l-82 -174q-144 62 -252 62q-117 0 -117 -72q0 -34 24 -59t85 -54l176 -84q188 -87 188 -266
q0 -141 -98.5 -214t-269.5 -73z" />
    <glyph glyph-name="t" unicode="t" horiz-adv-x="632" 
d="M592 776h-193v-495q0 -51 23.5 -75t75.5 -24h49v-184h-92q-124 0 -190 63.5t-66 180.5v534h-168v170h168v379h200v-379h193v-170z" />
    <glyph glyph-name="u" unicode="u" horiz-adv-x="1077" 
d="M459 -31q-72 0 -133 23t-109.5 69.5t-76 126t-27.5 185.5v573h204v-553q0 -114 52.5 -171.5t146.5 -57.5q111 0 174.5 79t63.5 251v452h200v-946h-200v143h-4q-87 -174 -291 -174z" />
    <glyph glyph-name="v" unicode="v" horiz-adv-x="968" 
d="M723 946h235l-380 -946h-189l-379 946h236l237 -706z" />
    <glyph glyph-name="w" unicode="w" horiz-adv-x="1476" 
d="M1245 946h221l-317 -946h-184l-226 678l-227 -678h-184l-318 946h221l191 -682l219 682h195l219 -682z" />
    <glyph glyph-name="x" unicode="x" horiz-adv-x="1011" 
d="M745 0l-239 340l-240 -340h-256l375 498l-322 448h259l184 -295l184 295h258l-321 -448l374 -498h-256z" />
    <glyph glyph-name="y" unicode="y" horiz-adv-x="993" 
d="M762 946h221l-590 -1356h-213l228 496l-398 860h240l260 -620z" />
    <glyph glyph-name="z" unicode="z" horiz-adv-x="892" 
d="M293 186h549v-186h-791v176l514 584h-493v186h733v-176z" />
    <glyph glyph-name="braceleft" unicode="{" horiz-adv-x="821" 
d="M801 1526v-176h-62q-32 0 -58.5 -5t-54.5 -21t-47 -43t-31.5 -74t-12.5 -111v-201q0 -140 -51.5 -220.5t-168.5 -109.5v-4q117 -29 168.5 -109.5t51.5 -220.5v-241q0 -65 12.5 -112.5t31.5 -74t48 -42.5t54.5 -20.5t57.5 -4.5h62v-176h-80q-59 0 -112 11.5t-104.5 41.5
t-88.5 76t-59.5 120t-22.5 168v281q0 89 -70.5 143t-191.5 60v205q121 6 191.5 59.5t70.5 142.5v240q0 94 22.5 168t59.5 120t88.5 76t104.5 42t112 12h80z" />
    <glyph glyph-name="bar" unicode="|" horiz-adv-x="630" 
d="M406 1489v-1929h-181v1929h181z" />
    <glyph glyph-name="braceright" unicode="}" horiz-adv-x="821" 
d="M20 -440v176h62q41 0 72.5 8.5t64 33t50.5 78.5t18 134v241q0 140 51 220.5t168 109.5v4q-117 29 -168 109.5t-51 220.5v201q0 64 -12.5 111t-31.5 74t-47.5 43t-55 21t-58.5 5h-62v176h80q59 0 112 -12t104.5 -42t88.5 -76t59.5 -120t22.5 -168v-240q0 -89 71 -142.5
t192 -59.5v-205q-121 -6 -192 -60t-71 -143v-281q0 -94 -22.5 -168t-59.5 -120t-88.5 -76t-104.5 -41.5t-112 -11.5h-80z" />
    <glyph glyph-name="asciitilde" unicode="~" 
d="M401 774q65 0 127.5 -19.5t104 -43t97.5 -43t108 -19.5q49 0 96 19.5t74 39t73 58.5l90 -143q-90 -77 -171.5 -113.5t-170.5 -36.5q-63 0 -124 19t-102.5 42.5t-98 42.5t-111.5 19q-50 0 -98 -19t-76.5 -39.5t-73.5 -58.5l-88 144q91 78 172.5 114.5t171.5 36.5z" />
    <glyph glyph-name="exclamdown" unicode="&#xa1;" horiz-adv-x="653" 
d="M205 780v244h244v-244h-244zM209 -410l49 1000h137l49 -1000h-235z" />
    <glyph glyph-name="cent" unicode="&#xa2;" horiz-adv-x="946" 
d="M598 158q112 0 287 90v-201q-133 -78 -281 -78h-6v-100h-57v104q-200 20 -324.5 160t-124.5 340q0 201 126.5 341.5t322.5 160.5v112h57v-110q154 0 276 -66v-198q-83 41 -144 58t-126 17h-6v-630zM301 475q0 -127 67 -210.5t173 -102.5v620q-109 -19 -174.5 -100.5
t-65.5 -206.5z" />
    <glyph glyph-name="sterling" unicode="&#xa3;" horiz-adv-x="1069" 
d="M367 201v-4h616v-197h-868v154q101 59 169 147t68 184q0 37 -13.5 79.5t-26 67t-40.5 75.5h-190v61h158q-64 128 -64 246q0 175 113.5 287t308.5 112q181 0 295.5 -101t114.5 -292h-205q-4 103 -58.5 154t-146.5 51q-100 0 -156.5 -59t-56.5 -154q0 -39 13 -84.5
t27 -77.5t40 -82h369v-61h-338q63 -126 63 -211q0 -51 -18.5 -99t-49.5 -85.5t-61 -63.5t-63 -47z" />
    <glyph glyph-name="currency" unicode="&#xa4;" 
d="M1102 664q0 -197 -123 -326l113 -113l-41 -39l-113 113q-133 -111 -324 -111q-189 0 -325 111l-113 -113l-39 41l111 111q-121 134 -121 326q0 191 121 325l-111 111l41 41l113 -113q133 111 323 111q191 0 324 -111l113 113l41 -41l-111 -111q121 -134 121 -325z
M614 377q128 0 207.5 78.5t79.5 208.5t-79.5 208t-207.5 78t-207 -78t-79 -208t79 -208.5t207 -78.5z" />
    <glyph glyph-name="yen" unicode="&#xa5;" horiz-adv-x="1167" 
d="M1116 1382l-321 -661h235v-62h-264l-55 -114h319v-62h-348v-483h-201v483h-346v62h322l-56 114h-266v62h238l-322 661h236l297 -690l297 690h235z" />
    <glyph glyph-name="brokenbar" unicode="&#xa6;" horiz-adv-x="630" 
d="M406 1489v-795h-181v795h181zM406 371v-811h-181v811h181z" />
    <glyph glyph-name="section" unicode="&#xa7;" horiz-adv-x="1122" 
d="M829 219q101 -91 101 -227q0 -143 -100 -229.5t-287 -86.5q-201 0 -391 117l110 170q146 -96 295 -96q85 0 128.5 32.5t43.5 88.5q0 43 -27 78.5t-71 59t-100.5 49.5t-115 48.5t-115 57.5t-100.5 75t-71 102t-27 138q0 210 191 326q-100 90 -100 227q0 143 100 229
t287 86q202 0 391 -116l-111 -170q-146 96 -295 96q-85 0 -128.5 -32.5t-43.5 -88.5q0 -43 27 -78.5t71 -59t100.5 -49.5t115 -48.5t115 -57.5t100.5 -75t71 -102t27 -138q0 -210 -191 -326zM303 616q0 -40 17 -74t41 -57.5t66.5 -48.5t76.5 -40.5t89 -40t87 -40.5
q139 86 139 209q0 40 -17 74t-41 57.5t-66.5 48.5t-76.5 40.5t-89 40t-87 40.5q-139 -86 -139 -209z" />
    <glyph glyph-name="dieresis" unicode="&#xa8;" horiz-adv-x="794" 
d="M307 1413v-246h-205v246h205zM692 1413v-246h-205v246h205z" />
    <glyph glyph-name="copyright" unicode="&#xa9;" horiz-adv-x="1695" 
d="M848 -31q-153 0 -290 56.5t-237.5 155t-159.5 238t-59 298.5t59 298.5t159.5 237.5t237.5 154.5t290 56.5t290 -56.5t237 -154.5t159 -237.5t59 -298.5q0 -212 -100 -384t-270.5 -268t-374.5 -96zM848 90q170 0 310.5 78.5t223 223t82.5 325.5q0 136 -48.5 253.5
t-131 199t-196 127.5t-240.5 46q-170 0 -310.5 -78t-223.5 -222.5t-83 -325.5t83 -325.5t223.5 -223t310.5 -78.5zM856 262q-204 0 -338.5 132.5t-134.5 332.5t134.5 332.5t338.5 132.5q169 0 309 -100l-75 -140q-37 22 -62 35.5t-76 28t-102 14.5q-131 0 -213 -83.5
t-82 -219.5t82 -219.5t213 -83.5q51 0 102 14.5t76 28t62 35.5l75 -140q-140 -100 -309 -100z" />
    <glyph glyph-name="ordfeminine" unicode="&#xaa;" horiz-adv-x="925" 
d="M416 692q-131 0 -222.5 90t-91.5 244t91.5 244t222.5 90q159 0 229 -127h4v106h174v-626h-174v106h-4q-70 -127 -229 -127zM465 848q78 0 129 47.5t51 130.5t-51 130.5t-129 47.5t-128 -47t-50 -131t50 -131t128 -47z" />
    <glyph glyph-name="guillemotleft" unicode="&#xab;" horiz-adv-x="958" 
d="M567 805l-301 -326l301 -325h-225l-301 325l301 326h225zM938 805l-301 -326l301 -325h-225l-301 325l301 326h225z" />
    <glyph glyph-name="logicalnot" unicode="&#xac;" 
d="M145 885h938v-99v-444h-102v444h-836v99z" />
    <glyph glyph-name="uni00AD" unicode="&#xad;" horiz-adv-x="718" 
d="M627 641v-197h-535v197h535z" />
    <glyph glyph-name="registered" unicode="&#xae;" horiz-adv-x="1146" 
d="M573 1464q208 0 339.5 -132t131.5 -343t-131.5 -343t-339.5 -132t-339.5 132t-131.5 343t131.5 343t339.5 132zM573 586q173 0 284.5 110.5t111.5 292.5t-111.5 293t-284.5 111t-284 -111t-111 -293t111 -292.5t284 -110.5zM770 1120q0 -59 -34 -101t-89 -54l148 -226
h-90l-138 222h-78v-222h-71v533h190q70 0 116 -42t46 -110zM489 1206v-180h105q49 0 74.5 25t25.5 63q0 41 -26 66.5t-74 25.5h-105z" />
    <glyph glyph-name="macron" unicode="&#xaf;" horiz-adv-x="798" 
d="M696 1356v-148h-594v148h594z" />
    <glyph glyph-name="degree" unicode="&#xb0;" horiz-adv-x="720" 
d="M360 1413q121 0 200 -77.5t79 -200.5t-79 -201t-200 -78t-199.5 77.5t-78.5 201.5q0 123 78.5 200.5t199.5 77.5zM360 1317q-78 0 -129 -50.5t-51 -131.5t51.5 -132t128.5 -51q76 0 127.5 51t51.5 132q0 80 -51.5 131t-127.5 51z" />
    <glyph glyph-name="plusminus" unicode="&#xb1;" 
d="M666 1069v-281h438v-98h-438v-280h-103v280h-438v98h438v281h103zM1104 319v-98h-979v98h979z" />
    <glyph glyph-name="uni00B2" unicode="&#xb2;" horiz-adv-x="800" 
d="M80 713v164l340 303q70 63 96.5 101.5t26.5 86.5q0 52 -37 81.5t-100 29.5q-66 0 -109.5 -35.5t-44.5 -114.5h-180q0 155 89 236.5t249 81.5q153 0 235 -73t82 -200q0 -87 -41.5 -156t-118.5 -137l-229 -194h401v-174h-659z" />
    <glyph glyph-name="uni00B3" unicode="&#xb3;" horiz-adv-x="833" 
d="M408 692q-333 0 -336 289h180q7 -121 164 -121q166 0 166 131q0 70 -55.5 95.5t-178.5 27.5v150q110 1 157.5 27.5t47.5 78.5q0 105 -137 105q-147 0 -152 -123h-180q0 138 88.5 215.5t251.5 77.5q149 0 232 -64.5t83 -173.5q0 -78 -45 -133t-131 -68v-4
q199 -28 199 -225q0 -129 -86.5 -207t-267.5 -78z" />
    <glyph glyph-name="acute" unicode="&#xb4;" horiz-adv-x="657" 
d="M555 1448l-295 -315h-158l195 315h258z" />
    <glyph glyph-name="paragraph" unicode="&#xb6;" horiz-adv-x="1261" 
d="M1159 1434v-152h-123v-1499h-162v1499h-212v-1499h-162v852q-182 0 -290 111.5t-108 295.5q0 178 113.5 285t304.5 107h639z" />
    <glyph glyph-name="periodcentered" unicode="&#xb7;" horiz-adv-x="468" 
d="M356 946v-244h-243v244h243z" />
    <glyph glyph-name="cedilla" unicode="&#xb8;" horiz-adv-x="497" 
d="M299 57l-45 -131q64 -18 102.5 -51t38.5 -94q0 -30 -14 -55.5t-36 -45.5t-57 -39.5t-69 -35t-80 -35.5q-2 -1 -3.5 -1.5l-3 -1t-3.5 -1.5l-27 57q47 23 68.5 34.5t49.5 28.5t39 31t11 29q0 35 -30.5 51.5t-100.5 32.5l82 227h78z" />
    <glyph glyph-name="uni00B9" unicode="&#xb9;" horiz-adv-x="503" 
d="M164 713v733h-51v180h247v-913h-196z" />
    <glyph glyph-name="ordmasculine" unicode="&#xba;" horiz-adv-x="917" 
d="M459 1360q154 0 255 -91t101 -243t-101 -243t-255 -91t-255.5 91t-101.5 243t101.5 243t255.5 91zM459 1202q-74 0 -125 -47t-51 -129t51 -129t125 -47t125 47t51 129t-51 129t-125 47z" />
    <glyph glyph-name="guillemotright" unicode="&#xbb;" horiz-adv-x="958" 
d="M20 805h226l301 -326l-301 -325h-226l302 325zM391 805h225l302 -326l-302 -325h-225l301 325z" />
    <glyph glyph-name="onequarter" unicode="&#xbc;" horiz-adv-x="1341" 
d="M160 592v674h-78v116h194v-790h-116zM922 1382h116l-809 -1382h-116zM1290 264v-114h-104v-150h-121v150h-416v108l377 533h160v-527h104zM782 264h283v398h-4z" />
    <glyph glyph-name="onehalf" unicode="&#xbd;" horiz-adv-x="1390" 
d="M276 1382v-790h-116v674h-78v116h194zM113 0l809 1382h116l-809 -1382h-116zM1038 809q127 0 193.5 -65t66.5 -173q0 -71 -34.5 -128t-104.5 -121l-223 -207h362v-115h-534l-2 104l301 285q53 49 82 91t29 89q0 53 -35.5 87t-98.5 34q-141 0 -157 -139h-119
q6 128 78.5 193t195.5 65z" />
    <glyph glyph-name="threequarters" unicode="&#xbe;" horiz-adv-x="1640" 
d="M657 811q0 -108 -72 -173t-223 -65q-132 0 -208 63t-82 177h125q9 -60 47.5 -90.5t117.5 -30.5q173 0 173 131q0 69 -57 99t-171 30v111q199 3 199 115q0 104 -135 104q-68 0 -111 -31t-47 -96h-121q7 120 79.5 183t201.5 63q125 0 191.5 -55t66.5 -150q0 -142 -148 -178
v-2q174 -27 174 -205zM1221 1382h116l-809 -1382h-116zM1589 264v-114h-104v-150h-121v150h-416v108l377 533h160v-527h104zM1081 264h283v398h-4z" />
    <glyph glyph-name="questiondown" unicode="&#xbf;" horiz-adv-x="860" 
d="M356 780v244h244v-244h-244zM449 -440q-188 0 -298 106t-110 279q0 105 41.5 178.5t114.5 140.5q11 10 43.5 38.5t45.5 40.5t36 39t32.5 48t18 52.5t8.5 66.5v41h194v-60q0 -48 -11 -92t-25 -74t-40.5 -64t-45.5 -53t-53 -51.5t-50 -48.5q-51 -53 -77.5 -99t-26.5 -105
q0 -83 51.5 -136t151.5 -53q102 0 165.5 64.5t63.5 169.5h203q0 -200 -118 -314t-314 -114z" />
    <glyph glyph-name="Agrave" unicode="&#xc0;" horiz-adv-x="1388" 
d="M778 1522h-151l-301 245h258zM1145 0l-137 356h-627l-137 -356h-234l586 1434h197l585 -1434h-233zM457 553h475l-238 614z" />
    <glyph glyph-name="Aacute" unicode="&#xc1;" horiz-adv-x="1388" 
d="M1063 1767l-301 -245h-152l195 245h258zM1145 0l-137 356h-627l-137 -356h-234l586 1434h197l585 -1434h-233zM457 553h475l-238 614z" />
    <glyph glyph-name="Acircumflex" unicode="&#xc2;" horiz-adv-x="1388" 
d="M694 1675l-153 -153h-191l246 245h199l245 -245h-190zM1145 0l-137 356h-627l-137 -356h-234l586 1434h197l585 -1434h-233zM457 553h475l-238 614z" />
    <glyph glyph-name="Atilde" unicode="&#xc3;" horiz-adv-x="1388" 
d="M532 1616q-74 0 -112 -92l-76 22q24 95 75 158t136 63q59 0 177.5 -47t158.5 -47q75 0 113 92l75 -22q-24 -95 -75 -158t-134 -63q-60 0 -178.5 47t-159.5 47zM1145 0l-137 356h-627l-137 -356h-234l586 1434h197l585 -1434h-233zM457 553h475l-238 614z" />
    <glyph glyph-name="Adieresis" unicode="&#xc4;" horiz-adv-x="1388" 
d="M588 1735v-213h-217v213h217zM1018 1735v-213h-217v213h217zM1145 0l-137 356h-627l-137 -356h-234l586 1434h197l585 -1434h-233zM457 553h475l-238 614z" />
    <glyph glyph-name="Aring" unicode="&#xc5;" horiz-adv-x="1388" 
d="M1145 0l-137 356h-627l-137 -356h-234l559 1368q-53 31 -83.5 85t-30.5 122q0 104 67.5 172t171.5 68t172 -68t68 -172q0 -68 -30.5 -122t-84.5 -85l559 -1368h-233zM692 1718q-61 0 -99 -40t-38 -103q0 -62 38 -101.5t99 -39.5q62 0 100.5 39.5t38.5 101.5q0 63 -38 103
t-101 40zM457 553h475l-238 614z" />
    <glyph glyph-name="AE" unicode="&#xc6;" horiz-adv-x="1910" 
d="M1255 201h564v-201h-650h-122v356h-543l-225 -356h-269l932 1434h313h553v-201h-553v-340h504v-201h-504v-491zM629 553h418v659z" />
    <glyph glyph-name="Ccedilla" unicode="&#xc7;" horiz-adv-x="1396" 
d="M1346 127q-211 -153 -488 -158l-14 -43q64 -18 102.5 -51t38.5 -94q0 -30 -14 -55.5t-36 -45.5t-57 -39.5t-69 -35t-80 -35.5q-2 -1 -3.5 -1.5l-3 -1t-3.5 -1.5l-27 57q47 23 68.5 34.5t49.5 28.5t39 31t11 29q0 35 -30.5 51.5t-100.5 32.5l51 141q-318 19 -513 223.5
t-195 522.5q0 165 56.5 304.5t156.5 236.5t243 151.5t312 54.5q287 0 506 -157l-132 -187q-175 127 -383 127q-229 0 -377.5 -145.5t-148.5 -384.5t148.5 -385t377.5 -146q208 0 383 127z" />
    <glyph glyph-name="Egrave" unicode="&#xc8;" horiz-adv-x="1064" 
d="M678 1522h-152l-301 245h258zM356 201h617v-201h-830v1434h820v-201h-607v-340h559v-201h-559v-491z" />
    <glyph glyph-name="Eacute" unicode="&#xc9;" horiz-adv-x="1064" 
d="M963 1767l-301 -245h-152l195 245h258zM356 201h617v-201h-830v1434h820v-201h-607v-340h559v-201h-559v-491z" />
    <glyph glyph-name="Ecircumflex" unicode="&#xca;" horiz-adv-x="1064" 
d="M594 1675l-154 -153h-190l246 245h198l246 -245h-190zM356 201h617v-201h-830v1434h820v-201h-607v-340h559v-201h-559v-491z" />
    <glyph glyph-name="Edieresis" unicode="&#xcb;" horiz-adv-x="1064" 
d="M487 1735v-213h-217v213h217zM918 1735v-213h-218v213h218zM356 201h617v-201h-830v1434h820v-201h-607v-340h559v-201h-559v-491z" />
    <glyph glyph-name="Igrave" unicode="&#xcc;" horiz-adv-x="503" 
d="M141 1767l195 -245h-152l-301 245h258zM360 1434v-1434h-217v1434h217z" />
    <glyph glyph-name="Iacute" unicode="&#xcd;" horiz-adv-x="503" 
d="M621 1767l-302 -245h-151l194 245h259zM360 1434v-1434h-217v1434h217z" />
    <glyph glyph-name="Icircumflex" unicode="&#xce;" horiz-adv-x="503" 
d="M352 1767l246 -245h-190l-156 153l-154 -153h-190l246 245h198zM360 1434v-1434h-217v1434h217z" />
    <glyph glyph-name="Idieresis" unicode="&#xcf;" horiz-adv-x="503" 
d="M145 1735v-213h-217v213h217zM575 1735v-213h-217v213h217zM360 1434v-1434h-217v1434h217z" />
    <glyph glyph-name="Eth" unicode="&#xd0;" horiz-adv-x="1419" 
d="M627 1434q154 0 286.5 -50t228.5 -141t151 -226.5t55 -299.5t-55 -299.5t-151 -226.5t-228.5 -141t-286.5 -50h-463v641h-164v172h164v621h463zM625 201q218 0 353.5 135t135.5 381t-135.5 381t-353.5 135h-248v-420h332v-172h-332v-440h248z" />
    <glyph glyph-name="Ntilde" unicode="&#xd1;" horiz-adv-x="1431" 
d="M891 1522q-60 0 -178.5 47t-159.5 47q-75 0 -113 -92l-75 22q24 95 74.5 158t135.5 63q59 0 177.5 -47t158.5 -47q75 0 113 92l76 -22q-24 -95 -75 -158t-134 -63zM1288 1434v-1434h-223l-705 1071h-4v-1071h-213v1434h224l704 -1072h4v1072h213z" />
    <glyph glyph-name="Ograve" unicode="&#xd2;" horiz-adv-x="1638" 
d="M711 1767l194 -245h-151l-301 245h258zM819 1464q211 0 381.5 -94t268.5 -265.5t98 -387.5t-98 -387.5t-268.5 -266t-381.5 -94.5t-381.5 94.5t-268 266t-97.5 387.5q0 162 57 302t156.5 237t237.5 152.5t296 55.5zM819 1247q-226 0 -370 -149.5t-144 -380.5t144 -381
t370 -150t370 150t144 381t-144 380.5t-370 149.5z" />
    <glyph glyph-name="Oacute" unicode="&#xd3;" horiz-adv-x="1638" 
d="M1190 1767l-301 -245h-152l195 245h258zM819 1464q211 0 381.5 -94t268.5 -265.5t98 -387.5t-98 -387.5t-268.5 -266t-381.5 -94.5t-381.5 94.5t-268 266t-97.5 387.5q0 162 57 302t156.5 237t237.5 152.5t296 55.5zM819 1247q-226 0 -370 -149.5t-144 -380.5t144 -381
t370 -150t370 150t144 381t-144 380.5t-370 149.5z" />
    <glyph glyph-name="Ocircumflex" unicode="&#xd4;" horiz-adv-x="1638" 
d="M922 1767l245 -245h-190l-156 153l-153 -153h-191l246 245h199zM819 1464q211 0 381.5 -94t268.5 -265.5t98 -387.5t-98 -387.5t-268.5 -266t-381.5 -94.5t-381.5 94.5t-268 266t-97.5 387.5q0 162 57 302t156.5 237t237.5 152.5t296 55.5zM819 1247q-226 0 -370 -149.5
t-144 -380.5t144 -381t370 -150t370 150t144 381t-144 380.5t-370 149.5z" />
    <glyph glyph-name="Otilde" unicode="&#xd5;" horiz-adv-x="1638" 
d="M997 1522q-60 0 -178.5 47t-159.5 47q-74 0 -112 -92l-76 22q24 95 75 158t136 63q59 0 177.5 -47t158.5 -47q74 0 112 92l76 -22q-24 -95 -75 -158t-134 -63zM819 1464q211 0 381.5 -94t268.5 -265.5t98 -387.5t-98 -387.5t-268.5 -266t-381.5 -94.5t-381.5 94.5
t-268 266t-97.5 387.5q0 162 57 302t156.5 237t237.5 152.5t296 55.5zM819 1247q-226 0 -370 -149.5t-144 -380.5t144 -381t370 -150t370 150t144 381t-144 380.5t-370 149.5z" />
    <glyph glyph-name="Odieresis" unicode="&#xd6;" horiz-adv-x="1638" 
d="M715 1735v-213h-217v213h217zM1145 1735v-213h-217v213h217zM819 1464q211 0 381.5 -94t268.5 -265.5t98 -387.5t-98 -387.5t-268.5 -266t-381.5 -94.5t-381.5 94.5t-268 266t-97.5 387.5q0 162 57 302t156.5 237t237.5 152.5t296 55.5zM819 1247q-226 0 -370 -149.5
t-144 -380.5t144 -381t370 -150t370 150t144 381t-144 380.5t-370 149.5z" />
    <glyph glyph-name="multiply" unicode="&#xd7;" 
d="M985 1053l72 -72l-371 -371l371 -370l-72 -72l-371 371l-370 -371l-72 72l371 370l-371 371l72 72l370 -371z" />
    <glyph glyph-name="Oslash" unicode="&#xd8;" horiz-adv-x="1638" 
d="M1298 1305q127 -102 198 -253.5t71 -334.5q0 -216 -98 -387.5t-268.5 -266t-381.5 -94.5q-227 0 -411 113l-80 -111l-70 43l84 115q-128 100 -199 251.5t-71 336.5q0 162 57 302t156.5 237t237.5 152.5t296 55.5q234 0 414 -114l82 112l67 -43zM305 717
q0 -124 44.5 -229.5t125.5 -176.5l627 858q-127 78 -283 78q-226 0 -370 -149.5t-144 -380.5zM819 186q226 0 370 150t144 381q0 125 -44 228.5t-124 174.5l-624 -858q121 -76 278 -76z" />
    <glyph glyph-name="Ugrave" unicode="&#xd9;" horiz-adv-x="1396" 
d="M588 1767l194 -245h-151l-301 245h258zM1274 1434v-881q0 -267 -156.5 -425.5t-419.5 -158.5t-419 158.5t-156 425.5v881h223v-875q0 -170 99 -269.5t253 -99.5t253.5 99.5t99.5 269.5v875h223z" />
    <glyph glyph-name="Uacute" unicode="&#xda;" horiz-adv-x="1396" 
d="M1067 1767l-301 -245h-152l195 245h258zM1274 1434v-881q0 -267 -156.5 -425.5t-419.5 -158.5t-419 158.5t-156 425.5v881h223v-875q0 -170 99 -269.5t253 -99.5t253.5 99.5t99.5 269.5v875h223z" />
    <glyph glyph-name="Ucircumflex" unicode="&#xdb;" horiz-adv-x="1396" 
d="M799 1767l245 -245h-190l-156 153l-153 -153h-191l246 245h199zM1274 1434v-881q0 -267 -156.5 -425.5t-419.5 -158.5t-419 158.5t-156 425.5v881h223v-875q0 -170 99 -269.5t253 -99.5t253.5 99.5t99.5 269.5v875h223z" />
    <glyph glyph-name="Udieresis" unicode="&#xdc;" horiz-adv-x="1396" 
d="M592 1735v-213h-217v213h217zM1022 1735v-213h-217v213h217zM1274 1434v-881q0 -267 -156.5 -425.5t-419.5 -158.5t-419 158.5t-156 425.5v881h223v-875q0 -170 99 -269.5t253 -99.5t253.5 99.5t99.5 269.5v875h223z" />
    <glyph glyph-name="Yacute" unicode="&#xdd;" horiz-adv-x="1112" 
d="M926 1767l-301 -245h-152l195 245h258zM1112 1434l-448 -859v-575h-215v573l-449 861h248l305 -633h6l305 633h248z" />
    <glyph glyph-name="Thorn" unicode="&#xde;" horiz-adv-x="1138" 
d="M348 1434v-273h254q217 0 341 -120.5t124 -311.5t-124 -312.5t-341 -121.5h-254v-295h-205v1434h205zM602 965h-254v-473h254q119 0 189.5 61.5t70.5 175.5t-70.5 175t-189.5 61z" />
    <glyph glyph-name="germandbls" unicode="&#xdf;" horiz-adv-x="1144" 
d="M688 811q188 -9 291.5 -109t103.5 -280q0 -210 -139.5 -321t-390.5 -111h-98v188h80q170 0 254.5 59.5t84.5 194.5q0 152 -103 212.5t-310 60.5v176q146 0 218.5 46.5t72.5 151.5q0 93 -53 143t-144 50q-98 0 -159.5 -56.5t-61.5 -168.5v-1313h-201v1300q0 190 112 310
t316 120q95 0 171.5 -28t124 -76.5t72.5 -111t25 -134.5q0 -117 -67 -194.5t-199 -104.5v-4z" />
    <glyph glyph-name="agrave" unicode="&#xe0;" horiz-adv-x="1169" 
d="M461 1448l192 -315h-155l-297 315h260zM522 -31q-94 0 -177.5 35t-146.5 98.5t-100 159.5t-37 211t37 211t100 159.5t146.5 98.5t177.5 35q222 0 320 -170h4v139h201v-946h-201v139h-4q-98 -170 -320 -170zM565 166q131 0 211 85.5t80 221.5t-80 221.5t-211 85.5
t-211 -85.5t-80 -221.5t80 -221.5t211 -85.5z" />
    <glyph glyph-name="aacute" unicode="&#xe1;" horiz-adv-x="1169" 
d="M950 1448l-295 -315h-157l194 315h258zM522 -31q-94 0 -177.5 35t-146.5 98.5t-100 159.5t-37 211t37 211t100 159.5t146.5 98.5t177.5 35q222 0 320 -170h4v139h201v-946h-201v139h-4q-98 -170 -320 -170zM565 166q131 0 211 85.5t80 221.5t-80 221.5t-211 85.5
t-211 -85.5t-80 -221.5t80 -221.5t211 -85.5z" />
    <glyph glyph-name="acircumflex" unicode="&#xe2;" horiz-adv-x="1169" 
d="M676 1448l254 -315h-193l-162 194l-161 -194h-193l254 315h201zM522 -31q-94 0 -177.5 35t-146.5 98.5t-100 159.5t-37 211t37 211t100 159.5t146.5 98.5t177.5 35q222 0 320 -170h4v139h201v-946h-201v139h-4q-98 -170 -320 -170zM565 166q131 0 211 85.5t80 221.5
t-80 221.5t-211 85.5t-211 -85.5t-80 -221.5t80 -221.5t211 -85.5z" />
    <glyph glyph-name="atilde" unicode="&#xe3;" horiz-adv-x="1169" 
d="M434 1442q38 0 85 -16.5t83.5 -36t78 -36t69.5 -16.5q65 0 108 93l82 -23q-21 -101 -72 -164t-133 -63q-49 0 -110 26t-116 52t-89 26q-67 0 -109 -92l-84 22q21 100 73 164t134 64zM522 -31q-94 0 -177.5 35t-146.5 98.5t-100 159.5t-37 211t37 211t100 159.5
t146.5 98.5t177.5 35q222 0 320 -170h4v139h201v-946h-201v139h-4q-98 -170 -320 -170zM565 166q131 0 211 85.5t80 221.5t-80 221.5t-211 85.5t-211 -85.5t-80 -221.5t80 -221.5t211 -85.5z" />
    <glyph glyph-name="adieresis" unicode="&#xe4;" horiz-adv-x="1169" 
d="M485 1413v-246h-204v246h204zM870 1413v-246h-204v246h204zM522 -31q-94 0 -177.5 35t-146.5 98.5t-100 159.5t-37 211t37 211t100 159.5t146.5 98.5t177.5 35q222 0 320 -170h4v139h201v-946h-201v139h-4q-98 -170 -320 -170zM565 166q131 0 211 85.5t80 221.5
t-80 221.5t-211 85.5t-211 -85.5t-80 -221.5t80 -221.5t211 -85.5z" />
    <glyph glyph-name="aring" unicode="&#xe5;" horiz-adv-x="1169" 
d="M575 1530q106 0 175 -68t69 -172t-69 -171.5t-175 -67.5t-174.5 67.5t-68.5 171.5t68.5 172t174.5 68zM575 1434q-64 0 -103.5 -41t-39.5 -103t39.5 -102.5t103.5 -40.5t104 40.5t40 102.5t-40 103t-104 41zM522 -31q-94 0 -177.5 35t-146.5 98.5t-100 159.5t-37 211
t37 211t100 159.5t146.5 98.5t177.5 35q222 0 320 -170h4v139h201v-946h-201v139h-4q-98 -170 -320 -170zM565 166q131 0 211 85.5t80 221.5t-80 221.5t-211 85.5t-211 -85.5t-80 -221.5t80 -221.5t211 -85.5z" />
    <glyph glyph-name="ae" unicode="&#xe6;" horiz-adv-x="1667" 
d="M401 -31q-162 0 -271.5 92.5t-109.5 241.5q0 146 104.5 237t270.5 91q91 0 166.5 -29.5t118.5 -85.5h4v82q0 199 -219 199q-123 0 -311 -49l-43 178q192 51 368 51q252 0 322 -182h4q47 81 141 131.5t219 50.5q204 0 322.5 -136t118.5 -368v-33h-725q6 -122 77 -200
t203 -78q58 0 105.5 15t84 44t56 50.5t45.5 56.5l137 -129q-29 -42 -64.5 -78.5t-87 -73t-120.5 -57.5t-148 -21q-137 0 -241 61t-150 156h-4q-31 -70 -90 -120t-131 -73.5t-152 -23.5zM891 586h495q-3 93 -69.5 150t-171.5 57q-99 0 -166.5 -53t-87.5 -154zM444 141
q103 0 171.5 45.5t68.5 118.5q0 72 -68 115t-170 43q-104 0 -158.5 -45t-54.5 -115q0 -72 55 -117t156 -45z" />
    <glyph glyph-name="ccedilla" unicode="&#xe7;" horiz-adv-x="946" 
d="M582 -31h-9l-14 -43q64 -18 102.5 -51t38.5 -94q0 -30 -14 -55.5t-36 -45.5t-57 -39.5t-69 -35t-80 -35.5q-2 -1 -3.5 -1.5l-3 -1t-3.5 -1.5l-26 57q46 23 68.5 34.5t49.5 28.5t38 31t11 29q0 35 -30.5 51.5t-100.5 32.5l52 145q-195 25 -315 160.5t-120 337.5
q0 225 145.5 364.5t375.5 139.5q177 0 323 -96l-94 -170q-114 71 -236 71q-135 0 -218 -87t-83 -222t83 -222t218 -87q120 0 236 72l94 -170q-148 -97 -323 -97z" />
    <glyph glyph-name="egrave" unicode="&#xe8;" horiz-adv-x="1058" 
d="M438 1448l193 -315h-156l-297 315h260zM545 977q214 0 333 -136t119 -368v-33h-733q6 -125 85.5 -201.5t201.5 -76.5q167 0 291 166l141 -133q-165 -226 -428 -226q-225 0 -359.5 138.5t-134.5 363.5q0 221 131 363.5t353 142.5zM532 793q-103 0 -171.5 -53t-86.5 -154
h506q-6 97 -73 152t-175 55z" />
    <glyph glyph-name="eacute" unicode="&#xe9;" horiz-adv-x="1058" 
d="M928 1448l-295 -315h-158l195 315h258zM545 977q214 0 333 -136t119 -368v-33h-733q6 -125 85.5 -201.5t201.5 -76.5q167 0 291 166l141 -133q-165 -226 -428 -226q-225 0 -359.5 138.5t-134.5 363.5q0 221 131 363.5t353 142.5zM532 793q-103 0 -171.5 -53t-86.5 -154
h506q-6 97 -73 152t-175 55z" />
    <glyph glyph-name="ecircumflex" unicode="&#xea;" horiz-adv-x="1058" 
d="M653 1448l254 -315h-192l-162 194l-162 -194h-192l254 315h200zM545 977q214 0 333 -136t119 -368v-33h-733q6 -125 85.5 -201.5t201.5 -76.5q167 0 291 166l141 -133q-165 -226 -428 -226q-225 0 -359.5 138.5t-134.5 363.5q0 221 131 363.5t353 142.5zM532 793
q-103 0 -171.5 -53t-86.5 -154h506q-6 97 -73 152t-175 55z" />
    <glyph glyph-name="edieresis" unicode="&#xeb;" horiz-adv-x="1058" 
d="M463 1413v-246h-205v246h205zM848 1413v-246h-205v246h205zM545 977q214 0 333 -136t119 -368v-33h-733q6 -125 85.5 -201.5t201.5 -76.5q167 0 291 166l141 -133q-165 -226 -428 -226q-225 0 -359.5 138.5t-134.5 363.5q0 221 131 363.5t353 142.5zM532 793
q-103 0 -171.5 -53t-86.5 -154h506q-6 97 -73 152t-175 55z" />
    <glyph glyph-name="igrave" unicode="&#xec;" horiz-adv-x="466" 
d="M201 1448l110 -315h-155l-164 315h209zM133 0v946h201v-946h-201z" />
    <glyph glyph-name="iacute" unicode="&#xed;" horiz-adv-x="466" 
d="M156 1133l110 315h209l-164 -315h-155zM133 0v946h201v-946h-201z" />
    <glyph glyph-name="icircumflex" unicode="&#xee;" horiz-adv-x="466" 
d="M334 1448l184 -315h-184l-101 194l-100 -194h-184l184 315h201zM133 0v946h201v-946h-201z" />
    <glyph glyph-name="idieresis" unicode="&#xef;" horiz-adv-x="466" 
d="M195 1413v-246h-195v246h195zM467 1413v-246h-195v246h195zM133 0v946h201v-946h-201z" />
    <glyph glyph-name="eth" unicode="&#xf0;" horiz-adv-x="1181" 
d="M805 1362q295 -238 295 -731q0 -148 -30 -264.5t-80 -190t-119.5 -121.5t-142.5 -67t-155 -19q-236 0 -374 140t-138 358q0 233 140 371.5t354 138.5q238 0 348 -184h4q-36 289 -248 452l-227 -186l-70 78l205 168q-132 69 -297 96l39 164q244 -42 406 -142l166 136
l65 -80zM582 164q134 0 220.5 85.5t86.5 225.5q0 141 -86 224t-223 83q-138 0 -222 -85.5t-84 -225.5t86 -223.5t222 -83.5z" />
    <glyph glyph-name="ntilde" unicode="&#xf1;" horiz-adv-x="1105" 
d="M449 1442q48 0 108.5 -26t116 -52.5t90.5 -26.5q65 0 108 93l82 -23q-21 -101 -71.5 -164t-132.5 -63q-49 0 -110 26t-116.5 52t-89.5 26q-66 0 -108 -92l-84 22q21 100 73 164t134 64zM637 977q163 0 259.5 -95.5t96.5 -299.5v-582h-200v547q0 229 -218 229
q-117 0 -184 -77t-67 -246v-453h-201v946h201v-143h4q97 174 309 174z" />
    <glyph glyph-name="ograve" unicode="&#xf2;" horiz-adv-x="1159" 
d="M465 1448l192 -315h-155l-297 315h260zM580 977q223 0 370.5 -143t147.5 -361t-147.5 -361t-370.5 -143t-371 143t-148 361t148 361t371 143zM580 780q-136 0 -221 -84t-85 -223t85 -223t221 -84t220.5 84t84.5 223t-84.5 223t-220.5 84z" />
    <glyph glyph-name="oacute" unicode="&#xf3;" horiz-adv-x="1159" 
d="M954 1448l-295 -315h-157l194 315h258zM580 977q223 0 370.5 -143t147.5 -361t-147.5 -361t-370.5 -143t-371 143t-148 361t148 361t371 143zM580 780q-136 0 -221 -84t-85 -223t85 -223t221 -84t220.5 84t84.5 223t-84.5 223t-220.5 84z" />
    <glyph glyph-name="ocircumflex" unicode="&#xf4;" horiz-adv-x="1159" 
d="M680 1448l254 -315h-193l-161 194l-162 -194h-193l254 315h201zM580 977q223 0 370.5 -143t147.5 -361t-147.5 -361t-370.5 -143t-371 143t-148 361t148 361t371 143zM580 780q-136 0 -221 -84t-85 -223t85 -223t221 -84t220.5 84t84.5 223t-84.5 223t-220.5 84z" />
    <glyph glyph-name="otilde" unicode="&#xf5;" horiz-adv-x="1159" 
d="M438 1442q38 0 85 -16.5t83.5 -36t78 -36t69.5 -16.5q65 0 108 93l82 -23q-21 -101 -72 -164t-133 -63q-49 0 -110 26t-116 52t-89 26q-67 0 -109 -92l-84 22q21 100 73 164t134 64zM580 977q223 0 370.5 -143t147.5 -361t-147.5 -361t-370.5 -143t-371 143t-148 361
t148 361t371 143zM580 780q-136 0 -221 -84t-85 -223t85 -223t221 -84t220.5 84t84.5 223t-84.5 223t-220.5 84z" />
    <glyph glyph-name="odieresis" unicode="&#xf6;" horiz-adv-x="1159" 
d="M489 1413v-246h-204v246h204zM874 1413v-246h-204v246h204zM580 977q223 0 370.5 -143t147.5 -361t-147.5 -361t-370.5 -143t-371 143t-148 361t148 361t371 143zM580 780q-136 0 -221 -84t-85 -223t85 -223t221 -84t220.5 84t84.5 223t-84.5 223t-220.5 84z" />
    <glyph glyph-name="divide" unicode="&#xf7;" 
d="M696 1018v-172h-164v172h164zM1145 662v-99h-1061v99h1061zM696 379v-174h-164v174h164z" />
    <glyph glyph-name="oslash" unicode="&#xf8;" horiz-adv-x="1159" 
d="M940 842q75 -67 116.5 -162.5t41.5 -206.5q0 -218 -147.5 -361t-370.5 -143q-181 0 -322 101l-86 -99l-55 47l88 99q-144 144 -144 356q0 218 148 361t371 143q169 0 303 -88l78 88l55 -49zM274 473q0 -119 66 -201l410 465q-75 43 -170 43q-136 0 -221 -84t-85 -223z
M580 166q136 0 220.5 84t84.5 223q0 133 -78 217l-414 -469q77 -55 187 -55z" />
    <glyph glyph-name="ugrave" unicode="&#xf9;" horiz-adv-x="1077" 
d="M422 1448l192 -315h-155l-297 315h260zM459 -31q-72 0 -133 23t-109.5 69.5t-76 126t-27.5 185.5v573h204v-553q0 -114 52.5 -171.5t146.5 -57.5q111 0 174.5 79t63.5 251v452h200v-946h-200v143h-4q-87 -174 -291 -174z" />
    <glyph glyph-name="uacute" unicode="&#xfa;" horiz-adv-x="1077" 
d="M911 1448l-295 -315h-157l194 315h258zM459 -31q-72 0 -133 23t-109.5 69.5t-76 126t-27.5 185.5v573h204v-553q0 -114 52.5 -171.5t146.5 -57.5q111 0 174.5 79t63.5 251v452h200v-946h-200v143h-4q-87 -174 -291 -174z" />
    <glyph glyph-name="ucircumflex" unicode="&#xfb;" horiz-adv-x="1077" 
d="M637 1448l254 -315h-193l-161 194l-162 -194h-193l254 315h201zM459 -31q-72 0 -133 23t-109.5 69.5t-76 126t-27.5 185.5v573h204v-553q0 -114 52.5 -171.5t146.5 -57.5q111 0 174.5 79t63.5 251v452h200v-946h-200v143h-4q-87 -174 -291 -174z" />
    <glyph glyph-name="udieresis" unicode="&#xfc;" horiz-adv-x="1077" 
d="M446 1413v-246h-204v246h204zM831 1413v-246h-204v246h204zM459 -31q-72 0 -133 23t-109.5 69.5t-76 126t-27.5 185.5v573h204v-553q0 -114 52.5 -171.5t146.5 -57.5q111 0 174.5 79t63.5 251v452h200v-946h-200v143h-4q-87 -174 -291 -174z" />
    <glyph glyph-name="yacute" unicode="&#xfd;" horiz-adv-x="993" 
d="M881 1448l-295 -315h-158l195 315h258zM762 946h221l-590 -1356h-213l228 496l-398 860h240l260 -620z" />
    <glyph glyph-name="thorn" unicode="&#xfe;" horiz-adv-x="1175" 
d="M133 -410v1844h201v-627h4q98 170 319 170q93 0 176 -35t145.5 -98.5t99 -159.5t36.5 -211t-36.5 -211t-99 -159.5t-145.5 -98.5t-176 -35q-221 0 -319 170h-4v-549h-201zM614 166q131 0 211 85.5t80 221.5t-80 221.5t-211 85.5t-210.5 -85.5t-79.5 -221.5t79.5 -221.5
t210.5 -85.5z" />
    <glyph glyph-name="ydieresis" unicode="&#xff;" horiz-adv-x="993" 
d="M416 1413v-246h-205v246h205zM801 1413v-246h-205v246h205zM762 946h221l-590 -1356h-213l228 496l-398 860h240l260 -620z" />
    <glyph glyph-name="Amacron" unicode="&#x100;" horiz-adv-x="1388" 
d="M989 1706v-147h-594v147h594zM1145 0l-137 356h-627l-137 -356h-234l586 1434h197l585 -1434h-233zM457 553h475l-238 614z" />
    <glyph glyph-name="amacron" unicode="&#x101;" horiz-adv-x="1169" 
d="M872 1356v-148h-593v148h593zM522 -31q-94 0 -177.5 35t-146.5 98.5t-100 159.5t-37 211t37 211t100 159.5t146.5 98.5t177.5 35q222 0 320 -170h4v139h201v-946h-201v139h-4q-98 -170 -320 -170zM565 166q131 0 211 85.5t80 221.5t-80 221.5t-211 85.5t-211 -85.5
t-80 -221.5t80 -221.5t211 -85.5z" />
    <glyph glyph-name="Abreve" unicode="&#x102;" horiz-adv-x="1388" 
d="M694 1522q-122 0 -195.5 65t-82.5 180h137q4 -57 41 -86.5t100 -29.5q64 0 101 29.5t41 86.5h137q-9 -115 -83 -180t-196 -65zM1145 0l-137 356h-627l-137 -356h-234l586 1434h197l585 -1434h-233zM457 553h475l-238 614z" />
    <glyph glyph-name="abreve" unicode="&#x103;" horiz-adv-x="1169" 
d="M854 1434q0 -134 -77.5 -210.5t-201.5 -76.5t-201 76.5t-77 210.5h139q3 -69 40.5 -109.5t98.5 -40.5t99 40.5t41 109.5h139zM522 -31q-94 0 -177.5 35t-146.5 98.5t-100 159.5t-37 211t37 211t100 159.5t146.5 98.5t177.5 35q222 0 320 -170h4v139h201v-946h-201v139h-4
q-98 -170 -320 -170zM565 166q131 0 211 85.5t80 221.5t-80 221.5t-211 85.5t-211 -85.5t-80 -221.5t80 -221.5t211 -85.5z" />
    <glyph glyph-name="Aogonek" unicode="&#x104;" horiz-adv-x="1388" 
d="M1165 -248q22 0 80 12l25 -126q-70 -21 -144 -21q-77 0 -125.5 40t-48.5 114q0 129 183 258l-127 327h-627l-137 -356h-234l586 1434h197l585 -1434h-149q-123 -129 -123 -201q0 -23 16 -35t43 -12zM457 553h475l-238 614z" />
    <glyph glyph-name="aogonek" unicode="&#x105;" horiz-adv-x="1169" 
d="M1047 0h-91q-122 -128 -122 -201q0 -23 16 -35t43 -12q22 0 80 12l24 -126q-70 -21 -143 -21q-77 0 -125.5 40t-48.5 114q0 124 166 245v123h-4q-98 -170 -320 -170q-94 0 -177.5 35t-146.5 98.5t-100 159.5t-37 211t37 211t100 159.5t146.5 98.5t177.5 35
q222 0 320 -170h4v139h201v-946zM565 166q131 0 211 85.5t80 221.5t-80 221.5t-211 85.5t-211 -85.5t-80 -221.5t80 -221.5t211 -85.5z" />
    <glyph glyph-name="Cacute" unicode="&#x106;" horiz-adv-x="1396" 
d="M1200 1767l-301 -245h-151l194 245h258zM840 -31q-225 0 -400 93.5t-271.5 264t-96.5 390.5q0 165 56.5 304.5t156.5 236.5t243 151.5t312 54.5q287 0 506 -157l-132 -187q-175 127 -383 127q-229 0 -377.5 -145.5t-148.5 -384.5t148.5 -385t377.5 -146q208 0 383 127
l132 -186q-220 -158 -506 -158z" />
    <glyph glyph-name="cacute" unicode="&#x107;" horiz-adv-x="946" 
d="M940 1448l-295 -315h-158l195 315h258zM582 -31q-230 0 -375.5 139.5t-145.5 364.5t145.5 364.5t375.5 139.5q177 0 323 -96l-94 -170q-114 71 -236 71q-135 0 -218 -87t-83 -222t83 -222t218 -87q120 0 236 72l94 -170q-148 -97 -323 -97z" />
    <glyph glyph-name="Ccircumflex" unicode="&#x108;" horiz-adv-x="1396" 
d="M932 1767l246 -245h-191l-156 153l-153 -153h-191l246 245h199zM840 -31q-225 0 -400 93.5t-271.5 264t-96.5 390.5q0 165 56.5 304.5t156.5 236.5t243 151.5t312 54.5q287 0 506 -157l-132 -187q-175 127 -383 127q-229 0 -377.5 -145.5t-148.5 -384.5t148.5 -385
t377.5 -146q208 0 383 127l132 -186q-220 -158 -506 -158z" />
    <glyph glyph-name="ccircumflex" unicode="&#x109;" horiz-adv-x="946" 
d="M666 1448l254 -315h-193l-162 194l-162 -194h-192l254 315h201zM582 -31q-230 0 -375.5 139.5t-145.5 364.5t145.5 364.5t375.5 139.5q177 0 323 -96l-94 -170q-114 71 -236 71q-135 0 -218 -87t-83 -222t83 -222t218 -87q120 0 236 72l94 -170q-148 -97 -323 -97z" />
    <glyph glyph-name="Cdotaccent" unicode="&#x10a;" horiz-adv-x="1396" 
d="M938 1735v-213h-217v213h217zM840 -31q-225 0 -400 93.5t-271.5 264t-96.5 390.5q0 165 56.5 304.5t156.5 236.5t243 151.5t312 54.5q287 0 506 -157l-132 -187q-175 127 -383 127q-229 0 -377.5 -145.5t-148.5 -384.5t148.5 -385t377.5 -146q208 0 383 127l132 -186
q-220 -158 -506 -158z" />
    <glyph glyph-name="cdotaccent" unicode="&#x10b;" horiz-adv-x="946" 
d="M688 1413v-246h-246v246h246zM582 -31q-230 0 -375.5 139.5t-145.5 364.5t145.5 364.5t375.5 139.5q177 0 323 -96l-94 -170q-114 71 -236 71q-135 0 -218 -87t-83 -222t83 -222t218 -87q120 0 236 72l94 -170q-148 -97 -323 -97z" />
    <glyph glyph-name="Ccaron" unicode="&#x10c;" horiz-adv-x="1396" 
d="M932 1522h-199l-246 245h191l153 -153l156 153h191zM840 -31q-225 0 -400 93.5t-271.5 264t-96.5 390.5q0 165 56.5 304.5t156.5 236.5t243 151.5t312 54.5q287 0 506 -157l-132 -187q-175 127 -383 127q-229 0 -377.5 -145.5t-148.5 -384.5t148.5 -385t377.5 -146
q208 0 383 127l132 -186q-220 -158 -506 -158z" />
    <glyph glyph-name="ccaron" unicode="&#x10d;" horiz-adv-x="946" 
d="M920 1434l-254 -316h-201l-254 316h192l162 -195l162 195h193zM582 -31q-230 0 -375.5 139.5t-145.5 364.5t145.5 364.5t375.5 139.5q177 0 323 -96l-94 -170q-114 71 -236 71q-135 0 -218 -87t-83 -222t83 -222t218 -87q120 0 236 72l94 -170q-148 -97 -323 -97z" />
    <glyph glyph-name="Dcaron" unicode="&#x10e;" horiz-adv-x="1398" 
d="M676 1522h-199l-246 245h191l153 -153l156 153h191zM606 1434q154 0 286.5 -50t228.5 -141t151 -226.5t55 -299.5t-55 -299.5t-151 -226.5t-228.5 -141t-286.5 -50h-463v1434h463zM604 1233h-248v-1032h248q218 0 354 135t136 381t-136 381t-354 135z" />
    <glyph glyph-name="dcaron" unicode="&#x10f;" horiz-adv-x="1376" 
d="M1141 1464h215v-215l-160 -219h-72l90 219h-73v215zM846 807v627h201v-1434h-201v139h-4q-98 -170 -320 -170q-94 0 -177.5 35t-146.5 98.5t-100 159.5t-37 211t37 211t100 159.5t146.5 98.5t177.5 35q222 0 320 -170h4zM565 166q131 0 211 85.5t80 221.5t-80 221.5
t-211 85.5t-211 -85.5t-80 -221.5t80 -221.5t211 -85.5z" />
    <glyph glyph-name="Dcroat" unicode="&#x110;" horiz-adv-x="1419" 
d="M627 1434q154 0 286.5 -50t228.5 -141t151 -226.5t55 -299.5t-55 -299.5t-151 -226.5t-228.5 -141t-286.5 -50h-463v641h-164v172h164v621h463zM625 201q218 0 353.5 135t135.5 381t-135.5 381t-353.5 135h-248v-420h332v-172h-332v-440h248z" />
    <glyph glyph-name="dcroat" unicode="&#x111;" horiz-adv-x="1175" 
d="M1176 1280v-123h-129v-1157h-201v139h-4q-98 -170 -320 -170q-94 0 -177.5 35t-146.5 98.5t-100 159.5t-37 211t37 211t100 159.5t146.5 98.5t177.5 35q222 0 320 -170h4v350h-266v123h266v154h201v-154h129zM565 166q131 0 211 85.5t80 221.5t-80 221.5t-211 85.5
t-211 -85.5t-80 -221.5t80 -221.5t211 -85.5z" />
    <glyph glyph-name="Emacron" unicode="&#x112;" horiz-adv-x="1064" 
d="M889 1706v-147h-594v147h594zM356 201h617v-201h-830v1434h820v-201h-607v-340h559v-201h-559v-491z" />
    <glyph glyph-name="emacron" unicode="&#x113;" horiz-adv-x="1058" 
d="M850 1356v-148h-594v148h594zM545 977q214 0 333 -136t119 -368v-33h-733q6 -125 85.5 -201.5t201.5 -76.5q167 0 291 166l141 -133q-165 -226 -428 -226q-225 0 -359.5 138.5t-134.5 363.5q0 221 131 363.5t353 142.5zM532 793q-103 0 -171.5 -53t-86.5 -154h506
q-6 97 -73 152t-175 55z" />
    <glyph glyph-name="Ebreve" unicode="&#x114;" horiz-adv-x="1064" 
d="M594 1522q-122 0 -196 65t-83 180h138q4 -57 41 -86.5t100 -29.5t100 29.5t41 86.5h137q-9 -115 -82.5 -180t-195.5 -65zM356 201h617v-201h-830v1434h820v-201h-607v-340h559v-201h-559v-491z" />
    <glyph glyph-name="ebreve" unicode="&#x115;" horiz-adv-x="1058" 
d="M831 1434q0 -134 -77 -210.5t-201 -76.5t-201.5 76.5t-77.5 210.5h140q3 -69 40.5 -109.5t98.5 -40.5t98.5 40.5t40.5 109.5h139zM545 977q214 0 333 -136t119 -368v-33h-733q6 -125 85.5 -201.5t201.5 -76.5q167 0 291 166l141 -133q-165 -226 -428 -226
q-225 0 -359.5 138.5t-134.5 363.5q0 221 131 363.5t353 142.5zM532 793q-103 0 -171.5 -53t-86.5 -154h506q-6 97 -73 152t-175 55z" />
    <glyph glyph-name="Edotaccent" unicode="&#x116;" horiz-adv-x="1064" 
d="M700 1735v-213h-217v213h217zM356 201h617v-201h-830v1434h820v-201h-607v-340h559v-201h-559v-491z" />
    <glyph glyph-name="edotaccent" unicode="&#x117;" horiz-adv-x="1058" 
d="M676 1413v-246h-246v246h246zM545 977q214 0 333 -136t119 -368v-33h-733q6 -125 85.5 -201.5t201.5 -76.5q167 0 291 166l141 -133q-165 -226 -428 -226q-225 0 -359.5 138.5t-134.5 363.5q0 221 131 363.5t353 142.5zM532 793q-103 0 -171.5 -53t-86.5 -154h506
q-6 97 -73 152t-175 55z" />
    <glyph glyph-name="Eogonek" unicode="&#x118;" horiz-adv-x="1064" 
d="M973 0h-72q-123 -129 -123 -201q0 -23 16.5 -35t43.5 -12q22 0 80 12l24 -126q-70 -21 -143 -21q-77 0 -125.5 40t-48.5 114q0 114 143 229h-625v1434h820v-201h-607v-340h559v-201h-559v-491h617v-201z" />
    <glyph glyph-name="eogonek" unicode="&#x119;" horiz-adv-x="1058" 
d="M997 473v-33h-733q6 -125 85.5 -201.5t201.5 -76.5q167 0 291 166l141 -133q-89 -126 -211 -181q-137 -140 -137 -215q0 -23 16 -35t43 -12q22 0 80 12l25 -126q-71 -21 -144 -21q-77 0 -125.5 40t-48.5 114q0 100 109 198h-35q-225 0 -359.5 138.5t-134.5 363.5
q0 221 131 363.5t353 142.5q214 0 333 -136t119 -368zM274 586h506q-6 97 -73 152t-175 55q-103 0 -171.5 -53t-86.5 -154z" />
    <glyph glyph-name="Ecaron" unicode="&#x11a;" horiz-adv-x="1064" 
d="M694 1522h-198l-246 245h190l154 -153l156 153h190zM356 201h617v-201h-830v1434h820v-201h-607v-340h559v-201h-559v-491z" />
    <glyph glyph-name="ecaron" unicode="&#x11b;" horiz-adv-x="1058" 
d="M907 1434l-254 -316h-200l-254 316h192l162 -195l162 195h192zM545 977q214 0 333 -136t119 -368v-33h-733q6 -125 85.5 -201.5t201.5 -76.5q167 0 291 166l141 -133q-165 -226 -428 -226q-225 0 -359.5 138.5t-134.5 363.5q0 221 131 363.5t353 142.5zM532 793
q-103 0 -171.5 -53t-86.5 -154h506q-6 97 -73 152t-175 55z" />
    <glyph glyph-name="Gcircumflex" unicode="&#x11c;" horiz-adv-x="1601" 
d="M807 1675l-154 -153h-190l246 245h198l246 -245h-190zM870 793h680v-86q0 -112 -27.5 -218.5t-86.5 -201t-142.5 -165t-203 -112t-261.5 -41.5q-161 0 -300.5 53t-240.5 148.5t-158.5 235.5t-57.5 307q0 163 55.5 302.5t154 238t240.5 154.5t309 56q324 0 551 -192
l-145 -178q-75 68 -182 110.5t-234 42.5q-231 0 -373.5 -150.5t-142.5 -381.5q0 -232 147 -380.5t384 -148.5q112 0 204.5 36.5t150 96t91 129.5t39.5 144h-451v201z" />
    <glyph glyph-name="gcircumflex" unicode="&#x11d;" horiz-adv-x="1169" 
d="M686 1448l254 -315h-192l-162 194l-162 -194h-193l254 315h201zM600 -440q-145 0 -364 43l38 194q190 -43 326 -43q137 0 191.5 59t54.5 214v112h-4q-98 -170 -320 -170q-94 0 -177.5 35t-146.5 98.5t-100 159.5t-37 211t37 211t100 159.5t146.5 98.5t177.5 35
q222 0 320 -170h4v139h201v-946q-3 -108 -27.5 -188t-63 -127.5t-97 -76t-119.5 -38.5t-140 -10zM565 166q131 0 211 85.5t80 221.5t-80 221.5t-211 85.5t-211 -85.5t-80 -221.5t80 -221.5t211 -85.5z" />
    <glyph glyph-name="Gbreve" unicode="&#x11e;" horiz-adv-x="1601" 
d="M807 1522q-122 0 -196 65t-83 180h138q4 -57 41 -86.5t100 -29.5t100 29.5t41 86.5h137q-9 -115 -82.5 -180t-195.5 -65zM870 793h680v-86q0 -112 -27.5 -218.5t-86.5 -201t-142.5 -165t-203 -112t-261.5 -41.5q-161 0 -300.5 53t-240.5 148.5t-158.5 235.5t-57.5 307
q0 163 55.5 302.5t154 238t240.5 154.5t309 56q324 0 551 -192l-145 -178q-75 68 -182 110.5t-234 42.5q-231 0 -373.5 -150.5t-142.5 -381.5q0 -232 147 -380.5t384 -148.5q112 0 204.5 36.5t150 96t91 129.5t39.5 144h-451v201z" />
    <glyph glyph-name="gbreve" unicode="&#x11f;" horiz-adv-x="1169" 
d="M864 1434q0 -134 -77 -210.5t-201 -76.5t-201.5 76.5t-77.5 210.5h139q3 -69 41 -109.5t99 -40.5t98.5 40.5t40.5 109.5h139zM600 -440q-145 0 -364 43l38 194q190 -43 326 -43q137 0 191.5 59t54.5 214v112h-4q-98 -170 -320 -170q-94 0 -177.5 35t-146.5 98.5
t-100 159.5t-37 211t37 211t100 159.5t146.5 98.5t177.5 35q222 0 320 -170h4v139h201v-946q-3 -108 -27.5 -188t-63 -127.5t-97 -76t-119.5 -38.5t-140 -10zM565 166q131 0 211 85.5t80 221.5t-80 221.5t-211 85.5t-211 -85.5t-80 -221.5t80 -221.5t211 -85.5z" />
    <glyph glyph-name="Gdotaccent" unicode="&#x120;" horiz-adv-x="1601" 
d="M913 1735v-213h-217v213h217zM870 793h680v-86q0 -112 -27.5 -218.5t-86.5 -201t-142.5 -165t-203 -112t-261.5 -41.5q-161 0 -300.5 53t-240.5 148.5t-158.5 235.5t-57.5 307q0 163 55.5 302.5t154 238t240.5 154.5t309 56q324 0 551 -192l-145 -178q-75 68 -182 110.5
t-234 42.5q-231 0 -373.5 -150.5t-142.5 -381.5q0 -232 147 -380.5t384 -148.5q112 0 204.5 36.5t150 96t91 129.5t39.5 144h-451v201z" />
    <glyph glyph-name="gdotaccent" unicode="&#x121;" horiz-adv-x="1169" 
d="M709 1413v-246h-246v246h246zM600 -440q-145 0 -364 43l38 194q190 -43 326 -43q137 0 191.5 59t54.5 214v112h-4q-98 -170 -320 -170q-94 0 -177.5 35t-146.5 98.5t-100 159.5t-37 211t37 211t100 159.5t146.5 98.5t177.5 35q222 0 320 -170h4v139h201v-946
q-3 -108 -27.5 -188t-63 -127.5t-97 -76t-119.5 -38.5t-140 -10zM565 166q131 0 211 85.5t80 221.5t-80 221.5t-211 85.5t-211 -85.5t-80 -221.5t80 -221.5t211 -85.5z" />
    <glyph glyph-name="Gcommaaccent" unicode="&#x122;" horiz-adv-x="1601" 
d="M870 793h680v-86q0 -112 -27.5 -218.5t-86.5 -201t-142.5 -165t-203 -112t-261.5 -41.5q-161 0 -300.5 53t-240.5 148.5t-158.5 235.5t-57.5 307q0 163 55.5 302.5t154 238t240.5 154.5t309 56q324 0 551 -192l-145 -178q-75 68 -182 110.5t-234 42.5
q-231 0 -373.5 -150.5t-142.5 -381.5q0 -232 147 -380.5t384 -148.5q112 0 204.5 36.5t150 96t91 129.5t39.5 144h-451v201zM725 -279v183h203v-183l-131 -151h-76l76 151h-72z" />
    <glyph glyph-name="gcommaaccent" unicode="&#x123;" horiz-adv-x="1169" 
d="M692 1288v-182h-203v182l132 152h75l-75 -152h71zM846 946h201v-946q-3 -108 -27.5 -188t-63 -127.5t-97 -76t-119.5 -38.5t-140 -10q-145 0 -364 43l38 194q190 -43 326 -43q137 0 191.5 59t54.5 214v112h-4q-98 -170 -320 -170q-94 0 -177.5 35t-146.5 98.5t-100 159.5
t-37 211t37 211t100 159.5t146.5 98.5t177.5 35q222 0 320 -170h4v139zM565 166q131 0 211 85.5t80 221.5t-80 221.5t-211 85.5t-211 -85.5t-80 -221.5t80 -221.5t211 -85.5z" />
    <glyph glyph-name="Hcircumflex" unicode="&#x124;" horiz-adv-x="1470" 
d="M735 1675l-153 -153h-191l246 245h199l245 -245h-190zM1114 1434h213v-1434h-213v653h-758v-653h-213v1434h213v-576h758v576z" />
    <glyph glyph-name="hcircumflex" unicode="&#x125;" horiz-adv-x="1116" 
d="M334 1767l246 -245h-191l-156 153l-153 -153h-191l246 245h199zM334 1434v-631h4q97 174 309 174q162 0 259.5 -95.5t97.5 -299.5v-582h-201v547q0 229 -217 229q-118 0 -185 -77t-67 -246v-453h-201v1434h201z" />
    <glyph glyph-name="Hbar" unicode="&#x126;" horiz-adv-x="1468" 
d="M1468 1206v-176h-141v-1030h-213v653h-758v-653h-213v1030h-143v176h143v228h213v-228h758v228h213v-228h141zM1114 858v172h-758v-172h758z" />
    <glyph glyph-name="hbar" unicode="&#x127;" horiz-adv-x="1116" 
d="M647 977q162 0 259.5 -95.5t97.5 -299.5v-582h-201v547q0 229 -217 229q-118 0 -185 -77t-67 -246v-453h-201v1157h-133v123h133v154h201v-154h287v-123h-287v-354h4q97 174 309 174z" />
    <glyph glyph-name="Itilde" unicode="&#x128;" horiz-adv-x="503" 
d="M428 1522q-60 0 -178.5 47t-159.5 47q-75 0 -113 -92l-75 22q24 95 75 158t136 63q59 0 177.5 -47t158.5 -47q74 0 112 92l76 -22q-24 -95 -75 -158t-134 -63zM360 1434v-1434h-217v1434h217z" />
    <glyph glyph-name="itilde" unicode="&#x129;" horiz-adv-x="466" 
d="M125 1442q39 0 89 -26t93 -52.5t64 -26.5q25 0 41 22t30 71l82 -23q-35 -227 -168 -227q-39 0 -88.5 26t-92.5 52t-64 26q-26 0 -42 -21.5t-30 -70.5l-82 22q35 228 168 228zM133 0v946h201v-946h-201z" />
    <glyph glyph-name="Imacron" unicode="&#x12a;" horiz-adv-x="503" 
d="M547 1706v-147h-594v147h594zM360 1434v-1434h-217v1434h217z" />
    <glyph glyph-name="imacron" unicode="&#x12b;" horiz-adv-x="466" 
d="M428 1356v-148h-389v148h389zM133 0v946h201v-946h-201z" />
    <glyph glyph-name="Ibreve" unicode="&#x12c;" horiz-adv-x="503" 
d="M530 1767q-9 -115 -82.5 -180t-195.5 -65t-196 65t-83 180h138q4 -57 41 -86.5t100 -29.5t100 29.5t41 86.5h137zM360 1434v-1434h-217v1434h217z" />
    <glyph glyph-name="ibreve" unicode="&#x12d;" horiz-adv-x="466" 
d="M465 1434q0 -139 -61.5 -213t-170.5 -74t-170 74t-61 213h139q0 -150 92 -150q93 0 93 150h139zM133 0v946h201v-946h-201z" />
    <glyph glyph-name="Iogonek" unicode="&#x12e;" horiz-adv-x="503" 
d="M360 0h-53q-123 -129 -123 -201q0 -23 16.5 -35t43.5 -12q22 0 80 12l24 -126q-70 -21 -143 -21q-77 0 -125.5 40t-48.5 114q0 114 143 229h-31v1434h217v-1434z" />
    <glyph glyph-name="iogonek" unicode="&#x12f;" horiz-adv-x="466" 
d="M111 1413h245v-246h-245v246zM133 8v938h201v-946h-78q-123 -129 -123 -201q0 -23 16.5 -35t43.5 -12q21 0 79 12l25 -126q-70 -21 -143 -21q-77 0 -125.5 40t-48.5 114q0 118 153 237z" />
    <glyph glyph-name="Idotaccent" unicode="&#x130;" horiz-adv-x="503" 
d="M358 1735v-213h-217v213h217zM360 1434v-1434h-217v1434h217z" />
    <glyph glyph-name="dotlessi" unicode="&#x131;" horiz-adv-x="466" 
d="M133 0v946h201v-946h-201z" />
    <glyph glyph-name="IJ" unicode="&#x132;" horiz-adv-x="1064" 
d="M360 1434v-1434h-217v1434h217zM922 1434v-1082q0 -184 -78.5 -273t-235.5 -89h-73v207h53q63 0 92 33.5t29 121.5v1082h213z" />
    <glyph glyph-name="ij" unicode="&#x133;" horiz-adv-x="933" 
d="M356 1413v-246h-245v246h245zM823 1413v-246h-245v246h245zM133 0v946h201v-946h-201zM455 -233h37q58 0 83 26t25 88v1065h201v-1085q0 -132 -73 -204.5t-206 -72.5h-67v183z" />
    <glyph glyph-name="Jcircumflex" unicode="&#x134;" horiz-adv-x="561" 
d="M412 1767l245 -245h-190l-156 153l-153 -153h-191l246 245h199zM418 1434v-1082q0 -184 -78.5 -273t-235.5 -89h-73v207h53q63 0 92 33.5t29 121.5v1082h213z" />
    <glyph glyph-name="jcircumflex" unicode="&#x135;" horiz-adv-x="466" 
d="M334 1448l184 -315h-184l-101 194l-100 -194h-184l184 315h201zM-12 -233h37q58 0 83 26t25 88v1065h201v-1085q0 -132 -73 -204.5t-206 -72.5h-67v183z" />
    <glyph glyph-name="Kcommaaccent" unicode="&#x136;" horiz-adv-x="1329" 
d="M598 776l721 -776h-315l-648 715v-715h-213v1434h213v-637l570 637h295zM553 -279v183h203v-183l-131 -151h-76l76 151h-72z" />
    <glyph glyph-name="kcommaaccent" unicode="&#x137;" horiz-adv-x="989" 
d="M539 516l440 -516h-264l-381 465v-465h-201v1434h201v-891l338 403h264zM397 -279v183h203v-183l-131 -151h-76l76 151h-72z" />
    <glyph glyph-name="kgreenlandic" unicode="&#x138;" horiz-adv-x="978" 
d="M969 0h-264l-381 465v-465h-201v946h201v-403l338 403h264l-398 -430z" />
    <glyph glyph-name="Lacute" unicode="&#x139;" horiz-adv-x="989" 
d="M700 1767l-301 -245h-151l194 245h258zM356 1434v-1229h623v-205h-836v1434h213z" />
    <glyph glyph-name="lacute" unicode="&#x13a;" horiz-adv-x="466" 
d="M602 1767l-301 -245h-151l194 245h258zM334 1434v-1434h-201v1434h201z" />
    <glyph glyph-name="Lcommaaccent" unicode="&#x13b;" horiz-adv-x="989" 
d="M356 205h623v-205h-836v1434h213v-1229zM471 -279v183h203v-183l-131 -151h-76l76 151h-72z" />
    <glyph glyph-name="lcommaaccent" unicode="&#x13c;" horiz-adv-x="466" 
d="M133 1434h201v-1434h-201v1434zM131 -279v183h203v-183l-131 -151h-76l76 151h-72z" />
    <glyph glyph-name="Lcaron" unicode="&#x13d;" horiz-adv-x="989" 
d="M688 948h-72l109 301h-92v215h215v-215zM356 205h623v-205h-836v1434h213v-1229z" />
    <glyph glyph-name="lcaron" unicode="&#x13e;" horiz-adv-x="663" 
d="M428 1464h215v-215l-160 -219h-71l90 219h-74v215zM133 0v1434h201v-1434h-201z" />
    <glyph glyph-name="Ldot" unicode="&#x13f;" horiz-adv-x="989" 
d="M356 1434v-1229h623v-205h-836v1434h213zM813 946v-244h-244v244h244z" />
    <glyph glyph-name="ldot" unicode="&#x140;" horiz-adv-x="665" 
d="M334 1434v-1434h-201v1434h201zM645 948v-243h-244v243h244z" />
    <glyph glyph-name="Lslash" unicode="&#x141;" horiz-adv-x="989" 
d="M356 205h623v-205h-836v590l-163 -86v153l163 86v691h213v-580l353 184v-153l-353 -185v-495z" />
    <glyph glyph-name="lslash" unicode="&#x142;" horiz-adv-x="569" 
d="M549 999v-153l-164 -86v-760h-201v653l-164 -86v154l164 86v627h201v-521z" />
    <glyph glyph-name="Nacute" unicode="&#x143;" horiz-adv-x="1431" 
d="M1083 1767l-301 -245h-151l194 245h258zM1288 1434v-1434h-223l-705 1071h-4v-1071h-213v1434h224l704 -1072h4v1072h213z" />
    <glyph glyph-name="nacute" unicode="&#x144;" horiz-adv-x="1105" 
d="M965 1448l-295 -315h-158l195 315h258zM637 977q163 0 259.5 -95.5t96.5 -299.5v-582h-200v547q0 229 -218 229q-117 0 -184 -77t-67 -246v-453h-201v946h201v-143h4q97 174 309 174z" />
    <glyph glyph-name="Ncommaaccent" unicode="&#x145;" horiz-adv-x="1431" 
d="M1075 1434h213v-1434h-223l-705 1071h-4v-1071h-213v1434h224l704 -1072h4v1072zM612 -279v183h203v-183l-131 -151h-76l76 151h-72z" />
    <glyph glyph-name="ncommaaccent" unicode="&#x146;" horiz-adv-x="1105" 
d="M637 977q163 0 259.5 -95.5t96.5 -299.5v-582h-200v547q0 229 -218 229q-117 0 -184 -77t-67 -246v-453h-201v946h201v-143h4q97 174 309 174zM477 -279v183h203v-183l-131 -151h-76l76 151h-72z" />
    <glyph glyph-name="Ncaron" unicode="&#x147;" horiz-adv-x="1431" 
d="M815 1522h-199l-245 245h190l154 -153l155 153h191zM1288 1434v-1434h-223l-705 1071h-4v-1071h-213v1434h224l704 -1072h4v1072h213z" />
    <glyph glyph-name="ncaron" unicode="&#x148;" horiz-adv-x="1105" 
d="M944 1434l-254 -316h-201l-253 316h192l162 -195l162 195h192zM637 977q163 0 259.5 -95.5t96.5 -299.5v-582h-200v547q0 229 -218 229q-117 0 -184 -77t-67 -246v-453h-201v946h201v-143h4q97 174 309 174z" />
    <glyph glyph-name="napostrophe" unicode="&#x149;" horiz-adv-x="1187" 
d="M252 1464v-215l-160 -301h-72l109 301h-92v215h215zM719 977q163 0 259.5 -95.5t96.5 -299.5v-582h-201v547q0 229 -217 229q-117 0 -184 -77t-67 -246v-453h-201v946h201v-143h4q97 174 309 174z" />
    <glyph glyph-name="Eng" unicode="&#x14a;" horiz-adv-x="1431" 
d="M1075 1434h213v-1524q0 -151 -73.5 -235.5t-221.5 -84.5h-125v205h82q64 0 94.5 26.5t30.5 96.5v82l-715 1067h-4v-1067h-213v1434h224l704 -1059h4v1059z" />
    <glyph glyph-name="eng" unicode="&#x14b;" horiz-adv-x="1105" 
d="M637 977q163 0 259.5 -95.5t96.5 -299.5v-709q0 -134 -65 -208.5t-197 -74.5h-125v189h88q47 0 73 25.5t26 74.5v668q0 229 -218 229q-117 0 -184 -77t-67 -246v-453h-201v946h201v-143h4q97 174 309 174z" />
    <glyph glyph-name="Omacron" unicode="&#x14c;" horiz-adv-x="1638" 
d="M1116 1706v-147h-594v147h594zM819 1464q211 0 381.5 -94t268.5 -265.5t98 -387.5t-98 -387.5t-268.5 -266t-381.5 -94.5t-381.5 94.5t-268 266t-97.5 387.5q0 162 57 302t156.5 237t237.5 152.5t296 55.5zM819 1247q-226 0 -370 -149.5t-144 -380.5t144 -381t370 -150
t370 150t144 381t-144 380.5t-370 149.5z" />
    <glyph glyph-name="omacron" unicode="&#x14d;" horiz-adv-x="1159" 
d="M877 1356v-148h-594v148h594zM580 977q223 0 370.5 -143t147.5 -361t-147.5 -361t-370.5 -143t-371 143t-148 361t148 361t371 143zM580 780q-136 0 -221 -84t-85 -223t85 -223t221 -84t220.5 84t84.5 223t-84.5 223t-220.5 84z" />
    <glyph glyph-name="Obreve" unicode="&#x14e;" horiz-adv-x="1638" 
d="M1100 1767q-9 -115 -83 -180t-196 -65t-195.5 65t-82.5 180h137q4 -57 41 -86.5t100 -29.5q64 0 101 29.5t41 86.5h137zM819 1464q211 0 381.5 -94t268.5 -265.5t98 -387.5t-98 -387.5t-268.5 -266t-381.5 -94.5t-381.5 94.5t-268 266t-97.5 387.5q0 162 57 302
t156.5 237t237.5 152.5t296 55.5zM819 1247q-226 0 -370 -149.5t-144 -380.5t144 -381t370 -150t370 150t144 381t-144 380.5t-370 149.5z" />
    <glyph glyph-name="obreve" unicode="&#x14f;" horiz-adv-x="1159" 
d="M858 1434q0 -134 -77 -210.5t-201 -76.5t-201.5 76.5t-77.5 210.5h139q3 -69 41 -109.5t99 -40.5t98.5 40.5t40.5 109.5h139zM580 977q223 0 370.5 -143t147.5 -361t-147.5 -361t-370.5 -143t-371 143t-148 361t148 361t371 143zM580 780q-136 0 -221 -84t-85 -223
t85 -223t221 -84t220.5 84t84.5 223t-84.5 223t-220.5 84z" />
    <glyph glyph-name="Ohungarumlaut" unicode="&#x150;" horiz-adv-x="1638" 
d="M987 1767l-209 -245h-141l172 245h178zM1235 1767l-209 -245h-141l172 245h178zM819 1464q211 0 381.5 -94t268.5 -265.5t98 -387.5t-98 -387.5t-268.5 -266t-381.5 -94.5t-381.5 94.5t-268 266t-97.5 387.5q0 162 57 302t156.5 237t237.5 152.5t296 55.5zM819 1247
q-226 0 -370 -149.5t-144 -380.5t144 -381t370 -150t370 150t144 381t-144 380.5t-370 149.5z" />
    <glyph glyph-name="ohungarumlaut" unicode="&#x151;" horiz-adv-x="1159" 
d="M776 1448l-252 -315h-143l213 315h182zM1038 1448l-252 -315h-143l213 315h182zM580 977q223 0 370.5 -143t147.5 -361t-147.5 -361t-370.5 -143t-371 143t-148 361t148 361t371 143zM580 780q-136 0 -221 -84t-85 -223t85 -223t221 -84t220.5 84t84.5 223t-84.5 223
t-220.5 84z" />
    <glyph glyph-name="OE" unicode="&#x152;" horiz-adv-x="2252" 
d="M1540 201h621v-201h-834v178q-101 -100 -233.5 -154.5t-282.5 -54.5q-208 0 -376 94t-265.5 265.5t-97.5 388.5q0 216 97.5 387.5t266 265.5t375.5 94q148 0 281 -55t235 -154v179h803v-201h-590v-340h559v-201h-559v-491zM811 182q153 0 271.5 72t181.5 193t63 270
q0 148 -63 269t-181.5 193t-271.5 72q-221 0 -365.5 -151t-144.5 -383t144.5 -383.5t365.5 -151.5z" />
    <glyph glyph-name="oe" unicode="&#x153;" horiz-adv-x="1853" 
d="M1346 977q208 0 327 -136.5t119 -367.5v-33h-733q6 -125 85.5 -201.5t201.5 -76.5q55 0 103 16t84 44.5t58 51.5t45 54l142 -133q-165 -226 -432 -226q-266 0 -383 197h-5q-50 -93 -147.5 -145t-224.5 -52q-231 0 -378 141t-147 363t147 363t378 141q127 0 225.5 -52.5
t149.5 -146.5h4q54 92 152.5 145.5t228.5 53.5zM1327 793q-103 0 -171.5 -53t-86.5 -154h506q-6 97 -73 152t-175 55zM580 780q-133 0 -219.5 -84t-86.5 -223t86.5 -223t219.5 -84q132 0 218.5 84.5t86.5 222.5t-86.5 222.5t-218.5 84.5z" />
    <glyph glyph-name="Racute" unicode="&#x154;" horiz-adv-x="1191" 
d="M924 1767l-301 -245h-152l195 245h258zM903 0l-418 596h-129v-596h-213v1434h490q193 0 315.5 -114t122.5 -308q0 -161 -91 -270.5t-243 -137.5l434 -604h-268zM356 1233v-436h242q123 0 183.5 58.5t60.5 156.5q0 101 -60.5 161t-183.5 60h-242z" />
    <glyph glyph-name="racute" unicode="&#x155;" horiz-adv-x="675" 
d="M786 1448l-294 -315h-158l194 315h258zM655 975v-236h-30q-151 0 -226 -76.5t-75 -242.5v-420h-201v946h201v-207h4q35 109 115.5 172.5t197.5 63.5h14z" />
    <glyph glyph-name="Rcommaaccent" unicode="&#x156;" horiz-adv-x="1191" 
d="M737 604l434 -604h-268l-418 596h-129v-596h-213v1434h490q193 0 315.5 -114t122.5 -308q0 -161 -91 -270.5t-243 -137.5zM356 1233v-436h242q123 0 183.5 58.5t60.5 156.5q0 101 -60.5 161t-183.5 60h-242zM506 -279v183h203v-183l-131 -151h-76l76 151h-72z" />
    <glyph glyph-name="rcommaaccent" unicode="&#x157;" horiz-adv-x="675" 
d="M641 975h14v-236h-30q-151 0 -226 -76.5t-75 -242.5v-420h-201v946h201v-207h4q35 109 115.5 172.5t197.5 63.5zM125 -279v183h203v-183l-131 -151h-76l76 151h-72z" />
    <glyph glyph-name="Rcaron" unicode="&#x158;" horiz-adv-x="1191" 
d="M655 1522h-198l-246 245h190l154 -153l156 153h190zM903 0l-418 596h-129v-596h-213v1434h490q193 0 315.5 -114t122.5 -308q0 -161 -91 -270.5t-243 -137.5l434 -604h-268zM356 1233v-436h242q123 0 183.5 58.5t60.5 156.5q0 101 -60.5 161t-183.5 60h-242z" />
    <glyph glyph-name="rcaron" unicode="&#x159;" horiz-adv-x="675" 
d="M766 1434l-254 -316h-201l-254 316h193l162 -195l161 195h193zM655 975v-236h-30q-151 0 -226 -76.5t-75 -242.5v-420h-201v946h201v-207h4q35 109 115.5 172.5t197.5 63.5h14z" />
    <glyph glyph-name="Sacute" unicode="&#x15a;" horiz-adv-x="1024" 
d="M909 1767l-301 -245h-151l194 245h258zM532 1464q191 0 379 -96l-96 -203q-147 84 -289 84q-164 0 -164 -123q0 -47 26.5 -85t86.5 -85l256 -196q114 -88 167.5 -178.5t53.5 -210.5q0 -192 -124.5 -297t-333.5 -105q-129 0 -250 37t-213 96l96 201q203 -117 369 -117
q111 0 169 48t58 124q0 58 -36 107.5t-116 112.5l-243 192q-97 76 -147 159t-50 189q0 159 106.5 252.5t294.5 93.5z" />
    <glyph glyph-name="sacute" unicode="&#x15b;" horiz-adv-x="825" 
d="M799 1448l-295 -315h-158l195 315h258zM416 -31q-210 0 -385 101l90 178q155 -90 301 -90q147 0 147 88q0 31 -21 54.5t-79 51.5l-172 84q-199 95 -199 273q0 129 89.5 198.5t246.5 69.5q164 0 328 -74l-82 -174q-144 62 -252 62q-117 0 -117 -72q0 -34 24 -59t85 -54
l176 -84q188 -87 188 -266q0 -141 -98.5 -214t-269.5 -73z" />
    <glyph glyph-name="Scircumflex" unicode="&#x15c;" horiz-adv-x="1024" 
d="M641 1767l246 -245h-191l-155 153l-154 -153h-190l245 245h199zM532 1464q191 0 379 -96l-96 -203q-147 84 -289 84q-164 0 -164 -123q0 -47 26.5 -85t86.5 -85l256 -196q114 -88 167.5 -178.5t53.5 -210.5q0 -192 -124.5 -297t-333.5 -105q-129 0 -250 37t-213 96
l96 201q203 -117 369 -117q111 0 169 48t58 124q0 58 -36 107.5t-116 112.5l-243 192q-97 76 -147 159t-50 189q0 159 106.5 252.5t294.5 93.5z" />
    <glyph glyph-name="scircumflex" unicode="&#x15d;" horiz-adv-x="825" 
d="M524 1448l254 -315h-192l-162 194l-162 -194h-192l254 315h200zM416 -31q-210 0 -385 101l90 178q155 -90 301 -90q147 0 147 88q0 31 -21 54.5t-79 51.5l-172 84q-199 95 -199 273q0 129 89.5 198.5t246.5 69.5q164 0 328 -74l-82 -174q-144 62 -252 62q-117 0 -117 -72
q0 -34 24 -59t85 -54l176 -84q188 -87 188 -266q0 -141 -98.5 -214t-269.5 -73z" />
    <glyph glyph-name="Scedilla" unicode="&#x15e;" horiz-adv-x="1024" 
d="M952 371q0 -182 -111.5 -285.5t-303.5 -114.5l-15 -45q64 -18 103 -51t39 -94q0 -48 -41 -89t-81.5 -61t-133.5 -60q-3 -2 -5.5 -3t-5.5 -2l-26 57q47 23 68.5 34.5t49.5 28.5t39 31t11 29q0 35 -30.5 51.5t-100.5 32.5l51 139q-121 6 -233 42.5t-195 90.5l96 201
q203 -117 369 -117q111 0 169 48t58 124q0 58 -36 107.5t-116 112.5l-243 192q-97 76 -147 159t-50 189q0 159 106.5 252.5t294.5 93.5q191 0 379 -96l-96 -203q-147 84 -289 84q-164 0 -164 -123q0 -47 26.5 -85t86.5 -85l256 -196q114 -88 167.5 -178.5t53.5 -210.5z" />
    <glyph glyph-name="scedilla" unicode="&#x15f;" horiz-adv-x="825" 
d="M784 256q0 -135 -92 -208t-252 -79l-14 -43q64 -18 102.5 -51t38.5 -94q0 -30 -14 -55.5t-36 -45.5t-57 -39.5t-69 -35t-80 -35.5q-2 -1 -3.5 -1.5l-3 -1t-3.5 -1.5l-27 57q47 23 68.5 34.5t49.5 28.5t39 31t11 29q0 35 -30.5 51.5t-100.5 32.5l51 141q-183 12 -331 99
l90 178q155 -90 301 -90q147 0 147 88q0 31 -21 54.5t-79 51.5l-172 84q-199 95 -199 273q0 129 89.5 198.5t246.5 69.5q164 0 328 -74l-82 -174q-144 62 -252 62q-117 0 -117 -72q0 -34 24 -59t85 -54l176 -84q188 -87 188 -266z" />
    <glyph glyph-name="Scaron" unicode="&#x160;" horiz-adv-x="1024" 
d="M641 1522h-199l-245 245h190l154 -153l155 153h191zM532 1464q191 0 379 -96l-96 -203q-147 84 -289 84q-164 0 -164 -123q0 -47 26.5 -85t86.5 -85l256 -196q114 -88 167.5 -178.5t53.5 -210.5q0 -192 -124.5 -297t-333.5 -105q-129 0 -250 37t-213 96l96 201
q203 -117 369 -117q111 0 169 48t58 124q0 58 -36 107.5t-116 112.5l-243 192q-97 76 -147 159t-50 189q0 159 106.5 252.5t294.5 93.5z" />
    <glyph glyph-name="scaron" unicode="&#x161;" horiz-adv-x="825" 
d="M778 1434l-254 -316h-200l-254 316h192l162 -195l162 195h192zM416 -31q-210 0 -385 101l90 178q155 -90 301 -90q147 0 147 88q0 31 -21 54.5t-79 51.5l-172 84q-199 95 -199 273q0 129 89.5 198.5t246.5 69.5q164 0 328 -74l-82 -174q-144 62 -252 62q-117 0 -117 -72
q0 -34 24 -59t85 -54l176 -84q188 -87 188 -266q0 -141 -98.5 -214t-269.5 -73z" />
    <glyph glyph-name="uni0162" unicode="&#x162;" horiz-adv-x="1060" 
d="M637 0h-64l-24 -74q64 -18 102.5 -51t38.5 -94q0 -30 -14 -55.5t-36 -45.5t-57 -39.5t-69 -35t-80 -35.5q-2 -1 -3.5 -1.5l-3 -1t-3.5 -1.5l-27 57q47 23 68.5 34.5t49.5 28.5t39 31t11 29q0 35 -30.5 51.5t-100.5 32.5l62 170h-72v1233h-404v201h1020v-201h-403v-1233z
" />
    <glyph glyph-name="uni0163" unicode="&#x163;" horiz-adv-x="632" 
d="M592 776h-193v-495q0 -51 23.5 -75t75.5 -24h49v-184h-92h-11l-24 -72q64 -18 102.5 -51t38.5 -94q0 -30 -14 -55.5t-36 -45.5t-57 -39.5t-69 -35t-80 -35.5q-2 -1 -3.5 -1.5l-3 -1t-3.5 -1.5l-27 57q47 23 68.5 34.5t49.5 28.5t39 31t11 29q0 35 -30.5 51.5t-100.5 32.5
l64 178q-83 19 -126.5 79t-43.5 155v534h-168v170h168v379h200v-379h193v-170z" />
    <glyph glyph-name="Tcaron" unicode="&#x164;" horiz-adv-x="1060" 
d="M631 1522h-199l-246 245h191l153 -153l156 153h191zM1040 1434v-201h-403v-1233h-213v1233h-404v201h1020z" />
    <glyph glyph-name="tcaron" unicode="&#x165;" horiz-adv-x="768" 
d="M532 1464h216v-215l-160 -219h-72l90 219h-74v215zM399 1325v-379h193v-170h-193v-495q0 -51 23.5 -75t75.5 -24h49v-184h-92q-124 0 -190 63.5t-66 180.5v534h-168v170h168v379h200z" />
    <glyph glyph-name="Tbar" unicode="&#x166;" horiz-adv-x="1060" 
d="M1040 1233h-403v-287h278v-176h-278v-770h-213v770h-279v176h279v287h-404v201h1020v-201z" />
    <glyph glyph-name="tbar" unicode="&#x167;" horiz-adv-x="618" 
d="M592 776h-193v-129h183v-141h-183v-225q0 -51 23.5 -75t75.5 -24h49v-184h-92q-124 0 -190 63.5t-66 180.5v264h-160v141h160v129h-168v170h168v379h200v-379h193v-170z" />
    <glyph glyph-name="Utilde" unicode="&#x168;" horiz-adv-x="1396" 
d="M874 1522q-60 0 -178 47t-159 47q-75 0 -113 -92l-76 22q24 95 75 158t136 63q59 0 177.5 -47t158.5 -47q75 0 113 92l75 -22q-24 -95 -75 -158t-134 -63zM1274 1434v-881q0 -267 -156.5 -425.5t-419.5 -158.5t-419 158.5t-156 425.5v881h223v-875q0 -170 99 -269.5
t253 -99.5t253.5 99.5t99.5 269.5v875h223z" />
    <glyph glyph-name="utilde" unicode="&#x169;" horiz-adv-x="1077" 
d="M395 1442q38 0 85 -16.5t83.5 -36t78 -36t69.5 -16.5q65 0 108 93l82 -23q-21 -101 -72 -164t-133 -63q-49 0 -110 26t-116 52t-89 26q-67 0 -109 -92l-84 22q21 100 73 164t134 64zM459 -31q-72 0 -133 23t-109.5 69.5t-76 126t-27.5 185.5v573h204v-553
q0 -114 52.5 -171.5t146.5 -57.5q111 0 174.5 79t63.5 251v452h200v-946h-200v143h-4q-87 -174 -291 -174z" />
    <glyph glyph-name="Umacron" unicode="&#x16a;" horiz-adv-x="1396" 
d="M993 1706v-147h-594v147h594zM1274 1434v-881q0 -267 -156.5 -425.5t-419.5 -158.5t-419 158.5t-156 425.5v881h223v-875q0 -170 99 -269.5t253 -99.5t253.5 99.5t99.5 269.5v875h223z" />
    <glyph glyph-name="umacron" unicode="&#x16b;" horiz-adv-x="1077" 
d="M834 1356v-148h-594v148h594zM459 -31q-72 0 -133 23t-109.5 69.5t-76 126t-27.5 185.5v573h204v-553q0 -114 52.5 -171.5t146.5 -57.5q111 0 174.5 79t63.5 251v452h200v-946h-200v143h-4q-87 -174 -291 -174z" />
    <glyph glyph-name="Ubreve" unicode="&#x16c;" horiz-adv-x="1396" 
d="M977 1767q-9 -115 -83 -180t-196 -65t-195.5 65t-82.5 180h137q4 -57 41 -86.5t100 -29.5q64 0 101 29.5t41 86.5h137zM1274 1434v-881q0 -267 -156.5 -425.5t-419.5 -158.5t-419 158.5t-156 425.5v881h223v-875q0 -170 99 -269.5t253 -99.5t253.5 99.5t99.5 269.5v875
h223z" />
    <glyph glyph-name="ubreve" unicode="&#x16d;" horiz-adv-x="1077" 
d="M815 1434q0 -134 -77 -210.5t-201 -76.5t-201.5 76.5t-77.5 210.5h139q3 -69 41 -109.5t99 -40.5t98.5 40.5t40.5 109.5h139zM459 -31q-72 0 -133 23t-109.5 69.5t-76 126t-27.5 185.5v573h204v-553q0 -114 52.5 -171.5t146.5 -57.5q111 0 174.5 79t63.5 251v452h200
v-946h-200v143h-4q-87 -174 -291 -174z" />
    <glyph glyph-name="Uring" unicode="&#x16e;" horiz-adv-x="1396" 
d="M698 1815q104 0 172 -68t68 -172q0 -103 -68 -170.5t-172 -67.5t-171.5 67.5t-67.5 170.5q0 104 67.5 172t171.5 68zM696 1718q-61 0 -99 -40t-38 -103q0 -62 38 -101.5t99 -39.5q63 0 101.5 39.5t38.5 101.5q0 63 -38.5 103t-101.5 40zM1274 1434v-881
q0 -267 -156.5 -425.5t-419.5 -158.5t-419 158.5t-156 425.5v881h223v-875q0 -170 99 -269.5t253 -99.5t253.5 99.5t99.5 269.5v875h223z" />
    <glyph glyph-name="uring" unicode="&#x16f;" horiz-adv-x="1077" 
d="M537 1530q106 0 174.5 -68t68.5 -172t-68.5 -171.5t-174.5 -67.5t-175 67.5t-69 171.5t69 172t175 68zM537 1434q-64 0 -104 -41t-40 -103t40 -102.5t104 -40.5t103.5 40.5t39.5 102.5t-39.5 103t-103.5 41zM459 -31q-72 0 -133 23t-109.5 69.5t-76 126t-27.5 185.5v573
h204v-553q0 -114 52.5 -171.5t146.5 -57.5q111 0 174.5 79t63.5 251v452h200v-946h-200v143h-4q-87 -174 -291 -174z" />
    <glyph glyph-name="Uhungarumlaut" unicode="&#x170;" horiz-adv-x="1396" 
d="M864 1767l-209 -245h-141l172 245h178zM1112 1767l-209 -245h-141l172 245h178zM1274 1434v-881q0 -267 -156.5 -425.5t-419.5 -158.5t-419 158.5t-156 425.5v881h223v-875q0 -170 99 -269.5t253 -99.5t253.5 99.5t99.5 269.5v875h223z" />
    <glyph glyph-name="uhungarumlaut" unicode="&#x171;" horiz-adv-x="1077" 
d="M733 1448l-252 -315h-143l213 315h182zM995 1448l-252 -315h-143l213 315h182zM459 -31q-72 0 -133 23t-109.5 69.5t-76 126t-27.5 185.5v573h204v-553q0 -114 52.5 -171.5t146.5 -57.5q111 0 174.5 79t63.5 251v452h200v-946h-200v143h-4q-87 -174 -291 -174z" />
    <glyph glyph-name="Uogonek" unicode="&#x172;" horiz-adv-x="1396" 
d="M1051 1434h223v-881q0 -233 -121.5 -385.5t-331.5 -187.5q-104 -116 -104 -181q0 -23 16 -35t43 -12q22 0 80 12l25 -126q-71 -21 -144 -21q-77 0 -125.5 40t-48.5 114q0 100 109 198q-252 9 -400.5 166t-148.5 418v881h223v-875q0 -170 99 -269.5t253 -99.5t253.5 99.5
t99.5 269.5v875z" />
    <glyph glyph-name="uogonek" unicode="&#x173;" horiz-adv-x="1077" 
d="M954 0h-102q-123 -129 -123 -201q0 -23 16 -35t43 -12q22 0 80 12l25 -126q-71 -21 -143 -21q-77 0 -126 40t-49 114q0 126 179 254v118h-4q-87 -174 -291 -174q-72 0 -133 23t-109.5 69.5t-76 126t-27.5 185.5v573h204v-553q0 -114 52.5 -171.5t146.5 -57.5
q111 0 174.5 79t63.5 251v452h200v-946z" />
    <glyph glyph-name="Wcircumflex" unicode="&#x174;" horiz-adv-x="2017" 
d="M1110 1767l246 -245h-191l-155 153l-154 -153h-190l245 245h199zM1987 1434l-431 -1434h-208l-336 1073h-6l-336 -1073h-209l-430 1434h237l295 -1094h4l336 1094h211l336 -1094h4l295 1094h238z" />
    <glyph glyph-name="wcircumflex" unicode="&#x175;" horiz-adv-x="1476" 
d="M737 1327l-162 -194h-192l254 315h201l254 -315h-193zM1245 946h221l-317 -946h-184l-226 678l-227 -678h-184l-318 946h221l191 -682l219 682h195l219 -682z" />
    <glyph glyph-name="Ycircumflex" unicode="&#x176;" horiz-adv-x="1112" 
d="M557 1675l-154 -153h-190l246 245h198l246 -245h-190zM1112 1434l-448 -859v-575h-215v573l-449 861h248l305 -633h6l305 633h248z" />
    <glyph glyph-name="ycircumflex" unicode="&#x177;" horiz-adv-x="993" 
d="M506 1327l-162 -194h-192l254 315h200l254 -315h-192zM762 946h221l-590 -1356h-213l228 496l-398 860h240l260 -620z" />
    <glyph glyph-name="Ydieresis" unicode="&#x178;" horiz-adv-x="1112" 
d="M451 1735v-213h-218v213h218zM881 1735v-213h-217v213h217zM1112 1434l-448 -859v-575h-215v573l-449 861h248l305 -633h6l305 633h248z" />
    <glyph glyph-name="Zacute" unicode="&#x179;" horiz-adv-x="1110" 
d="M930 1767l-301 -245h-152l195 245h258zM297 201h772v-201h-1028v201l741 1032h-676v201h932v-201z" />
    <glyph glyph-name="zacute" unicode="&#x17a;" horiz-adv-x="892" 
d="M821 1448l-295 -315h-157l194 315h258zM293 186h549v-186h-791v176l514 584h-493v186h733v-176z" />
    <glyph glyph-name="Zdotaccent" unicode="&#x17b;" horiz-adv-x="1110" 
d="M668 1735v-213h-217v213h217zM297 201h772v-201h-1028v201l741 1032h-676v201h932v-201z" />
    <glyph glyph-name="zdotaccent" unicode="&#x17c;" horiz-adv-x="892" 
d="M569 1413v-246h-245v246h245zM293 186h549v-186h-791v176l514 584h-493v186h733v-176z" />
    <glyph glyph-name="Zcaron" unicode="&#x17d;" horiz-adv-x="1110" 
d="M662 1522h-199l-246 245h191l153 -153l156 153h190zM297 201h772v-201h-1028v201l741 1032h-676v201h932v-201z" />
    <glyph glyph-name="zcaron" unicode="&#x17e;" horiz-adv-x="892" 
d="M547 1118h-201l-254 316h193l161 -195l162 195h193zM293 186h549v-186h-791v176l514 584h-493v186h733v-176z" />
    <glyph glyph-name="florin" unicode="&#x192;" horiz-adv-x="821" 
d="M682 1198q-195 0 -195 -186v-66h273v-61h-273v-924q0 -179 -88 -275t-270 -96h-88v185h82q73 0 118.5 39t45.5 127v944h-207v61h207v45q0 194 101 292.5t286 98.5h86v-184h-78z" />
    <glyph glyph-name="AEacute" unicode="&#x1fc;" horiz-adv-x="1910" 
d="M1765 1767l-301 -245h-151l194 245h258zM1255 201h564v-201h-650h-122v356h-543l-225 -356h-269l932 1434h313h553v-201h-553v-340h504v-201h-504v-491zM629 553h418v659z" />
    <glyph glyph-name="aeacute" unicode="&#x1fd;" horiz-adv-x="1667" 
d="M1212 1448l-294 -315h-158l194 315h258zM401 -31q-162 0 -271.5 92.5t-109.5 241.5q0 146 104.5 237t270.5 91q91 0 166.5 -29.5t118.5 -85.5h4v82q0 199 -219 199q-123 0 -311 -49l-43 178q192 51 368 51q252 0 322 -182h4q47 81 141 131.5t219 50.5q204 0 322.5 -136
t118.5 -368v-33h-725q6 -122 77 -200t203 -78q58 0 105.5 15t84 44t56 50.5t45.5 56.5l137 -129q-29 -42 -64.5 -78.5t-87 -73t-120.5 -57.5t-148 -21q-137 0 -241 61t-150 156h-4q-31 -70 -90 -120t-131 -73.5t-152 -23.5zM891 586h495q-3 93 -69.5 150t-171.5 57
q-99 0 -166.5 -53t-87.5 -154zM444 141q103 0 171.5 45.5t68.5 118.5q0 72 -68 115t-170 43q-104 0 -158.5 -45t-54.5 -115q0 -72 55 -117t156 -45z" />
    <glyph glyph-name="Oslashacute" unicode="&#x1fe;" horiz-adv-x="1638" 
d="M1188 1767l-301 -245h-152l195 245h258zM1298 1305q127 -102 198 -253.5t71 -334.5q0 -216 -98 -387.5t-268.5 -266t-381.5 -94.5q-227 0 -411 113l-80 -111l-70 43l84 115q-128 100 -199 251.5t-71 336.5q0 162 57 302t156.5 237t237.5 152.5t296 55.5q234 0 414 -114
l82 112l67 -43zM305 717q0 -124 44.5 -229.5t125.5 -176.5l627 858q-127 78 -283 78q-226 0 -370 -149.5t-144 -380.5zM819 186q226 0 370 150t144 381q0 125 -44 228.5t-124 174.5l-624 -858q121 -76 278 -76z" />
    <glyph glyph-name="oslashacute" unicode="&#x1ff;" horiz-adv-x="1159" 
d="M950 1448l-295 -315h-157l194 315h258zM940 842q75 -67 116.5 -162.5t41.5 -206.5q0 -218 -147.5 -361t-370.5 -143q-181 0 -322 101l-86 -99l-55 47l88 99q-144 144 -144 356q0 218 148 361t371 143q169 0 303 -88l78 88l55 -49zM274 473q0 -119 66 -201l410 465
q-75 43 -170 43q-136 0 -221 -84t-85 -223zM580 166q136 0 220.5 84t84.5 223q0 133 -78 217l-414 -469q77 -55 187 -55z" />
    <glyph glyph-name="Scommaaccent" unicode="&#x218;" horiz-adv-x="1024" 
d="M731 760q114 -88 167.5 -178.5t53.5 -210.5q0 -192 -124.5 -297t-333.5 -105q-129 0 -250 37t-213 96l96 201q203 -117 369 -117q111 0 169 48t58 124q0 58 -36 107.5t-116 112.5l-243 192q-97 76 -147 159t-50 189q0 159 106.5 252.5t294.5 93.5q191 0 379 -96l-96 -203
q-147 84 -289 84q-164 0 -164 -123q0 -47 26.5 -85t86.5 -85zM401 -279v183h203v-183l-131 -151h-76l76 151h-72z" />
    <glyph glyph-name="scommaaccent" unicode="&#x219;" horiz-adv-x="825" 
d="M596 522q188 -87 188 -266q0 -141 -98.5 -214t-269.5 -73q-210 0 -385 101l90 178q155 -90 301 -90q147 0 147 88q0 31 -21 54.5t-79 51.5l-172 84q-199 95 -199 273q0 129 89.5 198.5t246.5 69.5q164 0 328 -74l-82 -174q-144 62 -252 62q-117 0 -117 -72q0 -34 24 -59
t85 -54zM305 -279v183h203v-183l-131 -151h-76l76 151h-72z" />
    <glyph glyph-name="uni021A" unicode="&#x21a;" horiz-adv-x="1060" 
d="M1040 1434v-201h-403v-1233h-213v1233h-404v201h1020zM428 -279v183h203v-183l-131 -151h-76l76 151h-72z" />
    <glyph glyph-name="uni021B" unicode="&#x21b;" horiz-adv-x="632" 
d="M592 776h-193v-495q0 -51 23.5 -75t75.5 -24h49v-184h-92q-124 0 -190 63.5t-66 180.5v534h-168v170h168v379h200v-379h193v-170zM299 -279v183h203v-183l-131 -151h-76l76 151h-72z" />
    <glyph glyph-name="uni0237" unicode="&#x237;" horiz-adv-x="466" 
d="M-12 -233h37q58 0 83 26t25 88v1065h201v-1085q0 -132 -73 -204.5t-206 -72.5h-67v183z" />
    <glyph glyph-name="uni02BC" unicode="&#x2bc;" horiz-adv-x="364" 
d="M88 1464h215v-215l-160 -301h-71l108 301h-92v215z" />
    <glyph glyph-name="circumflex" unicode="&#x2c6;" horiz-adv-x="913" 
d="M557 1448l254 -315h-193l-161 194l-162 -194h-193l254 315h201z" />
    <glyph glyph-name="caron" unicode="&#x2c7;" horiz-adv-x="913" 
d="M811 1434l-254 -316h-201l-254 316h193l162 -195l161 195h193z" />
    <glyph glyph-name="breve" unicode="&#x2d8;" horiz-adv-x="761" 
d="M659 1434q0 -134 -77 -210.5t-201 -76.5t-201.5 76.5t-77.5 210.5h140q3 -69 40.5 -109.5t98.5 -40.5t98.5 40.5t40.5 109.5h139z" />
    <glyph glyph-name="dotaccent" unicode="&#x2d9;" horiz-adv-x="450" 
d="M348 1413v-246h-246v246h246z" />
    <glyph glyph-name="ring" unicode="&#x2da;" horiz-adv-x="692" 
d="M346 1530q106 0 175 -68t69 -172t-69 -171.5t-175 -67.5t-175 67.5t-69 171.5t69 172t175 68zM346 1434q-64 0 -103.5 -41t-39.5 -103t39.5 -102.5t103.5 -40.5t103.5 40.5t39.5 102.5t-39.5 103t-103.5 41z" />
    <glyph glyph-name="ogonek" unicode="&#x2db;" horiz-adv-x="522" 
d="M315 49l84 -29q-143 -143 -143 -221q0 -23 16 -35t43 -12q22 0 80 12l25 -126q-71 -21 -144 -21q-77 0 -125.5 40t-48.5 114q0 139 213 278z" />
    <glyph glyph-name="tilde" unicode="&#x2dc;" horiz-adv-x="917" 
d="M309 1442q38 0 85 -16.5t83.5 -36t78 -36t69.5 -16.5q65 0 108 93l82 -23q-21 -101 -72 -164t-133 -63q-49 0 -110 26t-116 52t-89 26q-67 0 -109 -92l-84 22q21 100 73 164t134 64z" />
    <glyph glyph-name="hungarumlaut" unicode="&#x2dd;" horiz-adv-x="862" 
d="M498 1448l-252 -315h-144l213 315h183zM760 1448l-252 -315h-143l213 315h182z" />
    <glyph glyph-name="gravecomb" unicode="&#x300;" horiz-adv-x="0" 
d="M-295 1448l193 -315h-156l-297 315h260z" />
    <glyph glyph-name="acutecomb" unicode="&#x301;" horiz-adv-x="0" 
d="M-102 1448l-295 -315h-158l195 315h258z" />
    <glyph glyph-name="uni0302" unicode="&#x302;" horiz-adv-x="0" 
d="M-356 1448l254 -315h-193l-162 194l-161 -194h-193l254 315h201z" />
    <glyph glyph-name="tildecomb" unicode="&#x303;" horiz-adv-x="0" 
d="M-608 1442q48 0 108.5 -26t116 -52.5t90.5 -26.5q66 0 109 93l82 -23q-21 -101 -72 -164t-133 -63q-49 0 -110 26t-116.5 52t-89.5 26q-66 0 -108 -92l-84 22q21 100 73 164t134 64z" />
    <glyph glyph-name="uni0304" unicode="&#x304;" horiz-adv-x="0" 
d="M-102 1356v-148h-594v148h594z" />
    <glyph glyph-name="uni0306" unicode="&#x306;" horiz-adv-x="0" 
d="M-102 1434q0 -134 -77.5 -210.5t-201.5 -76.5t-201 76.5t-77 210.5h139q3 -69 40.5 -109.5t98.5 -40.5t98.5 40.5t40.5 109.5h140z" />
    <glyph glyph-name="uni0307" unicode="&#x307;" horiz-adv-x="0" 
d="M-102 1413v-246h-246v246h246z" />
    <glyph glyph-name="uni0308" unicode="&#x308;" horiz-adv-x="0" 
d="M-487 1413v-246h-205v246h205zM-102 1413v-246h-205v246h205z" />
    <glyph glyph-name="uni030A" unicode="&#x30a;" horiz-adv-x="0" 
d="M-346 1530q106 0 175 -68t69 -172t-69 -171.5t-175 -67.5t-175 67.5t-69 171.5t69 172t175 68zM-346 1434q-64 0 -103.5 -41t-39.5 -103t39.5 -102.5t103.5 -40.5t103.5 40.5t39.5 102.5t-39.5 103t-103.5 41z" />
    <glyph glyph-name="uni030B" unicode="&#x30b;" horiz-adv-x="0" 
d="M-365 1448l-251 -315h-144l213 315h182zM-102 1448l-252 -315h-144l213 315h183z" />
    <glyph glyph-name="uni030C" unicode="&#x30c;" horiz-adv-x="0" 
d="M-102 1434l-254 -316h-201l-254 316h193l161 -195l162 195h193z" />
    <glyph glyph-name="uni0326" unicode="&#x326;" horiz-adv-x="0" 
d="M-305 -96h203v-183l-131 -151h-76l76 151h-72v183z" />
    <glyph glyph-name="uni0327" unicode="&#x327;" horiz-adv-x="0" 
d="M-199 57l-45 -131q64 -18 103 -51t39 -94q0 -48 -41 -89t-81.5 -61t-133.5 -60q-3 -2 -5.5 -3t-5.5 -2l-26 57q47 23 68.5 34.5t49.5 28.5t39 31t11 29q0 35 -30.5 51.5t-100.5 32.5l82 227h77z" />
    <glyph glyph-name="uni0328" unicode="&#x328;" horiz-adv-x="0" 
d="M-207 49l84 -29q-143 -143 -143 -221q0 -23 16 -35t43 -12q22 0 80 12l25 -126q-71 -21 -144 -21q-77 0 -125.5 40t-48.5 114q0 139 213 278z" />
    <glyph glyph-name="uni0394" unicode="&#x394;" horiz-adv-x="1286" 
d="M733 1434l512 -1434h-1204l512 1434h180zM643 1161l-358 -1071h716z" />
    <glyph glyph-name="uni03A9" unicode="&#x3a9;" horiz-adv-x="1538" 
d="M770 1464q210 0 369 -86t243 -237t84 -344q0 -115 -34 -216t-93.5 -175.5t-135 -127.5t-163.5 -81v-7h398v-190h-586v291q192 43 303 176.5t111 323.5q0 220 -132.5 351.5t-363.5 131.5q-232 0 -365 -131t-133 -352q0 -190 111 -323.5t305 -176.5v-291h-588v190h398v7
q-182 59 -304 217.5t-122 382.5q0 144 49 267t138 211.5t221 138.5t290 50z" />
    <glyph glyph-name="uni03BC" unicode="&#x3bc;" horiz-adv-x="1077" 
d="M754 946h200v-946h-200v143h-4q-87 -174 -291 -174q-93 0 -166 37v-416h-180v1244v112h204v-553q0 -114 52.5 -171.5t146.5 -57.5q111 0 174.5 79t63.5 251v452z" />
    <glyph glyph-name="pi" unicode="&#x3c0;" horiz-adv-x="1234" 
d="M1174 977v-193h-218v-784h-188v784h-264l-195 -784h-188l194 784q-144 -6 -254 -41v193q118 41 283 41h830z" />
    <glyph glyph-name="uni0401" unicode="&#x401;" horiz-adv-x="1064" 
d="M487 1735v-213h-217v213h217zM918 1735v-213h-218v213h218zM356 201h617v-201h-830v1434h820v-201h-607v-340h559v-201h-559v-491z" />
    <glyph glyph-name="uni0402" unicode="&#x402;" horiz-adv-x="1464" 
d="M997 870q214 0 320 -87.5t106 -276.5v-121q0 -180 -97.5 -282.5t-283.5 -102.5h-161v201h118q103 0 157 42t54 150v109q0 84 -57 126t-178 42q-132 0 -348 -15v-655h-213v1233h-394v201h1115v-201h-508v-379q222 16 370 16z" />
    <glyph glyph-name="uni0403" unicode="&#x403;" horiz-adv-x="972" 
d="M915 1767l-301 -245h-151l194 245h258zM952 1434v-201h-596v-1233h-213v1434h809z" />
    <glyph glyph-name="uni0404" unicode="&#x404;" horiz-adv-x="1388" 
d="M797 182q229 0 428 142l112 -185q-244 -170 -538 -170q-162 0 -296 50.5t-229.5 145t-148.5 236t-53 316.5t53 316.5t148.5 235.5t229.5 144.5t296 50.5q294 0 538 -170l-112 -184q-85 60 -195 100.5t-233 40.5q-194 0 -325 -107.5t-163 -305.5h635v-201h-639
q21 -217 154 -336t338 -119z" />
    <glyph glyph-name="uni0405" unicode="&#x405;" horiz-adv-x="1024" 
d="M532 1464q191 0 379 -96l-96 -203q-147 84 -289 84q-164 0 -164 -123q0 -47 26.5 -85t86.5 -85l256 -196q114 -88 167.5 -178.5t53.5 -210.5q0 -192 -124.5 -297t-333.5 -105q-129 0 -250 37t-213 96l96 201q203 -117 369 -117q111 0 169 48t58 124q0 58 -36 107.5
t-116 112.5l-243 192q-97 76 -147 159t-50 189q0 159 106.5 252.5t294.5 93.5z" />
    <glyph glyph-name="uni0406" unicode="&#x406;" horiz-adv-x="503" 
d="M360 1434v-1434h-217v1434h217z" />
    <glyph glyph-name="uni0407" unicode="&#x407;" horiz-adv-x="503" 
d="M145 1735v-213h-217v213h217zM575 1735v-213h-217v213h217zM360 1434v-1434h-217v1434h217z" />
    <glyph glyph-name="uni0408" unicode="&#x408;" horiz-adv-x="561" 
d="M418 1434v-1082q0 -184 -78.5 -273t-235.5 -89h-73v207h53q63 0 92 33.5t29 121.5v1082h213z" />
    <glyph glyph-name="uni0409" unicode="&#x409;" horiz-adv-x="2113" 
d="M1622 862q127 0 227.5 -47.5t162 -147t61.5 -237.5q0 -103 -35 -186t-96.5 -135.5t-143 -80.5t-176.5 -28h-528v1233h-635v-881q0 -184 -78.5 -273t-235.5 -89h-114v207h94q63 0 92 33.5t29 121.5v1082h1061v-572h315zM1602 201q115 0 178 61.5t63 167.5q0 107 -63 169.5
t-178 62.5h-295v-461h295z" />
    <glyph glyph-name="uni040A" unicode="&#x40a;" horiz-adv-x="2103" 
d="M1612 862q196 0 323 -113t127 -319q0 -137 -61 -236t-161.5 -146.5t-227.5 -47.5h-529v662h-727v-662h-213v1434h213v-572h727v572h213v-572h316zM1591 201q115 0 178.5 61.5t63.5 167.5q0 107 -63.5 169.5t-178.5 62.5h-295v-461h295z" />
    <glyph glyph-name="uni040B" unicode="&#x40b;" horiz-adv-x="1464" 
d="M1028 850q195 0 295 -96.5t100 -288.5v-465h-213v461q0 99 -50 143.5t-165 44.5h-368v-649h-213v1233h-394v201h607h508v-201h-508v-383h401z" />
    <glyph glyph-name="uni040C" unicode="&#x40c;" horiz-adv-x="1329" 
d="M1024 1767l-301 -245h-152l195 245h258zM1319 0h-315l-648 715v-715h-213v1434h213v-637l570 637h295l-623 -658z" />
    <glyph glyph-name="uni040E" unicode="&#x40e;" 
d="M625 1481q-129 0 -202.5 76t-76.5 210h137q-1 -82 35 -125t107 -43q70 0 106.5 43t34.5 125h137q-3 -134 -76.5 -210t-201.5 -76zM1004 1434h225l-660 -1434h-225l174 377l-518 1057h246l385 -809z" />
    <glyph glyph-name="uni040F" unicode="&#x40f;" horiz-adv-x="1445" 
d="M1303 1434v-1434h-482v-287h-196v287h-482v1434h213v-1233h734v1233h213z" />
    <glyph glyph-name="uni0410" unicode="&#x410;" horiz-adv-x="1388" 
d="M1145 0l-137 356h-627l-137 -356h-234l586 1434h197l585 -1434h-233zM457 553h475l-238 614z" />
    <glyph glyph-name="uni0411" unicode="&#x411;" horiz-adv-x="1204" 
d="M692 862q127 0 227.5 -47.5t162 -147t61.5 -237.5q0 -103 -35 -186t-96.5 -135.5t-143 -80.5t-176.5 -28h-549v1434h213h715v-201h-715v-371h336zM672 201q115 0 178 61.5t63 167.5q0 107 -63 169.5t-178 62.5h-316v-461h316z" />
    <glyph glyph-name="uni0412" unicode="&#x412;" horiz-adv-x="1265" 
d="M895 762q133 -20 211 -114t78 -240q0 -130 -61 -224t-159 -139t-221 -45h-600v1434h545q189 0 303.5 -98t114.5 -267q0 -109 -55 -190t-156 -113v-4zM643 1233h-287v-397h269q124 0 186.5 51t62.5 147q0 98 -62.5 148.5t-168.5 50.5zM700 201q119 0 185.5 60.5
t66.5 160.5q0 101 -68.5 161t-203.5 60h-324v-442h344z" />
    <glyph glyph-name="uni0413" unicode="&#x413;" horiz-adv-x="972" 
d="M952 1434v-201h-596v-1233h-213v1434h809z" />
    <glyph glyph-name="uni0414" unicode="&#x414;" horiz-adv-x="1376" 
d="M1171 170h144v-457h-197v256h-911v-256h-197v457h142q70 144 98.5 285.5t28.5 339.5v639h892v-1264zM492 803q0 -188 -25.5 -335t-83.5 -298h575v1063h-466v-430z" />
    <glyph glyph-name="uni0415" unicode="&#x415;" horiz-adv-x="1064" 
d="M356 201h617v-201h-830v1434h820v-201h-607v-340h559v-201h-559v-491z" />
    <glyph glyph-name="uni0416" unicode="&#x416;" horiz-adv-x="2035" 
d="M2025 0h-301l-602 731v-731h-209v731l-602 -731h-301l656 764l-545 670h293l499 -658v658h209v-658l500 658h293l-545 -670z" />
    <glyph glyph-name="uni0417" unicode="&#x417;" horiz-adv-x="1183" 
d="M596 1464q220 0 337.5 -94t117.5 -262q0 -131 -74 -220t-223 -122v-4q73 -10 134 -36.5t110 -70.5t76.5 -111.5t27.5 -152.5q0 -90 -31.5 -164.5t-95 -133t-170 -91.5t-246.5 -33q-275 0 -508 133l99 197q209 -125 421 -125q146 0 229 57.5t83 169.5q0 248 -414 248h-141
v205h139q168 0 265 55.5t97 165.5q0 94 -71 139.5t-191 45.5q-193 0 -401 -119l-96 186q103 59 241 98t285 39z" />
    <glyph glyph-name="uni0418" unicode="&#x418;" horiz-adv-x="1431" 
d="M143 1434h213v-1082h4l705 1082h223v-1434h-213v1081h-4l-704 -1081h-224v1434z" />
    <glyph glyph-name="uni0419" unicode="&#x419;" horiz-adv-x="1431" 
d="M993 1767q-3 -134 -76.5 -210t-201.5 -76q-129 0 -202.5 76t-76.5 210h137q-1 -82 35 -125t107 -43q70 0 106.5 43t34.5 125h137zM143 1434h213v-1082h4l705 1082h223v-1434h-213v1081h-4l-704 -1081h-224v1434z" />
    <glyph glyph-name="uni041A" unicode="&#x41a;" horiz-adv-x="1329" 
d="M1319 0h-315l-648 715v-715h-213v1434h213v-637l570 637h295l-623 -658z" />
    <glyph glyph-name="uni041B" unicode="&#x41b;" horiz-adv-x="1429" 
d="M1286 1434v-1434h-213v1233h-635v-881q0 -184 -78 -273t-235 -89h-94v207h73q63 0 92 33.5t29 121.5v1082h1061z" />
    <glyph glyph-name="uni041C" unicode="&#x41c;" horiz-adv-x="1761" 
d="M1403 1434l348 -1434h-227l-238 1024h-4l-321 -805h-160l-322 805h-4l-237 -1024h-228l348 1434h174l347 -881h4l346 881h174z" />
    <glyph glyph-name="uni041D" unicode="&#x41d;" horiz-adv-x="1470" 
d="M1114 1434h213v-1434h-213v653h-758v-653h-213v1434h213v-576h758v576z" />
    <glyph glyph-name="uni041E" unicode="&#x41e;" horiz-adv-x="1638" 
d="M819 1464q211 0 381.5 -94t268.5 -265.5t98 -387.5t-98 -387.5t-268.5 -266t-381.5 -94.5t-381.5 94.5t-268 266t-97.5 387.5q0 162 57 302t156.5 237t237.5 152.5t296 55.5zM819 1247q-226 0 -370 -149.5t-144 -380.5t144 -381t370 -150t370 150t144 381t-144 380.5
t-370 149.5z" />
    <glyph glyph-name="uni041F" unicode="&#x41f;" horiz-adv-x="1449" 
d="M1307 1434v-1434h-213v1233h-738v-1233h-213v1434h1164z" />
    <glyph glyph-name="uni0420" unicode="&#x420;" horiz-adv-x="1107" 
d="M633 1434q208 0 326 -121.5t118 -313.5q0 -190 -118 -312t-326 -122h-277v-565h-213v1434h490zM604 766q113 0 178.5 60t65.5 173t-65.5 173.5t-178.5 60.5h-248v-467h248z" />
    <glyph glyph-name="uni0421" unicode="&#x421;" horiz-adv-x="1396" 
d="M840 -31q-225 0 -400 93.5t-271.5 264t-96.5 390.5q0 165 56.5 304.5t156.5 236.5t243 151.5t312 54.5q287 0 506 -157l-132 -187q-175 127 -383 127q-229 0 -377.5 -145.5t-148.5 -384.5t148.5 -385t377.5 -146q208 0 383 127l132 -186q-220 -158 -506 -158z" />
    <glyph glyph-name="uni0422" unicode="&#x422;" horiz-adv-x="1060" 
d="M1040 1434v-201h-403v-1233h-213v1233h-404v201h1020z" />
    <glyph glyph-name="uni0423" unicode="&#x423;" 
d="M1004 1434h225l-660 -1434h-225l174 377l-518 1057h246l385 -809z" />
    <glyph glyph-name="uni0424" unicode="&#x424;" horiz-adv-x="1716" 
d="M963 1358q316 0 499 -168t183 -473q0 -304 -183.5 -473.5t-498.5 -169.5v-135h-209v135q-315 0 -498.5 169.5t-183.5 473.5q0 305 183 473t499 168v135h209v-135zM303 717q0 -216 116 -327t335 -111h6v874h-6q-218 0 -334.5 -109.5t-116.5 -326.5zM963 279
q219 0 334.5 111t115.5 327q0 217 -116 326.5t-334 109.5h-7v-874h7z" />
    <glyph glyph-name="uni0425" unicode="&#x425;" horiz-adv-x="1269" 
d="M1249 0h-252l-362 588l-361 -588h-254l482 764l-418 670h254l297 -490l299 490h252l-418 -670z" />
    <glyph glyph-name="uni0426" unicode="&#x426;" horiz-adv-x="1417" 
d="M1212 201h144v-488h-197v287h-1016v1434h213v-1233h643v1233h213v-1233z" />
    <glyph glyph-name="uni0427" unicode="&#x427;" horiz-adv-x="1193" 
d="M838 1434h213v-1434h-213v584h-402q-195 0 -295 96.5t-100 288.5v465h213v-461q0 -99 50 -144t165 -45h369v650z" />
    <glyph glyph-name="uni0428" unicode="&#x428;" horiz-adv-x="1990" 
d="M143 0v1434h213v-1233h533v1233h213v-1233h532v1233h213v-1434h-1704z" />
    <glyph glyph-name="uni0429" unicode="&#x429;" horiz-adv-x="2052" 
d="M1847 201h144v-488h-197v287h-1651v1434h213v-1233h533v1233h213v-1233h532v1233h213v-1233z" />
    <glyph glyph-name="uni042A" unicode="&#x42a;" horiz-adv-x="1431" 
d="M940 862q127 0 227.5 -47.5t162 -147t61.5 -237.5q0 -103 -35 -186t-96.5 -135.5t-143 -80.5t-176.5 -28h-549v1233h-371v201h584v-572h336zM920 201q115 0 178 61.5t63 167.5q0 107 -63 169.5t-178 62.5h-316v-461h316z" />
    <glyph glyph-name="uni042B" unicode="&#x42b;" horiz-adv-x="1669" 
d="M692 862q127 0 227.5 -47.5t162 -147t61.5 -237.5q0 -103 -35 -186t-96.5 -135.5t-143 -80.5t-176.5 -28h-549v1434h213v-572h336zM1309 1434h217v-1434h-217v1434zM672 201q115 0 178 61.5t63 167.5q0 107 -63 169.5t-178 62.5h-316v-461h316z" />
    <glyph glyph-name="uni042C" unicode="&#x42c;" horiz-adv-x="1183" 
d="M692 862q127 0 227.5 -47.5t162 -147t61.5 -237.5q0 -103 -35 -186t-96.5 -135.5t-143 -80.5t-176.5 -28h-549v1434h213v-572h336zM672 201q115 0 178 61.5t63 167.5q0 107 -63 169.5t-178 62.5h-316v-461h316z" />
    <glyph glyph-name="uni042D" unicode="&#x42d;" horiz-adv-x="1388" 
d="M590 1464q162 0 296 -50.5t229.5 -144.5t148.5 -235.5t53 -316.5t-53 -316.5t-148.5 -236t-229.5 -145t-296 -50.5q-295 0 -539 170l113 185q199 -142 428 -142q205 0 337.5 119t153.5 336h-639v201h635q-32 198 -162.5 305.5t-324.5 107.5q-123 0 -233 -40.5
t-195 -100.5l-113 184q244 170 539 170z" />
    <glyph glyph-name="uni042E" unicode="&#x42e;" horiz-adv-x="2099" 
d="M1280 1464q211 0 381.5 -94t268.5 -265.5t98 -387.5t-98 -387.5t-268.5 -266t-381.5 -94.5q-295 0 -501 179.5t-240 467.5h-183v-616h-213v1434h213v-617h183q34 288 240 467.5t501 179.5zM1280 186q226 0 370 150t144 381t-144 380.5t-370 149.5t-370 -149.5
t-144 -380.5t144 -381t370 -150z" />
    <glyph glyph-name="uni042F" unicode="&#x42f;" horiz-adv-x="1232" 
d="M580 1434h510v-1434h-213v596h-150l-418 -596h-268l434 604q-152 28 -243 137.5t-91 270.5q0 194 123 308t316 114zM614 797h263v436h-263q-123 0 -183 -60t-60 -161q0 -98 60 -156.5t183 -58.5z" />
    <glyph glyph-name="uni0430" unicode="&#x430;" horiz-adv-x="1169" 
d="M522 -31q-94 0 -177.5 35t-146.5 98.5t-100 159.5t-37 211t37 211t100 159.5t146.5 98.5t177.5 35q222 0 320 -170h4v139h201v-946h-201v139h-4q-98 -170 -320 -170zM565 166q131 0 211 85.5t80 221.5t-80 221.5t-211 85.5t-211 -85.5t-80 -221.5t80 -221.5t211 -85.5z
" />
    <glyph glyph-name="uni0431" unicode="&#x431;" horiz-adv-x="1171" 
d="M590 -31q-90 0 -167 21t-144.5 68.5t-115 119t-75 177t-27.5 237.5q0 89 11 171.5t36.5 171t77.5 163t125 121.5q37 24 93.5 45.5t101 34t113.5 30t98 25.5q106 28 108 88h199q0 -112 -44 -166.5t-144 -83.5q-39 -12 -128.5 -32t-163.5 -41t-120 -46q-155 -86 -182 -354
h6q52 119 156.5 182.5t244.5 63.5q208 0 334.5 -133t126.5 -349q0 -229 -141 -371.5t-379 -142.5zM592 166q130 0 217.5 83t87.5 224t-87.5 224t-217.5 83t-217.5 -83t-87.5 -224t87.5 -224t217.5 -83z" />
    <glyph glyph-name="uni0432" unicode="&#x432;" horiz-adv-x="1026" 
d="M750 494q97 -12 150.5 -68.5t53.5 -159.5q0 -67 -28.5 -119.5t-77 -83.5t-108 -47t-126.5 -16h-491v946h508q132 0 213.5 -62.5t81.5 -174.5q0 -174 -176 -213v-2zM586 782h-262v-213h264q61 0 95 28t34 83q0 48 -34.5 75t-96.5 27zM596 164q69 0 110.5 31t41.5 90
q0 63 -35.5 94t-98.5 31h-290v-246h272z" />
    <glyph glyph-name="uni0433" unicode="&#x433;" horiz-adv-x="747" 
d="M737 946v-188h-413v-758h-201v946h614z" />
    <glyph glyph-name="uni0434" unicode="&#x434;" horiz-adv-x="1073" 
d="M909 154h133v-420h-176v235h-690v-235h-176v420h123q78 140 78 305v487h200h430h78v-792zM401 446q0 -162 -65 -292h373v608h-308v-316z" />
    <glyph glyph-name="uni0435" unicode="&#x435;" horiz-adv-x="1058" 
d="M545 977q214 0 333 -136t119 -368v-33h-733q6 -125 85.5 -201.5t201.5 -76.5q167 0 291 166l141 -133q-165 -226 -428 -226q-225 0 -359.5 138.5t-134.5 363.5q0 221 131 363.5t353 142.5zM532 793q-103 0 -171.5 -53t-86.5 -154h506q-6 97 -73 152t-175 55z" />
    <glyph glyph-name="uni0436" unicode="&#x436;" horiz-adv-x="1507" 
d="M1497 0h-264l-381 475v-475h-197v475l-381 -475h-264l424 512l-383 434h266l338 -414v414h197v-414l338 414h266l-383 -434z" />
    <glyph glyph-name="uni0437" unicode="&#x437;" horiz-adv-x="929" 
d="M432 -31q-232 0 -391 90l84 172q143 -77 313 -77q230 0 230 129q0 70 -52 98.5t-147 28.5h-197v174h183q174 0 174 102q0 107 -185 107q-141 0 -309 -66l-67 180q188 70 389 70q183 0 282 -64t99 -180q0 -90 -59.5 -149.5t-160.5 -73.5v-6q116 -9 183 -69t67 -171
q0 -140 -109 -217.5t-327 -77.5z" />
    <glyph glyph-name="uni0438" unicode="&#x438;" horiz-adv-x="1105" 
d="M123 0v946h201v-629h4l469 629h186v-946h-201v629h-4l-469 -629h-186z" />
    <glyph glyph-name="uni0439" unicode="&#x439;" horiz-adv-x="1105" 
d="M831 1311q0 -134 -77 -210.5t-201 -76.5t-201.5 76.5t-77.5 210.5h140q3 -69 40.5 -109.5t98.5 -40.5t98.5 40.5t40.5 109.5h139zM123 0v946h201v-629h4l469 629h186v-946h-201v629h-4l-469 -629h-186z" />
    <glyph glyph-name="uni043A" unicode="&#x43a;" horiz-adv-x="978" 
d="M969 0h-264l-381 465v-465h-201v946h201v-403l338 403h264l-398 -430z" />
    <glyph glyph-name="uni043B" unicode="&#x43b;" horiz-adv-x="1083" 
d="M961 946v-946h-201v758h-389v-498q0 -134 -68 -204t-184 -70h-99v182h66q47 0 65.5 23.5t18.5 70.5v684h791z" />
    <glyph glyph-name="uni043C" unicode="&#x43c;" horiz-adv-x="1361" 
d="M31 0l260 946h182l205 -504h4l207 504h182l260 -946h-203l-163 649h-4l-209 -499h-142l-209 499h-4l-164 -649h-202z" />
    <glyph glyph-name="uni043D" unicode="&#x43d;" horiz-adv-x="1128" 
d="M805 946h201v-946h-201v397h-481v-397h-201v946h201v-360h481v360z" />
    <glyph glyph-name="uni043E" unicode="&#x43e;" horiz-adv-x="1159" 
d="M580 977q223 0 370.5 -143t147.5 -361t-147.5 -361t-370.5 -143t-371 143t-148 361t148 361t371 143zM580 780q-136 0 -221 -84t-85 -223t85 -223t221 -84t220.5 84t84.5 223t-84.5 223t-220.5 84z" />
    <glyph glyph-name="uni043F" unicode="&#x43f;" horiz-adv-x="1087" 
d="M965 946v-946h-201v758h-440v-758h-201v946h201h641z" />
    <glyph glyph-name="uni0440" unicode="&#x440;" horiz-adv-x="1169" 
d="M123 -410v1356h201v-139h4q98 170 319 170q94 0 177.5 -35t146.5 -98.5t100 -159.5t37 -211t-37 -211t-100 -159.5t-146.5 -98.5t-177.5 -35q-221 0 -319 170h-4v-549h-201zM604 166q131 0 211 85.5t80 221.5t-80 221.5t-211 85.5t-211 -85.5t-80 -221.5t80 -221.5
t211 -85.5z" />
    <glyph glyph-name="uni0441" unicode="&#x441;" horiz-adv-x="946" 
d="M582 -31q-230 0 -375.5 139.5t-145.5 364.5t145.5 364.5t375.5 139.5q177 0 323 -96l-94 -170q-114 71 -236 71q-135 0 -218 -87t-83 -222t83 -222t218 -87q120 0 236 72l94 -170q-148 -97 -323 -97z" />
    <glyph glyph-name="uni0442" unicode="&#x442;" horiz-adv-x="878" 
d="M868 946v-184h-329v-762h-201v762h-328v184h858z" />
    <glyph glyph-name="uni0443" unicode="&#x443;" horiz-adv-x="993" 
d="M762 946h221l-590 -1356h-213l228 496l-398 860h240l260 -620z" />
    <glyph glyph-name="uni0444" unicode="&#x444;" horiz-adv-x="1736" 
d="M772 -410v549h-4q-44 -82 -115 -126t-182 -44q-180 0 -289.5 136.5t-109.5 367.5t109.5 367.5t289.5 136.5q111 0 182 -44t115 -126h4v575h193v-575h4q92 170 297 170q181 0 290 -136t109 -368t-109 -368t-290 -136q-205 0 -297 170h-4v-549h-193zM524 152q122 0 190 89
t68 232t-68 232.5t-190 89.5q-120 0 -179.5 -87.5t-59.5 -234.5t59.5 -234t179.5 -87zM1212 152q120 0 180 87.5t60 233.5q0 147 -60 234.5t-180 87.5q-122 0 -190 -89.5t-68 -232.5t68 -232t190 -89z" />
    <glyph glyph-name="uni0445" unicode="&#x445;" horiz-adv-x="1011" 
d="M745 0l-239 340l-240 -340h-256l375 498l-322 448h259l184 -295l184 295h258l-321 -448l374 -498h-256z" />
    <glyph glyph-name="uni0446" unicode="&#x446;" horiz-adv-x="1077" 
d="M934 188h113v-454h-177v266h-546h-201v946h201v-758h409v758h201v-758z" />
    <glyph glyph-name="uni0447" unicode="&#x447;" horiz-adv-x="937" 
d="M614 946h201v-946h-201v358h-286q-297 0 -297 269v319h200v-297q0 -57 26.5 -83.5t88.5 -26.5h268v407z" />
    <glyph glyph-name="uni0448" unicode="&#x448;" horiz-adv-x="1605" 
d="M1282 946h201v-946h-201h-580h-516h-63v946h201v-758h378v758h201v-758h379v758z" />
    <glyph glyph-name="uni0449" unicode="&#x449;" horiz-adv-x="1626" 
d="M1483 188h112v-454h-176v266h-516h-579h-201v946h201v-758h378v758h201v-758h379v758h201v-758z" />
    <glyph glyph-name="uni044A" unicode="&#x44a;" horiz-adv-x="1159" 
d="M784 606q158 0 249 -81.5t91 -219.5q0 -131 -92.5 -218t-249.5 -87h-444v758h-328v188h529v-340h245zM764 178q71 0 109 31.5t38 91.5q0 127 -147 127h-225v-250h225z" />
    <glyph glyph-name="uni044B" unicode="&#x44b;" horiz-adv-x="1325" 
d="M569 606q158 0 249 -81.5t91 -219.5q0 -131 -92.5 -218t-249.5 -87h-444v946h201v-340h245zM1001 946h201v-946h-201v946zM549 178q71 0 109 31.5t38 91.5q0 127 -147 127h-225v-250h225z" />
    <glyph glyph-name="uni044C" unicode="&#x44c;" horiz-adv-x="944" 
d="M569 606q158 0 249 -81.5t91 -219.5q0 -131 -92.5 -218t-249.5 -87h-444v946h201v-340h245zM549 178q71 0 109 31.5t38 91.5q0 127 -147 127h-225v-250h225z" />
    <glyph glyph-name="uni044D" unicode="&#x44d;" horiz-adv-x="937" 
d="M385 977q223 0 352 -130.5t129 -373.5t-129 -373.5t-352 -130.5q-181 0 -344 99l92 170q129 -72 250 -72q108 0 180.5 55t93.5 166h-352v172h352q-21 111 -93.5 166t-180.5 55q-123 0 -250 -71l-92 170q162 98 344 98z" />
    <glyph glyph-name="uni044E" unicode="&#x44e;" horiz-adv-x="1552" 
d="M973 977q223 0 370.5 -143t147.5 -361t-147.5 -361t-370.5 -143q-200 0 -341.5 116.5t-170.5 303.5h-137v-389h-201v946h201v-387h137q29 185 171 301.5t341 116.5zM973 166q136 0 220.5 84t84.5 223t-84.5 223t-220.5 84t-220.5 -84t-84.5 -223t84.5 -223t220.5 -84z
" />
    <glyph glyph-name="uni044F" unicode="&#x44f;" horiz-adv-x="1009" 
d="M406 946h481v-946h-201v342h-143l-271 -342h-241l282 350q-116 22 -181.5 99t-65.5 190q0 135 91.5 221t248.5 86zM428 522h258v240h-258q-72 0 -110.5 -30.5t-38.5 -88.5q0 -121 149 -121z" />
    <glyph glyph-name="uni0451" unicode="&#x451;" horiz-adv-x="1058" 
d="M483 1311v-246h-194v246h194zM817 1311v-246h-194v246h194zM545 977q214 0 333 -136t119 -368v-33h-733q6 -125 85.5 -201.5t201.5 -76.5q167 0 291 166l141 -133q-165 -226 -428 -226q-225 0 -359.5 138.5t-134.5 363.5q0 221 131 363.5t353 142.5zM532 793
q-103 0 -171.5 -53t-86.5 -154h506q-6 97 -73 152t-175 55z" />
    <glyph glyph-name="uni0452" unicode="&#x452;" horiz-adv-x="1116" 
d="M647 977q162 0 259.5 -95.5t97.5 -299.5v-709q0 -134 -65 -208.5t-198 -74.5h-125v189h89q46 0 72 25.5t26 74.5v668q0 229 -217 229q-118 0 -185 -77t-67 -246v-453h-201v1157h-133v123h133v154h201v-154h287v-123h-287v-354h4q97 174 309 174z" />
    <glyph glyph-name="uni0453" unicode="&#x453;" horiz-adv-x="747" 
d="M831 1346l-294 -316h-158l194 316h258zM737 946v-188h-413v-758h-201v946h614z" />
    <glyph glyph-name="uni0454" unicode="&#x454;" horiz-adv-x="937" 
d="M555 166q121 0 250 72l92 -170q-163 -99 -344 -99q-223 0 -352 130.5t-129 373.5t129 373.5t352 130.5q182 0 344 -98l-92 -170q-127 71 -250 71q-108 0 -180.5 -55t-93.5 -166h352v-172h-352q21 -111 93.5 -166t180.5 -55z" />
    <glyph glyph-name="uni0455" unicode="&#x455;" horiz-adv-x="825" 
d="M416 -31q-210 0 -385 101l90 178q155 -90 301 -90q147 0 147 88q0 31 -21 54.5t-79 51.5l-172 84q-199 95 -199 273q0 129 89.5 198.5t246.5 69.5q164 0 328 -74l-82 -174q-144 62 -252 62q-117 0 -117 -72q0 -34 24 -59t85 -54l176 -84q188 -87 188 -266
q0 -141 -98.5 -214t-269.5 -73z" />
    <glyph glyph-name="uni0456" unicode="&#x456;" horiz-adv-x="466" 
d="M356 1413v-246h-245v246h245zM133 0v946h201v-946h-201z" />
    <glyph glyph-name="uni0457" unicode="&#x457;" horiz-adv-x="466" 
d="M195 1311v-246h-195v246h195zM467 1311v-246h-195v246h195zM133 0v946h201v-946h-201z" />
    <glyph glyph-name="uni0458" unicode="&#x458;" horiz-adv-x="466" 
d="M356 1413v-246h-245v246h245zM-12 -233h37q58 0 83 26t25 88v1065h201v-1085q0 -132 -73 -204.5t-206 -72.5h-67v183z" />
    <glyph glyph-name="uni0459" unicode="&#x459;" horiz-adv-x="1509" 
d="M1135 606q158 0 249 -81.5t91 -219.5q0 -131 -92.5 -218t-249.5 -87h-424v758h-369v-498q0 -134 -68 -204t-184 -70h-68v182h35q47 0 65.5 23.5t18.5 70.5v684h770v-340h226zM1114 178q71 0 109.5 31.5t38.5 91.5q0 127 -148 127h-205v-250h205z" />
    <glyph glyph-name="uni045A" unicode="&#x45a;" horiz-adv-x="1585" 
d="M1210 610q158 0 249 -83t91 -222q0 -131 -92.5 -218t-249.5 -87h-424v422h-460v-422h-201v946h201v-336h460v336h201v-336h225zM1190 178q72 0 111.5 31.5t39.5 91.5q0 121 -151 121h-205v-244h205z" />
    <glyph glyph-name="uni045B" unicode="&#x45b;" horiz-adv-x="1116" 
d="M647 977q162 0 259.5 -95.5t97.5 -299.5v-582h-201v547q0 229 -217 229q-118 0 -185 -77t-67 -246v-453h-201v1157h-133v123h133v154h201v-154h287v-123h-287v-354h4q97 174 309 174z" />
    <glyph glyph-name="uni045C" unicode="&#x45c;" horiz-adv-x="978" 
d="M860 1346l-295 -316h-157l194 316h258zM969 0h-264l-381 465v-465h-201v946h201v-403l338 403h264l-398 -430z" />
    <glyph glyph-name="uni045E" unicode="&#x45e;" horiz-adv-x="993" 
d="M506 1024q-124 0 -201.5 76.5t-77.5 210.5h140q3 -69 40.5 -109.5t98.5 -40.5t98.5 40.5t40.5 109.5h139q0 -134 -77 -210.5t-201 -76.5zM762 946h221l-590 -1356h-213l228 496l-398 860h240l260 -620z" />
    <glyph glyph-name="uni045F" unicode="&#x45f;" horiz-adv-x="1087" 
d="M764 946h201v-946h-332v-266h-178v266h-332v946h201v-758h440v758z" />
    <glyph glyph-name="uni0462" unicode="&#x462;" horiz-adv-x="1320" 
d="M829 862q127 0 227.5 -47.5t162 -147t61.5 -237.5q0 -103 -35 -186t-96.5 -135.5t-143 -80.5t-176.5 -28h-548v1047h-261v188h261v199h213v-199h421v-188h-421v-185h335zM809 201q115 0 178.5 61.5t63.5 167.5q0 107 -63.5 169.5t-178.5 62.5h-315v-461h315z" />
    <glyph glyph-name="uni0463" unicode="&#x463;" horiz-adv-x="1019" 
d="M641 606q160 0 252 -81.5t92 -219.5q0 -131 -93.5 -218t-252.5 -87h-444v782h-195v164h195v488h200v-488h287v-164h-287v-176h246zM621 182q72 0 111.5 31t39.5 88q0 121 -151 121h-226v-240h226z" />
    <glyph glyph-name="uni0472" unicode="&#x472;" horiz-adv-x="1638" 
d="M819 1464q211 0 381.5 -94t268.5 -265.5t98 -387.5t-98 -387.5t-268.5 -266t-381.5 -94.5t-381.5 94.5t-268 266t-97.5 387.5q0 162 57 302t156.5 237t237.5 152.5t296 55.5zM819 1247q-214 0 -357 -129.5t-163 -335.5h1040q-20 206 -163 335.5t-357 129.5zM819 186
q214 0 357 129.5t163 335.5h-1040q20 -206 163 -335.5t357 -129.5z" />
    <glyph glyph-name="uni0473" unicode="&#x473;" horiz-adv-x="1159" 
d="M580 977q223 0 370.5 -143t147.5 -361t-147.5 -361t-370.5 -143t-371 143t-148 361t148 361t371 143zM580 791q-125 0 -209 -69t-103 -187h623q-19 118 -102.5 187t-208.5 69zM580 156q125 0 208.5 69t102.5 187h-623q19 -118 103 -187t209 -69z" />
    <glyph glyph-name="uni0474" unicode="&#x474;" horiz-adv-x="1335" 
d="M1104 1133l-391 -1133h-197l-506 1434h246l356 -1104h4l275 858q47 152 120 214t222 62q37 0 92 -6v-194q-31 2 -76 2q-53 0 -85.5 -28t-59.5 -105z" />
    <glyph glyph-name="uni0475" unicode="&#x475;" horiz-adv-x="987" 
d="M963 965h14v-197h-14q-50 0 -77.5 -23.5t-49.5 -80.5l-258 -664h-189l-379 946h226l247 -708l189 542q37 106 99.5 145.5t191.5 39.5z" />
    <glyph glyph-name="uni048E" unicode="&#x48e;" horiz-adv-x="1107" 
d="M1077 999q0 -120 -48.5 -216t-139.5 -152l123 -174l-76 -56l-133 191q-77 -27 -170 -27h-277v-565h-213v1434h490q208 0 326 -121.5t118 -313.5zM604 766q40 0 70 6l-123 176l76 56l135 -193q86 58 86 188q0 113 -65.5 173.5t-178.5 60.5h-248v-467h248z" />
    <glyph glyph-name="uni048F" unicode="&#x48f;" horiz-adv-x="1169" 
d="M1108 473q0 -136 -49.5 -242.5t-136.5 -171.5l118 -145l-65 -55l-127 155q-89 -45 -201 -45q-221 0 -319 170h-4v-549h-201v1356h201v-139h4q98 170 319 170q94 0 177.5 -35t146.5 -98.5t100 -159.5t37 -211zM604 166q55 0 105 16l-109 133l66 56l120 -146
q52 40 80.5 104.5t28.5 143.5q0 136 -80 221.5t-211 85.5t-211 -85.5t-80 -221.5t80 -221.5t211 -85.5z" />
    <glyph glyph-name="uni0490" unicode="&#x490;" horiz-adv-x="1013" 
d="M780 1720h213v-491h-637v-1229h-213v1434h637v286z" />
    <glyph glyph-name="uni0491" unicode="&#x491;" horiz-adv-x="782" 
d="M596 1149h176v-391h-448v-758h-201v946h473v203z" />
    <glyph glyph-name="uni0492" unicode="&#x492;" horiz-adv-x="1028" 
d="M1008 1233h-596v-410h401v-188h-401v-635h-213v635h-179v188h179v611h809v-201z" />
    <glyph glyph-name="uni0493" unicode="&#x493;" horiz-adv-x="808" 
d="M799 758h-414v-205h297v-188h-297v-365h-201v365h-153v188h153v393h615v-188z" />
    <glyph glyph-name="uni0494" unicode="&#x494;" horiz-adv-x="1214" 
d="M748 829q214 0 320 -87.5t106 -276.5v-488q0 -179 -92.5 -283t-260.5 -104h-149v201h133q156 0 156 195v475q0 84 -57.5 126t-178.5 42q-157 0 -369 -17v-612h-213v1434h809v-201h-596v-422q263 18 392 18z" />
    <glyph glyph-name="uni0495" unicode="&#x495;" horiz-adv-x="995" 
d="M596 516q173 0 255.5 -71.5t82.5 -227.5v-295q0 -168 -83.5 -250t-262.5 -82h-125v189h110q79 0 119.5 33.5t40.5 115.5v267q0 149 -168 149q-64 0 -241 -10v-334h-201v946h696v-188h-495v-252q143 10 272 10z" />
    <glyph glyph-name="uni0496" unicode="&#x496;" horiz-adv-x="2058" 
d="M1903 143h125v-430h-197v287h-107l-602 731v-731h-209v731l-602 -731h-301l656 764l-545 670h293l499 -658v658h209v-658l500 658h293l-545 -670z" />
    <glyph glyph-name="uni0497" unicode="&#x497;" horiz-adv-x="1550" 
d="M1393 125h127v-391h-177v266h-110l-381 475v-475h-197v475l-381 -475h-264l424 512l-383 434h266l338 -414v414h197v-414l338 414h266l-383 -434z" />
    <glyph glyph-name="uni0498" unicode="&#x498;" horiz-adv-x="1183" 
d="M1102 391q0 -170 -112 -283.5t-339 -134.5l-16 -47q64 -18 102.5 -51t38.5 -94q0 -30 -14 -55.5t-36 -45.5t-57 -39.5t-69 -35t-80 -35.5q-2 -1 -3.5 -1.5l-3 -1t-3.5 -1.5l-27 57q47 23 68.5 34.5t49.5 28.5t39 31t11 29q0 35 -30.5 51.5t-100.5 32.5l51 139h-12
q-275 0 -508 133l99 197q209 -125 421 -125q146 0 229 57.5t83 169.5q0 248 -414 248h-141v205h139q168 0 265 55.5t97 165.5q0 94 -71 139.5t-191 45.5q-193 0 -401 -119l-96 186q103 59 241 98t285 39q220 0 337.5 -94t117.5 -262q0 -131 -74 -220t-223 -122v-4
q73 -10 134 -36.5t110 -70.5t76.5 -111.5t27.5 -152.5z" />
    <glyph glyph-name="uni0499" unicode="&#x499;" horiz-adv-x="929" 
d="M868 264q0 -135 -102 -212t-305 -83l-15 -43q64 -18 103 -51t39 -94q0 -30 -14 -55.5t-36 -45.5t-57 -39.5t-69 -35t-80 -35.5q-2 -1 -3.5 -1.5l-3 -1t-3.5 -1.5l-27 57q47 23 68.5 34.5t49.5 28.5t39 31t11 29q0 35 -30.5 51.5t-100.5 32.5l51 141q-200 6 -342 88
l84 172q143 -77 313 -77q230 0 230 129q0 70 -52 98.5t-147 28.5h-197v174h183q174 0 174 102q0 107 -185 107q-141 0 -309 -66l-67 180q188 70 389 70q183 0 282 -64t99 -180q0 -90 -59.5 -149.5t-160.5 -73.5v-6q116 -9 183 -69t67 -171z" />
    <glyph glyph-name="uni049A" unicode="&#x49a;" horiz-adv-x="1349" 
d="M1319 0h-4v-287h-197v287h-114l-648 715v-715h-213v1434h213v-637l570 637h295l-623 -658l588 -633h129v-139z" />
    <glyph glyph-name="uni049B" unicode="&#x49b;" horiz-adv-x="1019" 
d="M862 125h127v-391h-176v266h-108l-381 465v-465h-201v946h201v-403l338 403h264l-398 -430z" />
    <glyph glyph-name="uni049C" unicode="&#x49c;" horiz-adv-x="1492" 
d="M1178 0l-560 668h-71v-258h-82v258h-109v-668h-213v1434h213v-570h109v314h82v-314h82l438 570h276l-534 -658l674 -776h-305z" />
    <glyph glyph-name="uni049D" unicode="&#x49d;" horiz-adv-x="1050" 
d="M786 0l-309 440h-31v-239h-57v239h-65v-440h-201v946h201v-366h65v233h57v-233h33l285 366h254l-367 -430l389 -516h-254z" />
    <glyph glyph-name="uni049E" unicode="&#x49e;" horiz-adv-x="1423" 
d="M1413 0h-315l-647 715v-715h-213v1145h-218v131h218v158h213v-158h237v-131h-237v-348l569 637h295l-623 -658z" />
    <glyph glyph-name="uni049F" unicode="&#x49f;" horiz-adv-x="989" 
d="M979 0h-264l-381 465v-465h-201v1157h-133v123h133v154h201v-154h287v-123h-287v-614l338 403h264l-397 -430z" />
    <glyph glyph-name="uni04A0" unicode="&#x4a0;" horiz-adv-x="1593" 
d="M1583 0h-315l-647 715v-715h-213v1233h-388v201h560h41v-637l569 637h295l-623 -658z" />
    <glyph glyph-name="uni04A1" unicode="&#x4a1;" horiz-adv-x="1193" 
d="M1184 0h-264l-381 465v-465h-201v758h-328v188h434h95v-403l338 403h264l-398 -430z" />
    <glyph glyph-name="uni04A2" unicode="&#x4a2;" horiz-adv-x="1429" 
d="M1327 143h72v-430h-197v287h-88v653h-758v-653h-213v1434h213v-576h758v576h213v-1291z" />
    <glyph glyph-name="uni04A3" unicode="&#x4a3;" horiz-adv-x="1148" 
d="M1006 125h112v-391h-176v266h-137v397h-481v-397h-201v946h201v-360h481v360h201v-821z" />
    <glyph glyph-name="uni04A4" unicode="&#x4a4;" horiz-adv-x="1933" 
d="M1913 1434v-201h-627v-1233h-213v653h-717v-653h-213v1434h213v-576h717v576h840z" />
    <glyph glyph-name="uni04A5" unicode="&#x4a5;" horiz-adv-x="1368" 
d="M1358 946v-188h-393v-758h-201v397h-440v-397h-201v946h201v-360h440v360h594z" />
    <glyph glyph-name="uni04A6" unicode="&#x4a6;" horiz-adv-x="2144" 
d="M1677 870q214 0 320 -87.5t106 -276.5v-121q0 -180 -97.5 -282.5t-283.5 -102.5h-141v201h119q93 0 141.5 42t48.5 150v109q0 84 -57 126t-178 42q-132 0 -348 -15v-655h-213v1233h-738v-1233h-213v1434h1164v-580q222 16 370 16z" />
    <glyph glyph-name="uni04A7" unicode="&#x4a7;" horiz-adv-x="1632" 
d="M1233 578q174 0 256 -70t82 -229v-349q0 -172 -73.5 -256t-231.5 -84h-125v189h110q59 0 89 35.5t30 122.5v319q0 76 -39 113t-129 37q-46 0 -237 -11v-395h-201v758h-440v-758h-201v946h201h596h45v-379q154 11 268 11z" />
    <glyph glyph-name="uni04A8" unicode="&#x4a8;" horiz-adv-x="1630" 
d="M1610 43q-52 -23 -87.5 -36.5t-94 -25.5t-119.5 -12q-152 0 -250 58q-103 -58 -279 -58q-213 0 -370 95.5t-237.5 262.5t-80.5 386q0 352 206 551.5t548 199.5q118 0 227 -28l-59 -209q-86 20 -168 20q-230 0 -375 -144.5t-145 -402.5q0 -114 30.5 -212.5t89 -174.5
t152 -119.5t211.5 -43.5q24 0 70 4q-97 84 -148 205t-51 262q0 223 114 343.5t291 120.5q174 0 281 -116.5t107 -323.5q0 -143 -55 -272.5t-163 -218.5q28 -4 48 -4q106 0 225 65zM897 612q0 -131 49 -230t131 -159q94 62 144.5 166.5t50.5 231.5q0 124 -49 187.5t-138 63.5
q-90 0 -139 -65.5t-49 -194.5z" />
    <glyph glyph-name="uni04A9" unicode="&#x4a9;" horiz-adv-x="1171" 
d="M1100 164l61 -146q-107 -49 -211 -49q-113 0 -186 45q-75 -45 -205 -45q-228 0 -363 133.5t-135 374.5q0 248 145 374t394 126q89 0 176 -19l-43 -182q-73 15 -129 15q-149 0 -239.5 -76.5t-90.5 -237.5q0 -141 70.5 -233t194.5 -105q-86 103 -86 250q0 150 90 229.5
t225 79.5q139 0 220 -75t81 -224q0 -160 -113 -276q74 5 144 41zM766 530q-57 0 -90 -41t-33 -116q0 -137 100 -201q68 32 108 86t40 123q0 67 -33.5 108t-91.5 41z" />
    <glyph glyph-name="uni04AA" unicode="&#x4aa;" horiz-adv-x="1396" 
d="M1346 127q-211 -153 -488 -158l-14 -43q64 -18 102.5 -51t38.5 -94q0 -30 -14 -55.5t-36 -45.5t-57 -39.5t-69 -35t-80 -35.5q-2 -1 -3.5 -1.5l-3 -1t-3.5 -1.5l-27 57q47 23 68.5 34.5t49.5 28.5t39 31t11 29q0 35 -30.5 51.5t-100.5 32.5l51 141q-318 19 -513 223.5
t-195 522.5q0 165 56.5 304.5t156.5 236.5t243 151.5t312 54.5q287 0 506 -157l-132 -187q-175 127 -383 127q-229 0 -377.5 -145.5t-148.5 -384.5t148.5 -385t377.5 -146q208 0 383 127z" />
    <glyph glyph-name="uni04AB" unicode="&#x4ab;" horiz-adv-x="946" 
d="M582 -31h-9l-14 -43q64 -18 102.5 -51t38.5 -94q0 -30 -14 -55.5t-36 -45.5t-57 -39.5t-69 -35t-80 -35.5q-2 -1 -3.5 -1.5l-3 -1t-3.5 -1.5l-26 57q46 23 68.5 34.5t49.5 28.5t38 31t11 29q0 35 -30.5 51.5t-100.5 32.5l52 145q-195 25 -315 160.5t-120 337.5
q0 225 145.5 364.5t375.5 139.5q177 0 323 -96l-94 -170q-114 71 -236 71q-135 0 -218 -87t-83 -222t83 -222t218 -87q120 0 236 72l94 -170q-148 -97 -323 -97z" />
    <glyph glyph-name="uni04AC" unicode="&#x4ac;" horiz-adv-x="1060" 
d="M1040 1233h-403v-1090h139v-430h-196v287h-156v1233h-404v201h1020v-201z" />
    <glyph glyph-name="uni04AD" unicode="&#x4ad;" horiz-adv-x="878" 
d="M868 762h-329v-637h114v-391h-176v266h-139v762h-328v184h858v-184z" />
    <glyph glyph-name="uni04AE" unicode="&#x4ae;" horiz-adv-x="1112" 
d="M1112 1434l-448 -859v-575h-215v573l-449 861h248l305 -633h6l305 633h248z" />
    <glyph glyph-name="uni04AF" unicode="&#x4af;" horiz-adv-x="966" 
d="M956 946l-372 -936v-420h-201v420l-373 936h226l247 -704l248 704h225z" />
    <glyph glyph-name="uni04B0" unicode="&#x4b0;" horiz-adv-x="1112" 
d="M1112 1434l-436 -834h244v-176h-256v-424h-215v422h-256v176h241l-434 836h248l305 -633h6l305 633h248z" />
    <glyph glyph-name="uni04B1" unicode="&#x4b1;" horiz-adv-x="966" 
d="M584 10h254v-174h-254v-246h-201v246h-254v174h254l-373 936h226l247 -704l248 704h225z" />
    <glyph glyph-name="uni04B2" unicode="&#x4b2;" horiz-adv-x="1341" 
d="M1159 143h152v-430h-197v287h-117l-362 588l-361 -588h-254l482 764l-418 670h254l297 -490l299 490h252l-418 -670z" />
    <glyph glyph-name="uni04B3" unicode="&#x4b3;" horiz-adv-x="1011" 
d="M907 125h123v-391h-176v266h-109l-239 340l-240 -340h-256l375 498l-322 448h259l184 -295l184 295h258l-321 -448z" />
    <glyph glyph-name="uni04B4" unicode="&#x4b4;" horiz-adv-x="1693" 
d="M1489 201h143v-488h-196v287h-1016v1233h-400v201h613h342v-201h-342v-1032h643v1233h213v-1233z" />
    <glyph glyph-name="uni04B5" unicode="&#x4b5;" horiz-adv-x="1277" 
d="M1135 188h112v-454h-176v266h-547h-200v758h-314v188h514h269v-188h-269v-570h410v758h201v-758z" />
    <glyph glyph-name="uni04B6" unicode="&#x4b6;" horiz-adv-x="1220" 
d="M1051 143h139v-430h-197v287h-155v584h-402q-195 0 -295 96.5t-100 288.5v465h213v-461q0 -99 50 -144t165 -45h369v650h213v-1291z" />
    <glyph glyph-name="uni04B7" unicode="&#x4b7;" horiz-adv-x="958" 
d="M815 125h113v-391h-176v266h-138v358h-286q-297 0 -297 269v319h200v-297q0 -57 26.5 -83.5t88.5 -26.5h268v407h201v-821z" />
    <glyph glyph-name="uni04B8" unicode="&#x4b8;" horiz-adv-x="1193" 
d="M838 1434h213v-1434h-213v584h-217v-291h-103v291h-82q-195 0 -295 96.5t-100 288.5v465h213v-461q0 -99 50 -144t165 -45h49v277h103v-277h217v650z" />
    <glyph glyph-name="uni04B9" unicode="&#x4b9;" horiz-adv-x="937" 
d="M614 946h201v-946h-201v358h-110v-176h-62v176h-114q-297 0 -297 269v319h200v-297q0 -57 26.5 -83.5t88.5 -26.5h96v194h62v-194h110v407z" />
    <glyph glyph-name="uni04BA" unicode="&#x4ba;" horiz-adv-x="1193" 
d="M758 850q195 0 295 -96.5t100 -288.5v-465h-213v461q0 99 -50 143.5t-165 44.5h-369v-649h-213v1434h213v-584h402z" />
    <glyph glyph-name="uni04BB" unicode="&#x4bb;" horiz-adv-x="1116" 
d="M334 1434v-631h4q97 174 309 174q162 0 259.5 -95.5t97.5 -299.5v-582h-201v547q0 229 -217 229q-118 0 -185 -77t-67 -246v-453h-201v1434h201z" />
    <glyph glyph-name="uni04BC" unicode="&#x4bc;" horiz-adv-x="1896" 
d="M1122 1464q220 0 380.5 -96t241.5 -263.5t81 -387.5v-92h-230h-977q31 -202 175.5 -322.5t367.5 -120.5q137 0 241.5 42.5t207.5 117.5l119 -184q-130 -89 -265 -139t-301 -50q-316 0 -529 178.5t-247 475.5h-65q-129 0 -210 71t-81 219q0 62 20 146h213
q-20 -70 -20 -117q0 -117 118 -117h25q31 287 230 463t505 176zM1122 1251q-211 0 -344.5 -116t-161.5 -310h973q-25 201 -143 313.5t-324 112.5z" />
    <glyph glyph-name="uni04BD" unicode="&#x4bd;" horiz-adv-x="1257" 
d="M1196 473v-33h-733q6 -125 85.5 -201.5t201.5 -76.5q55 0 103 16t84 44.5t58 51.5t45 54l142 -133q-165 -226 -428 -226q-217 0 -350 128.5t-144 342.5h-10q-240 0 -240 207q0 50 19 113h155q-16 -53 -16 -92q0 -43 21 -62.5t71 -19.5h10q32 176 156.5 283.5t316.5 107.5
q214 0 333.5 -136t119.5 -368zM473 586h506q-6 97 -73 152t-175 55q-103 0 -171.5 -53t-86.5 -154z" />
    <glyph glyph-name="uni04BE" unicode="&#x4be;" horiz-adv-x="1896" 
d="M1122 1464q220 0 380.5 -96t241.5 -263.5t81 -387.5v-92h-230h-977q31 -202 175.5 -322.5t367.5 -120.5q137 0 241.5 42.5t207.5 117.5l119 -184q-137 -93 -259 -135l5 -3q-144 -144 -144 -221q0 -23 16.5 -35t43.5 -12q21 0 79 12l25 -126q-71 -21 -143 -21
q-77 0 -125.5 40t-48.5 114q0 107 118 206q-86 -8 -133 -8q-316 0 -529 178.5t-247 475.5h-65q-129 0 -210 71t-81 219q0 62 20 146h213q-20 -70 -20 -117q0 -117 118 -117h25q31 287 230 463t505 176zM1122 1251q-211 0 -344.5 -116t-161.5 -310h973q-25 201 -143 313.5
t-324 112.5z" />
    <glyph glyph-name="uni04BF" unicode="&#x4bf;" horiz-adv-x="1257" 
d="M1196 473v-33h-733q6 -125 85.5 -201.5t201.5 -76.5q55 0 103 16t84 44.5t58 51.5t45 54l142 -133q-89 -126 -211 -181q-137 -140 -137 -215q0 -23 16 -35t43 -12q22 0 80 12l24 -126q-70 -21 -143 -21q-77 0 -125.5 40t-48.5 114q0 101 108 198h-34q-217 0 -350 128.5
t-144 342.5h-10q-240 0 -240 207q0 50 19 113h155q-16 -53 -16 -92q0 -43 21 -62.5t71 -19.5h10q32 176 156.5 283.5t316.5 107.5q214 0 333.5 -136t119.5 -368zM473 586h506q-6 97 -73 152t-175 55q-103 0 -171.5 -53t-86.5 -154z" />
    <glyph glyph-name="uni04C0" unicode="&#x4c0;" horiz-adv-x="503" 
d="M360 1434v-1434h-217v1434h217z" />
    <glyph glyph-name="uni04C1" unicode="&#x4c1;" horiz-adv-x="2035" 
d="M1016 1481q-129 0 -202.5 76t-76.5 210h137q-1 -82 35 -125t107 -43q70 0 106.5 43t34.5 125h137q-3 -134 -76.5 -210t-201.5 -76zM2025 0h-301l-602 731v-731h-209v731l-602 -731h-301l656 764l-545 670h293l499 -658v658h209v-658l500 658h293l-545 -670z" />
    <glyph glyph-name="uni04C2" unicode="&#x4c2;" horiz-adv-x="1507" 
d="M754 1024q-124 0 -201.5 76.5t-77.5 210.5h139q3 -69 41 -109.5t99 -40.5t98.5 40.5t40.5 109.5h139q0 -134 -77 -210.5t-201 -76.5zM1497 0h-264l-381 475v-475h-197v475l-381 -475h-264l424 512l-383 434h266l338 -414v414h197v-414l338 414h266l-383 -434z" />
    <glyph glyph-name="uni04C3" unicode="&#x4c3;" horiz-adv-x="1241" 
d="M795 784q205 0 305 -84t100 -276v-447q0 -180 -92 -283.5t-260 -103.5h-150v201h133q156 0 156 195v409q0 95 -57 142t-178 47q-136 0 -396 -19v-565h-213v1434h213v-676l547 676h287l-578 -658q118 8 183 8z" />
    <glyph glyph-name="uni04C4" unicode="&#x4c4;" horiz-adv-x="964" 
d="M596 530q173 0 255.5 -70.5t82.5 -221.5v-316q0 -168 -83.5 -250t-262.5 -82h-125v189h110q79 0 119.5 33.5t40.5 115.5v287q0 152 -168 152q-47 0 -241 -11v-356h-201v946h201v-403l338 403h264l-389 -416h59z" />
    <glyph glyph-name="uni04C5" unicode="&#x4c5;" horiz-adv-x="1449" 
d="M1286 135h154l-189 -401h-192l115 266h-101v1233h-635v-881q0 -184 -78 -273t-235 -89h-94v207h73q63 0 92 33.5t29 121.5v1082h1061v-1299z" />
    <glyph glyph-name="uni04C6" unicode="&#x4c6;" horiz-adv-x="1132" 
d="M961 135h192l-188 -401h-193l115 266h-127v758h-389v-498q0 -134 -68 -204t-184 -70h-99v182h66q47 0 65.5 23.5t18.5 70.5v684h201h590v-811z" />
    <glyph glyph-name="uni04C7" unicode="&#x4c7;" horiz-adv-x="1470" 
d="M1114 1434h213v-1524q0 -151 -73.5 -235.5t-221.5 -84.5h-145v201h102q64 0 94.5 27t30.5 100v735h-758v-653h-213v1434h213v-576h758v576z" />
    <glyph glyph-name="uni04C8" unicode="&#x4c8;" horiz-adv-x="1128" 
d="M805 946h201v-1073q0 -134 -65 -208.5t-198 -74.5h-125v189h89q46 0 72 25.5t26 74.5v518h-481v-397h-201v946h201v-360h481v360z" />
    <glyph glyph-name="uni04C9" unicode="&#x4c9;" horiz-adv-x="1501" 
d="M1327 135h164l-188 -401h-193l115 266h-111v653h-758v-653h-213v1434h213v-576h758v576h213v-1299z" />
    <glyph glyph-name="uni04CA" unicode="&#x4ca;" horiz-adv-x="1167" 
d="M1006 135h182l-189 -401h-192l115 266h-117v397h-481v-397h-201v946h201v-360h481v360h201v-811z" />
    <glyph glyph-name="uni04CB" unicode="&#x4cb;" horiz-adv-x="1193" 
d="M1051 1434v-1434h-164v-287h-197v430h148v441h-402q-195 0 -295 96.5t-100 288.5v465h213v-461q0 -99 50 -144t165 -45h369v650h213z" />
    <glyph glyph-name="uni04CC" unicode="&#x4cc;" horiz-adv-x="937" 
d="M815 946v-946h-137v-266h-176v391h112v233h-286q-297 0 -297 269v319h200v-297q0 -57 26.5 -83.5t88.5 -26.5h268v407h201z" />
    <glyph glyph-name="uni04CD" unicode="&#x4cd;" horiz-adv-x="1902" 
d="M1718 135h174l-188 -401h-193l115 266h-102l-238 1024h-4l-321 -805h-160l-322 805h-4l-237 -1024h-228l348 1434h174l347 -881h4l346 881h174z" />
    <glyph glyph-name="uni04CE" unicode="&#x4ce;" horiz-adv-x="1460" 
d="M1294 135h187l-189 -401h-192l114 266h-86l-163 649h-4l-209 -499h-142l-209 499h-4l-164 -649h-202l260 946h182l205 -504h4l207 504h182z" />
    <glyph glyph-name="uni04CF" unicode="&#x4cf;" horiz-adv-x="466" 
d="M133 0v946h201v-946h-201z" />
    <glyph glyph-name="uni04D0" unicode="&#x4d0;" horiz-adv-x="1388" 
d="M694 1481q-128 0 -201.5 76t-76.5 210h137q-2 -82 34.5 -125t106.5 -43q71 0 107 43t35 125h137q-3 -134 -76.5 -210t-202.5 -76zM1145 0l-137 356h-627l-137 -356h-234l586 1434h197l585 -1434h-233zM457 553h475l-238 614z" />
    <glyph glyph-name="uni04D1" unicode="&#x4d1;" horiz-adv-x="1169" 
d="M854 1311q0 -134 -77.5 -210.5t-201.5 -76.5t-201 76.5t-77 210.5h139q3 -69 40.5 -109.5t98.5 -40.5t99 40.5t41 109.5h139zM522 -31q-94 0 -177.5 35t-146.5 98.5t-100 159.5t-37 211t37 211t100 159.5t146.5 98.5t177.5 35q222 0 320 -170h4v139h201v-946h-201v139h-4
q-98 -170 -320 -170zM565 166q131 0 211 85.5t80 221.5t-80 221.5t-211 85.5t-211 -85.5t-80 -221.5t80 -221.5t211 -85.5z" />
    <glyph glyph-name="uni04D2" unicode="&#x4d2;" horiz-adv-x="1388" 
d="M588 1735v-213h-217v213h217zM1018 1735v-213h-217v213h217zM1145 0l-137 356h-627l-137 -356h-234l586 1434h197l585 -1434h-233zM457 553h475l-238 614z" />
    <glyph glyph-name="uni04D3" unicode="&#x4d3;" horiz-adv-x="1169" 
d="M506 1311v-246h-195v246h195zM840 1311v-246h-195v246h195zM522 -31q-94 0 -177.5 35t-146.5 98.5t-100 159.5t-37 211t37 211t100 159.5t146.5 98.5t177.5 35q222 0 320 -170h4v139h201v-946h-201v139h-4q-98 -170 -320 -170zM565 166q131 0 211 85.5t80 221.5
t-80 221.5t-211 85.5t-211 -85.5t-80 -221.5t80 -221.5t211 -85.5z" />
    <glyph glyph-name="uni04D4" unicode="&#x4d4;" horiz-adv-x="1910" 
d="M1255 201h564v-201h-650h-122v356h-543l-225 -356h-269l932 1434h313h553v-201h-553v-340h504v-201h-504v-491zM629 553h418v659z" />
    <glyph glyph-name="uni04D5" unicode="&#x4d5;" horiz-adv-x="1667" 
d="M401 -31q-162 0 -271.5 92.5t-109.5 241.5q0 146 104.5 237t270.5 91q91 0 166.5 -29.5t118.5 -85.5h4v82q0 199 -219 199q-123 0 -311 -49l-43 178q192 51 368 51q252 0 322 -182h4q47 81 141 131.5t219 50.5q204 0 322.5 -136t118.5 -368v-33h-725q6 -122 77 -200
t203 -78q58 0 105.5 15t84 44t56 50.5t45.5 56.5l137 -129q-29 -42 -64.5 -78.5t-87 -73t-120.5 -57.5t-148 -21q-137 0 -241 61t-150 156h-4q-31 -70 -90 -120t-131 -73.5t-152 -23.5zM891 586h495q-3 93 -69.5 150t-171.5 57q-99 0 -166.5 -53t-87.5 -154zM444 141
q103 0 171.5 45.5t68.5 118.5q0 72 -68 115t-170 43q-104 0 -158.5 -45t-54.5 -115q0 -72 55 -117t156 -45z" />
    <glyph glyph-name="uni04D6" unicode="&#x4d6;" horiz-adv-x="1064" 
d="M594 1481q-129 0 -202.5 76t-76.5 210h138q-2 -82 34.5 -125t106.5 -43t106.5 43t34.5 125h137q-3 -134 -76.5 -210t-201.5 -76zM356 201h617v-201h-830v1434h820v-201h-607v-340h559v-201h-559v-491z" />
    <glyph glyph-name="uni04D7" unicode="&#x4d7;" horiz-adv-x="1058" 
d="M831 1311q0 -134 -77 -210.5t-201 -76.5t-201.5 76.5t-77.5 210.5h140q3 -69 40.5 -109.5t98.5 -40.5t98.5 40.5t40.5 109.5h139zM545 977q214 0 333 -136t119 -368v-33h-733q6 -125 85.5 -201.5t201.5 -76.5q167 0 291 166l141 -133q-165 -226 -428 -226
q-225 0 -359.5 138.5t-134.5 363.5q0 221 131 363.5t353 142.5zM532 793q-103 0 -171.5 -53t-86.5 -154h506q-6 97 -73 152t-175 55z" />
    <glyph glyph-name="uni04D8" unicode="&#x4d8;" horiz-adv-x="1587" 
d="M745 1464q232 0 405 -88t269.5 -259.5t96.5 -407.5q0 -218 -82.5 -384t-246.5 -261t-390 -95q-171 0 -309 55t-228.5 154.5t-139 237t-48.5 301.5v92h229h981q-28 204 -168 323t-371 119q-132 0 -251 -37.5t-205 -95.5l-113 195q273 151 571 151zM797 182
q217 0 340 112.5t147 309.5h-977q27 -199 150.5 -310.5t339.5 -111.5z" />
    <glyph glyph-name="uni04D9" unicode="&#x4d9;" horiz-adv-x="1058" 
d="M514 -31q-214 0 -333.5 136t-119.5 368v33h734q-6 125 -85.5 201.5t-201.5 76.5q-167 0 -291 -166l-141 134q164 225 428 225q224 0 358.5 -138t134.5 -364q0 -221 -130.5 -363.5t-352.5 -142.5zM526 154q103 0 171.5 52.5t86.5 153.5h-505q6 -97 72.5 -151.5
t174.5 -54.5z" />
    <glyph glyph-name="uni04DA" unicode="&#x4da;" horiz-adv-x="1587" 
d="M688 1735v-213h-217v213h217zM1118 1735v-213h-217v213h217zM745 1464q232 0 405 -88t269.5 -259.5t96.5 -407.5q0 -218 -82.5 -384t-246.5 -261t-390 -95q-171 0 -309 55t-228.5 154.5t-139 237t-48.5 301.5v92h229h981q-28 204 -168 323t-371 119q-132 0 -251 -37.5
t-205 -95.5l-113 195q273 151 571 151zM797 182q217 0 340 112.5t147 309.5h-977q27 -199 150.5 -310.5t339.5 -111.5z" />
    <glyph glyph-name="uni04DB" unicode="&#x4db;" horiz-adv-x="1058" 
d="M465 1311v-246h-195v246h195zM799 1311v-246h-195v246h195zM514 -31q-214 0 -333.5 136t-119.5 368v33h734q-6 125 -85.5 201.5t-201.5 76.5q-167 0 -291 -166l-141 134q164 225 428 225q224 0 358.5 -138t134.5 -364q0 -221 -130.5 -363.5t-352.5 -142.5zM526 154
q103 0 171.5 52.5t86.5 153.5h-505q6 -97 72.5 -151.5t174.5 -54.5z" />
    <glyph glyph-name="uni04DC" unicode="&#x4dc;" horiz-adv-x="2035" 
d="M909 1735v-213h-217v213h217zM1339 1735v-213h-217v213h217zM2025 0h-301l-602 731v-731h-209v731l-602 -731h-301l656 764l-545 670h293l499 -658v658h209v-658l500 658h293l-545 -670z" />
    <glyph glyph-name="uni04DD" unicode="&#x4dd;" horiz-adv-x="1507" 
d="M684 1311v-246h-195v246h195zM1018 1311v-246h-195v246h195zM1497 0h-264l-381 475v-475h-197v475l-381 -475h-264l424 512l-383 434h266l338 -414v414h197v-414l338 414h266l-383 -434z" />
    <glyph glyph-name="uni04DE" unicode="&#x4de;" horiz-adv-x="1183" 
d="M494 1735v-213h-218v213h218zM924 1735v-213h-217v213h217zM596 1464q220 0 337.5 -94t117.5 -262q0 -131 -74 -220t-223 -122v-4q73 -10 134 -36.5t110 -70.5t76.5 -111.5t27.5 -152.5q0 -90 -31.5 -164.5t-95 -133t-170 -91.5t-246.5 -33q-275 0 -508 133l99 197
q209 -125 421 -125q146 0 229 57.5t83 169.5q0 248 -414 248h-141v205h139q168 0 265 55.5t97 165.5q0 94 -71 139.5t-191 45.5q-193 0 -401 -119l-96 186q103 59 241 98t285 39z" />
    <glyph glyph-name="uni04DF" unicode="&#x4df;" horiz-adv-x="929" 
d="M358 1311v-246h-194v246h194zM692 1311v-246h-194v246h194zM432 -31q-232 0 -391 90l84 172q143 -77 313 -77q230 0 230 129q0 70 -52 98.5t-147 28.5h-197v174h183q174 0 174 102q0 107 -185 107q-141 0 -309 -66l-67 180q188 70 389 70q183 0 282 -64t99 -180
q0 -90 -59.5 -149.5t-160.5 -73.5v-6q116 -9 183 -69t67 -171q0 -140 -109 -217.5t-327 -77.5z" />
    <glyph glyph-name="uni04E0" unicode="&#x4e0;" horiz-adv-x="1120" 
d="M520 -31q-139 0 -270.5 35t-229.5 96l103 199q189 -113 391 -113q144 0 219.5 61t75.5 177q0 125 -94.5 182.5t-292.5 57.5h-152v176l420 393h-579v201h880v-201l-471 -410q56 19 107 19q83 0 157 -28t130.5 -80t90 -133t33.5 -181q0 -73 -16.5 -137.5t-55.5 -123
t-97 -100t-147.5 -66t-201.5 -24.5z" />
    <glyph glyph-name="uni04E1" unicode="&#x4e1;" horiz-adv-x="960" 
d="M397 -440q-237 0 -428 98l86 188q174 -94 353 -94q136 0 212 67.5t76 182.5q0 227 -323 227h-172v164l391 365h-535v188h789v-201l-406 -358q58 8 95 8q158 0 266 -106.5t108 -288.5q0 -209 -132 -324.5t-380 -115.5z" />
    <glyph glyph-name="uni04E2" unicode="&#x4e2;" horiz-adv-x="1431" 
d="M1010 1706v-147h-594v147h594zM143 1434h213v-1082h4l705 1082h223v-1434h-213v1081h-4l-704 -1081h-224v1434z" />
    <glyph glyph-name="uni04E3" unicode="&#x4e3;" horiz-adv-x="1105" 
d="M850 1233v-148h-594v148h594zM123 0v946h201v-629h4l469 629h186v-946h-201v629h-4l-469 -629h-186z" />
    <glyph glyph-name="uni04E4" unicode="&#x4e4;" horiz-adv-x="1431" 
d="M608 1735v-213h-217v213h217zM1038 1735v-213h-217v213h217zM143 1434h213v-1082h4l705 1082h223v-1434h-213v1081h-4l-704 -1081h-224v1434z" />
    <glyph glyph-name="uni04E5" unicode="&#x4e5;" horiz-adv-x="1105" 
d="M483 1311v-246h-194v246h194zM817 1311v-246h-194v246h194zM123 0v946h201v-629h4l469 629h186v-946h-201v629h-4l-469 -629h-186z" />
    <glyph glyph-name="uni04E6" unicode="&#x4e6;" horiz-adv-x="1638" 
d="M715 1735v-213h-217v213h217zM1145 1735v-213h-217v213h217zM819 1464q211 0 381.5 -94t268.5 -265.5t98 -387.5t-98 -387.5t-268.5 -266t-381.5 -94.5t-381.5 94.5t-268 266t-97.5 387.5q0 162 57 302t156.5 237t237.5 152.5t296 55.5zM819 1247q-226 0 -370 -149.5
t-144 -380.5t144 -381t370 -150t370 150t144 381t-144 380.5t-370 149.5z" />
    <glyph glyph-name="uni04E7" unicode="&#x4e7;" horiz-adv-x="1159" 
d="M510 1311v-246h-195v246h195zM844 1311v-246h-195v246h195zM580 977q223 0 370.5 -143t147.5 -361t-147.5 -361t-370.5 -143t-371 143t-148 361t148 361t371 143zM580 780q-136 0 -221 -84t-85 -223t85 -223t221 -84t220.5 84t84.5 223t-84.5 223t-220.5 84z" />
    <glyph glyph-name="uni04E8" unicode="&#x4e8;" horiz-adv-x="1638" 
d="M819 1464q211 0 381.5 -94t268.5 -265.5t98 -387.5t-98 -387.5t-268.5 -266t-381.5 -94.5t-381.5 94.5t-268 266t-97.5 387.5q0 162 57 302t156.5 237t237.5 152.5t296 55.5zM819 1247q-214 0 -357 -129.5t-163 -335.5h1040q-20 206 -163 335.5t-357 129.5zM819 186
q214 0 357 129.5t163 335.5h-1040q20 -206 163 -335.5t357 -129.5z" />
    <glyph glyph-name="uni04E9" unicode="&#x4e9;" horiz-adv-x="1159" 
d="M580 977q223 0 370.5 -143t147.5 -361t-147.5 -361t-370.5 -143t-371 143t-148 361t148 361t371 143zM580 791q-125 0 -209 -69t-103 -187h623q-19 118 -102.5 187t-208.5 69zM580 156q125 0 208.5 69t102.5 187h-623q19 -118 103 -187t209 -69z" />
    <glyph glyph-name="uni04EA" unicode="&#x4ea;" horiz-adv-x="1638" 
d="M715 1735v-213h-217v213h217zM1145 1735v-213h-217v213h217zM819 1464q211 0 381.5 -94t268.5 -265.5t98 -387.5t-98 -387.5t-268.5 -266t-381.5 -94.5t-381.5 94.5t-268 266t-97.5 387.5q0 162 57 302t156.5 237t237.5 152.5t296 55.5zM819 1247q-214 0 -357 -129.5
t-163 -335.5h1040q-20 206 -163 335.5t-357 129.5zM819 186q214 0 357 129.5t163 335.5h-1040q20 -206 163 -335.5t357 -129.5z" />
    <glyph glyph-name="uni04EB" unicode="&#x4eb;" horiz-adv-x="1159" 
d="M496 1311v-246h-195v246h195zM829 1311v-246h-194v246h194zM580 977q223 0 370.5 -143t147.5 -361t-147.5 -361t-370.5 -143t-371 143t-148 361t148 361t371 143zM580 791q-125 0 -209 -69t-103 -187h623q-19 118 -102.5 187t-208.5 69zM580 156q125 0 208.5 69
t102.5 187h-623q19 -118 103 -187t209 -69z" />
    <glyph glyph-name="uni04EC" unicode="&#x4ec;" horiz-adv-x="1388" 
d="M522 1735v-213h-217v213h217zM952 1735v-213h-217v213h217zM590 1464q162 0 296 -50.5t229.5 -144.5t148.5 -235.5t53 -316.5t-53 -316.5t-148.5 -236t-229.5 -145t-296 -50.5q-295 0 -539 170l113 185q199 -142 428 -142q205 0 337.5 119t153.5 336h-639v201h635
q-32 198 -162.5 305.5t-324.5 107.5q-123 0 -233 -40.5t-195 -100.5l-113 184q244 170 539 170z" />
    <glyph glyph-name="uni04ED" unicode="&#x4ed;" horiz-adv-x="937" 
d="M375 1311v-246h-195v246h195zM709 1311v-246h-195v246h195zM385 977q223 0 352 -130.5t129 -373.5t-129 -373.5t-352 -130.5q-181 0 -344 99l92 170q129 -72 250 -72q108 0 180.5 55t93.5 166h-352v172h352q-21 111 -93.5 166t-180.5 55q-123 0 -250 -71l-92 170
q162 98 344 98z" />
    <glyph glyph-name="uni04EE" unicode="&#x4ee;" 
d="M920 1706v-147h-594v147h594zM1004 1434h225l-660 -1434h-225l174 377l-518 1057h246l385 -809z" />
    <glyph glyph-name="uni04EF" unicode="&#x4ef;" horiz-adv-x="993" 
d="M803 1233v-148h-594v148h594zM762 946h221l-590 -1356h-213l228 496l-398 860h240l260 -620z" />
    <glyph glyph-name="uni04F0" unicode="&#x4f0;" 
d="M518 1735v-213h-217v213h217zM948 1735v-213h-217v213h217zM1004 1434h225l-660 -1434h-225l174 377l-518 1057h246l385 -809z" />
    <glyph glyph-name="uni04F1" unicode="&#x4f1;" horiz-adv-x="993" 
d="M436 1311v-246h-194v246h194zM770 1311v-246h-195v246h195zM762 946h221l-590 -1356h-213l228 496l-398 860h240l260 -620z" />
    <glyph glyph-name="uni04F2" unicode="&#x4f2;" 
d="M791 1767l-209 -245h-142l172 245h179zM829 1522h-141l172 245h178zM1004 1434h225l-660 -1434h-225l174 377l-518 1057h246l385 -809z" />
    <glyph glyph-name="uni04F3" unicode="&#x4f3;" horiz-adv-x="993" 
d="M702 1346l-251 -316h-144l213 316h182zM713 1030h-144l213 316h183zM762 946h221l-590 -1356h-213l228 496l-398 860h240l260 -620z" />
    <glyph glyph-name="uni04F4" unicode="&#x4f4;" horiz-adv-x="1193" 
d="M440 1735v-213h-217v213h217zM870 1735v-213h-217v213h217zM838 1434h213v-1434h-213v584h-402q-195 0 -295 96.5t-100 288.5v465h213v-461q0 -99 50 -144t165 -45h369v650z" />
    <glyph glyph-name="uni04F5" unicode="&#x4f5;" horiz-adv-x="937" 
d="M344 1311v-246h-194v246h194zM678 1311v-246h-195v246h195zM614 946h201v-946h-201v358h-286q-297 0 -297 269v319h200v-297q0 -57 26.5 -83.5t88.5 -26.5h268v407z" />
    <glyph glyph-name="uni04F8" unicode="&#x4f8;" horiz-adv-x="1669" 
d="M741 1735v-213h-217v213h217zM954 1522v213h217v-213h-217zM692 862q127 0 227.5 -47.5t162 -147t61.5 -237.5q0 -103 -35 -186t-96.5 -135.5t-143 -80.5t-176.5 -28h-549v1434h213v-572h336zM1309 1434h217v-1434h-217v1434zM672 201q115 0 178 61.5t63 167.5
q0 107 -63 169.5t-178 62.5h-316v-461h316z" />
    <glyph glyph-name="uni04F9" unicode="&#x4f9;" horiz-adv-x="1325" 
d="M596 1311v-246h-195v246h195zM735 1065v246h195v-246h-195zM569 606q158 0 249 -81.5t91 -219.5q0 -131 -92.5 -218t-249.5 -87h-444v946h201v-340h245zM1001 946h201v-946h-201v946zM549 178q71 0 109 31.5t38 91.5q0 127 -147 127h-225v-250h225z" />
    <glyph glyph-name="uni04FC" unicode="&#x4fc;" 
d="M1042 334q88 -138 127 -236t39 -200q0 -154 -102 -231t-270 -77h-76v197h74q89 0 126 35t37 100q0 62 -29.5 123t-107.5 185q-16 25 -24 38l-201 320l-361 -588h-254l482 764l-418 670h254l297 -490l299 490h252l-418 -668z" />
    <glyph glyph-name="uni04FD" unicode="&#x4fd;" horiz-adv-x="974" 
d="M598 -410v189h88q46 0 72 25.5t26 74.5q0 71 -92 195l-196 270l-248 -344h-238l371 498l-318 448h240l193 -299l192 299h240l-318 -448l262 -344q66 -88 89.5 -150t23.5 -151q0 -120 -65.5 -191.5t-196.5 -71.5h-125z" />
    <glyph glyph-name="uni0510" unicode="&#x510;" horiz-adv-x="1183" 
d="M588 1464q147 0 285 -39t241 -98l-96 -186q-208 119 -402 119q-120 0 -191 -45.5t-71 -139.5q0 -110 97.5 -165.5t265.5 -55.5h139v-205h-141q-414 0 -414 -248q0 -112 82.5 -169.5t228.5 -57.5q213 0 422 125l99 -197q-233 -133 -508 -133q-140 0 -246.5 33t-170 91.5
t-95 133t-31.5 164.5q0 85 27.5 152.5t76.5 111.5t110 70.5t134 36.5v4q-149 33 -223 122t-74 220q0 168 117.5 262t337.5 94z" />
    <glyph glyph-name="uni0511" unicode="&#x511;" horiz-adv-x="909" 
d="M477 -31q-209 0 -312.5 73t-103.5 212q0 112 68 176.5t184 73.5v6q-103 15 -162 74t-59 153q0 111 88.5 175.5t251.5 64.5q214 0 410 -70l-68 -180q-168 66 -309 66q-83 0 -123.5 -23.5t-40.5 -75.5q0 -55 51.5 -82.5t167.5 -27.5h137v-174h-151q-126 0 -185 -29
t-59 -102q0 -125 209 -125q170 0 313 77l84 -172q-185 -90 -391 -90z" />
    <glyph glyph-name="uni0512" unicode="&#x512;" horiz-adv-x="1429" 
d="M225 1434h1061v-1524q0 -151 -73.5 -235.5t-221.5 -84.5h-145v201h102q64 0 94.5 27t30.5 100v1315h-635v-881q0 -184 -78 -273t-235 -89h-94v207h73q63 0 92 33.5t29 121.5v1082z" />
    <glyph glyph-name="uni0513" unicode="&#x513;" horiz-adv-x="1083" 
d="M961 946v-1073q0 -134 -65 -208.5t-198 -74.5h-125v189h89q46 0 72 25.5t26 74.5v879h-389v-498q0 -134 -68 -204t-184 -70h-99v182h66q47 0 65.5 23.5t18.5 70.5v684h791z" />
    <glyph glyph-name="uni051C" unicode="&#x51c;" horiz-adv-x="2017" 
d="M1987 1434l-431 -1434h-208l-336 1073h-6l-336 -1073h-209l-430 1434h237l295 -1094h4l336 1094h211l336 -1094h4l295 1094h238z" />
    <glyph glyph-name="uni051D" unicode="&#x51d;" horiz-adv-x="1476" 
d="M1245 946h221l-317 -946h-184l-226 678l-227 -678h-184l-318 946h221l191 -682l219 682h195l219 -682z" />
    <glyph glyph-name="uni0524" unicode="&#x524;" horiz-adv-x="1476" 
d="M1307 143h139v-430h-197v287h-155v1233h-738v-1233h-213v1434h1164v-1291z" />
    <glyph glyph-name="uni0525" unicode="&#x525;" horiz-adv-x="1107" 
d="M965 125h112v-391h-176v266h-137v758h-440v-758h-201v946h201h596h45v-821z" />
    <glyph glyph-name="uni0526" unicode="&#x526;" horiz-adv-x="1323" 
d="M1153 143h139v-430h-196v287h-156v461q0 99 -50 143.5t-165 44.5h-369v-649h-213v1434h213v-584h402q195 0 295 -96.5t100 -288.5v-322z" />
    <glyph glyph-name="uni0527" unicode="&#x527;" horiz-adv-x="1146" 
d="M1004 125h112v-391h-176v266h-137v547q0 229 -217 229q-118 0 -185 -77t-67 -246v-453h-201v1434h201v-631h4q97 174 309 174q162 0 259.5 -95.5t97.5 -299.5v-457z" />
    <glyph glyph-name="uni0E3F" unicode="&#xe3f;" horiz-adv-x="1056" 
d="M768 688q96 -34 151.5 -114t55.5 -185q0 -186 -117 -287.5t-309 -101.5h-31v-178h-57v178h-379v1382h379v179h57v-179h31q190 0 308 -102t118 -287q0 -105 -55.5 -185t-151.5 -114v-6zM461 1194h-178v-414h178v414zM567 1194h-49v-414h8q119 0 180.5 56t61.5 159
q0 87 -57.5 143t-143.5 56zM283 188h178v414h-178v-414zM567 188q86 0 144.5 56t58.5 143q0 103 -62 159t-182 56h-8v-414h49z" />
    <glyph glyph-name="Wgrave" unicode="&#x1e80;" horiz-adv-x="2017" 
d="M899 1767l195 -245h-152l-301 245h258zM1987 1434l-431 -1434h-208l-336 1073h-6l-336 -1073h-209l-430 1434h237l295 -1094h4l336 1094h211l336 -1094h4l295 1094h238z" />
    <glyph glyph-name="wgrave" unicode="&#x1e81;" horiz-adv-x="1476" 
d="M815 1133h-156l-297 315h261zM1245 946h221l-317 -946h-184l-226 678l-227 -678h-184l-318 946h221l191 -682l219 682h195l219 -682z" />
    <glyph glyph-name="Wacute" unicode="&#x1e82;" horiz-adv-x="2017" 
d="M1378 1767l-301 -245h-151l194 245h258zM1987 1434l-431 -1434h-208l-336 1073h-6l-336 -1073h-209l-430 1434h237l295 -1094h4l336 1094h211l336 -1094h4l295 1094h238z" />
    <glyph glyph-name="wacute" unicode="&#x1e83;" horiz-adv-x="1476" 
d="M1112 1448l-295 -315h-158l195 315h258zM1245 946h221l-317 -946h-184l-226 678l-227 -678h-184l-318 946h221l191 -682l219 682h195l219 -682z" />
    <glyph glyph-name="Wdieresis" unicode="&#x1e84;" horiz-adv-x="2017" 
d="M903 1735v-213h-217v213h217zM1333 1735v-213h-217v213h217zM1987 1434l-431 -1434h-208l-336 1073h-6l-336 -1073h-209l-430 1434h237l295 -1094h4l336 1094h211l336 -1094h4l295 1094h238z" />
    <glyph glyph-name="wdieresis" unicode="&#x1e85;" horiz-adv-x="1476" 
d="M647 1413v-246h-205v246h205zM1032 1413v-246h-205v246h205zM1245 946h221l-317 -946h-184l-226 678l-227 -678h-184l-318 946h221l191 -682l219 682h195l219 -682z" />
    <glyph glyph-name="Ygrave" unicode="&#x1ef2;" horiz-adv-x="1112" 
d="M641 1522h-152l-301 245h258zM1112 1434l-448 -859v-575h-215v573l-449 861h248l305 -633h6l305 633h248z" />
    <glyph glyph-name="ygrave" unicode="&#x1ef3;" horiz-adv-x="993" 
d="M584 1133h-156l-297 315h260zM762 946h221l-590 -1356h-213l228 496l-398 860h240l260 -620z" />
    <glyph glyph-name="endash" unicode="&#x2013;" horiz-adv-x="1540" 
d="M1438 639v-180h-1336v180h1336z" />
    <glyph glyph-name="emdash" unicode="&#x2014;" horiz-adv-x="2363" 
d="M2261 639v-180h-2159v180h2159z" />
    <glyph glyph-name="quoteleft" unicode="&#x2018;" horiz-adv-x="364" 
d="M293 1513l-109 -301h92v-215h-215v215l160 301h72z" />
    <glyph glyph-name="quoteright" unicode="&#x2019;" horiz-adv-x="364" 
d="M88 1464h215v-215l-160 -301h-71l108 301h-92v215z" />
    <glyph glyph-name="quotesinglbase" unicode="&#x201a;" horiz-adv-x="364" 
d="M88 215h215v-215l-160 -301h-71l108 301h-92v215z" />
    <glyph glyph-name="quotedblleft" unicode="&#x201c;" horiz-adv-x="661" 
d="M221 1513h72l-109 -301h92v-215h-215v215zM590 1513l-109 -301h92v-215h-215v215l160 301h72z" />
    <glyph glyph-name="quotedblright" unicode="&#x201d;" horiz-adv-x="661" 
d="M88 1249v215h215v-215l-160 -301h-71l108 301h-92zM385 1464h215v-215l-160 -301h-71l108 301h-92v215z" />
    <glyph glyph-name="quotedblbase" unicode="&#x201e;" horiz-adv-x="661" 
d="M88 0v215h215v-215l-160 -301h-71l108 301h-92zM385 215h215v-215l-160 -301h-71l108 301h-92v215z" />
    <glyph glyph-name="dagger" unicode="&#x2020;" horiz-adv-x="1036" 
d="M934 977v-160h-328v-1007h-176v1007h-328v160h328v457h176v-457h328z" />
    <glyph glyph-name="daggerdbl" unicode="&#x2021;" horiz-adv-x="1032" 
d="M930 834h-326v-385h326v-160h-326v-479h-176v479h-326v160h326v385h-326v159h326v441h176v-441h326v-159z" />
    <glyph glyph-name="bullet" unicode="&#x2022;" horiz-adv-x="720" 
d="M360 977q97 0 162.5 -65t65.5 -162q0 -98 -65.5 -163t-162.5 -65t-162 65t-65 163q0 97 65 162t162 65z" />
    <glyph glyph-name="ellipsis" unicode="&#x2026;" horiz-adv-x="1435" 
d="M356 244v-244h-243v244h243zM840 244v-244h-244v244h244zM1323 244v-244h-244v244h244z" />
    <glyph glyph-name="perthousand" unicode="&#x2030;" horiz-adv-x="2281" 
d="M430 1413q145 0 236.5 -92.5t91.5 -235.5t-91.5 -235t-236.5 -92t-236.5 92t-91.5 235t91.5 235.5t236.5 92.5zM303 0l809 1382h117l-809 -1382h-117zM430 1298q-94 0 -149.5 -59t-55.5 -154t55.5 -154t149.5 -59t149.5 59t55.5 154t-55.5 154t-149.5 59zM1120 645
q145 0 236.5 -92.5t91.5 -235.5t-91.5 -235t-236.5 -92t-236 92t-91 235t91 235.5t236 92.5zM1851 645q145 0 236.5 -92.5t91.5 -235.5t-91.5 -235t-236.5 -92t-236 92t-91 235t91 235.5t236 92.5zM1120 530q-94 0 -149.5 -59t-55.5 -154t55.5 -154t149.5 -59t149.5 59
t55.5 154t-55.5 154t-149.5 59zM1851 530q-94 0 -149 -59t-55 -154t55 -154t149 -59t149.5 59t55.5 154t-55.5 154t-149.5 59z" />
    <glyph glyph-name="guilsinglleft" unicode="&#x2039;" horiz-adv-x="587" 
d="M567 805l-301 -326l301 -325h-225l-301 325l301 326h225z" />
    <glyph glyph-name="guilsinglright" unicode="&#x203a;" horiz-adv-x="587" 
d="M20 805h226l301 -326l-301 -325h-226l302 325z" />
    <glyph glyph-name="fraction" unicode="&#x2044;" horiz-adv-x="229" 
d="M-348 0l809 1382h117l-809 -1382h-117z" />
    <glyph glyph-name="uni2070" unicode="&#x2070;" horiz-adv-x="925" 
d="M463 692q-175 0 -278 126.5t-103 350.5t103 350t278 126t278 -126t103 -350t-103 -350.5t-278 -126.5zM463 868q93 0 144.5 82t51.5 219q0 138 -51 219.5t-145 81.5t-145.5 -81.5t-51.5 -219.5t51.5 -219.5t145.5 -81.5z" />
    <glyph glyph-name="uni2074" unicode="&#x2074;" horiz-adv-x="866" 
d="M805 1047v-177h-109v-157h-176v157h-479v146l457 610h198v-579h109zM246 1047h274v354h-6z" />
    <glyph glyph-name="uni2075" unicode="&#x2075;" horiz-adv-x="835" 
d="M403 692q-219 0 -331 152l129 131q79 -117 207 -117q78 0 119.5 42.5t41.5 119.5q0 70 -41 107.5t-112 37.5q-99 0 -154 -80h-147l63 541h492v-176h-355l-28 -190h4q68 53 162 53q132 0 216.5 -79t84.5 -226q0 -148 -92.5 -232t-258.5 -84z" />
    <glyph glyph-name="uni2076" unicode="&#x2076;" horiz-adv-x="819" 
d="M412 692q-150 0 -250.5 92.5t-100.5 245.5q0 93 28.5 164.5t98.5 169.5l209 281h232l-332 -375l4 -2q65 65 164 65q57 0 108 -19.5t93 -57t67 -100.5t25 -144q0 -61 -22 -117.5t-64 -102t-109 -73t-151 -27.5zM412 860q70 0 116.5 43.5t46.5 120.5q0 74 -46.5 116
t-116.5 42t-117 -42t-47 -116q0 -77 47 -120.5t117 -43.5z" />
    <glyph glyph-name="uni2077" unicode="&#x2077;" horiz-adv-x="708" 
d="M72 713l383 729h-424v184h626v-172l-381 -741h-204z" />
    <glyph glyph-name="uni2078" unicode="&#x2078;" horiz-adv-x="872" 
d="M436 692q-174 0 -264 72t-90 199q0 185 178 229v4q-71 21 -110 76.5t-39 128.5q0 115 84.5 179.5t240.5 64.5t241 -64.5t85 -179.5q0 -73 -39.5 -128.5t-110.5 -76.5v-4q179 -44 179 -229q0 -127 -90.5 -199t-264.5 -72zM436 1270q61 0 99 30t38 80q0 59 -37.5 89
t-99.5 30t-99.5 -30t-37.5 -89q0 -50 38 -80t99 -30zM436 850q73 0 118.5 38.5t45.5 98.5q0 58 -44.5 96.5t-119.5 38.5t-119.5 -38.5t-44.5 -96.5q0 -60 45.5 -98.5t118.5 -38.5z" />
    <glyph glyph-name="uni2079" unicode="&#x2079;" horiz-adv-x="827" 
d="M190 713l334 348l-4 4q-81 -61 -172 -61q-117 0 -202 88.5t-85 220.5q0 138 96.5 235t254.5 97q154 0 254 -94t100 -253q0 -186 -166 -378l-180 -207h-230zM414 1147q72 0 120 44t48 120q0 77 -48 121.5t-120 44.5t-120 -44.5t-48 -121.5q0 -76 48 -120t120 -44z" />
    <glyph glyph-name="uni2080" unicode="&#x2080;" horiz-adv-x="925" 
d="M463 -246q-175 0 -278 126.5t-103 350.5t103 350t278 126t278 -126t103 -350t-103 -350.5t-278 -126.5zM463 -70q93 0 144.5 82t51.5 219q0 138 -51 219.5t-145 81.5t-145.5 -81.5t-51.5 -219.5t51.5 -219.5t145.5 -81.5z" />
    <glyph glyph-name="uni2081" unicode="&#x2081;" horiz-adv-x="503" 
d="M164 -225v733h-51v180h247v-913h-196z" />
    <glyph glyph-name="uni2082" unicode="&#x2082;" horiz-adv-x="800" 
d="M80 -225v164l340 303q70 63 96.5 101.5t26.5 86.5q0 52 -37 81.5t-100 29.5q-66 0 -109.5 -35.5t-44.5 -114.5h-180q0 155 89 236.5t249 81.5q153 0 235 -73t82 -200q0 -87 -41.5 -156t-118.5 -137l-229 -194h401v-174h-659z" />
    <glyph glyph-name="uni2083" unicode="&#x2083;" horiz-adv-x="833" 
d="M408 -246q-333 0 -336 289h180q7 -121 164 -121q166 0 166 131q0 70 -55.5 95.5t-178.5 27.5v150q110 1 157.5 27.5t47.5 78.5q0 105 -137 105q-147 0 -152 -123h-180q0 138 88.5 215.5t251.5 77.5q149 0 232 -64.5t83 -173.5q0 -78 -45 -133t-131 -68v-4
q199 -28 199 -225q0 -129 -86.5 -207t-267.5 -78z" />
    <glyph glyph-name="uni2084" unicode="&#x2084;" horiz-adv-x="866" 
d="M805 109v-177h-109v-157h-176v157h-479v146l457 610h198v-579h109zM246 109h274v354h-6z" />
    <glyph glyph-name="uni2085" unicode="&#x2085;" horiz-adv-x="835" 
d="M403 -246q-219 0 -331 152l129 131q79 -117 207 -117q78 0 119.5 42.5t41.5 119.5q0 70 -41 107.5t-112 37.5q-99 0 -154 -80h-147l63 541h492v-176h-355l-28 -190h4q68 53 162 53q132 0 216.5 -79t84.5 -226q0 -148 -92.5 -232t-258.5 -84z" />
    <glyph glyph-name="uni2086" unicode="&#x2086;" horiz-adv-x="819" 
d="M412 -246q-150 0 -250.5 92.5t-100.5 245.5q0 93 28.5 164.5t98.5 169.5l209 281h232l-332 -375l4 -2q65 65 164 65q57 0 108 -19.5t93 -57t67 -100.5t25 -144q0 -61 -22 -117.5t-64 -102t-109 -73t-151 -27.5zM412 -78q70 0 116.5 43.5t46.5 120.5q0 74 -46.5 116
t-116.5 42t-117 -42t-47 -116q0 -77 47 -120.5t117 -43.5z" />
    <glyph glyph-name="uni2087" unicode="&#x2087;" horiz-adv-x="708" 
d="M72 -225l383 729h-424v184h626v-172l-381 -741h-204z" />
    <glyph glyph-name="uni2088" unicode="&#x2088;" horiz-adv-x="872" 
d="M436 -246q-174 0 -264 72t-90 199q0 185 178 229v4q-71 21 -110 76.5t-39 128.5q0 115 84.5 179.5t240.5 64.5t241 -64.5t85 -179.5q0 -73 -39.5 -128.5t-110.5 -76.5v-4q179 -44 179 -229q0 -127 -90.5 -199t-264.5 -72zM436 332q61 0 99 30t38 80q0 59 -37.5 89
t-99.5 30t-99.5 -30t-37.5 -89q0 -50 38 -80t99 -30zM436 -88q73 0 118.5 38.5t45.5 98.5q0 58 -44.5 96.5t-119.5 38.5t-119.5 -38.5t-44.5 -96.5q0 -60 45.5 -98.5t118.5 -38.5z" />
    <glyph glyph-name="uni2089" unicode="&#x2089;" horiz-adv-x="827" 
d="M190 -225l334 348l-4 4q-81 -61 -172 -61q-117 0 -202 88.5t-85 220.5q0 138 96.5 235t254.5 97q154 0 254 -94t100 -253q0 -186 -166 -378l-180 -207h-230zM414 209q72 0 120 44t48 120q0 77 -48 121.5t-120 44.5t-120 -44.5t-48 -121.5q0 -76 48 -120t120 -44z" />
    <glyph glyph-name="TRY" unicode="&#x20a4;" horiz-adv-x="1241" 
d="M969 670h190q0 -150 -48 -275.5t-133 -212t-205 -134.5t-261 -48h-188v604l-242 -106v63l242 107v114l-242 -106v63l242 107v536h200v-450l402 176v-64l-402 -176v-114l402 176v-64l-402 -176v-481q205 0 325 123t120 338z" />
    <glyph glyph-name="uni20A9" unicode="&#x20a9;" horiz-adv-x="1996" 
d="M1956 799h-197l-39 -140h236v-61h-252l-164 -598h-223l-172 598h-293l-172 -598h-223l-164 598h-252v61h235l-38 140h-197v61h180l-143 522h229l123 -522h301l152 522h231l152 -522h301l123 522h229l-143 -522h180v-61zM995 1094l-67 -234h141l-68 234h-6zM444 799
l33 -140h197l41 140h-271zM870 659h256l-39 140h-178zM1520 659l32 140h-270l41 -140h197zM567 291l88 307h-163l71 -307h4zM1434 291l71 307h-164l89 -307h4z" />
    <glyph glyph-name="Euro" unicode="&#x20ac;" horiz-adv-x="1347" 
d="M449 580q25 -195 137 -307.5t291 -112.5q168 0 333 98v-217q-150 -70 -325 -70q-149 0 -267.5 47.5t-196 131.5t-123.5 192.5t-60 237.5h-228l31 61h192q-2 16 -2 51q0 47 2 70h-213l31 61h189q16 126 62.5 231t124 186.5t194.5 127t262 45.5q222 0 403 -115l-86 -168
q-163 95 -321 95q-176 0 -287 -107t-141 -295h622l-31 -61h-600q-2 -23 -2 -70q0 -35 2 -51h543l-31 -61h-505z" />
    <glyph glyph-name="uni20AE" unicode="&#x20ae;" horiz-adv-x="1089" 
d="M1049 1194h-404v-281l260 134v-64l-260 -133v-115l260 133v-63l-260 -133v-672h-201v569l-260 -133v64l260 133v115l-260 -134v64l260 133v383h-403v188h1008v-188z" />
    <glyph glyph-name="uni20B4" unicode="&#x20b4;" horiz-adv-x="1064" 
d="M784 809q-34 -29 -51 -41l-133 -98h424v-62h-506l-45 -33q-143 -110 -143 -225q0 -81 64 -135.5t190 -54.5q78 0 161.5 26.5t217.5 89.5v-198q-204 -109 -414 -109q-204 0 -316 97t-112 270q0 156 104 272h-184v62h246q30 27 69 55l115 84h-430v61h512l53 39
q107 76 107 172q0 61 -51 102.5t-148 41.5q-109 0 -334 -84v196q209 76 363 76q186 0 282.5 -85.5t96.5 -235.5q0 -129 -76 -222h178v-61h-240z" />
    <glyph glyph-name="uni20B8" unicode="&#x20b8;" horiz-adv-x="1089" 
d="M41 1382h1008v-188h-1008v188zM41 887v188h1008v-188h-404v-887h-201v887h-403z" />
    <glyph glyph-name="uni20B9" unicode="&#x20b9;" horiz-adv-x="1058" 
d="M604 1321q84 -47 134 -125t57 -180h182l-45 -62h-135q-10 -165 -133 -267.5t-302 -102.5h-30l504 -584h-261l-493 584v192h276q100 0 160 49.5t68 128.5h-504v62h504q-11 78 -70.5 126t-157.5 48h-276v192h272h623l-45 -61h-328z" />
    <glyph glyph-name="uni20BD" unicode="&#x20bd;" horiz-adv-x="1257" 
d="M750 575h-258v-145h448v-61h-448v-369h-201v369h-209v61h209v145h-209v189h209v618h459q199 0 312.5 -115.5t113.5 -293.5q0 -177 -113 -287.5t-313 -110.5zM492 1194v-430h258q101 0 159 53.5t58 157.5t-58.5 161.5t-158.5 57.5h-258z" />
    <glyph glyph-name="uni2113" unicode="&#x2113;" horiz-adv-x="933" 
d="M391 594q5 -235 50 -338.5t149 -103.5q50 0 100.5 16.5t134.5 56.5v-184q-9 -4 -34 -14.5t-34.5 -14t-30.5 -11.5t-35 -11l-35 -7.5t-42 -6t-45 -1.5q-172 0 -253 126.5t-93 424.5q-82 -32 -141 -49v172q77 26 139 51q3 168 23.5 294.5t53 205.5t80.5 127.5t99.5 67
t116.5 18.5q116 0 187 -77.5t71 -202.5q0 -325 -461 -539zM586 1251q-171 0 -193 -469q285 155 285 353q0 57 -24 86.5t-68 29.5z" />
    <glyph glyph-name="uni2116" unicode="&#x2116;" horiz-adv-x="2314" 
d="M1288 1434v-1434h-223l-705 1071h-4v-1071h-213v1434h224l704 -1072h4v1072h213zM1806 1153q189 0 307.5 -118.5t118.5 -307.5t-118.5 -306.5t-307.5 -117.5t-306.5 117.5t-117.5 306.5t117.5 307.5t306.5 118.5zM1808 981q-109 0 -179 -72t-70 -182q0 -111 70.5 -183.5
t178.5 -72.5q107 0 177.5 73t70.5 183t-70.5 182t-177.5 72zM2187 168v-168h-760v168h760z" />
    <glyph glyph-name="trademark" unicode="&#x2122;" horiz-adv-x="1720" 
d="M672 1298h-236v-727h-139v727h-236v136h611v-136zM1485 1434l174 -863h-148l-116 570l-187 -439h-114l-187 439l-116 -570h-148l174 863h123l211 -521l211 521h123z" />
    <glyph glyph-name="estimated" unicode="&#x212e;" horiz-adv-x="1583" 
d="M72 623q0 176 96.5 325t262 235.5t360.5 86.5q196 0 362 -86.5t262 -235.5t96 -325v-19h-1175v-287q0 -68 27.5 -124.5t78.5 -88.5q139 -92 353 -92q151 0 285 57t223 158h59q-101 -118 -252.5 -185t-318.5 -67q-146 0 -279.5 51.5t-229.5 138t-153 206.5t-57 252z
M1157 1130q-133 103 -362 103q-217 0 -353 -94q-106 -71 -106 -174v-324h911v311q0 109 -90 178z" />
    <glyph glyph-name="uni2153" unicode="&#x2153;" horiz-adv-x="1429" 
d="M276 1382v-790h-116v674h-78v116h194zM113 0l809 1382h116l-809 -1382h-116zM1063 809q125 0 191.5 -55t66.5 -150q0 -142 -147 -178v-2q174 -27 174 -205q0 -108 -72 -172.5t-223 -64.5q-132 0 -208.5 62.5t-82.5 176.5h125q9 -60 48 -90.5t118 -30.5q172 0 172 131
q0 69 -57 99t-171 30v111q199 3 199 115q0 104 -135 104q-68 0 -111 -31t-47 -96h-121q7 120 79.5 183t201.5 63z" />
    <glyph glyph-name="uni2154" unicode="&#x2154;" horiz-adv-x="1751" 
d="M369 1401q127 0 193.5 -65t66.5 -173q0 -71 -35 -128.5t-105 -121.5l-223 -206h363v-115h-535l-2 104l301 285q53 49 82 91t29 89q0 53 -35 87t-98 34q-142 0 -158 -139h-119q6 127 79 192.5t196 65.5zM434 0l809 1382h117l-809 -1382h-117zM1384 809q125 0 191.5 -55
t66.5 -150q0 -142 -147 -178v-2q174 -27 174 -205q0 -108 -72 -172.5t-223 -64.5q-132 0 -208.5 62.5t-82.5 176.5h125q9 -60 48 -90.5t118 -30.5q172 0 172 131q0 69 -56.5 99t-170.5 30v111q199 3 199 115q0 104 -136 104q-68 0 -110.5 -31t-46.5 -96h-121q7 120 79 183
t201 63z" />
    <glyph glyph-name="oneeighth" unicode="&#x215b;" horiz-adv-x="1435" 
d="M276 1382v-790h-116v674h-78v116h194zM113 0l809 1382h116l-809 -1382h-116zM1053 -18q-137 0 -214 65.5t-77 169.5q0 155 149 199v4q-57 20 -90 65t-33 113q0 96 71 153.5t194 57.5t193.5 -57.5t70.5 -153.5q0 -68 -33 -113t-90 -65v-4q149 -44 149 -199
q0 -104 -76.5 -169.5t-213.5 -65.5zM1053 471q61 0 100 30t39 81t-38.5 79.5t-100.5 28.5t-101 -28.5t-39 -79.5t39 -81t101 -30zM1053 100q82 0 125 34t43 99q0 64 -43.5 99t-124.5 35t-124.5 -35t-43.5 -99q0 -65 43 -99t125 -34z" />
    <glyph glyph-name="threeeighths" unicode="&#x215c;" horiz-adv-x="1734" 
d="M373 1401q125 0 191.5 -55t66.5 -150q0 -142 -148 -178v-2q174 -27 174 -205q0 -108 -72 -173t-223 -65q-132 0 -208 63t-82 177h125q9 -60 47.5 -90.5t117.5 -30.5q173 0 173 131q0 69 -57 99t-171 30v111q199 3 199 115q0 104 -135 104q-68 0 -111 -31t-47 -96h-121
q7 120 79.5 183t201.5 63zM412 0l809 1382h116l-809 -1382h-116zM1352 -18q-137 0 -214 65.5t-77 169.5q0 155 149 199v4q-57 20 -90 65t-33 113q0 96 71 153.5t194 57.5t193.5 -57.5t70.5 -153.5q0 -68 -33 -113t-90 -65v-4q149 -44 149 -199q0 -104 -76.5 -169.5
t-213.5 -65.5zM1352 471q61 0 100 30t39 81t-38.5 79.5t-100.5 28.5t-101 -28.5t-39 -79.5t39 -81t101 -30zM1352 100q82 0 125 34t43 99q0 64 -43.5 99t-124.5 35t-124.5 -35t-43.5 -99q0 -65 43 -99t125 -34z" />
    <glyph glyph-name="fiveeighths" unicode="&#x215d;" horiz-adv-x="1679" 
d="M389 1112q101 0 172.5 -70.5t71.5 -195.5q0 -131 -79.5 -202t-207.5 -71q-190 0 -285 146l93 80q38 -55 82.5 -81t109.5 -26q76 0 120 41.5t44 112.5q0 69 -41 112t-107 43q-59 0 -93 -18t-66 -55h-105l56 454h426v-116h-338l-29 -219h6q65 65 170 65zM356 0l809 1382
h117l-809 -1382h-117zM1296 -18q-137 0 -213.5 65.5t-76.5 169.5q0 155 149 199v4q-57 20 -90 65t-33 113q0 96 70.5 153.5t193.5 57.5t194 -57.5t71 -153.5q0 -68 -33 -113t-90 -65v-4q149 -44 149 -199q0 -104 -77 -169.5t-214 -65.5zM1296 471q62 0 101 30t39 81
t-39 79.5t-101 28.5t-100.5 -28.5t-38.5 -79.5t39 -81t100 -30zM1296 100q82 0 125 34t43 99q0 64 -43.5 99t-124.5 35t-124.5 -35t-43.5 -99q0 -65 43 -99t125 -34z" />
    <glyph glyph-name="seveneighths" unicode="&#x215e;" horiz-adv-x="1513" 
d="M559 1382v-114l-352 -676h-129l354 670h-391v120h518zM190 0l809 1382h117l-809 -1382h-117zM1130 -18q-137 0 -213.5 65.5t-76.5 169.5q0 155 149 199v4q-57 20 -90 65t-33 113q0 96 70.5 153.5t193.5 57.5t194 -57.5t71 -153.5q0 -68 -33 -113t-90 -65v-4
q149 -44 149 -199q0 -104 -77 -169.5t-214 -65.5zM1130 471q62 0 101 30t39 81t-39 79.5t-101 28.5t-100.5 -28.5t-38.5 -79.5t39 -81t100 -30zM1130 100q82 0 125 34t43 99q0 64 -43.5 99t-124.5 35t-124 -35t-43 -99q0 -65 42.5 -99t124.5 -34z" />
    <glyph glyph-name="arrowleft" unicode="&#x2190;" horiz-adv-x="1675" 
d="M1573 684v-180h-1139l420 -416l-137 -139l-615 645l615 645l137 -139l-420 -416h1139z" />
    <glyph glyph-name="arrowup" unicode="&#x2191;" horiz-adv-x="1495" 
d="M1393 694l-140 -137l-415 420v-1139h-181v1139l-415 -420l-140 137l646 615z" />
    <glyph glyph-name="arrowright" unicode="&#x2192;" horiz-adv-x="1675" 
d="M958 1241l615 -645l-615 -645l-137 139l420 416h-1139v180h1139l-420 416z" />
    <glyph glyph-name="arrowdown" unicode="&#x2193;" horiz-adv-x="1495" 
d="M1253 633l140 -137l-645 -615l-646 615l140 137l415 -420v1139h181v-1139z" />
    <glyph glyph-name="arrowboth" unicode="&#x2194;" horiz-adv-x="2574" 
d="M1858 1239l614 -645l-614 -645l-138 139l420 416h-1139h-567l420 -416l-137 -139l-615 645l615 645l137 -139l-420 -416h1139h567l-420 416z" />
    <glyph glyph-name="arrowupdn" unicode="&#x2195;" horiz-adv-x="1495" 
d="M838 -141l415 420l140 -138l-645 -614l-646 614l140 138l415 -420v1138v359l-415 -420l-140 137l646 615l645 -615l-140 -137l-415 420v-1139v-358z" />
    <glyph glyph-name="uni2196" unicode="&#x2196;" horiz-adv-x="1329" 
d="M1227 125l-127 -127l-807 807l4 -594l-195 -2l21 891l891 22l-2 -196l-590 4z" />
    <glyph glyph-name="uni2197" unicode="&#x2197;" horiz-adv-x="1329" 
d="M1227 209l-197 2l4 590l-805 -805l-127 127l807 807l-594 -4l-2 194l891 -20z" />
    <glyph glyph-name="uni2198" unicode="&#x2198;" horiz-adv-x="1329" 
d="M1032 977l195 2l-21 -891l-891 -22l2 196l590 -4l-805 805l127 127l807 -807z" />
    <glyph glyph-name="uni2199" unicode="&#x2199;" horiz-adv-x="1329" 
d="M420 258l594 4l2 -194l-891 20l-23 891l197 -2l-4 -590l805 805l127 -127z" />
    <glyph glyph-name="partialdiff" unicode="&#x2202;" horiz-adv-x="1173" 
d="M487 1464q129 0 236.5 -43.5t191 -131t130.5 -232t47 -334.5q0 -124 -20 -235t-63 -206.5t-105.5 -164.5t-152.5 -108.5t-200 -39.5q-211 0 -340 132t-129 343q0 144 64 254.5t172.5 168t242.5 57.5q208 0 336 -142q-15 238 -126 364t-290 126q-126 0 -274 -72l-80 178
q168 86 360 86zM565 158q66 0 119.5 24.5t88 63t59.5 93.5t38 107.5t21 112.5q-49 74 -131 124t-189 50q-133 0 -210.5 -81t-77.5 -210q0 -130 79 -207t203 -77z" />
    <glyph glyph-name="emptyset" unicode="&#x2205;" 
d="M979 987q123 -132 123 -323q0 -204 -139.5 -340t-348.5 -136q-188 0 -323 113l-115 -115l-39 41l113 113q-123 132 -123 324q0 204 139 339.5t348 135.5q190 0 322 -113l115 115l41 -41zM328 664q0 -108 61 -185l410 410q-74 61 -185 61q-127 0 -206.5 -80.5
t-79.5 -205.5zM614 377q127 0 207 81t80 206q0 107 -61 184l-412 -410q77 -61 186 -61z" />
    <glyph glyph-name="product" unicode="&#x220f;" horiz-adv-x="1454" 
d="M1413 1434v-185h-248v-1409h-188v1409h-500v-1409h-188v1409h-248v185h1372z" />
    <glyph glyph-name="summation" unicode="&#x2211;" horiz-adv-x="1128" 
d="M1047 1434v-189h-725l542 -641l-542 -641h725v-188h-965v190l543 639l-543 639v191h965z" />
    <glyph glyph-name="minus" unicode="&#x2212;" 
d="M1104 659v-98h-979v98h979z" />
    <glyph glyph-name="radical" unicode="&#x221a;" horiz-adv-x="1239" 
d="M1010 1464h188l-463 -1464h-182l-311 772h-201v174h319l273 -688z" />
    <glyph glyph-name="infinity" unicode="&#x221e;" horiz-adv-x="1556" 
d="M1188 922q147 0 237.5 -85t90.5 -229t-90 -228.5t-238 -84.5q-65 0 -123 19t-110.5 58t-89.5 75.5t-87 93.5q-49 -57 -86 -93.5t-88.5 -75.5t-109.5 -58t-123 -19q-149 0 -239.5 84.5t-90.5 228.5t90.5 229t239.5 85q65 0 123 -19t109.5 -58t88.5 -75.5t86 -93.5
q50 57 87 93.5t89.5 75.5t110.5 58t123 19zM371 834q-106 0 -172 -62.5t-66 -163.5t66 -163t172 -62q53 0 101.5 17t93 52t78 69.5t77.5 86.5q-44 53 -77.5 87t-78.5 69t-93 52.5t-101 17.5zM1188 834q-53 0 -101 -17t-93 -53t-77.5 -69t-78.5 -87q46 -53 79 -86.5t77.5 -69
t92.5 -52.5t101 -17q105 0 170 62t65 163t-65.5 163.5t-169.5 62.5z" />
    <glyph glyph-name="integral" unicode="&#x222b;" horiz-adv-x="778" 
d="M696 1464v-180q-105 0 -159 -52.5t-54 -170.5v-1122q0 -184 -103 -281.5t-298 -97.5v180q101 2 154 54t53 169v1122q0 185 104 282t303 97z" />
    <glyph glyph-name="approxequal" unicode="&#x2248;" 
d="M344 913q56 0 135 -25t145.5 -55.5t140 -55.5t118.5 -25q113 0 161 139h95q-32 -124 -99.5 -183t-154.5 -59q-57 0 -136.5 25.5t-145.5 55.5t-139 55.5t-118 25.5q-114 0 -162 -139h-94q32 124 100.5 182.5t153.5 58.5zM344 608q70 0 176 -40.5t206.5 -81t156.5 -40.5
q112 0 161 142h95q-32 -124 -99.5 -183t-154.5 -59q-57 0 -136.5 25t-145.5 55t-139 55t-118 25q-114 0 -162 -141h-94q32 125 100.5 184t153.5 59z" />
    <glyph glyph-name="notequal" unicode="&#x2260;" 
d="M1133 758h-381l-174 -289h555v-98h-613l-121 -201h-96l119 201h-326v98h385l172 289h-557v98h617l116 197h99l-117 -197h322v-98z" />
    <glyph glyph-name="lessequal" unicode="&#x2264;" 
d="M1071 1001v-102l-778 -201l778 -196v-105l-921 250v105zM1083 319v-94h-938v94h938z" />
    <glyph glyph-name="greaterequal" unicode="&#x2265;" 
d="M158 1001l921 -249v-105l-921 -250v105l778 196l-778 201v102zM145 319h938v-94h-938v94z" />
    <glyph glyph-name="uni2460" unicode="&#x2460;" horiz-adv-x="1699" 
d="M850 -31q-217 0 -388 96.5t-265.5 267t-94.5 384.5q0 160 55.5 298.5t153 237t237 155t302.5 56.5q217 0 387.5 -96t265 -266.5t94.5 -384.5t-94.5 -384.5t-265 -267t-387.5 -96.5zM850 92q131 0 245.5 47.5t195.5 130.5t127 199t46 248q0 177 -78.5 319.5t-219.5 223.5
t-316 81t-316 -81t-219.5 -223.5t-78.5 -319.5q0 -132 46 -248t127 -199t195.5 -130.5t245.5 -47.5zM811 332v674h-78v116h195v-790h-117z" />
    <glyph glyph-name="uni2461" unicode="&#x2461;" horiz-adv-x="1699" 
d="M850 -31q-217 0 -388 96.5t-265.5 267t-94.5 384.5q0 160 55.5 298.5t153 237t237 155t302.5 56.5q217 0 387.5 -96t265 -266.5t94.5 -384.5t-94.5 -384.5t-265 -267t-387.5 -96.5zM850 92q131 0 245.5 47.5t195.5 130.5t127 199t46 248q0 177 -78.5 319.5t-219.5 223.5
t-316 81t-316 -81t-219.5 -223.5t-78.5 -319.5q0 -132 46 -248t127 -199t195.5 -130.5t245.5 -47.5zM608 360l-2 105l301 285q53 49 82 91t29 89q0 53 -35 87t-98 34q-141 0 -158 -121h-119q6 115 77.5 177t197.5 62q127 0 193.5 -64.5t66.5 -172.5q0 -70 -34.5 -126.5
t-104.5 -123.5l-224 -207h363v-115h-535z" />
    <glyph glyph-name="uni2462" unicode="&#x2462;" horiz-adv-x="1699" 
d="M850 -31q-217 0 -388 96.5t-265.5 267t-94.5 384.5q0 160 55.5 298.5t153 237t237 155t302.5 56.5q217 0 387.5 -96t265 -266.5t94.5 -384.5t-94.5 -384.5t-265 -267t-387.5 -96.5zM850 92q131 0 245.5 47.5t195.5 130.5t127 199t46 248q0 177 -78.5 319.5t-219.5 223.5
t-316 81t-316 -81t-219.5 -223.5t-78.5 -319.5q0 -132 46 -248t127 -199t195.5 -130.5t245.5 -47.5zM850 311q-128 0 -206.5 62.5t-84.5 177.5h125q6 -59 48.5 -90t117.5 -31q172 0 172 131q0 69 -56.5 99t-170.5 30v111q95 2 141.5 29t46.5 85q0 49 -33 77t-98 28
q-132 0 -141 -102h-121q8 104 74 162.5t190 58.5q120 0 187 -57t67 -148q0 -65 -36 -113t-101 -65v-2q174 -27 174 -205q0 -108 -72 -173t-223 -65z" />
    <glyph glyph-name="uni2463" unicode="&#x2463;" horiz-adv-x="1699" 
d="M850 1464q217 0 387.5 -96t265 -266.5t94.5 -384.5t-94.5 -384.5t-265 -267t-387.5 -96.5t-388 96.5t-265.5 267t-94.5 384.5q0 160 55.5 298.5t153 237t237 155t302.5 56.5zM850 92q131 0 245.5 47.5t195.5 130.5t127 199t46 248q0 177 -78.5 319.5t-219.5 223.5
t-316 81t-316 -81t-219.5 -223.5t-78.5 -319.5q0 -132 46 -248t127 -199t195.5 -130.5t245.5 -47.5zM1042 1124v-526h105v-115h-105v-149h-120v149h-416v109l377 532h159zM639 598h283v397h-4z" />
    <glyph glyph-name="uni2464" unicode="&#x2464;" horiz-adv-x="1699" 
d="M850 -31q-217 0 -388 96.5t-265.5 267t-94.5 384.5q0 160 55.5 298.5t153 237t237 155t302.5 56.5q217 0 387.5 -96t265 -266.5t94.5 -384.5t-94.5 -384.5t-265 -267t-387.5 -96.5zM850 92q131 0 245.5 47.5t195.5 130.5t127 199t46 248q0 177 -78.5 319.5t-219.5 223.5
t-316 81t-316 -81t-219.5 -223.5t-78.5 -319.5q0 -132 46 -248t127 -199t195.5 -130.5t245.5 -47.5zM858 311q-190 0 -285 146l93 80q38 -55 82.5 -81t109.5 -26q76 0 120 41.5t44 112.5q0 69 -41 112t-107 43q-93 0 -159 -73h-105l56 454h426v-116h-338l-29 -220h6
q66 66 170 66q101 0 172.5 -70.5t71.5 -195.5q0 -131 -79.5 -202t-207.5 -71z" />
    <glyph glyph-name="uni2465" unicode="&#x2465;" horiz-adv-x="1699" 
d="M850 -31q-217 0 -388 96.5t-265.5 267t-94.5 384.5q0 160 55.5 298.5t153 237t237 155t302.5 56.5q217 0 387.5 -96t265 -266.5t94.5 -384.5t-94.5 -384.5t-265 -267t-387.5 -96.5zM850 92q131 0 245.5 47.5t195.5 130.5t127 199t46 248q0 177 -78.5 319.5t-219.5 223.5
t-316 81t-316 -81t-219.5 -223.5t-78.5 -319.5q0 -132 46 -248t127 -199t195.5 -130.5t245.5 -47.5zM850 313q-127 0 -210 76.5t-83 220.5q0 67 22.5 130t43.5 94t61 81l180 226h152l-285 -334l2 -2q69 55 150 55q108 0 181 -70.5t73 -191.5q0 -123 -76.5 -204t-210.5 -81z
M848 432q72 0 119 43t47 117q0 73 -47.5 116.5t-118.5 43.5q-72 0 -120 -43.5t-48 -116.5q0 -74 47.5 -117t120.5 -43z" />
    <glyph glyph-name="uni2466" unicode="&#x2466;" horiz-adv-x="1699" 
d="M850 -31q-217 0 -388 96.5t-265.5 267t-94.5 384.5q0 160 55.5 298.5t153 237t237 155t302.5 56.5q217 0 387.5 -96t265 -266.5t94.5 -384.5t-94.5 -384.5t-265 -267t-387.5 -96.5zM850 92q131 0 245.5 47.5t195.5 130.5t127 199t46 248q0 177 -78.5 319.5t-219.5 223.5
t-316 81t-316 -81t-219.5 -223.5t-78.5 -319.5q0 -132 46 -248t127 -199t195.5 -130.5t245.5 -47.5zM668 313l350 670h-387v121h518v-115l-352 -676h-129z" />
    <glyph glyph-name="uni2467" unicode="&#x2467;" horiz-adv-x="1699" 
d="M850 -31q-217 0 -388 96.5t-265.5 267t-94.5 384.5q0 160 55.5 298.5t153 237t237 155t302.5 56.5q217 0 387.5 -96t265 -266.5t94.5 -384.5t-94.5 -384.5t-265 -267t-387.5 -96.5zM850 92q131 0 245.5 47.5t195.5 130.5t127 199t46 248q0 177 -78.5 319.5t-219.5 223.5
t-316 81t-316 -81t-219.5 -223.5t-78.5 -319.5q0 -132 46 -248t127 -199t195.5 -130.5t245.5 -47.5zM852 315q-137 0 -214 66t-77 170q0 75 40 126.5t110 72.5v4q-55 19 -89 66.5t-34 111.5q0 96 70.5 153.5t193.5 57.5t193.5 -57.5t70.5 -153.5q0 -64 -34 -111.5t-89 -66.5
v-4q70 -21 110 -72.5t40 -126.5q0 -104 -77 -170t-214 -66zM852 805q62 0 100.5 29.5t38.5 80.5t-38.5 80t-100.5 29t-100.5 -29t-38.5 -80t38.5 -80.5t100.5 -29.5zM852 434q82 0 125 34t43 99q0 63 -43.5 98t-124.5 35t-124.5 -35t-43.5 -98q0 -65 43 -99t125 -34z" />
    <glyph glyph-name="uni2468" unicode="&#x2468;" horiz-adv-x="1699" 
d="M850 -31q-217 0 -388 96.5t-265.5 267t-94.5 384.5q0 160 55.5 298.5t153 237t237 155t302.5 56.5q217 0 387.5 -96t265 -266.5t94.5 -384.5t-94.5 -384.5t-265 -267t-387.5 -96.5zM850 92q131 0 245.5 47.5t195.5 130.5t127 199t46 248q0 177 -78.5 319.5t-219.5 223.5
t-316 81t-316 -81t-219.5 -223.5t-78.5 -319.5q0 -132 46 -248t127 -199t195.5 -130.5t245.5 -47.5zM696 317l289 312l-2 4q-48 -32 -83 -46t-77 -14q-105 0 -175 76.5t-70 190.5q0 124 79 204t215 80q133 0 214 -78t81 -219q0 -157 -114 -286l-195 -224h-162zM872 680
q78 0 125 45t47 119q0 73 -46.5 117.5t-123.5 44.5q-76 0 -125 -46t-49 -120q0 -72 47.5 -116t124.5 -44z" />
    <glyph glyph-name="uni24EA" unicode="&#x24ea;" horiz-adv-x="1699" 
d="M850 -31q-217 0 -388 96.5t-265.5 267t-94.5 384.5q0 160 55.5 298.5t153 237t237 155t302.5 56.5q217 0 387.5 -96t265 -266.5t94.5 -384.5t-94.5 -384.5t-265 -267t-387.5 -96.5zM850 92q131 0 245.5 47.5t195.5 130.5t127 199t46 248q0 177 -78.5 319.5t-219.5 223.5
t-316 81t-316 -81t-219.5 -223.5t-78.5 -319.5q0 -132 46 -248t127 -199t195.5 -130.5t245.5 -47.5zM852 307q-159 0 -250.5 110t-91.5 306q0 194 91.5 303t250.5 109q155 0 246.5 -109.5t91.5 -302.5q0 -195 -91.5 -305.5t-246.5 -110.5zM850 428q101 0 157 79.5t56 215.5
q0 134 -56 213.5t-157 79.5q-100 0 -157.5 -80t-57.5 -213q0 -136 57 -215.5t158 -79.5z" />
    <glyph glyph-name="uni24FF" unicode="&#x24ff;" horiz-adv-x="1699" 
d="M850 -31q-159 0 -298 57.5t-237.5 156.5t-155.5 238t-57 296q0 210 96.5 381t268 268.5t383.5 97.5t383 -97.5t267.5 -268.5t96.5 -381t-96.5 -381.5t-267.5 -269t-383 -97.5zM852 307q155 0 246.5 110.5t91.5 305.5q0 193 -91.5 302.5t-246.5 109.5q-159 0 -250.5 -109
t-91.5 -303q0 -196 91.5 -306t250.5 -110zM850 428q-101 0 -158 79.5t-57 215.5q0 133 57.5 213t157.5 80q101 0 157 -79.5t56 -213.5q0 -136 -56 -215.5t-157 -79.5z" />
    <glyph glyph-name="lozenge" unicode="&#x25ca;" horiz-adv-x="1196" 
d="M709 1464l446 -747l-446 -748h-222l-446 748l446 747h222zM598 1305l-346 -588l346 -588l346 588z" />
    <glyph glyph-name="uni2776" unicode="&#x2776;" horiz-adv-x="1699" 
d="M850 -31q-159 0 -298 57.5t-237.5 156.5t-155.5 238t-57 296q0 210 96.5 381t268 268.5t383.5 97.5t383 -97.5t267.5 -268.5t96.5 -381t-96.5 -381.5t-267.5 -269t-383 -97.5zM811 334h117v790h-195v-116h78v-674z" />
    <glyph glyph-name="uni2777" unicode="&#x2777;" horiz-adv-x="1699" 
d="M850 -31q-159 0 -298 57.5t-237.5 156.5t-155.5 238t-57 296q0 210 96.5 381t268 268.5t383.5 97.5t383 -97.5t267.5 -268.5t96.5 -381t-96.5 -381.5t-267.5 -269t-383 -97.5zM584 352h534v115h-362l223 207q70 67 104.5 123.5t34.5 126.5q0 108 -66.5 172.5t-193.5 64.5
q-126 0 -197 -62t-77 -177h118q17 120 158 120q63 0 98 -33.5t35 -86.5q0 -48 -29 -90.5t-81 -90.5l-301 -284z" />
    <glyph glyph-name="uni2778" unicode="&#x2778;" horiz-adv-x="1699" 
d="M850 -31q-159 0 -298 57.5t-237.5 156.5t-155.5 238t-57 296q0 210 96.5 381t268 268.5t383.5 97.5t383 -97.5t267.5 -268.5t96.5 -381t-96.5 -381.5t-267.5 -269t-383 -97.5zM846 319q151 0 223 65t72 173q0 178 -174 205v2q65 17 101 65t36 113q0 91 -67 148t-187 57
q-124 0 -190 -58.5t-74 -162.5h121q9 102 141 102q66 0 98.5 -27.5t32.5 -76.5q0 -112 -188 -115v-111q114 0 170.5 -30t56.5 -99q0 -131 -172 -131q-75 0 -117.5 31t-48.5 90h-125q6 -115 84.5 -177.5t206.5 -62.5z" />
    <glyph glyph-name="uni2779" unicode="&#x2779;" horiz-adv-x="1699" 
d="M850 -31q-159 0 -298 57.5t-237.5 156.5t-155.5 238t-57 296q0 210 96.5 381t268 268.5t383.5 97.5t383 -97.5t267.5 -268.5t96.5 -381t-96.5 -381.5t-267.5 -269t-383 -97.5zM907 348h121v150h105v114h-105v527h-160l-376 -533v-108h415v-150zM625 612l278 398h4v-398
h-282z" />
    <glyph glyph-name="uni277A" unicode="&#x277a;" horiz-adv-x="1699" 
d="M850 -31q-159 0 -298 57.5t-237.5 156.5t-155.5 238t-57 296q0 210 96.5 381t268 268.5t383.5 97.5t383 -97.5t267.5 -268.5t96.5 -381t-96.5 -381.5t-267.5 -269t-383 -97.5zM848 311q128 0 207.5 71t79.5 202q0 125 -71.5 195.5t-172.5 70.5q-104 0 -170 -66h-6l28 220
h338v116h-426l-55 -454h105q66 73 159 73q66 0 107 -43t41 -112q0 -71 -44 -112.5t-120 -41.5q-65 0 -110 26t-83 81l-92 -80q95 -146 285 -146z" />
    <glyph glyph-name="uni277B" unicode="&#x277b;" horiz-adv-x="1699" 
d="M850 -31q-159 0 -298 57.5t-237.5 156.5t-155.5 238t-57 296q0 210 96.5 381t268 268.5t383.5 97.5t383 -97.5t267.5 -268.5t96.5 -381t-96.5 -381.5t-267.5 -269t-383 -97.5zM848 322q134 0 210.5 80.5t76.5 203.5q0 121 -73 191.5t-181 70.5q-81 0 -150 -55l-2 2
l285 334h-152l-180 -225q-29 -37 -45 -60t-38.5 -63.5t-33 -86t-10.5 -96.5q0 -144 83 -220t210 -76zM846 440q-73 0 -120.5 43t-47.5 117q0 73 48 116.5t120 43.5q71 0 118.5 -43.5t47.5 -116.5q0 -74 -47 -117t-119 -43z" />
    <glyph glyph-name="uni277C" unicode="&#x277c;" horiz-adv-x="1699" 
d="M850 -31q-159 0 -298 57.5t-237.5 156.5t-155.5 238t-57 296q0 210 96.5 381t268 268.5t383.5 97.5t383 -97.5t267.5 -268.5t96.5 -381t-96.5 -381.5t-267.5 -269t-383 -97.5zM655 313h129l353 676v115h-519v-121h388z" />
    <glyph glyph-name="uni277D" unicode="&#x277d;" horiz-adv-x="1699" 
d="M850 -31q-159 0 -298 57.5t-237.5 156.5t-155.5 238t-57 296q0 210 96.5 381t268 268.5t383.5 97.5t383 -97.5t267.5 -268.5t96.5 -381t-96.5 -381.5t-267.5 -269t-383 -97.5zM852 315q137 0 214 66t77 170q0 75 -40 126.5t-110 72.5v4q55 19 89 66.5t34 111.5
q0 96 -70.5 153.5t-193.5 57.5t-193.5 -57.5t-70.5 -153.5q0 -64 34 -111.5t89 -66.5v-4q-70 -21 -110 -72.5t-40 -126.5q0 -104 77 -170t214 -66zM852 805q-62 0 -100.5 29.5t-38.5 80.5t38.5 80t100.5 29t100.5 -29t38.5 -80t-38.5 -80.5t-100.5 -29.5zM852 434
q-82 0 -125 34t-43 99q0 63 43.5 98t124.5 35t124.5 -35t43.5 -98q0 -65 -43 -99t-125 -34z" />
    <glyph glyph-name="uni277E" unicode="&#x277e;" horiz-adv-x="1699" 
d="M850 -31q-159 0 -298 57.5t-237.5 156.5t-155.5 238t-57 296q0 210 96.5 381t268 268.5t383.5 97.5t383 -97.5t267.5 -268.5t96.5 -381t-96.5 -381.5t-267.5 -269t-383 -97.5zM680 315h162l194 224q115 130 115 286q0 141 -81 219t-214 78q-136 0 -215.5 -80.5
t-79.5 -203.5q0 -114 70 -190.5t176 -76.5q42 0 77 14t83 46l2 -4zM856 678q-77 0 -124.5 44t-47.5 116q0 74 49 120t125 46q77 0 123.5 -44.5t46.5 -117.5q0 -74 -47 -119t-125 -45z" />
    <glyph glyph-name="uniF8FF" unicode="&#xf8ff;" horiz-adv-x="1771" 
d="M102 1384q0 32 22 53t54 21q31 0 53.5 -21t22.5 -53q0 -48 -37 -69v-49q65 27 108 42t112 29.5t134 14.5q92 0 156 -43.5t64 -126.5v-52q118 25 213 25q53 0 98.5 -8t88 -26t67 -53t24.5 -83v-98q98 24 166 24q113 0 167 -44t54 -117v-492q-109 66 -219 66
q-52 0 -131 -20.5t-115 -20.5q-104 0 -104 94v176q-48 10 -96 10q-50 0 -149.5 -18.5t-137.5 -18.5q-111 0 -111 95v139h-28q-130 0 -361 -90v-670h-80v1317q-35 21 -35 67zM731 1182q0 57 -46 84.5t-112 27.5q-62 0 -135.5 -17.5t-110.5 -31t-110 -43.5v-471q225 86 358 86
q91 0 156 -29v394zM639 1188l-133 -195v-139h-62v139l-133 195h78l86 -131l86 131h78zM1225 971q0 17 -2 29t-13.5 32t-32.5 33t-64.5 23t-104.5 10q-86 0 -217 -25v-350q0 -23 -20.5 -38.5t-45.5 -21.5t-45.5 -18.5t-20.5 -32.5q0 -28 56 -28q35 0 134 17t155 17
q130 0 221 -51v404zM819 848q0 72 46 119t118 47t118 -47t46 -119t-46 -119t-118 -47t-118 47t-46 119zM1085 848q0 46 -29 76t-73 30t-73 -30t-29 -76t29 -76.5t73 -30.5t73 30.5t29 76.5zM1614 748q0 58 -43 81t-121 23q-65 0 -168 -25v-342q0 -25 -20 -41.5t-43.5 -23
t-43.5 -19t-20 -30.5q0 -33 51 -33q30 0 111 21.5t131 21.5q78 0 166 -31v398zM1452 764l-20 -205h-33l-21 205h74zM729 721q0 22 -65 33v-66q9 5 27 10.5t28 10.5t10 12zM1225 492q0 27 -70 49v-97q13 8 32.5 16t28.5 14.5t9 17.5zM1374 473q0 17 11 28t30 11t30 -11
t11 -28q0 -19 -11 -30t-30 -11t-30 11t-11 30z" />
    <glyph glyph-name="CR" horiz-adv-x="671" 
 />
    <glyph glyph-name="Adieresis.ss01" horiz-adv-x="1388" 
d="M479 1520q-54 0 -90.5 36.5t-36.5 90.5t36.5 90.5t90.5 36.5t90.5 -36.5t36.5 -90.5t-36.5 -90.5t-90.5 -36.5zM909 1520q-54 0 -90.5 36.5t-36.5 90.5t36.5 90.5t90.5 36.5t90.5 -36.5t36.5 -90.5t-36.5 -90.5t-90.5 -36.5zM1145 0l-137 356h-627l-137 -356h-234
l586 1434h197l585 -1434h-233zM457 553h475l-238 614z" />
    <glyph glyph-name="Adieresis.ss01.ss02" horiz-adv-x="1388" 
d="M369 1354q-54 0 -90.5 36.5t-36.5 90.5t36.5 90.5t90.5 36.5t90.5 -36.5t36.5 -90.5t-36.5 -90.5t-90.5 -36.5zM1020 1354q-54 0 -90.5 36.5t-36.5 90.5t36.5 90.5t90.5 36.5t90.5 -36.5t36.5 -90.5t-36.5 -90.5t-90.5 -36.5zM1145 0l-137 356h-627l-137 -356h-234
l586 1434h197l585 -1434h-233zM457 553h475l-238 614z" />
    <glyph glyph-name="Adieresis.ss02" horiz-adv-x="1388" 
d="M481 1626v-213h-217v213h217zM1124 1626v-213h-217v213h217zM1145 0l-137 356h-627l-137 -356h-234l586 1434h197l585 -1434h-233zM457 553h475l-238 614z" />
    <glyph glyph-name="Cdotaccent.ss01" horiz-adv-x="1396" 
d="M831 1774q54 0 90.5 -36.5t36.5 -90.5t-36.5 -90.5t-90.5 -36.5t-90 36.5t-36 90.5t36 90.5t90 36.5zM840 -31q-225 0 -400 93.5t-271.5 264t-96.5 390.5q0 165 56.5 304.5t156.5 236.5t243 151.5t312 54.5q287 0 506 -157l-132 -187q-175 127 -383 127
q-229 0 -377.5 -145.5t-148.5 -384.5t148.5 -385t377.5 -146q208 0 383 127l132 -186q-220 -158 -506 -158z" />
    <glyph glyph-name="Edieresis.ss01" horiz-adv-x="1064" 
d="M379 1520q-54 0 -90.5 36.5t-36.5 90.5t36.5 90.5t90.5 36.5t90.5 -36.5t36.5 -90.5t-36.5 -90.5t-90.5 -36.5zM809 1520q-54 0 -90.5 36.5t-36.5 90.5t36.5 90.5t90.5 36.5t90.5 -36.5t36.5 -90.5t-36.5 -90.5t-90.5 -36.5zM356 201h617v-201h-830v1434h820v-201h-607
v-340h559v-201h-559v-491z" />
    <glyph glyph-name="Edotaccent.ss01" horiz-adv-x="1064" 
d="M594 1520q-54 0 -90.5 36.5t-36.5 90.5t36.5 90.5t90.5 36.5t90.5 -36.5t36.5 -90.5t-36.5 -90.5t-90.5 -36.5zM356 201h617v-201h-830v1434h820v-201h-607v-340h559v-201h-559v-491z" />
    <glyph glyph-name="Euro.tf" 
d="M412 580q25 -193 132 -302.5t277 -109.5q160 0 314 98v-225q-140 -70 -306 -70q-144 0 -259 47.5t-190 131.5t-119.5 192.5t-57.5 237.5h-187l31 61h152q-2 16 -2 51q0 47 2 70h-172l30 61h148q15 126 60 231t120 186.5t188 127t254 45.5q212 0 383 -115l-86 -176
q-151 95 -301 95q-167 0 -273 -104.5t-134 -289.5h602l-31 -61h-579q-2 -23 -2 -70q0 -35 2 -51h532l-31 -61h-497z" />
    <glyph glyph-name="Gcommaaccent.ss01" horiz-adv-x="1601" 
d="M870 793h680v-86q0 -112 -27.5 -218.5t-86.5 -201t-142.5 -165t-203 -112t-261.5 -41.5q-161 0 -300.5 53t-240.5 148.5t-158.5 235.5t-57.5 307q0 163 55.5 302.5t154 238t240.5 154.5t309 56q324 0 551 -192l-145 -178q-75 68 -182 110.5t-234 42.5
q-231 0 -373.5 -150.5t-142.5 -381.5q0 -232 147 -380.5t384 -148.5q112 0 204.5 36.5t150 96t91 129.5t39.5 144h-451v201zM823 -84q53 0 88 -33t35 -86q0 -60 -45 -110l-106 -117h-74l61 119q-33 7 -54 40.5t-21 71.5q0 50 32.5 82.5t83.5 32.5z" />
    <glyph glyph-name="Gdotaccent.ss01" horiz-adv-x="1601" 
d="M807 1520q-54 0 -90.5 36.5t-36.5 90.5t36.5 90.5t90.5 36.5t90.5 -36.5t36.5 -90.5t-36.5 -90.5t-90.5 -36.5zM870 793h680v-86q0 -112 -27.5 -218.5t-86.5 -201t-142.5 -165t-203 -112t-261.5 -41.5q-161 0 -300.5 53t-240.5 148.5t-158.5 235.5t-57.5 307
q0 163 55.5 302.5t154 238t240.5 154.5t309 56q324 0 551 -192l-145 -178q-75 68 -182 110.5t-234 42.5q-231 0 -373.5 -150.5t-142.5 -381.5q0 -232 147 -380.5t384 -148.5q112 0 204.5 36.5t150 96t91 129.5t39.5 144h-451v201z" />
    <glyph glyph-name="Ghedescendercy" horiz-adv-x="401" 
d="M299 143v-430h-197v430h197z" />
    <glyph glyph-name="Idieresis.ss01" horiz-adv-x="503" 
d="M37 1774q54 0 90.5 -36.5t36.5 -90.5t-36.5 -90.5t-90.5 -36.5t-90.5 36.5t-36.5 90.5t36.5 90.5t90.5 36.5zM467 1774q54 0 90.5 -36.5t36.5 -90.5t-36.5 -90.5t-90.5 -36.5t-90.5 36.5t-36.5 90.5t36.5 90.5t90.5 36.5zM360 1434v-1434h-217v1434h217z" />
    <glyph glyph-name="Idieresis.ss01.ss02" horiz-adv-x="503" 
d="M-14 1608q54 0 90.5 -36.5t36.5 -90.5t-36.5 -90.5t-90.5 -36.5t-90.5 36.5t-36.5 90.5t36.5 90.5t90.5 36.5zM518 1608q54 0 90.5 -36.5t36.5 -90.5t-36.5 -90.5t-90.5 -36.5t-90.5 36.5t-36.5 90.5t36.5 90.5t90.5 36.5zM360 1434v-1434h-217v1434h217z" />
    <glyph glyph-name="Idieresis.ss02" horiz-adv-x="503" 
d="M84 1626v-213h-217v213h217zM637 1626v-213h-217v213h217zM360 1434v-1434h-217v1434h217z" />
    <glyph glyph-name="Idotaccent.ss01" horiz-adv-x="503" 
d="M252 1774q54 0 90.5 -36.5t36.5 -90.5t-36.5 -90.5t-90.5 -36.5t-90.5 36.5t-36.5 90.5t36.5 90.5t90.5 36.5zM360 1434v-1434h-217v1434h217z" />
    <glyph glyph-name="Indianrupeesign.tf" 
d="M688 1321q84 -47 134 -125t57 -180h182l-45 -62h-135q-10 -165 -133 -267.5t-302 -102.5h-30l504 -584h-261l-493 584v192h276q100 0 160 49.5t68 128.5h-504v62h504q-11 78 -70.5 126t-157.5 48h-276v192h272h623l-45 -61h-328z" />
    <glyph glyph-name="Kcommaaccent.ss01" horiz-adv-x="1329" 
d="M598 776l721 -776h-315l-648 715v-715h-213v1434h213v-637l570 637h295zM651 -84q53 0 88 -33t35 -86q0 -60 -45 -110l-106 -117h-74l61 119q-33 7 -54 40.5t-21 71.5q0 50 32.5 82.5t83.5 32.5z" />
    <glyph glyph-name="Lcaron.ss01" horiz-adv-x="989" 
d="M788 1475q57 0 94.5 -39.5t37.5 -94.5q0 -41 -33 -106l-152 -285h-73l86 279q-40 7 -65.5 42.5t-25.5 76.5q0 52 36.5 89.5t94.5 37.5zM356 1434v-1229h623v-205h-836v1434h213z" />
    <glyph glyph-name="Lcommaaccent.ss01" horiz-adv-x="989" 
d="M356 1434v-1229h623v-205h-836v1434h213zM692 -203q0 -60 -45 -110l-106 -117h-74l61 119q-33 7 -54 40.5t-21 71.5q0 50 32.5 82.5t83.5 32.5q53 0 88 -33t35 -86z" />
    <glyph glyph-name="Ldot.ss01" horiz-adv-x="989" 
d="M356 1434v-1229h623v-205h-836v1434h213zM739 977q65 0 107.5 -42.5t42.5 -107.5q0 -63 -43 -105t-107 -42q-63 0 -105 42t-42 105q0 64 42 107t105 43z" />
    <glyph glyph-name="Ncommaaccent.ss01" horiz-adv-x="1431" 
d="M1288 1434v-1434h-223l-705 1071h-4v-1071h-213v1434h224l704 -1072h4v1072h213zM834 -203q0 -58 -46 -110l-106 -117h-74l62 119q-33 7 -54.5 40.5t-21.5 71.5q0 50 33 82.5t84 32.5q53 0 88 -33t35 -86z" />
    <glyph glyph-name="Odieresis.ss01" horiz-adv-x="1638" 
d="M606 1774q54 0 90.5 -36.5t36.5 -90.5t-36.5 -90.5t-90.5 -36.5t-90.5 36.5t-36.5 90.5t36.5 90.5t90.5 36.5zM1036 1774q54 0 90.5 -36.5t36.5 -90.5t-36.5 -90.5t-90.5 -36.5t-90.5 36.5t-36.5 90.5t36.5 90.5t90.5 36.5zM819 1464q211 0 381.5 -94t268.5 -265.5
t98 -387.5t-98 -387.5t-268.5 -266t-381.5 -94.5t-381.5 94.5t-268 266t-97.5 387.5q0 162 57 302t156.5 237t237.5 152.5t296 55.5zM819 1247q-226 0 -370 -149.5t-144 -380.5t144 -381t370 -150t370 150t144 381t-144 380.5t-370 149.5z" />
    <glyph glyph-name="Odieresis.ss01.ss02" horiz-adv-x="1638" 
d="M256 1608q54 0 90.5 -36.5t36.5 -90.5t-36.5 -90.5t-90.5 -36.5t-90.5 36.5t-36.5 90.5t36.5 90.5t90.5 36.5zM1386 1608q54 0 90.5 -36.5t36.5 -90.5t-36.5 -90.5t-90.5 -36.5t-90 36.5t-36 90.5t36 90.5t90 36.5zM819 1464q211 0 381.5 -94t268.5 -265.5t98 -387.5
t-98 -387.5t-268.5 -266t-381.5 -94.5t-381.5 94.5t-268 266t-97.5 387.5q0 162 57 302t156.5 237t237.5 152.5t296 55.5zM819 1247q-226 0 -370 -149.5t-144 -380.5t144 -381t370 -150t370 150t144 381t-144 380.5t-370 149.5z" />
    <glyph glyph-name="Odieresis.ss02" horiz-adv-x="1638" 
d="M408 1626v-213h-218v213h218zM1452 1626v-213h-217v213h217zM819 1464q211 0 381.5 -94t268.5 -265.5t98 -387.5t-98 -387.5t-268.5 -266t-381.5 -94.5t-381.5 94.5t-268 266t-97.5 387.5q0 162 57 302t156.5 237t237.5 152.5t296 55.5zM819 1247q-226 0 -370 -149.5
t-144 -380.5t144 -381t370 -150t370 150t144 381t-144 380.5t-370 149.5z" />
    <glyph glyph-name="RUB.tf" 
d="M735 575h-258v-145h449v-61h-449v-369h-201v369h-208v61h208v145h-208v189h208v618h459q199 0 312.5 -115.5t113.5 -293.5q0 -177 -113 -287.5t-313 -110.5zM477 1194v-430h258q101 0 159 53.5t58 157.5t-58.5 161.5t-158.5 57.5h-258z" />
    <glyph glyph-name="Rcommaaccent.ss01" horiz-adv-x="1191" 
d="M737 604l434 -604h-268l-418 596h-129v-596h-213v1434h490q193 0 315.5 -114t122.5 -308q0 -161 -91 -270.5t-243 -137.5zM356 1233v-436h242q123 0 183.5 58.5t60.5 156.5q0 101 -60.5 161t-183.5 60h-242zM604 -84q53 0 88 -33t35 -86q0 -60 -45 -110l-107 -117h-73
l61 119q-33 7 -54.5 40.5t-21.5 71.5q0 50 33 82.5t84 32.5z" />
    <glyph glyph-name="Scommaaccent.ss01" horiz-adv-x="1024" 
d="M532 1464q191 0 379 -96l-96 -203q-147 84 -289 84q-164 0 -164 -123q0 -47 26.5 -85t86.5 -85l256 -196q114 -88 167.5 -178.5t53.5 -210.5q0 -192 -124.5 -297t-333.5 -105q-129 0 -250 37t-213 96l96 201q203 -117 369 -117q111 0 169 48t58 124q0 58 -36 107.5
t-116 112.5l-243 192q-97 76 -147 159t-50 189q0 159 106.5 252.5t294.5 93.5zM623 -203q0 -60 -45 -110l-107 -117h-74l62 119q-33 7 -54.5 40.5t-21.5 71.5q0 50 33 82.5t84 32.5q53 0 88 -33t35 -86z" />
    <glyph glyph-name="THB.tf" 
d="M854 688q96 -34 151.5 -114t55.5 -185q0 -186 -117 -287.5t-309 -101.5h-31v-178h-57v178h-379v1382h379v179h57v-179h31q190 0 308 -102t118 -287q0 -105 -55.5 -185t-151.5 -114v-6zM547 1194h-178v-414h178v414zM653 1194h-49v-414h8q119 0 180.5 56t61.5 159
q0 87 -57.5 143t-143.5 56zM369 188h178v414h-178v-414zM653 188q86 0 144.5 56t58.5 143q0 103 -62 159t-182 56h-8v-414h49z" />
    <glyph glyph-name="TRY.tf" 
d="M963 670h190q0 -150 -48 -275.5t-133 -212t-205 -134.5t-261 -48h-189v604l-241 -106v63l241 107v114l-241 -106v63l241 107v536h201v-450l402 176v-64l-402 -176v-114l402 176v-64l-402 -176v-481q205 0 325 123t120 338z" />
    <glyph glyph-name="Udieresis.ss01" horiz-adv-x="1396" 
d="M483 1774q54 0 90.5 -36.5t36.5 -90.5t-36.5 -90.5t-90.5 -36.5t-90.5 36.5t-36.5 90.5t36.5 90.5t90.5 36.5zM913 1774q54 0 90.5 -36.5t36.5 -90.5t-36.5 -90.5t-90.5 -36.5t-90.5 36.5t-36.5 90.5t36.5 90.5t90.5 36.5zM1274 1434v-881q0 -267 -156.5 -425.5
t-419.5 -158.5t-419 158.5t-156 425.5v881h223v-875q0 -170 99 -269.5t253 -99.5t253.5 99.5t99.5 269.5v875h223z" />
    <glyph glyph-name="Udieresis.ss01.ss02" horiz-adv-x="1396" 
d="M537 1608q54 0 90.5 -36.5t36.5 -90.5t-36.5 -90.5t-90.5 -36.5t-90.5 36.5t-36.5 90.5t36.5 90.5t90.5 36.5zM858 1608q54 0 90.5 -36.5t36.5 -90.5t-36.5 -90.5t-90.5 -36.5t-90.5 36.5t-36.5 90.5t36.5 90.5t90.5 36.5zM1274 1434v-881q0 -267 -156.5 -425.5
t-419.5 -158.5t-419 158.5t-156 425.5v881h223v-875q0 -170 99 -269.5t253 -99.5t253.5 99.5t99.5 269.5v875h223z" />
    <glyph glyph-name="Udieresis.ss02" horiz-adv-x="1396" 
d="M651 1626v-213h-217v213h217zM963 1626v-213h-218v213h218zM1274 1434v-881q0 -267 -156.5 -425.5t-419.5 -158.5t-419 158.5t-156 425.5v881h223v-875q0 -170 99 -269.5t253 -99.5t253.5 99.5t99.5 269.5v875h223z" />
    <glyph glyph-name="Wdieresis.ss01" horiz-adv-x="2017" 
d="M795 1774q54 0 90.5 -36.5t36.5 -90.5t-36.5 -90.5t-90.5 -36.5t-90.5 36.5t-36.5 90.5t36.5 90.5t90.5 36.5zM1225 1774q54 0 90.5 -36.5t36.5 -90.5t-36.5 -90.5t-90.5 -36.5t-90.5 36.5t-36.5 90.5t36.5 90.5t90.5 36.5zM1987 1434l-431 -1434h-208l-336 1073h-6
l-336 -1073h-209l-430 1434h237l295 -1094h4l336 1094h211l336 -1094h4l295 1094h238z" />
    <glyph glyph-name="Wdieresis.ss01.ss02" horiz-adv-x="2017" 
d="M705 1608q54 0 90 -36.5t36 -90.5t-36 -90.5t-90 -36.5t-90.5 36.5t-36.5 90.5t36.5 90.5t90.5 36.5zM1313 1608q54 0 90.5 -36.5t36.5 -90.5t-36.5 -90.5t-90.5 -36.5t-90.5 36.5t-36.5 90.5t36.5 90.5t90.5 36.5zM1987 1434l-431 -1434h-208l-336 1073h-6l-336 -1073
h-209l-430 1434h237l295 -1094h4l336 1094h211l336 -1094h4l295 1094h238z" />
    <glyph glyph-name="Wdieresis.ss02" horiz-adv-x="2017" 
d="M801 1626v-213h-217v213h217zM1436 1626v-213h-217v213h217zM1987 1434l-431 -1434h-208l-336 1073h-6l-336 -1073h-209l-430 1434h237l295 -1094h4l336 1094h211l336 -1094h4l295 1094h238z" />
    </font>
</defs>
</svg>
