<?xml version="1.0" standalone="no"?>
<!DOCTYPE svg PUBLIC "-//W3C//DTD SVG 1.1//EN" "http://www.w3.org/Graphics/SVG/1.1/DTD/svg11.dtd" >
<svg xmlns="http://www.w3.org/2000/svg" xmlns:xlink="http://www.w3.org/1999/xlink" version="1.1">
<metadata>
Created by FontForge 20170731 at Sat Jul 23 01:24:59 2022
 By Aleksey,,,
Copyright (c) 2015 by Reto Moser. All rights reserved.
</metadata>
<defs>
<font id="GTEestiProDisplay-MediumItalic" horiz-adv-x="1228" >
  <font-face 
    font-family="GT Eesti Pro Display Medium"
    font-weight="500"
    font-style="italic"
    font-stretch="normal"
    units-per-em="2048"
    panose-1="0 0 6 0 0 0 0 0 0 0"
    ascent="1536"
    descent="-512"
    x-height="946"
    cap-height="1434"
    bbox="-729 -532 2525 1804"
    underline-thickness="102"
    underline-position="-307"
    slope="-11"
    unicode-range="U+000D-FB02"
  />
<missing-glyph horiz-adv-x="1609" 
d="M852 -31q-213 0 -384 96.5t-267.5 267.5t-96.5 384q0 214 96.5 385t267.5 266.5t384 95.5q160 0 299 -56t237.5 -154.5t154.5 -237.5t56 -299q0 -213 -95.5 -384t-266.5 -267.5t-385 -96.5zM852 20q199 0 359 91t250.5 253t90.5 363l-104 133l-143 -61l-140 184l-161 -90
l-152 242l-152 -242l-161 90l-140 -184l-143 61l-104 -133q0 -201 90.5 -363t250.5 -253t359 -91zM641 651q-31 0 -51.5 20.5t-20.5 51.5t20.5 51.5t51.5 20.5t51.5 -20.5t20.5 -51.5t-20.5 -51.5t-51.5 -20.5zM1061 651q-31 0 -51.5 20.5t-20.5 51.5t20.5 51.5t51.5 20.5
t51.5 -20.5t20.5 -51.5t-20.5 -51.5t-51.5 -20.5zM766 522l74 207q3 17 22 10q6 -2 9.5 -8.5t0.5 -13.5l-57 -160h70q7 0 12.5 -5.5t5.5 -12.5q0 -6 -5.5 -11.5t-12.5 -5.5h-119zM449 350q-61 0 -101.5 40t-40.5 102q0 61 40 101t102 40q61 0 101 -39.5t40 -101.5t-40 -102
t-101 -40zM1253 350q-61 0 -101 40t-40 102t40 101.5t101 39.5q62 0 102 -40t40 -101q0 -62 -40.5 -102t-101.5 -40zM852 395q-96 0 -127 -61q-6 -12 -18 -12q-17 0 -17 18q0 35 50 63.5t112 28.5t112 -28.5t50 -63.5q0 -18 -17 -18q-12 0 -18 12q-31 61 -127 61z" />
    <glyph glyph-name="fi" unicode="fi" horiz-adv-x="1165" 
d="M733 946l-41 -211h-190l-144 -735h-252l144 735h-160l41 211h160l24 127q71 381 465 381h51l-45 -235h-18q-88 0 -137.5 -40t-69.5 -139l-18 -94h190zM963 1421h286l-53 -276h-287zM705 0l184 946h252l-185 -946h-251z" />
    <glyph glyph-name="fl" unicode="fl" horiz-adv-x="1163" 
d="M733 946l-41 -211h-190l-144 -735h-252l144 735h-160l41 211h160l24 127q71 381 465 381h51l-45 -235h-18q-88 0 -137.5 -40t-69.5 -139l-18 -94h190zM983 1434h252l-279 -1434h-251z" />
    <glyph glyph-name="f_f" unicode="ff" horiz-adv-x="1361" 
d="M768 1219q-88 0 -137.5 -40t-69.5 -139l-18 -94h190l-41 -211h-190l-144 -735h-252l144 735h-160l41 211h160l24 127q71 381 465 381h51l-45 -235h-18zM1462 1454h51l-45 -235h-18q-88 0 -137.5 -40t-69.5 -139l-18 -94h190l-41 -211h-190l-144 -735h-252l144 735h-160
l41 211h160l24 127q71 381 465 381z" />
    <glyph glyph-name="f_f_i" unicode="ffi" horiz-adv-x="1845" 
d="M768 1219q-88 0 -137.5 -40t-69.5 -139l-18 -94h190l-41 -211h-190l-144 -735h-252l144 735h-160l41 211h160l24 127q71 381 465 381h51l-45 -235h-18zM1415 946l-41 -211h-190l-144 -735h-252l144 735h-160l41 211h160l24 127q71 381 465 381h51l-45 -235h-18
q-88 0 -137.5 -40t-69.5 -139l-18 -94h190zM1642 1421h287l-53 -276h-287zM1384 0l185 946h252l-185 -946h-252z" />
    <glyph glyph-name="f_f_l" unicode="ffl" horiz-adv-x="1845" 
d="M768 1219q-88 0 -137.5 -40t-69.5 -139l-18 -94h190l-41 -211h-190l-144 -735h-252l144 735h-160l41 211h160l24 127q71 381 465 381h51l-45 -235h-18zM1415 946l-41 -211h-190l-144 -735h-252l144 735h-160l41 211h160l24 127q71 381 465 381h51l-45 -235h-18
q-88 0 -137.5 -40t-69.5 -139l-18 -94h190zM1663 1434h252l-279 -1434h-252z" />
    <glyph glyph-name=".notdef" horiz-adv-x="1609" 
d="M852 -31q-213 0 -384 96.5t-267.5 267.5t-96.5 384q0 214 96.5 385t267.5 266.5t384 95.5q160 0 299 -56t237.5 -154.5t154.5 -237.5t56 -299q0 -213 -95.5 -384t-266.5 -267.5t-385 -96.5zM852 20q199 0 359 91t250.5 253t90.5 363l-104 133l-143 -61l-140 184l-161 -90
l-152 242l-152 -242l-161 90l-140 -184l-143 61l-104 -133q0 -201 90.5 -363t250.5 -253t359 -91zM641 651q-31 0 -51.5 20.5t-20.5 51.5t20.5 51.5t51.5 20.5t51.5 -20.5t20.5 -51.5t-20.5 -51.5t-51.5 -20.5zM1061 651q-31 0 -51.5 20.5t-20.5 51.5t20.5 51.5t51.5 20.5
t51.5 -20.5t20.5 -51.5t-20.5 -51.5t-51.5 -20.5zM766 522l74 207q3 17 22 10q6 -2 9.5 -8.5t0.5 -13.5l-57 -160h70q7 0 12.5 -5.5t5.5 -12.5q0 -6 -5.5 -11.5t-12.5 -5.5h-119zM449 350q-61 0 -101.5 40t-40.5 102q0 61 40 101t102 40q61 0 101 -39.5t40 -101.5t-40 -102
t-101 -40zM1253 350q-61 0 -101 40t-40 102t40 101.5t101 39.5q62 0 102 -40t40 -101q0 -62 -40.5 -102t-101.5 -40zM852 395q-96 0 -127 -61q-6 -12 -18 -12q-17 0 -17 18q0 35 50 63.5t112 28.5t112 -28.5t50 -63.5q0 -18 -17 -18q-12 0 -18 12q-31 61 -127 61z" />
    <glyph glyph-name=".null" horiz-adv-x="0" 
 />
    <glyph glyph-name="nonmarkingreturn" horiz-adv-x="682" 
 />
    <glyph glyph-name="CR" unicode="&#xd;" horiz-adv-x="0" 
 />
    <glyph glyph-name="CR" horiz-adv-x="0" 
 />
    <glyph glyph-name="space" unicode=" " horiz-adv-x="567" 
 />
    <glyph glyph-name="exclam" unicode="!" horiz-adv-x="665" 
d="M666 1434l-248 -983h-176l127 983h297zM102 0l56 285h284l-55 -285h-285z" />
    <glyph glyph-name="quotedbl" unicode="&#x22;" horiz-adv-x="657" 
d="M242 946l53 518h197l-148 -518h-102zM498 946l53 518h197l-148 -518h-102z" />
    <glyph glyph-name="numbersign" unicode="#" horiz-adv-x="1304" 
d="M1288 915h-244l-133 -356h230l-25 -119h-250l-164 -440h-133l166 440h-276l-166 -440h-131l164 440h-230l25 119h250l133 356h-238l25 119h258l151 400h131l-149 -400h276l150 400h133l-151 -400h221zM780 559l133 356h-276l-133 -356h276z" />
    <glyph glyph-name="dollar" unicode="$" horiz-adv-x="1118" 
d="M877 985q0 7 1 18t1 19q0 63 -37.5 101.5t-108.5 47.5l-63 -329q9 -5 27 -14q45 -23 68.5 -35.5t65 -38.5t65 -47.5t53.5 -56t46 -69.5t27.5 -82.5t11.5 -101.5q0 -198 -136 -313t-376 -115h-22l-25 -127h-57l26 131q-189 17 -294 115t-105 250q0 13 1 27t2.5 31.5
t2.5 27.5h260q-2 -14 -2 -41q0 -157 180 -174l78 397q-128 69 -176 106q-143 108 -154 275q-1 15 -1 31q0 183 126 289t347 106h14l29 148h57l-29 -152q168 -14 264.5 -101.5t96.5 -238.5q0 -37 -6 -84h-258zM496 1026q0 -49 31 -85.5t91 -70.5l58 304q-87 -4 -133.5 -45.5
t-46.5 -102.5zM772 379q0 65 -40 111t-114 88l-71 -371q118 3 171.5 51t53.5 121z" />
    <glyph glyph-name="percent" unicode="%" horiz-adv-x="1667" 
d="M543 780q-135 0 -226.5 77t-91.5 216q0 94 43 177.5t129 138.5t197 55q134 0 224.5 -78t90.5 -215q0 -70 -25.5 -136.5t-71 -119t-116 -84t-153.5 -31.5zM279 0l1021 1382h138l-1022 -1382h-137zM549 909q57 0 102.5 22.5t71.5 58.5t39.5 76t13.5 79q0 80 -53.5 125
t-136.5 45q-75 0 -129 -39t-76.5 -91t-22.5 -106q0 -82 54 -126t137 -44zM1167 -10q-134 0 -224.5 78t-90.5 215q0 95 43 178.5t128.5 137.5t195.5 54q135 0 226 -77t91 -216q0 -94 -43 -177.5t-129 -138t-197 -54.5zM1176 119q57 0 102.5 22.5t71.5 58t39.5 75.5t13.5 79
q0 82 -54 126t-137 44q-57 0 -102.5 -22.5t-71.5 -58t-39.5 -75.5t-13.5 -79q0 -80 54 -125t137 -45z" />
    <glyph glyph-name="ampersand" unicode="&#x26;" horiz-adv-x="1470" 
d="M1411 637q-144 -239 -258 -369l147 -268h-299l-49 88q-172 -119 -385 -119q-217 0 -351 113.5t-134 323.5q0 191 111.5 314.5t310.5 176.5q-47 105 -47 193q0 144 94.5 233.5t273.5 89.5q175 0 346 -94l-114 -211q-129 70 -221 70q-57 0 -84 -26.5t-27 -68.5
q0 -39 49 -131l254 -458q87 113 170 264zM580 211q130 0 254 88l-220 391q-274 -54 -274 -260q0 -104 66 -161.5t174 -57.5z" />
    <glyph glyph-name="quotesingle" unicode="'" horiz-adv-x="421" 
d="M512 1464l-147 -518h-123l53 518h217z" />
    <glyph glyph-name="parenleft" unicode="(" horiz-adv-x="706" 
d="M305 -440q-174 348 -174 751q0 135 20.5 264t50.5 229.5t80 204t92.5 174t106.5 153.5t103 127.5t99 111.5q2 1 2.5 2t2 2.5l2.5 2.5t2 2.5t2 2.5l172 -139q-63 -68 -106 -117t-100.5 -124t-96 -139t-80.5 -151.5t-66.5 -173.5t-40.5 -192.5t-16 -220.5q0 -370 150 -674z
" />
    <glyph glyph-name="parenright" unicode=")" horiz-adv-x="706" 
d="M432 1538q174 -348 174 -750q0 -134 -19.5 -261.5t-51.5 -230.5t-77.5 -201.5t-93.5 -175t-104 -151t-104 -130t-98 -111.5q-10 -11 -15 -16l-172 141q63 68 106 117t100.5 124t96 139t80.5 151t66.5 173t40.5 192.5t16 219.5q0 360 -150 676z" />
    <glyph glyph-name="asterisk" unicode="*" horiz-adv-x="860" 
d="M928 1133l-254 -64l168 -201l-144 -106l-139 221l-139 -223l-144 108l166 199l-254 66l58 167l241 -98l-18 262h180l-18 -260l241 96z" />
    <glyph glyph-name="plus" unicode="+" 
d="M700 1108v-442h441v-111h-441v-444h-118v444h-441v111h441v442h118z" />
    <glyph glyph-name="comma" unicode="," horiz-adv-x="509" 
d="M-53 -313l200 313h-110l55 285h281l-54 -285l-262 -313h-110z" />
    <glyph glyph-name="hyphen" unicode="-" horiz-adv-x="786" 
d="M86 426l47 233h594l-47 -233h-594z" />
    <glyph glyph-name="period" unicode="." horiz-adv-x="481" 
d="M8 0l53 285h285l-55 -285h-283z" />
    <glyph glyph-name="slash" unicode="/" horiz-adv-x="1275" 
d="M115 -236l-168 119l1302 1739l166 -121z" />
    <glyph glyph-name="zero" unicode="0" horiz-adv-x="1239" 
d="M588 -31q-228 0 -351.5 137t-123.5 400q0 180 41 342t117.5 288.5t197 201.5t268.5 75q227 0 350 -136.5t123 -399.5q0 -143 -25.5 -276t-77 -248t-124.5 -200.5t-174.5 -134.5t-220.5 -49zM598 215q85 0 153 57t109 152t62.5 209.5t21.5 236.5q0 148 -59.5 222.5
t-157.5 74.5q-86 0 -154 -57t-109 -152t-62 -209t-21 -237q0 -148 59.5 -222.5t157.5 -74.5z" />
    <glyph glyph-name="one" unicode="1" horiz-adv-x="681" 
d="M653 1382l-268 -1382h-258l219 1137h-74l50 245h331z" />
    <glyph glyph-name="two" unicode="2" horiz-adv-x="1114" 
d="M682 1413q204 0 320 -99.5t116 -266.5q0 -70 -21 -134.5t-63.5 -124t-93.5 -111t-125 -112.5l-401 -336l567 2l-45 -231h-959l39 199l586 493q64 52 104 88.5t76 78t52 81t16 80.5q0 65 -49.5 108t-141.5 43q-98 0 -162.5 -48.5t-78.5 -147.5h-256q25 205 161 321.5
t359 116.5z" />
    <glyph glyph-name="three" unicode="3" horiz-adv-x="1118" 
d="M496 -31q-219 0 -345 88.5t-126 251.5q0 24 8 86h254v-18q0 -79 57 -122.5t172 -43.5q121 0 189.5 56t68.5 159t-75.5 145.5t-249.5 44.5l38 203q357 0 357 199q0 75 -51 114t-142 39q-92 0 -151.5 -40t-71.5 -119h-260q19 185 150 293t354 108q210 0 329 -94.5
t119 -251.5q0 -137 -84.5 -223t-240.5 -111v-4q112 -19 177.5 -99.5t65.5 -209.5q0 -92 -34 -172t-99 -143t-170.5 -99.5t-238.5 -36.5z" />
    <glyph glyph-name="four" unicode="4" horiz-adv-x="1159" 
d="M1120 1382l-176 -903h170l-47 -225h-166l-49 -254h-234l50 254h-674l39 197l850 931h237zM315 479h396l106 547h-8z" />
    <glyph glyph-name="five" unicode="5" horiz-adv-x="1097" 
d="M657 909q172 0 278.5 -109.5t106.5 -305.5q0 -232 -144 -378.5t-404 -146.5q-334 0 -496 244l184 168q67 -86 142.5 -128t175.5 -42q73 0 127.5 22.5t86 61.5t47 86.5t15.5 101.5q0 104 -55.5 159.5t-147.5 55.5q-135 0 -215 -98h-231l240 782h710l-49 -233h-506
l-106 -326h4q93 86 237 86z" />
    <glyph glyph-name="six" unicode="6" horiz-adv-x="1157" 
d="M545 -31q-230 0 -362 119t-132 340q0 160 77 298.5t261 320.5l359 354h335l-618 -578l4 -4q68 57 130 84t136 27q157 0 269 -114t112 -308q0 -112 -40.5 -210.5t-113.5 -171.5t-181 -115t-236 -42zM555 211q131 0 212 80t81 198q0 102 -66 160t-176 58q-131 0 -212 -80
t-81 -197q0 -103 66.5 -161t175.5 -58z" />
    <glyph glyph-name="seven" unicode="7" horiz-adv-x="950" 
d="M1096 1382l-43 -223l-768 -1159h-293l772 1143h-612l47 239h897z" />
    <glyph glyph-name="eight" unicode="8" horiz-adv-x="1161" 
d="M532 -31q-225 0 -351 104.5t-126 278.5q0 155 99 262t252 131l2 7q-84 29 -132.5 96.5t-48.5 167.5q0 171 134.5 284t363.5 113q205 0 320.5 -94.5t115.5 -249.5q0 -132 -80 -216t-219 -114l-2 -6q102 -30 157.5 -105t55.5 -194q0 -95 -35.5 -178.5t-101.5 -147.5
t-170.5 -101.5t-233.5 -37.5zM668 846q101 0 163 52.5t62 137.5q0 68 -46.5 106t-133.5 38q-101 0 -163.5 -51.5t-62.5 -133.5q0 -70 47 -109.5t134 -39.5zM545 211q120 0 193 67t73 166q0 88 -57 138.5t-160 50.5q-120 0 -193 -68.5t-73 -169.5q0 -86 57 -135t160 -49z" />
    <glyph glyph-name="nine" unicode="9" horiz-adv-x="1132" 
d="M154 0l618 561l-4 4q-125 -96 -262 -96q-163 0 -268 118.5t-105 299.5q0 109 40.5 205t112 167t177.5 112.5t231 41.5q103 0 189.5 -26t154.5 -77.5t106 -136.5t38 -196q0 -169 -83 -317.5t-270 -325.5l-354 -334h-321zM631 692q126 0 208.5 78t82.5 193q0 98 -63 152
t-169 54q-128 0 -209.5 -76.5t-81.5 -191.5q0 -98 63 -153.5t169 -55.5z" />
    <glyph glyph-name="colon" unicode=":" horiz-adv-x="487" 
d="M141 662l54 284h284l-55 -284h-283zM8 0l53 285h285l-55 -285h-283z" />
    <glyph glyph-name="semicolon" unicode=";" horiz-adv-x="509" 
d="M150 662l53 284h284l-55 -284h-282zM-53 -313l200 313h-110l55 285h281l-54 -285l-262 -313h-110z" />
    <glyph glyph-name="less" unicode="&#x3c;" 
d="M1069 1090v-132l-801 -346l801 -344v-131l-938 414v125z" />
    <glyph glyph-name="equal" unicode="=" 
d="M1159 874v-110h-1036v110h1036zM1159 465v-111h-1036v111h1036z" />
    <glyph glyph-name="greater" unicode="&#x3e;" 
d="M213 1090l938 -414v-125l-938 -414v131l801 344l-801 346v132z" />
    <glyph glyph-name="question" unicode="?" horiz-adv-x="1007" 
d="M348 451l12 59q27 128 95 213t178 162q76 54 114.5 104t38.5 109q0 58 -38 91.5t-115 33.5q-86 0 -144.5 -46.5t-72.5 -140.5h-252q31 216 158 322t329 106q190 0 293 -89t103 -247q0 -204 -222 -368q-47 -35 -68.5 -51.5t-53 -45.5t-47 -51.5t-30.5 -55.5t-24 -71
l-6 -34h-248zM246 0l55 285h283l-56 -285h-282z" />
    <glyph glyph-name="at" unicode="@" horiz-adv-x="1964" 
d="M942 -307q-170 0 -317.5 51t-261.5 148t-180 251t-66 346q0 203 72.5 376t199 293t304.5 187.5t384 67.5q185 0 339.5 -51.5t261.5 -142.5t166 -220.5t59 -281.5q0 -164 -61 -304.5t-170 -224.5t-242 -84q-96 0 -157.5 43.5t-80.5 120.5h-4q-113 -164 -291 -164
q-159 0 -258.5 108.5t-99.5 291.5q0 110 37 203.5t99.5 156.5t146 98t175.5 35q207 0 279 -174h4l25 144h206l-110 -572q-6 -27 -6 -43q0 -76 73 -76q67 0 123 61.5t86.5 158.5t30.5 204q0 172 -80 295t-220 183.5t-325 60.5q-220 0 -395 -88.5t-278 -258.5t-103 -394
q0 -126 33 -230.5t92 -178t141 -124t179 -74.5t206 -24q203 0 390 74l32 -170q-224 -78 -438 -78zM975 317q115 0 187.5 80t72.5 193q0 91 -53 143.5t-146 52.5q-117 0 -189.5 -79.5t-72.5 -192.5q0 -91 53 -144t148 -53z" />
    <glyph glyph-name="A" unicode="A" horiz-adv-x="1427" 
d="M1057 0l-58 328h-598l-182 -328h-305l846 1434h274l295 -1434h-272zM530 559h426l-102 576z" />
    <glyph glyph-name="B" unicode="B" horiz-adv-x="1286" 
d="M965 758q237 -54 237 -312q0 -110 -42.5 -196t-118 -140t-174 -82t-214.5 -28h-610l279 1434h548q177 0 278 -87.5t101 -242.5q0 -125 -73.5 -215.5t-210.5 -126.5v-4zM791 1192h-254l-68 -344h279q94 0 159.5 50.5t65.5 135.5q0 72 -46 115t-136 43zM664 242
q130 0 199 56.5t69 145.5q0 85 -53.5 132t-165.5 47h-287l-76 -381h314z" />
    <glyph glyph-name="C" unicode="C" horiz-adv-x="1409" 
d="M807 -31q-315 0 -505.5 189t-190.5 501q0 169 60.5 317t168.5 256t267 170t347 62q304 0 521 -155l-160 -228q-181 119 -369 119q-167 0 -293.5 -72.5t-191 -193.5t-64.5 -272q0 -197 114.5 -313t307.5 -116q174 0 357 109l124 -227q-235 -146 -493 -146z" />
    <glyph glyph-name="D" unicode="D" horiz-adv-x="1417" 
d="M43 0l279 1434h434q291 0 470 -173.5t179 -463.5q0 -175 -63.5 -323t-178.5 -252.5t-282.5 -163t-368.5 -58.5h-469zM352 242h199q252 0 412.5 151.5t160.5 399.5q0 189 -105.5 294t-285.5 105h-196z" />
    <glyph glyph-name="E" unicode="E" horiz-adv-x="1073" 
d="M1124 1192h-587l-56 -291h535l-47 -242h-535l-82 -417h596l-47 -242h-858l279 1434h849z" />
    <glyph glyph-name="F" unicode="F" horiz-adv-x="1030" 
d="M1143 1192h-606l-68 -356h545l-47 -242h-545l-117 -594h-262l279 1434h868z" />
    <glyph glyph-name="G" unicode="G" horiz-adv-x="1609" 
d="M930 805h690l-16 -107q-23 -160 -78.5 -289.5t-147 -229t-228 -154t-308.5 -54.5q-331 0 -530 186t-199 502q0 173 61 322t169 255t264 166t339 60t336.5 -54t263.5 -151l-186 -210q-179 153 -420 153q-128 0 -232.5 -44.5t-171.5 -120t-103 -172.5t-36 -206
q0 -201 122.5 -312.5t332.5 -111.5q187 0 295.5 90t142.5 242h-416z" />
    <glyph glyph-name="H" unicode="H" horiz-adv-x="1472" 
d="M1262 1434h262l-279 -1434h-262l123 629h-680l-121 -629h-262l279 1434h262l-109 -557h678z" />
    <glyph glyph-name="I" unicode="I" horiz-adv-x="534" 
d="M43 0l279 1434h264l-279 -1434h-264z" />
    <glyph glyph-name="J" unicode="J" horiz-adv-x="608" 
d="M-55 -8l45 250h61q56 0 90.5 28t48.5 95l209 1069h260l-215 -1115q-33 -172 -130.5 -249.5t-266.5 -77.5h-102z" />
    <glyph glyph-name="K" unicode="K" horiz-adv-x="1376" 
d="M1481 1434l-760 -699l557 -735h-344l-492 705l-137 -705h-262l279 1434h262l-125 -639l651 639h371z" />
    <glyph glyph-name="L" unicode="L" horiz-adv-x="999" 
d="M43 0l279 1434h262l-230 -1186h596l-47 -248h-860z" />
    <glyph glyph-name="M" unicode="M" horiz-adv-x="1812" 
d="M-86 0l606 1434h211l180 -832h4l486 832h211l102 -1434h-260l-57 942h-4l-437 -727h-196l-174 721h-4l-375 -936h-293z" />
    <glyph glyph-name="N" unicode="N" horiz-adv-x="1466" 
d="M43 0l279 1434h241l498 -1002h4l190 1002h263l-279 -1434h-244l-495 1001h-2l-193 -1001h-262z" />
    <glyph glyph-name="O" unicode="O" horiz-adv-x="1667" 
d="M823 -31q-209 0 -370 82.5t-251.5 237.5t-90.5 360q0 134 38 257.5t110.5 224.5t172.5 176t230 116t276 41q209 0 371 -82.5t253 -237.5t91 -360q0 -134 -38.5 -257.5t-111.5 -224.5t-173 -176t-230.5 -116t-276.5 -41zM836 231q127 0 230.5 45.5t169.5 123t101 177
t35 209.5q0 194 -126 305t-320 111q-127 0 -231 -45.5t-169.5 -123t-101 -177t-35.5 -209.5q0 -194 126.5 -305t320.5 -111z" />
    <glyph glyph-name="P" unicode="P" horiz-adv-x="1163" 
d="M756 1434q231 0 352 -115t121 -295q0 -105 -39 -194t-113 -156.5t-190.5 -105.5t-263.5 -38h-215l-103 -530h-262l279 1434h434zM666 772q129 0 204.5 62.5t75.5 173.5q0 93 -59 138.5t-162 45.5h-188l-82 -420h211z" />
    <glyph glyph-name="Q" unicode="Q" horiz-adv-x="1685" 
d="M1653 784q0 -163 -57 -309.5t-162 -255.5l213 -231h-314l-82 90q-188 -109 -428 -109q-209 0 -370 82.5t-251.5 237.5t-90.5 360q0 134 38 257.5t110.5 224.5t172.5 176t230 116t276 41q209 0 371 -82.5t253 -237.5t91 -360zM836 231q128 0 233 48l-262 284h309l135 -145
q121 151 121 368q0 194 -126 305t-320 111q-127 0 -231 -45.5t-169.5 -123t-101 -177t-35.5 -209.5q0 -194 126.5 -305t320.5 -111z" />
    <glyph glyph-name="R" unicode="R" horiz-adv-x="1236" 
d="M1239 1038q0 -177 -112 -299.5t-306 -156.5l318 -582h-301l-287 569h-135l-111 -569h-262l279 1434h466q215 0 333 -105.5t118 -290.5zM537 1192l-76 -391h223q124 0 197 56.5t73 156.5q0 178 -223 178h-194z" />
    <glyph glyph-name="S" unicode="S" horiz-adv-x="1058" 
d="M504 -31q-301 0 -539 205l158 221q204 -166 381 -166q86 0 134 40.5t48 107.5q0 40 -23 81.5t-83 96.5l-207 188q-168 151 -168 344q0 169 114 273t314 104q218 0 448 -141l-147 -231q-170 114 -305 114q-73 0 -108.5 -33.5t-35.5 -82.5q0 -40 25 -76.5t82 -87.5
l203 -183q96 -88 137 -173t41 -183q0 -200 -126 -309t-343 -109z" />
    <glyph glyph-name="T" unicode="T" horiz-adv-x="1077" 
d="M1247 1434l-47 -242h-391l-231 -1192h-263l232 1192h-391l47 242h1044z" />
    <glyph glyph-name="U" unicode="U" horiz-adv-x="1415" 
d="M1487 1434l-170 -869q-55 -280 -220.5 -437t-451.5 -157q-251 0 -386.5 122.5t-135.5 346.5q0 80 18 172l160 822h279l-162 -834q-12 -58 -12 -104q0 -125 70.5 -191.5t197.5 -66.5q151 0 244 93.5t124 250.5l166 852h279z" />
    <glyph glyph-name="V" unicode="V" horiz-adv-x="1339" 
d="M446 0l-253 1434h286l148 -1082h4l563 1082h326l-809 -1434h-265z" />
    <glyph glyph-name="W" unicode="W" horiz-adv-x="2127" 
d="M2275 1434l-735 -1434h-244l-125 1004h-4l-514 -1004h-241l-187 1434h289l88 -1010h4l510 1010h244l123 -1010h4l475 1010h313z" />
    <glyph glyph-name="X" unicode="X" horiz-adv-x="1370" 
d="M1513 1434l-604 -695l359 -739h-293l-254 541l-459 -541h-342l672 772l-324 662h293l217 -463l396 463h339z" />
    <glyph glyph-name="Y" unicode="Y" horiz-adv-x="1222" 
d="M1409 1434l-653 -889l-107 -545h-262l107 547l-308 887h287l178 -629h4l428 629h326z" />
    <glyph glyph-name="Z" unicode="Z" horiz-adv-x="1138" 
d="M1255 1434l-47 -246l-878 -942h721l-47 -246h-1053l47 246l881 942h-639l49 246h966z" />
    <glyph glyph-name="bracketleft" unicode="[" horiz-adv-x="712" 
d="M901 1554l-39 -200h-272l-309 -1596h270l-37 -198h-502l389 1994h500z" />
    <glyph glyph-name="backslash" unicode="\" horiz-adv-x="1261" 
d="M891 -207l-627 1720l189 72l628 -1722z" />
    <glyph glyph-name="bracketright" unicode="]" horiz-adv-x="712" 
d="M-158 -440l41 200h271l311 1596h-272l38 198h500l-387 -1994h-502z" />
    <glyph glyph-name="asciicircum" unicode="^" 
d="M795 1464l295 -659h-185l-227 520l-229 -520h-185l295 659h236z" />
    <glyph glyph-name="underscore" unicode="_" horiz-adv-x="1091" 
d="M-117 -229l39 198h1051l-39 -198h-1051z" />
    <glyph glyph-name="grave" unicode="`" horiz-adv-x="694" 
d="M571 1448l150 -315h-176l-252 315h278z" />
    <glyph glyph-name="a" unicode="a" horiz-adv-x="1208" 
d="M467 -31q-185 0 -298.5 125t-113.5 330q0 241 143.5 397t364.5 156q121 0 210 -51.5t132 -145.5h6l31 166h252l-184 -946h-250l24 129h-4q-127 -160 -313 -160zM569 203q125 0 207 84t82 213q0 110 -67.5 176.5t-180.5 66.5q-125 0 -206.5 -85.5t-81.5 -215.5
q0 -109 66.5 -174t180.5 -65z" />
    <glyph glyph-name="b" unicode="b" horiz-adv-x="1216" 
d="M647 -31q-122 0 -207 51t-129 144h-4l-31 -164h-251l278 1434h252l-119 -609h4q128 152 318 152q83 0 154.5 -27.5t128.5 -80.5t89.5 -141t32.5 -200q0 -156 -63.5 -283t-182 -201.5t-270.5 -74.5zM602 203q89 0 158 44t103 113t34 148q0 111 -66.5 173t-175.5 62
q-135 0 -215 -90.5t-80 -214.5q0 -111 66.5 -173t175.5 -62z" />
    <glyph glyph-name="c" unicode="c" horiz-adv-x="976" 
d="M553 -31q-218 0 -356 127.5t-138 347.5q0 234 152 383.5t412 149.5q209 0 385 -117l-136 -205q-129 88 -260 88t-210.5 -80.5t-79.5 -205.5q0 -114 69 -184t180 -70q101 0 213 59l90 -211q-151 -82 -321 -82z" />
    <glyph glyph-name="d" unicode="d" horiz-adv-x="1218" 
d="M1036 1434h252l-278 -1434h-250l24 129h-4q-127 -160 -313 -160q-185 0 -298.5 125t-113.5 330q0 241 143.5 397t364.5 156q121 0 210 -51.5t132 -145.5h6zM569 203q125 0 207 84t82 213q0 110 -67.5 176.5t-180.5 66.5q-125 0 -206.5 -85.5t-81.5 -215.5
q0 -109 66.5 -174t180.5 -65z" />
    <glyph glyph-name="e" unicode="e" horiz-adv-x="1091" 
d="M1047 584q0 -59 -21 -164h-727q9 -227 242 -227q170 0 317 118l107 -192q-198 -148 -433 -148q-220 0 -348.5 120t-128.5 329q0 112 37.5 212.5t106.5 177.5t175.5 122t235.5 45q203 0 320 -103.5t117 -289.5zM799 586q0 3 1 10.5t1 11.5q0 83 -53.5 128.5t-147.5 45.5
q-100 0 -174 -52t-107 -144h480z" />
    <glyph glyph-name="f" unicode="f" horiz-adv-x="681" 
d="M780 1454h51l-45 -235h-18q-88 0 -137.5 -40t-69.5 -139l-18 -94h190l-41 -211h-190l-144 -735h-252l144 735h-160l41 211h160l24 127q71 381 465 381z" />
    <glyph glyph-name="g" unicode="g" horiz-adv-x="1208" 
d="M942 946h252l-178 -921q-49 -253 -168 -359t-350 -106q-224 0 -437 82l86 225q185 -76 351 -76q118 0 178.5 51t85.5 170l22 117h-4q-127 -160 -313 -160q-185 0 -298.5 125t-113.5 330q0 241 143.5 397t364.5 156q121 0 210 -51.5t132 -145.5h6zM569 203q125 0 207 84
t82 213q0 110 -67.5 176.5t-180.5 66.5q-125 0 -206.5 -85.5t-81.5 -215.5q0 -109 66.5 -174t180.5 -65z" />
    <glyph glyph-name="h" unicode="h" horiz-adv-x="1134" 
d="M23 0l278 1434h252l-121 -623h4q128 166 322 166q135 0 218 -76t83 -235q0 -56 -17 -150l-100 -516h-252l98 502q9 44 9 78q0 82 -43 125t-119 43q-102 0 -172 -69.5t-98 -215.5l-91 -463h-251z" />
    <glyph glyph-name="i" unicode="i" horiz-adv-x="483" 
d="M567 1421l-53 -276h-287l54 276h286zM23 0l184 946h252l-185 -946h-251z" />
    <glyph glyph-name="j" unicode="j" horiz-adv-x="477" 
d="M567 1421l-53 -276h-287l54 276h286zM-184 -184h61q59 0 90.5 28.5t42.5 87.5l197 1014h254l-205 -1048q-31 -163 -129.5 -238.5t-259.5 -75.5h-96z" />
    <glyph glyph-name="k" unicode="k" horiz-adv-x="1052" 
d="M1087 946l-471 -452l334 -494h-309l-279 449l-88 -449h-251l278 1434h252l-170 -875l373 387h331z" />
    <glyph glyph-name="l" unicode="l" horiz-adv-x="483" 
d="M23 0l278 1434h252l-279 -1434h-251z" />
    <glyph glyph-name="m" unicode="m" horiz-adv-x="1687" 
d="M18 0l185 946h248l-29 -143h4q107 174 309 174q107 0 178 -51.5t91 -145.5h4q117 197 323 197q126 0 205.5 -74t79.5 -227q0 -59 -23 -168l-100 -508h-252l96 498q13 53 13 92q0 160 -148 160q-90 0 -147 -65t-84 -204l-92 -481h-248l98 494q12 56 12 98q0 158 -147 158
q-183 0 -234 -271l-92 -479h-250z" />
    <glyph glyph-name="n" unicode="n" horiz-adv-x="1128" 
d="M18 0l185 946h248l-29 -143h4q127 174 330 174q140 0 218.5 -79t78.5 -226q0 -77 -17 -166l-100 -506h-252l94 481q10 58 10 109q0 85 -41.5 125.5t-125.5 40.5q-104 0 -168.5 -69t-94.5 -224l-90 -463h-250z" />
    <glyph glyph-name="o" unicode="o" horiz-adv-x="1157" 
d="M535 -31q-217 0 -349.5 119.5t-132.5 331.5q0 240 159.5 398.5t410.5 158.5q217 0 349 -119t132 -332q0 -240 -159 -398.5t-410 -158.5zM553 207q132 0 212.5 87.5t80.5 215.5q0 111 -66.5 170t-175.5 59q-132 0 -212.5 -87.5t-80.5 -215.5q0 -111 66.5 -170t175.5 -59z
" />
    <glyph glyph-name="p" unicode="p" horiz-adv-x="1212" 
d="M-61 -412l264 1358h252l-25 -121h6q126 152 318 152q173 0 288 -118.5t115 -330.5q0 -240 -144 -399.5t-370 -159.5q-121 0 -207 50.5t-129 144.5h-6l-111 -576h-251zM596 203q129 0 212 88.5t83 216.5q0 112 -66 173.5t-174 61.5q-129 0 -212 -88.5t-83 -216.5
q0 -112 66 -173.5t174 -61.5z" />
    <glyph glyph-name="q" unicode="q" horiz-adv-x="1208" 
d="M942 946h252l-264 -1356h-250l104 539h-4q-127 -160 -313 -160q-185 0 -298.5 125t-113.5 330q0 241 143.5 397t364.5 156q121 0 210 -51.5t132 -145.5h6zM569 203q125 0 207 84t82 213q0 110 -67.5 176.5t-180.5 66.5q-125 0 -206.5 -85.5t-81.5 -215.5
q0 -109 66.5 -174t180.5 -65z" />
    <glyph glyph-name="r" unicode="r" horiz-adv-x="718" 
d="M18 0l185 946h248l-39 -196h4q94 225 338 225q25 0 37 -2l-56 -279q-12 2 -49 2q-145 0 -227 -72t-115 -237l-76 -387h-250z" />
    <glyph glyph-name="s" unicode="s" horiz-adv-x="833" 
d="M88 311q173 -127 305 -127q47 0 74 18.5t27 49.5q0 44 -70 88l-131 82q-85 54 -126.5 119t-41.5 151q0 130 89.5 207.5t244.5 77.5q187 0 375 -107l-107 -192q-139 86 -254 86q-92 0 -92 -66q0 -24 18.5 -45t63.5 -49l121 -74q89 -53 129.5 -114t40.5 -152
q0 -142 -94.5 -218.5t-264.5 -76.5q-244 0 -436 156z" />
    <glyph glyph-name="t" unicode="t" horiz-adv-x="690" 
d="M500 735l-78 -397q-4 -28 -4 -39q0 -37 20 -52.5t66 -15.5h41l-47 -233h-99q-116 0 -180.5 54t-64.5 161q0 45 8 86l86 436h-170l41 211h170l73 379h252l-73 -379h204l-40 -211h-205z" />
    <glyph glyph-name="u" unicode="u" horiz-adv-x="1105" 
d="M369 -31q-138 0 -220.5 76.5t-82.5 222.5q0 48 16 146l106 532h258l-98 -500q-10 -58 -10 -94q0 -77 41 -114t113 -37q197 0 253 291l89 454h253l-184 -946h-248l27 147h-4q-59 -92 -133 -135t-176 -43z" />
    <glyph glyph-name="v" unicode="v" horiz-adv-x="1038" 
d="M819 946h301l-571 -946h-246l-201 946h271l94 -655z" />
    <glyph glyph-name="w" unicode="w" horiz-adv-x="1585" 
d="M1389 946h272l-516 -946h-223l-95 621l-340 -621h-221l-145 946h250l63 -620l326 620h237l84 -620z" />
    <glyph glyph-name="x" unicode="x" horiz-adv-x="1046" 
d="M1106 946l-428 -459l266 -487h-266l-168 307l-287 -307h-305l479 512l-239 434h268l137 -254l238 254h305z" />
    <glyph glyph-name="y" unicode="y" horiz-adv-x="1038" 
d="M842 946h278l-831 -1358h-269l324 518l-242 840h271l133 -571z" />
    <glyph glyph-name="z" unicode="z" horiz-adv-x="907" 
d="M924 946l-39 -201l-578 -524h510l-43 -221h-823l39 203l575 522h-446l43 221h762z" />
    <glyph glyph-name="braceleft" unicode="{" horiz-adv-x="835" 
d="M1022 1544l-41 -213h-74q-45 0 -76.5 -7.5t-62 -28.5t-51 -62.5t-33.5 -104.5l-49 -256q-27 -132 -99 -201.5t-214 -92.5v-5q106 -23 153 -76.5t47 -148.5q0 -52 -12 -117l-47 -241q-8 -41 -8 -78q0 -42 11.5 -70.5t33.5 -43t46.5 -20t57.5 -5.5h74l-41 -213h-80
q-70 0 -128 16t-105.5 49.5t-74 92.5t-26.5 139q0 47 13 120l49 248q8 41 8 64q0 87 -57.5 128.5t-165.5 47.5l45 233q264 10 299 189l53 280q15 84 48 149.5t76 107.5t98.5 69.5t112 39t120.5 11.5h100z" />
    <glyph glyph-name="bar" unicode="|" horiz-adv-x="651" 
d="M47 -440l377 1929h199l-377 -1929h-199z" />
    <glyph glyph-name="braceright" unicode="}" horiz-adv-x="835" 
d="M-158 -440l43 213h74q45 0 76.5 7.5t62 28t51 62t33.5 104.5l49 256q27 132 99 202t215 93v4q-106 23 -153.5 77t-47.5 149q0 49 12 116l45 240q11 43 11 80q0 80 -40 109.5t-110 29.5h-74l41 213h80q70 0 127.5 -16t104.5 -49.5t73.5 -93t26.5 -140.5q0 -55 -12 -119
l-47 -247q-9 -49 -9 -66q0 -163 222 -176l-45 -231q-263 -13 -297 -189l-54 -280q-19 -104 -64 -179.5t-107.5 -117.5t-132.5 -61t-150 -19h-103z" />
    <glyph glyph-name="asciitilde" unicode="~" 
d="M432 799q65 0 128.5 -19.5t104.5 -43t95 -43t104 -19.5q37 0 68.5 8t64.5 27.5t51 32.5t56 44l108 -172q-182 -153 -356 -153q-64 0 -125.5 19t-102.5 42.5t-96.5 42.5t-107.5 19q-15 0 -30.5 -2t-27 -4t-27.5 -8.5t-23.5 -8.5t-24.5 -12.5t-21.5 -13t-23.5 -16t-21 -15
t-23 -18t-22 -17.5l-106 172q97 81 181 119.5t177 38.5z" />
    <glyph glyph-name="exclamdown" unicode="&#xa1;" horiz-adv-x="665" 
d="M578 1024l-56 -285h-284l55 285h285zM14 -410l248 983h176l-127 -983h-297z" />
    <glyph glyph-name="cent" unicode="&#xa2;" horiz-adv-x="946" 
d="M909 670q-150 61 -250 61l-100 -516h10q107 0 277 64l-51 -261q-123 -49 -260 -49h-23l-20 -100h-58l21 104q-175 24 -280 143t-105 312q0 243 160.5 396t418.5 153h2l21 110h57l-22 -112q149 -11 258 -60zM338 436q0 -90 44.5 -145t121.5 -70l98 508
q-121 -14 -192.5 -92.5t-71.5 -200.5z" />
    <glyph glyph-name="sterling" unicode="&#xa3;" horiz-adv-x="1103" 
d="M1159 993h-260v19q0 82 -44 119.5t-130 37.5q-99 0 -152 -50.5t-53 -139.5q0 -74 55 -211h343l-13 -61h-307q35 -107 35 -162q0 -105 -76.5 -177.5t-210.5 -129.5l2 -7h613l-46 -231h-888l36 188q304 156 304 347q0 66 -45 172h-195l12 61h158q-41 109 -41 213
q0 193 126 312.5t361 119.5q125 0 217 -34.5t147.5 -113.5t55.5 -196q0 -26 -4 -76z" />
    <glyph glyph-name="currency" unicode="&#xa4;" 
d="M211 186l-39 41l115 115q-119 132 -119 322q0 188 121 319l-117 117l41 41l117 -117q134 115 319 115q186 0 320 -115l116 117l41 -41l-114 -117q118 -130 118 -319q0 -195 -118 -322l114 -117l-41 -39l-116 115q-132 -113 -320 -113q-190 0 -321 115zM649 414
q108 0 176 70.5t68 179.5q0 108 -68 178.5t-176 70.5t-175.5 -70.5t-67.5 -178.5q0 -109 67.5 -179.5t175.5 -70.5z" />
    <glyph glyph-name="yen" unicode="&#xa5;" horiz-adv-x="1247" 
d="M1376 1382l-483 -692h237l-12 -61h-268l-80 -115h326l-13 -61h-344l-88 -453h-245l88 453h-340l12 61h326l-35 115h-269l13 61h235l-213 692h277l159 -639l406 639h311z" />
    <glyph glyph-name="brokenbar" unicode="&#xa6;" horiz-adv-x="651" 
d="M623 1489l-156 -795h-199l156 795h199zM406 371l-158 -811h-199l158 811h199z" />
    <glyph glyph-name="section" unicode="&#xa7;" horiz-adv-x="1175" 
d="M573 1128q0 -40 28 -72.5t73.5 -57.5t100 -51t109 -59t100 -74t73.5 -104t28 -141q0 -241 -266 -360q64 -80 64 -195q0 -68 -22.5 -126.5t-69.5 -107.5t-130.5 -77.5t-195.5 -28.5q-229 0 -410 121l133 195q129 -92 281 -92q85 0 128.5 31t43.5 81q0 40 -28 73.5
t-73 59.5t-99.5 52.5t-109 60.5t-99.5 76t-73 105.5t-28 142.5q0 239 264 352q-63 79 -63 192q0 69 23.5 128.5t71.5 108t130.5 76t192.5 27.5q234 0 411 -118l-139 -197q-126 92 -277 92q-85 0 -128.5 -31.5t-43.5 -81.5zM657 336q183 83 183 211q0 32 -12.5 60.5t-29 48
t-49 42t-56.5 35.5t-67.5 36t-66.5 36q-184 -83 -184 -213q0 -32 12.5 -60.5t29.5 -48t50 -42t56 -35t67.5 -35.5t66.5 -35z" />
    <glyph glyph-name="dieresis" unicode="&#xa8;" horiz-adv-x="819" 
d="M236 1153l49 260h229l-51 -260h-227zM621 1153l49 260h229l-51 -260h-227z" />
    <glyph glyph-name="copyright" unicode="&#xa9;" horiz-adv-x="1726" 
d="M911 -31q-155 0 -293 56.5t-237.5 155t-157 238t-57.5 298.5q0 212 98 383.5t268.5 267.5t378.5 96t378.5 -96t269 -267.5t98.5 -383.5q0 -159 -58 -298.5t-157.5 -238t-237.5 -155t-293 -56.5zM911 104q169 0 306.5 78t216.5 218.5t79 316.5t-79 316.5t-216.5 218
t-306.5 77.5t-306.5 -77.5t-216.5 -218t-79 -316.5t79 -316.5t216.5 -218.5t306.5 -78zM924 262q-206 0 -342 132t-136 333q0 200 136.5 332.5t341.5 132.5q168 0 309 -98l-88 -154q-115 72 -227 72q-123 0 -200 -79t-77 -206t77 -206t200 -79q115 0 227 70l88 -154
q-138 -96 -309 -96z" />
    <glyph glyph-name="ordfeminine" unicode="&#xaa;" horiz-adv-x="880" 
d="M459 692q-118 0 -196.5 80t-78.5 221q0 156 94 261.5t252 105.5q78 0 137.5 -35t88.5 -98h2l20 112h197l-121 -626h-197l19 90h-2q-80 -111 -215 -111zM545 874q81 0 127.5 49.5t46.5 116.5q0 65 -42 101.5t-110 36.5q-82 0 -128 -49t-46 -117q0 -65 42.5 -101.5
t109.5 -36.5z" />
    <glyph glyph-name="guillemotleft" unicode="&#xab;" horiz-adv-x="1060" 
d="M289 141l-250 342l383 340h274l-409 -358l241 -324h-239zM700 141l-251 342l382 340h277l-410 -358l242 -324h-240z" />
    <glyph glyph-name="logicalnot" unicode="&#xac;" 
d="M174 885h936v-111v-432h-109v432h-827v111z" />
    <glyph glyph-name="uni00AD" unicode="&#xad;" horiz-adv-x="786" 
d="M86 426l47 233h594l-47 -233h-594z" />
    <glyph glyph-name="registered" unicode="&#xae;" horiz-adv-x="1185" 
d="M690 1464q211 0 346 -135t135 -348q0 -215 -135 -350t-346 -135q-210 0 -344.5 135.5t-134.5 349.5q0 213 134.5 348t344.5 135zM690 590q168 0 275.5 108.5t107.5 282.5t-107.5 281.5t-275.5 107.5q-167 0 -274 -108t-107 -281q0 -174 107 -282.5t274 -108.5zM897 1106
q0 -60 -32.5 -102.5t-88.5 -57.5l139 -215h-106l-127 209h-64v-209h-90v533h197q76 0 124 -43.5t48 -114.5zM618 1180v-156h95q43 0 65.5 21.5t22.5 56.5q0 36 -23 57t-65 21h-95z" />
    <glyph glyph-name="macron" unicode="&#xaf;" horiz-adv-x="831" 
d="M903 1366l-33 -174h-628l34 174h627z" />
    <glyph glyph-name="degree" unicode="&#xb0;" horiz-adv-x="751" 
d="M502 1413q125 0 207 -80t82 -207q0 -128 -81.5 -208t-207.5 -80q-124 0 -205.5 80t-81.5 208q0 126 81.5 206.5t205.5 80.5zM502 1298q-73 0 -121.5 -48t-48.5 -124q0 -77 48.5 -125.5t121.5 -48.5t121.5 48.5t48.5 125.5q0 76 -48.5 124t-121.5 48z" />
    <glyph glyph-name="plusminus" unicode="&#xb1;" 
d="M678 1069v-272h430v-115h-430v-272h-119v272h-428v115h428v272h119zM1108 313v-110h-977v110h977z" />
    <glyph glyph-name="uni00B2" unicode="&#xb2;" horiz-adv-x="843" 
d="M604 1647q156 0 242 -69.5t86 -191.5q0 -97 -58.5 -171.5t-175.5 -153.5l-209 -141h357l-41 -207h-678l37 186l373 272q90 65 127.5 105t37.5 82t-30 64t-84 22q-56 0 -93 -27.5t-44 -81.5h-222q51 312 375 312z" />
    <glyph glyph-name="uni00B3" unicode="&#xb3;" horiz-adv-x="819" 
d="M475 692q-147 0 -239.5 59.5t-92.5 176.5q0 25 7 65h215q0 -4 -1.5 -10t-1.5 -10q0 -38 33 -58t92 -20q76 0 115 30t39 81q0 52 -41.5 74t-136.5 22l29 155q99 1 141.5 29t42.5 80q0 80 -107 80q-56 0 -90.5 -22t-38.5 -60h-213q14 130 106.5 205.5t252.5 75.5
q142 0 229.5 -60.5t87.5 -173.5q0 -86 -54 -141t-151 -70v-4q160 -27 160 -195q0 -60 -20 -113t-63 -98t-120 -71.5t-180 -26.5z" />
    <glyph glyph-name="acute" unicode="&#xb4;" horiz-adv-x="727" 
d="M231 1133l283 315h301l-381 -315h-203z" />
    <glyph glyph-name="paragraph" unicode="&#xb6;" horiz-adv-x="1318" 
d="M1403 1434l-39 -189h-127l-285 -1462h-188l285 1462h-201l-283 -1462h-188l164 852q-141 0 -233.5 100t-92.5 264q0 194 135 314.5t369 120.5h684z" />
    <glyph glyph-name="periodcentered" unicode="&#xb7;" horiz-adv-x="481" 
d="M137 662l56 284h282l-55 -284h-283z" />
    <glyph glyph-name="cedilla" unicode="&#xb8;" horiz-adv-x="540" 
d="M-31 -434l-28 69q48 21 71 31.5t51 26.5t39 29.5t11 29.5q0 24 -27 39.5t-84 30.5l148 250h94l-92 -146q73 -22 112 -52t39 -85q0 -32 -19 -61t-48 -50t-76.5 -42.5t-89 -36t-101.5 -33.5z" />
    <glyph glyph-name="uni00B9" unicode="&#xb9;" horiz-adv-x="620" 
d="M639 1626l-176 -913h-227l135 698h-43l41 215h270z" />
    <glyph glyph-name="ordmasculine" unicode="&#xba;" horiz-adv-x="874" 
d="M573 1360q153 0 243.5 -83t90.5 -220q0 -155 -107.5 -260t-283.5 -105q-153 0 -243.5 83t-90.5 220q0 155 107.5 260t283.5 105zM563 1178q-82 0 -130 -51.5t-48 -120.5q0 -62 38.5 -97t102.5 -35q82 0 129 51.5t47 121.5q0 62 -37.5 96.5t-101.5 34.5z" />
    <glyph glyph-name="guillemotright" unicode="&#xbb;" horiz-adv-x="1069" 
d="M573 815l252 -342l-383 -342h-276h-4l409 361l-241 323h239h4z" />
    <glyph glyph-name="onequarter" unicode="&#xbc;" horiz-adv-x="1540" 
d="M1180 1382h137l-1022 -1382h-137zM395 592h-139l125 651h-66l27 139h207zM1446 791l-100 -521h90l-27 -129h-90l-27 -141h-137l27 141h-414l23 121l495 529h160zM948 270h258l68 346h-4z" />
    <glyph glyph-name="onehalf" unicode="&#xbd;" horiz-adv-x="1599" 
d="M158 0l1022 1382h137l-1022 -1382h-137zM256 592l125 651h-66l27 139h207l-154 -790h-139zM838 0l22 117l342 274q39 31 57 46t44.5 41.5t37.5 51.5t11 52q0 45 -31 70.5t-86 25.5q-59 0 -97 -30t-48 -87h-140q12 111 88.5 179.5t204.5 68.5q111 0 183.5 -54.5
t72.5 -158.5q0 -84 -47.5 -146.5t-153.5 -144.5l-221 -170h353l-27 -135h-565z" />
    <glyph glyph-name="threequarters" unicode="&#xbe;" horiz-adv-x="1742" 
d="M723 827q0 -47 -16 -90t-50 -81t-96 -60.5t-145 -22.5q-133 0 -209 52.5t-76 148.5q0 19 4 47h139v-14q0 -105 148 -105q80 0 116.5 35.5t36.5 87.5q0 62 -45.5 89t-152.5 26l26 125q105 0 156 28.5t51 90.5q0 90 -112 90q-59 0 -96.5 -28t-45.5 -75h-137
q15 114 87.5 172t197.5 58q114 0 184 -47t70 -144q0 -78 -48.5 -130.5t-136.5 -69.5v-2q70 -11 110 -57.5t40 -123.5zM1382 1382h138l-1022 -1382h-138zM1649 791l-101 -521h90l-26 -129h-90l-27 -141h-137l26 141h-413l22 121l496 529h160zM1151 270h258l68 346h-4z" />
    <glyph glyph-name="questiondown" unicode="&#xbf;" horiz-adv-x="880" 
d="M731 1022l-55 -285h-283l56 285h282zM631 569l-13 -59q-27 -126 -95 -210.5t-177 -162.5q-76 -53 -114.5 -104t-38.5 -109t37.5 -92.5t113.5 -34.5q88 0 146 46.5t71 140.5h252q-30 -216 -157.5 -321t-329.5 -105q-191 0 -293.5 87.5t-102.5 245.5q0 112 58.5 202
t163.5 169q40 30 50.5 37.5t41 32t39.5 35t29.5 33.5t28.5 40.5t18 42t16 52.5l8 34h248z" />
    <glyph glyph-name="Agrave" unicode="&#xc0;" horiz-adv-x="1427" 
d="M1006 1522h-168l-277 245h287zM1057 0l-58 328h-598l-182 -328h-305l846 1434h274l295 -1434h-272zM530 559h426l-102 576z" />
    <glyph glyph-name="Aacute" unicode="&#xc1;" horiz-adv-x="1427" 
d="M1362 1767l-373 -245h-184l260 245h297zM760 1434h274l295 -1434h-272l-58 328h-598l-182 -328h-305zM530 559h426l-102 576z" />
    <glyph glyph-name="Acircumflex" unicode="&#xc2;" horiz-adv-x="1427" 
d="M946 1665l-182 -143h-238l303 245h250l193 -245h-211zM1057 0l-58 328h-598l-182 -328h-305l846 1434h274l295 -1434h-272zM530 559h426l-102 576z" />
    <glyph glyph-name="Atilde" unicode="&#xc3;" horiz-adv-x="1427" 
d="M772 1597q-68 0 -127 -79l-84 26q44 105 106 168.5t154 63.5q53 0 113 -22.5t115 -45t94 -22.5q37 0 66.5 18.5t62.5 60.5l84 -26q-21 -50 -44 -88t-54.5 -72.5t-73 -53t-90.5 -18.5q-65 0 -171 45t-151 45zM760 1434h274l295 -1434h-272l-58 328h-598l-182 -328h-305z
M530 559h426l-102 576z" />
    <glyph glyph-name="Adieresis" unicode="&#xc4;" horiz-adv-x="1427" 
d="M860 1745l-43 -223h-244l43 223h244zM1284 1745l-41 -223h-244l43 223h242zM1057 0l-58 328h-598l-182 -328h-305l846 1434h274l295 -1434h-272zM530 559h426l-102 576z" />
    <glyph glyph-name="Aring" unicode="&#xc5;" horiz-adv-x="1427" 
d="M1057 0l-58 328h-598l-182 -328h-305l813 1380q-59 56 -59 154q0 112 76.5 191t197.5 79q101 0 159 -58.5t58 -152.5q0 -68 -29.5 -126t-82.5 -93l282 -1374h-272zM932 1694q-72 0 -111 -47t-39 -105q0 -49 29.5 -78.5t83.5 -29.5q72 0 110.5 46.5t38.5 104.5
q0 49 -28.5 79t-83.5 30zM530 559h426l-102 576z" />
    <glyph glyph-name="AE" unicode="&#xc6;" horiz-adv-x="1984" 
d="M2036 1192h-543l-55 -291h487l-45 -242h-489l-82 -417h551l-48 -242h-657h-147l61 326h-541l-268 -326h-346l1216 1434h410h543zM723 563h393l121 625z" />
    <glyph glyph-name="Ccedilla" unicode="&#xc7;" horiz-adv-x="1409" 
d="M946 1200q-167 0 -293.5 -72.5t-191 -193.5t-64.5 -272q0 -197 114.5 -313t307.5 -116q174 0 357 109l124 -227q-235 -146 -493 -146h-21l-26 -43q73 -22 112 -52t39 -85q0 -32 -19 -61t-47.5 -50t-76 -42.5t-89 -36t-101.5 -33.5l-29 69q48 21 71 31.5t51 26.5t39 29.5
t11 29.5q0 24 -27 39.5t-84 30.5l90 153q-271 32 -430 216t-159 468q0 169 60.5 317t168.5 256t267 170t347 62q304 0 521 -155l-160 -228q-181 119 -369 119z" />
    <glyph glyph-name="Egrave" unicode="&#xc8;" horiz-adv-x="1073" 
d="M877 1522h-168l-277 245h287zM1124 1192h-587l-56 -291h535l-47 -242h-535l-82 -417h596l-47 -242h-858l279 1434h849z" />
    <glyph glyph-name="Eacute" unicode="&#xc9;" horiz-adv-x="1073" 
d="M1233 1767l-373 -245h-184l260 245h297zM43 0l279 1434h849l-47 -242h-587l-56 -291h535l-47 -242h-535l-82 -417h596l-47 -242h-858z" />
    <glyph glyph-name="Ecircumflex" unicode="&#xca;" horiz-adv-x="1073" 
d="M817 1665l-182 -143h-238l303 245h250l193 -245h-211zM1124 1192h-587l-56 -291h535l-47 -242h-535l-82 -417h596l-47 -242h-858l279 1434h849z" />
    <glyph glyph-name="Edieresis" unicode="&#xcb;" horiz-adv-x="1073" 
d="M731 1745l-43 -223h-244l43 223h244zM1155 1745l-41 -223h-244l43 223h242zM1124 1192h-587l-56 -291h535l-47 -242h-535l-82 -417h596l-47 -242h-858l279 1434h849z" />
    <glyph glyph-name="Igrave" unicode="&#xcc;" horiz-adv-x="534" 
d="M406 1767l157 -245h-168l-276 245h287zM43 0l279 1434h264l-279 -1434h-264z" />
    <glyph glyph-name="Iacute" unicode="&#xcd;" horiz-adv-x="534" 
d="M362 1522l261 245h297l-373 -245h-185zM43 0l279 1434h264l-279 -1434h-264z" />
    <glyph glyph-name="Icircumflex" unicode="&#xce;" horiz-adv-x="534" 
d="M84 1522l303 245h250l192 -245h-211l-114 143l-182 -143h-238zM43 0l279 1434h264l-279 -1434h-264z" />
    <glyph glyph-name="Idieresis" unicode="&#xcf;" horiz-adv-x="534" 
d="M131 1522l43 223h244l-43 -223h-244zM557 1522l43 223h242l-41 -223h-244zM43 0l279 1434h264l-279 -1434h-264z" />
    <glyph glyph-name="Eth" unicode="&#xd0;" horiz-adv-x="1417" 
d="M43 0l279 1434h434q291 0 470 -173.5t179 -463.5q0 -175 -63.5 -323t-178.5 -252.5t-282.5 -163t-368.5 -58.5h-469zM352 242h199q252 0 412.5 151.5t160.5 399.5q0 189 -105.5 294t-285.5 105h-196zM358 743l2 -6h60l-2 6h-60z" />
    <glyph glyph-name="Ntilde" unicode="&#xd1;" horiz-adv-x="1466" 
d="M1108 1507q-65 0 -171 45t-151 45q-68 0 -127 -79l-84 26q98 232 261 232q53 0 113 -22.5t114.5 -45t93.5 -22.5q37 0 66.5 18.5t62.5 60.5l84 -26q-21 -50 -44 -88t-54.5 -72.5t-73 -53t-90.5 -18.5zM43 0l279 1434h241l498 -1002h4l190 1002h263l-279 -1434h-244
l-495 1001h-2l-193 -1001h-262z" />
    <glyph glyph-name="Ograve" unicode="&#xd2;" horiz-adv-x="1667" 
d="M901 1767l158 -245h-168l-277 245h287zM823 -31q-209 0 -370 82.5t-251.5 237.5t-90.5 360q0 134 38 257.5t110.5 224.5t172.5 176t230 116t276 41q209 0 371 -82.5t253 -237.5t91 -360q0 -134 -38.5 -257.5t-111.5 -224.5t-173 -176t-230.5 -116t-276.5 -41zM836 231
q127 0 230.5 45.5t169.5 123t101 177t35 209.5q0 194 -126 305t-320 111q-127 0 -231 -45.5t-169.5 -123t-101 -177t-35.5 -209.5q0 -194 126.5 -305t320.5 -111z" />
    <glyph glyph-name="Oacute" unicode="&#xd3;" horiz-adv-x="1667" 
d="M858 1522l260 245h297l-373 -245h-184zM823 -31q-209 0 -370 82.5t-251.5 237.5t-90.5 360q0 134 38 257.5t110.5 224.5t172.5 176t230 116t276 41q209 0 371 -82.5t253 -237.5t91 -360q0 -134 -38.5 -257.5t-111.5 -224.5t-173 -176t-230.5 -116t-276.5 -41zM836 231
q127 0 230.5 45.5t169.5 123t101 177t35 209.5q0 194 -126 305t-320 111q-127 0 -231 -45.5t-169.5 -123t-101 -177t-35.5 -209.5q0 -194 126.5 -305t320.5 -111z" />
    <glyph glyph-name="Ocircumflex" unicode="&#xd4;" horiz-adv-x="1667" 
d="M580 1522l303 245h250l192 -245h-211l-115 143l-182 -143h-237zM823 -31q-209 0 -370 82.5t-251.5 237.5t-90.5 360q0 134 38 257.5t110.5 224.5t172.5 176t230 116t276 41q209 0 371 -82.5t253 -237.5t91 -360q0 -134 -38.5 -257.5t-111.5 -224.5t-173 -176t-230.5 -116
t-276.5 -41zM836 231q127 0 230.5 45.5t169.5 123t101 177t35 209.5q0 194 -126 305t-320 111q-127 0 -231 -45.5t-169.5 -123t-101 -177t-35.5 -209.5q0 -194 126.5 -305t320.5 -111z" />
    <glyph glyph-name="Otilde" unicode="&#xd5;" horiz-adv-x="1667" 
d="M1147 1507q-65 0 -171 45t-151 45q-68 0 -127 -79l-84 26q44 105 106 168.5t154 63.5q53 0 113 -22.5t115 -45t94 -22.5q37 0 66.5 18.5t62.5 60.5l84 -26q-21 -50 -44 -88t-54.5 -72.5t-73 -53t-90.5 -18.5zM823 -31q-209 0 -370 82.5t-251.5 237.5t-90.5 360
q0 134 38 257.5t110.5 224.5t172.5 176t230 116t276 41q209 0 371 -82.5t253 -237.5t91 -360q0 -134 -38.5 -257.5t-111.5 -224.5t-173 -176t-230.5 -116t-276.5 -41zM836 231q127 0 230.5 45.5t169.5 123t101 177t35 209.5q0 194 -126 305t-320 111q-127 0 -231 -45.5
t-169.5 -123t-101 -177t-35.5 -209.5q0 -194 126.5 -305t320.5 -111z" />
    <glyph glyph-name="Odieresis" unicode="&#xd6;" horiz-adv-x="1667" 
d="M629 1522l43 223h243l-43 -223h-243zM1055 1522l43 223h241l-41 -223h-243zM823 -31q-209 0 -370 82.5t-251.5 237.5t-90.5 360q0 134 38 257.5t110.5 224.5t172.5 176t230 116t276 41q209 0 371 -82.5t253 -237.5t91 -360q0 -134 -38.5 -257.5t-111.5 -224.5t-173 -176
t-230.5 -116t-276.5 -41zM836 231q127 0 230.5 45.5t169.5 123t101 177t35 209.5q0 194 -126 305t-320 111q-127 0 -231 -45.5t-169.5 -123t-101 -177t-35.5 -209.5q0 -194 126.5 -305t320.5 -111z" />
    <glyph glyph-name="multiply" unicode="&#xd7;" 
d="M1004 1059l83 -84l-364 -365l364 -364l-83 -82l-363 362l-365 -364l-86 86l365 364l-362 363l81 84l365 -365z" />
    <glyph glyph-name="Oslash" unicode="&#xd8;" horiz-adv-x="1667" 
d="M1460 1274q193 -190 193 -490q0 -134 -38.5 -257.5t-111.5 -224.5t-173 -176t-230.5 -116t-276.5 -41q-268 0 -454 135l-127 -137l-68 60l127 135q-190 184 -190 487q0 134 38 257.5t110.5 224.5t172.5 176t230 116t276 41q269 0 455 -135l127 135l65 -59zM389 647
q0 -168 103 -282l710 761q-118 76 -276 76q-127 0 -231 -45.5t-169.5 -123t-101 -177t-35.5 -209.5zM836 231q127 0 230.5 45.5t169.5 123t101 177t35 209.5q0 170 -102 283l-711 -762q118 -76 277 -76z" />
    <glyph glyph-name="Ugrave" unicode="&#xd9;" horiz-adv-x="1415" 
d="M836 1767l157 -245h-168l-276 245h287zM1487 1434l-170 -869q-55 -280 -220.5 -437t-451.5 -157q-251 0 -386.5 122.5t-135.5 346.5q0 80 18 172l160 822h279l-162 -834q-12 -58 -12 -104q0 -125 70.5 -191.5t197.5 -66.5q151 0 244 93.5t124 250.5l166 852h279z" />
    <glyph glyph-name="Uacute" unicode="&#xda;" horiz-adv-x="1415" 
d="M793 1522l260 245h297l-373 -245h-184zM1487 1434l-170 -869q-55 -280 -220.5 -437t-451.5 -157q-251 0 -386.5 122.5t-135.5 346.5q0 80 18 172l160 822h279l-162 -834q-12 -58 -12 -104q0 -125 70.5 -191.5t197.5 -66.5q151 0 244 93.5t124 250.5l166 852h279z" />
    <glyph glyph-name="Ucircumflex" unicode="&#xdb;" horiz-adv-x="1415" 
d="M514 1522l303 245h250l193 -245h-211l-115 143l-182 -143h-238zM1487 1434l-170 -869q-55 -280 -220.5 -437t-451.5 -157q-251 0 -386.5 122.5t-135.5 346.5q0 80 18 172l160 822h279l-162 -834q-12 -58 -12 -104q0 -125 70.5 -191.5t197.5 -66.5q151 0 244 93.5
t124 250.5l166 852h279z" />
    <glyph glyph-name="Udieresis" unicode="&#xdc;" horiz-adv-x="1415" 
d="M561 1522l43 223h244l-43 -223h-244zM987 1522l43 223h242l-41 -223h-244zM1487 1434l-170 -869q-55 -280 -220.5 -437t-451.5 -157q-251 0 -386.5 122.5t-135.5 346.5q0 80 18 172l160 822h279l-162 -834q-12 -58 -12 -104q0 -125 70.5 -191.5t197.5 -66.5
q151 0 244 93.5t124 250.5l166 852h279z" />
    <glyph glyph-name="Yacute" unicode="&#xdd;" horiz-adv-x="1222" 
d="M1235 1767l-373 -245h-184l260 245h297zM1409 1434l-653 -889l-107 -545h-262l107 547l-308 887h287l178 -629h4l428 629h326z" />
    <glyph glyph-name="Thorn" unicode="&#xde;" horiz-adv-x="1210" 
d="M721 1157q117 0 209 -32t149 -88.5t86 -129.5t29 -159q0 -105 -39 -194t-113 -156.5t-190.5 -105.5t-263.5 -38h-234l-49 -254h-262l279 1434h260l-54 -277h193zM631 496q128 0 203 61t75 172q0 95 -58 140.5t-161 45.5h-209l-80 -419h230z" />
    <glyph glyph-name="germandbls" unicode="&#xdf;" horiz-adv-x="1189" 
d="M786 813q342 -27 342 -336q0 -227 -167 -357t-441 -130h-141l45 225h80q187 0 276.5 63t89.5 195q0 114 -76.5 169.5t-254.5 55.5l41 201q137 0 213.5 49t76.5 148q0 143 -161 143q-190 0 -232 -211l-252 -1294h-252l246 1276q42 218 164 336t348 118q187 0 293 -87
t106 -240q0 -129 -84.5 -216.5t-259.5 -103.5v-4z" />
    <glyph glyph-name="agrave" unicode="&#xe0;" horiz-adv-x="1208" 
d="M612 1448l150 -315h-176l-252 315h278zM467 -31q-185 0 -298.5 125t-113.5 330q0 241 143.5 397t364.5 156q121 0 210 -51.5t132 -145.5h6l31 166h252l-184 -946h-250l24 129h-4q-127 -160 -313 -160zM569 203q125 0 207 84t82 213q0 110 -67.5 176.5t-180.5 66.5
q-125 0 -206.5 -85.5t-81.5 -215.5q0 -109 66.5 -174t180.5 -65z" />
    <glyph glyph-name="aacute" unicode="&#xe1;" horiz-adv-x="1208" 
d="M602 1133l283 315h301l-381 -315h-203zM467 -31q-185 0 -298.5 125t-113.5 330q0 241 143.5 397t364.5 156q121 0 210 -51.5t132 -145.5h6l31 166h252l-184 -946h-250l24 129h-4q-127 -160 -313 -160zM569 203q125 0 207 84t82 213q0 110 -67.5 176.5t-180.5 66.5
q-125 0 -206.5 -85.5t-81.5 -215.5q0 -109 66.5 -174t180.5 -65z" />
    <glyph glyph-name="acircumflex" unicode="&#xe2;" horiz-adv-x="1208" 
d="M301 1133l315 315h240l191 -315h-209l-113 192l-188 -192h-236zM467 -31q-185 0 -298.5 125t-113.5 330q0 241 143.5 397t364.5 156q121 0 210 -51.5t132 -145.5h6l31 166h252l-184 -946h-250l24 129h-4q-127 -160 -313 -160zM569 203q125 0 207 84t82 213
q0 110 -67.5 176.5t-180.5 66.5q-125 0 -206.5 -85.5t-81.5 -215.5q0 -109 66.5 -174t180.5 -65z" />
    <glyph glyph-name="atilde" unicode="&#xe3;" horiz-adv-x="1208" 
d="M872 1151q-57 0 -117.5 27.5t-113.5 54.5t-90 27q-67 0 -127 -95l-94 31q47 114 110.5 181t155.5 67q57 0 118 -27t114 -53.5t90 -26.5q62 0 126 93l93 -31q-22 -54 -46.5 -95.5t-56.5 -77.5t-73 -55.5t-89 -19.5zM467 -31q-185 0 -298.5 125t-113.5 330q0 241 143.5 397
t364.5 156q121 0 210 -51.5t132 -145.5h6l31 166h252l-184 -946h-250l24 129h-4q-127 -160 -313 -160zM569 203q125 0 207 84t82 213q0 110 -67.5 176.5t-180.5 66.5q-125 0 -206.5 -85.5t-81.5 -215.5q0 -109 66.5 -174t180.5 -65z" />
    <glyph glyph-name="adieresis" unicode="&#xe4;" horiz-adv-x="1208" 
d="M389 1153l49 260h230l-52 -260h-227zM774 1153l49 260h230l-52 -260h-227zM467 -31q-185 0 -298.5 125t-113.5 330q0 241 143.5 397t364.5 156q121 0 210 -51.5t132 -145.5h6l31 166h252l-184 -946h-250l24 129h-4q-127 -160 -313 -160zM569 203q125 0 207 84t82 213
q0 110 -67.5 176.5t-180.5 66.5q-125 0 -206.5 -85.5t-81.5 -215.5q0 -109 66.5 -174t180.5 -65z" />
    <glyph glyph-name="aring" unicode="&#xe5;" horiz-adv-x="1208" 
d="M733 1530q101 0 165.5 -61t64.5 -156q0 -106 -73.5 -184t-193.5 -78q-101 0 -163 60.5t-62 156.5q0 107 72 184.5t190 77.5zM727 1421q-69 0 -105 -45t-36 -102q0 -51 31 -83t88 -32q69 0 105 45.5t36 102.5q0 51 -31 82.5t-88 31.5zM467 -31q-185 0 -298.5 125
t-113.5 330q0 241 143.5 397t364.5 156q121 0 210 -51.5t132 -145.5h6l31 166h252l-184 -946h-250l24 129h-4q-127 -160 -313 -160zM569 203q125 0 207 84t82 213q0 110 -67.5 176.5t-180.5 66.5q-125 0 -206.5 -85.5t-81.5 -215.5q0 -109 66.5 -174t180.5 -65z" />
    <glyph glyph-name="ae" unicode="&#xe6;" horiz-adv-x="1699" 
d="M379 -31q-165 0 -269 82.5t-104 233.5q0 153 109 251.5t295 98.5q201 0 295 -115h4q22 83 22 127q0 57 -48 90t-140 33q-139 0 -305 -45l-39 203q201 49 366 49q83 0 144.5 -15t108.5 -55t65 -106h4q58 83 153.5 129.5t216.5 46.5q171 0 282.5 -99.5t111.5 -283.5
q0 -49 -23 -174h-700q-2 -8 -2 -31q0 -80 59 -139.5t176 -59.5q155 0 303 119l109 -176q-192 -164 -418 -164q-138 0 -236.5 57.5t-138.5 151.5h-4q-135 -209 -397 -209zM967 584h432q2 12 2 32q0 73 -46.5 114.5t-133.5 41.5q-93 0 -158.5 -50t-95.5 -138zM457 170
q98 0 157.5 45t59.5 113q0 61 -49.5 93t-130.5 32q-97 0 -156 -42t-59 -112q0 -63 48 -96t130 -33z" />
    <glyph glyph-name="ccedilla" unicode="&#xe7;" horiz-adv-x="976" 
d="M874 51q-150 -79 -305 -82l-26 -43q73 -22 112 -52t39 -85q0 -32 -19 -61t-48 -50t-76.5 -42.5t-89 -36t-101.5 -33.5l-28 69q48 21 71 31.5t51 26.5t39 29.5t11 29.5q0 24 -27 39.5t-84 30.5l90 151q-190 21 -307 146t-117 325q0 234 152 383.5t412 149.5
q209 0 385 -117l-136 -205q-129 88 -260 88t-210.5 -80.5t-79.5 -205.5q0 -114 69 -184t180 -70q101 0 213 59z" />
    <glyph glyph-name="egrave" unicode="&#xe8;" horiz-adv-x="1091" 
d="M741 1133h-176l-252 315h279zM1047 584q0 -59 -21 -164h-727q9 -227 242 -227q170 0 317 118l107 -192q-198 -148 -433 -148q-220 0 -348.5 120t-128.5 329q0 112 37.5 212.5t106.5 177.5t175.5 122t235.5 45q203 0 320 -103.5t117 -289.5zM799 586q0 3 1 10.5t1 11.5
q0 83 -53.5 128.5t-147.5 45.5q-100 0 -174 -52t-107 -144h480z" />
    <glyph glyph-name="eacute" unicode="&#xe9;" horiz-adv-x="1091" 
d="M1165 1448l-381 -315h-202l282 315h301zM610 977q203 0 320 -103.5t117 -289.5q0 -59 -21 -164h-727q9 -227 242 -227q170 0 317 118l107 -192q-198 -148 -433 -148q-220 0 -348.5 120t-128.5 329q0 112 37.5 212.5t106.5 177.5t175.5 122t235.5 45zM799 586q0 3 1 10.5
t1 11.5q0 83 -53.5 128.5t-147.5 45.5q-100 0 -174 -52t-107 -144h480z" />
    <glyph glyph-name="ecircumflex" unicode="&#xea;" horiz-adv-x="1091" 
d="M705 1325l-189 -192h-235l315 315h240l190 -315h-209zM1047 584q0 -59 -21 -164h-727q9 -227 242 -227q170 0 317 118l107 -192q-198 -148 -433 -148q-220 0 -348.5 120t-128.5 329q0 112 37.5 212.5t106.5 177.5t175.5 122t235.5 45q203 0 320 -103.5t117 -289.5z
M799 586q0 3 1 10.5t1 11.5q0 83 -53.5 128.5t-147.5 45.5q-100 0 -174 -52t-107 -144h480z" />
    <glyph glyph-name="edieresis" unicode="&#xeb;" horiz-adv-x="1091" 
d="M647 1413l-51 -260h-227l49 260h229zM1032 1413l-51 -260h-227l49 260h229zM1047 584q0 -59 -21 -164h-727q9 -227 242 -227q170 0 317 118l107 -192q-198 -148 -433 -148q-220 0 -348.5 120t-128.5 329q0 112 37.5 212.5t106.5 177.5t175.5 122t235.5 45
q203 0 320 -103.5t117 -289.5zM799 586q0 3 1 10.5t1 11.5q0 83 -53.5 128.5t-147.5 45.5q-100 0 -174 -52t-107 -144h480z" />
    <glyph glyph-name="igrave" unicode="&#xec;" horiz-adv-x="483" 
d="M389 1448l70 -315h-185l-112 315h227zM23 0l184 946h252l-185 -946h-251z" />
    <glyph glyph-name="iacute" unicode="&#xed;" horiz-adv-x="483" 
d="M268 1133l193 315h256l-248 -315h-201zM23 0l184 946h252l-185 -946h-251z" />
    <glyph glyph-name="icircumflex" unicode="&#xee;" horiz-adv-x="483" 
d="M68 1133l231 315h240l104 -315h-192l-39 210l-125 -210h-219zM23 0l184 946h252l-185 -946h-251z" />
    <glyph glyph-name="idieresis" unicode="&#xef;" horiz-adv-x="483" 
d="M119 1153l49 260h219l-49 -260h-219zM416 1153l51 260h219l-51 -260h-219zM23 0l184 946h252l-185 -946h-251z" />
    <glyph glyph-name="eth" unicode="&#xf0;" horiz-adv-x="1208" 
d="M971 1352q198 -180 198 -557q0 -169 -31.5 -306.5t-87.5 -233t-134.5 -160.5t-171 -95.5t-197.5 -30.5q-221 0 -354.5 133.5t-133.5 346.5q0 144 61 263t179 192t272 73q131 0 228.5 -54.5t138.5 -166.5h4q4 58 4 82q0 248 -166 379l-215 -154l-76 102l173 123
q-102 45 -236 64l55 200q238 -36 381 -120l201 143l72 -105zM559 207q139 0 220 87t81 210q0 113 -68.5 174t-177.5 61q-73 0 -131.5 -25.5t-93.5 -68t-53.5 -94t-18.5 -107.5q0 -112 67 -174.5t175 -62.5z" />
    <glyph glyph-name="ntilde" unicode="&#xf1;" horiz-adv-x="1128" 
d="M879 1151q-57 0 -118 27.5t-114 54.5t-90 27q-67 0 -127 -95l-94 31q47 114 110.5 181t155.5 67q57 0 118 -27t114 -53.5t90 -26.5q63 0 127 93l92 -31q-48 -115 -110 -181.5t-154 -66.5zM18 0l185 946h248l-29 -143h4q127 174 330 174q140 0 218.5 -79t78.5 -226
q0 -77 -17 -166l-100 -506h-252l94 481q10 58 10 109q0 85 -41.5 125.5t-125.5 40.5q-104 0 -168.5 -69t-94.5 -224l-90 -463h-250z" />
    <glyph glyph-name="ograve" unicode="&#xf2;" horiz-adv-x="1157" 
d="M592 1448l149 -315h-176l-252 315h279zM535 -31q-217 0 -349.5 119.5t-132.5 331.5q0 240 159.5 398.5t410.5 158.5q217 0 349 -119t132 -332q0 -240 -159 -398.5t-410 -158.5zM553 207q132 0 212.5 87.5t80.5 215.5q0 111 -66.5 170t-175.5 59q-132 0 -212.5 -87.5
t-80.5 -215.5q0 -111 66.5 -170t175.5 -59z" />
    <glyph glyph-name="oacute" unicode="&#xf3;" horiz-adv-x="1157" 
d="M582 1133l282 315h301l-381 -315h-202zM535 -31q-217 0 -349.5 119.5t-132.5 331.5q0 240 159.5 398.5t410.5 158.5q217 0 349 -119t132 -332q0 -240 -159 -398.5t-410 -158.5zM553 207q132 0 212.5 87.5t80.5 215.5q0 111 -66.5 170t-175.5 59q-132 0 -212.5 -87.5
t-80.5 -215.5q0 -111 66.5 -170t175.5 -59z" />
    <glyph glyph-name="ocircumflex" unicode="&#xf4;" horiz-adv-x="1157" 
d="M283 1133l315 315h240l190 -315h-209l-112 192l-189 -192h-235zM535 -31q-217 0 -349.5 119.5t-132.5 331.5q0 240 159.5 398.5t410.5 158.5q217 0 349 -119t132 -332q0 -240 -159 -398.5t-410 -158.5zM553 207q132 0 212.5 87.5t80.5 215.5q0 111 -66.5 170t-175.5 59
q-132 0 -212.5 -87.5t-80.5 -215.5q0 -111 66.5 -170t175.5 -59z" />
    <glyph glyph-name="otilde" unicode="&#xf5;" horiz-adv-x="1157" 
d="M852 1151q-57 0 -118 27.5t-114 54.5t-90 27q-67 0 -127 -95l-94 31q47 114 110.5 181t155.5 67q57 0 118 -27t114 -53.5t90 -26.5q63 0 127 93l92 -31q-48 -115 -110 -181.5t-154 -66.5zM535 -31q-217 0 -349.5 119.5t-132.5 331.5q0 240 159.5 398.5t410.5 158.5
q217 0 349 -119t132 -332q0 -240 -159 -398.5t-410 -158.5zM553 207q132 0 212.5 87.5t80.5 215.5q0 111 -66.5 170t-175.5 59q-132 0 -212.5 -87.5t-80.5 -215.5q0 -111 66.5 -170t175.5 -59z" />
    <glyph glyph-name="odieresis" unicode="&#xf6;" horiz-adv-x="1157" 
d="M371 1153l49 260h229l-51 -260h-227zM756 1153l49 260h229l-51 -260h-227zM535 -31q-217 0 -349.5 119.5t-132.5 331.5q0 240 159.5 398.5t410.5 158.5q217 0 349 -119t132 -332q0 -240 -159 -398.5t-410 -158.5zM553 207q132 0 212.5 87.5t80.5 215.5q0 111 -66.5 170
t-175.5 59q-132 0 -212.5 -87.5t-80.5 -215.5q0 -111 66.5 -170t175.5 -59z" />
    <glyph glyph-name="divide" unicode="&#xf7;" 
d="M729 1034v-186h-174v186h174zM1171 668v-113h-1060v113h1060zM729 375v-189h-174v189h174z" />
    <glyph glyph-name="oslash" unicode="&#xf8;" horiz-adv-x="1157" 
d="M999 829q105 -118 105 -303q0 -240 -159 -398.5t-410 -158.5q-209 0 -336 109l-119 -111l-53 53l118 111q-92 115 -92 289q0 240 159.5 398.5t410.5 158.5q193 0 319 -94l102 96l56 -55zM311 436q0 -68 29 -121l410 387q-58 37 -146 37q-132 0 -212.5 -87.5t-80.5 -215.5
zM553 207q132 0 212.5 87.5t80.5 215.5q0 84 -39 139l-418 -391q60 -51 164 -51z" />
    <glyph glyph-name="ugrave" unicode="&#xf9;" horiz-adv-x="1105" 
d="M563 1448l150 -315h-176l-252 315h278zM369 -31q-138 0 -220.5 76.5t-82.5 222.5q0 48 16 146l106 532h258l-98 -500q-10 -58 -10 -94q0 -77 41 -114t113 -37q197 0 253 291l89 454h253l-184 -946h-248l27 147h-4q-59 -92 -133 -135t-176 -43z" />
    <glyph glyph-name="uacute" unicode="&#xfa;" horiz-adv-x="1105" 
d="M553 1133l283 315h301l-381 -315h-203zM369 -31q-138 0 -220.5 76.5t-82.5 222.5q0 48 16 146l106 532h258l-98 -500q-10 -58 -10 -94q0 -77 41 -114t113 -37q197 0 253 291l89 454h253l-184 -946h-248l27 147h-4q-59 -92 -133 -135t-176 -43z" />
    <glyph glyph-name="ucircumflex" unicode="&#xfb;" horiz-adv-x="1105" 
d="M254 1133l315 315h240l190 -315h-208l-113 192l-189 -192h-235zM369 -31q-138 0 -220.5 76.5t-82.5 222.5q0 48 16 146l106 532h258l-98 -500q-10 -58 -10 -94q0 -77 41 -114t113 -37q197 0 253 291l89 454h253l-184 -946h-248l27 147h-4q-59 -92 -133 -135t-176 -43z
" />
    <glyph glyph-name="udieresis" unicode="&#xfc;" horiz-adv-x="1105" 
d="M342 1153l49 260h230l-52 -260h-227zM727 1153l49 260h230l-52 -260h-227zM369 -31q-138 0 -220.5 76.5t-82.5 222.5q0 48 16 146l106 532h258l-98 -500q-10 -58 -10 -94q0 -77 41 -114t113 -37q197 0 253 291l89 454h253l-184 -946h-248l27 147h-4q-59 -92 -133 -135
t-176 -43z" />
    <glyph glyph-name="yacute" unicode="&#xfd;" horiz-adv-x="1038" 
d="M1118 1448l-381 -315h-202l282 315h301zM842 946h278l-831 -1358h-269l324 518l-242 840h271l133 -571z" />
    <glyph glyph-name="thorn" unicode="&#xfe;" horiz-adv-x="1218" 
d="M760 977q173 0 288 -118.5t115 -330.5q0 -240 -144 -399.5t-370 -159.5q-121 0 -207 50.5t-129 144.5h-6l-110 -576h-252l264 1358l94 488h252l-94 -488l-25 -121h6q126 152 318 152zM602 203q129 0 212 88.5t83 216.5q0 112 -66 173.5t-174 61.5q-129 0 -213 -88.5
t-84 -216.5q0 -111 66.5 -173t175.5 -62z" />
    <glyph glyph-name="ydieresis" unicode="&#xff;" horiz-adv-x="1038" 
d="M602 1413l-51 -260h-227l49 260h229zM987 1413l-51 -260h-227l49 260h229zM842 946h278l-831 -1358h-269l324 518l-242 840h271l133 -571z" />
    <glyph glyph-name="Amacron" unicode="&#x100;" horiz-adv-x="1427" 
d="M1257 1716l-32 -170h-627l33 170h626zM1057 0l-58 328h-598l-182 -328h-305l846 1434h274l295 -1434h-272zM530 559h426l-102 576z" />
    <glyph glyph-name="amacron" unicode="&#x101;" horiz-adv-x="1208" 
d="M1053 1366l-33 -174h-629l35 174h627zM467 -31q-185 0 -298.5 125t-113.5 330q0 241 143.5 397t364.5 156q121 0 210 -51.5t132 -145.5h6l31 166h252l-184 -946h-250l24 129h-4q-127 -160 -313 -160zM569 203q125 0 207 84t82 213q0 110 -67.5 176.5t-180.5 66.5
q-125 0 -206.5 -85.5t-81.5 -215.5q0 -109 66.5 -174t180.5 -65z" />
    <glyph glyph-name="Abreve" unicode="&#x102;" horiz-adv-x="1427" 
d="M911 1513q-121 0 -189.5 59t-68.5 163q0 20 2 32h162v-12q0 -43 29.5 -67.5t85.5 -24.5q109 0 155 104h177q-35 -119 -129 -186.5t-224 -67.5zM1057 0l-58 328h-598l-182 -328h-305l846 1434h274l295 -1434h-272zM530 559h426l-102 576z" />
    <glyph glyph-name="abreve" unicode="&#x103;" horiz-adv-x="1208" 
d="M1065 1430q-26 -142 -117 -227t-233 -85q-120 0 -194.5 62.5t-74.5 169.5q0 20 11 80h149q-6 -18 -6 -41q0 -54 30.5 -85.5t92.5 -31.5q79 0 117.5 42.5t56.5 115.5h168zM467 -31q-185 0 -298.5 125t-113.5 330q0 241 143.5 397t364.5 156q121 0 210 -51.5t132 -145.5h6
l31 166h252l-184 -946h-250l24 129h-4q-127 -160 -313 -160zM569 203q125 0 207 84t82 213q0 110 -67.5 176.5t-180.5 66.5q-125 0 -206.5 -85.5t-81.5 -215.5q0 -109 66.5 -174t180.5 -65z" />
    <glyph glyph-name="Aogonek" unicode="&#x104;" horiz-adv-x="1427" 
d="M1016 -205q0 -17 13.5 -27t35.5 -10q27 0 80 11v-156q-89 -21 -141 -21q-82 0 -132.5 37t-50.5 103q0 72 57 142.5t175 148.5l-54 305h-598l-182 -328h-305l846 1434h274l295 -1434h-141q-172 -146 -172 -205zM530 559h426l-102 576z" />
    <glyph glyph-name="aogonek" unicode="&#x105;" horiz-adv-x="1208" 
d="M881 0q-172 -146 -172 -205q0 -17 13.5 -27t35.5 -10q27 0 80 11v-156q-89 -21 -142 -21q-82 0 -132 37t-50 103q0 75 62 148t190 157l18 92h-4q-127 -160 -313 -160q-185 0 -298.5 125t-113.5 330q0 241 143.5 397t364.5 156q121 0 210 -51.5t132 -145.5h6l31 166h252
l-184 -946h-129zM569 203q125 0 207 84t82 213q0 110 -67.5 176.5t-180.5 66.5q-125 0 -206.5 -85.5t-81.5 -215.5q0 -109 66.5 -174t180.5 -65z" />
    <glyph glyph-name="Cacute" unicode="&#x106;" horiz-adv-x="1409" 
d="M864 1522l260 245h297l-372 -245h-185zM807 -31q-315 0 -505.5 189t-190.5 501q0 169 60.5 317t168.5 256t267 170t347 62q304 0 521 -155l-160 -228q-181 119 -369 119q-167 0 -293.5 -72.5t-191 -193.5t-64.5 -272q0 -197 114.5 -313t307.5 -116q174 0 357 109
l124 -227q-235 -146 -493 -146z" />
    <glyph glyph-name="cacute" unicode="&#x107;" horiz-adv-x="976" 
d="M557 1133l283 315h301l-381 -315h-203zM553 -31q-218 0 -356 127.5t-138 347.5q0 234 152 383.5t412 149.5q209 0 385 -117l-136 -205q-129 88 -260 88t-210.5 -80.5t-79.5 -205.5q0 -114 69 -184t180 -70q101 0 213 59l90 -211q-151 -82 -321 -82z" />
    <glyph glyph-name="Ccircumflex" unicode="&#x108;" horiz-adv-x="1409" 
d="M586 1522l303 245h250l192 -245h-211l-114 143l-183 -143h-237zM807 -31q-315 0 -505.5 189t-190.5 501q0 169 60.5 317t168.5 256t267 170t347 62q304 0 521 -155l-160 -228q-181 119 -369 119q-167 0 -293.5 -72.5t-191 -193.5t-64.5 -272q0 -197 114.5 -313
t307.5 -116q174 0 357 109l124 -227q-235 -146 -493 -146z" />
    <glyph glyph-name="ccircumflex" unicode="&#x109;" horiz-adv-x="976" 
d="M258 1133l315 315h240l191 -315h-209l-113 192l-188 -192h-236zM553 -31q-218 0 -356 127.5t-138 347.5q0 234 152 383.5t412 149.5q209 0 385 -117l-136 -205q-129 88 -260 88t-210.5 -80.5t-79.5 -205.5q0 -114 69 -184t180 -70q101 0 213 59l90 -211
q-151 -82 -321 -82z" />
    <glyph glyph-name="Cdotaccent" unicode="&#x10a;" horiz-adv-x="1409" 
d="M1143 1757l-45 -235h-252l45 235h252zM807 -31q-315 0 -505.5 189t-190.5 501q0 169 60.5 317t168.5 256t267 170t347 62q304 0 521 -155l-160 -228q-181 119 -369 119q-167 0 -293.5 -72.5t-191 -193.5t-64.5 -272q0 -197 114.5 -313t307.5 -116q174 0 357 109l124 -227
q-235 -146 -493 -146z" />
    <glyph glyph-name="cdotaccent" unicode="&#x10b;" horiz-adv-x="976" 
d="M860 1421l-53 -276h-287l53 276h287zM553 -31q-218 0 -356 127.5t-138 347.5q0 234 152 383.5t412 149.5q209 0 385 -117l-136 -205q-129 88 -260 88t-210.5 -80.5t-79.5 -205.5q0 -114 69 -184t180 -70q101 0 213 59l90 -211q-151 -82 -321 -82z" />
    <glyph glyph-name="Ccaron" unicode="&#x10c;" horiz-adv-x="1409" 
d="M981 1522l-238 141l15 104l176 -90l158 35l192 55l-63 -141zM807 -31q-315 0 -505.5 189t-190.5 501q0 169 60.5 317t168.5 256t267 170t347 62q304 0 521 -155l-160 -228q-181 119 -369 119q-167 0 -293.5 -72.5t-191 -193.5t-64.5 -272q0 -197 114.5 -313t307.5 -116
q174 0 357 109l124 -227q-235 -146 -493 -146z" />
    <glyph glyph-name="ccaron" unicode="&#x10d;" horiz-adv-x="976" 
d="M528 1118l-190 316h209l110 -195l191 195h235l-315 -316h-240zM553 -31q-218 0 -356 127.5t-138 347.5q0 234 152 383.5t412 149.5q209 0 385 -117l-136 -205q-129 88 -260 88t-210.5 -80.5t-79.5 -205.5q0 -114 69 -184t180 -70q101 0 213 59l90 -211q-151 -82 -321 -82
z" />
    <glyph glyph-name="Dcaron" unicode="&#x10e;" horiz-adv-x="1417" 
d="M762 1522l-238 141l15 104l176 -90l157 35l193 55l-64 -141zM43 0l279 1434h434q291 0 470 -173.5t179 -463.5q0 -175 -63.5 -323t-178.5 -252.5t-282.5 -163t-368.5 -58.5h-469zM352 242h199q252 0 412.5 151.5t160.5 399.5q0 189 -105.5 294t-285.5 105h-196z" />
    <glyph glyph-name="dcaron" unicode="&#x10f;" horiz-adv-x="1470" 
d="M1407 1464h248l-47 -247l-224 -197h-92l150 197h-82zM911 780l125 654h252l-278 -1434h-250l24 129h-4q-127 -160 -313 -160q-185 0 -298.5 125t-113.5 330q0 241 143.5 397t364.5 156q121 0 210 -51.5t132 -145.5h6zM569 203q125 0 207 84t82 213q0 110 -67.5 176.5
t-180.5 66.5q-125 0 -206.5 -85.5t-81.5 -215.5q0 -109 66.5 -174t180.5 -65z" />
    <glyph glyph-name="Dcroat" unicode="&#x110;" horiz-adv-x="1417" 
d="M43 0l279 1434h434q291 0 470 -173.5t179 -463.5q0 -175 -63.5 -323t-178.5 -252.5t-282.5 -163t-368.5 -58.5h-469zM352 242h199q252 0 412.5 151.5t160.5 399.5q0 189 -105.5 294t-285.5 105h-196zM358 743l2 -6h60l-2 6h-60z" />
    <glyph glyph-name="dcroat" unicode="&#x111;" horiz-adv-x="1230" 
d="M1407 1288l-29 -149h-147l-221 -1139h-250l24 129h-4q-127 -160 -313 -160q-185 0 -298.5 125t-113.5 330q0 241 143.5 397t364.5 156q121 0 210 -51.5t132 -145.5h6l70 359h-293l29 149h293l26 146h252l-28 -146h147zM569 203q125 0 207 84t82 213q0 110 -67.5 176.5
t-180.5 66.5q-125 0 -206.5 -85.5t-81.5 -215.5q0 -109 66.5 -174t180.5 -65z" />
    <glyph glyph-name="Emacron" unicode="&#x112;" horiz-adv-x="1073" 
d="M1128 1716l-32 -170h-627l33 170h626zM1124 1192h-587l-56 -291h535l-47 -242h-535l-82 -417h596l-47 -242h-858l279 1434h849z" />
    <glyph glyph-name="emacron" unicode="&#x113;" horiz-adv-x="1091" 
d="M1032 1366l-33 -174h-628l35 174h626zM1047 584q0 -59 -21 -164h-727q9 -227 242 -227q170 0 317 118l107 -192q-198 -148 -433 -148q-220 0 -348.5 120t-128.5 329q0 112 37.5 212.5t106.5 177.5t175.5 122t235.5 45q203 0 320 -103.5t117 -289.5zM799 586q0 3 1 10.5
t1 11.5q0 83 -53.5 128.5t-147.5 45.5q-100 0 -174 -52t-107 -144h480z" />
    <glyph glyph-name="Ebreve" unicode="&#x114;" horiz-adv-x="1073" 
d="M782 1513q-121 0 -189.5 59t-68.5 163q0 20 2 32h162v-12q0 -43 29.5 -67.5t85.5 -24.5q109 0 155 104h177q-35 -119 -129 -186.5t-224 -67.5zM1124 1192h-587l-56 -291h535l-47 -242h-535l-82 -417h596l-47 -242h-858l279 1434h849z" />
    <glyph glyph-name="ebreve" unicode="&#x115;" horiz-adv-x="1091" 
d="M694 1118q-120 0 -194 62.5t-74 169.5q0 25 10 80h150q-6 -18 -6 -41q0 -54 30 -85.5t92 -31.5q79 0 118 42.5t57 115.5h167q-26 -142 -117 -227t-233 -85zM1047 584q0 -59 -21 -164h-727q9 -227 242 -227q170 0 317 118l107 -192q-198 -148 -433 -148q-220 0 -348.5 120
t-128.5 329q0 112 37.5 212.5t106.5 177.5t175.5 122t235.5 45q203 0 320 -103.5t117 -289.5zM799 586q0 3 1 10.5t1 11.5q0 83 -53.5 128.5t-147.5 45.5q-100 0 -174 -52t-107 -144h480z" />
    <glyph glyph-name="Edotaccent" unicode="&#x116;" horiz-adv-x="1073" 
d="M954 1757l-45 -235h-252l45 235h252zM1124 1192h-587l-56 -291h535l-47 -242h-535l-82 -417h596l-47 -242h-858l279 1434h849z" />
    <glyph glyph-name="edotaccent" unicode="&#x117;" horiz-adv-x="1091" 
d="M883 1421l-54 -276h-286l53 276h287zM1047 584q0 -59 -21 -164h-727q9 -227 242 -227q170 0 317 118l107 -192q-198 -148 -433 -148q-220 0 -348.5 120t-128.5 329q0 112 37.5 212.5t106.5 177.5t175.5 122t235.5 45q203 0 320 -103.5t117 -289.5zM799 586q0 3 1 10.5
t1 11.5q0 83 -53.5 128.5t-147.5 45.5q-100 0 -174 -52t-107 -144h480z" />
    <glyph glyph-name="Eogonek" unicode="&#x118;" horiz-adv-x="1073" 
d="M1124 1192h-587l-56 -291h535l-47 -242h-535l-82 -417h596l-47 -242h-33q-172 -146 -172 -205q0 -17 13.5 -27t35.5 -10q27 0 80 11v-156q-89 -21 -141 -21q-82 0 -132 37t-50 103q0 129 198 268h-657l279 1434h849z" />
    <glyph glyph-name="eogonek" unicode="&#x119;" horiz-adv-x="1091" 
d="M1047 584q0 -59 -21 -164h-727q9 -227 242 -227q170 0 317 118l107 -192q-92 -66 -177 -101q-194 -159 -194 -223q0 -17 13.5 -27t35.5 -10q27 0 80 11v-156q-89 -21 -141 -21q-82 0 -132.5 37t-50.5 103q0 115 160 239h-27q-220 0 -348.5 120t-128.5 329
q0 112 37.5 212.5t106.5 177.5t175.5 122t235.5 45q203 0 320 -103.5t117 -289.5zM799 586q0 3 1 10.5t1 11.5q0 83 -53.5 128.5t-147.5 45.5q-100 0 -174 -52t-107 -144h480z" />
    <glyph glyph-name="Ecaron" unicode="&#x11a;" horiz-adv-x="1073" 
d="M1032 1626l-239 -104l-238 141l14 104l176 -90l158 35l193 55zM1124 1192h-587l-56 -291h535l-47 -242h-535l-82 -417h596l-47 -242h-858l279 1434h849z" />
    <glyph glyph-name="ecaron" unicode="&#x11b;" horiz-adv-x="1091" 
d="M793 1118h-240l-191 316h209l111 -195l190 195h236zM610 977q203 0 320 -103.5t117 -289.5q0 -59 -21 -164h-727q9 -227 242 -227q170 0 317 118l107 -192q-198 -148 -433 -148q-220 0 -348.5 120t-128.5 329q0 112 37.5 212.5t106.5 177.5t175.5 122t235.5 45zM799 586
q0 3 1 10.5t1 11.5q0 83 -53.5 128.5t-147.5 45.5q-100 0 -174 -52t-107 -144h480z" />
    <glyph glyph-name="Gcircumflex" unicode="&#x11c;" horiz-adv-x="1609" 
d="M1022 1665l-182 -143h-238l303 245h250l193 -245h-211zM930 805h690l-16 -107q-23 -160 -78.5 -289.5t-147 -229t-228 -154t-308.5 -54.5q-331 0 -530 186t-199 502q0 173 61 322t169 255t264 166t339 60t336.5 -54t263.5 -151l-186 -210q-179 153 -420 153
q-128 0 -232.5 -44.5t-171.5 -120t-103 -172.5t-36 -206q0 -201 122.5 -312.5t332.5 -111.5q187 0 295.5 90t142.5 242h-416z" />
    <glyph glyph-name="gcircumflex" unicode="&#x11d;" horiz-adv-x="1208" 
d="M311 1133l316 315h239l191 -315h-209l-113 192l-188 -192h-236zM942 946h252l-178 -921q-49 -253 -168 -359t-350 -106q-224 0 -437 82l86 225q185 -76 351 -76q118 0 178.5 51t85.5 170l22 117h-4q-127 -160 -313 -160q-185 0 -298.5 125t-113.5 330q0 241 143.5 397
t364.5 156q121 0 210 -51.5t132 -145.5h6zM569 203q125 0 207 84t82 213q0 110 -67.5 176.5t-180.5 66.5q-125 0 -206.5 -85.5t-81.5 -215.5q0 -109 66.5 -174t180.5 -65z" />
    <glyph glyph-name="Gbreve" unicode="&#x11e;" horiz-adv-x="1609" 
d="M987 1513q-121 0 -189.5 59t-68.5 163q0 20 2 32h162v-12q0 -43 29.5 -67.5t85.5 -24.5q109 0 155 104h176q-35 -119 -128.5 -186.5t-223.5 -67.5zM930 805h690l-16 -107q-23 -160 -78.5 -289.5t-147 -229t-228 -154t-308.5 -54.5q-331 0 -530 186t-199 502q0 173 61 322
t169 255t264 166t339 60t336.5 -54t263.5 -151l-186 -210q-179 153 -420 153q-128 0 -232.5 -44.5t-171.5 -120t-103 -172.5t-36 -206q0 -201 122.5 -312.5t332.5 -111.5q187 0 295.5 90t142.5 242h-416z" />
    <glyph glyph-name="gbreve" unicode="&#x11f;" horiz-adv-x="1208" 
d="M1075 1430q-26 -142 -117 -227t-233 -85q-120 0 -194 62.5t-74 169.5q0 25 10 80h149q-6 -18 -6 -41q0 -54 30.5 -85.5t92.5 -31.5q79 0 117.5 42.5t56.5 115.5h168zM942 946h252l-178 -921q-49 -253 -168 -359t-350 -106q-224 0 -437 82l86 225q185 -76 351 -76
q118 0 178.5 51t85.5 170l22 117h-4q-127 -160 -313 -160q-185 0 -298.5 125t-113.5 330q0 241 143.5 397t364.5 156q121 0 210 -51.5t132 -145.5h6zM569 203q125 0 207 84t82 213q0 110 -67.5 176.5t-180.5 66.5q-125 0 -206.5 -85.5t-81.5 -215.5q0 -109 66.5 -174
t180.5 -65z" />
    <glyph glyph-name="Gdotaccent" unicode="&#x120;" horiz-adv-x="1609" 
d="M1159 1757l-45 -235h-252l45 235h252zM930 805h690l-16 -107q-23 -160 -78.5 -289.5t-147 -229t-228 -154t-308.5 -54.5q-331 0 -530 186t-199 502q0 173 61 322t169 255t264 166t339 60t336.5 -54t263.5 -151l-186 -210q-179 153 -420 153q-128 0 -232.5 -44.5
t-171.5 -120t-103 -172.5t-36 -206q0 -201 122.5 -312.5t332.5 -111.5q187 0 295.5 90t142.5 242h-416z" />
    <glyph glyph-name="gdotaccent" unicode="&#x121;" horiz-adv-x="1208" 
d="M913 1421l-53 -276h-287l54 276h286zM942 946h252l-178 -921q-49 -253 -168 -359t-350 -106q-224 0 -437 82l86 225q185 -76 351 -76q118 0 178.5 51t85.5 170l22 117h-4q-127 -160 -313 -160q-185 0 -298.5 125t-113.5 330q0 241 143.5 397t364.5 156q121 0 210 -51.5
t132 -145.5h6zM569 203q125 0 207 84t82 213q0 110 -67.5 176.5t-180.5 66.5q-125 0 -206.5 -85.5t-81.5 -215.5q0 -109 66.5 -174t180.5 -65z" />
    <glyph glyph-name="Gcommaaccent" unicode="&#x122;" horiz-adv-x="1609" 
d="M930 805h690l-16 -107q-23 -160 -78.5 -289.5t-147 -229t-228 -154t-308.5 -54.5q-331 0 -530 186t-199 502q0 173 61 322t169 255t264 166t339 60t336.5 -54t263.5 -151l-186 -210q-179 153 -420 153q-128 0 -232.5 -44.5t-171.5 -120t-103 -172.5t-36 -206
q0 -201 122.5 -312.5t332.5 -111.5q187 0 295.5 90t142.5 242h-416zM664 -291l38 195h238l-39 -195l-168 -139h-88l113 139h-94z" />
    <glyph glyph-name="gcommaaccent" unicode="&#x123;" horiz-adv-x="1208" 
d="M862 1300l-39 -194h-237l39 194l168 140h88l-113 -140h94zM942 946h252l-178 -921q-49 -253 -168 -359t-350 -106q-224 0 -437 82l86 225q185 -76 351 -76q118 0 178.5 51t85.5 170l22 117h-4q-127 -160 -313 -160q-185 0 -298.5 125t-113.5 330q0 241 143.5 397
t364.5 156q121 0 210 -51.5t132 -145.5h6zM569 203q125 0 207 84t82 213q0 110 -67.5 176.5t-180.5 66.5q-125 0 -206.5 -85.5t-81.5 -215.5q0 -109 66.5 -174t180.5 -65z" />
    <glyph glyph-name="Hcircumflex" unicode="&#x124;" horiz-adv-x="1472" 
d="M973 1665l-182 -143h-238l303 245h250l192 -245h-211zM1262 1434h262l-279 -1434h-262l123 629h-680l-121 -629h-262l279 1434h262l-109 -557h678z" />
    <glyph glyph-name="hcircumflex" unicode="&#x125;" horiz-adv-x="1134" 
d="M57 1522l303 245h250l193 -245h-211l-115 143l-182 -143h-238zM23 0l278 1434h252l-121 -623h4q128 166 322 166q135 0 218 -76t83 -235q0 -56 -17 -150l-100 -516h-252l98 502q9 44 9 78q0 82 -43 125t-119 43q-102 0 -172 -69.5t-98 -215.5l-91 -463h-251z" />
    <glyph glyph-name="Hbar" unicode="&#x126;" horiz-adv-x="1490" 
d="M1636 1219l-34 -181h-142l-203 -1038h-262l123 629h-680l-123 -629h-262l203 1038h-145l34 181h146l41 215h262l-41 -215h680l41 215h262l-41 -215h141zM1165 877l33 161h-680l-33 -161h680z" />
    <glyph glyph-name="hbar" unicode="&#x127;" horiz-adv-x="1136" 
d="M760 977q135 0 218 -76t83 -235q0 -56 -17 -150l-100 -516h-252l99 502q8 39 8 78q0 82 -43 125t-119 43q-102 0 -172 -69.5t-98 -215.5l-91 -463h-251l221 1139h-133l28 149h133l29 146h252l-29 -146h305l-28 -149h-305l-64 -328h4q128 166 322 166z" />
    <glyph glyph-name="Itilde" unicode="&#x128;" horiz-adv-x="534" 
d="M651 1507q-65 0 -170.5 45t-150.5 45q-68 0 -127 -79l-84 26q44 105 106 168.5t154 63.5q53 0 113 -22.5t114.5 -45t93.5 -22.5q37 0 66.5 18.5t62.5 60.5l84 -26q-21 -50 -44 -88t-54.5 -72.5t-73 -53t-90.5 -18.5zM43 0l279 1434h264l-279 -1434h-264z" />
    <glyph glyph-name="itilde" unicode="&#x129;" horiz-adv-x="483" 
d="M305 1444q43 0 89 -24.5t85 -49t64 -24.5q27 0 48 23t44 69l88 -31q-89 -248 -229 -248q-43 0 -88.5 25.5t-84 50.5t-63.5 25q-27 0 -49 -24.5t-45 -70.5l-88 31q92 248 229 248zM23 0l184 946h252l-185 -946h-251z" />
    <glyph glyph-name="Imacron" unicode="&#x12a;" horiz-adv-x="534" 
d="M815 1716l-33 -170h-626l32 170h627zM43 0l279 1434h264l-279 -1434h-264z" />
    <glyph glyph-name="imacron" unicode="&#x12b;" horiz-adv-x="483" 
d="M645 1366l-33 -174h-465l35 174h463zM23 0l184 946h252l-185 -946h-251z" />
    <glyph glyph-name="Ibreve" unicode="&#x12c;" horiz-adv-x="534" 
d="M469 1513q-121 0 -189.5 59t-68.5 163q0 20 2 32h162v-12q0 -44 29 -68t85 -24q110 0 156 104h176q-35 -119 -128.5 -186.5t-223.5 -67.5zM43 0l279 1434h264l-279 -1434h-264z" />
    <glyph glyph-name="ibreve" unicode="&#x12d;" horiz-adv-x="483" 
d="M682 1430q-51 -312 -299 -312q-107 0 -164 58t-57 165q0 48 8 89h149q-6 -34 -6 -62q0 -96 74 -96q32 0 55 12t36.5 37t20.5 49t13 60h170zM23 0l184 946h252l-185 -946h-251z" />
    <glyph glyph-name="Iogonek" unicode="&#x12e;" horiz-adv-x="534" 
d="M225 0q-172 -146 -172 -205q0 -17 13.5 -27t35.5 -10q27 0 80 11v-156q-89 -21 -141 -21q-82 0 -132 37t-50 103q0 129 198 268h-14l279 1434h264l-279 -1434h-82z" />
    <glyph glyph-name="iogonek" unicode="&#x12f;" horiz-adv-x="483" 
d="M281 1421h286l-53 -276h-287zM31 35l176 911h252l-185 -946h-127q-172 -146 -172 -205q0 -17 14 -27t36 -10q26 0 79 11v-156q-89 -21 -141 -21q-82 0 -132 37t-50 103q0 75 61.5 148.5t188.5 154.5z" />
    <glyph glyph-name="Idotaccent" unicode="&#x130;" horiz-adv-x="534" 
d="M641 1757l-45 -235h-252l45 235h252zM43 0l279 1434h264l-279 -1434h-264z" />
    <glyph glyph-name="dotlessi" unicode="&#x131;" horiz-adv-x="483" 
d="M23 0l184 946h252l-185 -946h-251z" />
    <glyph glyph-name="IJ" unicode="&#x132;" horiz-adv-x="1144" 
d="M43 0l279 1434h264l-279 -1434h-264zM479 -8l45 250h62q56 0 90.5 28t48.5 95l209 1069h260l-215 -1115q-33 -172 -130.5 -249.5t-266.5 -77.5h-103z" />
    <glyph glyph-name="ij" unicode="&#x133;" horiz-adv-x="960" 
d="M567 1421l-53 -276h-287l54 276h286zM1051 1421l-54 -276h-286l53 276h287zM23 0l184 946h252l-185 -946h-251zM299 -184h61q59 0 91 28.5t43 87.5l196 1014h254l-205 -1048q-31 -163 -129.5 -238.5t-259.5 -75.5h-96z" />
    <glyph glyph-name="Jcircumflex" unicode="&#x134;" horiz-adv-x="608" 
d="M160 1522l303 245h250l192 -245h-211l-114 143l-183 -143h-237zM-55 -8l45 250h61q56 0 90.5 28t48.5 95l209 1069h260l-215 -1115q-33 -172 -130.5 -249.5t-266.5 -77.5h-102z" />
    <glyph glyph-name="jcircumflex" unicode="&#x135;" horiz-adv-x="477" 
d="M68 1133l231 315h240l104 -315h-192l-39 210l-125 -210h-219zM-184 -184h61q59 0 90.5 28.5t42.5 87.5l197 1014h254l-205 -1048q-31 -163 -129.5 -238.5t-259.5 -75.5h-96z" />
    <glyph glyph-name="Kcommaaccent" unicode="&#x136;" horiz-adv-x="1376" 
d="M1481 1434l-760 -699l557 -735h-344l-492 705l-137 -705h-262l279 1434h262l-125 -639l651 639h371zM457 -291l39 195h237l-39 -195l-168 -139h-88l113 139h-94z" />
    <glyph glyph-name="kcommaaccent" unicode="&#x137;" horiz-adv-x="1052" 
d="M1087 946l-471 -452l334 -494h-309l-279 449l-88 -449h-251l278 1434h252l-170 -875l373 387h331zM287 -291l39 195h237l-39 -195l-168 -139h-88l113 139h-94z" />
    <glyph glyph-name="kgreenlandic" unicode="&#x138;" horiz-adv-x="1048" 
d="M1083 946l-471 -452l334 -494h-311l-277 451l-88 -451h-252l185 946h250l-74 -387l371 387h333z" />
    <glyph glyph-name="Lacute" unicode="&#x139;" horiz-adv-x="999" 
d="M362 1522l261 245h297l-373 -245h-185zM43 0l279 1434h262l-230 -1186h596l-47 -248h-860z" />
    <glyph glyph-name="lacute" unicode="&#x13a;" horiz-adv-x="483" 
d="M336 1522l260 245h297l-373 -245h-184zM23 0l278 1434h252l-279 -1434h-251z" />
    <glyph glyph-name="Lcommaaccent" unicode="&#x13b;" horiz-adv-x="999" 
d="M354 248h596l-47 -248h-860l279 1434h262zM301 -291l39 195h238l-39 -195l-168 -139h-88l112 139h-94z" />
    <glyph glyph-name="lcommaaccent" unicode="&#x13c;" horiz-adv-x="483" 
d="M301 1434h252l-279 -1434h-251zM-23 -291l39 195h238l-39 -195l-168 -139h-88l113 139h-95z" />
    <glyph glyph-name="Lcaron" unicode="&#x13d;" horiz-adv-x="999" 
d="M827 1464h248l-47 -247l-252 -312h-92l184 312h-88zM584 1434l-230 -1186h596l-47 -248h-860l279 1434h262z" />
    <glyph glyph-name="lcaron" unicode="&#x13e;" horiz-adv-x="737" 
d="M664 1464h249l-47 -247l-223 -197h-92l149 197h-84zM301 1434h252l-279 -1434h-251z" />
    <glyph glyph-name="Ldot" unicode="&#x13f;" horiz-adv-x="999" 
d="M43 0l279 1434h262l-230 -1186h596l-47 -248h-860zM655 662l54 284h284l-55 -284h-283z" />
    <glyph glyph-name="ldot" unicode="&#x140;" horiz-adv-x="753" 
d="M23 0l278 1434h252l-279 -1434h-251zM496 659l53 285h285l-56 -285h-282z" />
    <glyph glyph-name="Lslash" unicode="&#x141;" horiz-adv-x="999" 
d="M354 248h596l-47 -248h-860l111 573l-144 -55l33 180l147 58l132 678h262l-111 -570l401 156l-34 -180l-402 -156z" />
    <glyph glyph-name="lslash" unicode="&#x142;" horiz-adv-x="604" 
d="M688 1018l-33 -180l-172 -82l-147 -756h-252l121 625l-168 -80l33 180l170 80l122 629h252l-96 -496z" />
    <glyph glyph-name="Nacute" unicode="&#x143;" horiz-adv-x="1466" 
d="M819 1522l260 245h297l-372 -245h-185zM43 0l279 1434h241l498 -1002h4l190 1002h263l-279 -1434h-244l-495 1001h-2l-193 -1001h-262z" />
    <glyph glyph-name="nacute" unicode="&#x144;" horiz-adv-x="1128" 
d="M608 1133l283 315h301l-381 -315h-203zM18 0l185 946h248l-29 -143h4q127 174 330 174q140 0 218.5 -79t78.5 -226q0 -77 -17 -166l-100 -506h-252l94 481q10 58 10 109q0 85 -41.5 125.5t-125.5 40.5q-104 0 -168.5 -69t-94.5 -224l-90 -463h-250z" />
    <glyph glyph-name="Ncommaaccent" unicode="&#x145;" horiz-adv-x="1466" 
d="M1255 1434h263l-279 -1434h-244l-495 1001h-2l-193 -1001h-262l279 1434h241l498 -1002h4zM477 -291l39 195h238l-39 -195l-168 -139h-88l112 139h-94z" />
    <glyph glyph-name="ncommaaccent" unicode="&#x146;" horiz-adv-x="1128" 
d="M756 977q140 0 218.5 -79t78.5 -226q0 -77 -17 -166l-100 -506h-252l94 481q10 58 10 109q0 85 -41.5 125.5t-125.5 40.5q-104 0 -168.5 -69t-94.5 -224l-90 -463h-250l185 946h248l-29 -143h4q127 174 330 174zM305 -291l39 195h238l-39 -195l-168 -139h-88l112 139h-94
z" />
    <glyph glyph-name="Ncaron" unicode="&#x147;" horiz-adv-x="1466" 
d="M936 1522l-238 141l15 104l176 -90l158 35l192 55l-63 -141zM43 0l279 1434h241l498 -1002h4l190 1002h263l-279 -1434h-244l-495 1001h-2l-193 -1001h-262z" />
    <glyph glyph-name="ncaron" unicode="&#x148;" horiz-adv-x="1128" 
d="M580 1118l-191 316h209l111 -195l190 195h236l-316 -316h-239zM18 0l185 946h248l-29 -143h4q127 174 330 174q140 0 218.5 -79t78.5 -226q0 -77 -17 -166l-100 -506h-252l94 481q10 58 10 109q0 85 -41.5 125.5t-125.5 40.5q-104 0 -168.5 -69t-94.5 -224l-90 -463h-250
z" />
    <glyph glyph-name="napostrophe" unicode="&#x149;" horiz-adv-x="1128" 
d="M74 905h-92l184 312h-88l47 247h248l-47 -247zM756 977q140 0 218.5 -79t78.5 -226q0 -77 -17 -166l-100 -506h-252l94 481q10 58 10 109q0 85 -41.5 125.5t-125.5 40.5q-104 0 -168.5 -69t-94.5 -224l-90 -463h-250l185 946h248l-29 -143h4q127 174 330 174z" />
    <glyph glyph-name="Eng" unicode="&#x14a;" horiz-adv-x="1464" 
d="M1255 1434h263l-279 -1434l-16 -80q-36 -171 -131 -251.5t-252 -78.5l-152 2l47 246h103q53 0 82.5 21t42.5 82l18 92l-481 968h-2l-195 -1001h-260l279 1434h241l498 -1002h4z" />
    <glyph glyph-name="eng" unicode="&#x14b;" horiz-adv-x="1128" 
d="M756 977q140 0 218.5 -79t78.5 -226q0 -77 -17 -166l-100 -506l-23 -115q-59 -299 -368 -299h-117l43 228h74q56 0 84.5 23.5t40.5 84.5l14 78l94 481q10 58 10 109q0 85 -41.5 125.5t-125.5 40.5q-104 0 -168.5 -69t-94.5 -224l-90 -463h-250l185 946h248l-29 -143h4
q127 174 330 174z" />
    <glyph glyph-name="Omacron" unicode="&#x14c;" horiz-adv-x="1667" 
d="M1311 1716l-33 -170h-627l33 170h627zM823 -31q-209 0 -370 82.5t-251.5 237.5t-90.5 360q0 134 38 257.5t110.5 224.5t172.5 176t230 116t276 41q209 0 371 -82.5t253 -237.5t91 -360q0 -134 -38.5 -257.5t-111.5 -224.5t-173 -176t-230.5 -116t-276.5 -41zM836 231
q127 0 230.5 45.5t169.5 123t101 177t35 209.5q0 194 -126 305t-320 111q-127 0 -231 -45.5t-169.5 -123t-101 -177t-35.5 -209.5q0 -194 126.5 -305t320.5 -111z" />
    <glyph glyph-name="omacron" unicode="&#x14d;" horiz-adv-x="1157" 
d="M1032 1366l-33 -174h-628l35 174h626zM535 -31q-217 0 -349.5 119.5t-132.5 331.5q0 240 159.5 398.5t410.5 158.5q217 0 349 -119t132 -332q0 -240 -159 -398.5t-410 -158.5zM553 207q132 0 212.5 87.5t80.5 215.5q0 111 -66.5 170t-175.5 59q-132 0 -212.5 -87.5
t-80.5 -215.5q0 -111 66.5 -170t175.5 -59z" />
    <glyph glyph-name="Obreve" unicode="&#x14e;" horiz-adv-x="1667" 
d="M965 1513q-121 0 -189.5 59t-68.5 163q0 20 2 32h161v-12q0 -43 29.5 -67.5t85.5 -24.5q110 0 156 104h176q-35 -119 -128.5 -186.5t-223.5 -67.5zM823 -31q-209 0 -370 82.5t-251.5 237.5t-90.5 360q0 134 38 257.5t110.5 224.5t172.5 176t230 116t276 41
q209 0 371 -82.5t253 -237.5t91 -360q0 -134 -38.5 -257.5t-111.5 -224.5t-173 -176t-230.5 -116t-276.5 -41zM836 231q127 0 230.5 45.5t169.5 123t101 177t35 209.5q0 194 -126 305t-320 111q-127 0 -231 -45.5t-169.5 -123t-101 -177t-35.5 -209.5q0 -194 126.5 -305
t320.5 -111z" />
    <glyph glyph-name="obreve" unicode="&#x14f;" horiz-adv-x="1157" 
d="M1047 1430q-25 -142 -116.5 -227t-234.5 -85q-120 0 -194 62.5t-74 169.5q0 25 10 80h150q-6 -18 -6 -41q0 -54 30.5 -85.5t92.5 -31.5q79 0 117.5 42.5t56.5 115.5h168zM535 -31q-217 0 -349.5 119.5t-132.5 331.5q0 240 159.5 398.5t410.5 158.5q217 0 349 -119
t132 -332q0 -240 -159 -398.5t-410 -158.5zM553 207q132 0 212.5 87.5t80.5 215.5q0 111 -66.5 170t-175.5 59q-132 0 -212.5 -87.5t-80.5 -215.5q0 -111 66.5 -170t175.5 -59z" />
    <glyph glyph-name="Ohungarumlaut" unicode="&#x150;" horiz-adv-x="1667" 
d="M1200 1767l-311 -245h-172l276 245h207zM1481 1767l-312 -245h-172l277 245h207zM823 -31q-209 0 -370 82.5t-251.5 237.5t-90.5 360q0 134 38 257.5t110.5 224.5t172.5 176t230 116t276 41q209 0 371 -82.5t253 -237.5t91 -360q0 -134 -38.5 -257.5t-111.5 -224.5
t-173 -176t-230.5 -116t-276.5 -41zM836 231q127 0 230.5 45.5t169.5 123t101 177t35 209.5q0 194 -126 305t-320 111q-127 0 -231 -45.5t-169.5 -123t-101 -177t-35.5 -209.5q0 -194 126.5 -305t320.5 -111z" />
    <glyph glyph-name="ohungarumlaut" unicode="&#x151;" horiz-adv-x="1157" 
d="M901 1448l-323 -315h-175l283 315h215zM1202 1448l-323 -315h-174l282 315h215zM535 -31q-217 0 -349.5 119.5t-132.5 331.5q0 240 159.5 398.5t410.5 158.5q217 0 349 -119t132 -332q0 -240 -159 -398.5t-410 -158.5zM553 207q132 0 212.5 87.5t80.5 215.5
q0 111 -66.5 170t-175.5 59q-132 0 -212.5 -87.5t-80.5 -215.5q0 -111 66.5 -170t175.5 -59z" />
    <glyph glyph-name="OE" unicode="&#x152;" horiz-adv-x="2258" 
d="M2310 1192h-586l-57 -291h535l-45 -242h-537l-82 -417h596l-47 -242h-858l18 92q-189 -123 -436 -123q-203 0 -361.5 82.5t-248.5 238t-90 359.5q0 168 61 317.5t168 259.5t263.5 174t338.5 64q166 0 302 -56t229 -161l34 187h850zM834 236q101 0 188 29.5t150 81
t107.5 121t66.5 150.5t22 168q0 192 -123.5 302t-314.5 110q-127 0 -230.5 -45.5t-169.5 -122t-101.5 -175t-35.5 -208.5q0 -192 124.5 -301.5t316.5 -109.5z" />
    <glyph glyph-name="oe" unicode="&#x153;" horiz-adv-x="1892" 
d="M1847 584q0 -64 -20 -164h-729q12 -227 243 -227q171 0 318 118l106 -192q-198 -148 -432 -148q-256 0 -385 160q-162 -162 -413 -162q-217 0 -349.5 119.5t-132.5 331.5q0 240 159.5 398.5t410.5 158.5q255 0 387 -160q153 160 403 160q201 0 317.5 -103.5t116.5 -289.5
zM1599 586q0 3 1.5 10.5t1.5 11.5q0 83 -53.5 128.5t-147.5 45.5q-100 0 -173.5 -52t-107.5 -144h479zM553 207q132 0 212.5 87.5t80.5 215.5q0 111 -66.5 170t-175.5 59q-132 0 -212.5 -87.5t-80.5 -215.5q0 -111 66.5 -170t175.5 -59z" />
    <glyph glyph-name="Racute" unicode="&#x154;" horiz-adv-x="1236" 
d="M1200 1767l-373 -245h-184l260 245h297zM1239 1038q0 -177 -112 -299.5t-306 -156.5l318 -582h-301l-287 569h-135l-111 -569h-262l279 1434h466q215 0 333 -105.5t118 -290.5zM537 1192l-76 -391h223q124 0 197 56.5t73 156.5q0 178 -223 178h-194z" />
    <glyph glyph-name="racute" unicode="&#x155;" horiz-adv-x="718" 
d="M438 1133l283 315h301l-381 -315h-203zM18 0l185 946h248l-39 -196h4q94 225 338 225q25 0 37 -2l-56 -279q-12 2 -49 2q-145 0 -227 -72t-115 -237l-76 -387h-250z" />
    <glyph glyph-name="Rcommaaccent" unicode="&#x156;" horiz-adv-x="1236" 
d="M1239 1038q0 -177 -112 -299.5t-306 -156.5l318 -582h-301l-287 569h-135l-111 -569h-262l279 1434h466q215 0 333 -105.5t118 -290.5zM537 1192l-76 -391h223q124 0 197 56.5t73 156.5q0 178 -223 178h-194zM424 -291l39 195h237l-38 -195l-168 -139h-88l112 139h-94z
" />
    <glyph glyph-name="rcommaaccent" unicode="&#x157;" horiz-adv-x="718" 
d="M754 975q25 0 37 -2l-56 -279q-12 2 -49 2q-145 0 -227 -72t-115 -237l-76 -387h-250l185 946h248l-39 -196h4q94 225 338 225zM-29 -291l39 195h238l-39 -195l-168 -139h-88l113 139h-95z" />
    <glyph glyph-name="Rcaron" unicode="&#x158;" horiz-adv-x="1236" 
d="M997 1626l-239 -104l-238 141l15 104l176 -90l157 35l193 55zM1239 1038q0 -177 -112 -299.5t-306 -156.5l318 -582h-301l-287 569h-135l-111 -569h-262l279 1434h466q215 0 333 -105.5t118 -290.5zM537 1192l-76 -391h223q124 0 197 56.5t73 156.5q0 178 -223 178h-194z
" />
    <glyph glyph-name="rcaron" unicode="&#x159;" horiz-adv-x="718" 
d="M410 1118l-191 316h209l111 -195l190 195h236l-316 -316h-239zM18 0l185 946h248l-39 -196h4q94 225 338 225q25 0 37 -2l-56 -279q-12 2 -49 2q-145 0 -227 -72t-115 -237l-76 -387h-250z" />
    <glyph glyph-name="Sacute" unicode="&#x15a;" horiz-adv-x="1058" 
d="M563 1522l260 245h297l-372 -245h-185zM504 -31q-301 0 -539 205l158 221q204 -166 381 -166q86 0 134 40.5t48 107.5q0 40 -23 81.5t-83 96.5l-207 188q-168 151 -168 344q0 169 114 273t314 104q218 0 448 -141l-147 -231q-170 114 -305 114q-73 0 -108.5 -33.5
t-35.5 -82.5q0 -40 25 -76.5t82 -87.5l203 -183q96 -88 137 -173t41 -183q0 -200 -126 -309t-343 -109z" />
    <glyph glyph-name="sacute" unicode="&#x15b;" horiz-adv-x="833" 
d="M469 1133l283 315h301l-381 -315h-203zM88 311q173 -127 305 -127q47 0 74 18.5t27 49.5q0 44 -70 88l-131 82q-85 54 -126.5 119t-41.5 151q0 130 89.5 207.5t244.5 77.5q187 0 375 -107l-107 -192q-139 86 -254 86q-92 0 -92 -66q0 -24 18.5 -45t63.5 -49l121 -74
q89 -53 129.5 -114t40.5 -152q0 -142 -94.5 -218.5t-264.5 -76.5q-244 0 -436 156z" />
    <glyph glyph-name="Scircumflex" unicode="&#x15c;" horiz-adv-x="1058" 
d="M285 1522l303 245h250l192 -245h-211l-114 143l-183 -143h-237zM504 -31q-301 0 -539 205l158 221q204 -166 381 -166q86 0 134 40.5t48 107.5q0 40 -23 81.5t-83 96.5l-207 188q-168 151 -168 344q0 169 114 273t314 104q218 0 448 -141l-147 -231q-170 114 -305 114
q-73 0 -108.5 -33.5t-35.5 -82.5q0 -40 25 -76.5t82 -87.5l203 -183q96 -88 137 -173t41 -183q0 -200 -126 -309t-343 -109z" />
    <glyph glyph-name="scircumflex" unicode="&#x15d;" horiz-adv-x="833" 
d="M168 1133l315 315h240l190 -315h-208l-113 192l-189 -192h-235zM88 311q173 -127 305 -127q47 0 74 18.5t27 49.5q0 44 -70 88l-131 82q-85 54 -126.5 119t-41.5 151q0 130 89.5 207.5t244.5 77.5q187 0 375 -107l-107 -192q-139 86 -254 86q-92 0 -92 -66
q0 -24 18.5 -45t63.5 -49l121 -74q89 -53 129.5 -114t40.5 -152q0 -142 -94.5 -218.5t-264.5 -76.5q-244 0 -436 156z" />
    <glyph glyph-name="Scedilla" unicode="&#x15e;" horiz-adv-x="1058" 
d="M795 743q96 -88 137 -173t41 -183q0 -198 -124.5 -307t-338.5 -111l-29 -43q73 -22 112.5 -52t39.5 -85q0 -32 -19 -61t-48 -50t-76.5 -42.5t-89 -36t-101.5 -33.5l-29 69q48 21 71 31.5t51 26.5t39 29.5t11 29.5q0 24 -26.5 39.5t-83.5 30.5l90 151q-257 26 -457 201
l158 221q204 -166 381 -166q86 0 134 40.5t48 107.5q0 40 -23 81.5t-83 96.5l-207 188q-168 151 -168 344q0 169 114 273t314 104q218 0 448 -141l-147 -231q-170 114 -305 114q-73 0 -108.5 -33.5t-35.5 -82.5q0 -40 25 -76.5t82 -87.5z" />
    <glyph glyph-name="scedilla" unicode="&#x15f;" horiz-adv-x="833" 
d="M584 530q89 -53 129.5 -114t40.5 -152q0 -142 -94.5 -218.5t-264.5 -76.5h-4l-26 -43q73 -22 112 -52t39 -85q0 -32 -19 -61t-48 -50t-76.5 -42.5t-89 -36t-101.5 -33.5l-28 69q48 21 71 31.5t51 26.5t39 29.5t11 29.5q0 24 -27 39.5t-84 30.5l90 153q-192 23 -346 150
l129 186q173 -127 305 -127q47 0 74 18.5t27 49.5q0 44 -70 88l-131 82q-85 54 -126.5 119t-41.5 151q0 130 89.5 207.5t244.5 77.5q187 0 375 -107l-107 -192q-139 86 -254 86q-92 0 -92 -66q0 -24 18.5 -45t63.5 -49z" />
    <glyph glyph-name="Scaron" unicode="&#x160;" horiz-adv-x="1058" 
d="M680 1522l-238 141l15 104l176 -90l158 35l192 55l-63 -141zM504 -31q-301 0 -539 205l158 221q204 -166 381 -166q86 0 134 40.5t48 107.5q0 40 -23 81.5t-83 96.5l-207 188q-168 151 -168 344q0 169 114 273t314 104q218 0 448 -141l-147 -231q-170 114 -305 114
q-73 0 -108.5 -33.5t-35.5 -82.5q0 -40 25 -76.5t82 -87.5l203 -183q96 -88 137 -173t41 -183q0 -200 -126 -309t-343 -109z" />
    <glyph glyph-name="scaron" unicode="&#x161;" horiz-adv-x="833" 
d="M440 1118l-190 316h209l110 -195l191 195h235l-315 -316h-240zM88 311q173 -127 305 -127q47 0 74 18.5t27 49.5q0 44 -70 88l-131 82q-85 54 -126.5 119t-41.5 151q0 130 89.5 207.5t244.5 77.5q187 0 375 -107l-107 -192q-139 86 -254 86q-92 0 -92 -66q0 -24 18.5 -45
t63.5 -49l121 -74q89 -53 129.5 -114t40.5 -152q0 -142 -94.5 -218.5t-264.5 -76.5q-244 0 -436 156z" />
    <glyph glyph-name="uni0162" unicode="&#x162;" horiz-adv-x="1077" 
d="M578 0h-78l-47 -74q73 -22 112 -52t39 -85q0 -32 -19 -61t-48 -50t-76.5 -42.5t-89 -36t-101.5 -33.5l-28 69q48 21 71 31.5t51 26.5t39 29.5t11 29.5q0 24 -27 39.5t-84 30.5l105 178h-93l232 1192h-391l47 242h1044l-47 -242h-391z" />
    <glyph glyph-name="uni0163" unicode="&#x163;" horiz-adv-x="690" 
d="M500 735l-78 -397q-4 -28 -4 -39q0 -37 20 -52.5t66 -15.5h41l-47 -233h-90l-46 -72q73 -22 112.5 -52t39.5 -85q0 -32 -19 -61t-48 -50t-76.5 -42.5t-89 -36t-101.5 -33.5l-28 69q48 21 71 31.5t51 26.5t39 29.5t11 29.5q0 24 -27 39.5t-84 30.5l109 184
q-80 15 -124 67.5t-44 139.5q0 45 8 86l86 436h-170l41 211h170l73 379h252l-73 -379h204l-40 -211h-205z" />
    <glyph glyph-name="Tcaron" unicode="&#x164;" horiz-adv-x="1077" 
d="M989 1626l-239 -104l-238 141l14 104l176 -90l158 35l193 55zM1247 1434l-47 -242h-391l-231 -1192h-263l232 1192h-391l47 242h1044z" />
    <glyph glyph-name="tcaron" unicode="&#x165;" horiz-adv-x="884" 
d="M786 1464h248l-47 -247l-223 -197h-92l149 197h-82zM614 1325l-73 -379h204l-40 -211h-205l-78 -397q-4 -28 -4 -39q0 -37 20 -52.5t66 -15.5h41l-47 -233h-99q-116 0 -180.5 54t-64.5 161q0 45 8 86l86 436h-170l41 211h170l73 379h252z" />
    <glyph glyph-name="Tbar" unicode="&#x166;" horiz-adv-x="1077" 
d="M1200 1192h-391l-47 -246h254l-35 -180h-256l-147 -766h-263l148 766h-262l35 180h264l47 246h-391l47 242h1044z" />
    <glyph glyph-name="tbar" unicode="&#x167;" horiz-adv-x="700" 
d="M508 735l-76 -397q-6 -21 -6 -39q0 -36 20.5 -52t65.5 -16h43l-47 -233h-98q-117 0 -182.5 54.5t-65.5 160.5q0 34 10 86l86 436h-170l39 211h172l74 379h250l-74 -379h207l-41 -211h-207z" />
    <glyph glyph-name="Utilde" unicode="&#x168;" horiz-adv-x="1415" 
d="M1081 1507q-65 0 -170.5 45t-150.5 45q-68 0 -127 -79l-84 26q44 105 106 168.5t154 63.5q53 0 113 -22.5t114.5 -45t93.5 -22.5q38 0 67.5 18.5t62.5 60.5l83 -26q-21 -50 -44 -88t-54.5 -72.5t-73 -53t-90.5 -18.5zM1487 1434l-170 -869q-55 -280 -220.5 -437
t-451.5 -157q-251 0 -386.5 122.5t-135.5 346.5q0 80 18 172l160 822h279l-162 -834q-12 -58 -12 -104q0 -125 70.5 -191.5t197.5 -66.5q151 0 244 93.5t124 250.5l166 852h279z" />
    <glyph glyph-name="utilde" unicode="&#x169;" horiz-adv-x="1105" 
d="M823 1151q-57 0 -117.5 27.5t-113.5 54.5t-90 27q-67 0 -127 -95l-94 31q47 114 110.5 181t155.5 67q57 0 117.5 -27t113.5 -53.5t90 -26.5q63 0 127 93l92 -31q-48 -115 -110 -181.5t-154 -66.5zM369 -31q-138 0 -220.5 76.5t-82.5 222.5q0 48 16 146l106 532h258
l-98 -500q-10 -58 -10 -94q0 -77 41 -114t113 -37q197 0 253 291l89 454h253l-184 -946h-248l27 147h-4q-59 -92 -133 -135t-176 -43z" />
    <glyph glyph-name="Umacron" unicode="&#x16a;" horiz-adv-x="1415" 
d="M1245 1716l-33 -170h-626l32 170h627zM1487 1434l-170 -869q-55 -280 -220.5 -437t-451.5 -157q-251 0 -386.5 122.5t-135.5 346.5q0 80 18 172l160 822h279l-162 -834q-12 -58 -12 -104q0 -125 70.5 -191.5t197.5 -66.5q151 0 244 93.5t124 250.5l166 852h279z" />
    <glyph glyph-name="umacron" unicode="&#x16b;" horiz-adv-x="1105" 
d="M1006 1366l-33 -174h-629l35 174h627zM369 -31q-138 0 -220.5 76.5t-82.5 222.5q0 48 16 146l106 532h258l-98 -500q-10 -58 -10 -94q0 -77 41 -114t113 -37q197 0 253 291l89 454h253l-184 -946h-248l27 147h-4q-59 -92 -133 -135t-176 -43z" />
    <glyph glyph-name="Ubreve" unicode="&#x16c;" horiz-adv-x="1415" 
d="M899 1513q-121 0 -189.5 59t-68.5 163q0 20 2 32h162v-12q0 -43 29.5 -67.5t85.5 -24.5q109 0 155 104h176q-35 -119 -128.5 -186.5t-223.5 -67.5zM1487 1434l-170 -869q-55 -280 -220.5 -437t-451.5 -157q-251 0 -386.5 122.5t-135.5 346.5q0 80 18 172l160 822h279
l-162 -834q-12 -58 -12 -104q0 -125 70.5 -191.5t197.5 -66.5q151 0 244 93.5t124 250.5l166 852h279z" />
    <glyph glyph-name="ubreve" unicode="&#x16d;" horiz-adv-x="1105" 
d="M1018 1430q-26 -142 -117 -227t-233 -85q-120 0 -194.5 62.5t-74.5 169.5q0 20 11 80h149q-6 -18 -6 -41q0 -54 30.5 -85.5t92.5 -31.5q79 0 117.5 42.5t56.5 115.5h168zM369 -31q-138 0 -220.5 76.5t-82.5 222.5q0 48 16 146l106 532h258l-98 -500q-10 -58 -10 -94
q0 -77 41 -114t113 -37q197 0 253 291l89 454h253l-184 -946h-248l27 147h-4q-59 -92 -133 -135t-176 -43z" />
    <glyph glyph-name="Uring" unicode="&#x16e;" horiz-adv-x="1415" 
d="M872 1325q-101 0 -159 57.5t-58 151.5q0 112 77 191t198 79q101 0 159 -58.5t58 -152.5q0 -112 -76.5 -190t-198.5 -78zM883 1434q72 0 110.5 46.5t38.5 104.5q0 49 -28.5 79t-83.5 30q-72 0 -111 -47t-39 -105q0 -49 29.5 -78.5t83.5 -29.5zM1487 1434l-170 -869
q-55 -280 -220.5 -437t-451.5 -157q-251 0 -386.5 122.5t-135.5 346.5q0 80 18 172l160 822h279l-162 -834q-12 -58 -12 -104q0 -125 70.5 -191.5t197.5 -66.5q151 0 244 93.5t124 250.5l166 852h279z" />
    <glyph glyph-name="uring" unicode="&#x16f;" horiz-adv-x="1105" 
d="M684 1530q101 0 165 -61t64 -156q0 -106 -73 -184t-193 -78q-101 0 -163 60.5t-62 156.5q0 107 72 184.5t190 77.5zM678 1421q-69 0 -105 -45t-36 -102q0 -51 30.5 -83t87.5 -32q69 0 105.5 45.5t36.5 102.5q0 51 -31 82.5t-88 31.5zM369 -31q-138 0 -220.5 76.5
t-82.5 222.5q0 48 16 146l106 532h258l-98 -500q-10 -58 -10 -94q0 -77 41 -114t113 -37q197 0 253 291l89 454h253l-184 -946h-248l27 147h-4q-59 -92 -133 -135t-176 -43z" />
    <glyph glyph-name="Uhungarumlaut" unicode="&#x170;" horiz-adv-x="1415" 
d="M1135 1767l-312 -245h-172l277 245h207zM1415 1767l-311 -245h-172l276 245h207zM1487 1434l-170 -869q-55 -280 -220.5 -437t-451.5 -157q-251 0 -386.5 122.5t-135.5 346.5q0 80 18 172l160 822h279l-162 -834q-12 -58 -12 -104q0 -125 70.5 -191.5t197.5 -66.5
q151 0 244 93.5t124 250.5l166 852h279z" />
    <glyph glyph-name="uhungarumlaut" unicode="&#x171;" horiz-adv-x="1105" 
d="M872 1448l-323 -315h-174l282 315h215zM1174 1448l-324 -315h-174l282 315h216zM369 -31q-138 0 -220.5 76.5t-82.5 222.5q0 48 16 146l106 532h258l-98 -500q-10 -58 -10 -94q0 -77 41 -114t113 -37q197 0 253 291l89 454h253l-184 -946h-248l27 147h-4
q-59 -92 -133 -135t-176 -43z" />
    <glyph glyph-name="Uogonek" unicode="&#x172;" horiz-adv-x="1415" 
d="M1208 1434h279l-170 -869q-26 -133 -76.5 -238.5t-129 -185t-190 -123t-251.5 -47.5q-140 -125 -140 -176q0 -17 14 -27t36 -10q26 0 79 11v-156q-89 -21 -141 -21q-82 0 -132 37t-50 103q0 121 172 250q-187 31 -286 149t-99 309q0 80 18 172l160 822h279l-162 -834
q-12 -58 -12 -104q0 -125 70.5 -191.5t197.5 -66.5q151 0 244 93.5t124 250.5z" />
    <glyph glyph-name="uogonek" unicode="&#x173;" horiz-adv-x="1105" 
d="M782 0q-172 -146 -172 -205q0 -17 13.5 -27t35.5 -10q27 0 80 11v-156q-89 -21 -141 -21q-82 0 -132 37t-50 103q0 74 61 147t185 154l20 114h-4q-59 -92 -133 -135t-176 -43q-138 0 -220.5 76.5t-82.5 222.5q0 48 16 146l106 532h258l-98 -500q-10 -58 -10 -94
q0 -77 41 -114t113 -37q197 0 253 291l89 454h253l-184 -946h-121z" />
    <glyph glyph-name="Wcircumflex" unicode="&#x174;" horiz-adv-x="2127" 
d="M868 1522l303 245h250l193 -245h-211l-115 143l-182 -143h-238zM2275 1434l-735 -1434h-244l-125 1004h-4l-514 -1004h-241l-187 1434h289l88 -1010h4l510 1010h244l123 -1010h4l475 1010h313z" />
    <glyph glyph-name="wcircumflex" unicode="&#x175;" horiz-adv-x="1585" 
d="M936 1325l-188 -192h-236l315 315h240l190 -315h-208zM1389 946h272l-516 -946h-223l-95 621l-340 -621h-221l-145 946h250l63 -620l326 620h237l84 -620z" />
    <glyph glyph-name="Ycircumflex" unicode="&#x176;" horiz-adv-x="1222" 
d="M819 1665l-182 -143h-238l303 245h250l193 -245h-211zM1409 1434l-653 -889l-107 -545h-262l107 547l-308 887h287l178 -629h4l428 629h326z" />
    <glyph glyph-name="ycircumflex" unicode="&#x177;" horiz-adv-x="1038" 
d="M659 1325l-188 -192h-235l315 315h240l190 -315h-209zM842 946h278l-831 -1358h-269l324 518l-242 840h271l133 -571z" />
    <glyph glyph-name="Ydieresis" unicode="&#x178;" horiz-adv-x="1222" 
d="M733 1745l-43 -223h-244l43 223h244zM1157 1745l-41 -223h-244l43 223h242zM1409 1434l-653 -889l-107 -545h-262l107 547l-308 887h287l178 -629h4l428 629h326z" />
    <glyph glyph-name="Zacute" unicode="&#x179;" horiz-adv-x="1138" 
d="M1239 1767l-373 -245h-184l260 245h297zM1255 1434l-47 -246l-878 -942h721l-47 -246h-1053l47 246l881 942h-639l49 246h966z" />
    <glyph glyph-name="zacute" unicode="&#x17a;" horiz-adv-x="907" 
d="M1053 1448l-381 -315h-203l283 315h301zM119 725l43 221h762l-39 -201l-578 -524h510l-43 -221h-823l39 203l575 522h-446z" />
    <glyph glyph-name="Zdotaccent" unicode="&#x17b;" horiz-adv-x="1138" 
d="M961 1757l-46 -235h-251l45 235h252zM1255 1434l-47 -246l-878 -942h721l-47 -246h-1053l47 246l881 942h-639l49 246h966z" />
    <glyph glyph-name="zdotaccent" unicode="&#x17c;" horiz-adv-x="907" 
d="M770 1421l-53 -276h-287l53 276h287zM924 946l-39 -201l-578 -524h510l-43 -221h-823l39 203l575 522h-446l43 221h762z" />
    <glyph glyph-name="Zcaron" unicode="&#x17d;" horiz-adv-x="1138" 
d="M1038 1626l-239 -104l-238 141l14 104l177 -90l157 35l193 55zM1255 1434l-47 -246l-878 -942h721l-47 -246h-1053l47 246l881 942h-639l49 246h966z" />
    <glyph glyph-name="zcaron" unicode="&#x17e;" horiz-adv-x="907" 
d="M680 1118h-240l-190 316h209l110 -195l191 195h235zM119 725l43 221h762l-39 -201l-578 -524h510l-43 -221h-823l39 203l575 522h-446z" />
    <glyph glyph-name="florin" unicode="&#x192;" horiz-adv-x="825" 
d="M836 1178q-90 0 -144.5 -41.5t-73.5 -139.5l-10 -51h246l-12 -61h-244l-180 -920q-38 -200 -144 -287.5t-272 -87.5h-131l43 226h82q145 0 176 159l178 910h-200l12 61h200l13 66q75 391 450 391h123l-43 -225h-69z" />
    <glyph glyph-name="AEacute" unicode="&#x1fc;" horiz-adv-x="1984" 
d="M2099 1767l-373 -245h-184l260 245h297zM2083 1434l-47 -242h-543l-55 -291h487l-45 -242h-489l-82 -417h551l-48 -242h-657h-147l61 326h-541l-268 -326h-346l1216 1434h953zM723 563h393l121 625z" />
    <glyph glyph-name="aeacute" unicode="&#x1fd;" horiz-adv-x="1699" 
d="M856 1133l283 315h301l-381 -315h-203zM379 -31q-165 0 -269 82.5t-104 233.5q0 153 109 251.5t295 98.5q201 0 295 -115h4q22 83 22 127q0 57 -48 90t-140 33q-139 0 -305 -45l-39 203q201 49 366 49q83 0 144.5 -15t108.5 -55t65 -106h4q58 83 153.5 129.5t216.5 46.5
q171 0 282.5 -99.5t111.5 -283.5q0 -49 -23 -174h-700q-2 -8 -2 -31q0 -80 59 -139.5t176 -59.5q155 0 303 119l109 -176q-192 -164 -418 -164q-138 0 -236.5 57.5t-138.5 151.5h-4q-135 -209 -397 -209zM967 584h432q2 12 2 32q0 73 -46.5 114.5t-133.5 41.5
q-93 0 -158.5 -50t-95.5 -138zM457 170q98 0 157.5 45t59.5 113q0 61 -49.5 93t-130.5 32q-97 0 -156 -42t-59 -112q0 -63 48 -96t130 -33z" />
    <glyph glyph-name="Oslashacute" unicode="&#x1fe;" horiz-adv-x="1667" 
d="M1452 1767l-373 -245h-184l260 245h297zM1460 1274q193 -190 193 -490q0 -134 -38.5 -257.5t-111.5 -224.5t-173 -176t-230.5 -116t-276.5 -41q-268 0 -454 135l-127 -137l-68 60l127 135q-190 184 -190 487q0 134 38 257.5t110.5 224.5t172.5 176t230 116t276 41
q269 0 455 -135l127 135l65 -59zM389 647q0 -168 103 -282l710 761q-118 76 -276 76q-127 0 -231 -45.5t-169.5 -123t-101 -177t-35.5 -209.5zM836 231q127 0 230.5 45.5t169.5 123t101 177t35 209.5q0 170 -102 283l-711 -762q118 -76 277 -76z" />
    <glyph glyph-name="oslashacute" unicode="&#x1ff;" horiz-adv-x="1157" 
d="M1180 1448l-381 -315h-203l283 315h301zM1100 924l-101 -95q105 -118 105 -303q0 -240 -159 -398.5t-410 -158.5q-209 0 -336 109l-119 -111l-53 53l118 111q-92 115 -92 289q0 240 159.5 398.5t410.5 158.5q193 0 319 -94l102 96zM311 436q0 -68 29 -121l410 387
q-58 37 -146 37q-132 0 -212.5 -87.5t-80.5 -215.5zM846 510q0 84 -39 139l-418 -391q60 -51 164 -51q132 0 212.5 87.5t80.5 215.5z" />
    <glyph glyph-name="Scommaaccent" unicode="&#x218;" horiz-adv-x="1058" 
d="M795 743q96 -88 137 -173t41 -183q0 -200 -126 -309t-343 -109q-301 0 -539 205l158 221q204 -166 381 -166q86 0 134 40.5t48 107.5q0 40 -23 81.5t-83 96.5l-207 188q-168 151 -168 344q0 169 114 273t314 104q218 0 448 -141l-147 -231q-170 114 -305 114
q-73 0 -108.5 -33.5t-35.5 -82.5q0 -40 25 -76.5t82 -87.5zM311 -291l39 195h238l-39 -195l-168 -139h-88l113 139h-95z" />
    <glyph glyph-name="scommaaccent" unicode="&#x219;" horiz-adv-x="833" 
d="M584 530q89 -53 129.5 -114t40.5 -152q0 -142 -94.5 -218.5t-264.5 -76.5q-244 0 -436 156l129 186q173 -127 305 -127q47 0 74 18.5t27 49.5q0 44 -70 88l-131 82q-85 54 -126.5 119t-41.5 151q0 130 89.5 207.5t244.5 77.5q187 0 375 -107l-107 -192q-139 86 -254 86
q-92 0 -92 -66q0 -24 18.5 -45t63.5 -49zM195 -291l38 195h238l-39 -195l-168 -139h-88l113 139h-94z" />
    <glyph glyph-name="uni021A" unicode="&#x21a;" horiz-adv-x="1077" 
d="M1247 1434l-47 -242h-391l-231 -1192h-263l232 1192h-391l47 242h1044zM283 -291l39 195h237l-39 -195l-168 -139h-88l113 139h-94z" />
    <glyph glyph-name="uni021B" unicode="&#x21b;" horiz-adv-x="690" 
d="M500 735l-78 -397q-4 -28 -4 -39q0 -37 20 -52.5t66 -15.5h41l-47 -233h-99q-116 0 -180.5 54t-64.5 161q0 45 8 86l86 436h-170l41 211h170l73 379h252l-73 -379h204l-40 -211h-205zM193 -291l38 195h238l-39 -195l-168 -139h-88l113 139h-94z" />
    <glyph glyph-name="uni0237" unicode="&#x237;" horiz-adv-x="477" 
d="M-184 -184h61q59 0 90.5 28.5t42.5 87.5l197 1014h254l-205 -1048q-31 -163 -129.5 -238.5t-259.5 -75.5h-96z" />
    <glyph glyph-name="uni02BC" unicode="&#x2bc;" horiz-adv-x="399" 
d="M287 1464h248l-48 -247l-251 -312h-93l185 312h-88z" />
    <glyph glyph-name="circumflex" unicode="&#x2c6;" horiz-adv-x="950" 
d="M231 1133l316 315h239l191 -315h-209l-113 192l-188 -192h-236z" />
    <glyph glyph-name="caron" unicode="&#x2c7;" horiz-adv-x="950" 
d="M479 1118l-190 316h209l110 -195l191 195h235l-315 -316h-240z" />
    <glyph glyph-name="breve" unicode="&#x2d8;" horiz-adv-x="813" 
d="M897 1430q-26 -142 -117 -227t-233 -85q-120 0 -194 62.5t-74 169.5q0 25 10 80h149q-6 -18 -6 -41q0 -54 30.5 -85.5t92.5 -31.5q79 0 117.5 42.5t56.5 115.5h168z" />
    <glyph glyph-name="dotaccent" unicode="&#x2d9;" horiz-adv-x="491" 
d="M573 1421l-53 -276h-287l54 276h286z" />
    <glyph glyph-name="ring" unicode="&#x2da;" horiz-adv-x="696" 
d="M524 1530q101 0 165.5 -61t64.5 -156q0 -106 -73.5 -184t-193.5 -78q-101 0 -163 60.5t-62 156.5q0 107 72 184.5t190 77.5zM518 1421q-69 0 -105 -45t-36 -102q0 -51 31 -83t88 -32q69 0 105 45.5t36 102.5q0 51 -31 82.5t-88 31.5z" />
    <glyph glyph-name="ogonek" unicode="&#x2db;" horiz-adv-x="555" 
d="M233 49l119 -29q-196 -161 -196 -225q0 -17 13.5 -27t35.5 -10q27 0 80 11v-156q-89 -21 -142 -21q-82 0 -132 37t-50 103q0 78 67 154t205 163z" />
    <glyph glyph-name="tilde" unicode="&#x2dc;" horiz-adv-x="970" 
d="M784 1151q-57 0 -117.5 27.5t-113.5 54.5t-90 27q-67 0 -127 -95l-94 31q47 114 110.5 181t155.5 67q57 0 117.5 -27t113.5 -53.5t90 -26.5q63 0 127 93l93 -31q-22 -54 -46.5 -95.5t-56.5 -77.5t-73 -55.5t-89 -19.5z" />
    <glyph glyph-name="hungarumlaut" unicode="&#x2dd;" horiz-adv-x="942" 
d="M729 1448l-323 -315h-175l283 315h215zM1030 1448l-323 -315h-175l283 315h215z" />
    <glyph glyph-name="gravecomb" unicode="&#x300;" horiz-adv-x="0" 
d="M-123 1448l150 -315h-177l-251 315h278z" />
    <glyph glyph-name="acutecomb" unicode="&#x301;" horiz-adv-x="0" 
d="M-496 1133l283 315h301l-381 -315h-203z" />
    <glyph glyph-name="uni0302" unicode="&#x302;" horiz-adv-x="0" 
d="M-719 1133l316 315h239l191 -315h-209l-113 192l-188 -192h-236z" />
    <glyph glyph-name="tildecomb" unicode="&#x303;" horiz-adv-x="0" 
d="M-186 1151q-57 0 -118 27.5t-114 54.5t-90 27q-67 0 -127 -95l-94 31q47 114 110.5 181t155.5 67q57 0 118 -27t114 -53.5t90 -26.5q63 0 127 93l92 -31q-48 -115 -110 -181.5t-154 -66.5z" />
    <glyph glyph-name="uni0304" unicode="&#x304;" horiz-adv-x="0" 
d="M72 1366l-33 -174h-629l35 174h627z" />
    <glyph glyph-name="uni0306" unicode="&#x306;" horiz-adv-x="0" 
d="M84 1430q-26 -142 -117 -227t-233 -85q-120 0 -194.5 62.5t-74.5 169.5q0 20 11 80h149q-6 -18 -6 -41q0 -54 30.5 -85.5t92.5 -31.5q79 0 117.5 42.5t56.5 115.5h168z" />
    <glyph glyph-name="uni0307" unicode="&#x307;" horiz-adv-x="0" 
d="M82 1421l-53 -276h-287l53 276h287z" />
    <glyph glyph-name="uni0308" unicode="&#x308;" horiz-adv-x="0" 
d="M-584 1153l49 260h230l-51 -260h-228zM-199 1153l49 260h230l-51 -260h-228z" />
    <glyph glyph-name="uni030A" unicode="&#x30a;" horiz-adv-x="0" 
d="M-172 1530q101 0 165 -61t64 -156q0 -106 -73 -184t-193 -78q-101 0 -163 60.5t-62 156.5q0 107 72 184.5t190 77.5zM-178 1421q-69 0 -105 -45t-36 -102q0 -51 30.5 -83t87.5 -32q69 0 105.5 45.5t36.5 102.5q0 51 -31 82.5t-88 31.5z" />
    <glyph glyph-name="uni030B" unicode="&#x30b;" horiz-adv-x="0" 
d="M-213 1448l-324 -315h-174l283 315h215zM88 1448l-324 -315h-174l283 315h215z" />
    <glyph glyph-name="uni030C" unicode="&#x30c;" horiz-adv-x="0" 
d="M-471 1118l-191 316h209l111 -195l190 195h236l-315 -316h-240z" />
    <glyph glyph-name="uni0326" unicode="&#x326;" horiz-adv-x="0" 
d="M-451 -96h238l-39 -195l-168 -139h-88l115 139h-96z" />
    <glyph glyph-name="uni0327" unicode="&#x327;" horiz-adv-x="0" 
d="M-571 -434l-29 69q48 21 71 31.5t51 26.5t39 29.5t11 29.5q0 24 -27 39.5t-84 30.5l148 250h94l-92 -146q73 -22 112 -52t39 -85q0 -32 -19 -61t-47.5 -50t-76 -42.5t-89 -36t-101.5 -33.5z" />
    <glyph glyph-name="uni0328" unicode="&#x328;" horiz-adv-x="0" 
d="M-322 49l119 -29q-196 -161 -196 -225q0 -17 13.5 -27t35.5 -10q27 0 80 11v-156q-89 -21 -142 -21q-82 0 -132 37t-50 103q0 78 67 154t205 163z" />
    <glyph glyph-name="uni0394" unicode="&#x394;" horiz-adv-x="1286" 
d="M641 1434l512 -1434h-1204l512 1434h180zM551 1071l-303 -928h606z" />
    <glyph glyph-name="uni03A9" unicode="&#x3a9;" horiz-adv-x="1675" 
d="M844 1464q317 0 506.5 -183.5t189.5 -475.5q0 -215 -119 -368.5t-297 -203.5v-6h392v-227h-590v365q167 31 265.5 148.5t98.5 283.5q0 196 -118.5 312t-327.5 116t-328 -116t-119 -312q0 -166 99 -283.5t266 -148.5v-365h-590v227h391v6q-178 50 -297 203.5t-119 368.5
q0 292 190 475.5t507 183.5z" />
    <glyph glyph-name="uni03BC" unicode="&#x3bc;" horiz-adv-x="1103" 
d="M834 946h251l-182 -946h-248l27 147h-4q-61 -92 -135 -135t-174 -43q-77 0 -131 31l-80 -410h-236l266 1356h256l-96 -500q-10 -58 -10 -94q0 -77 41 -114t113 -37q197 0 253 291z" />
    <glyph glyph-name="pi" unicode="&#x3c0;" horiz-adv-x="1269" 
d="M1307 977l-45 -229h-201l-148 -748h-229l145 748h-233l-324 -748h-233l323 748q-141 -6 -253 -41l43 229q132 41 309 41h846z" />
    <glyph glyph-name="uni0401" unicode="&#x401;" horiz-adv-x="1073" 
d="M731 1745l-43 -223h-244l43 223h244zM1155 1745l-41 -223h-244l43 223h242zM1124 1192h-587l-56 -291h535l-47 -242h-535l-82 -417h596l-47 -242h-858l279 1434h849z" />
    <glyph glyph-name="uni0402" unicode="&#x402;" horiz-adv-x="1503" 
d="M1085 877q77 0 135 -7t109.5 -25t84.5 -48t52 -77t19 -110q0 -37 -15 -118l-24 -130q-35 -181 -149 -271.5t-296 -90.5h-186l49 246h107q96 0 149 35.5t72 128.5l8 41q10 50 10 73q0 59 -48.5 82t-168.5 23q-103 0 -305 -17l-119 -612h-262l232 1188h-383l47 246h1136
l-47 -246h-491l-64 -328q253 17 348 17z" />
    <glyph glyph-name="uni0403" unicode="&#x403;" horiz-adv-x="991" 
d="M1223 1767l-373 -245h-184l260 245h297zM322 1434h839l-49 -248h-577l-230 -1186h-262z" />
    <glyph glyph-name="uni0404" unicode="&#x404;" horiz-adv-x="1409" 
d="M946 1200q-199 0 -336 -99.5t-186 -262.5h557l-47 -242h-533q19 -170 131 -266.5t287 -96.5q174 0 357 109l124 -227q-235 -146 -493 -146q-315 0 -505.5 189t-190.5 501q0 169 60.5 317t168.5 256t267 170t347 62q304 0 521 -155l-160 -228q-181 119 -369 119z" />
    <glyph glyph-name="uni0405" unicode="&#x405;" horiz-adv-x="1058" 
d="M504 -31q-301 0 -539 205l158 221q204 -166 381 -166q86 0 134 40.5t48 107.5q0 40 -23 81.5t-83 96.5l-207 188q-168 151 -168 344q0 169 114 273t314 104q218 0 448 -141l-147 -231q-170 114 -305 114q-73 0 -108.5 -33.5t-35.5 -82.5q0 -40 25 -76.5t82 -87.5
l203 -183q96 -88 137 -173t41 -183q0 -200 -126 -309t-343 -109z" />
    <glyph glyph-name="uni0406" unicode="&#x406;" horiz-adv-x="534" 
d="M43 0l279 1434h264l-279 -1434h-264z" />
    <glyph glyph-name="uni0407" unicode="&#x407;" horiz-adv-x="534" 
d="M131 1522l43 223h244l-43 -223h-244zM557 1522l43 223h242l-41 -223h-244zM43 0l279 1434h264l-279 -1434h-264z" />
    <glyph glyph-name="uni0408" unicode="&#x408;" horiz-adv-x="608" 
d="M-55 -8l45 250h61q56 0 90.5 28t48.5 95l209 1069h260l-215 -1115q-33 -172 -130.5 -249.5t-266.5 -77.5h-102z" />
    <glyph glyph-name="uni0409" unicode="&#x409;" horiz-adv-x="2195" 
d="M1696 891q101 0 183 -23.5t144.5 -71t96.5 -126.5t34 -183q0 -120 -43.5 -214t-120 -153t-177 -89.5t-218.5 -30.5h-575l229 1186h-606l-168 -867q-33 -172 -130.5 -249.5t-266.5 -77.5h-133l45 250h92q56 0 90.5 28t48.5 95l209 1069h260h719h152l-105 -543h240z
M1589 242q132 0 207.5 61t75.5 168q0 88 -55.5 133t-159.5 45h-248l-80 -407h260z" />
    <glyph glyph-name="uni040A" unicode="&#x40a;" horiz-adv-x="2158" 
d="M1659 891q101 0 183.5 -23.5t145 -71t96.5 -126.5t34 -183q0 -120 -43.5 -214t-120 -153t-177 -89.5t-218.5 -30.5h-576l127 649h-676l-127 -649h-264l279 1434h264l-107 -543h678l105 543h262l-105 -543h240zM1552 242q132 0 207.5 61t75.5 168q0 88 -56 133t-159 45
h-248l-80 -407h260z" />
    <glyph glyph-name="uni040B" unicode="&#x40b;" horiz-adv-x="1499" 
d="M1106 874q187 0 278 -71.5t91 -216.5q0 -56 -15 -123l-90 -463h-262l88 453q6 27 6 53q0 121 -155 121h-361l-121 -627h-262l232 1188h-379l47 246h641h495l-47 -246h-495l-62 -314h371z" />
    <glyph glyph-name="uni040C" unicode="&#x40c;" horiz-adv-x="1376" 
d="M1290 1767l-372 -245h-185l260 245h297zM1481 1434l-760 -699l557 -735h-344l-492 705l-137 -705h-262l279 1434h262l-125 -639l651 639h371z" />
    <glyph glyph-name="uni040E" unicode="&#x40e;" horiz-adv-x="1341" 
d="M868 1481q-134 0 -204 59t-70 164q0 33 6 63h164q-4 -20 -4 -45q0 -48 29.5 -75t89.5 -27q130 0 157 147h172q-31 -146 -113.5 -216t-226.5 -70zM1221 1434h307l-957 -1434h-307l250 373l-328 1061h287l229 -777z" />
    <glyph glyph-name="uni040F" unicode="&#x40f;" horiz-adv-x="1462" 
d="M1513 1434l-278 -1434h-475l-55 -287h-244l55 287h-473l279 1434h264l-232 -1188h664l231 1188h264z" />
    <glyph glyph-name="uni0410" unicode="&#x410;" horiz-adv-x="1427" 
d="M1057 0l-58 328h-598l-182 -328h-305l846 1434h274l295 -1434h-272zM530 559h426l-102 576z" />
    <glyph glyph-name="uni0411" unicode="&#x411;" horiz-adv-x="1216" 
d="M1198 1188h-663l-58 -297h240q210 0 335.5 -100t125.5 -304q0 -120 -43.5 -214t-120.5 -153t-178 -89.5t-220 -30.5h-573l279 1434h262h661zM680 649h-250l-78 -407h260q131 0 207 61t76 168q0 88 -56 133t-159 45z" />
    <glyph glyph-name="uni0412" unicode="&#x412;" horiz-adv-x="1286" 
d="M965 758q237 -54 237 -312q0 -110 -42.5 -196t-118 -140t-174 -82t-214.5 -28h-610l279 1434h548q177 0 278 -87.5t101 -242.5q0 -125 -73.5 -215.5t-210.5 -126.5v-4zM791 1192h-254l-68 -344h279q94 0 159.5 50.5t65.5 135.5q0 72 -46 115t-136 43zM664 242
q130 0 199 56.5t69 145.5q0 85 -53.5 132t-165.5 47h-287l-76 -381h314z" />
    <glyph glyph-name="uni0413" unicode="&#x413;" horiz-adv-x="991" 
d="M1161 1434l-49 -248h-577l-230 -1186h-262l279 1434h839z" />
    <glyph glyph-name="uni0414" unicode="&#x414;" horiz-adv-x="1415" 
d="M1405 1434l-238 -1219h158l-96 -502h-246l49 256h-876l-50 -256h-243l96 502h131q96 116 153.5 251t92.5 316l127 652h942zM602 784q-37 -190 -86.5 -323.5t-130.5 -245.5h520l191 973h-418z" />
    <glyph glyph-name="uni0415" unicode="&#x415;" horiz-adv-x="1073" 
d="M1124 1192h-587l-56 -291h535l-47 -242h-535l-82 -417h596l-47 -242h-858l279 1434h849z" />
    <glyph glyph-name="uni0416" unicode="&#x416;" horiz-adv-x="2154" 
d="M2261 1434l-696 -701l493 -733h-340l-450 719l-140 -719h-254l142 721l-717 -721h-385l817 784l-401 650h329l367 -656l127 656h254l-129 -658l618 658h365z" />
    <glyph glyph-name="uni0417" unicode="&#x417;" horiz-adv-x="1181" 
d="M532 -31q-309 0 -542 146l141 229q202 -121 406 -121q134 0 213 49.5t79 151.5q0 201 -350 201h-108l45 241h104q171 0 272 53t101 148q0 75 -59 110t-162 35q-181 0 -371 -86l-92 230q267 108 487 108q226 0 350.5 -92t124.5 -258q0 -138 -91 -227.5t-277 -122.5v-4
q135 -22 211 -112t76 -238q0 -208 -144 -324.5t-414 -116.5z" />
    <glyph glyph-name="uni0418" unicode="&#x418;" horiz-adv-x="1474" 
d="M43 0l279 1434h262l-193 -990h2l877 990h256l-279 -1434h-262l193 989h-2l-877 -989h-256z" />
    <glyph glyph-name="uni0419" unicode="&#x419;" horiz-adv-x="1474" 
d="M1286 1767q-31 -146 -113.5 -216t-226.5 -70q-134 0 -204 59t-70 164q0 33 6 63h164q-4 -20 -4 -45q0 -48 29.5 -75t88.5 -27q131 0 158 147h172zM43 0l279 1434h262l-193 -990h2l877 990h256l-279 -1434h-262l193 989h-2l-877 -989h-256z" />
    <glyph glyph-name="uni041A" unicode="&#x41a;" horiz-adv-x="1376" 
d="M1481 1434l-760 -699l557 -735h-344l-492 705l-137 -705h-262l279 1434h262l-125 -639l651 639h371z" />
    <glyph glyph-name="uni041B" unicode="&#x41b;" horiz-adv-x="1505" 
d="M1559 1434l-279 -1434h-262l229 1186h-600l-170 -887q-32 -158 -129.5 -232.5t-263.5 -74.5h-139l45 250h96q57 0 91 27.5t48 95.5l209 1069h1125z" />
    <glyph glyph-name="uni041C" unicode="&#x41c;" horiz-adv-x="1812" 
d="M-86 0l606 1434h211l180 -832h4l486 832h211l102 -1434h-260l-57 942h-4l-437 -727h-196l-174 721h-4l-375 -936h-293z" />
    <glyph glyph-name="uni041D" unicode="&#x41d;" horiz-adv-x="1472" 
d="M1262 1434h262l-279 -1434h-262l123 629h-680l-121 -629h-262l279 1434h262l-109 -557h678z" />
    <glyph glyph-name="uni041E" unicode="&#x41e;" horiz-adv-x="1667" 
d="M823 -31q-209 0 -370 82.5t-251.5 237.5t-90.5 360q0 134 38 257.5t110.5 224.5t172.5 176t230 116t276 41q209 0 371 -82.5t253 -237.5t91 -360q0 -134 -38.5 -257.5t-111.5 -224.5t-173 -176t-230.5 -116t-276.5 -41zM836 231q127 0 230.5 45.5t169.5 123t101 177
t35 209.5q0 194 -126 305t-320 111q-127 0 -231 -45.5t-169.5 -123t-101 -177t-35.5 -209.5q0 -194 126.5 -305t320.5 -111z" />
    <glyph glyph-name="uni041F" unicode="&#x41f;" horiz-adv-x="1445" 
d="M1497 1434l-278 -1434h-265l232 1188h-647l-232 -1188h-264l279 1434h1175z" />
    <glyph glyph-name="uni0420" unicode="&#x420;" horiz-adv-x="1163" 
d="M756 1434q231 0 352 -115t121 -295q0 -105 -39 -194t-113 -156.5t-190.5 -105.5t-263.5 -38h-215l-103 -530h-262l279 1434h434zM666 772q129 0 204.5 62.5t75.5 173.5q0 93 -59 138.5t-162 45.5h-188l-82 -420h211z" />
    <glyph glyph-name="uni0421" unicode="&#x421;" horiz-adv-x="1409" 
d="M807 -31q-315 0 -505.5 189t-190.5 501q0 169 60.5 317t168.5 256t267 170t347 62q304 0 521 -155l-160 -228q-181 119 -369 119q-167 0 -293.5 -72.5t-191 -193.5t-64.5 -272q0 -197 114.5 -313t307.5 -116q174 0 357 109l124 -227q-235 -146 -493 -146z" />
    <glyph glyph-name="uni0422" unicode="&#x422;" horiz-adv-x="1077" 
d="M1247 1434l-47 -242h-391l-231 -1192h-263l232 1192h-391l47 242h1044z" />
    <glyph glyph-name="uni0423" unicode="&#x423;" horiz-adv-x="1341" 
d="M1221 1434h307l-957 -1434h-307l250 373l-328 1061h287l229 -777z" />
    <glyph glyph-name="uni0424" unicode="&#x424;" horiz-adv-x="1740" 
d="M1167 1356q262 -29 408.5 -188t146.5 -412q0 -145 -49 -269.5t-140 -217t-231 -145t-313 -52.5h-71l-25 -133h-252l27 139q-260 29 -407.5 187.5t-147.5 410.5q0 145 48.5 269.5t140 217t232 145.5t314.5 54h70l26 131h250zM387 684q0 -170 87.5 -260.5t254.5 -101.5
l156 792h-60q-111 0 -196.5 -34.5t-137.5 -95t-78 -136.5t-26 -164zM1012 319q110 0 195.5 35t137 96t77.5 137.5t26 164.5q0 335 -342 360l-156 -793h62z" />
    <glyph glyph-name="uni0425" unicode="&#x425;" horiz-adv-x="1370" 
d="M1513 1434l-604 -695l359 -739h-293l-254 541l-459 -541h-342l672 772l-324 662h293l217 -463l396 463h339z" />
    <glyph glyph-name="uni0426" unicode="&#x426;" horiz-adv-x="1468" 
d="M1036 -287l56 287h-1049l279 1434h264l-232 -1188h600l232 1188h264l-231 -1188h165l-102 -533h-246z" />
    <glyph glyph-name="uni0427" unicode="&#x427;" horiz-adv-x="1239" 
d="M1028 1434h262l-278 -1434h-262l108 559h-371q-185 0 -275.5 72t-90.5 217q0 56 12 123l90 463h262l-88 -453q-4 -18 -4 -53q0 -121 156 -121h358z" />
    <glyph glyph-name="uni0428" unicode="&#x428;" horiz-adv-x="2117" 
d="M43 0l279 1434h264l-232 -1188h529l229 1188h264l-229 -1188h526l232 1188h264l-279 -1434h-1847z" />
    <glyph glyph-name="uni0429" unicode="&#x429;" horiz-adv-x="2187" 
d="M1937 246h166l-102 -533h-244l55 287h-1769l279 1434h264l-232 -1188h529l229 1188h264l-229 -1188h526l232 1188h264z" />
    <glyph glyph-name="uni042A" unicode="&#x42a;" horiz-adv-x="1511" 
d="M1012 891q101 0 183 -23.5t144.5 -71t96.5 -126.5t34 -183q0 -120 -43.5 -214t-120 -153t-177 -89.5t-218.5 -30.5h-575l231 1188h-411l47 246h674l-48 -246l-57 -297h240zM905 242q132 0 207.5 61t75.5 168q0 88 -55.5 133t-159.5 45h-248l-80 -407h260z" />
    <glyph glyph-name="uni042B" unicode="&#x42b;" horiz-adv-x="1703" 
d="M717 891q210 0 335.5 -100t125.5 -304q0 -120 -43.5 -214t-120.5 -153t-178 -89.5t-220 -30.5h-573l279 1434h262l-107 -543h240zM1491 1434h264l-278 -1434h-265zM612 242q131 0 207 61t76 168q0 88 -56 133t-159 45h-250l-78 -407h260z" />
    <glyph glyph-name="uni042C" unicode="&#x42c;" horiz-adv-x="1216" 
d="M717 891q210 0 335.5 -100t125.5 -304q0 -120 -43.5 -214t-120.5 -153t-178 -89.5t-220 -30.5h-573l279 1434h262l-107 -543h240zM612 242q131 0 207 61t76 168q0 88 -56 133t-159 45h-250l-78 -407h260z" />
    <glyph glyph-name="uni042D" unicode="&#x42d;" horiz-adv-x="1423" 
d="M735 1464q312 0 494 -171t182 -482q0 -171 -55.5 -322t-160.5 -267.5t-270.5 -184.5t-371.5 -68q-175 0 -317.5 46.5t-237.5 119.5l164 230q183 -129 407 -129q210 0 344 99t187 261h-572l47 242h553q-13 179 -120 269.5t-279 90.5q-192 0 -412 -113l-112 244
q266 135 530 135z" />
    <glyph glyph-name="uni042E" unicode="&#x42e;" horiz-adv-x="2142" 
d="M1415 1464q209 0 370.5 -82.5t252 -237.5t90.5 -360q0 -134 -38.5 -257.5t-111.5 -224.5t-173 -176t-230.5 -116t-276.5 -41q-202 0 -359.5 77t-249.5 222t-101 338h-166l-117 -606h-262l279 1434h262l-113 -582h137q65 270 282.5 441t524.5 171zM1313 231
q127 0 230 45.5t169 123t101.5 177t35.5 209.5q0 129 -60.5 225t-161 143.5t-226.5 47.5q-127 0 -230 -45.5t-168.5 -123t-101 -177t-35.5 -209.5q0 -194 126.5 -305t320.5 -111z" />
    <glyph glyph-name="uni042F" unicode="&#x42f;" horiz-adv-x="1251" 
d="M770 1434h533l-279 -1434h-262l110 569h-100l-510 -569h-328l543 596q-127 39 -193.5 135.5t-66.5 231.5q0 97 34 181t100.5 149.5t174 103t244.5 37.5zM920 803l75 389h-221q-75 0 -130 -19t-85 -51.5t-43.5 -68.5t-13.5 -76q0 -83 55.5 -128.5t153.5 -45.5h209z" />
    <glyph glyph-name="uni0430" unicode="&#x430;" horiz-adv-x="1208" 
d="M467 -31q-185 0 -298.5 125t-113.5 330q0 241 143.5 397t364.5 156q121 0 210 -51.5t132 -145.5h6l31 166h252l-184 -946h-250l24 129h-4q-127 -160 -313 -160zM569 203q125 0 207 84t82 213q0 110 -67.5 176.5t-180.5 66.5q-125 0 -206.5 -85.5t-81.5 -215.5
q0 -109 66.5 -174t180.5 -65z" />
    <glyph glyph-name="uni0431" unicode="&#x431;" horiz-adv-x="1212" 
d="M586 -31q-240 0 -371 141t-131 400q0 284 107.5 483.5t297.5 266.5q34 13 77 24.5t95 22t82.5 16t86.5 14t59 9.5q51 11 78.5 35.5t36.5 68.5h256q-23 -123 -83 -193.5t-163 -93.5q-29 -7 -195.5 -36t-228.5 -52q-217 -74 -248 -344h6q56 109 156.5 168t230.5 59
q189 0 305.5 -119t116.5 -311q0 -247 -159.5 -403t-411.5 -156zM600 207q132 0 212.5 83.5t80.5 221.5q0 106 -64 166.5t-176 60.5q-132 0 -218.5 -85.5t-86.5 -217.5q0 -106 67.5 -167.5t184.5 -61.5z" />
    <glyph glyph-name="uni0432" unicode="&#x432;" horiz-adv-x="1064" 
d="M793 496q174 -25 174 -195q0 -95 -53 -165t-134.5 -103t-179.5 -33h-582l185 946h522q287 0 287 -215q0 -86 -54 -148.5t-165 -84.5v-2zM614 569q60 0 95.5 27t35.5 72q0 84 -108 84h-221l-35 -183h233zM567 195q68 0 107 30.5t39 85.5q0 92 -125 92h-240l-41 -208h260z
" />
    <glyph glyph-name="uni0433" unicode="&#x433;" horiz-adv-x="765" 
d="M846 946l-43 -225h-393l-142 -721h-250l185 946h643z" />
    <glyph glyph-name="uni0434" unicode="&#x434;" horiz-adv-x="1159" 
d="M934 197h145l-90 -463h-231l45 239h-658l-47 -239h-231l90 463h125q67 69 99 138.5t50 170.5l86 440h256h404h100zM487 496q-20 -99 -48 -166t-83 -133h330l100 536h-254z" />
    <glyph glyph-name="uni0435" unicode="&#x435;" horiz-adv-x="1091" 
d="M1047 584q0 -59 -21 -164h-727q9 -227 242 -227q170 0 317 118l107 -192q-198 -148 -433 -148q-220 0 -348.5 120t-128.5 329q0 112 37.5 212.5t106.5 177.5t175.5 122t235.5 45q203 0 320 -103.5t117 -289.5zM799 586q0 3 1 10.5t1 11.5q0 83 -53.5 128.5t-147.5 45.5
q-100 0 -174 -52t-107 -144h480z" />
    <glyph glyph-name="uni0436" unicode="&#x436;" horiz-adv-x="1601" 
d="M1659 946l-475 -459l315 -487h-299l-274 459l-90 -459h-240l88 457l-432 -457h-334l528 530l-286 416h299l243 -397l78 397h240l-76 -395l379 395h336z" />
    <glyph glyph-name="uni0437" unicode="&#x437;" horiz-adv-x="954" 
d="M399 -31q-259 0 -448 92l100 191q172 -76 363 -76q211 0 211 117q0 56 -34.5 79t-121.5 23h-213l37 189h217q75 0 108 25.5t33 74.5q0 86 -151 86q-143 0 -326 -43l-59 197q210 53 395 53q195 0 297 -62.5t102 -185.5q0 -90 -68 -151t-186 -76l-2 -4q101 -10 154 -64.5
t53 -146.5q0 -142 -116.5 -230t-344.5 -88z" />
    <glyph glyph-name="uni0438" unicode="&#x438;" horiz-adv-x="1138" 
d="M18 0l185 946h250l-113 -571h4l551 571h227l-184 -946h-252l113 571h-4l-551 -571h-226z" />
    <glyph glyph-name="uni0439" unicode="&#x439;" horiz-adv-x="1138" 
d="M1016 1319q-25 -142 -116 -226.5t-234 -84.5q-120 0 -194.5 62t-74.5 169q0 19 11 80h149q-6 -18 -6 -41q0 -54 30.5 -85.5t92.5 -31.5q79 0 117.5 42.5t56.5 115.5h168zM18 0l185 946h250l-113 -571h4l551 571h227l-184 -946h-252l113 571h-4l-551 -571h-226z" />
    <glyph glyph-name="uni043A" unicode="&#x43a;" horiz-adv-x="1048" 
d="M1083 946l-471 -452l334 -494h-311l-277 451l-88 -451h-252l185 946h250l-74 -387l371 387h333z" />
    <glyph glyph-name="uni043B" unicode="&#x43b;" horiz-adv-x="1128" 
d="M1110 946l-184 -946h-250l141 719h-338l-82 -430q-30 -148 -117.5 -222.5t-222.5 -74.5h-116l43 235h63q45 0 70 24t35 79l120 616h838z" />
    <glyph glyph-name="uni043C" unicode="&#x43c;" horiz-adv-x="1392" 
d="M-66 0l461 946h201l100 -461h4l281 461h201l92 -946h-236l-41 580h-4l-266 -443h-166l-96 443h-4l-262 -580h-265z" />
    <glyph glyph-name="uni043D" unicode="&#x43d;" horiz-adv-x="1138" 
d="M868 946h252l-184 -946h-252l76 385h-416l-76 -385h-250l185 946h250l-66 -338h416z" />
    <glyph glyph-name="uni043E" unicode="&#x43e;" horiz-adv-x="1157" 
d="M535 -31q-217 0 -349.5 119.5t-132.5 331.5q0 240 159.5 398.5t410.5 158.5q217 0 349 -119t132 -332q0 -240 -159 -398.5t-410 -158.5zM553 207q132 0 212.5 87.5t80.5 215.5q0 111 -66.5 170t-175.5 59q-132 0 -212.5 -87.5t-80.5 -215.5q0 -111 66.5 -170t175.5 -59z
" />
    <glyph glyph-name="uni043F" unicode="&#x43f;" horiz-adv-x="1153" 
d="M1137 946l-185 -946h-252l140 719h-430l-142 -719h-250l185 946h250h684z" />
    <glyph glyph-name="uni0440" unicode="&#x440;" horiz-adv-x="1212" 
d="M-61 -412l264 1358h252l-25 -121h6q126 152 318 152q173 0 288 -118.5t115 -330.5q0 -240 -144 -399.5t-370 -159.5q-121 0 -207 50.5t-129 144.5h-6l-111 -576h-251zM596 203q129 0 212 88.5t83 216.5q0 112 -66 173.5t-174 61.5q-129 0 -212 -88.5t-83 -216.5
q0 -112 66 -173.5t174 -61.5z" />
    <glyph glyph-name="uni0441" unicode="&#x441;" horiz-adv-x="976" 
d="M553 -31q-218 0 -356 127.5t-138 347.5q0 234 152 383.5t412 149.5q209 0 385 -117l-136 -205q-129 88 -260 88t-210.5 -80.5t-79.5 -205.5q0 -114 69 -184t180 -70q101 0 213 59l90 -211q-151 -82 -321 -82z" />
    <glyph glyph-name="uni0442" unicode="&#x442;" horiz-adv-x="905" 
d="M985 946l-43 -227h-315l-142 -719h-249l139 719h-316l43 227h883z" />
    <glyph glyph-name="uni0443" unicode="&#x443;" horiz-adv-x="1038" 
d="M842 946h278l-831 -1358h-269l324 518l-242 840h271l133 -571z" />
    <glyph glyph-name="uni0444" unicode="&#x444;" horiz-adv-x="1755" 
d="M586 -410l106 543h-4q-117 -164 -291 -164q-141 0 -237.5 110.5t-96.5 319.5q0 154 53 284t160.5 212t249.5 82q113 0 186.5 -49.5t102.5 -132.5h4l117 587h242l-113 -569h4q114 164 291 164q67 0 126 -25.5t106 -75.5t74.5 -133.5t27.5 -191.5q0 -113 -31 -217
t-88.5 -186t-146.5 -130.5t-197 -48.5q-114 0 -187.5 50t-103.5 133h-4l-109 -562h-241zM1182 195q64 0 113.5 29.5t78 78.5t42.5 105t14 116q0 121 -52.5 174.5t-132.5 53.5q-82 0 -144 -48.5t-91 -121t-29 -156.5q0 -113 55 -172t146 -59zM514 195q81 0 142.5 48t90.5 121
t29 156q0 113 -55 171.5t-146 58.5q-63 0 -112.5 -29.5t-77.5 -78t-42.5 -104.5t-14.5 -116q0 -121 52.5 -174t133.5 -53z" />
    <glyph glyph-name="uni0445" unicode="&#x445;" horiz-adv-x="1046" 
d="M1106 946l-428 -459l266 -487h-266l-168 307l-287 -307h-305l479 512l-239 434h268l137 -254l238 254h305z" />
    <glyph glyph-name="uni0446" unicode="&#x446;" horiz-adv-x="1187" 
d="M1118 946l-139 -719h135l-96 -493h-232l52 266h-570h-250l185 946h250l-140 -719h414l139 719h252z" />
    <glyph glyph-name="uni0447" unicode="&#x447;" horiz-adv-x="983" 
d="M715 946h252l-185 -946h-252l64 334h-258q-146 0 -216.5 53.5t-70.5 177.5q0 58 10 109l54 272h254l-50 -248q-6 -38 -6 -63q0 -46 25 -63t90 -17h213z" />
    <glyph glyph-name="uni0448" unicode="&#x448;" horiz-adv-x="1677" 
d="M1409 946h252l-184 -946h-252h-604h-515h-88l185 946h250l-140 -719h353l139 719h252l-139 -719h350z" />
    <glyph glyph-name="uni0449" unicode="&#x449;" horiz-adv-x="1730" 
d="M1661 946l-141 -719h135l-94 -493h-234l51 266h-506h-604h-250l185 946h250l-140 -719h353l139 719h252l-139 -719h350l141 719h252z" />
    <glyph glyph-name="uni044A" unicode="&#x44a;" horiz-adv-x="1191" 
d="M797 645q95 0 168.5 -27.5t121.5 -94t48 -165.5q0 -160 -111 -259t-303 -99h-481l139 719h-320l43 227h562h12l-60 -301h181zM717 213q72 0 108.5 34t36.5 89q0 96 -129 96h-158l-43 -219h185z" />
    <glyph glyph-name="uni044B" unicode="&#x44b;" horiz-adv-x="1411" 
d="M575 645q95 0 168.5 -27.5t121.5 -94t48 -165.5q0 -160 -110.5 -259t-302.5 -99h-482l185 946h250l-58 -301h180zM1141 946h252l-185 -946h-252zM496 213q72 0 108.5 34t36.5 89q0 96 -129 96h-160l-43 -219h187z" />
    <glyph glyph-name="uni044C" unicode="&#x44c;" horiz-adv-x="970" 
d="M575 645q95 0 168.5 -27.5t121.5 -94t48 -165.5q0 -160 -110.5 -259t-302.5 -99h-482l185 946h250l-58 -301h180zM496 213q72 0 108.5 34t36.5 89q0 96 -129 96h-160l-43 -219h187z" />
    <glyph glyph-name="uni044D" unicode="&#x44d;" horiz-adv-x="972" 
d="M440 977q218 0 342.5 -119t124.5 -336q0 -116 -37 -215.5t-106.5 -175t-179 -119t-246.5 -43.5q-197 0 -358 88l112 199q126 -61 248 -61q116 0 191.5 51.5t103.5 142.5h-338l33 176h319q-27 185 -231 185q-114 0 -234 -43l-75 211q169 59 331 59z" />
    <glyph glyph-name="uni044E" unicode="&#x44e;" horiz-adv-x="1581" 
d="M1047 977q217 0 349 -119t132 -332q0 -240 -159.5 -398.5t-410.5 -158.5q-203 0 -332.5 105.5t-146.5 294.5h-139l-72 -369h-250l185 946h250l-72 -366h117q48 180 195.5 288.5t353.5 108.5zM977 207q132 0 212.5 87.5t80.5 215.5q0 111 -66.5 170t-175.5 59
q-132 0 -212.5 -87.5t-80.5 -215.5q0 -111 66.5 -170t175.5 -59z" />
    <glyph glyph-name="uni044F" unicode="&#x44f;" horiz-adv-x="1044" 
d="M489 946h539l-184 -946h-252l63 324h-94l-321 -324h-312l353 344q-96 30 -148.5 99t-52.5 171q0 141 106 236.5t303 95.5zM487 516h205l43 225h-205q-85 0 -128.5 -33t-43.5 -90q0 -53 32 -77.5t97 -24.5z" />
    <glyph glyph-name="uni0451" unicode="&#x451;" horiz-adv-x="1091" 
d="M649 1319l-51 -260h-207l51 260h207zM1001 1319l-49 -260h-209l52 260h206zM1047 584q0 -59 -21 -164h-727q9 -227 242 -227q170 0 317 118l107 -192q-198 -148 -433 -148q-220 0 -348.5 120t-128.5 329q0 112 37.5 212.5t106.5 177.5t175.5 122t235.5 45
q203 0 320 -103.5t117 -289.5zM799 586q0 3 1 10.5t1 11.5q0 83 -53.5 128.5t-147.5 45.5q-100 0 -174 -52t-107 -144h480z" />
    <glyph glyph-name="uni0452" unicode="&#x452;" horiz-adv-x="1136" 
d="M760 977q135 0 218 -76t83 -235q0 -56 -17 -150l-100 -516l-22 -115q-59 -299 -369 -299h-117l43 228h74q56 0 84.5 23.5t40.5 84.5l14 78l99 502q8 39 8 78q0 82 -43 125t-119 43q-102 0 -172 -69.5t-98 -215.5l-91 -463h-251l221 1139h-133l28 149h133l29 146h252
l-29 -146h305l-28 -149h-305l-64 -328h4q128 166 322 166z" />
    <glyph glyph-name="uni0453" unicode="&#x453;" horiz-adv-x="765" 
d="M1008 1346l-375 -316h-197l275 316h297zM846 946l-43 -225h-393l-142 -721h-250l185 946h643z" />
    <glyph glyph-name="uni0454" unicode="&#x454;" horiz-adv-x="987" 
d="M582 756q-109 0 -181.5 -51t-103.5 -134h365l-35 -176h-344q19 -96 89 -150.5t169 -54.5q103 0 221 62l82 -201q-152 -82 -322 -82q-218 0 -355.5 127.5t-137.5 347.5q0 150 63 269t192.5 191.5t307.5 72.5q209 0 385 -117l-125 -192q-135 88 -270 88z" />
    <glyph glyph-name="uni0455" unicode="&#x455;" horiz-adv-x="833" 
d="M88 311q173 -127 305 -127q47 0 74 18.5t27 49.5q0 44 -70 88l-131 82q-85 54 -126.5 119t-41.5 151q0 130 89.5 207.5t244.5 77.5q187 0 375 -107l-107 -192q-139 86 -254 86q-92 0 -92 -66q0 -24 18.5 -45t63.5 -49l121 -74q89 -53 129.5 -114t40.5 -152
q0 -142 -94.5 -218.5t-264.5 -76.5q-244 0 -436 156z" />
    <glyph glyph-name="uni0456" unicode="&#x456;" horiz-adv-x="483" 
d="M567 1421l-53 -276h-287l54 276h286zM23 0l184 946h252l-185 -946h-251z" />
    <glyph glyph-name="uni0457" unicode="&#x457;" horiz-adv-x="483" 
d="M375 1319l-51 -260h-213l51 260h213zM651 1319l-51 -260h-213l51 260h213zM23 0l184 946h252l-185 -946h-251z" />
    <glyph glyph-name="uni0458" unicode="&#x458;" horiz-adv-x="477" 
d="M567 1421l-53 -276h-287l54 276h286zM-184 -184h61q59 0 90.5 28.5t42.5 87.5l197 1014h254l-205 -1048q-31 -163 -129.5 -238.5t-259.5 -75.5h-96z" />
    <glyph glyph-name="uni0459" unicode="&#x459;" horiz-adv-x="1624" 
d="M1229 645q69 0 128 -16t106.5 -49.5t74.5 -90t27 -131.5q0 -160 -111 -259t-301 -99h-483l139 719h-330l-82 -430q-30 -148 -117.5 -222.5t-222.5 -74.5h-116l43 235h63q45 0 70 24t35 79l120 616h252h418h164l-59 -301h182zM1149 213q72 0 108.5 34t36.5 89
q0 96 -131 96h-157l-43 -219h186z" />
    <glyph glyph-name="uni045A" unicode="&#x45a;" horiz-adv-x="1648" 
d="M1249 637q71 0 130.5 -16t107.5 -48.5t75 -88.5t27 -130q0 -157 -111 -255.5t-298 -98.5h-496l82 422h-414l-84 -422h-250l185 946h250l-60 -309h416l59 309h252l-59 -309h188zM1171 213q72 0 110 32.5t38 86.5q0 53 -35 72.5t-98 19.5h-168l-41 -211h194z" />
    <glyph glyph-name="uni045B" unicode="&#x45b;" horiz-adv-x="1136" 
d="M760 977q135 0 218 -76t83 -235q0 -56 -17 -150l-100 -516h-252l99 502q8 39 8 78q0 82 -43 125t-119 43q-102 0 -172 -69.5t-98 -215.5l-91 -463h-251l221 1139h-133l28 149h133l29 146h252l-29 -146h305l-28 -149h-305l-64 -328h4q128 166 322 166z" />
    <glyph glyph-name="uni045C" unicode="&#x45c;" horiz-adv-x="1048" 
d="M1092 1346l-375 -316h-197l275 316h297zM750 946h333l-471 -452l334 -494h-311l-277 451l-88 -451h-252l185 946h250l-74 -387z" />
    <glyph glyph-name="uni045E" unicode="&#x45e;" horiz-adv-x="1038" 
d="M618 1008q-120 0 -194 62t-74 169q0 25 10 80h150q-6 -18 -6 -41q0 -54 30.5 -85.5t92.5 -31.5q79 0 117.5 42.5t56.5 115.5h168q-25 -142 -116.5 -226.5t-234.5 -84.5zM842 946h278l-831 -1358h-269l324 518l-242 840h271l133 -571z" />
    <glyph glyph-name="uni045F" unicode="&#x45f;" horiz-adv-x="1116" 
d="M846 946h252l-185 -946h-335l-52 -266h-223l51 266h-336l185 946h250l-142 -723h394z" />
    <glyph glyph-name="uni0462" unicode="&#x462;" horiz-adv-x="1314" 
d="M815 891q101 0 183.5 -23.5t145 -71t96.5 -126.5t34 -183q0 -120 -43.5 -214t-120 -153t-177 -89.5t-218.5 -30.5h-576l205 1053h-215l41 213h215l33 168h262l-33 -168h440l-40 -213h-441l-31 -162h240zM709 242q132 0 207 61t75 168q0 88 -55.5 133t-159.5 45h-248
l-79 -407h260z" />
    <glyph glyph-name="uni0463" unicode="&#x463;" horiz-adv-x="1017" 
d="M623 645q95 0 168.5 -27.5t121.5 -94t48 -165.5q0 -160 -111 -259t-303 -99h-481l153 786h-174l29 160h176l94 488h250l-94 -488h303l-31 -160h-303l-29 -141h183zM543 213q72 0 108.5 34t36.5 89q0 96 -129 96h-160l-43 -219h187z" />
    <glyph glyph-name="uni0472" unicode="&#x472;" horiz-adv-x="1667" 
d="M938 1464q209 0 371 -82.5t253 -237.5t91 -360q0 -134 -38.5 -257.5t-111.5 -224.5t-173 -176t-230.5 -116t-276.5 -41q-209 0 -370 82.5t-251.5 237.5t-90.5 360q0 134 38 257.5t110.5 224.5t172.5 176t230 116t276 41zM926 1202q-106 0 -196 -32t-154.5 -89
t-107.5 -131.5t-62 -161.5h966q-1 129 -61 224.5t-160 142.5t-225 47zM836 231q209 0 345.5 116.5t176.5 297.5h-969q1 -129 61.5 -224.5t160 -142.5t225.5 -47z" />
    <glyph glyph-name="uni0473" unicode="&#x473;" horiz-adv-x="1157" 
d="M623 977q213 0 347 -117.5t134 -333.5q0 -154 -69 -280t-200 -201.5t-300 -75.5q-139 0 -246.5 50t-171.5 153.5t-64 247.5q0 154 69.5 280t200.5 201.5t300 75.5zM604 748q-117 0 -192.5 -59.5t-104.5 -151.5h557q-9 104 -81 157.5t-179 53.5zM553 199q120 0 195 60.5
t104 154.5h-559q7 -105 80 -160t180 -55z" />
    <glyph glyph-name="uni0474" unicode="&#x474;" horiz-adv-x="1415" 
d="M1286 1055l-588 -1055h-262l-243 1434h286l135 -1069h4l367 700q30 56 50.5 93.5t46.5 80t48 69t50 54.5t56.5 44t64 29.5t75.5 19t88 5.5q55 0 133 -10l-49 -242q-31 2 -78 2q-55 0 -95 -33t-89 -122z" />
    <glyph glyph-name="uni0475" unicode="&#x475;" horiz-adv-x="1036" 
d="M1102 965h20l-47 -238h-16q-43 0 -72.5 -21t-56.5 -67l-381 -639h-246l-201 946h258l101 -657l258 477q64 114 151 156.5t232 42.5z" />
    <glyph glyph-name="uni048E" unicode="&#x48e;" horiz-adv-x="1163" 
d="M1229 1024q0 -136 -64.5 -245t-187.5 -173l110 -160l-88 -63l-127 180q-122 -33 -249 -33h-215l-103 -530h-262l279 1434h434q231 0 352 -115t121 -295zM723 776l-109 154l88 63l132 -184q112 62 112 199q0 93 -59 138.5t-162 45.5h-188l-82 -420h211q21 0 57 4z" />
    <glyph glyph-name="uni048F" unicode="&#x48f;" horiz-adv-x="1212" 
d="M1157 528q0 -151 -59 -274t-164 -197l96 -129l-84 -65l-106 143q-87 -37 -197 -37q-121 0 -207 50.5t-129 144.5h-6l-111 -576h-251l264 1358h252l-25 -121h6q126 152 318 152q173 0 288 -118.5t115 -330.5zM596 203q44 0 88 12l-96 127l84 66l106 -144q54 41 83.5 105.5
t29.5 138.5q0 112 -66 173.5t-174 61.5q-129 0 -212 -88.5t-83 -216.5q0 -112 66 -173.5t174 -61.5z" />
    <glyph glyph-name="uni0490" unicode="&#x490;" horiz-adv-x="1019" 
d="M43 0l279 1434h606l55 286h262l-102 -534h-608l-230 -1186h-262z" />
    <glyph glyph-name="uni0491" unicode="&#x491;" horiz-adv-x="804" 
d="M692 1233h250l-98 -512h-434l-142 -721h-250l185 946h434z" />
    <glyph glyph-name="uni0492" unicode="&#x492;" horiz-adv-x="1075" 
d="M1196 1186h-578l-69 -367h379l-47 -231h-377l-115 -588h-262l115 588h-203l47 231h201l69 367l50 248h839z" />
    <glyph glyph-name="uni0493" unicode="&#x493;" horiz-adv-x="819" 
d="M858 721h-393l-37 -184h268l-39 -203h-268l-65 -334h-252l65 334h-137l39 203h137l80 409h645z" />
    <glyph glyph-name="uni0494" unicode="&#x494;" horiz-adv-x="1259" 
d="M836 827q387 0 387 -288q0 -74 -17 -160l-76 -387q-40 -205 -150.5 -303.5t-274.5 -98.5h-199l47 246h125q76 0 124.5 41.5t67.5 142.5l68 340q10 58 10 91q0 73 -49.5 101t-153.5 28q-133 0 -331 -19l-109 -561h-262l279 1434h839l-49 -248h-577l-74 -377q232 18 375 18
z" />
    <glyph glyph-name="uni0495" unicode="&#x495;" horiz-adv-x="1026" 
d="M631 520q150 0 228.5 -57t78.5 -182q0 -50 -14 -125l-45 -230q-32 -166 -132.5 -251t-259.5 -85h-163l45 232h100q69 0 110.5 35.5t55.5 115.5l27 142q14 54 14 100t-32.5 67t-106.5 21q-73 0 -211 -16l-58 -287h-250l185 946h727l-45 -231h-475l-43 -211q144 16 264 16z
" />
    <glyph glyph-name="uni0496" unicode="&#x496;" horiz-adv-x="2195" 
d="M1565 733l370 -551h195l-92 -469h-244l57 287h-133l-450 719l-140 -719h-254l142 721l-717 -721h-385l817 784l-401 650h329l367 -656l127 656h254l-129 -658l618 658h365z" />
    <glyph glyph-name="uni0497" unicode="&#x497;" horiz-adv-x="1677" 
d="M1184 487l227 -350h174l-78 -403h-223l51 266h-135l-274 459l-90 -459h-240l88 457l-432 -457h-334l528 530l-286 416h299l243 -397l78 397h240l-76 -395l379 395h336z" />
    <glyph glyph-name="uni0498" unicode="&#x498;" horiz-adv-x="1181" 
d="M803 760q135 -22 211 -112t76 -238q0 -205 -141 -321.5t-406 -119.5l-27 -43q73 -22 112.5 -52t39.5 -85q0 -32 -19 -61t-48 -50t-76.5 -42.5t-89 -36t-101.5 -33.5l-29 69q48 21 71 31.5t51 26.5t39 29.5t11 29.5q0 24 -26.5 39.5t-83.5 30.5l88 149q-261 17 -465 144
l141 229q202 -121 406 -121q134 0 213 49.5t79 151.5q0 201 -350 201h-108l45 241h104q171 0 272 53t101 148q0 75 -59 110t-162 35q-181 0 -371 -86l-92 230q267 108 487 108q226 0 350.5 -92t124.5 -258q0 -138 -91 -227.5t-277 -122.5v-4z" />
    <glyph glyph-name="uni0499" unicode="&#x499;" horiz-adv-x="954" 
d="M653 498q101 -10 154 -64.5t53 -146.5q0 -138 -110 -225t-326 -93l-27 -43q73 -22 112.5 -52t39.5 -85q0 -32 -19 -61t-48 -50t-76.5 -42.5t-89 -36t-101.5 -33.5l-29 69q48 21 71 31.5t51 26.5t39 29.5t11 29.5q0 24 -26.5 39.5t-83.5 30.5l88 149q-227 9 -385 90
l100 191q172 -76 363 -76q211 0 211 117q0 56 -34.5 79t-121.5 23h-213l37 189h217q75 0 108 25.5t33 74.5q0 86 -151 86q-143 0 -326 -43l-59 197q210 53 395 53q195 0 297 -62.5t102 -185.5q0 -90 -68 -151t-186 -76z" />
    <glyph glyph-name="uni049A" unicode="&#x49a;" horiz-adv-x="1427" 
d="M721 735l420 -553h221l-92 -469h-244l57 287h-149l-492 705l-137 -705h-262l279 1434h262l-125 -639l651 639h371z" />
    <glyph glyph-name="uni049B" unicode="&#x49b;" horiz-adv-x="1097" 
d="M612 494l240 -357h154l-78 -403h-223l51 266h-121l-277 451l-88 -451h-252l185 946h250l-74 -387l371 387h333z" />
    <glyph glyph-name="uni049C" unicode="&#x49c;" horiz-adv-x="1501" 
d="M1602 1434l-672 -697l473 -737h-344l-369 643h-51l-51 -258h-111l49 258h-96l-125 -643h-262l279 1434h262l-107 -547h98l54 282h112l-55 -282h66l483 547h367z" />
    <glyph glyph-name="uni049D" unicode="&#x49d;" horiz-adv-x="1136" 
d="M1184 946l-443 -454l293 -492h-303l-217 399h-41l-39 -198h-57l39 198h-70l-78 -399h-250l185 946h250l-66 -338h68l41 205h57l-41 -205h39l297 338h336z" />
    <glyph glyph-name="uni049E" unicode="&#x49e;" horiz-adv-x="1480" 
d="M1583 1434l-758 -699l557 -735h-344l-493 709l-137 -709h-263l222 1137h-222l35 180h221l23 117h262l-22 -117h213l-35 -180h-213l-68 -342l651 639h371z" />
    <glyph glyph-name="uni049F" unicode="&#x49f;" horiz-adv-x="1054" 
d="M1090 946l-472 -452l334 -494h-309l-278 451l-89 -451h-251l221 1139h-133l28 149h133l29 146h252l-29 -146h305l-28 -149h-305l-113 -582l373 389h332z" />
    <glyph glyph-name="uni04A0" unicode="&#x4a0;" horiz-adv-x="1669" 
d="M1774 1434l-758 -699l557 -735h-344l-494 707l-137 -707h-262l231 1188h-411l47 246h674l-5 -25l-118 -612l649 637h371z" />
    <glyph glyph-name="uni04A1" unicode="&#x4a1;" horiz-adv-x="1267" 
d="M1305 946l-474 -452l334 -494h-309l-278 449l-86 -449h-252l137 715h-320l45 231h398h174l-74 -387l371 387h334z" />
    <glyph glyph-name="uni04A2" unicode="&#x4a2;" horiz-adv-x="1490" 
d="M1524 1434l-242 -1252h143l-92 -469h-243l57 287h-164l123 629h-680l-121 -629h-262l279 1434h262l-109 -557h678l109 557h262z" />
    <glyph glyph-name="uni04A3" unicode="&#x4a3;" horiz-adv-x="1189" 
d="M1120 946l-157 -809h135l-78 -403h-223l51 266h-164l76 385h-416l-76 -385h-250l185 946h250l-66 -338h416l65 338h252z" />
    <glyph glyph-name="uni04A4" unicode="&#x4a4;" horiz-adv-x="1875" 
d="M2048 1434l-47 -244h-524l-232 -1190h-262l123 629h-680l-121 -629h-262l279 1434h262l-109 -557h678l109 557h786z" />
    <glyph glyph-name="uni04A5" unicode="&#x4a5;" horiz-adv-x="1409" 
d="M1491 946l-43 -221h-371l-141 -725h-252l76 385h-416l-76 -385h-250l185 946h250l-66 -338h416l65 338h623z" />
    <glyph glyph-name="uni04A6" unicode="&#x4a6;" horiz-adv-x="2181" 
d="M1761 877q97 0 166.5 -12t124.5 -41t82 -82t27 -132q0 -48 -13 -118l-24 -130q-35 -180 -149.5 -271t-297.5 -91h-184l47 246h107q96 0 149 35.5t72 128.5l10 41q8 40 8 73q0 59 -47.5 82t-167.5 23q-130 0 -334 -19l-118 -610h-265l232 1188h-647l-232 -1188h-264
l279 1434h1175l-111 -576q238 19 375 19z" />
    <glyph glyph-name="uni04A7" unicode="&#x4a7;" horiz-adv-x="1689" 
d="M1331 588q307 0 307 -242q0 -65 -14 -125l-63 -295q-68 -336 -392 -336h-163l45 232h100q68 0 108.5 35.5t57.5 115.5l45 207q14 58 14 101q0 46 -32.5 67t-106.5 21q-67 0 -217 -17l-68 -352h-252l140 719h-430l-142 -719h-250l185 946h250h600h84l-74 -377
q171 19 268 19z" />
    <glyph glyph-name="uni04A8" unicode="&#x4a8;" horiz-adv-x="1693" 
d="M1589 41q-179 -72 -332 -72q-162 0 -256 60q-100 -60 -253 -60q-289 0 -453 179t-164 491q0 178 58.5 330t166 261.5t267.5 171.5t354 62q153 0 307 -43l-96 -235q-85 26 -207 26q-134 0 -241 -42.5t-176.5 -119t-106.5 -181t-37 -230.5q0 -219 96.5 -336t271.5 -117
q15 0 21 2q-109 135 -109 347q0 153 57 275t166.5 193.5t252.5 71.5q173 0 276.5 -103t103.5 -290q0 -158 -74.5 -286.5t-203.5 -213.5q6 -2 20 -2q109 0 242 60zM963 532q0 -171 100 -268q107 65 171 168.5t64 226.5q0 166 -135 166q-94 0 -147 -81.5t-53 -211.5z" />
    <glyph glyph-name="uni04A9" unicode="&#x4a9;" horiz-adv-x="1224" 
d="M1081 162l43 -144q-125 -49 -223 -49q-118 0 -184 51q-87 -51 -225 -51q-204 0 -320.5 121t-116.5 332q0 176 80.5 303t217.5 189.5t315 62.5q133 0 233 -35l-76 -201q-85 23 -153 23q-164 0 -263.5 -91.5t-99.5 -254.5q0 -113 52 -180t151 -82q-49 81 -49 184
q0 152 97.5 251t260.5 99q133 0 210 -68t77 -190q0 -182 -168 -307q81 6 141 37zM809 510q-67 0 -103 -53t-36 -129q0 -97 61 -152q81 31 127.5 90t46.5 133q0 111 -96 111z" />
    <glyph glyph-name="uni04AA" unicode="&#x4aa;" horiz-adv-x="1409" 
d="M946 1200q-167 0 -293.5 -72.5t-191 -193.5t-64.5 -272q0 -197 114.5 -313t307.5 -116q174 0 357 109l124 -227q-235 -146 -493 -146h-21l-26 -43q73 -22 112 -52t39 -85q0 -32 -19 -61t-47.5 -50t-76 -42.5t-89 -36t-101.5 -33.5l-29 69q48 21 71 31.5t51 26.5t39 29.5
t11 29.5q0 24 -27 39.5t-84 30.5l90 153q-271 32 -430 216t-159 468q0 169 60.5 317t168.5 256t267 170t347 62q304 0 521 -155l-160 -228q-181 119 -369 119z" />
    <glyph glyph-name="uni04AB" unicode="&#x4ab;" horiz-adv-x="976" 
d="M874 51q-150 -79 -305 -82l-26 -43q73 -22 112 -52t39 -85q0 -32 -19 -61t-48 -50t-76.5 -42.5t-89 -36t-101.5 -33.5l-28 69q48 21 71 31.5t51 26.5t39 29.5t11 29.5q0 24 -27 39.5t-84 30.5l90 151q-190 21 -307 146t-117 325q0 234 152 383.5t412 149.5
q209 0 385 -117l-136 -205q-129 88 -260 88t-210.5 -80.5t-79.5 -205.5q0 -114 69 -184t180 -70q101 0 213 59z" />
    <glyph glyph-name="uni04AC" unicode="&#x4ac;" horiz-adv-x="1077" 
d="M1200 1192h-391l-197 -1010h144l-92 -469h-244l57 287h-162l232 1192h-391l47 242h1044z" />
    <glyph glyph-name="uni04AD" unicode="&#x4ad;" horiz-adv-x="905" 
d="M942 719h-315l-115 -582h135l-78 -403h-223l51 266h-161l139 719h-316l43 227h883z" />
    <glyph glyph-name="uni04AE" unicode="&#x4ae;" horiz-adv-x="1234" 
d="M1415 1434l-653 -887l-107 -547h-262l107 547l-307 887h286l178 -629h5l428 629h325z" />
    <glyph glyph-name="uni04AF" unicode="&#x4af;" horiz-adv-x="1036" 
d="M1118 946l-565 -940l-80 -416h-252l80 416l-199 940h263l102 -655l354 655h297z" />
    <glyph glyph-name="uni04B0" unicode="&#x4b0;" horiz-adv-x="1222" 
d="M1409 1434l-635 -865l313 2l-43 -215h-325l-70 -356h-262l70 354h-322l41 215h309l-299 865h287l178 -629h4l428 629h326z" />
    <glyph glyph-name="uni04B1" unicode="&#x4b1;" horiz-adv-x="1036" 
d="M1118 946l-549 -913h232l-35 -191h-246l-47 -252h-252l49 252h-245l34 191h236l-193 913h263l102 -655l354 655h297z" />
    <glyph glyph-name="uni04B2" unicode="&#x4b2;" horiz-adv-x="1449" 
d="M909 739l269 -557h206l-92 -469h-243l57 287h-131l-254 541l-459 -541h-342l672 772l-324 662h293l217 -463l396 463h339z" />
    <glyph glyph-name="uni04B3" unicode="&#x4b3;" horiz-adv-x="1126" 
d="M678 487l190 -350h168l-80 -403h-223l51 266h-106l-168 307l-287 -307h-305l479 512l-239 434h268l137 -254l238 254h305z" />
    <glyph glyph-name="uni04B4" unicode="&#x4b4;" horiz-adv-x="1736" 
d="M1718 1434l-231 -1188h166l-103 -533h-243l55 287h-1051l232 1188h-387l47 246h651h332l-47 -246h-332l-184 -942h600l231 1188h264z" />
    <glyph glyph-name="uni04B5" unicode="&#x4b5;" horiz-adv-x="1425" 
d="M1356 946l-139 -719h133l-95 -493h-231l51 266h-569h-252l139 715h-336l45 231h588h254l-45 -231h-254l-94 -488h414l139 719h252z" />
    <glyph glyph-name="uni04B6" unicode="&#x4b6;" horiz-adv-x="1288" 
d="M1290 1434l-241 -1252h174l-90 -469h-246l57 287h-194l108 559h-371q-185 0 -275.5 72t-90.5 217q0 56 12 123l90 463h262l-88 -453q-4 -18 -4 -53q0 -121 156 -121h358l121 627h262z" />
    <glyph glyph-name="uni04B7" unicode="&#x4b7;" horiz-adv-x="1056" 
d="M967 946l-158 -809h156l-78 -403h-223l51 266h-185l64 334h-258q-146 0 -216.5 53.5t-70.5 177.5q0 58 10 109l54 272h254l-50 -248q-6 -38 -6 -63q0 -46 25 -63t90 -17h213l76 391h252z" />
    <glyph glyph-name="uni04B8" unicode="&#x4b8;" horiz-adv-x="1239" 
d="M1028 1434h262l-278 -1434h-262l108 559h-188l-52 -258h-110l51 258h-72q-185 0 -275.5 72t-90.5 217q0 56 12 123l90 463h262l-88 -453q-4 -18 -4 -53q0 -121 156 -121h57l56 278h110l-55 -278h190z" />
    <glyph glyph-name="uni04B9" unicode="&#x4b9;" horiz-adv-x="983" 
d="M715 946h252l-185 -946h-252l64 334h-137l-31 -168h-61l30 168h-59q-146 0 -216.5 53.5t-70.5 177.5q0 58 10 109l54 272h254l-50 -248q-6 -38 -6 -63q0 -46 25 -63t90 -17h12l37 188h62l-37 -188h139z" />
    <glyph glyph-name="uni04BA" unicode="&#x4ba;" horiz-adv-x="1239" 
d="M846 874q185 0 275.5 -71.5t90.5 -216.5q0 -56 -12 -123l-90 -463h-262l88 453q4 18 4 53q0 121 -156 121h-358l-121 -627h-262l279 1434h262l-109 -560h371z" />
    <glyph glyph-name="uni04BB" unicode="&#x4bb;" horiz-adv-x="1134" 
d="M23 0l278 1434h252l-121 -623h4q128 166 322 166q135 0 218 -76t83 -235q0 -56 -17 -150l-100 -516h-252l98 502q9 44 9 78q0 82 -43 125t-119 43q-102 0 -172 -69.5t-98 -215.5l-91 -463h-251z" />
    <glyph glyph-name="uni04BC" unicode="&#x4bc;" horiz-adv-x="1929" 
d="M1933 879q0 -110 -39 -273l-20 2l-2 -2h-1137q12 -186 125.5 -280.5t304.5 -94.5q136 0 250 45.5t227 129.5l134 -222q-272 -215 -613 -215q-314 0 -509 167.5t-210 467.5h-38q-138 0 -226 65t-88 189q0 111 66 219h225q-45 -90 -45 -147q0 -88 96 -88h31q29 133 98 246
t170 197t240.5 131.5t300.5 47.5q300 0 479.5 -158t179.5 -427zM1268 1214q-198 0 -329 -102.5t-181 -269.5h901v30q0 163 -105 252.5t-286 89.5z" />
    <glyph glyph-name="uni04BD" unicode="&#x4bd;" horiz-adv-x="1308" 
d="M1264 584q0 -63 -23 -164h-727q12 -227 244 -227q167 0 317 118l107 -192q-201 -148 -434 -148q-219 0 -347.5 120.5t-128.5 328.5v2h-36q-197 0 -197 170q0 38 12 84h156q-6 -21 -6 -45q0 -47 53 -47h41q46 175 185 284t347 109q203 0 320 -103.5t117 -289.5zM1016 586
v22q0 83 -53 128.5t-148 45.5q-99 0 -171.5 -52t-106.5 -144h479z" />
    <glyph glyph-name="uni04BE" unicode="&#x4be;" horiz-adv-x="1929" 
d="M1933 879q0 -110 -39 -273l-20 2l-2 -2h-1137q12 -186 125.5 -280.5t304.5 -94.5q136 0 250 45.5t227 129.5l134 -222q-140 -111 -295 -164q-197 -162 -197 -225q0 -17 13.5 -27t35.5 -10q27 0 80 11v-156q-89 -21 -141 -21q-82 0 -132 37t-50 103q0 116 161 241
q-58 -4 -88 -4q-314 0 -509 167.5t-210 467.5h-38q-138 0 -226 65t-88 189q0 111 66 219h225q-45 -90 -45 -147q0 -88 96 -88h31q29 133 98 246t170 197t240.5 131.5t300.5 47.5q300 0 479.5 -158t179.5 -427zM1268 1214q-198 0 -329 -102.5t-181 -269.5h901v30
q0 163 -105 252.5t-286 89.5z" />
    <glyph glyph-name="uni04BF" unicode="&#x4bf;" horiz-adv-x="1308" 
d="M1264 584q0 -63 -23 -164h-727q12 -227 244 -227q167 0 317 118l107 -192q-82 -62 -181 -101q-192 -160 -192 -223q0 -17 13.5 -27t35.5 -10q27 0 80 11v-156q-86 -21 -139 -21q-84 0 -134.5 37t-50.5 103q0 115 160 239h-26q-219 0 -347.5 120.5t-128.5 328.5v2h-36
q-197 0 -197 170q0 38 12 84h156q-6 -21 -6 -45q0 -47 53 -47h41q46 175 185 284t347 109q203 0 320 -103.5t117 -289.5zM1016 586v22q0 83 -53 128.5t-148 45.5q-99 0 -171.5 -52t-106.5 -144h479z" />
    <glyph glyph-name="uni04C0" unicode="&#x4c0;" horiz-adv-x="534" 
d="M43 0l279 1434h264l-279 -1434h-264z" />
    <glyph glyph-name="uni04C1" unicode="&#x4c1;" horiz-adv-x="2154" 
d="M1298 1481q-134 0 -204 59t-70 164q0 33 6 63h164q-4 -20 -4 -45q0 -48 29.5 -75t89.5 -27q130 0 157 147h172q-31 -146 -113.5 -216t-226.5 -70zM2261 1434l-696 -701l493 -733h-340l-450 719l-140 -719h-254l142 721l-717 -721h-385l817 784l-401 650h329l367 -656
l127 656h254l-129 -658l618 658h365z" />
    <glyph glyph-name="uni04C2" unicode="&#x4c2;" horiz-adv-x="1601" 
d="M915 1008q-120 0 -194 62t-74 169q0 25 10 80h150q-6 -18 -6 -41q0 -54 30.5 -85.5t92.5 -31.5q79 0 117.5 42.5t56.5 115.5h168q-25 -142 -116.5 -226.5t-234.5 -84.5zM1659 946l-475 -459l315 -487h-299l-274 459l-90 -459h-240l88 457l-432 -457h-334l528 530
l-286 416h299l243 -397l78 397h240l-76 -395l379 395h336z" />
    <glyph glyph-name="uni04C3" unicode="&#x4c3;" horiz-adv-x="1304" 
d="M877 788q179 0 268.5 -63.5t89.5 -210.5q0 -70 -18 -162l-70 -360q-76 -402 -424 -402h-199l47 246h125q76 0 125 41.5t68 142.5l61 310q11 60 11 88q0 79 -45 110t-148 31q-143 0 -358 -20l-105 -539h-262l279 1434h262l-123 -629l624 629h359l-705 -652q71 6 138 6z
" />
    <glyph glyph-name="uni04C4" unicode="&#x4c4;" horiz-adv-x="1026" 
d="M659 522q147 0 218 -56t71 -171q0 -55 -12 -119l-49 -250q-32 -168 -135 -252t-265 -84h-153l43 232h110q70 0 110.5 35t57.5 116l37 193q8 33 8 65q0 58 -33.5 81.5t-109.5 23.5q-87 0 -225 -12l-64 -324h-250l185 946h250l-72 -368l383 368h319l-489 -426q13 0 35 1
t30 1z" />
    <glyph glyph-name="uni04C5" unicode="&#x4c5;" horiz-adv-x="1521" 
d="M1559 1434l-248 -1272h166l-267 -428h-202l155 266h-145l229 1186h-600l-170 -887q-32 -158 -129.5 -232.5t-263.5 -74.5h-139l45 250h96q57 0 91 27.5t48 95.5l209 1069h262h863z" />
    <glyph glyph-name="uni04C6" unicode="&#x4c6;" horiz-adv-x="1181" 
d="M958 162h175l-267 -428h-202l155 266h-143l141 719h-338l-82 -430q-30 -148 -117.5 -222.5t-222.5 -74.5h-116l43 235h63q45 0 70 24t35 79l120 616h252h586z" />
    <glyph glyph-name="uni04C7" unicode="&#x4c7;" horiz-adv-x="1476" 
d="M1262 1434h266l-295 -1514q-61 -333 -365 -330l-182 2l49 246h113q57 0 85 23t40 80l133 692h-676l-123 -633h-264l279 1434h264l-109 -555h678z" />
    <glyph glyph-name="uni04C8" unicode="&#x4c8;" horiz-adv-x="1138" 
d="M868 946h252l-184 -946l-23 -115q-59 -299 -368 -299h-117l43 228h74q56 0 84.5 23.5t40.5 84.5l14 78l76 385h-416l-76 -385h-250l185 946h250l-66 -338h416z" />
    <glyph glyph-name="uni04C9" unicode="&#x4c9;" horiz-adv-x="1497" 
d="M1524 1434l-246 -1272h174l-266 -428h-203l156 266h-156l123 629h-680l-121 -629h-262l279 1434h262l-109 -557h678l109 557h262z" />
    <glyph glyph-name="uni04CA" unicode="&#x4ca;" horiz-adv-x="1189" 
d="M969 162h172l-267 -428h-202l155 266h-143l76 385h-416l-76 -385h-250l185 946h250l-66 -338h416l65 338h252z" />
    <glyph glyph-name="uni04CB" unicode="&#x4cb;" horiz-adv-x="1239" 
d="M1290 1434l-278 -1434h-178l-58 -287h-244l93 469h161l72 377h-371q-185 0 -275.5 72t-90.5 217q0 56 12 123l90 463h262l-88 -453q-4 -18 -4 -53q0 -121 156 -121h358l121 627h262z" />
    <glyph glyph-name="uni04CC" unicode="&#x4cc;" horiz-adv-x="983" 
d="M967 946l-185 -946h-180l-53 -266h-223l77 403h154l37 197h-258q-146 0 -216.5 53.5t-70.5 177.5q0 58 10 109l54 272h254l-50 -248q-6 -38 -6 -63q0 -46 25 -63t90 -17h213l76 391h252z" />
    <glyph glyph-name="uni04CD" unicode="&#x4cd;" horiz-adv-x="1916" 
d="M1702 162h170l-266 -428h-203l156 266h-105l-57 942h-4l-437 -727h-196l-174 721h-4l-375 -936h-293l606 1434h211l180 -832h4l486 832h211z" />
    <glyph glyph-name="uni04CE" unicode="&#x4ce;" horiz-adv-x="1488" 
d="M1257 162h183l-266 -428h-203l155 266h-88l-41 580h-4l-266 -443h-166l-96 443h-4l-262 -580h-265l461 946h201l100 -461h4l281 461h201z" />
    <glyph glyph-name="uni04CF" unicode="&#x4cf;" horiz-adv-x="483" 
d="M23 0l184 946h252l-185 -946h-251z" />
    <glyph glyph-name="uni04D0" unicode="&#x4d0;" horiz-adv-x="1427" 
d="M915 1481q-134 0 -204 59t-70 164q0 33 6 63h164q-4 -20 -4 -45q0 -48 29.5 -75t89.5 -27q130 0 157 147h172q-31 -146 -113.5 -216t-226.5 -70zM1057 0l-58 328h-598l-182 -328h-305l846 1434h274l295 -1434h-272zM530 559h426l-102 576z" />
    <glyph glyph-name="uni04D1" unicode="&#x4d1;" horiz-adv-x="1208" 
d="M1034 1319q-25 -142 -116 -226.5t-234 -84.5q-120 0 -194 62t-74 169q0 25 10 80h149q-6 -18 -6 -41q0 -54 30.5 -85.5t92.5 -31.5q79 0 117.5 42.5t56.5 115.5h168zM467 -31q-185 0 -298.5 125t-113.5 330q0 241 143.5 397t364.5 156q121 0 210 -51.5t132 -145.5h6
l31 166h252l-184 -946h-250l24 129h-4q-127 -160 -313 -160zM569 203q125 0 207 84t82 213q0 110 -67.5 176.5t-180.5 66.5q-125 0 -206.5 -85.5t-81.5 -215.5q0 -109 66.5 -174t180.5 -65z" />
    <glyph glyph-name="uni04D2" unicode="&#x4d2;" horiz-adv-x="1427" 
d="M860 1745l-43 -223h-244l43 223h244zM1284 1745l-41 -223h-244l43 223h242zM1057 0l-58 328h-598l-182 -328h-305l846 1434h274l295 -1434h-272zM530 559h426l-102 576z" />
    <glyph glyph-name="uni04D3" unicode="&#x4d3;" horiz-adv-x="1208" 
d="M670 1319l-52 -260h-206l51 260h207zM1022 1319l-49 -260h-209l51 260h207zM467 -31q-185 0 -298.5 125t-113.5 330q0 241 143.5 397t364.5 156q121 0 210 -51.5t132 -145.5h6l31 166h252l-184 -946h-250l24 129h-4q-127 -160 -313 -160zM569 203q125 0 207 84t82 213
q0 110 -67.5 176.5t-180.5 66.5q-125 0 -206.5 -85.5t-81.5 -215.5q0 -109 66.5 -174t180.5 -65z" />
    <glyph glyph-name="uni04D4" unicode="&#x4d4;" horiz-adv-x="1984" 
d="M2036 1192h-543l-55 -291h487l-45 -242h-489l-82 -417h551l-48 -242h-657h-147l61 326h-541l-268 -326h-346l1216 1434h410h543zM723 563h393l121 625z" />
    <glyph glyph-name="uni04D5" unicode="&#x4d5;" horiz-adv-x="1699" 
d="M379 -31q-165 0 -269 82.5t-104 233.5q0 153 109 251.5t295 98.5q201 0 295 -115h4q22 83 22 127q0 57 -48 90t-140 33q-139 0 -305 -45l-39 203q201 49 366 49q83 0 144.5 -15t108.5 -55t65 -106h4q58 83 153.5 129.5t216.5 46.5q171 0 282.5 -99.5t111.5 -283.5
q0 -49 -23 -174h-700q-2 -8 -2 -31q0 -80 59 -139.5t176 -59.5q155 0 303 119l109 -176q-192 -164 -418 -164q-138 0 -236.5 57.5t-138.5 151.5h-4q-135 -209 -397 -209zM967 584h432q2 12 2 32q0 73 -46.5 114.5t-133.5 41.5q-93 0 -158.5 -50t-95.5 -138zM457 170
q98 0 157.5 45t59.5 113q0 61 -49.5 93t-130.5 32q-97 0 -156 -42t-59 -112q0 -63 48 -96t130 -33z" />
    <glyph glyph-name="uni04D6" unicode="&#x4d6;" horiz-adv-x="1073" 
d="M786 1481q-134 0 -204 59t-70 164q0 33 6 63h164q-4 -20 -4 -45q0 -48 29.5 -75t89.5 -27q130 0 157 147h172q-31 -146 -113.5 -216t-226.5 -70zM1124 1192h-587l-56 -291h535l-47 -242h-535l-82 -417h596l-47 -242h-858l279 1434h849z" />
    <glyph glyph-name="uni04D7" unicode="&#x4d7;" horiz-adv-x="1091" 
d="M664 1008q-120 0 -194.5 62t-74.5 169q0 19 11 80h149q-6 -18 -6 -41q0 -54 30.5 -85.5t92.5 -31.5q79 0 117.5 42.5t56.5 115.5h168q-25 -142 -116 -226.5t-234 -84.5zM1047 584q0 -59 -21 -164h-727q9 -227 242 -227q170 0 317 118l107 -192q-198 -148 -433 -148
q-220 0 -348.5 120t-128.5 329q0 112 37.5 212.5t106.5 177.5t175.5 122t235.5 45q203 0 320 -103.5t117 -289.5zM799 586q0 3 1 10.5t1 11.5q0 83 -53.5 128.5t-147.5 45.5q-100 0 -174 -52t-107 -144h480z" />
    <glyph glyph-name="uni04D8" unicode="&#x4d8;" horiz-adv-x="1607" 
d="M866 1464q160 0 291.5 -41t229 -122t151 -210t53.5 -296q0 -131 -32 -251.5t-99.5 -225.5t-164.5 -182.5t-233.5 -122t-299.5 -44.5q-315 0 -493.5 159t-178.5 437q0 102 41 262l25 -2v2h1144q-12 194 -124.5 284.5t-305.5 90.5q-218 0 -458 -123l-111 246
q280 139 565 139zM768 225q111 0 200.5 29t150 80.5t99.5 115.5t60 142h-905v-25q0 -166 100 -254t295 -88z" />
    <glyph glyph-name="uni04D9" unicode="&#x4d9;" horiz-adv-x="1095" 
d="M565 975q219 0 348 -120.5t129 -328.5q0 -112 -38 -212.5t-107.5 -177.5t-176 -122t-235.5 -45q-203 0 -319.5 103.5t-116.5 289.5q0 49 23 164h727q-12 228 -244 228q-167 0 -315 -119l-109 192q201 148 434 148zM498 164q99 0 171.5 52t106.5 144h-477q-2 -6 -2 -22
q0 -83 53 -128.5t148 -45.5z" />
    <glyph glyph-name="uni04DA" unicode="&#x4da;" horiz-adv-x="1607" 
d="M891 1745l-43 -223h-244l43 223h244zM1315 1745l-41 -223h-244l43 223h242zM866 1464q160 0 291.5 -41t229 -122t151 -210t53.5 -296q0 -131 -32 -251.5t-99.5 -225.5t-164.5 -182.5t-233.5 -122t-299.5 -44.5q-315 0 -493.5 159t-178.5 437q0 102 41 262l25 -2v2h1144
q-12 194 -124.5 284.5t-305.5 90.5q-218 0 -458 -123l-111 246q280 139 565 139zM768 225q111 0 200.5 29t150 80.5t99.5 115.5t60 142h-905v-25q0 -166 100 -254t295 -88z" />
    <glyph glyph-name="uni04DB" unicode="&#x4db;" horiz-adv-x="1095" 
d="M616 1319l-51 -260h-207l52 260h206zM969 1319l-49 -260h-209l51 260h207zM565 975q219 0 348 -120.5t129 -328.5q0 -112 -38 -212.5t-107.5 -177.5t-176 -122t-235.5 -45q-203 0 -319.5 103.5t-116.5 289.5q0 49 23 164h727q-12 228 -244 228q-167 0 -315 -119l-109 192
q201 148 434 148zM498 164q99 0 171.5 52t106.5 144h-477q-2 -6 -2 -22q0 -83 53 -128.5t148 -45.5z" />
    <glyph glyph-name="uni04DC" unicode="&#x4dc;" horiz-adv-x="2154" 
d="M1245 1745l-43 -223h-244l43 223h244zM1669 1745l-41 -223h-244l43 223h242zM2261 1434l-696 -701l493 -733h-340l-450 719l-140 -719h-254l142 721l-717 -721h-385l817 784l-401 650h329l367 -656l127 656h254l-129 -658l618 658h365z" />
    <glyph glyph-name="uni04DD" unicode="&#x4dd;" horiz-adv-x="1601" 
d="M899 1319l-51 -260h-207l51 260h207zM1251 1319l-49 -260h-209l51 260h207zM1659 946l-475 -459l315 -487h-299l-274 459l-90 -459h-240l88 457l-432 -457h-334l528 530l-286 416h299l243 -397l78 397h240l-76 -395l379 395h336z" />
    <glyph glyph-name="uni04DE" unicode="&#x4de;" horiz-adv-x="1181" 
d="M406 1522l43 223h243l-43 -223h-243zM831 1522l43 223h242l-41 -223h-244zM532 -31q-309 0 -542 146l141 229q202 -121 406 -121q134 0 213 49.5t79 151.5q0 201 -350 201h-108l45 241h104q171 0 272 53t101 148q0 75 -59 110t-162 35q-181 0 -371 -86l-92 230
q267 108 487 108q226 0 350.5 -92t124.5 -258q0 -138 -91 -227.5t-277 -122.5v-4q135 -22 211 -112t76 -238q0 -208 -144 -324.5t-414 -116.5z" />
    <glyph glyph-name="uni04DF" unicode="&#x4df;" horiz-adv-x="954" 
d="M565 1319l-51 -260h-207l51 260h207zM918 1319l-50 -260h-209l52 260h207zM399 -31q-259 0 -448 92l100 191q172 -76 363 -76q211 0 211 117q0 56 -34.5 79t-121.5 23h-213l37 189h217q75 0 108 25.5t33 74.5q0 86 -151 86q-143 0 -326 -43l-59 197q210 53 395 53
q195 0 297 -62.5t102 -185.5q0 -90 -68 -151t-186 -76l-2 -4q101 -10 154 -64.5t53 -146.5q0 -142 -116.5 -230t-344.5 -88z" />
    <glyph glyph-name="uni04E0" unicode="&#x4e0;" horiz-adv-x="1150" 
d="M483 -31q-156 0 -295 40t-239 112l147 237q206 -135 400 -135q142 0 224.5 58.5t82.5 162.5q0 99 -81 147t-249 48h-180l43 207l452 348h-540l47 240h901l-43 -228l-520 -379q70 9 96 9q152 0 248 -103.5t96 -277.5q0 -106 -37.5 -194.5t-109.5 -153.5t-185.5 -101.5
t-257.5 -36.5z" />
    <glyph glyph-name="uni04E1" unicode="&#x4e1;" horiz-adv-x="894" 
d="M246 -440q-256 0 -490 116l123 211q190 -108 369 -108q143 0 218 71t75 177q0 90 -59.5 136t-172.5 46h-225l35 184l446 332h-520l43 221h819l-43 -227l-483 -340q47 8 96 8q142 0 232 -94.5t90 -257.5q0 -70 -17 -134.5t-58 -127.5t-102.5 -109.5t-158 -75t-217.5 -28.5
z" />
    <glyph glyph-name="uni04E2" unicode="&#x4e2;" horiz-adv-x="1474" 
d="M1288 1716l-33 -170h-626l33 170h626zM43 0l279 1434h262l-193 -990h2l877 990h256l-279 -1434h-262l193 989h-2l-877 -989h-256z" />
    <glyph glyph-name="uni04E3" unicode="&#x4e3;" horiz-adv-x="1138" 
d="M1030 1251l-33 -172h-626l32 172h627zM18 0l185 946h250l-113 -571h4l551 571h227l-184 -946h-252l113 571h-4l-551 -571h-226z" />
    <glyph glyph-name="uni04E4" unicode="&#x4e4;" horiz-adv-x="1474" 
d="M606 1522l43 223h244l-43 -223h-244zM1032 1522l43 223h242l-41 -223h-244zM43 0l279 1434h262l-193 -990h2l877 990h256l-279 -1434h-262l193 989h-2l-877 -989h-256z" />
    <glyph glyph-name="uni04E5" unicode="&#x4e5;" horiz-adv-x="1138" 
d="M651 1319l-51 -260h-207l51 260h207zM1004 1319l-50 -260h-209l52 260h207zM18 0l185 946h250l-113 -571h4l551 571h227l-184 -946h-252l113 571h-4l-551 -571h-226z" />
    <glyph glyph-name="uni04E6" unicode="&#x4e6;" horiz-adv-x="1667" 
d="M629 1522l43 223h243l-43 -223h-243zM1055 1522l43 223h241l-41 -223h-243zM823 -31q-209 0 -370 82.5t-251.5 237.5t-90.5 360q0 134 38 257.5t110.5 224.5t172.5 176t230 116t276 41q209 0 371 -82.5t253 -237.5t91 -360q0 -134 -38.5 -257.5t-111.5 -224.5t-173 -176
t-230.5 -116t-276.5 -41zM836 231q127 0 230.5 45.5t169.5 123t101 177t35 209.5q0 194 -126 305t-320 111q-127 0 -231 -45.5t-169.5 -123t-101 -177t-35.5 -209.5q0 -194 126.5 -305t320.5 -111z" />
    <glyph glyph-name="uni04E7" unicode="&#x4e7;" horiz-adv-x="1157" 
d="M649 1319l-51 -260h-207l51 260h207zM1001 1319l-49 -260h-209l52 260h206zM535 -31q-217 0 -349.5 119.5t-132.5 331.5q0 240 159.5 398.5t410.5 158.5q217 0 349 -119t132 -332q0 -240 -159 -398.5t-410 -158.5zM553 207q132 0 212.5 87.5t80.5 215.5q0 111 -66.5 170
t-175.5 59q-132 0 -212.5 -87.5t-80.5 -215.5q0 -111 66.5 -170t175.5 -59z" />
    <glyph glyph-name="uni04E8" unicode="&#x4e8;" horiz-adv-x="1667" 
d="M938 1464q209 0 371 -82.5t253 -237.5t91 -360q0 -134 -38.5 -257.5t-111.5 -224.5t-173 -176t-230.5 -116t-276.5 -41q-209 0 -370 82.5t-251.5 237.5t-90.5 360q0 134 38 257.5t110.5 224.5t172.5 176t230 116t276 41zM926 1202q-106 0 -196 -32t-154.5 -89
t-107.5 -131.5t-62 -161.5h966q-1 129 -61 224.5t-160 142.5t-225 47zM836 231q209 0 345.5 116.5t176.5 297.5h-969q1 -129 61.5 -224.5t160 -142.5t225.5 -47z" />
    <glyph glyph-name="uni04E9" unicode="&#x4e9;" horiz-adv-x="1157" 
d="M623 977q213 0 347 -117.5t134 -333.5q0 -154 -69 -280t-200 -201.5t-300 -75.5q-139 0 -246.5 50t-171.5 153.5t-64 247.5q0 154 69.5 280t200.5 201.5t300 75.5zM604 748q-117 0 -192.5 -59.5t-104.5 -151.5h557q-9 104 -81 157.5t-179 53.5zM553 199q120 0 195 60.5
t104 154.5h-559q7 -105 80 -160t180 -55z" />
    <glyph glyph-name="uni04EA" unicode="&#x4ea;" horiz-adv-x="1667" 
d="M915 1745l-43 -223h-243l43 223h243zM1339 1745l-41 -223h-243l43 223h241zM938 1464q209 0 371 -82.5t253 -237.5t91 -360q0 -134 -38.5 -257.5t-111.5 -224.5t-173 -176t-230.5 -116t-276.5 -41q-209 0 -370 82.5t-251.5 237.5t-90.5 360q0 134 38 257.5t110.5 224.5
t172.5 176t230 116t276 41zM926 1202q-106 0 -196 -32t-154.5 -89t-107.5 -131.5t-62 -161.5h966q-1 129 -61 224.5t-160 142.5t-225 47zM836 231q209 0 345.5 116.5t176.5 297.5h-969q1 -129 61.5 -224.5t160 -142.5t225.5 -47z" />
    <glyph glyph-name="uni04EB" unicode="&#x4eb;" horiz-adv-x="1157" 
d="M645 1319l-51 -260h-207l51 260h207zM997 1319l-49 -260h-209l52 260h206zM623 977q213 0 347 -117.5t134 -333.5q0 -154 -69 -280t-200 -201.5t-300 -75.5q-139 0 -246.5 50t-171.5 153.5t-64 247.5q0 154 69.5 280t200.5 201.5t300 75.5zM604 748q-117 0 -192.5 -59.5
t-104.5 -151.5h557q-9 104 -81 157.5t-179 53.5zM553 199q120 0 195 60.5t104 154.5h-559q7 -105 80 -160t180 -55z" />
    <glyph glyph-name="uni04EC" unicode="&#x4ec;" horiz-adv-x="1423" 
d="M737 1745l-43 -223h-243l43 223h243zM1161 1745l-41 -223h-243l43 223h241zM735 1464q312 0 494 -171t182 -482q0 -171 -55.5 -322t-160.5 -267.5t-270.5 -184.5t-371.5 -68q-175 0 -317.5 46.5t-237.5 119.5l164 230q183 -129 407 -129q210 0 344 99t187 261h-572
l47 242h553q-13 179 -120 269.5t-279 90.5q-192 0 -412 -113l-112 244q266 135 530 135z" />
    <glyph glyph-name="uni04ED" unicode="&#x4ed;" horiz-adv-x="972" 
d="M537 1319l-52 -260h-206l51 260h207zM889 1319l-49 -260h-209l51 260h207zM440 977q218 0 342.5 -119t124.5 -336q0 -116 -37 -215.5t-106.5 -175t-179 -119t-246.5 -43.5q-197 0 -358 88l112 199q126 -61 248 -61q116 0 191.5 51.5t103.5 142.5h-338l33 176h319
q-27 185 -231 185q-114 0 -234 -43l-75 211q169 59 331 59z" />
    <glyph glyph-name="uni04EE" unicode="&#x4ee;" horiz-adv-x="1341" 
d="M1210 1716l-32 -170h-627l33 170h626zM1221 1434h307l-957 -1434h-307l250 373l-328 1061h287l229 -777z" />
    <glyph glyph-name="uni04EF" unicode="&#x4ef;" horiz-adv-x="1038" 
d="M983 1251l-33 -172h-626l32 172h627zM842 946h278l-831 -1358h-269l324 518l-242 840h271l133 -571z" />
    <glyph glyph-name="uni04F0" unicode="&#x4f0;" horiz-adv-x="1341" 
d="M813 1745l-43 -223h-244l43 223h244zM1237 1745l-41 -223h-244l43 223h242zM1221 1434h307l-957 -1434h-307l250 373l-328 1061h287l229 -777z" />
    <glyph glyph-name="uni04F1" unicode="&#x4f1;" horiz-adv-x="1038" 
d="M604 1319l-51 -260h-207l51 260h207zM956 1319l-49 -260h-209l52 260h206zM842 946h278l-831 -1358h-269l324 518l-242 840h271l133 -571z" />
    <glyph glyph-name="uni04F2" unicode="&#x4f2;" horiz-adv-x="1341" 
d="M1100 1767l-312 -245h-172l277 245h207zM1069 1522h-172l277 245h206zM1221 1434h307l-957 -1434h-307l250 373l-328 1061h287l229 -777z" />
    <glyph glyph-name="uni04F3" unicode="&#x4f3;" horiz-adv-x="1038" 
d="M862 1346l-323 -316h-174l282 316h215zM840 1030h-174l282 316h215zM506 375l336 571h278l-831 -1358h-269l324 518l-242 840h271z" />
    <glyph glyph-name="uni04F4" unicode="&#x4f4;" horiz-adv-x="1239" 
d="M852 1745l-43 -223h-244l43 223h244zM1276 1745l-41 -223h-244l43 223h242zM1028 1434h262l-278 -1434h-262l108 559h-371q-185 0 -275.5 72t-90.5 217q0 56 12 123l90 463h262l-88 -453q-4 -18 -4 -53q0 -121 156 -121h358z" />
    <glyph glyph-name="uni04F5" unicode="&#x4f5;" horiz-adv-x="983" 
d="M541 1319l-52 -260h-206l51 260h207zM893 1319l-49 -260h-209l51 260h207zM715 946h252l-185 -946h-252l64 334h-258q-146 0 -216.5 53.5t-70.5 177.5q0 58 10 109l54 272h254l-50 -248q-6 -38 -6 -63q0 -46 25 -63t90 -17h213z" />
    <glyph glyph-name="uni04F8" unicode="&#x4f8;" horiz-adv-x="1703" 
d="M987 1745l-43 -223h-244l43 223h244zM1411 1745l-41 -223h-244l43 223h242zM717 891q210 0 335.5 -100t125.5 -304q0 -120 -43.5 -214t-120.5 -153t-178 -89.5t-220 -30.5h-573l279 1434h262l-107 -543h240zM1491 1434h264l-278 -1434h-265zM612 242q131 0 207 61t76 168
q0 88 -56 133t-159 45h-250l-78 -407h260z" />
    <glyph glyph-name="uni04F9" unicode="&#x4f9;" horiz-adv-x="1411" 
d="M799 1319l-51 -260h-207l51 260h207zM1151 1319l-49 -260h-209l51 260h207zM575 645q95 0 168.5 -27.5t121.5 -94t48 -165.5q0 -160 -110.5 -259t-302.5 -99h-482l185 946h250l-58 -301h180zM1141 946h252l-185 -946h-252zM496 213q72 0 108.5 34t36.5 89q0 96 -129 96
h-160l-43 -219h187z" />
    <glyph glyph-name="uni04FC" unicode="&#x4fc;" horiz-adv-x="1343" 
d="M915 750l209 -439q47 -102 72 -186t25 -174q0 -168 -107.5 -264.5t-296.5 -96.5h-160l48 238h81q90 0 129 38.5t39 100.5q0 82 -75 258l-154 330l-461 -555h-344l674 784l-307 650h297l200 -453l379 453h344z" />
    <glyph glyph-name="uni04FD" unicode="&#x4fd;" horiz-adv-x="1028" 
d="M438 -410l45 230h86q54 0 85.5 27.5t31.5 76.5q0 61 -61 170l-115 215l-289 -309h-303l477 512l-237 434h266l137 -256l238 256h305l-428 -459l155 -288q59 -107 83 -170t24 -133q0 -141 -88.5 -223.5t-249.5 -82.5h-162z" />
    <glyph glyph-name="uni0510" unicode="&#x510;" horiz-adv-x="1169" 
d="M756 1464q140 0 272.5 -38t237.5 -103l-144 -223q-186 112 -372 112q-110 0 -174 -40.5t-64 -120.5q0 -89 79.5 -137t219.5 -48h104l-49 -241h-112q-211 0 -319.5 -59t-108.5 -173q0 -84 62.5 -127t180.5 -43q191 0 414 103l72 -242q-259 -115 -498 -115
q-243 0 -371.5 108.5t-128.5 289.5q0 176 116 277.5t316 119.5v4q-120 37 -178.5 117t-58.5 192q0 175 130.5 281t373.5 106z" />
    <glyph glyph-name="uni0511" unicode="&#x511;" horiz-adv-x="935" 
d="M426 -31q-202 0 -307 71.5t-105 203.5q0 114 76.5 179t212.5 77v6q-77 13 -118.5 67.5t-41.5 139.5q0 124 104 194t298 70q205 0 395 -70l-84 -196q-147 55 -301 55q-172 0 -172 -92q0 -43 31.5 -66.5t89.5 -23.5h213l-37 -189h-219q-199 0 -199 -116q0 -53 42.5 -76
t131.5 -23q177 0 338 62l55 -201q-184 -72 -403 -72z" />
    <glyph glyph-name="uni0512" unicode="&#x512;" horiz-adv-x="1523" 
d="M1575 1434l-295 -1514q-34 -179 -127 -254.5t-254 -75.5h-166l49 248h115q105 0 125 103l242 1245h-617l-168 -867q-33 -172 -130.5 -249.5t-266.5 -77.5h-137l45 250h96q56 0 90.5 28t48.5 95l209 1069h1141z" />
    <glyph glyph-name="uni0513" unicode="&#x513;" horiz-adv-x="1128" 
d="M1110 946l-184 -946l-23 -115q-59 -299 -368 -299h-117l43 228h74q56 0 84 23.5t40 84.5l15 78h2l141 719h-338l-82 -430q-30 -148 -117.5 -222.5t-222.5 -74.5h-116l43 235h63q45 0 70 24t35 79l120 616h838z" />
    <glyph glyph-name="uni051C" unicode="&#x51c;" horiz-adv-x="2127" 
d="M2275 1434l-735 -1434h-244l-125 1004h-4l-514 -1004h-241l-187 1434h289l88 -1010h4l510 1010h244l123 -1010h4l475 1010h313z" />
    <glyph glyph-name="uni051D" unicode="&#x51d;" horiz-adv-x="1585" 
d="M1389 946h272l-516 -946h-223l-95 621l-340 -621h-221l-145 946h250l63 -620l326 620h237l84 -620z" />
    <glyph glyph-name="uni0524" unicode="&#x524;" horiz-adv-x="1464" 
d="M1497 1434l-242 -1252h144l-92 -469h-244l57 287h-166l232 1188h-647l-232 -1188h-264l279 1434h1175z" />
    <glyph glyph-name="uni0525" unicode="&#x525;" horiz-adv-x="1216" 
d="M1137 946l-158 -809h147l-79 -403h-224l51 266h-174l140 719h-430l-142 -719h-250l185 946h250h600h84z" />
    <glyph glyph-name="uni0526" unicode="&#x526;" horiz-adv-x="1370" 
d="M1145 182h160l-93 -469h-243l57 287h-178l88 453q4 18 4 53q0 121 -156 121h-358l-121 -627h-262l279 1434h262l-109 -560h371q185 0 275.5 -71.5t90.5 -216.5q0 -56 -12 -123z" />
    <glyph glyph-name="uni0527" unicode="&#x527;" horiz-adv-x="1198" 
d="M969 137h137l-78 -403h-223l51 266h-166l98 502q9 44 9 78q0 82 -43 125t-119 43q-102 0 -172 -69.5t-98 -215.5l-91 -463h-251l278 1434h252l-121 -623h4q128 166 322 166q135 0 218 -76t83 -235q0 -56 -17 -150z" />
    <glyph glyph-name="uni0E3F" unicode="&#xe3f;" horiz-adv-x="1085" 
d="M1096 1053q0 -142 -84 -237.5t-226 -123.5l-2 -6q99 -17 152 -87.5t53 -186.5q0 -192 -141.5 -302t-378.5 -110h-20l-35 -178h-58l35 178h-409l268 1382h409l35 179h58l-35 -179q177 -5 278 -87t101 -242zM616 1157h-163l-72 -360h166zM604 797q108 1 170 55t62 145
q0 77 -44.5 116t-117.5 42zM270 225h166l70 361h-164zM494 225q108 2 174.5 52.5t66.5 144.5q0 75 -46 116.5t-126 47.5z" />
    <glyph glyph-name="Wgrave" unicode="&#x1e80;" horiz-adv-x="2127" 
d="M1190 1767l158 -245h-168l-277 245h287zM2275 1434l-735 -1434h-244l-125 1004h-4l-514 -1004h-241l-187 1434h289l88 -1010h4l510 1010h244l123 -1010h4l475 1010h313z" />
    <glyph glyph-name="wgrave" unicode="&#x1e81;" horiz-adv-x="1585" 
d="M973 1133h-176l-252 315h278zM1389 946h272l-516 -946h-223l-95 621l-340 -621h-221l-145 946h250l63 -620l326 620h237l84 -620z" />
    <glyph glyph-name="Wacute" unicode="&#x1e82;" horiz-adv-x="2127" 
d="M1147 1522l260 245h297l-373 -245h-184zM2275 1434l-735 -1434h-244l-125 1004h-4l-514 -1004h-241l-187 1434h289l88 -1010h4l510 1010h244l123 -1010h4l475 1010h313z" />
    <glyph glyph-name="wacute" unicode="&#x1e83;" horiz-adv-x="1585" 
d="M1397 1448l-381 -315h-203l283 315h301zM1389 946h272l-516 -946h-223l-95 621l-340 -621h-221l-145 946h250l63 -620l326 620h237l84 -620z" />
    <glyph glyph-name="Wdieresis" unicode="&#x1e84;" horiz-adv-x="2127" 
d="M915 1522l43 223h244l-43 -223h-244zM1341 1522l43 223h242l-41 -223h-244zM2275 1434l-735 -1434h-244l-125 1004h-4l-514 -1004h-241l-187 1434h289l88 -1010h4l510 1010h244l123 -1010h4l475 1010h313z" />
    <glyph glyph-name="wdieresis" unicode="&#x1e85;" horiz-adv-x="1585" 
d="M879 1413l-52 -260h-227l49 260h230zM1264 1413l-52 -260h-227l49 260h230zM1389 946h272l-516 -946h-223l-95 621l-340 -621h-221l-145 946h250l63 -620l326 620h237l84 -620z" />
    <glyph glyph-name="Ygrave" unicode="&#x1ef2;" horiz-adv-x="1222" 
d="M879 1522h-168l-277 245h287zM1409 1434l-653 -889l-107 -545h-262l107 547l-308 887h287l178 -629h4l428 629h326z" />
    <glyph glyph-name="ygrave" unicode="&#x1ef3;" horiz-adv-x="1038" 
d="M694 1133h-176l-252 315h279zM842 946h278l-831 -1358h-269l324 518l-242 840h271l133 -571z" />
    <glyph glyph-name="endash" unicode="&#x2013;" horiz-adv-x="1521" 
d="M1464 655l-41 -209h-1335l41 209h1335z" />
    <glyph glyph-name="emdash" unicode="&#x2014;" horiz-adv-x="2363" 
d="M2298 655l-41 -204h-2159l41 204h2159z" />
    <glyph glyph-name="quoteleft" unicode="&#x2018;" horiz-adv-x="399" 
d="M541 1499l-185 -309h88l-47 -250h-247l47 250l252 309h92z" />
    <glyph glyph-name="quoteright" unicode="&#x2019;" horiz-adv-x="399" 
d="M287 1464h248l-48 -247l-251 -312h-93l185 312h-88z" />
    <glyph glyph-name="quotesinglbase" unicode="&#x201a;" horiz-adv-x="401" 
d="M51 248h248l-47 -248l-252 -309h-92l184 309h-88z" />
    <glyph glyph-name="quotedblleft" unicode="&#x201c;" horiz-adv-x="712" 
d="M541 1499l-185 -309h88l-47 -250h-247l47 250l252 309h92zM852 1499l-184 -309h88l-47 -250h-248l47 250l252 309h92z" />
    <glyph glyph-name="quotedblright" unicode="&#x201d;" horiz-adv-x="712" 
d="M535 1464l-48 -247l-251 -312h-93l185 312h-88l47 247h248zM598 1464h250l-47 -247l-252 -312h-94l184 312h-88z" />
    <glyph glyph-name="quotedblbase" unicode="&#x201e;" horiz-adv-x="727" 
d="M299 248l-47 -248l-252 -309h-92l184 309h-88l47 248h248zM375 248h250l-47 -248l-252 -309h-95l185 309h-88z" />
    <glyph glyph-name="dagger" unicode="&#x2020;" horiz-adv-x="1073" 
d="M1069 983l-39 -197h-325l-189 -976h-213l189 976h-328l37 197h329l88 451h213l-88 -451h326z" />
    <glyph glyph-name="daggerdbl" unicode="&#x2021;" horiz-adv-x="1073" 
d="M1040 825h-327l-72 -370h326l-39 -197h-326l-86 -448h-213l86 448h-328l37 197h330l72 370h-328l39 199h328l79 410h213l-79 -410h325z" />
    <glyph glyph-name="bullet" unicode="&#x2022;" horiz-adv-x="768" 
d="M436 995q106 0 176 -70.5t70 -174.5q0 -107 -70 -176.5t-176 -69.5q-105 0 -175.5 69.5t-70.5 176.5q0 104 71 174.5t175 70.5z" />
    <glyph glyph-name="ellipsis" unicode="&#x2026;" horiz-adv-x="1447" 
d="M8 0l53 285h285l-55 -285h-283zM492 0l53 285h284l-55 -285h-282zM975 0l53 285h285l-56 -285h-282z" />
    <glyph glyph-name="perthousand" unicode="&#x2030;" horiz-adv-x="2416" 
d="M543 780q-135 0 -226.5 77t-91.5 216q0 94 43 177.5t129 138.5t197 55q134 0 224.5 -78t90.5 -215q0 -70 -25.5 -136.5t-71 -119t-116 -84t-153.5 -31.5zM279 0l1021 1382h138l-1022 -1382h-137zM549 909q57 0 102.5 22.5t71.5 58.5t39.5 76t13.5 79q0 80 -53.5 125
t-136.5 45q-75 0 -129 -39t-76.5 -91t-22.5 -106q0 -82 54 -126t137 -44zM1167 -10q-134 0 -224.5 78t-90.5 215q0 95 43 178.5t128.5 137.5t195.5 54q135 0 226 -77t91 -216q0 -94 -43 -177.5t-129 -138t-197 -54.5zM1913 -10q-131 0 -221 77.5t-90 211.5q0 71 26.5 138
t74 119.5t118.5 84.5t153 32q133 0 222.5 -76.5t89.5 -211.5q0 -95 -44.5 -180t-131.5 -140t-197 -55zM1176 119q57 0 102.5 22.5t71.5 58t39.5 75.5t13.5 79q0 82 -54 126t-137 44q-57 0 -102.5 -22.5t-71.5 -58t-39.5 -75.5t-13.5 -79q0 -80 54 -125t137 -45zM1919 119
q107 0 170 72.5t63 166.5q0 83 -52.5 124.5t-131.5 41.5q-106 0 -169.5 -73t-63.5 -166q0 -82 53.5 -124t130.5 -42z" />
    <glyph glyph-name="guilsinglleft" unicode="&#x2039;" horiz-adv-x="649" 
d="M289 141l-250 342l383 340h274l-409 -358l241 -324h-239z" />
    <glyph glyph-name="guilsinglright" unicode="&#x203a;" horiz-adv-x="649" 
d="M362 815l250 -342l-383 -342h-274l410 361l-242 323h239z" />
    <glyph glyph-name="fraction" unicode="&#x2044;" horiz-adv-x="194" 
d="M-440 0l1022 1382h137l-1022 -1382h-137z" />
    <glyph glyph-name="uni2070" unicode="&#x2070;" horiz-adv-x="964" 
d="M662 1645q165 0 261.5 -100t96.5 -302q0 -107 -28 -204t-81 -175.5t-140 -125t-196 -46.5q-166 0 -263 100t-97 302q0 107 28 204t82 175.5t141 125t196 46.5zM653 1440q-48 0 -86.5 -23.5t-61.5 -60t-38 -83.5t-21 -90t-6 -85q0 -201 142 -201q59 0 103.5 34.5
t67.5 89.5t33.5 110t10.5 108q0 201 -144 201z" />
    <glyph glyph-name="uni2074" unicode="&#x2074;" horiz-adv-x="858" 
d="M940 1626l-109 -567h95l-39 -191h-92l-31 -155h-209l31 155h-473l32 164l560 594h235zM379 1059h242l61 315h-6z" />
    <glyph glyph-name="uni2075" unicode="&#x2075;" horiz-adv-x="788" 
d="M592 1315q108 0 179 -72t71 -207q0 -160 -104 -252t-287 -92q-198 0 -336 121l133 166q38 -36 93 -58t112 -22q77 0 125.5 36.5t48.5 100.5q0 52 -30.5 82.5t-84.5 30.5q-86 0 -131 -66h-174l149 543h516l-38 -196l-345 -3l-43 -155h5q53 43 141 43z" />
    <glyph glyph-name="uni2076" unicode="&#x2076;" horiz-adv-x="819" 
d="M500 692q-153 0 -246.5 79.5t-93.5 227.5q0 65 16 122t51 113t76.5 104.5t106.5 113.5l192 188h281l-416 -368l4 -2q74 65 172 65q102 0 174 -72.5t72 -207.5q0 -68 -25 -132t-71.5 -116t-122.5 -83.5t-170 -31.5zM512 893q74 0 114 45t40 102q0 52 -34.5 84.5
t-96.5 32.5q-74 0 -114 -45.5t-40 -105.5q0 -49 34.5 -81t96.5 -32z" />
    <glyph glyph-name="uni2077" unicode="&#x2077;" horiz-adv-x="698" 
d="M889 1626l-39 -203l-508 -710h-250l508 696h-395l41 217h643z" />
    <glyph glyph-name="uni2078" unicode="&#x2078;" horiz-adv-x="876" 
d="M506 692q-162 0 -250 68.5t-88 181.5q0 101 64 165.5t169 84.5l2 4q-60 18 -90 65.5t-30 112.5q0 119 97 195t263 76q149 0 231 -62t82 -164q0 -82 -53 -142.5t-143 -80.5l-2 -4q67 -21 105 -72.5t38 -128.5q0 -129 -105.5 -214t-289.5 -85zM600 1280q57 0 93 28t36 74
q0 40 -28 61t-74 21q-57 0 -92 -28.5t-35 -73.5q0 -40 27.5 -61t72.5 -21zM524 885q74 0 114 36t40 87q0 45 -33 70.5t-90 25.5q-73 0 -115.5 -36.5t-42.5 -86.5q0 -46 33.5 -71t93.5 -25z" />
    <glyph glyph-name="uni2079" unicode="&#x2079;" horiz-adv-x="811" 
d="M205 713l407 344l-4 2q-84 -58 -166 -58q-95 0 -165 79.5t-70 201.5q0 71 25.5 135.5t73 115.5t122.5 81.5t166 30.5q55 0 104 -11t92.5 -35.5t75 -60.5t50 -89t18.5 -118q0 -129 -69.5 -231t-223.5 -240l-166 -147h-270zM559 1180q74 0 115 45t41 102q0 53 -34 85
t-97 32q-74 0 -115 -46t-41 -106q0 -49 34.5 -80.5t96.5 -31.5z" />
    <glyph glyph-name="uni2080" unicode="&#x2080;" horiz-adv-x="964" 
d="M479 707q166 0 262.5 -100t96.5 -302q0 -107 -28 -204t-81 -175.5t-140 -125t-196 -46.5q-166 0 -263 100t-97 302q0 107 28 204t81.5 175.5t140.5 125t196 46.5zM471 502q-48 0 -86.5 -23.5t-61.5 -60t-38 -83.5t-21 -90t-6 -85q0 -201 141 -201q59 0 103.5 34.5
t67.5 89.5t33.5 110t10.5 108q0 201 -143 201z" />
    <glyph glyph-name="uni2081" unicode="&#x2081;" horiz-adv-x="620" 
d="M457 688l-176 -913h-228l135 698h-43l41 215h271z" />
    <glyph glyph-name="uni2082" unicode="&#x2082;" horiz-adv-x="843" 
d="M422 709q156 0 242 -69t86 -191q0 -97 -58.5 -172t-175.5 -154l-209 -141h357l-41 -207h-678l37 186l372 272q91 66 128.5 105.5t37.5 81.5t-30 64t-84 22q-56 0 -93.5 -27.5t-44.5 -81.5h-221q51 312 375 312z" />
    <glyph glyph-name="uni2083" unicode="&#x2083;" horiz-adv-x="819" 
d="M293 -246q-147 0 -239.5 59.5t-92.5 176.5q0 30 6 65h215q0 -4 -1 -10t-1 -10q0 -38 33 -58t92 -20q76 0 115 30t39 81q0 52 -41.5 74t-136.5 22l28 155q99 1 142 29t43 80q0 80 -107 80q-56 0 -90.5 -22t-38.5 -60h-213q14 130 106.5 205.5t251.5 75.5q142 0 230 -60.5
t88 -173.5q0 -86 -54 -141t-151 -70v-4q160 -27 160 -195q0 -60 -20 -113t-63 -98t-120 -71.5t-180 -26.5z" />
    <glyph glyph-name="uni2084" unicode="&#x2084;" horiz-adv-x="858" 
d="M758 688l-111 -567h96l-38 -191h-95l-28 -155h-209l30 155h-473l33 164l559 594h236zM197 121h243l60 315h-6z" />
    <glyph glyph-name="uni2085" unicode="&#x2085;" horiz-adv-x="788" 
d="M410 377q107 0 178 -72t71 -207q0 -160 -104 -252t-287 -92q-198 0 -336 121l134 166q38 -36 92.5 -58t111.5 -22q77 0 125.5 36.5t48.5 100.5q0 52 -30.5 82.5t-83.5 30.5q-86 0 -131 -66h-174l149 543h516l-39 -196l-344 -3l-43 -155h4q53 43 142 43z" />
    <glyph glyph-name="uni2086" unicode="&#x2086;" horiz-adv-x="819" 
d="M317 -246q-153 0 -246.5 79.5t-93.5 227.5q0 65 16 122t51 113t76.5 104.5t106.5 113.5l193 188h280l-415 -368l4 -2q74 65 172 65q102 0 174 -72.5t72 -207.5q0 -68 -25 -132t-72 -116t-123 -83.5t-170 -31.5zM330 -45q74 0 113.5 45t39.5 102q0 52 -34.5 84.5
t-96.5 32.5q-74 0 -113.5 -45.5t-39.5 -105.5q0 -49 34.5 -81t96.5 -32z" />
    <glyph glyph-name="uni2087" unicode="&#x2087;" horiz-adv-x="698" 
d="M707 688l-39 -203l-508 -710h-250l508 696h-395l40 217h644z" />
    <glyph glyph-name="uni2088" unicode="&#x2088;" horiz-adv-x="876" 
d="M324 -246q-162 0 -250 68.5t-88 181.5q0 101 64 165.5t169 84.5l2 4q-60 18 -90.5 65.5t-30.5 112.5q0 119 97.5 195t263.5 76q149 0 231 -62t82 -164q0 -82 -53 -142.5t-143 -80.5l-3 -4q67 -21 105.5 -72.5t38.5 -128.5q0 -129 -105.5 -214t-289.5 -85zM418 342
q57 0 93 28t36 74q0 40 -28.5 61t-74.5 21q-57 0 -92 -28.5t-35 -73.5q0 -40 28 -61t73 -21zM342 -53q74 0 114 36t40 87q0 45 -33 70.5t-90 25.5q-73 0 -115.5 -36.5t-42.5 -86.5q0 -46 33.5 -71t93.5 -25z" />
    <glyph glyph-name="uni2089" unicode="&#x2089;" horiz-adv-x="811" 
d="M23 -225l407 344l-4 2q-84 -58 -166 -58q-95 0 -165 79.5t-70 201.5q0 71 25.5 135.5t73 115.5t122.5 81.5t166 30.5q55 0 104 -11t92.5 -35.5t75 -60.5t50 -89t18.5 -118q0 -129 -69.5 -231t-223.5 -240l-166 -147h-270zM377 242q74 0 114.5 45t40.5 102q0 53 -34 85
t-97 32q-74 0 -114.5 -46t-40.5 -106q0 -49 34.5 -80.5t96.5 -31.5z" />
    <glyph glyph-name="TRY" unicode="&#x20a4;" horiz-adv-x="1214" 
d="M924 670h254q-55 -320 -262 -495t-521 -175h-200l116 598l-252 -100l13 63l252 101l22 114l-252 -100l12 63l252 101l105 542h248l-86 -434l422 168l-13 -63l-422 -168l-22 -115l422 168l-13 -64l-421 -167l-86 -445q167 0 282 108.5t150 299.5z" />
    <glyph glyph-name="uni20A9" unicode="&#x20a9;" horiz-adv-x="2025" 
d="M2144 1434l-250 -551h170l-12 -62h-184l-64 -139h221l-12 -61h-235l-281 -621h-274l-52 621h-260l-295 -621h-272l-39 621h-235l12 61h219l-8 139h-184l12 62h168l-35 551h276l7 -551h260l258 551h274l45 -551h258l221 551h291zM1126 1077l-92 -194h115l-16 194h-7z
M539 821l2 -139h159l66 139h-227zM940 682h227l-12 139h-149zM1550 682l58 139h-230l13 -139h159zM549 356l123 265h-131l4 -265h4zM1421 356l105 265h-131l22 -265h4z" />
    <glyph glyph-name="Euro" unicode="&#x20ac;" horiz-adv-x="1355" 
d="M1014 1167q-179 0 -301.5 -93t-175.5 -251h614l-41 -61h-590q-13 -65 -16 -121h538l-41 -61h-497q6 -177 95 -270t247 -93q157 0 344 80l-51 -268q-155 -58 -314 -58q-146 0 -259 45.5t-183.5 128t-106.5 192.5t-38 243h-207l43 61h164q3 63 12 121h-174l43 61h143
q29 125 88.5 229.5t151 186.5t224 128t294.5 46q245 0 434 -117l-135 -219q-75 43 -145 66.5t-160 23.5z" />
    <glyph glyph-name="uni20AE" unicode="&#x20ae;" horiz-adv-x="1128" 
d="M1210 1157h-395l-49 -252l270 123l-12 -63l-270 -123l-23 -115l270 123l-12 -64l-270 -122l-129 -664h-246l105 541l-269 -123l13 63l268 123l22 115l-270 -123l12 63l271 123l71 375h-393l43 225h1038z" />
    <glyph glyph-name="uni20B4" unicode="&#x20b4;" horiz-adv-x="1099" 
d="M930 809q-35 -26 -105 -70l-112 -69h377l-13 -62h-465l-59 -37q-110 -68 -156.5 -119t-46.5 -108q0 -61 50.5 -93t140.5 -32q160 0 413 109l-51 -271q-203 -88 -403 -88q-194 0 -307 84t-113 260q0 171 133 295h-137l12 62h201q53 38 114 75l105 64h-393l12 61h481l84 52
q142 88 142 163q0 44 -41 65t-109 21q-156 0 -379 -73l47 250q223 65 373 65q84 0 150.5 -15.5t119 -49t81 -91t28.5 -135.5q0 -144 -105 -252h129l-12 -61h-186z" />
    <glyph glyph-name="uni20B8" unicode="&#x20b8;" horiz-adv-x="1112" 
d="M217 1382h1030l-45 -225h-1028zM109 815l43 225h1028l-43 -225h-392l-157 -815h-248l158 815h-389z" />
    <glyph glyph-name="uni20B9" unicode="&#x20b9;" horiz-adv-x="1071" 
d="M1165 1382l-57 -61h-350q77 -47 120.5 -126t43.5 -183v-4h170l-58 -62h-119q-24 -171 -160 -276t-347 -105h-15l381 -565h-309l-365 565l45 230h263q204 0 241 151h-475l12 62h467q-3 72 -53 108.5t-139 36.5h-246l45 229h262h643z" />
    <glyph glyph-name="uni20BD" unicode="&#x20bd;" horiz-adv-x="1267" 
d="M766 557h-229l-27 -127h416l-13 -61h-413l-72 -369h-248l72 369h-199l13 61h198l25 127h-199l43 225h201l115 600h407q205 0 318.5 -98t113.5 -276q0 -198 -138.5 -324.5t-383.5 -126.5zM651 1157l-71 -375h182q126 0 193 53.5t67 153.5q0 86 -53.5 127t-145.5 41h-172z
" />
    <glyph glyph-name="uni2113" unicode="&#x2113;" horiz-adv-x="1038" 
d="M1077 1133q0 -375 -616 -588q-6 -61 -6 -119q0 -125 32 -177t119 -52q77 0 234 57l-41 -229q-55 -19 -79.5 -26.5t-71 -15.5t-93.5 -8q-84 0 -144 22.5t-96 59.5t-57 97t-28 123t-7 149v49q-27 -7 -77.5 -19t-67.5 -16l43 228l119 30q16 121 46 225.5t77 195.5t107 155.5
t140.5 101.5t173.5 37q131 0 212 -70.5t81 -209.5zM772 1214q-68 0 -125.5 -62.5t-93.5 -155.5t-61 -214q360 143 360 342q0 90 -80 90z" />
    <glyph glyph-name="uni2116" unicode="&#x2116;" horiz-adv-x="2420" 
d="M43 0l279 1434h241l498 -1002h4l190 1002h263l-279 -1434h-244l-495 1001h-2l-193 -1001h-262zM1907 319q-176 0 -281.5 96.5t-105.5 274.5q0 130 56.5 238t167.5 174.5t257 66.5q176 0 281.5 -96.5t105.5 -273.5q0 -130 -56.5 -238.5t-167.5 -175t-257 -66.5zM1923 524
q79 0 137.5 39t85.5 95.5t27 119.5q0 88 -52 137.5t-139 49.5q-117 0 -182 -77.5t-65 -178.5q0 -88 50.5 -136.5t137.5 -48.5zM1423 0l39 205h787l-41 -205h-785z" />
    <glyph glyph-name="trademark" unicode="&#x2122;" horiz-adv-x="1826" 
d="M874 1286h-229l-133 -684h-182l133 684h-232l35 178h645zM1753 1464l25 -862h-181l-8 524l-246 -401h-145l-90 401l-207 -524h-201l361 862h156l96 -483l284 483h156z" />
    <glyph glyph-name="estimated" unicode="&#x212e;" horiz-adv-x="1572" 
d="M100 623q0 176 96.5 325t262 235.5t360.5 86.5q196 0 362 -86.5t262.5 -235.5t96.5 -325v-19h-1175v-287q0 -68 27.5 -124.5t78.5 -88.5q139 -92 352 -92q151 0 285 57t223 158h60q-101 -118 -253 -185t-319 -67q-146 0 -279.5 51.5t-229.5 138t-153 206.5t-57 252z
M1186 1130q-133 103 -363 103q-216 0 -352 -94q-106 -71 -106 -174v-324h911v311q0 109 -90 178z" />
    <glyph glyph-name="uni2153" unicode="&#x2153;" horiz-adv-x="1591" 
d="M158 0l1022 1382h137l-1022 -1382h-137zM256 592l125 651h-66l27 139h207l-154 -790h-139zM1155 -18q-133 0 -209 52t-76 148q0 19 4 47h140v-14q0 -104 147 -104q80 0 117 35t37 87q0 62 -45.5 89t-153.5 26l27 125q105 0 156 28.5t51 90.5q0 90 -113 90
q-59 0 -96 -27.5t-45 -74.5h-138q15 113 87.5 171t197.5 58q114 0 184 -47t70 -144q0 -78 -48 -130.5t-136 -69.5v-2q70 -11 109.5 -57t39.5 -123q0 -47 -16 -90t-50 -81t-96 -60.5t-145 -22.5z" />
    <glyph glyph-name="uni2154" unicode="&#x2154;" horiz-adv-x="1828" 
d="M106 592l23 117l342 274q39 31 57 46t44.5 41.5t37.5 51.5t11 52q0 45 -31 70.5t-86 25.5q-59 0 -97.5 -30t-48.5 -87h-139q12 111 88.5 179.5t204.5 68.5q111 0 183.5 -54.5t72.5 -158.5q0 -84 -47.5 -146.5t-153.5 -144.5l-221 -170h352l-26 -135h-566zM395 0
l1022 1382h137l-1022 -1382h-137zM1393 -18q-133 0 -209 52t-76 148q0 19 4 47h139v-14q0 -104 148 -104q80 0 116.5 35t36.5 87q0 62 -45.5 89t-152.5 26l26 125q105 0 156 28.5t51 90.5q0 90 -112 90q-59 0 -96.5 -27.5t-45.5 -74.5h-137q15 113 87.5 171t197.5 58
q114 0 184 -47t70 -144q0 -78 -48.5 -130.5t-136.5 -69.5v-2q70 -11 110 -57t40 -123q0 -47 -16 -90t-50 -81t-96 -60.5t-145 -22.5z" />
    <glyph glyph-name="oneeighth" unicode="&#x215b;" horiz-adv-x="1605" 
d="M158 0l1022 1382h137l-1022 -1382h-137zM256 592l125 651h-66l27 139h207l-154 -790h-139zM1145 -18q-134 0 -206.5 61t-72.5 160q0 91 58 151.5t145 69.5l2 4q-104 38 -104 152q0 98 79 163.5t211 65.5q119 0 187.5 -56.5t68.5 -144.5q0 -76 -48 -127t-124 -65l-2 -4
q125 -36 125 -168q0 -112 -85.5 -187t-233.5 -75zM1223 481q64 0 101.5 31t37.5 78q0 42 -30 65t-83 23q-64 0 -101.5 -29.5t-37.5 -79.5q0 -43 29.5 -65.5t83.5 -22.5zM1157 115q75 0 118.5 37.5t43.5 95.5q0 55 -38 83.5t-101 28.5q-74 0 -119 -38t-45 -97q0 -55 39 -82.5
t102 -27.5z" />
    <glyph glyph-name="threeeighths" unicode="&#x215c;" horiz-adv-x="1808" 
d="M416 573q-133 0 -209 52.5t-76 148.5q0 19 4 47h139v-14q0 -105 148 -105q80 0 116.5 35.5t36.5 87.5q0 62 -45.5 89t-152.5 26l26 125q105 0 156 28.5t51 90.5q0 90 -112 90q-59 0 -96.5 -28t-45.5 -75h-137q15 114 87.5 172t197.5 58q114 0 184 -47t70 -144
q0 -78 -48.5 -130.5t-136.5 -69.5v-2q70 -11 110 -57.5t40 -123.5q0 -47 -16 -90t-50 -81t-96 -60.5t-145 -22.5zM360 0l1022 1382h138l-1022 -1382h-138zM1348 -18q-134 0 -206.5 61t-72.5 160q0 91 58 151.5t145 69.5l2 4q-49 18 -77 56.5t-28 95.5q0 98 79.5 163.5
t211.5 65.5q119 0 187.5 -56.5t68.5 -144.5q0 -76 -48 -127t-124 -65l-2 -4q125 -36 125 -168q0 -112 -85.5 -187t-233.5 -75zM1425 481q64 0 102 31t38 78q0 42 -30 65t-83 23q-64 0 -101.5 -29.5t-37.5 -79.5q0 -43 29 -65.5t83 -22.5zM1360 115q75 0 118.5 37.5
t43.5 95.5q0 55 -38.5 83.5t-101.5 28.5q-74 0 -118.5 -38t-44.5 -97q0 -55 39 -82.5t102 -27.5z" />
    <glyph glyph-name="fiveeighths" unicode="&#x215d;" horiz-adv-x="1818" 
d="M406 573q-188 0 -291 140l108 94q62 -98 193 -98q88 0 129 47t41 110q0 62 -35 94.5t-92 32.5q-78 0 -131 -63h-129l135 452h438l-27 -137h-323l-64 -198h7q53 65 147 65q39 0 76 -14t70 -42t53 -77t20 -111q0 -131 -84.5 -213t-240.5 -82zM369 0l1022 1382h137
l-1022 -1382h-137zM1356 -18q-134 0 -206.5 61t-72.5 160q0 91 58 151.5t145 69.5l2 4q-104 38 -104 152q0 98 79 163.5t211 65.5q119 0 187.5 -56.5t68.5 -144.5q0 -76 -48 -127t-124 -65l-2 -4q125 -36 125 -168q0 -112 -85.5 -187t-233.5 -75zM1434 481q64 0 101.5 31
t37.5 78q0 42 -30 65t-83 23q-64 0 -101.5 -29.5t-37.5 -79.5q0 -43 29.5 -65.5t83.5 -22.5zM1368 115q75 0 118.5 37.5t43.5 95.5q0 55 -38 83.5t-101 28.5q-74 0 -119 -38t-45 -97q0 -55 39 -82.5t102 -27.5z" />
    <glyph glyph-name="seveneighths" unicode="&#x215e;" horiz-adv-x="1638" 
d="M102 592l463 651h-372l26 139h533l-25 -133l-469 -657h-156zM188 0l1022 1382h138l-1022 -1382h-138zM1176 -18q-134 0 -206.5 61t-72.5 160q0 91 58 151.5t145 69.5l2 4q-49 18 -77 56.5t-28 95.5q0 98 79.5 163.5t211.5 65.5q119 0 187.5 -56.5t68.5 -144.5
q0 -76 -48 -127t-124 -65l-2 -4q125 -36 125 -168q0 -112 -85.5 -187t-233.5 -75zM1253 481q64 0 102 31t38 78q0 42 -30 65t-83 23q-64 0 -101.5 -29.5t-37.5 -79.5q0 -43 29 -65.5t83 -22.5zM1188 115q75 0 118.5 37.5t43.5 95.5q0 55 -38.5 83.5t-101.5 28.5
q-74 0 -118.5 -38t-44.5 -97q0 -55 39 -82.5t102 -27.5z" />
    <glyph glyph-name="arrowleft" unicode="&#x2190;" horiz-adv-x="1669" 
d="M1612 702l-43 -217h-1075l323 -379l-178 -151l-514 639l749 653l134 -166l-457 -379h1061z" />
    <glyph glyph-name="arrowup" unicode="&#x2191;" horiz-adv-x="1501" 
d="M1444 698l-184 -147l-304 395l-208 -1073h-216l205 1057l-452 -379l-135 166l774 622z" />
    <glyph glyph-name="arrowright" unicode="&#x2192;" horiz-adv-x="1671" 
d="M1083 1239l510 -643l-753 -653l-129 166l444 378h-1051l43 218h1078l-326 378z" />
    <glyph glyph-name="arrowdown" unicode="&#x2193;" horiz-adv-x="1503" 
d="M1266 639l135 -166l-774 -623l-523 633l187 156l303 -399l209 1077h215l-205 -1055z" />
    <glyph glyph-name="arrowboth" unicode="&#x2194;" horiz-adv-x="2572" 
d="M1982 1237l510 -643l-753 -653l-129 165l444 379h-1050h-510l323 -379l-178 -151l-514 639l749 653l134 -166l-457 -379h496h1075l-324 379z" />
    <glyph glyph-name="arrowupdn" unicode="&#x2195;" horiz-adv-x="1513" 
d="M563 -532l-524 632l188 156l301 -399l289 1489l-452 -379l-136 166l775 622l520 -641l-185 -147l-303 395l-286 -1483l452 377l135 -166z" />
    <glyph glyph-name="uni2196" unicode="&#x2196;" horiz-adv-x="1337" 
d="M1176 162l-181 -152l-606 750l-102 -539l-234 -2l197 903l905 4l-45 -217l-543 9z" />
    <glyph glyph-name="uni2197" unicode="&#x2197;" horiz-adv-x="1337" 
d="M440 1137l899 -15l-153 -905l-234 2l103 537l-891 -748l-123 152l905 758l-549 -9z" />
    <glyph glyph-name="uni2198" unicode="&#x2198;" horiz-adv-x="1337" 
d="M1098 967l233 2l-196 -903l-906 -7l43 215l549 -8l-612 760l182 152l604 -750z" />
    <glyph glyph-name="uni2199" unicode="&#x2199;" horiz-adv-x="1339" 
d="M571 381l136 -107l262 -94l-529 -117l-84 140l-65 -58l-123 154l88 72l-123 204l176 394l41 -418l64 -47l807 676l122 -152z" />
    <glyph glyph-name="partialdiff" unicode="&#x2202;" horiz-adv-x="1216" 
d="M653 1464q120 0 216.5 -36t169 -109t112 -193t39.5 -280q0 -103 -16.5 -205t-50 -201t-88 -183.5t-125.5 -149.5t-168.5 -101.5t-211.5 -36.5q-211 0 -334.5 119t-123.5 315q0 99 33.5 191t96 166.5t163.5 119t225 44.5q116 0 207.5 -38.5t150.5 -105.5q2 25 2 66
q0 186 -85.5 284.5t-239.5 98.5q-144 0 -279 -64l-70 217q184 82 377 82zM545 205q68 0 126 26t101 72t73.5 101t53.5 122q-100 164 -291 164q-77 0 -134.5 -26.5t-88.5 -69t-46 -88t-15 -92.5q0 -93 58 -151t163 -58z" />
    <glyph glyph-name="emptyset" unicode="&#x2205;" 
d="M1016 985q123 -129 123 -321q0 -204 -139.5 -340t-348.5 -136q-188 0 -323 113l-115 -115l-39 41l113 113q-123 129 -123 324q0 204 139 339.5t348 135.5q186 0 322 -113l114 115l41 -41zM401 664q0 -92 52 -160l356 358q-67 51 -158 51q-110 0 -180 -70.5t-70 -178.5z
M651 414q110 0 180 70.5t70 179.5q0 91 -51 157l-356 -356q63 -51 157 -51z" />
    <glyph glyph-name="product" unicode="&#x220f;" horiz-adv-x="1542" 
d="M1618 1434v-228h-240v-1366h-229v1366h-453v-1366h-231v1366h-238v228h1391z" />
    <glyph glyph-name="summation" unicode="&#x2211;" horiz-adv-x="1454" 
d="M1245 1434v-236h-688l508 -594l-508 -594h688v-235h-985v235l510 594l-510 594v236h985z" />
    <glyph glyph-name="minus" unicode="&#x2212;" 
d="M1130 670v-119h-978v119h978z" />
    <glyph glyph-name="radical" unicode="&#x221a;" horiz-adv-x="1200" 
d="M1116 1464h236l-480 -1464h-227l-299 727h-213v219h365l250 -629z" />
    <glyph glyph-name="infinity" unicode="&#x221e;" horiz-adv-x="1568" 
d="M1219 922q142 0 235.5 -88.5t93.5 -225.5t-93.5 -225t-235.5 -88q-65 0 -123 18.5t-109.5 55t-89.5 73t-86 90.5q-48 -55 -85.5 -90.5t-89 -72.5t-110 -55.5t-123.5 -18.5q-142 0 -235.5 88t-93.5 225t93.5 225.5t235.5 88.5q65 0 123.5 -18.5t110 -56t88.5 -73t86 -90.5
q48 54 86 90.5t89.5 73.5t109.5 55.5t123 18.5zM403 821q-95 0 -160 -62t-65 -151t65 -151t160 -62q96 0 173.5 55t166.5 158q-89 103 -166.5 158t-173.5 55zM1219 821q-51 0 -97 -16t-90 -49.5t-76 -65.5t-77 -82q45 -50 77 -82t76 -65.5t90 -49.5t97 -16q95 0 160 62
t65 151t-65 151t-160 62z" />
    <glyph glyph-name="integral" unicode="&#x222b;" horiz-adv-x="833" 
d="M944 1464l-41 -217q-117 0 -178 -46t-86 -175l-209 -1069q-22 -114 -64.5 -191.5t-110 -122.5t-151.5 -64t-200 -19l43 217q47 1 78 5t62.5 17.5t52 37t37.5 63.5t28 98l209 1069q40 215 167.5 306t362.5 91z" />
    <glyph glyph-name="approxequal" unicode="&#x2248;" 
d="M379 944q58 0 136 -27t141 -59t134.5 -59t118.5 -27q114 0 166 146h111q-36 -138 -109 -202.5t-166 -64.5q-60 0 -138 27t-140.5 59t-134 59t-119.5 27q-116 0 -164 -145h-111q35 138 108.5 202t166.5 64zM379 608q58 0 136 -27t141 -60t134.5 -60t118.5 -27
q113 0 166 148h111q-36 -137 -109 -202t-166 -65q-60 0 -138 27t-140.5 59t-134 59t-119.5 27q-115 0 -164 -147h-111q35 139 108.5 203.5t166.5 64.5z" />
    <glyph glyph-name="notequal" unicode="&#x2260;" 
d="M1159 764h-348l-180 -299h528v-111h-596l-117 -192h-114l117 192h-326v111h393l180 299h-573v110h641l113 187h116l-114 -187h280v-110z" />
    <glyph glyph-name="lessequal" unicode="&#x2264;" 
d="M1079 1006v-121l-772 -187l772 -182v-123l-938 244v125zM1090 322v-111h-955v111h955z" />
    <glyph glyph-name="greaterequal" unicode="&#x2265;" 
d="M190 1006l938 -244v-125l-938 -244v123l773 182l-773 187v121zM180 322h955v-111h-955v111z" />
    <glyph glyph-name="uni2460" unicode="&#x2460;" horiz-adv-x="1732" 
d="M913 -31q-217 0 -387.5 96.5t-265 267t-94.5 384.5t94.5 384.5t265 266.5t387.5 96q163 0 302.5 -56.5t237 -155t153 -237t55.5 -298.5q0 -214 -94.5 -384.5t-265.5 -267t-388 -96.5zM913 104q171 0 309.5 80t216 220t77.5 313q0 263 -171.5 437.5t-431.5 174.5
q-171 0 -309 -79.5t-215.5 -219.5t-77.5 -313t77.5 -313t215.5 -220t309 -80zM864 332v649h-67v141h207v-790h-140z" />
    <glyph glyph-name="uni2461" unicode="&#x2461;" horiz-adv-x="1732" 
d="M913 -31q-217 0 -387.5 96.5t-265 267t-94.5 384.5t94.5 384.5t265 266.5t387.5 96q163 0 302.5 -56.5t237 -155t153 -237t55.5 -298.5q0 -214 -94.5 -384.5t-265.5 -267t-388 -96.5zM913 104q171 0 309.5 80t216 220t77.5 313q0 263 -171.5 437.5t-431.5 174.5
q-171 0 -309 -79.5t-215.5 -219.5t-77.5 -313t77.5 -313t215.5 -220t309 -80zM657 360v117l291 279q53 49 81 88.5t28 81.5q0 48 -32.5 78t-88.5 30q-129 0 -141 -116h-142q5 114 77.5 182.5t205.5 68.5q128 0 198 -64t70 -171q0 -70 -34.5 -127.5t-104.5 -124.5l-203 -186
h346v-136h-551z" />
    <glyph glyph-name="uni2462" unicode="&#x2462;" horiz-adv-x="1732" 
d="M913 -31q-217 0 -387.5 96.5t-265 267t-94.5 384.5t94.5 384.5t265 266.5t387.5 96q163 0 302.5 -56.5t237 -155t153 -237t55.5 -298.5q0 -214 -94.5 -384.5t-265.5 -267t-388 -96.5zM913 104q171 0 309.5 80t216 220t77.5 313q0 263 -171.5 437.5t-431.5 174.5
q-171 0 -309 -79.5t-215.5 -219.5t-77.5 -313t77.5 -313t215.5 -220t309 -80zM920 311q-131 0 -210 64.5t-85 183.5h143q5 -55 44 -86t108 -31q147 0 147 119q0 60 -51.5 87.5t-157.5 27.5v127q176 0 176 106q0 46 -32 72.5t-89 26.5q-56 0 -90 -25.5t-37 -75.5h-139
q6 107 75.5 169.5t197.5 62.5q123 0 191.5 -57.5t68.5 -149.5q0 -67 -38 -115t-106 -65v-2q81 -13 129.5 -63t48.5 -138q0 -105 -74 -171.5t-220 -66.5z" />
    <glyph glyph-name="uni2463" unicode="&#x2463;" horiz-adv-x="1732" 
d="M913 1464q163 0 302.5 -56.5t237 -155t153 -237t55.5 -298.5q0 -214 -94.5 -384.5t-265.5 -267t-388 -96.5t-387.5 96.5t-265 267t-94.5 384.5t94.5 384.5t265 266.5t387.5 96zM913 104q171 0 309.5 80t216 220t77.5 313q0 263 -171.5 437.5t-431.5 174.5
q-171 0 -309 -79.5t-215.5 -219.5t-77.5 -313t77.5 -313t215.5 -220t309 -80zM1106 1124v-520h92v-129h-92v-141h-137v141h-414v121l391 528h160zM707 604h262v348h-4z" />
    <glyph glyph-name="uni2464" unicode="&#x2464;" horiz-adv-x="1732" 
d="M913 -31q-217 0 -387.5 96.5t-265 267t-94.5 384.5t94.5 384.5t265 266.5t387.5 96q163 0 302.5 -56.5t237 -155t153 -237t55.5 -298.5q0 -214 -94.5 -384.5t-265.5 -267t-388 -96.5zM913 104q171 0 309.5 80t216 220t77.5 313q0 263 -171.5 437.5t-431.5 174.5
q-171 0 -309 -79.5t-215.5 -219.5t-77.5 -313t77.5 -313t215.5 -220t309 -80zM918 311q-191 0 -289 133l98 101q71 -94 186 -94q70 0 111 38t41 101q0 64 -37.5 101.5t-97.5 37.5q-83 0 -137 -61h-121l49 452h432v-137h-326l-24 -192h6q55 59 156 59q99 0 171 -70t72 -192
q0 -129 -79.5 -203t-210.5 -74z" />
    <glyph glyph-name="uni2465" unicode="&#x2465;" horiz-adv-x="1732" 
d="M913 -31q-217 0 -387.5 96.5t-265 267t-94.5 384.5t94.5 384.5t265 266.5t387.5 96q163 0 302.5 -56.5t237 -155t153 -237t55.5 -298.5q0 -214 -94.5 -384.5t-265.5 -267t-388 -96.5zM913 104q171 0 309.5 80t216 220t77.5 313q0 263 -171.5 437.5t-431.5 174.5
q-171 0 -309 -79.5t-215.5 -219.5t-77.5 -313t77.5 -313t215.5 -220t309 -80zM911 311q-132 0 -217.5 78.5t-85.5 222.5q0 97 38.5 172.5t107.5 157.5l164 197h174l-295 -336l4 -2q62 59 149 59q106 0 181 -71.5t75 -192.5q0 -122 -79.5 -203.5t-215.5 -81.5zM907 449
q66 0 109 38.5t43 104.5t-43 104.5t-109 38.5t-109.5 -38.5t-43.5 -104.5t43.5 -104.5t109.5 -38.5z" />
    <glyph glyph-name="uni2466" unicode="&#x2466;" horiz-adv-x="1732" 
d="M913 -31q-217 0 -387.5 96.5t-265 267t-94.5 384.5t94.5 384.5t265 266.5t387.5 96q163 0 302.5 -56.5t237 -155t153 -237t55.5 -298.5q0 -214 -94.5 -384.5t-265.5 -267t-388 -96.5zM913 104q171 0 309.5 80t216 220t77.5 313q0 263 -171.5 437.5t-431.5 174.5
q-171 0 -309 -79.5t-215.5 -219.5t-77.5 -313t77.5 -313t215.5 -220t309 -80zM717 313l340 652h-379v139h532v-133l-342 -658h-151z" />
    <glyph glyph-name="uni2467" unicode="&#x2467;" horiz-adv-x="1732" 
d="M913 -31q-217 0 -387.5 96.5t-265 267t-94.5 384.5t94.5 384.5t265 266.5t387.5 96q163 0 302.5 -56.5t237 -155t153 -237t55.5 -298.5q0 -214 -94.5 -384.5t-265.5 -267t-388 -96.5zM913 104q171 0 309.5 80t216 220t77.5 313q0 263 -171.5 437.5t-431.5 174.5
q-171 0 -309 -79.5t-215.5 -219.5t-77.5 -313t77.5 -313t215.5 -220t309 -80zM915 315q-142 0 -218 65.5t-76 170.5q0 154 153 201v4q-59 21 -94 66.5t-35 109.5q0 95 71.5 153t198.5 58q126 0 197.5 -58t71.5 -153q0 -65 -33.5 -110t-93.5 -66v-4q153 -48 153 -201
q0 -105 -77 -170.5t-218 -65.5zM915 815q55 0 88 26.5t33 71.5q0 44 -33.5 70.5t-87.5 26.5t-88 -26.5t-34 -70.5q0 -45 33 -71.5t89 -26.5zM915 453q71 0 109.5 32t38.5 88q0 55 -39.5 88t-108.5 33q-70 0 -109.5 -33t-39.5 -88q0 -56 38.5 -88t110.5 -32z" />
    <glyph glyph-name="uni2468" unicode="&#x2468;" horiz-adv-x="1732" 
d="M913 -31q-217 0 -387.5 96.5t-265 267t-94.5 384.5t94.5 384.5t265 266.5t387.5 96q163 0 302.5 -56.5t237 -155t153 -237t55.5 -298.5q0 -214 -94.5 -384.5t-265.5 -267t-388 -96.5zM913 104q171 0 309.5 80t216 220t77.5 313q0 263 -171.5 437.5t-431.5 174.5
q-171 0 -309 -79.5t-215.5 -219.5t-77.5 -313t77.5 -313t215.5 -220t309 -80zM743 315l291 312l-4 2q-76 -54 -149 -54q-106 0 -178 75.5t-72 189.5q0 125 81 204.5t218 79.5q130 0 213.5 -79t83.5 -220q0 -170 -140 -327l-161 -183h-183zM930 698q69 0 111 40t42 106
q0 67 -41.5 106t-111.5 39q-67 0 -111.5 -40.5t-44.5 -106.5q0 -64 44 -104t112 -40z" />
    <glyph glyph-name="uni24EA" unicode="&#x24ea;" horiz-adv-x="1732" 
d="M913 -31q-217 0 -387.5 96.5t-265 267t-94.5 384.5t94.5 384.5t265 266.5t387.5 96q163 0 302.5 -56.5t237 -155t153 -237t55.5 -298.5q0 -214 -94.5 -384.5t-265.5 -267t-388 -96.5zM913 104q171 0 309.5 80t216 220t77.5 313q0 263 -171.5 437.5t-431.5 174.5
q-171 0 -309 -79.5t-215.5 -219.5t-77.5 -313t77.5 -313t215.5 -220t309 -80zM915 307q-160 0 -251 110t-91 306q0 194 91 303t251 109q158 0 248 -109t90 -303q0 -196 -90.5 -306t-247.5 -110zM913 446q93 0 143 73.5t50 203.5q0 127 -50.5 200.5t-142.5 73.5
q-91 0 -141.5 -74t-50.5 -200q0 -129 50.5 -203t141.5 -74z" />
    <glyph glyph-name="uni24FF" unicode="&#x24ff;" horiz-adv-x="1730" 
d="M913 -31q-212 0 -383 97.5t-267.5 269t-96.5 381.5t96.5 381t267.5 268.5t383 97.5t383.5 -97.5t268 -268.5t96.5 -381q0 -157 -57 -296t-155.5 -238t-237.5 -156.5t-298 -57.5zM915 307q157 0 247.5 110t90.5 306q0 194 -90 303t-248 109q-160 0 -251 -109t-91 -303
q0 -196 91 -306t251 -110zM913 446q-91 0 -141.5 74t-50.5 203q0 126 50.5 200t141.5 74q92 0 142.5 -73.5t50.5 -200.5q0 -130 -50 -203.5t-143 -73.5z" />
    <glyph glyph-name="lozenge" unicode="&#x25ca;" horiz-adv-x="1230" 
d="M774 1464l463 -747l-463 -748h-223l-463 748l463 747h223zM664 1229l-310 -512l310 -512l309 512z" />
    <glyph glyph-name="uni2776" unicode="&#x2776;" horiz-adv-x="1730" 
d="M913 -31q-212 0 -383 97.5t-267.5 269t-96.5 381.5t96.5 381t267.5 268.5t383 97.5t383.5 -97.5t268 -268.5t96.5 -381q0 -157 -57 -296t-155.5 -238t-237.5 -156.5t-298 -57.5zM864 334h140v790h-207v-139h67v-651z" />
    <glyph glyph-name="uni2777" unicode="&#x2777;" horiz-adv-x="1730" 
d="M913 -31q-212 0 -383 97.5t-267.5 269t-96.5 381.5t96.5 381t267.5 268.5t383 97.5t383.5 -97.5t268 -268.5t96.5 -381q0 -157 -57 -296t-155.5 -238t-237.5 -156.5t-298 -57.5zM639 352h549v135h-344l203 187q70 67 104.5 124.5t34.5 127.5q0 106 -71.5 170.5
t-199.5 64.5q-132 0 -203.5 -68.5t-76.5 -183.5h139q15 117 141 117q56 0 88.5 -30t32.5 -78q0 -42 -27 -81t-79 -89l-293 -279z" />
    <glyph glyph-name="uni2778" unicode="&#x2778;" horiz-adv-x="1730" 
d="M913 -31q-212 0 -383 97.5t-267.5 269t-96.5 381.5t96.5 381t267.5 268.5t383 97.5t383.5 -97.5t268 -268.5t96.5 -381q0 -157 -57 -296t-155.5 -238t-237.5 -156.5t-298 -57.5zM911 319q146 0 219.5 67t73.5 171q0 88 -48 139t-128 64v2q67 17 105 65.5t38 114.5
q0 90 -69.5 147.5t-192.5 57.5q-128 0 -197 -62t-75 -170h139q6 101 129 101q57 0 88 -25.5t31 -72.5q0 -107 -174 -107v-125q105 0 156 -27.5t51 -89.5q0 -116 -148 -116q-69 0 -107.5 30t-41.5 84h-146q6 -118 86 -183t211 -65z" />
    </font>
</defs>
</svg>
