<?xml version="1.0" standalone="no"?>
<!DOCTYPE svg PUBLIC "-//W3C//DTD SVG 1.1//EN" "http://www.w3.org/Graphics/SVG/1.1/DTD/svg11.dtd" >
<svg xmlns="http://www.w3.org/2000/svg" xmlns:xlink="http://www.w3.org/1999/xlink" version="1.1">
<metadata>
Created by FontForge 20170731 at Sat Jul 23 01:25:00 2022
 By Aleksey,,,
Copyright (c) 2015 by Reto Moser. All rights reserved.
</metadata>
<defs>
<font id="GTEestiProDisplay-Medium" horiz-adv-x="1228" >
  <font-face 
    font-family="GT Eesti Pro Display Medium"
    font-weight="500"
    font-stretch="normal"
    units-per-em="2048"
    panose-1="0 0 6 0 0 0 0 0 0 0"
    ascent="1536"
    descent="-512"
    x-height="946"
    cap-height="1434"
    bbox="-870 -516 2466 1806"
    underline-thickness="102"
    underline-position="-307"
    unicode-range="U+0020-FB02"
  />
<missing-glyph horiz-adv-x="1576" 
d="M788 -31q-213 0 -384 96.5t-267 267.5t-96 384q0 160 56.5 299t155 237.5t237 154.5t298.5 56q214 0 385 -95.5t267 -266.5t96 -385q0 -213 -96 -384t-267 -267.5t-385 -96.5zM788 20q149 0 279 53.5t223 146.5t146 224.5t53 282.5l-105 133l-143 -61l-139 184l-162 -90
l-152 242l-151 -242l-162 90l-139 -184l-143 61l-105 -133q0 -201 90.5 -363t250.5 -253t359 -91zM578 651q-31 0 -51.5 20.5t-20.5 51.5t20.5 51.5t51.5 20.5t51 -20.5t20 -51.5t-20 -51.5t-51 -20.5zM997 651q-31 0 -51 20.5t-20 51.5t20 51.5t51 20.5t51.5 -20.5
t20.5 -51.5t-20.5 -51.5t-51.5 -20.5zM702 522l74 207q1 7 8.5 10t14.5 0q6 -2 9.5 -8.5t0.5 -13.5l-57 -160h69q8 0 13.5 -5.5t5.5 -12.5q0 -6 -6 -11.5t-13 -5.5h-119zM385 350q-61 0 -101 40t-40 102t40 101.5t101 39.5t101 -39.5t40 -101.5t-40 -102t-101 -40zM1190 350
q-61 0 -101 40t-40 102t39.5 101.5t101.5 39.5t101.5 -39.5t39.5 -101.5t-40 -102t-101 -40zM788 395q-95 0 -126 -61q-6 -12 -19 -12q-16 0 -16 18q0 35 49.5 63.5t111.5 28.5t112 -28.5t50 -63.5q0 -18 -16 -18q-13 0 -19 12q-31 61 -127 61z" />
    <glyph glyph-name="fi" unicode="fi" horiz-adv-x="1150" 
d="M190 1040q0 204 103 309t303 105h51v-233h-29q-90 0 -134 -41t-44 -140v-94h195v-211h-195v-735h-250v735h-157v211h157v94zM766 1421h287v-276h-287v276zM782 0v946h252v-946h-252z" />
    <glyph glyph-name="fl" unicode="fl" horiz-adv-x="1148" 
d="M190 1040q0 204 103 309t303 105h51v-233h-29q-90 0 -134 -41t-44 -140v-94h195v-211h-195v-735h-250v735h-157v211h157v94zM782 1434h252v-1434h-252v1434z" />
    <glyph glyph-name="f_f" unicode="ff" horiz-adv-x="1333" 
d="M190 1040q0 204 103 309t303 105h51v-233h-29q-90 0 -134 -41t-44 -140v-94h195v-211h-195v-735h-250v735h-157v211h157v94zM1286 1221q-90 0 -134 -41t-44 -140v-94h195v-211h-195v-735h-250v735h-158v211h158v94q0 204 103 309t303 105h51v-233h-29z" />
    <glyph glyph-name="f_f_i" unicode="ffi" horiz-adv-x="1816" 
d="M190 1040q0 204 103 309t303 105h51v-233h-29q-90 0 -134 -41t-44 -140v-94h195v-211h-195v-735h-250v735h-157v211h157v94zM858 1040q0 204 103 309t303 105h51v-233h-29q-90 0 -134 -41t-44 -140v-94h195v-211h-195v-735h-250v735h-158v211h158v94zM1432 1421h286v-276
h-286v276zM1448 0v946h252v-946h-252z" />
    <glyph glyph-name="f_f_l" unicode="ffl" horiz-adv-x="1816" 
d="M190 1040q0 204 103 309t303 105h51v-233h-29q-90 0 -134 -41t-44 -140v-94h195v-211h-195v-735h-250v735h-157v211h157v94zM858 1040q0 204 103 309t303 105h51v-233h-29q-90 0 -134 -41t-44 -140v-94h195v-211h-195v-735h-250v735h-158v211h158v94zM1448 1434h252
v-1434h-252v1434z" />
    <glyph glyph-name=".notdef" horiz-adv-x="1576" 
d="M788 -31q-213 0 -384 96.5t-267 267.5t-96 384q0 160 56.5 299t155 237.5t237 154.5t298.5 56q214 0 385 -95.5t267 -266.5t96 -385q0 -213 -96 -384t-267 -267.5t-385 -96.5zM788 20q149 0 279 53.5t223 146.5t146 224.5t53 282.5l-105 133l-143 -61l-139 184l-162 -90
l-152 242l-151 -242l-162 90l-139 -184l-143 61l-105 -133q0 -201 90.5 -363t250.5 -253t359 -91zM578 651q-31 0 -51.5 20.5t-20.5 51.5t20.5 51.5t51.5 20.5t51 -20.5t20 -51.5t-20 -51.5t-51 -20.5zM997 651q-31 0 -51 20.5t-20 51.5t20 51.5t51 20.5t51.5 -20.5
t20.5 -51.5t-20.5 -51.5t-51.5 -20.5zM702 522l74 207q1 7 8.5 10t14.5 0q6 -2 9.5 -8.5t0.5 -13.5l-57 -160h69q8 0 13.5 -5.5t5.5 -12.5q0 -6 -6 -11.5t-13 -5.5h-119zM385 350q-61 0 -101 40t-40 102t40 101.5t101 39.5t101 -39.5t40 -101.5t-40 -102t-101 -40zM1190 350
q-61 0 -101 40t-40 102t39.5 101.5t101.5 39.5t101.5 -39.5t39.5 -101.5t-40 -102t-101 -40zM788 395q-95 0 -126 -61q-6 -12 -19 -12q-16 0 -16 18q0 35 49.5 63.5t111.5 28.5t112 -28.5t50 -63.5q0 -18 -16 -18q-13 0 -19 12q-31 61 -127 61z" />
    <glyph glyph-name=".null" horiz-adv-x="0" 
 />
    <glyph glyph-name="nonmarkingreturn" horiz-adv-x="682" 
 />
    <glyph glyph-name="NULL" horiz-adv-x="0" 
 />
    <glyph glyph-name="NULL" horiz-adv-x="0" 
 />
    <glyph glyph-name="space" unicode=" " horiz-adv-x="567" 
 />
    <glyph glyph-name="exclam" unicode="!" horiz-adv-x="661" 
d="M242 451l-58 983h291l-55 -983h-178zM473 285v-285h-285v285h285z" />
    <glyph glyph-name="quotedbl" unicode="&#x22;" horiz-adv-x="657" 
d="M150 946l-48 518h197l-47 -518h-102zM406 946l-48 518h197l-47 -518h-102z" />
    <glyph glyph-name="numbersign" unicode="#" horiz-adv-x="1302" 
d="M1200 915h-244l-65 -356h231v-119h-254l-80 -440h-129l80 440h-278l-80 -440h-129l80 440h-230v119h252l64 356h-238v119h260l72 400h129l-72 -400h279l72 400h129l-72 -400h223v-119zM762 559l65 356h-280l-64 -356h279z" />
    <glyph glyph-name="dollar" unicode="$" horiz-adv-x="1089" 
d="M1028 387q0 -186 -119 -297.5t-323 -120.5v-127h-58v127q-219 6 -343 127t-124 316h258q7 -107 60 -156.5t149 -54.5v403q-150 63 -204 95q-158 93 -192 241q-11 47 -11 100q0 169 108.5 267t298.5 106v148h58v-148q190 -8 304 -110t114 -299h-256q-6 167 -162 176v-330
q150 -62 191 -83q167 -86 221 -217q30 -72 30 -163zM375 1042q0 -56 39.5 -94.5t113.5 -73.5v306q-74 -5 -113.5 -40t-39.5 -98zM586 201q95 6 140.5 49.5t45.5 116.5q0 75 -48 124t-138 89v-379z" />
    <glyph glyph-name="percent" unicode="%" horiz-adv-x="1585" 
d="M434 1413q147 0 239.5 -92.5t92.5 -239.5q0 -148 -92.5 -239.5t-239.5 -91.5q-146 0 -239 91.5t-93 239.5q0 147 93.5 239.5t238.5 92.5zM311 0l811 1382h138l-811 -1382h-138zM434 1284q-88 0 -141 -56t-53 -147t53 -146.5t141 -55.5t141.5 55.5t53.5 146.5t-53.5 147
t-141.5 56zM1151 653q147 0 239.5 -91.5t92.5 -239.5q0 -147 -92.5 -239.5t-239.5 -92.5t-239.5 92.5t-92.5 239.5q0 148 92.5 239.5t239.5 91.5zM1151 524q-88 0 -141.5 -55.5t-53.5 -146.5t53.5 -147t141.5 -56t141.5 56t53.5 147t-53.5 146.5t-141.5 55.5z" />
    <glyph glyph-name="ampersand" unicode="&#x26;" horiz-adv-x="1433" 
d="M1364 637q-114 -234 -209 -361l201 -276h-299l-72 100q-165 -131 -389 -131q-228 0 -370 123t-142 346q0 160 86 278.5t242 170.5q-86 125 -86 250q0 129 91 202.5t257 73.5q153 0 309 -55l-72 -221q-131 41 -219 41q-102 0 -102 -76q0 -47 53 -121l361 -498
q56 83 143 265zM594 215q131 0 244 86l-291 399q-97 -28 -152 -92.5t-55 -156.5q0 -110 69 -173t185 -63z" />
    <glyph glyph-name="quotesingle" unicode="'" horiz-adv-x="421" 
d="M319 1464l-47 -518h-122l-48 518h217z" />
    <glyph glyph-name="parenleft" unicode="(" horiz-adv-x="645" 
d="M422 1591l182 -121q-139 -198 -213 -406t-74 -468q0 -494 283 -915l-182 -121q-75 114 -129 217t-102 231t-72.5 275.5t-24.5 312.5q0 161 24.5 302.5t72.5 263.5t102.5 220t132.5 209z" />
    <glyph glyph-name="parenright" unicode=")" horiz-adv-x="645" 
d="M227 -440l-182 121q281 418 281 915q0 261 -73.5 469t-213.5 405l184 121q77 -111 131 -209t102.5 -220t72.5 -263.5t24 -302.5q0 -165 -24.5 -312.5t-71.5 -275t-101 -231.5t-129 -217z" />
    <glyph glyph-name="asterisk" unicode="*" horiz-adv-x="862" 
d="M801 1133l-254 -64l168 -201l-146 -106l-137 221l-141 -223l-144 108l168 199l-254 66l56 167l243 -98l-18 262h178l-18 -260l243 96z" />
    <glyph glyph-name="plus" unicode="+" 
d="M674 1108v-442h440v-111h-440v-442h-119v442h-440v111h440v442h119z" />
    <glyph glyph-name="comma" unicode="," horiz-adv-x="483" 
d="M383 285v-285l-164 -313h-115l111 313h-115v285h283z" />
    <glyph glyph-name="hyphen" unicode="-" horiz-adv-x="786" 
d="M690 659v-233h-594v233h594z" />
    <glyph glyph-name="period" unicode="." horiz-adv-x="481" 
d="M383 285v-285h-283v285h283z" />
    <glyph glyph-name="slash" unicode="/" horiz-adv-x="1273" 
d="M1026 1610l186 -103l-964 -1736l-187 100z" />
    <glyph glyph-name="zero" unicode="0" horiz-adv-x="1212" 
d="M606 1413q254 0 390.5 -187t136.5 -534t-137.5 -535t-389.5 -188q-253 0 -389.5 187.5t-136.5 535.5q0 347 136.5 534t389.5 187zM606 1176q-126 0 -196 -127.5t-70 -356.5t70 -357t196 -128q125 0 194.5 128t69.5 357t-69.5 356.5t-194.5 127.5z" />
    <glyph glyph-name="one" unicode="1" horiz-adv-x="667" 
d="M463 1382v-1382h-254v1137h-82v245h336z" />
    <glyph glyph-name="two" unicode="2" horiz-adv-x="1054" 
d="M68 0v193l471 503q98 103 138 171t40 134q0 83 -51 131t-140 48q-97 0 -152.5 -54.5t-56.5 -152.5h-254q3 206 128.5 323t343.5 117q207 0 324.5 -105t117.5 -290q0 -114 -53.5 -216t-180.5 -231l-327 -342l563 2v-231h-911z" />
    <glyph glyph-name="three" unicode="3" horiz-adv-x="1083" 
d="M524 1413q211 0 330 -95.5t119 -264.5q0 -120 -64.5 -203t-181.5 -111v-4q141 -19 217 -108t76 -238q0 -197 -128 -308.5t-355 -111.5q-231 0 -360 111.5t-134 314.5h260q6 -92 68 -142t168 -50q107 0 162 53t55 156q0 110 -69 156.5t-232 45.5h-58v205h58q250 0 250 189
q0 83 -49 127.5t-140 44.5q-92 0 -145 -44.5t-54 -123.5h-256q3 189 126 295t337 106z" />
    <glyph glyph-name="four" unicode="4" horiz-adv-x="1144" 
d="M1090 467v-229h-138v-238h-239v238h-676v200l663 944h252v-915h138zM299 467h414v577h-8z" />
    <glyph glyph-name="five" unicode="5" horiz-adv-x="1095" 
d="M608 911q198 0 317 -123t119 -327q0 -229 -137.5 -360.5t-376.5 -131.5q-157 0 -280 60t-201 174l174 172q118 -172 307 -172q117 0 184.5 69.5t67.5 190.5q0 114 -63 180t-170 66q-68 0 -123.5 -28.5t-89.5 -80.5h-209l72 782h723v-231h-535l-33 -320h4q93 80 250 80z
" />
    <glyph glyph-name="six" unicode="6" horiz-adv-x="1122" 
d="M573 -31q-239 0 -379.5 139.5t-140.5 374.5q0 157 61 299.5t199 304.5l256 306h308l-496 -574l6 -4q60 59 119.5 85t134.5 26q196 0 318 -129t122 -338q0 -217 -142 -353.5t-366 -136.5zM567 203q114 0 183 70t69 184q0 115 -69.5 184.5t-184.5 69.5q-114 0 -183 -70
t-69 -184q0 -115 69.5 -184.5t184.5 -69.5z" />
    <glyph glyph-name="seven" unicode="7" horiz-adv-x="964" 
d="M928 1382v-223l-547 -1159h-268l549 1143h-623v239h889z" />
    <glyph glyph-name="eight" unicode="8" horiz-adv-x="1140" 
d="M569 -31q-232 0 -364.5 110t-132.5 302q0 134 69.5 227.5t190.5 124.5v6q-101 29 -161 112.5t-60 192.5q0 169 124.5 269t333.5 100q211 0 335 -100t124 -269q0 -109 -59 -192.5t-160 -112.5v-6q120 -31 190 -125t70 -227q0 -192 -134 -302t-366 -110zM569 842
q88 0 140.5 48t52.5 128q0 82 -52 129t-141 47q-88 0 -140 -47.5t-52 -128.5q0 -79 53 -127.5t139 -48.5zM569 195q107 0 169.5 59t62.5 162q0 100 -64 160.5t-168 60.5q-103 0 -166 -60.5t-63 -160.5q0 -103 61 -162t168 -59z" />
    <glyph glyph-name="nine" unicode="9" horiz-adv-x="1091" 
d="M242 0l483 559l-4 4q-108 -94 -250 -94q-183 0 -307.5 134t-124.5 329q0 212 142 346.5t366 134.5q233 0 370.5 -140.5t137.5 -379.5q0 -155 -65.5 -301t-213.5 -318l-233 -274h-301zM549 684q109 0 177.5 68t68.5 178t-69 179t-179 69q-111 0 -179.5 -68t-68.5 -180
q0 -109 69 -177.5t181 -68.5z" />
    <glyph glyph-name="colon" unicode=":" horiz-adv-x="481" 
d="M383 946v-284h-285v284h285zM383 285v-285h-285v285h285z" />
    <glyph glyph-name="semicolon" unicode=";" horiz-adv-x="483" 
d="M385 946v-284h-285v284h285zM383 285v-285l-164 -313h-115l111 313h-115v285h283z" />
    <glyph glyph-name="less" unicode="&#x3c;" 
d="M1083 1090v-132l-800 -346l800 -344v-131l-938 414v125z" />
    <glyph glyph-name="equal" unicode="=" 
d="M1133 877v-115h-1037v115h1037zM1133 467v-115h-1037v115h1037z" />
    <glyph glyph-name="greater" unicode="&#x3e;" 
d="M145 1090l938 -414v-125l-938 -414v131l801 344l-801 346v132z" />
    <glyph glyph-name="question" unicode="?" horiz-adv-x="993" 
d="M502 1464q196 0 304.5 -107.5t108.5 -277.5q0 -102 -39 -174t-108 -139q-6 -6 -35.5 -33.5t-37 -35.5t-30 -32.5t-30 -39t-19.5 -39t-16 -49t-4 -52.5v-34h-248v59q0 34 5.5 66.5t13 57t23 52.5t26 45t32.5 42.5t32.5 36.5t36.5 37l34 34q55 53 83 95.5t28 92.5
q0 70 -42 112t-124 42q-87 0 -139 -53t-52 -140h-248q0 202 117.5 318t327.5 116zM614 285v-285h-284v285h284z" />
    <glyph glyph-name="at" unicode="@" horiz-adv-x="1918" 
d="M983 1413q249 0 440 -97t296.5 -275.5t105.5 -413.5q0 -105 -23.5 -198t-68.5 -166t-117.5 -116t-163.5 -43q-185 0 -250 164h-6q-39 -73 -111.5 -118.5t-177.5 -45.5q-169 0 -285 121t-116 326q0 206 116.5 326t286.5 120q181 0 269 -151h2v121h206v-572q0 -119 91 -119
q71 0 116 85.5t45 242.5q0 156 -51.5 279t-141 199.5t-206 116.5t-252.5 40q-118 0 -223 -26.5t-193.5 -82.5t-153 -137t-100.5 -195.5t-36 -252.5q0 -137 40.5 -251t109.5 -191.5t161 -131.5t193.5 -79t209.5 -25q193 0 377 76l66 -164q-232 -86 -445 -86q-131 0 -257 30.5
t-243 98t-205 164.5t-141 240t-53 315q0 206 66 371.5t184.5 274.5t281 167.5t357.5 58.5zM961 786q-98 0 -162 -66t-64 -167q0 -103 63.5 -169.5t162.5 -66.5q98 0 160.5 66.5t62.5 169.5q0 102 -62.5 167.5t-160.5 65.5z" />
    <glyph glyph-name="A" unicode="A" horiz-adv-x="1425" 
d="M1128 0l-120 326h-590l-121 -326h-291l576 1434h262l575 -1434h-291zM504 563h418l-209 561z" />
    <glyph glyph-name="B" unicode="B" horiz-adv-x="1271" 
d="M913 760q134 -21 212.5 -109.5t78.5 -244.5q0 -102 -37 -181.5t-102 -127.5t-147 -72.5t-177 -24.5h-606v1434h567q195 0 313 -93.5t118 -267.5q0 -116 -56.5 -195.5t-163.5 -113.5v-4zM662 1192h-265v-344h254q100 0 153.5 45.5t53.5 128.5t-53 126.5t-143 43.5z
M696 242q107 0 168.5 50.5t61.5 139.5q0 91 -61.5 141t-178.5 50h-289v-381h299z" />
    <glyph glyph-name="C" unicode="C" horiz-adv-x="1382" 
d="M834 -31q-168 0 -311.5 53.5t-246 150t-160 237t-57.5 307.5q0 223 99 393.5t275 262t401 91.5q287 0 512 -157l-152 -230q-172 119 -363 119q-212 0 -348.5 -131t-136.5 -348t136.5 -348t348.5 -131q193 0 363 118l152 -229q-226 -158 -512 -158z" />
    <glyph glyph-name="D" unicode="D" horiz-adv-x="1398" 
d="M594 1434q216 0 384 -85t264.5 -249t96.5 -383t-96.5 -383t-264.5 -249t-384 -85h-459v1434h459zM606 1192h-209v-950h209q200 0 325.5 125t125.5 350t-125.5 350t-325.5 125z" />
    <glyph glyph-name="E" unicode="E" horiz-adv-x="1075" 
d="M397 242h598v-242h-860v1434h850v-242h-588v-291h537v-242h-537v-417z" />
    <glyph glyph-name="F" unicode="F" horiz-adv-x="1044" 
d="M1004 1192h-607v-356h545v-242h-545v-594h-262v1434h869v-242z" />
    <glyph glyph-name="G" unicode="G" horiz-adv-x="1570" 
d="M1528 811q2 -29 2 -82q0 -124 -27.5 -236t-85 -208t-140.5 -166t-201 -110t-259 -40q-219 0 -390.5 90.5t-269.5 261.5t-98 396q0 220 94 389t269.5 263.5t406.5 94.5q322 0 557 -190l-174 -223q-173 145 -393 145q-215 0 -344 -135.5t-129 -343.5q0 -212 131.5 -345.5
t351.5 -133.5q99 0 179 29.5t129.5 78t77.5 105.5t34 118h-411v242h690z" />
    <glyph glyph-name="H" unicode="H" horiz-adv-x="1474" 
d="M1077 1434h262v-1434h-262v629h-680v-629h-262v1434h262v-555h680v555z" />
    <glyph glyph-name="I" unicode="I" horiz-adv-x="534" 
d="M399 1434v-1434h-264v1434h264z" />
    <glyph glyph-name="J" unicode="J" horiz-adv-x="587" 
d="M453 1434v-1076q0 -188 -84 -277t-256 -89h-86v250h59q53 0 78.5 29.5t25.5 99.5v1063h263z" />
    <glyph glyph-name="K" unicode="K" horiz-adv-x="1402" 
d="M1399 0h-381l-621 702v-702h-262v1434h262v-637l541 637h360l-608 -664z" />
    <glyph glyph-name="L" unicode="L" horiz-adv-x="1001" 
d="M397 1434v-1186h598v-248h-860v1434h262z" />
    <glyph glyph-name="M" unicode="M" horiz-adv-x="1787" 
d="M1425 1434l357 -1434h-277l-217 926h-4l-295 -713h-190l-295 713h-4l-219 -926h-275l356 1434h205l324 -811h4l326 811h204z" />
    <glyph glyph-name="N" unicode="N" horiz-adv-x="1474" 
d="M1339 1434v-1434h-243l-697 983h-2v-983h-262v1434h244l696 -985h2v985h262z" />
    <glyph glyph-name="O" unicode="O" horiz-adv-x="1619" 
d="M809 1464q158 0 297 -55t239 -151.5t158 -237t58 -303.5q0 -218 -99 -389.5t-270 -265t-383 -93.5t-382.5 93.5t-269 265t-98.5 389.5q0 164 57.5 304t157.5 236.5t238.5 151.5t296.5 55zM809 1196q-202 0 -332.5 -133.5t-130.5 -345.5t130.5 -345.5t332.5 -133.5
q203 0 333 133t130 346t-130 346t-333 133z" />
    <glyph glyph-name="P" unicode="P" horiz-adv-x="1140" 
d="M635 1434q233 0 358 -124t125 -323q0 -133 -52.5 -234.5t-163 -162t-267.5 -60.5h-238v-530h-262v1434h500zM606 772q108 0 170 54.5t62 158.5q0 102 -61.5 154.5t-170.5 52.5h-209v-420h209z" />
    <glyph glyph-name="Q" unicode="Q" horiz-adv-x="1630" 
d="M1616 0h-313l-80 80q-183 -111 -414 -111q-212 0 -382.5 93.5t-269 265t-98.5 389.5q0 164 57.5 304t157.5 236.5t238.5 151.5t296.5 55t297 -55t239 -151.5t158 -237t58 -303.5q0 -286 -170 -490zM809 238q119 0 211 47l-311 313h315l166 -168q82 121 82 287
q0 213 -130 346t-333 133q-202 0 -332.5 -133.5t-130.5 -345.5t130.5 -345.5t332.5 -133.5z" />
    <glyph glyph-name="R" unicode="R" horiz-adv-x="1224" 
d="M885 0l-389 571h-99v-571h-262v1434h529q212 0 337 -120t125 -315q0 -161 -89 -272t-246 -143l423 -584h-329zM397 1192v-389h226q112 0 167.5 49.5t55.5 142.5q0 91 -56 144t-167 53h-226z" />
    <glyph glyph-name="S" unicode="S" horiz-adv-x="1067" 
d="M551 1464q202 0 420 -100l-113 -240q-174 88 -305 88q-150 0 -150 -104q0 -40 25 -72t86 -75l248 -175q126 -86 186 -179.5t60 -223.5q0 -200 -130.5 -307t-359.5 -107q-270 0 -495 140l116 239q211 -125 387 -125q99 0 151 39.5t52 106.5q0 52 -34 92.5t-111 95.5
l-232 166q-227 155 -227 377q0 169 111.5 266.5t314.5 97.5z" />
    <glyph glyph-name="T" unicode="T" horiz-adv-x="1077" 
d="M1061 1434v-242h-391v-1192h-262v1192h-392v242h1045z" />
    <glyph glyph-name="U" unicode="U" horiz-adv-x="1419" 
d="M1300 1434v-869q0 -274 -155.5 -434t-433.5 -160q-280 0 -436 160t-156 434v869h276v-852q0 -155 85.5 -247.5t230.5 -92.5q143 0 228 92.5t85 247.5v852h276z" />
    <glyph glyph-name="V" unicode="V" horiz-adv-x="1337" 
d="M1331 1434l-530 -1434h-264l-531 1434h307l353 -1082h6l352 1082h307z" />
    <glyph glyph-name="W" unicode="W" horiz-adv-x="2095" 
d="M2073 1434l-455 -1434h-242l-325 1006h-7l-325 -1006h-242l-454 1434h301l276 -1014h4l322 1014h243l324 -1014h4l277 1014h299z" />
    <glyph glyph-name="X" unicode="X" horiz-adv-x="1368" 
d="M1356 0h-324l-348 545l-348 -545h-324l506 760l-450 674h325l291 -457l293 457h323l-450 -674z" />
    <glyph glyph-name="Y" unicode="Y" horiz-adv-x="1222" 
d="M1223 1434l-480 -885v-549h-264v547l-479 887h309l299 -617h6l299 617h310z" />
    <glyph glyph-name="Z" unicode="Z" horiz-adv-x="1134" 
d="M362 246h732v-246h-1053v246l709 942h-650v246h969v-246z" />
    <glyph glyph-name="bracketleft" unicode="[" horiz-adv-x="706" 
d="M686 1554v-200h-266v-1596h266v-198h-496v1994h496z" />
    <glyph glyph-name="backslash" unicode="\" horiz-adv-x="1273" 
d="M1024 -229l-963 1736l187 103l964 -1739z" />
    <glyph glyph-name="bracketright" unicode="]" horiz-adv-x="706" 
d="M20 -440v198h267v1596h-267v200h496v-1994h-496z" />
    <glyph glyph-name="asciicircum" unicode="^" 
d="M733 1464l295 -659h-184l-230 526l-229 -526h-184l295 659h237z" />
    <glyph glyph-name="underscore" unicode="_" horiz-adv-x="1091" 
d="M1071 -31v-196h-1051v196h1051z" />
    <glyph glyph-name="grave" unicode="`" horiz-adv-x="714" 
d="M399 1448l213 -315h-196l-314 315h297z" />
    <glyph glyph-name="a" unicode="a" horiz-adv-x="1183" 
d="M508 -31q-94 0 -176 33.5t-144.5 96t-98.5 159.5t-36 215t36 215t98.5 159.5t144.5 96t176 33.5q216 0 315 -164h4v133h250v-946h-250v133h-4q-99 -164 -315 -164zM571 207q114 0 185 73t71 193t-71 193t-185 73t-185 -73t-71 -193t71 -193t185 -73z" />
    <glyph glyph-name="b" unicode="b" horiz-adv-x="1193" 
d="M686 -31q-216 0 -315 164h-4v-133h-252v1434h252v-621h4q99 164 315 164q94 0 176 -33.5t144.5 -96t98.5 -159.5t36 -215t-36 -215t-98.5 -159.5t-144.5 -96t-176 -33.5zM623 207q114 0 185 73t71 193t-71 193t-185 73t-185 -73t-71 -193t71 -193t185 -73z" />
    <glyph glyph-name="c" unicode="c" horiz-adv-x="935" 
d="M575 -31q-230 0 -376 139t-146 365t146 365t376 139q181 0 332 -94l-108 -207q-102 65 -219 65q-118 0 -193.5 -74.5t-75.5 -193.5t75.5 -193.5t193.5 -74.5q117 0 219 65l108 -207q-151 -94 -332 -94z" />
    <glyph glyph-name="d" unicode="d" horiz-adv-x="1193" 
d="M508 -31q-94 0 -176 33.5t-144.5 96t-98.5 159.5t-36 215t36 215t98.5 159.5t144.5 96t176 33.5q216 0 315 -164h4v621h250v-1434h-250v133h-4q-99 -164 -315 -164zM571 207q114 0 185 73t71 193t-71 193t-185 73t-185 -73t-71 -193t71 -193t185 -73z" />
    <glyph glyph-name="e" unicode="e" horiz-adv-x="1052" 
d="M545 977q217 0 338 -132t121 -374v-49h-707q10 -107 83 -168t183 -61q154 0 283 129l127 -183q-183 -170 -410 -170q-231 0 -370.5 138t-139.5 364q0 227 135 366.5t357 139.5zM532 774q-94 0 -154 -47.5t-75 -142.5h447q-6 89 -65 139.5t-153 50.5z" />
    <glyph glyph-name="f" unicode="f" horiz-adv-x="667" 
d="M618 1221q-90 0 -134 -41t-44 -140v-94h195v-211h-195v-735h-250v735h-157v211h157v94q0 204 103 309t303 105h51v-233h-29z" />
    <glyph glyph-name="g" unicode="g" horiz-adv-x="1183" 
d="M602 -440q-157 0 -385 45l45 239q195 -47 330 -47q128 0 181.5 54.5t53.5 193.5v88h-4q-106 -158 -317 -158q-94 0 -175.5 33.5t-143.5 95.5t-98 157t-36 212q0 118 36 215t98.5 159.5t144.5 96t176 33.5q216 0 315 -164h4v133h250v-946q-1 -123 -35 -210t-98.5 -136.5
t-147.5 -71.5t-194 -22zM571 207q114 0 185 73t71 193t-71 193t-185 73t-185 -73t-71 -193t71 -193t185 -73z" />
    <glyph glyph-name="h" unicode="h" horiz-adv-x="1134" 
d="M367 1434v-623h4q105 166 307 166q163 0 259.5 -96.5t96.5 -296.5v-584h-252v524q0 219 -196 219q-102 0 -160.5 -67t-58.5 -213v-463h-252v1434h252z" />
    <glyph glyph-name="i" unicode="i" horiz-adv-x="483" 
d="M385 1421v-276h-287v276h287zM115 0v946h252v-946h-252z" />
    <glyph glyph-name="j" unicode="j" horiz-adv-x="483" 
d="M385 1421v-276h-287v276h287zM-43 -184h43q61 0 88 29.5t27 95.5v1005h252v-1016q0 -171 -83 -258.5t-245 -87.5h-82v232z" />
    <glyph glyph-name="k" unicode="k" horiz-adv-x="1058" 
d="M1049 0h-328l-354 451v-451h-252v1434h252v-877l311 389h319l-387 -430z" />
    <glyph glyph-name="l" unicode="l" horiz-adv-x="483" 
d="M367 1434v-1434h-252v1434h252z" />
    <glyph glyph-name="m" unicode="m" horiz-adv-x="1683" 
d="M111 0v946h247v-143h4q39 86 114.5 130t174.5 44q214 0 291 -189h4q46 93 127.5 141t181.5 48q146 0 238 -96.5t92 -280.5v-600h-252v547q0 95 -43.5 145.5t-128.5 50.5q-88 0 -139 -62.5t-51 -199.5v-481h-248v547q0 196 -170 196q-88 0 -140.5 -63t-52.5 -201v-479
h-249z" />
    <glyph glyph-name="n" unicode="n" horiz-adv-x="1128" 
d="M672 977q163 0 259.5 -96.5t96.5 -296.5v-584h-252v524q0 219 -194 219q-103 0 -162.5 -67t-59.5 -213v-463h-249v946h247v-143h4q48 83 127.5 128.5t182.5 45.5z" />
    <glyph glyph-name="o" unicode="o" horiz-adv-x="1153" 
d="M578 977q227 0 375.5 -141.5t148.5 -362.5t-148.5 -362.5t-375.5 -141.5t-376 141.5t-149 362.5t149 362.5t376 141.5zM578 739q-117 0 -192 -73t-75 -193t75 -193t192 -73t190.5 73t73.5 193t-73.5 193t-190.5 73z" />
    <glyph glyph-name="p" unicode="p" horiz-adv-x="1187" 
d="M111 -410v1356h249v-133h5q99 164 315 164q94 0 176 -33.5t144.5 -96t98.5 -159.5t36 -215t-36 -215t-98.5 -159.5t-144.5 -96t-176 -33.5q-216 0 -315 164h-5v-543h-249zM616 207q114 0 185 73t71 193t-71 193t-185 73t-185 -73t-71 -193t71 -193t185 -73z" />
    <glyph glyph-name="q" unicode="q" horiz-adv-x="1183" 
d="M827 -410v543h-4q-99 -164 -315 -164q-94 0 -176 33.5t-144.5 96t-98.5 159.5t-36 215t36 215t98.5 159.5t144.5 96t176 33.5q216 0 315 -164h4v133h250v-1356h-250zM571 207q114 0 185 73t71 193t-71 193t-185 73t-185 -73t-71 -193t71 -193t185 -73z" />
    <glyph glyph-name="r" unicode="r" horiz-adv-x="706" 
d="M686 975v-270h-29q-154 0 -225.5 -74t-71.5 -244v-387h-249v946h247v-201h4q37 111 117.5 170.5t196.5 59.5h10z" />
    <glyph glyph-name="s" unicode="s" horiz-adv-x="856" 
d="M432 -31q-225 0 -405 101l102 213q169 -99 317 -99q117 0 117 68q0 26 -18.5 43t-63.5 39l-170 74q-213 94 -213 282q0 138 94.5 212.5t272.5 74.5q157 0 336 -66l-84 -211q-153 66 -266 66q-97 0 -97 -57q0 -27 19.5 -45.5t70.5 -40.5l170 -74q104 -43 156.5 -109
t52.5 -168q0 -152 -104 -227.5t-287 -75.5z" />
    <glyph glyph-name="t" unicode="t" horiz-adv-x="684" 
d="M647 735h-194v-397q0 -58 22.5 -82.5t77.5 -24.5h43v-233h-111q-136 0 -210 70.5t-74 210.5v456h-174v211h174v379h252v-379h194v-211z" />
    <glyph glyph-name="u" unicode="u" horiz-adv-x="1107" 
d="M451 -31q-155 0 -253 99t-98 299v579h258v-534q0 -107 47 -159t132 -52q208 0 208 291v454h252v-946h-247v145h-5q-98 -176 -294 -176z" />
    <glyph glyph-name="v" unicode="v" horiz-adv-x="1038" 
d="M741 946h287l-387 -946h-246l-385 946h285l223 -655z" />
    <glyph glyph-name="w" unicode="w" horiz-adv-x="1560" 
d="M1288 946h262l-329 -946h-224l-217 618l-217 -618h-223l-330 946h262l183 -622l207 622h237l207 -622z" />
    <glyph glyph-name="x" unicode="x" horiz-adv-x="1079" 
d="M764 0l-225 319l-226 -319h-303l377 498l-332 448h305l179 -274l180 274h305l-332 -448l377 -498h-305z" />
    <glyph glyph-name="y" unicode="y" horiz-adv-x="1064" 
d="M791 946h264l-606 -1356h-261l232 498l-410 858h295l240 -573z" />
    <glyph glyph-name="z" unicode="z" horiz-adv-x="907" 
d="M348 221h518v-221h-823v203l481 522h-454v221h761v-201z" />
    <glyph glyph-name="braceleft" unicode="{" horiz-adv-x="835" 
d="M815 1544v-213h-61q-33 0 -59 -5t-52.5 -19t-44 -37.5t-28.5 -63.5t-11 -94v-217q0 -138 -56 -219.5t-179 -110.5v-4q123 -29 179 -110.5t56 -219.5v-241q0 -67 15.5 -112t45 -67t61 -30t73.5 -8h61v-213h-80q-79 0 -147.5 21.5t-127 67.5t-92.5 130t-34 198v263
q0 95 -69.5 147.5t-192.5 58.5v234q123 6 192.5 59t69.5 148v237q0 114 34 198.5t92.5 131t127 68.5t147.5 22h80z" />
    <glyph glyph-name="bar" unicode="|" horiz-adv-x="649" 
d="M424 1489v-1929h-199v1929h199z" />
    <glyph glyph-name="braceright" unicode="}" horiz-adv-x="835" 
d="M20 -440v213h62q42 0 73.5 8t61.5 30t46 67t16 112v241q0 139 55 220t178 110v4q-123 29 -178 110t-55 220v217q0 54 -11 94t-28.5 63.5t-44.5 37.5t-53 19t-60 5h-62v213h80q62 0 118.5 -13t109 -44t90.5 -78t61 -120t23 -165v-237q0 -95 69.5 -148t192.5 -59v-234
q-123 -6 -192.5 -58.5t-69.5 -147.5v-263q0 -92 -23 -165t-61 -119.5t-91 -77t-108.5 -43t-118.5 -12.5h-80z" />
    <glyph glyph-name="asciitilde" unicode="~" 
d="M401 799q66 0 130 -19.5t106 -43t96.5 -43t104.5 -19.5q48 0 94 18.5t70 35.5t75 58l109 -172q-185 -153 -357 -153q-64 0 -126 19t-104 42.5t-98 42.5t-108 19q-46 0 -90 -17t-67.5 -33.5t-69.5 -53.5q-3 -3 -5 -4t-4.5 -3t-4.5 -4l-109 172q97 80 181.5 119t176.5 39z
" />
    <glyph glyph-name="exclamdown" unicode="&#xa1;" horiz-adv-x="661" 
d="M188 739v285h285v-285h-285zM184 -410l58 983h178l55 -983h-291z" />
    <glyph glyph-name="cent" unicode="&#xa2;" horiz-adv-x="925" 
d="M864 285v-246q-127 -67 -270 -70v-100h-57v102q-209 15 -339 154t-130 348t132 348.5t337 153.5v112h57v-110q147 -3 264 -64v-243q-83 38 -142 53.5t-122 15.5v-532q59 0 120 18t150 60zM328 475q0 -107 57.5 -176.5t151.5 -87.5v524q-95 -18 -152 -86.5t-57 -173.5z
" />
    <glyph glyph-name="sterling" unicode="&#xa3;" horiz-adv-x="1103" 
d="M403 238l3 -7h602v-231h-889v188q103 58 168 138.5t65 169.5q0 35 -15 76.5t-26 61t-43 73.5h-186v61h149q-67 120 -67 242q0 183 119.5 293t332.5 110q198 0 319.5 -105.5t121.5 -314.5h-260q-4 90 -53 137.5t-134 47.5q-86 0 -135 -49.5t-49 -129.5q0 -36 14.5 -79.5
t29 -72t44.5 -79.5h346v-61h-309q61 -113 61 -193q0 -165 -209 -276z" />
    <glyph glyph-name="currency" unicode="&#xa4;" 
d="M1102 664q0 -194 -123 -326l113 -113l-41 -39l-113 113q-133 -111 -324 -111q-190 0 -323 111l-115 -113l-39 41l113 111q-123 132 -123 326t123 323l-113 113l41 41l113 -115q135 113 323 113q189 0 324 -113l113 115l41 -41l-113 -113q123 -132 123 -323zM614 414
q111 0 180.5 69t69.5 181q0 110 -70 179.5t-180 69.5t-179.5 -69.5t-69.5 -179.5q0 -112 69 -181t180 -69z" />
    <glyph glyph-name="yen" unicode="&#xa5;" horiz-adv-x="1247" 
d="M1200 1382l-348 -692h235v-61h-268l-57 -115h325v-61h-342v-453h-245v453h-342v61h325l-57 115h-268v61h237l-348 692h299l277 -639l278 639h299z" />
    <glyph glyph-name="brokenbar" unicode="&#xa6;" horiz-adv-x="649" 
d="M424 1489v-795h-199v795h199zM424 371v-811h-199v811h199z" />
    <glyph glyph-name="section" unicode="&#xa7;" horiz-adv-x="1157" 
d="M1055 549q0 -202 -185 -330q86 -86 86 -215q0 -151 -104 -239.5t-295 -88.5q-215 0 -389 117l123 199q142 -94 284 -94q71 0 107.5 27t36.5 73q0 41 -34 74.5t-88.5 59.5t-120 53t-131.5 62.5t-120.5 79t-88.5 112t-34 153.5q0 206 185 328q-88 91 -88 215q0 151 105 240
t296 89q205 0 389 -112l-123 -203q-142 92 -286 92q-70 0 -107 -27t-37 -71q0 -36 26.5 -67t70 -53t99 -47.5t114 -49.5t114 -60t99 -77t70 -103t26.5 -137zM340 610q0 -33 15.5 -61.5t36.5 -49t60 -43.5t69 -37t82 -37.5t81 -37.5q131 81 131 184q0 33 -15.5 62t-35.5 49.5
t-60 44.5t-68 37.5t-82 38t-81 37.5q-133 -82 -133 -187z" />
    <glyph glyph-name="dieresis" unicode="&#xa8;" horiz-adv-x="817" 
d="M330 1413v-260h-228v260h228zM715 1413v-260h-228v260h228z" />
    <glyph glyph-name="copyright" unicode="&#xa9;" horiz-adv-x="1695" 
d="M848 -31q-154 0 -291.5 56t-237.5 154t-158.5 238t-58.5 300q0 214 99.5 385.5t270 266.5t376.5 95t376.5 -95t269.5 -266.5t99 -385.5q0 -160 -58 -300t-158 -238t-237.5 -154t-291.5 -56zM848 104q167 0 304 76t217.5 217t80.5 320t-80.5 319.5t-217.5 216.5t-304 76
t-304 -76t-217.5 -216.5t-80.5 -319.5t80.5 -320t217.5 -217t304 -76zM860 262q-206 0 -341.5 132.5t-135.5 332.5t135.5 332.5t341.5 132.5q165 0 309 -100l-88 -154q-114 74 -227 74q-123 0 -199.5 -79t-76.5 -206q0 -129 76.5 -207t199.5 -78q109 0 227 72l88 -154
q-141 -98 -309 -98z" />
    <glyph glyph-name="ordfeminine" unicode="&#xaa;" horiz-adv-x="917" 
d="M403 692q-128 0 -216.5 89.5t-88.5 244.5t88.5 244.5t216.5 89.5q147 0 215 -119h5v98h196v-626h-196v98h-5q-68 -119 -215 -119zM463 872q68 0 113 42t45 112t-45 112t-113 42q-69 0 -113.5 -41.5t-44.5 -112.5t44.5 -112.5t113.5 -41.5z" />
    <glyph glyph-name="guillemotleft" unicode="&#xab;" horiz-adv-x="1064" 
d="M629 823l-318 -340l318 -342h-275l-317 342l317 340h275zM1044 823l-317 -340l317 -342h-276l-315 342l315 340h276z" />
    <glyph glyph-name="logicalnot" unicode="&#xac;" 
d="M145 885h938v-117v-426h-120v426h-818v117z" />
    <glyph glyph-name="uni00AD" unicode="&#xad;" horiz-adv-x="786" 
d="M690 659v-233h-594v233h594z" />
    <glyph glyph-name="registered" unicode="&#xae;" horiz-adv-x="1146" 
d="M573 1464q210 0 345 -135t135 -348q0 -214 -135 -349.5t-345 -135.5t-344.5 135.5t-134.5 349.5q0 213 134.5 348t344.5 135zM573 590q168 0 274.5 108.5t106.5 282.5t-106.5 281.5t-274.5 107.5t-274 -107.5t-106 -281.5t106 -282.5t274 -108.5zM778 1106
q0 -60 -31.5 -102.5t-87.5 -57.5l138 -215h-107l-125 209h-63v-209h-90v533h196q76 0 123 -43.5t47 -114.5zM502 1180v-156h94q42 0 65 21.5t23 56.5q0 36 -23 57t-65 21h-94z" />
    <glyph glyph-name="macron" unicode="&#xaf;" horiz-adv-x="831" 
d="M729 1366v-174h-627v174h627z" />
    <glyph glyph-name="degree" unicode="&#xb0;" horiz-adv-x="739" 
d="M369 1413q125 0 206.5 -80t81.5 -207q0 -128 -81 -208t-207 -80q-124 0 -205.5 80t-81.5 208q0 126 81.5 206.5t205.5 80.5zM369 1298q-73 0 -121.5 -48t-48.5 -124q0 -77 48.5 -125.5t121.5 -48.5t121.5 48.5t48.5 125.5q0 76 -48.5 124t-121.5 48z" />
    <glyph glyph-name="plusminus" unicode="&#xb1;" 
d="M674 1067v-272h430v-113h-430v-272h-119v272h-430v113h430v272h119zM1104 319v-116h-979v116h979z" />
    <glyph glyph-name="uni00B2" unicode="&#xb2;" horiz-adv-x="821" 
d="M80 713v186l321 287q66 58 93.5 94.5t27.5 77.5q0 42 -29 66t-81 24q-56 0 -91 -30.5t-36 -94.5h-217q2 152 91 238t259 86q158 0 244 -72.5t86 -204.5q0 -87 -42.5 -157t-125.5 -138l-189 -155h365v-207h-676z" />
    <glyph glyph-name="uni00B3" unicode="&#xb3;" horiz-adv-x="839" 
d="M420 692q-165 0 -259.5 72.5t-97.5 232.5h213q7 -106 140 -106q69 0 105 27.5t36 80.5q0 60 -48.5 81.5t-156.5 21.5v155q176 3 176 101q0 92 -116 92q-56 0 -89 -26.5t-36 -77.5h-211q0 138 89 218.5t259 80.5q154 0 241 -66t87 -178q0 -78 -46 -132t-128 -69v-4
q94 -12 146 -67.5t52 -153.5q0 -126 -88.5 -204.5t-267.5 -78.5z" />
    <glyph glyph-name="acute" unicode="&#xb4;" horiz-adv-x="714" 
d="M612 1448l-313 -315h-197l213 315h297z" />
    <glyph glyph-name="paragraph" unicode="&#xb6;" horiz-adv-x="1306" 
d="M1204 1434v-189h-127v-1462h-190v1462h-199v-1462h-188v852q-177 0 -287.5 112t-110.5 295q0 176 115.5 284t302.5 108h684z" />
    <glyph glyph-name="periodcentered" unicode="&#xb7;" horiz-adv-x="481" 
d="M383 946v-284h-283v284h283z" />
    <glyph glyph-name="cedilla" unicode="&#xb8;" horiz-adv-x="536" 
d="M330 68l-56 -144q75 -15 117.5 -46t42.5 -91q0 -49 -45.5 -90.5t-91 -62.5t-154.5 -63q-8 -3 -12 -5l-29 65q120 56 147 80q21 19 21 37q0 31 -28 46t-97 30l91 244h94z" />
    <glyph glyph-name="uni00B9" unicode="&#xb9;" horiz-adv-x="514" 
d="M152 713v698h-43v215h270v-913h-227z" />
    <glyph glyph-name="ordmasculine" unicode="&#xba;" horiz-adv-x="907" 
d="M453 1360q155 0 255.5 -92.5t100.5 -241.5t-100.5 -241.5t-255.5 -92.5q-154 0 -254.5 92.5t-100.5 241.5t100.5 241.5t254.5 92.5zM453 1178q-64 0 -108 -41t-44 -111t44 -111t108 -41q65 0 109 41t44 111t-44 111t-109 41z" />
    <glyph glyph-name="guillemotright" unicode="&#xbb;" horiz-adv-x="1064" 
d="M20 823h275l317 -340l-317 -342h-275l318 342zM436 823h275l317 -340l-317 -342h-275l318 342z" />
    <glyph glyph-name="onequarter" unicode="&#xbc;" horiz-adv-x="1366" 
d="M154 592v651h-68v139h207v-790h-139zM930 1382h137l-809 -1382h-137zM1315 270v-129h-90v-141h-140v141h-411v121l391 529h160v-521h90zM825 270h260v348h-4z" />
    <glyph glyph-name="onehalf" unicode="&#xbd;" horiz-adv-x="1406" 
d="M293 1382v-790h-139v651h-68v139h207zM121 0l809 1382h137l-809 -1382h-137zM1065 809q126 0 196 -64.5t70 -171.5q0 -71 -34 -129t-103 -122l-199 -187h340v-135h-549l-2 117l293 278q51 49 78 88.5t27 81.5q0 48 -31.5 78.5t-87.5 30.5q-127 0 -141 -127h-140
q5 122 77.5 192t205.5 70z" />
    <glyph glyph-name="threequarters" unicode="&#xbe;" horiz-adv-x="1640" 
d="M657 811q0 -107 -74 -172.5t-221 -65.5q-136 0 -212 64.5t-82 183.5h143q13 -114 151 -114q148 0 148 116q0 63 -51 90t-158 27v125q182 0 182 106q0 99 -123 99q-60 0 -97 -28.5t-40 -86.5h-139q6 117 78.5 181.5t204.5 64.5q125 0 193.5 -56t68.5 -149
q0 -144 -150 -180v-2q178 -28 178 -203zM1202 1382h137l-809 -1382h-137zM1589 270v-129h-90v-141h-139v141h-412v121l391 529h160v-521h90zM1100 270h260v348h-4z" />
    <glyph glyph-name="questiondown" unicode="&#xbf;" horiz-adv-x="878" 
d="M334 739v285h284v-285h-284zM446 -440q-196 0 -304.5 107.5t-108.5 277.5q0 102 39 174t108 139q6 6 35.5 33.5t37 35.5t30 32.5t30 39t19.5 39t16 49t4 52.5v34h248v-59q0 -34 -5.5 -66.5t-13 -57t-23 -52.5t-26 -45t-32.5 -42.5t-32.5 -36.5t-36.5 -37l-34 -34
q-55 -53 -82.5 -95t-27.5 -93q0 -70 42 -112t124 -42q87 0 138.5 53t51.5 140h248q0 -202 -117.5 -318t-327.5 -116z" />
    <glyph glyph-name="Agrave" unicode="&#xc0;" horiz-adv-x="1425" 
d="M813 1522h-184l-326 245h295zM1128 0l-120 326h-590l-121 -326h-291l576 1434h262l575 -1434h-291zM504 563h418l-209 561z" />
    <glyph glyph-name="Aacute" unicode="&#xc1;" horiz-adv-x="1425" 
d="M1122 1767l-325 -245h-185l213 245h297zM1128 0l-120 326h-590l-121 -326h-291l576 1434h262l575 -1434h-291zM504 563h418l-209 561z" />
    <glyph glyph-name="Acircumflex" unicode="&#xc2;" horiz-adv-x="1425" 
d="M711 1663l-146 -141h-221l246 245h244l245 -245h-221zM1128 0l-120 326h-590l-121 -326h-291l576 1434h262l575 -1434h-291zM504 563h418l-209 561z" />
    <glyph glyph-name="Atilde" unicode="&#xc3;" horiz-adv-x="1425" 
d="M535 1602q-69 0 -111 -86l-86 26q62 234 223 234q60 0 185.5 -42t162.5 -42q72 0 113 86l84 -29q-62 -231 -221 -231q-61 0 -186.5 42t-163.5 42zM1128 0l-120 326h-590l-121 -326h-291l576 1434h262l575 -1434h-291zM504 563h418l-209 561z" />
    <glyph glyph-name="Adieresis" unicode="&#xc4;" horiz-adv-x="1425" 
d="M616 1745v-223h-243v223h243zM1053 1745v-223h-244v223h244zM1128 0l-120 326h-590l-121 -326h-291l576 1434h262l575 -1434h-291zM504 563h418l-209 561z" />
    <glyph glyph-name="Aring" unicode="&#xc5;" horiz-adv-x="1425" 
d="M1128 0l-120 326h-590l-121 -326h-291l551 1372q-88 69 -88 191q0 104 68.5 171.5t175.5 67.5q106 0 173.5 -67.5t67.5 -171.5q0 -119 -86 -189l551 -1374h-291zM711 1692q-56 0 -91.5 -36.5t-35.5 -92.5t35.5 -92.5t91.5 -36.5q58 0 93.5 36.5t35.5 92.5t-35.5 92.5
t-93.5 36.5zM504 563h418l-209 561z" />
    <glyph glyph-name="AE" unicode="&#xc6;" horiz-adv-x="1974" 
d="M1343 242h551v-242h-657h-147v326h-545l-203 -326h-336l938 1434h399h543v-242h-543v-291h490v-242h-490v-417zM690 563h400v639z" />
    <glyph glyph-name="Ccedilla" unicode="&#xc7;" horiz-adv-x="1382" 
d="M1346 127q-217 -153 -488 -158l-18 -45q75 -15 117 -46t42 -91q0 -49 -45.5 -90.5t-91 -62.5t-154.5 -63q-8 -3 -12 -5l-28 65q120 56 147 80q21 19 21 37q0 31 -28 46t-97 30l55 147q-316 22 -511.5 225t-195.5 521q0 223 99 393.5t275 262t401 91.5q287 0 512 -157
l-152 -230q-172 119 -363 119q-212 0 -348.5 -131t-136.5 -348t136.5 -348t348.5 -131q193 0 363 118z" />
    <glyph glyph-name="Egrave" unicode="&#xc8;" horiz-adv-x="1075" 
d="M696 1522h-184l-326 245h295zM397 242h598v-242h-860v1434h850v-242h-588v-291h537v-242h-537v-417z" />
    <glyph glyph-name="Eacute" unicode="&#xc9;" horiz-adv-x="1075" 
d="M1006 1767l-326 -245h-184l213 245h297zM397 659v-417h598v-242h-860v1434h850v-242h-588v-291h537v-242h-537z" />
    <glyph glyph-name="Ecircumflex" unicode="&#xca;" horiz-adv-x="1075" 
d="M594 1663l-145 -141h-222l246 245h244l246 -245h-222zM397 242h598v-242h-860v1434h850v-242h-588v-291h537v-242h-537v-417z" />
    <glyph glyph-name="Edieresis" unicode="&#xcb;" horiz-adv-x="1075" 
d="M500 1745v-223h-244v223h244zM936 1745v-223h-244v223h244zM397 242h598v-242h-860v1434h850v-242h-588v-291h537v-242h-537v-417z" />
    <glyph glyph-name="Igrave" unicode="&#xcc;" horiz-adv-x="534" 
d="M154 1767l215 -245h-185l-325 245h295zM399 1434v-1434h-264v1434h264z" />
    <glyph glyph-name="Iacute" unicode="&#xcd;" horiz-adv-x="534" 
d="M676 1767l-326 -245h-184l213 245h297zM399 1434v-1434h-264v1434h264z" />
    <glyph glyph-name="Icircumflex" unicode="&#xce;" horiz-adv-x="534" 
d="M389 1767l246 -245h-221l-148 141l-145 -141h-221l245 245h244zM399 1434v-1434h-264v1434h264z" />
    <glyph glyph-name="Idieresis" unicode="&#xcf;" horiz-adv-x="534" 
d="M170 1745v-223h-244v223h244zM606 1745v-223h-244v223h244zM399 1434v-1434h-264v1434h264z" />
    <glyph glyph-name="Eth" unicode="&#xd0;" horiz-adv-x="1411" 
d="M606 1434q161 0 298.5 -50t236.5 -141t155 -226.5t56 -299.5t-56 -299.5t-155 -226.5t-236.5 -141t-298.5 -50h-461v623h-153v211h153v600h461zM618 242q199 0 324 125t125 350t-125 350t-324 125h-210v-358h303v-211h-303v-381h210z" />
    <glyph glyph-name="Ntilde" unicode="&#xd1;" horiz-adv-x="1474" 
d="M909 1518q-61 0 -186.5 42t-163.5 42q-68 0 -110 -86l-87 26q62 234 224 234q60 0 185.5 -42t162.5 -42q72 0 113 86l83 -29q-62 -231 -221 -231zM1339 1434v-1434h-243l-697 983h-2v-983h-262v1434h244l696 -985h2v985h262z" />
    <glyph glyph-name="Ograve" unicode="&#xd2;" horiz-adv-x="1619" 
d="M696 1767l215 -245h-184l-326 245h295zM809 1464q158 0 297 -55t239 -151.5t158 -237t58 -303.5q0 -218 -99 -389.5t-270 -265t-383 -93.5t-382.5 93.5t-269 265t-98.5 389.5q0 164 57.5 304t157.5 236.5t238.5 151.5t296.5 55zM809 1196q-202 0 -332.5 -133.5
t-130.5 -345.5t130.5 -345.5t332.5 -133.5q203 0 333 133t130 346t-130 346t-333 133z" />
    <glyph glyph-name="Oacute" unicode="&#xd3;" horiz-adv-x="1619" 
d="M1221 1767l-326 -245h-184l213 245h297zM809 1464q158 0 297 -55t239 -151.5t158 -237t58 -303.5q0 -218 -99 -389.5t-270 -265t-383 -93.5t-382.5 93.5t-269 265t-98.5 389.5q0 164 57.5 304t157.5 236.5t238.5 151.5t296.5 55zM809 1196q-202 0 -332.5 -133.5
t-130.5 -345.5t130.5 -345.5t332.5 -133.5q203 0 333 133t130 346t-130 346t-333 133z" />
    <glyph glyph-name="Ocircumflex" unicode="&#xd4;" horiz-adv-x="1619" 
d="M932 1767l246 -245h-222l-147 141l-145 -141h-222l246 245h244zM809 1464q158 0 297 -55t239 -151.5t158 -237t58 -303.5q0 -218 -99 -389.5t-270 -265t-383 -93.5t-382.5 93.5t-269 265t-98.5 389.5q0 164 57.5 304t157.5 236.5t238.5 151.5t296.5 55zM809 1196
q-202 0 -332.5 -133.5t-130.5 -345.5t130.5 -345.5t332.5 -133.5q203 0 333 133t130 346t-130 346t-333 133z" />
    <glyph glyph-name="Otilde" unicode="&#xd5;" horiz-adv-x="1619" 
d="M983 1518q-61 0 -186.5 42t-163.5 42q-69 0 -111 -86l-86 26q62 234 223 234q60 0 186 -42t163 -42q71 0 112 86l84 -29q-62 -231 -221 -231zM809 1464q158 0 297 -55t239 -151.5t158 -237t58 -303.5q0 -218 -99 -389.5t-270 -265t-383 -93.5t-382.5 93.5t-269 265
t-98.5 389.5q0 164 57.5 304t157.5 236.5t238.5 151.5t296.5 55zM809 1196q-202 0 -332.5 -133.5t-130.5 -345.5t130.5 -345.5t332.5 -133.5q203 0 333 133t130 346t-130 346t-333 133z" />
    <glyph glyph-name="Odieresis" unicode="&#xd6;" horiz-adv-x="1619" 
d="M715 1745v-223h-244v223h244zM1151 1745v-223h-244v223h244zM809 1464q158 0 297 -55t239 -151.5t158 -237t58 -303.5q0 -218 -99 -389.5t-270 -265t-383 -93.5t-382.5 93.5t-269 265t-98.5 389.5q0 164 57.5 304t157.5 236.5t238.5 151.5t296.5 55zM809 1196
q-202 0 -332.5 -133.5t-130.5 -345.5t130.5 -345.5t332.5 -133.5q203 0 333 133t130 346t-130 346t-333 133z" />
    <glyph glyph-name="multiply" unicode="&#xd7;" 
d="M979 1059l84 -84l-365 -365l365 -364l-84 -84l-365 364l-364 -364l-84 84l364 364l-364 365l84 84l364 -365z" />
    <glyph glyph-name="Oslash" unicode="&#xd8;" horiz-adv-x="1619" 
d="M1298 1298q124 -102 193.5 -251t69.5 -330q0 -218 -99 -389.5t-270 -265t-383 -93.5q-232 0 -412 111l-80 -109l-77 52l82 112q-124 100 -193.5 250.5t-69.5 331.5q0 164 57.5 304t157.5 236.5t238.5 151.5t296.5 55q232 0 414 -112l82 110l77 -51zM346 717
q0 -109 37 -201t104 -156l572 768q-114 68 -250 68q-202 0 -332.5 -133.5t-130.5 -345.5zM809 238q203 0 333 133t130 346q0 223 -139 356l-570 -770q111 -65 246 -65z" />
    <glyph glyph-name="Ugrave" unicode="&#xd9;" horiz-adv-x="1419" 
d="M596 1767l215 -245h-184l-326 245h295zM1300 1434v-869q0 -274 -155.5 -434t-433.5 -160q-280 0 -436 160t-156 434v869h276v-852q0 -155 85.5 -247.5t230.5 -92.5q143 0 228 92.5t85 247.5v852h276z" />
    <glyph glyph-name="Uacute" unicode="&#xda;" horiz-adv-x="1419" 
d="M1118 1767l-325 -245h-185l213 245h297zM1300 1434v-869q0 -274 -155.5 -434t-433.5 -160q-280 0 -436 160t-156 434v869h276v-852q0 -155 85.5 -247.5t230.5 -92.5q143 0 228 92.5t85 247.5v852h276z" />
    <glyph glyph-name="Ucircumflex" unicode="&#xdb;" horiz-adv-x="1419" 
d="M831 1767l246 -245h-221l-147 141l-146 -141h-221l246 245h243zM1300 1434v-869q0 -274 -155.5 -434t-433.5 -160q-280 0 -436 160t-156 434v869h276v-852q0 -155 85.5 -247.5t230.5 -92.5q143 0 228 92.5t85 247.5v852h276z" />
    <glyph glyph-name="Udieresis" unicode="&#xdc;" horiz-adv-x="1419" 
d="M612 1745v-223h-243v223h243zM1049 1745v-223h-244v223h244zM1300 1434v-869q0 -274 -155.5 -434t-433.5 -160q-280 0 -436 160t-156 434v869h276v-852q0 -155 85.5 -247.5t230.5 -92.5q143 0 228 92.5t85 247.5v852h276z" />
    <glyph glyph-name="Yacute" unicode="&#xdd;" horiz-adv-x="1222" 
d="M1022 1767l-326 -245h-184l213 245h297zM1223 1434l-480 -885v-549h-264v547l-479 887h309l299 -617h6l299 617h310z" />
    <glyph glyph-name="Thorn" unicode="&#xde;" horiz-adv-x="1183" 
d="M393 1434v-254h232q241 0 371 -126t130 -329q0 -98 -32 -181.5t-93.5 -145.5t-157.5 -97t-218 -35h-232v-266h-258v1434h258zM625 944h-232v-440h232q111 0 177 57.5t66 163.5t-65.5 162.5t-177.5 56.5z" />
    <glyph glyph-name="germandbls" unicode="&#xdf;" horiz-adv-x="1177" 
d="M731 813q191 -11 293 -109.5t102 -275.5q0 -213 -146 -325.5t-409 -112.5h-98v225h80q164 0 239.5 54t75.5 175q0 141 -93.5 197.5t-282.5 56.5v201q129 0 192.5 42t63.5 132q0 81 -49 123.5t-130 42.5q-92 0 -147 -53t-55 -158v-1294h-252v1276q0 206 119 330t346 124
q200 0 308.5 -96t108.5 -250q0 -117 -66 -195.5t-200 -105.5v-4z" />
    <glyph glyph-name="agrave" unicode="&#xe0;" horiz-adv-x="1183" 
d="M457 1448l213 -315h-197l-313 315h297zM508 -31q-94 0 -176 33.5t-144.5 96t-98.5 159.5t-36 215t36 215t98.5 159.5t144.5 96t176 33.5q216 0 315 -164h4v133h250v-946h-250v133h-4q-99 -164 -315 -164zM571 207q114 0 185 73t71 193t-71 193t-185 73t-185 -73t-71 -193
t71 -193t185 -73z" />
    <glyph glyph-name="aacute" unicode="&#xe1;" horiz-adv-x="1183" 
d="M981 1448l-313 -315h-197l213 315h297zM508 -31q-94 0 -176 33.5t-144.5 96t-98.5 159.5t-36 215t36 215t98.5 159.5t144.5 96t176 33.5q216 0 315 -164h4v133h250v-946h-250v133h-4q-99 -164 -315 -164zM571 207q114 0 185 73t71 193t-71 193t-185 73t-185 -73t-71 -193
t71 -193t185 -73z" />
    <glyph glyph-name="acircumflex" unicode="&#xe2;" horiz-adv-x="1183" 
d="M694 1448l252 -315h-221l-152 182l-149 -182h-223l252 315h241zM508 -31q-94 0 -176 33.5t-144.5 96t-98.5 159.5t-36 215t36 215t98.5 159.5t144.5 96t176 33.5q216 0 315 -164h4v133h250v-946h-250v133h-4q-99 -164 -315 -164zM571 207q114 0 185 73t71 193t-71 193
t-185 73t-185 -73t-71 -193t71 -193t185 -73z" />
    <glyph glyph-name="atilde" unicode="&#xe3;" horiz-adv-x="1183" 
d="M422 1444q63 0 177 -49t151 -49q64 0 108 92l98 -31q-56 -248 -219 -248q-51 0 -115.5 25.5t-122 50.5t-89.5 25q-68 0 -111 -95l-98 31q56 248 221 248zM508 -31q-94 0 -176 33.5t-144.5 96t-98.5 159.5t-36 215t36 215t98.5 159.5t144.5 96t176 33.5q216 0 315 -164h4
v133h250v-946h-250v133h-4q-99 -164 -315 -164zM571 207q114 0 185 73t71 193t-71 193t-185 73t-185 -73t-71 -193t71 -193t185 -73z" />
    <glyph glyph-name="adieresis" unicode="&#xe4;" horiz-adv-x="1183" 
d="M496 1413v-260h-228v260h228zM881 1413v-260h-228v260h228zM508 -31q-94 0 -176 33.5t-144.5 96t-98.5 159.5t-36 215t36 215t98.5 159.5t144.5 96t176 33.5q216 0 315 -164h4v133h250v-946h-250v133h-4q-99 -164 -315 -164zM571 207q114 0 185 73t71 193t-71 193
t-185 73t-185 -73t-71 -193t71 -193t185 -73z" />
    <glyph glyph-name="aring" unicode="&#xe5;" horiz-adv-x="1183" 
d="M571 1530q107 0 176.5 -68t69.5 -172t-69.5 -171.5t-176.5 -67.5q-106 0 -174.5 67.5t-68.5 171.5t68.5 172t174.5 68zM571 1419q-58 0 -93.5 -36.5t-35.5 -92.5t35.5 -92.5t93.5 -36.5q59 0 95 36.5t36 92.5t-36 92.5t-95 36.5zM508 -31q-94 0 -176 33.5t-144.5 96
t-98.5 159.5t-36 215t36 215t98.5 159.5t144.5 96t176 33.5q216 0 315 -164h4v133h250v-946h-250v133h-4q-99 -164 -315 -164zM571 207q114 0 185 73t71 193t-71 193t-185 73t-185 -73t-71 -193t71 -193t185 -73z" />
    <glyph glyph-name="ae" unicode="&#xe6;" horiz-adv-x="1679" 
d="M416 -31q-169 0 -276 92t-107 244q0 149 103 239.5t272 90.5q89 0 163.5 -26.5t118.5 -73.5h4v61q0 81 -53 127.5t-162 46.5q-117 0 -293 -45l-51 207q195 45 352 45q82 0 142.5 -15t111.5 -55.5t80 -107.5h4q50 80 143 129t216 49q207 0 327.5 -132.5t120.5 -373.5v-49
h-700q14 -107 80 -168t180 -61q154 0 283 129l124 -179q-178 -174 -403 -174q-137 0 -238.5 55.5t-152.5 149.5h-4q-60 -103 -162.5 -154t-222.5 -51zM938 584h436q-3 87 -61 138.5t-150 51.5q-88 0 -149.5 -48t-75.5 -142zM492 170q89 0 146.5 38.5t57.5 102.5
q0 65 -57 103.5t-145 38.5q-89 0 -138 -40t-49 -102q0 -64 48.5 -102.5t136.5 -38.5z" />
    <glyph glyph-name="ccedilla" unicode="&#xe7;" horiz-adv-x="935" 
d="M907 63q-145 -91 -313 -94l-19 -45q75 -15 117.5 -46t42.5 -91q0 -77 -104 -135q-50 -28 -199 -86l-29 65q120 56 147 80q21 19 21 37q0 31 -28 46t-97 30l56 149q-202 24 -325.5 158.5t-123.5 341.5q0 226 146 365t376 139q181 0 332 -94l-108 -207q-102 65 -219 65
q-118 0 -193.5 -74.5t-75.5 -193.5t75.5 -193.5t193.5 -74.5q117 0 219 65z" />
    <glyph glyph-name="egrave" unicode="&#xe8;" horiz-adv-x="1052" 
d="M432 1448l213 -315h-196l-314 315h297zM545 977q217 0 338 -132t121 -374v-49h-707q10 -107 83 -168t183 -61q154 0 283 129l127 -183q-183 -170 -410 -170q-231 0 -370.5 138t-139.5 364q0 227 135 366.5t357 139.5zM532 774q-94 0 -154 -47.5t-75 -142.5h447
q-6 89 -65 139.5t-153 50.5z" />
    <glyph glyph-name="eacute" unicode="&#xe9;" horiz-adv-x="1052" 
d="M954 1448l-313 -315h-197l213 315h297zM545 977q217 0 338 -132t121 -374v-49h-707q10 -107 83 -168t183 -61q154 0 283 129l127 -183q-183 -170 -410 -170q-231 0 -370.5 138t-139.5 364q0 227 135 366.5t357 139.5zM532 774q-94 0 -154 -47.5t-75 -142.5h447
q-6 89 -65 139.5t-153 50.5z" />
    <glyph glyph-name="ecircumflex" unicode="&#xea;" horiz-adv-x="1052" 
d="M668 1448l252 -315h-222l-151 182l-150 -182h-223l252 315h242zM545 977q217 0 338 -132t121 -374v-49h-707q10 -107 83 -168t183 -61q154 0 283 129l127 -183q-183 -170 -410 -170q-231 0 -370.5 138t-139.5 364q0 227 135 366.5t357 139.5zM532 774q-94 0 -154 -47.5
t-75 -142.5h447q-6 89 -65 139.5t-153 50.5z" />
    <glyph glyph-name="edieresis" unicode="&#xeb;" horiz-adv-x="1052" 
d="M469 1413v-260h-227v260h227zM854 1413v-260h-227v260h227zM545 977q217 0 338 -132t121 -374v-49h-707q10 -107 83 -168t183 -61q154 0 283 129l127 -183q-183 -170 -410 -170q-231 0 -370.5 138t-139.5 364q0 227 135 366.5t357 139.5zM532 774q-94 0 -154 -47.5
t-75 -142.5h447q-6 89 -65 139.5t-153 50.5z" />
    <glyph glyph-name="igrave" unicode="&#xec;" horiz-adv-x="483" 
d="M209 1448l131 -315h-197l-176 315h242zM115 0v946h252v-946h-252z" />
    <glyph glyph-name="iacute" unicode="&#xed;" horiz-adv-x="483" 
d="M143 1133l131 315h242l-176 -315h-197zM115 0v946h252v-946h-252z" />
    <glyph glyph-name="icircumflex" unicode="&#xee;" horiz-adv-x="483" 
d="M362 1448l183 -315h-209l-94 190l-95 -190h-208l182 315h241zM115 0v946h252v-946h-252z" />
    <glyph glyph-name="idieresis" unicode="&#xef;" horiz-adv-x="483" 
d="M205 1413v-260h-205v260h205zM483 1413v-260h-204v260h204zM115 0v946h252v-946h-252z" />
    <glyph glyph-name="eth" unicode="&#xf0;" horiz-adv-x="1171" 
d="M807 1360q293 -237 293 -729q0 -146 -31 -261.5t-82 -189t-121.5 -122.5t-145 -69t-157.5 -20q-157 0 -274 66.5t-176.5 179.5t-59.5 256q0 231 138 368.5t339 137.5q232 0 336 -178h4q-34 277 -231 420l-207 -177l-96 105l172 145q-109 50 -256 72l45 199
q230 -36 387 -121l162 135l92 -104zM571 203q119 0 195 74.5t76 197.5q0 124 -75.5 197t-197.5 73q-121 0 -194.5 -75t-73.5 -197q0 -123 75.5 -196.5t194.5 -73.5z" />
    <glyph glyph-name="ntilde" unicode="&#xf1;" horiz-adv-x="1128" 
d="M438 1444q63 0 177 -49t151 -49q64 0 108 92l99 -31q-56 -248 -219 -248q-51 0 -116 25.5t-122.5 50.5t-89.5 25q-68 0 -111 -95l-98 31q56 248 221 248zM672 977q163 0 259.5 -96.5t96.5 -296.5v-584h-252v524q0 219 -194 219q-103 0 -162.5 -67t-59.5 -213v-463h-249
v946h247v-143h4q48 83 127.5 128.5t182.5 45.5z" />
    <glyph glyph-name="ograve" unicode="&#xf2;" horiz-adv-x="1153" 
d="M461 1448l213 -315h-197l-313 315h297zM578 977q227 0 375.5 -141.5t148.5 -362.5t-148.5 -362.5t-375.5 -141.5t-376 141.5t-149 362.5t149 362.5t376 141.5zM578 739q-117 0 -192 -73t-75 -193t75 -193t192 -73t190.5 73t73.5 193t-73.5 193t-190.5 73z" />
    <glyph glyph-name="oacute" unicode="&#xf3;" horiz-adv-x="1153" 
d="M983 1448l-313 -315h-197l213 315h297zM578 977q227 0 375.5 -141.5t148.5 -362.5t-148.5 -362.5t-375.5 -141.5t-376 141.5t-149 362.5t149 362.5t376 141.5zM578 739q-117 0 -192 -73t-75 -193t75 -193t192 -73t190.5 73t73.5 193t-73.5 193t-190.5 73z" />
    <glyph glyph-name="ocircumflex" unicode="&#xf4;" horiz-adv-x="1153" 
d="M696 1448l252 -315h-221l-152 182l-149 -182h-223l252 315h241zM578 977q227 0 375.5 -141.5t148.5 -362.5t-148.5 -362.5t-375.5 -141.5t-376 141.5t-149 362.5t149 362.5t376 141.5zM578 739q-117 0 -192 -73t-75 -193t75 -193t192 -73t190.5 73t73.5 193t-73.5 193
t-190.5 73z" />
    <glyph glyph-name="otilde" unicode="&#xf5;" horiz-adv-x="1153" 
d="M424 1444q63 0 177 -49t151 -49q64 0 108 92l98 -31q-56 -248 -219 -248q-51 0 -115.5 25.5t-122 50.5t-89.5 25q-68 0 -111 -95l-98 31q56 248 221 248zM578 977q227 0 375.5 -141.5t148.5 -362.5t-148.5 -362.5t-375.5 -141.5t-376 141.5t-149 362.5t149 362.5
t376 141.5zM578 739q-117 0 -192 -73t-75 -193t75 -193t192 -73t190.5 73t73.5 193t-73.5 193t-190.5 73z" />
    <glyph glyph-name="odieresis" unicode="&#xf6;" horiz-adv-x="1153" 
d="M498 1413v-260h-228v260h228zM883 1413v-260h-228v260h228zM578 977q227 0 375.5 -141.5t148.5 -362.5t-148.5 -362.5t-375.5 -141.5t-376 141.5t-149 362.5t149 362.5t376 141.5zM578 739q-117 0 -192 -73t-75 -193t75 -193t192 -73t190.5 73t73.5 193t-73.5 193
t-190.5 73z" />
    <glyph glyph-name="divide" unicode="&#xf7;" 
d="M705 1034v-186h-181v186h181zM1145 668v-113h-1061v113h1061zM705 377v-189h-181v189h181z" />
    <glyph glyph-name="oslash" unicode="&#xf8;" horiz-adv-x="1153" 
d="M944 844q158 -142 158 -371q0 -221 -148.5 -362.5t-375.5 -141.5q-182 0 -322 97l-82 -95l-55 47l82 93q-148 145 -148 362q0 221 149 362.5t376 141.5q177 0 307 -88l78 88l55 -49zM311 473q0 -103 56 -172l354 401q-61 37 -143 37q-117 0 -192 -73t-75 -193zM578 207
q117 0 190.5 73t73.5 193q0 112 -64 182l-358 -403q62 -45 158 -45z" />
    <glyph glyph-name="ugrave" unicode="&#xf9;" horiz-adv-x="1107" 
d="M438 1448l213 -315h-196l-314 315h297zM451 -31q-155 0 -253 99t-98 299v579h258v-534q0 -107 47 -159t132 -52q208 0 208 291v454h252v-946h-247v145h-5q-98 -176 -294 -176z" />
    <glyph glyph-name="uacute" unicode="&#xfa;" horiz-adv-x="1107" 
d="M963 1448l-314 -315h-196l213 315h297zM451 -31q-155 0 -253 99t-98 299v579h258v-534q0 -107 47 -159t132 -52q208 0 208 291v454h252v-946h-247v145h-5q-98 -176 -294 -176z" />
    <glyph glyph-name="ucircumflex" unicode="&#xfb;" horiz-adv-x="1107" 
d="M676 1448l252 -315h-221l-152 182l-149 -182h-224l252 315h242zM451 -31q-155 0 -253 99t-98 299v579h258v-534q0 -107 47 -159t132 -52q208 0 208 291v454h252v-946h-247v145h-5q-98 -176 -294 -176z" />
    <glyph glyph-name="udieresis" unicode="&#xfc;" horiz-adv-x="1107" 
d="M475 1413v-260h-227v260h227zM860 1413v-260h-227v260h227zM451 -31q-155 0 -253 99t-98 299v579h258v-534q0 -107 47 -159t132 -52q208 0 208 291v454h252v-946h-247v145h-5q-98 -176 -294 -176z" />
    <glyph glyph-name="yacute" unicode="&#xfd;" horiz-adv-x="1064" 
d="M952 1448l-313 -315h-197l213 315h297zM791 946h264l-606 -1356h-261l232 498l-410 858h295l240 -573z" />
    <glyph glyph-name="thorn" unicode="&#xfe;" horiz-adv-x="1191" 
d="M115 -410v1844h252v-621h4q99 164 315 164q93 0 174.5 -33.5t144 -96t98.5 -159.5t36 -215t-36 -215t-98.5 -159.5t-144 -96t-174.5 -33.5q-216 0 -315 164h-4v-543h-252zM623 207q114 0 185 73t71 193t-71 193t-185 73t-185 -73t-71 -193t71 -193t185 -73z" />
    <glyph glyph-name="ydieresis" unicode="&#xff;" horiz-adv-x="1064" 
d="M467 1413v-260h-227v260h227zM852 1413v-260h-227v260h227zM791 946h264l-606 -1356h-261l232 498l-410 858h295l240 -573z" />
    <glyph glyph-name="Amacron" unicode="&#x100;" horiz-adv-x="1425" 
d="M1024 1716v-170h-627v170h627zM1128 0l-120 326h-590l-121 -326h-291l576 1434h262l575 -1434h-291zM504 563h418l-209 561z" />
    <glyph glyph-name="amacron" unicode="&#x101;" horiz-adv-x="1183" 
d="M887 1366v-174h-627v174h627zM508 -31q-94 0 -176 33.5t-144.5 96t-98.5 159.5t-36 215t36 215t98.5 159.5t144.5 96t176 33.5q216 0 315 -164h4v133h250v-946h-250v133h-4q-99 -164 -315 -164zM571 207q114 0 185 73t71 193t-71 193t-185 73t-185 -73t-71 -193t71 -193
t185 -73z" />
    <glyph glyph-name="Abreve" unicode="&#x102;" horiz-adv-x="1425" 
d="M713 1513q-132 0 -212.5 67.5t-92.5 186.5h172q5 -48 39.5 -76t93.5 -28t93.5 28t39.5 76h174q-12 -119 -93.5 -186.5t-213.5 -67.5zM1128 0l-120 326h-590l-121 -326h-291l576 1434h262l575 -1434h-291zM504 563h418l-209 561z" />
    <glyph glyph-name="abreve" unicode="&#x103;" horiz-adv-x="1183" 
d="M881 1434q0 -140 -86.5 -224t-221.5 -84q-134 0 -219.5 84t-85.5 224h166q3 -65 38.5 -106.5t100.5 -41.5q66 0 102.5 41.5t39.5 106.5h166zM508 -31q-94 0 -176 33.5t-144.5 96t-98.5 159.5t-36 215t36 215t98.5 159.5t144.5 96t176 33.5q216 0 315 -164h4v133h250v-946
h-250v133h-4q-99 -164 -315 -164zM571 207q114 0 185 73t71 193t-71 193t-185 73t-185 -73t-71 -193t71 -193t185 -73z" />
    <glyph glyph-name="Aogonek" unicode="&#x104;" horiz-adv-x="1425" 
d="M1169 -242q27 0 80 11l25 -158q-84 -19 -144 -19q-91 0 -144.5 41t-53.5 123q0 127 188 269l-112 301h-590l-121 -326h-291l576 1434h262l575 -1434h-172q-133 -133 -133 -197q0 -21 15.5 -33t39.5 -12zM504 563h418l-209 561z" />
    <glyph glyph-name="aogonek" unicode="&#x105;" horiz-adv-x="1183" 
d="M1077 0h-112q-134 -134 -134 -197q0 -21 16 -33t40 -12q27 0 80 11l24 -158q-84 -19 -143 -19q-92 0 -145.5 41t-53.5 123q0 122 178 260v117h-4q-99 -164 -315 -164q-94 0 -176 33.5t-144.5 96t-98.5 159.5t-36 215t36 215t98.5 159.5t144.5 96t176 33.5q216 0 315 -164
h4v133h250v-946zM571 207q114 0 185 73t71 193t-71 193t-185 73t-185 -73t-71 -193t71 -193t185 -73z" />
    <glyph glyph-name="Cacute" unicode="&#x106;" horiz-adv-x="1382" 
d="M1237 1767l-326 -245h-184l213 245h297zM834 -31q-168 0 -311.5 53.5t-246 150t-160 237t-57.5 307.5q0 223 99 393.5t275 262t401 91.5q287 0 512 -157l-152 -230q-172 119 -363 119q-212 0 -348.5 -131t-136.5 -348t136.5 -348t348.5 -131q193 0 363 118l152 -229
q-226 -158 -512 -158z" />
    <glyph glyph-name="cacute" unicode="&#x107;" horiz-adv-x="935" 
d="M967 1448l-314 -315h-196l213 315h297zM575 -31q-230 0 -376 139t-146 365t146 365t376 139q181 0 332 -94l-108 -207q-102 65 -219 65q-118 0 -193.5 -74.5t-75.5 -193.5t75.5 -193.5t193.5 -74.5q117 0 219 65l108 -207q-151 -94 -332 -94z" />
    <glyph glyph-name="Ccircumflex" unicode="&#x108;" horiz-adv-x="1382" 
d="M948 1767l246 -245h-221l-148 141l-145 -141h-221l246 245h243zM834 -31q-168 0 -311.5 53.5t-246 150t-160 237t-57.5 307.5q0 223 99 393.5t275 262t401 91.5q287 0 512 -157l-152 -230q-172 119 -363 119q-212 0 -348.5 -131t-136.5 -348t136.5 -348t348.5 -131
q193 0 363 118l152 -229q-226 -158 -512 -158z" />
    <glyph glyph-name="ccircumflex" unicode="&#x109;" horiz-adv-x="935" 
d="M680 1448l252 -315h-221l-152 182l-149 -182h-224l252 315h242zM575 -31q-230 0 -376 139t-146 365t146 365t376 139q181 0 332 -94l-108 -207q-102 65 -219 65q-118 0 -193.5 -74.5t-75.5 -193.5t75.5 -193.5t193.5 -74.5q117 0 219 65l108 -207q-151 -94 -332 -94z" />
    <glyph glyph-name="Cdotaccent" unicode="&#x10a;" horiz-adv-x="1382" 
d="M952 1757v-235h-252v235h252zM834 -31q-168 0 -311.5 53.5t-246 150t-160 237t-57.5 307.5q0 223 99 393.5t275 262t401 91.5q287 0 512 -157l-152 -230q-172 119 -363 119q-212 0 -348.5 -131t-136.5 -348t136.5 -348t348.5 -131q193 0 363 118l152 -229
q-226 -158 -512 -158z" />
    <glyph glyph-name="cdotaccent" unicode="&#x10b;" horiz-adv-x="935" 
d="M702 1421v-276h-286v276h286zM575 -31q-230 0 -376 139t-146 365t146 365t376 139q181 0 332 -94l-108 -207q-102 65 -219 65q-118 0 -193.5 -74.5t-75.5 -193.5t75.5 -193.5t193.5 -74.5q117 0 219 65l108 -207q-151 -94 -332 -94z" />
    <glyph glyph-name="Ccaron" unicode="&#x10c;" horiz-adv-x="1382" 
d="M948 1522h-243l-246 245h221l145 -141l148 141h221zM834 -31q-168 0 -311.5 53.5t-246 150t-160 237t-57.5 307.5q0 223 99 393.5t275 262t401 91.5q287 0 512 -157l-152 -230q-172 119 -363 119q-212 0 -348.5 -131t-136.5 -348t136.5 -348t348.5 -131q193 0 363 118
l152 -229q-226 -158 -512 -158z" />
    <glyph glyph-name="ccaron" unicode="&#x10d;" horiz-adv-x="935" 
d="M932 1434l-252 -316h-242l-252 316h224l149 -183l152 183h221zM575 -31q-230 0 -376 139t-146 365t146 365t376 139q181 0 332 -94l-108 -207q-102 65 -219 65q-118 0 -193.5 -74.5t-75.5 -193.5t75.5 -193.5t193.5 -74.5q117 0 219 65l108 -207q-151 -94 -332 -94z" />
    <glyph glyph-name="Dcaron" unicode="&#x10e;" horiz-adv-x="1398" 
d="M698 1522h-243l-246 245h221l145 -141l148 141h221zM594 1434q216 0 384 -85t264.5 -249t96.5 -383t-96.5 -383t-264.5 -249t-384 -85h-459v1434h459zM606 1192h-209v-950h209q200 0 325.5 125t125.5 350t-125.5 350t-325.5 125z" />
    <glyph glyph-name="dcaron" unicode="&#x10f;" horiz-adv-x="1429" 
d="M1165 1464h248v-247l-164 -197h-90l90 197h-84v247zM827 813v621h250v-1434h-250v133h-4q-99 -164 -315 -164q-94 0 -176 33.5t-144.5 96t-98.5 159.5t-36 215t36 215t98.5 159.5t144.5 96t176 33.5q216 0 315 -164h4zM571 207q114 0 185 73t71 193t-71 193t-185 73
t-185 -73t-71 -193t71 -193t185 -73z" />
    <glyph glyph-name="Dcroat" unicode="&#x110;" horiz-adv-x="1411" 
d="M606 1434q161 0 298.5 -50t236.5 -141t155 -226.5t56 -299.5t-56 -299.5t-155 -226.5t-236.5 -141t-298.5 -50h-459v623h-155v211h155v600h459zM618 242q200 0 325.5 125t125.5 350t-125.5 350t-325.5 125h-208v-358h301v-211h-301v-381h208z" />
    <glyph glyph-name="dcroat" unicode="&#x111;" horiz-adv-x="1212" 
d="M1212 1288v-149h-135v-1139h-250v133h-4q-99 -164 -315 -164q-94 0 -176 33.5t-144.5 96t-98.5 159.5t-36 215t36 215t98.5 159.5t144.5 96t176 33.5q216 0 315 -164h4v326h-272v149h272v146h250v-146h135zM571 207q114 0 185 73t71 193t-71 193t-185 73t-185 -73
t-71 -193t71 -193t185 -73z" />
    <glyph glyph-name="Emacron" unicode="&#x112;" horiz-adv-x="1075" 
d="M907 1716v-170h-626v170h626zM397 242h598v-242h-860v1434h850v-242h-588v-291h537v-242h-537v-417z" />
    <glyph glyph-name="emacron" unicode="&#x113;" horiz-adv-x="1052" 
d="M860 1366v-174h-627v174h627zM545 977q217 0 338 -132t121 -374v-49h-707q10 -107 83 -168t183 -61q154 0 283 129l127 -183q-183 -170 -410 -170q-231 0 -370.5 138t-139.5 364q0 227 135 366.5t357 139.5zM532 774q-94 0 -154 -47.5t-75 -142.5h447q-6 89 -65 139.5
t-153 50.5z" />
    <glyph glyph-name="Ebreve" unicode="&#x114;" horiz-adv-x="1075" 
d="M596 1513q-132 0 -212.5 67.5t-92.5 186.5h172q5 -48 39.5 -76t93.5 -28t93.5 28t39.5 76h174q-12 -119 -93.5 -186.5t-213.5 -67.5zM397 242h598v-242h-860v1434h850v-242h-588v-291h537v-242h-537v-417z" />
    <glyph glyph-name="ebreve" unicode="&#x115;" horiz-adv-x="1052" 
d="M854 1434q0 -140 -86.5 -224t-220.5 -84t-219.5 84t-85.5 224h166q3 -65 38.5 -106.5t100.5 -41.5q66 0 102 41.5t39 106.5h166zM545 977q217 0 338 -132t121 -374v-49h-707q10 -107 83 -168t183 -61q154 0 283 129l127 -183q-183 -170 -410 -170q-231 0 -370.5 138
t-139.5 364q0 227 135 366.5t357 139.5zM532 774q-94 0 -154 -47.5t-75 -142.5h447q-6 89 -65 139.5t-153 50.5z" />
    <glyph glyph-name="Edotaccent" unicode="&#x116;" horiz-adv-x="1075" 
d="M721 1757v-235h-252v235h252zM397 242h598v-242h-860v1434h850v-242h-588v-291h537v-242h-537v-417z" />
    <glyph glyph-name="edotaccent" unicode="&#x117;" horiz-adv-x="1052" 
d="M692 1421v-276h-286v276h286zM545 977q217 0 338 -132t121 -374v-49h-707q10 -107 83 -168t183 -61q154 0 283 129l127 -183q-183 -170 -410 -170q-231 0 -370.5 138t-139.5 364q0 227 135 366.5t357 139.5zM532 774q-94 0 -154 -47.5t-75 -142.5h447q-6 89 -65 139.5
t-153 50.5z" />
    <glyph glyph-name="Eogonek" unicode="&#x118;" horiz-adv-x="1075" 
d="M995 0h-61q-133 -133 -133 -197q0 -21 15.5 -33t39.5 -12q27 0 80 11l25 -158q-84 -19 -144 -19q-92 0 -145.5 41t-53.5 123q0 112 156 244h-639v1434h850v-242h-588v-291h537v-242h-537v-417h598v-242z" />
    <glyph glyph-name="eogonek" unicode="&#x119;" horiz-adv-x="1052" 
d="M1004 471v-49h-707q10 -107 83 -168t183 -61q154 0 283 129l127 -183q-76 -73 -168 -116l6 -3q-154 -151 -154 -217q0 -21 16 -33t40 -12q27 0 80 11l24 -158q-84 -19 -143 -19q-92 0 -145.5 41t-53.5 123q0 102 123 213h-35q-231 0 -370.5 138t-139.5 364
q0 227 135 366.5t357 139.5q217 0 338 -132t121 -374zM303 584h447q-6 89 -65 139.5t-153 50.5t-154 -47.5t-75 -142.5z" />
    <glyph glyph-name="Ecaron" unicode="&#x11a;" horiz-adv-x="1075" 
d="M717 1522h-244l-246 245h222l145 -141l147 141h222zM397 242h598v-242h-860v1434h850v-242h-588v-291h537v-242h-537v-417z" />
    <glyph glyph-name="ecaron" unicode="&#x11b;" horiz-adv-x="1052" 
d="M920 1434l-252 -316h-242l-252 316h223l150 -183l151 183h222zM545 977q217 0 338 -132t121 -374v-49h-707q10 -107 83 -168t183 -61q154 0 283 129l127 -183q-183 -170 -410 -170q-231 0 -370.5 138t-139.5 364q0 227 135 366.5t357 139.5zM532 774q-94 0 -154 -47.5
t-75 -142.5h447q-6 89 -65 139.5t-153 50.5z" />
    <glyph glyph-name="Gcircumflex" unicode="&#x11c;" horiz-adv-x="1570" 
d="M801 1663l-146 -141h-221l246 245h244l245 -245h-221zM1528 811q2 -29 2 -82q0 -124 -27.5 -236t-85 -208t-140.5 -166t-201 -110t-259 -40q-219 0 -390.5 90.5t-269.5 261.5t-98 396q0 220 94 389t269.5 263.5t406.5 94.5q322 0 557 -190l-174 -223q-173 145 -393 145
q-215 0 -344 -135.5t-129 -343.5q0 -212 131.5 -345.5t351.5 -133.5q99 0 179 29.5t129.5 78t77.5 105.5t34 118h-411v242h690z" />
    <glyph glyph-name="gcircumflex" unicode="&#x11d;" horiz-adv-x="1183" 
d="M707 1448l251 -315h-221l-151 182l-150 -182h-223l252 315h242zM602 -440q-157 0 -385 45l45 239q195 -47 330 -47q128 0 181.5 54.5t53.5 193.5v88h-4q-106 -158 -317 -158q-94 0 -175.5 33.5t-143.5 95.5t-98 157t-36 212q0 118 36 215t98.5 159.5t144.5 96t176 33.5
q216 0 315 -164h4v133h250v-946q-1 -123 -35 -210t-98.5 -136.5t-147.5 -71.5t-194 -22zM571 207q114 0 185 73t71 193t-71 193t-185 73t-185 -73t-71 -193t71 -193t185 -73z" />
    <glyph glyph-name="Gbreve" unicode="&#x11e;" horiz-adv-x="1570" 
d="M801 1513q-132 0 -212.5 67.5t-92.5 186.5h172q5 -48 39.5 -76t93.5 -28t93.5 28t39.5 76h174q-12 -119 -93.5 -186.5t-213.5 -67.5zM1528 811q2 -29 2 -82q0 -124 -27.5 -236t-85 -208t-140.5 -166t-201 -110t-259 -40q-219 0 -390.5 90.5t-269.5 261.5t-98 396
q0 220 94 389t269.5 263.5t406.5 94.5q322 0 557 -190l-174 -223q-173 145 -393 145q-215 0 -344 -135.5t-129 -343.5q0 -212 131.5 -345.5t351.5 -133.5q99 0 179 29.5t129.5 78t77.5 105.5t34 118h-411v242h690z" />
    <glyph glyph-name="gbreve" unicode="&#x11f;" horiz-adv-x="1183" 
d="M895 1434q0 -140 -86.5 -224t-220.5 -84t-219.5 84t-85.5 224h166q3 -65 38.5 -106.5t100.5 -41.5q66 0 102 41.5t39 106.5h166zM602 -440q-157 0 -385 45l45 239q195 -47 330 -47q128 0 181.5 54.5t53.5 193.5v88h-4q-106 -158 -317 -158q-94 0 -175.5 33.5t-143.5 95.5
t-98 157t-36 212q0 118 36 215t98.5 159.5t144.5 96t176 33.5q216 0 315 -164h4v133h250v-946q-1 -123 -35 -210t-98.5 -136.5t-147.5 -71.5t-194 -22zM571 207q114 0 185 73t71 193t-71 193t-185 73t-185 -73t-71 -193t71 -193t185 -73z" />
    <glyph glyph-name="Gdotaccent" unicode="&#x120;" horiz-adv-x="1570" 
d="M926 1757v-235h-252v235h252zM1528 811q2 -29 2 -82q0 -124 -27.5 -236t-85 -208t-140.5 -166t-201 -110t-259 -40q-219 0 -390.5 90.5t-269.5 261.5t-98 396q0 220 94 389t269.5 263.5t406.5 94.5q322 0 557 -190l-174 -223q-173 145 -393 145q-215 0 -344 -135.5
t-129 -343.5q0 -212 131.5 -345.5t351.5 -133.5q99 0 179 29.5t129.5 78t77.5 105.5t34 118h-411v242h690z" />
    <glyph glyph-name="gdotaccent" unicode="&#x121;" horiz-adv-x="1183" 
d="M731 1421v-276h-287v276h287zM602 -440q-157 0 -385 45l45 239q195 -47 330 -47q128 0 181.5 54.5t53.5 193.5v88h-4q-106 -158 -317 -158q-94 0 -175.5 33.5t-143.5 95.5t-98 157t-36 212q0 118 36 215t98.5 159.5t144.5 96t176 33.5q216 0 315 -164h4v133h250v-946
q-1 -123 -35 -210t-98.5 -136.5t-147.5 -71.5t-194 -22zM571 207q114 0 185 73t71 193t-71 193t-185 73t-185 -73t-71 -193t71 -193t185 -73z" />
    <glyph glyph-name="Gcommaaccent" unicode="&#x122;" horiz-adv-x="1570" 
d="M1528 811q2 -29 2 -82q0 -124 -27.5 -236t-85 -208t-140.5 -166t-201 -110t-259 -40q-219 0 -390.5 90.5t-269.5 261.5t-98 396q0 220 94 389t269.5 263.5t406.5 94.5q322 0 557 -190l-174 -223q-173 145 -393 145q-215 0 -344 -135.5t-129 -343.5q0 -212 131.5 -345.5
t351.5 -133.5q99 0 179 29.5t129.5 78t77.5 105.5t34 118h-411v242h690zM705 -291v195h239v-195l-133 -139h-90l72 139h-88z" />
    <glyph glyph-name="gcommaaccent" unicode="&#x123;" horiz-adv-x="1183" 
d="M713 1300v-194h-240v194l133 140h90l-71 -140h88zM827 946h250v-946q-1 -123 -35 -210t-98.5 -136.5t-147.5 -71.5t-194 -22q-157 0 -385 45l45 239q195 -47 330 -47q128 0 181.5 54.5t53.5 193.5v88h-4q-106 -158 -317 -158q-94 0 -175.5 33.5t-143.5 95.5t-98 157
t-36 212q0 118 36 215t98.5 159.5t144.5 96t176 33.5q216 0 315 -164h4v133zM571 207q114 0 185 73t71 193t-71 193t-185 73t-185 -73t-71 -193t71 -193t185 -73z" />
    <glyph glyph-name="Hcircumflex" unicode="&#x124;" horiz-adv-x="1474" 
d="M737 1663l-145 -141h-221l245 245h244l246 -245h-221zM1077 1434h262v-1434h-262v629h-680v-629h-262v1434h262v-555h680v555z" />
    <glyph glyph-name="hcircumflex" unicode="&#x125;" horiz-adv-x="1134" 
d="M362 1767l246 -245h-221l-147 141l-146 -141h-221l246 245h243zM367 1434v-623h4q105 166 307 166q163 0 259.5 -96.5t96.5 -296.5v-584h-252v524q0 219 -196 219q-102 0 -160.5 -67t-58.5 -213v-463h-252v1434h252z" />
    <glyph glyph-name="Hbar" unicode="&#x126;" horiz-adv-x="1490" 
d="M1491 1241v-207h-141v-1034h-263v629h-681v-629h-263v1034h-143v207h143v193h263v-193h681v193h263v-193h141zM1087 879v155h-681v-155h681z" />
    <glyph glyph-name="hbar" unicode="&#x127;" horiz-adv-x="1134" 
d="M678 977q163 0 259.5 -96.5t96.5 -296.5v-584h-252v524q0 219 -196 219q-102 0 -160.5 -67t-58.5 -213v-463h-252v1139h-133v149h133v146h252v-146h280v-149h-280v-328h4q105 166 307 166z" />
    <glyph glyph-name="Itilde" unicode="&#x128;" horiz-adv-x="534" 
d="M438 1518q-61 0 -186.5 42t-163.5 42q-69 0 -111 -86l-86 26q62 234 224 234q60 0 185.5 -42t162.5 -42q71 0 112 86l84 -29q-62 -231 -221 -231zM399 1434v-1434h-264v1434h264z" />
    <glyph glyph-name="itilde" unicode="&#x129;" horiz-adv-x="483" 
d="M127 1444q39 0 90 -24.5t95.5 -49t68.5 -24.5q28 0 44.5 23t29.5 69l94 -31q-20 -114 -65.5 -181t-118.5 -67q-39 0 -90.5 25.5t-96 50.5t-67.5 25q-28 0 -44.5 -23.5t-29.5 -71.5l-94 31q20 114 65.5 181t118.5 67zM115 0v946h252v-946h-252z" />
    <glyph glyph-name="Imacron" unicode="&#x12a;" horiz-adv-x="534" 
d="M580 1716v-170h-627v170h627zM399 1434v-1434h-264v1434h264z" />
    <glyph glyph-name="imacron" unicode="&#x12b;" horiz-adv-x="483" 
d="M453 1366v-174h-422v174h422zM115 0v946h252v-946h-252z" />
    <glyph glyph-name="Ibreve" unicode="&#x12c;" horiz-adv-x="534" 
d="M573 1767q-12 -119 -93.5 -186.5t-213.5 -67.5t-212.5 67.5t-92.5 186.5h172q5 -48 39.5 -76t93.5 -28t93.5 28t39.5 76h174zM399 1434v-1434h-264v1434h264z" />
    <glyph glyph-name="ibreve" unicode="&#x12d;" horiz-adv-x="483" 
d="M496 1434q0 -153 -68 -230.5t-186 -77.5q-117 0 -184.5 77.5t-67.5 230.5h162q0 -76 21.5 -112t68.5 -36q49 0 69.5 35.5t20.5 112.5h164zM115 0v946h252v-946h-252z" />
    <glyph glyph-name="Iogonek" unicode="&#x12e;" horiz-adv-x="534" 
d="M399 0h-63q-133 -133 -133 -197q0 -21 15.5 -33t39.5 -12q27 0 80 11l24 -158q-84 -19 -143 -19q-92 0 -145.5 41t-53.5 123q0 112 156 244h-41v1434h264v-1434z" />
    <glyph glyph-name="iogonek" unicode="&#x12f;" horiz-adv-x="483" 
d="M98 1421h287v-276h-287v276zM115 0v946h252v-946h-82q-133 -133 -133 -197q0 -21 15.5 -33t39.5 -12q27 0 80 11l24 -158q-84 -19 -143 -19q-92 0 -145.5 41t-53.5 123q0 112 156 244h-10z" />
    <glyph glyph-name="Idotaccent" unicode="&#x130;" horiz-adv-x="534" 
d="M391 1757v-235h-252v235h252zM399 1434v-1434h-264v1434h264z" />
    <glyph glyph-name="dotlessi" unicode="&#x131;" horiz-adv-x="483" 
d="M115 0v946h252v-946h-252z" />
    <glyph glyph-name="IJ" unicode="&#x132;" horiz-adv-x="1120" 
d="M399 1434v-1434h-264v1434h264zM987 1434v-1076q0 -188 -84 -277t-256 -89h-86v250h60q53 0 78.5 29.5t25.5 99.5v1063h262z" />
    <glyph glyph-name="ij" unicode="&#x133;" horiz-adv-x="966" 
d="M385 1421v-276h-287v276h287zM868 1421v-276h-286v276h286zM115 0v946h252v-946h-252zM440 -184h43q61 0 88 29.5t27 95.5v1005h252v-1016q0 -171 -83 -258.5t-245 -87.5h-82v232z" />
    <glyph glyph-name="Jcircumflex" unicode="&#x134;" horiz-adv-x="587" 
d="M444 1767l246 -245h-221l-147 141l-146 -141h-221l246 245h243zM453 1434v-1076q0 -188 -84 -277t-256 -89h-86v250h59q53 0 78.5 29.5t25.5 99.5v1063h263z" />
    <glyph glyph-name="jcircumflex" unicode="&#x135;" horiz-adv-x="483" 
d="M362 1448l183 -315h-209l-94 190l-95 -190h-208l182 315h241zM-43 -184h43q61 0 88 29.5t27 95.5v1005h252v-1016q0 -171 -83 -258.5t-245 -87.5h-82v232z" />
    <glyph glyph-name="Kcommaaccent" unicode="&#x136;" horiz-adv-x="1402" 
d="M690 770l709 -770h-381l-621 702v-702h-262v1434h262v-637l541 637h360zM563 -291v195h240v-195l-133 -139h-90l71 139h-88z" />
    <glyph glyph-name="kcommaaccent" unicode="&#x137;" horiz-adv-x="1058" 
d="M610 516l439 -516h-328l-354 451v-451h-252v1434h252v-877l311 389h319zM401 -291v195h240v-195l-133 -139h-90l71 139h-88z" />
    <glyph glyph-name="kgreenlandic" unicode="&#x138;" horiz-adv-x="1052" 
d="M1042 0h-327l-355 451v-451h-249v946h249v-389l312 389h319l-387 -430z" />
    <glyph glyph-name="Lacute" unicode="&#x139;" horiz-adv-x="1001" 
d="M721 1767l-326 -245h-184l213 245h297zM397 1434v-1186h598v-248h-860v1434h262z" />
    <glyph glyph-name="lacute" unicode="&#x13a;" horiz-adv-x="483" 
d="M653 1767l-325 -245h-185l213 245h297zM367 1434v-1434h-252v1434h252z" />
    <glyph glyph-name="Lcommaaccent" unicode="&#x13b;" horiz-adv-x="1001" 
d="M397 248h598v-248h-860v1434h262v-1186zM453 -291v195h239v-195l-133 -139h-90l72 139h-88z" />
    <glyph glyph-name="lcommaaccent" unicode="&#x13c;" horiz-adv-x="483" 
d="M115 1434h252v-1434h-252v1434zM123 -291v195h239v-195l-133 -139h-90l72 139h-88z" />
    <glyph glyph-name="Lcaron" unicode="&#x13d;" horiz-adv-x="1001" 
d="M727 905h-90l108 312h-102v247h248v-247zM397 248h598v-248h-860v1434h262v-1186z" />
    <glyph glyph-name="lcaron" unicode="&#x13e;" horiz-adv-x="724" 
d="M461 1464h250v-247l-166 -197h-90l92 197h-86v247zM115 0v1434h252v-1434h-252z" />
    <glyph glyph-name="Ldot" unicode="&#x13f;" horiz-adv-x="1001" 
d="M397 1434v-1186h598v-248h-860v1434h262zM862 946v-284h-284v284h284z" />
    <glyph glyph-name="ldot" unicode="&#x140;" horiz-adv-x="735" 
d="M367 1434v-1434h-252v1434h252zM717 948v-284h-285v284h285z" />
    <glyph glyph-name="Lslash" unicode="&#x141;" horiz-adv-x="1001" 
d="M397 248h598v-248h-860v578l-155 -80v170l155 80v686h262v-549l353 182v-170l-353 -182v-467z" />
    <glyph glyph-name="lslash" unicode="&#x142;" horiz-adv-x="602" 
d="M582 1020v-168l-154 -82v-770h-252v639l-156 -82v170l156 82v625h252v-494z" />
    <glyph glyph-name="Nacute" unicode="&#x143;" horiz-adv-x="1474" 
d="M1147 1767l-326 -245h-184l213 245h297zM1339 1434v-1434h-243l-697 983h-2v-983h-262v1434h244l696 -985h2v985h262z" />
    <glyph glyph-name="nacute" unicode="&#x144;" horiz-adv-x="1128" 
d="M997 1448l-313 -315h-197l213 315h297zM672 977q163 0 259.5 -96.5t96.5 -296.5v-584h-252v524q0 219 -194 219q-103 0 -162.5 -67t-59.5 -213v-463h-249v946h247v-143h4q48 83 127.5 128.5t182.5 45.5z" />
    <glyph glyph-name="Ncommaaccent" unicode="&#x145;" horiz-adv-x="1474" 
d="M1077 1434h262v-1434h-243l-697 983h-2v-983h-262v1434h244l696 -985h2v985zM616 -291v195h240v-195l-133 -139h-90l72 139h-89z" />
    <glyph glyph-name="ncommaaccent" unicode="&#x146;" horiz-adv-x="1128" 
d="M672 977q163 0 259.5 -96.5t96.5 -296.5v-584h-252v524q0 219 -194 219q-103 0 -162.5 -67t-59.5 -213v-463h-249v946h247v-143h4q48 83 127.5 128.5t182.5 45.5zM465 -291v195h240v-195l-134 -139h-90l72 139h-88z" />
    <glyph glyph-name="Ncaron" unicode="&#x147;" horiz-adv-x="1474" 
d="M858 1522h-244l-245 245h221l145 -141l148 141h221zM1339 1434v-1434h-243l-697 983h-2v-983h-262v1434h244l696 -985h2v985h262z" />
    <glyph glyph-name="ncaron" unicode="&#x148;" horiz-adv-x="1128" 
d="M963 1434l-252 -316h-242l-252 316h223l150 -183l151 183h222zM672 977q163 0 259.5 -96.5t96.5 -296.5v-584h-252v524q0 219 -194 219q-103 0 -162.5 -67t-59.5 -213v-463h-249v946h247v-143h4q48 83 127.5 128.5t182.5 45.5z" />
    <glyph glyph-name="napostrophe" unicode="&#x149;" horiz-adv-x="1267" 
d="M276 1464v-247l-163 -312h-90l108 312h-102v247h247zM811 977q164 0 260 -96.5t96 -296.5v-584h-249v524q0 219 -197 219q-102 0 -160.5 -67t-58.5 -213v-463h-252v946h248v-143h4q48 83 127 128.5t182 45.5z" />
    <glyph glyph-name="Eng" unicode="&#x14a;" horiz-adv-x="1474" 
d="M1077 1434h262v-1434v-68q0 -342 -335 -342h-136v248h86q64 0 93.5 27t29.5 94v74l-678 948h-2v-981h-262v1434h244l696 -977h2v977z" />
    <glyph glyph-name="eng" unicode="&#x14b;" horiz-adv-x="1128" 
d="M672 977q163 0 259.5 -96.5t96.5 -296.5v-584v-90q0 -320 -303 -320h-131v230h86q96 0 96 102v78v524q0 219 -194 219q-103 0 -162.5 -67t-59.5 -213v-463h-249v946h247v-143h4q48 83 127.5 128.5t182.5 45.5z" />
    <glyph glyph-name="Omacron" unicode="&#x14c;" horiz-adv-x="1619" 
d="M1122 1716v-170h-626v170h626zM809 1464q158 0 297 -55t239 -151.5t158 -237t58 -303.5q0 -218 -99 -389.5t-270 -265t-383 -93.5t-382.5 93.5t-269 265t-98.5 389.5q0 164 57.5 304t157.5 236.5t238.5 151.5t296.5 55zM809 1196q-202 0 -332.5 -133.5t-130.5 -345.5
t130.5 -345.5t332.5 -133.5q203 0 333 133t130 346t-130 346t-333 133z" />
    <glyph glyph-name="omacron" unicode="&#x14d;" horiz-adv-x="1153" 
d="M891 1366v-174h-627v174h627zM578 977q227 0 375.5 -141.5t148.5 -362.5t-148.5 -362.5t-375.5 -141.5t-376 141.5t-149 362.5t149 362.5t376 141.5zM578 739q-117 0 -192 -73t-75 -193t75 -193t192 -73t190.5 73t73.5 193t-73.5 193t-190.5 73z" />
    <glyph glyph-name="Obreve" unicode="&#x14e;" horiz-adv-x="1619" 
d="M1118 1767q-12 -119 -93.5 -186.5t-213.5 -67.5t-212.5 67.5t-92.5 186.5h172q5 -48 39.5 -76t93.5 -28t93.5 28t39.5 76h174zM809 1464q158 0 297 -55t239 -151.5t158 -237t58 -303.5q0 -218 -99 -389.5t-270 -265t-383 -93.5t-382.5 93.5t-269 265t-98.5 389.5
q0 164 57.5 304t157.5 236.5t238.5 151.5t296.5 55zM809 1196q-202 0 -332.5 -133.5t-130.5 -345.5t130.5 -345.5t332.5 -133.5q203 0 333 133t130 346t-130 346t-333 133z" />
    <glyph glyph-name="obreve" unicode="&#x14f;" horiz-adv-x="1153" 
d="M883 1434q0 -140 -86.5 -224t-221.5 -84q-134 0 -219.5 84t-85.5 224h166q3 -65 38.5 -106.5t100.5 -41.5q66 0 102.5 41.5t39.5 106.5h166zM578 977q227 0 375.5 -141.5t148.5 -362.5t-148.5 -362.5t-375.5 -141.5t-376 141.5t-149 362.5t149 362.5t376 141.5zM578 739
q-117 0 -192 -73t-75 -193t75 -193t192 -73t190.5 73t73.5 193t-73.5 193t-190.5 73z" />
    <glyph glyph-name="Ohungarumlaut" unicode="&#x150;" horiz-adv-x="1619" 
d="M999 1767l-221 -245h-172l185 245h208zM1282 1767l-219 -245h-172l184 245h207zM809 1464q158 0 297 -55t239 -151.5t158 -237t58 -303.5q0 -218 -99 -389.5t-270 -265t-383 -93.5t-382.5 93.5t-269 265t-98.5 389.5q0 164 57.5 304t157.5 236.5t238.5 151.5t296.5 55z
M809 1196q-202 0 -332.5 -133.5t-130.5 -345.5t130.5 -345.5t332.5 -133.5q203 0 333 133t130 346t-130 346t-333 133z" />
    <glyph glyph-name="ohungarumlaut" unicode="&#x151;" horiz-adv-x="1153" 
d="M791 1448l-271 -315h-174l232 315h213zM1083 1448l-270 -315h-174l229 315h215zM578 977q227 0 375.5 -141.5t148.5 -362.5t-148.5 -362.5t-375.5 -141.5t-376 141.5t-149 362.5t149 362.5t376 141.5zM578 739q-117 0 -192 -73t-75 -193t75 -193t192 -73t190.5 73
t73.5 193t-73.5 193t-190.5 73z" />
    <glyph glyph-name="OE" unicode="&#x152;" horiz-adv-x="2211" 
d="M1532 242h600v-242h-862v139q-186 -170 -465 -170q-210 0 -379.5 93.5t-268 265t-98.5 389.5t98.5 389.5t268 264.5t379.5 93q281 0 465 -172v142h841v-242h-579v-291h536v-242h-536v-417zM805 236q205 0 337 135.5t132 345.5t-132 345.5t-337 135.5
q-200 0 -330.5 -134.5t-130.5 -346.5t130.5 -346.5t330.5 -134.5z" />
    <glyph glyph-name="oe" unicode="&#x153;" horiz-adv-x="1810" 
d="M1305 977q214 0 336 -134t122 -368v-55h-706q12 -104 83.5 -163.5t180.5 -59.5q153 0 283 125l127 -185q-84 -77 -180.5 -122.5t-231.5 -45.5q-259 0 -383 181h-4q-54 -87 -148.5 -134t-216.5 -47q-225 0 -369.5 141t-144.5 363t144.5 363t369.5 141q122 0 216.5 -46.5
t150.5 -133.5h4q57 85 151 132.5t216 47.5zM1290 768q-92 0 -152.5 -45.5t-78.5 -138.5h444q-3 87 -61.5 135.5t-151.5 48.5zM565 741q-115 0 -189.5 -73t-74.5 -195t74.5 -195t189.5 -73q113 0 187.5 73t74.5 195t-74.5 195t-187.5 73z" />
    <glyph glyph-name="Racute" unicode="&#x154;" horiz-adv-x="1224" 
d="M969 1767l-326 -245h-184l213 245h297zM885 0l-389 571h-99v-571h-262v1434h529q212 0 337 -120t125 -315q0 -161 -89 -272t-246 -143l423 -584h-329zM397 1192v-389h226q112 0 167.5 49.5t55.5 142.5q0 91 -56 144t-167 53h-226z" />
    <glyph glyph-name="racute" unicode="&#x155;" horiz-adv-x="706" 
d="M803 1448l-314 -315h-196l213 315h297zM686 975v-270h-29q-154 0 -225.5 -74t-71.5 -244v-387h-249v946h247v-201h4q37 111 117.5 170.5t196.5 59.5h10z" />
    <glyph glyph-name="Rcommaaccent" unicode="&#x156;" horiz-adv-x="1224" 
d="M791 584l423 -584h-329l-389 571h-99v-571h-262v1434h529q212 0 337 -120t125 -315q0 -161 -89 -272t-246 -143zM397 1192v-389h226q112 0 167.5 49.5t55.5 142.5q0 91 -56 144t-167 53h-226zM514 -291v195h240v-195l-133 -139h-91l72 139h-88z" />
    <glyph glyph-name="rcommaaccent" unicode="&#x157;" horiz-adv-x="706" 
d="M676 975h10v-270h-29q-154 0 -225.5 -74t-71.5 -244v-387h-249v946h247v-201h4q37 111 117.5 170.5t196.5 59.5zM119 -291v195h239v-195l-133 -139h-90l72 139h-88z" />
    <glyph glyph-name="Rcaron" unicode="&#x158;" horiz-adv-x="1224" 
d="M682 1522h-244l-245 245h221l145 -141l148 141h221zM885 0l-389 571h-99v-571h-262v1434h529q212 0 337 -120t125 -315q0 -161 -89 -272t-246 -143l423 -584h-329zM397 1192v-389h226q112 0 167.5 49.5t55.5 142.5q0 91 -56 144t-167 53h-226z" />
    <glyph glyph-name="rcaron" unicode="&#x159;" horiz-adv-x="706" 
d="M768 1434l-252 -316h-242l-251 316h223l149 -183l152 183h221zM686 975v-270h-29q-154 0 -225.5 -74t-71.5 -244v-387h-249v946h247v-201h4q37 111 117.5 170.5t196.5 59.5h10z" />
    <glyph glyph-name="Sacute" unicode="&#x15a;" horiz-adv-x="1067" 
d="M975 1767l-326 -245h-184l213 245h297zM551 1464q202 0 420 -100l-113 -240q-174 88 -305 88q-150 0 -150 -104q0 -40 25 -72t86 -75l248 -175q126 -86 186 -179.5t60 -223.5q0 -200 -130.5 -307t-359.5 -107q-270 0 -495 140l116 239q211 -125 387 -125q99 0 151 39.5
t52 106.5q0 52 -34 92.5t-111 95.5l-232 166q-227 155 -227 377q0 169 111.5 266.5t314.5 97.5z" />
    <glyph glyph-name="sacute" unicode="&#x15b;" horiz-adv-x="856" 
d="M862 1448l-313 -315h-197l213 315h297zM432 -31q-225 0 -405 101l102 213q169 -99 317 -99q117 0 117 68q0 26 -18.5 43t-63.5 39l-170 74q-213 94 -213 282q0 138 94.5 212.5t272.5 74.5q157 0 336 -66l-84 -211q-153 66 -266 66q-97 0 -97 -57q0 -27 19.5 -45.5
t70.5 -40.5l170 -74q104 -43 156.5 -109t52.5 -168q0 -152 -104 -227.5t-287 -75.5z" />
    <glyph glyph-name="Scircumflex" unicode="&#x15c;" horiz-adv-x="1067" 
d="M686 1767l246 -245h-221l-148 141l-145 -141h-221l245 245h244zM551 1464q202 0 420 -100l-113 -240q-174 88 -305 88q-150 0 -150 -104q0 -40 25 -72t86 -75l248 -175q126 -86 186 -179.5t60 -223.5q0 -200 -130.5 -307t-359.5 -107q-270 0 -495 140l116 239
q211 -125 387 -125q99 0 151 39.5t52 106.5q0 52 -34 92.5t-111 95.5l-232 166q-227 155 -227 377q0 169 111.5 266.5t314.5 97.5z" />
    <glyph glyph-name="scircumflex" unicode="&#x15d;" horiz-adv-x="856" 
d="M575 1448l252 -315h-221l-151 182l-150 -182h-223l252 315h241zM432 -31q-225 0 -405 101l102 213q169 -99 317 -99q117 0 117 68q0 26 -18.5 43t-63.5 39l-170 74q-213 94 -213 282q0 138 94.5 212.5t272.5 74.5q157 0 336 -66l-84 -211q-153 66 -266 66q-97 0 -97 -57
q0 -27 19.5 -45.5t70.5 -40.5l170 -74q104 -43 156.5 -109t52.5 -168q0 -152 -104 -227.5t-287 -75.5z" />
    <glyph glyph-name="Scedilla" unicode="&#x15e;" horiz-adv-x="1067" 
d="M1008 383q0 -188 -115.5 -294t-319.5 -118l-18 -47q75 -15 117.5 -46t42.5 -91q0 -77 -104 -135q-50 -28 -199 -86l-29 65q120 56 147 80q21 19 21 37q0 31 -28 46t-97 30l53 145q-250 12 -456 140l116 239q211 -125 387 -125q99 0 151 39.5t52 106.5q0 52 -34 92.5
t-111 95.5l-232 166q-227 155 -227 377q0 169 111.5 266.5t314.5 97.5q202 0 420 -100l-113 -240q-174 88 -305 88q-150 0 -150 -104q0 -40 25 -72t86 -75l248 -175q126 -86 186 -179.5t60 -223.5z" />
    <glyph glyph-name="scedilla" unicode="&#x15f;" horiz-adv-x="856" 
d="M823 272q0 -144 -93.5 -219.5t-258.5 -83.5l-18 -45q75 -15 117 -46t42 -91q0 -77 -104 -135q-50 -28 -199 -86l-28 65q120 56 147 80q21 19 21 37q0 31 -28 46t-97 30l55 147q-191 10 -352 99l102 213q169 -99 317 -99q117 0 117 68q0 26 -18.5 43t-63.5 39l-170 74
q-213 94 -213 282q0 138 94.5 212.5t272.5 74.5q157 0 336 -66l-84 -211q-153 66 -266 66q-97 0 -97 -57q0 -27 19.5 -45.5t70.5 -40.5l170 -74q104 -43 156.5 -109t52.5 -168z" />
    <glyph glyph-name="Scaron" unicode="&#x160;" horiz-adv-x="1067" 
d="M686 1522h-244l-245 245h221l145 -141l148 141h221zM551 1464q202 0 420 -100l-113 -240q-174 88 -305 88q-150 0 -150 -104q0 -40 25 -72t86 -75l248 -175q126 -86 186 -179.5t60 -223.5q0 -200 -130.5 -307t-359.5 -107q-270 0 -495 140l116 239q211 -125 387 -125
q99 0 151 39.5t52 106.5q0 52 -34 92.5t-111 95.5l-232 166q-227 155 -227 377q0 169 111.5 266.5t314.5 97.5z" />
    <glyph glyph-name="scaron" unicode="&#x161;" horiz-adv-x="856" 
d="M827 1434l-252 -316h-241l-252 316h223l150 -183l151 183h221zM432 -31q-225 0 -405 101l102 213q169 -99 317 -99q117 0 117 68q0 26 -18.5 43t-63.5 39l-170 74q-213 94 -213 282q0 138 94.5 212.5t272.5 74.5q157 0 336 -66l-84 -211q-153 66 -266 66q-97 0 -97 -57
q0 -27 19.5 -45.5t70.5 -40.5l170 -74q104 -43 156.5 -109t52.5 -168q0 -152 -104 -227.5t-287 -75.5z" />
    <glyph glyph-name="uni0162" unicode="&#x162;" horiz-adv-x="1077" 
d="M670 0h-90l-29 -76q75 -15 117.5 -46t42.5 -91q0 -77 -104 -135q-50 -28 -199 -86l-29 65q120 56 147 80q21 19 21 37q0 31 -28 46t-97 30l65 176h-79v1192h-392v242h1045v-242h-391v-1192z" />
    <glyph glyph-name="uni0163" unicode="&#x163;" horiz-adv-x="684" 
d="M647 735h-194v-397q0 -58 22.5 -82.5t77.5 -24.5h43v-233h-111h-8l-28 -74q75 -15 117 -46t42 -91q0 -77 -104 -135q-50 -28 -199 -86l-29 65q120 56 147 80q21 19 21 37q0 31 -28 46t-97 30l70 186q-188 46 -188 269v456h-174v211h174v379h252v-379h194v-211z" />
    <glyph glyph-name="Tcaron" unicode="&#x164;" horiz-adv-x="1077" 
d="M659 1522h-243l-246 245h221l146 -141l147 141h221zM1061 1434v-242h-391v-1192h-262v1192h-392v242h1045z" />
    <glyph glyph-name="tcaron" unicode="&#x165;" horiz-adv-x="854" 
d="M584 1464h250v-247l-166 -197h-90l92 197h-86v247zM453 1325v-379h194v-211h-194v-397q0 -58 22.5 -82.5t77.5 -24.5h43v-233h-111q-136 0 -210 70.5t-74 210.5v456h-174v211h174v379h252z" />
    <glyph glyph-name="Tbar" unicode="&#x166;" horiz-adv-x="1077" 
d="M1061 1192h-391v-246h258v-207h-258v-739h-262v739h-261v207h261v246h-392v242h1045v-242z" />
    <glyph glyph-name="tbar" unicode="&#x167;" horiz-adv-x="686" 
d="M647 735h-194v-112h180v-148h-180v-137q0 -58 22.5 -82.5t77.5 -24.5h43v-233h-111q-136 0 -210 70.5t-74 210.5v196h-158v148h158v112h-174v211h174v379h252v-379h194v-211z" />
    <glyph glyph-name="Utilde" unicode="&#x168;" horiz-adv-x="1419" 
d="M883 1518q-61 0 -187 42t-164 42q-68 0 -110 -86l-86 26q62 234 223 234q60 0 185.5 -42t162.5 -42q72 0 113 86l84 -29q-62 -231 -221 -231zM1300 1434v-869q0 -274 -155.5 -434t-433.5 -160q-280 0 -436 160t-156 434v869h276v-852q0 -155 85.5 -247.5t230.5 -92.5
q143 0 228 92.5t85 247.5v852h276z" />
    <glyph glyph-name="utilde" unicode="&#x169;" horiz-adv-x="1107" 
d="M403 1444q63 0 177 -49t151 -49q65 0 109 92l98 -31q-56 -248 -219 -248q-51 0 -116 25.5t-122.5 50.5t-89.5 25q-67 0 -110 -95l-99 31q56 248 221 248zM451 -31q-155 0 -253 99t-98 299v579h258v-534q0 -107 47 -159t132 -52q208 0 208 291v454h252v-946h-247v145h-5
q-98 -176 -294 -176z" />
    <glyph glyph-name="Umacron" unicode="&#x16a;" horiz-adv-x="1419" 
d="M1022 1716v-170h-627v170h627zM1300 1434v-869q0 -274 -155.5 -434t-433.5 -160q-280 0 -436 160t-156 434v869h276v-852q0 -155 85.5 -247.5t230.5 -92.5q143 0 228 92.5t85 247.5v852h276z" />
    <glyph glyph-name="umacron" unicode="&#x16b;" horiz-adv-x="1107" 
d="M868 1366v-174h-626v174h626zM451 -31q-155 0 -253 99t-98 299v579h258v-534q0 -107 47 -159t132 -52q208 0 208 291v454h252v-946h-247v145h-5q-98 -176 -294 -176z" />
    <glyph glyph-name="Ubreve" unicode="&#x16c;" horiz-adv-x="1419" 
d="M1016 1767q-12 -119 -93.5 -186.5t-213.5 -67.5t-213 67.5t-93 186.5h172q5 -48 40 -76t94 -28t93.5 28t39.5 76h174zM1300 1434v-869q0 -274 -155.5 -434t-433.5 -160q-280 0 -436 160t-156 434v869h276v-852q0 -155 85.5 -247.5t230.5 -92.5q143 0 228 92.5t85 247.5
v852h276z" />
    <glyph glyph-name="ubreve" unicode="&#x16d;" horiz-adv-x="1107" 
d="M862 1434q0 -140 -86.5 -224t-220.5 -84t-219.5 84t-85.5 224h166q3 -65 38.5 -106.5t100.5 -41.5q66 0 102 41.5t39 106.5h166zM451 -31q-155 0 -253 99t-98 299v579h258v-534q0 -107 47 -159t132 -52q208 0 208 291v454h252v-946h-247v145h-5q-98 -176 -294 -176z" />
    <glyph glyph-name="Uring" unicode="&#x16e;" horiz-adv-x="1419" 
d="M711 1802q106 0 173.5 -67.5t67.5 -171.5q0 -105 -68 -172.5t-173 -67.5q-107 0 -175.5 67.5t-68.5 172.5q0 104 68.5 171.5t175.5 67.5zM709 1692q-56 0 -91.5 -36.5t-35.5 -92.5t35.5 -92.5t91.5 -36.5q58 0 93.5 36.5t35.5 92.5t-35.5 92.5t-93.5 36.5zM1300 1434
v-869q0 -274 -155.5 -434t-433.5 -160q-280 0 -436 160t-156 434v869h276v-852q0 -155 85.5 -247.5t230.5 -92.5q143 0 228 92.5t85 247.5v852h276z" />
    <glyph glyph-name="uring" unicode="&#x16f;" horiz-adv-x="1107" 
d="M553 1530q107 0 176.5 -68t69.5 -172t-69.5 -171.5t-176.5 -67.5q-106 0 -175 67.5t-69 171.5t69 172t175 68zM553 1419q-58 0 -93.5 -36.5t-35.5 -92.5t35.5 -92.5t93.5 -36.5q59 0 95 36.5t36 92.5t-36 92.5t-95 36.5zM451 -31q-155 0 -253 99t-98 299v579h258v-534
q0 -107 47 -159t132 -52q208 0 208 291v454h252v-946h-247v145h-5q-98 -176 -294 -176z" />
    <glyph glyph-name="Uhungarumlaut" unicode="&#x170;" horiz-adv-x="1419" 
d="M897 1767l-221 -245h-172l184 245h209zM1180 1767l-219 -245h-173l185 245h207zM1300 1434v-869q0 -274 -155.5 -434t-433.5 -160q-280 0 -436 160t-156 434v869h276v-852q0 -155 85.5 -247.5t230.5 -92.5q143 0 228 92.5t85 247.5v852h276z" />
    <glyph glyph-name="uhungarumlaut" unicode="&#x171;" horiz-adv-x="1107" 
d="M768 1448l-270 -315h-174l231 315h213zM1061 1448l-270 -315h-175l230 315h215zM451 -31q-155 0 -253 99t-98 299v579h258v-534q0 -107 47 -159t132 -52q208 0 208 291v454h252v-946h-247v145h-5q-98 -176 -294 -176z" />
    <glyph glyph-name="Uogonek" unicode="&#x172;" horiz-adv-x="1419" 
d="M1024 1434h276v-869q0 -240 -120 -394t-340 -189q-115 -121 -115 -179q0 -21 15.5 -33t39.5 -12q27 0 80 11l25 -158q-84 -19 -144 -19q-91 0 -144.5 41t-53.5 123q0 102 125 215q-260 13 -404.5 172t-144.5 422v869h276v-852q0 -155 85.5 -247.5t230.5 -92.5
q143 0 228 92.5t85 247.5v852z" />
    <glyph glyph-name="uogonek" unicode="&#x173;" horiz-adv-x="1107" 
d="M997 0h-118q-134 -134 -134 -197q0 -21 16 -33t40 -12q27 0 80 11l24 -158q-84 -19 -143 -19q-92 0 -145.5 41t-53.5 123q0 122 187 269v120h-5q-98 -176 -294 -176q-155 0 -253 99t-98 299v579h258v-534q0 -107 47 -159t132 -52q208 0 208 291v454h252v-946z" />
    <glyph glyph-name="Wcircumflex" unicode="&#x174;" horiz-adv-x="2095" 
d="M1169 1767l246 -245h-221l-147 141l-146 -141h-221l246 245h243zM2073 1434l-455 -1434h-242l-325 1006h-7l-325 -1006h-242l-454 1434h301l276 -1014h4l322 1014h243l324 -1014h4l277 1014h299z" />
    <glyph glyph-name="wcircumflex" unicode="&#x175;" horiz-adv-x="1560" 
d="M780 1315l-149 -182h-223l251 315h242l252 -315h-221zM1288 946h262l-329 -946h-224l-217 618l-217 -618h-223l-330 946h262l183 -622l207 622h237l207 -622z" />
    <glyph glyph-name="Ycircumflex" unicode="&#x176;" horiz-adv-x="1222" 
d="M610 1663l-145 -141h-221l245 245h244l246 -245h-221zM1223 1434l-480 -885v-549h-264v547l-479 887h309l299 -617h6l299 617h310z" />
    <glyph glyph-name="ycircumflex" unicode="&#x177;" horiz-adv-x="1064" 
d="M545 1315l-150 -182h-223l252 315h242l252 -315h-222zM791 946h264l-606 -1356h-261l232 498l-410 858h295l240 -573z" />
    <glyph glyph-name="Ydieresis" unicode="&#x178;" horiz-adv-x="1222" 
d="M516 1745v-223h-244v223h244zM952 1745v-223h-243v223h243zM1223 1434l-480 -885v-549h-264v547l-479 887h309l299 -617h6l299 617h310z" />
    <glyph glyph-name="Zacute" unicode="&#x179;" horiz-adv-x="1134" 
d="M983 1767l-326 -245h-184l213 245h297zM362 246h732v-246h-1053v246l709 942h-650v246h969v-246z" />
    <glyph glyph-name="zacute" unicode="&#x17a;" horiz-adv-x="907" 
d="M872 1448l-313 -315h-197l213 315h297zM831 745l-483 -524h518v-221h-823v203l481 522h-454v221h761v-201z" />
    <glyph glyph-name="Zdotaccent" unicode="&#x17b;" horiz-adv-x="1134" 
d="M698 1757v-235h-252v235h252zM362 246h732v-246h-1053v246l709 942h-650v246h969v-246z" />
    <glyph glyph-name="zdotaccent" unicode="&#x17c;" horiz-adv-x="907" 
d="M608 1421v-276h-286v276h286zM348 221h518v-221h-823v203l481 522h-454v221h761v-201z" />
    <glyph glyph-name="Zcaron" unicode="&#x17d;" horiz-adv-x="1134" 
d="M694 1522h-243l-246 245h221l145 -141l148 141h221zM362 246h732v-246h-1053v246l709 942h-650v246h969v-246z" />
    <glyph glyph-name="zcaron" unicode="&#x17e;" horiz-adv-x="907" 
d="M586 1118h-242l-252 316h223l150 -183l151 183h222zM348 221h518v-221h-823v203l481 522h-454v221h761v-201z" />
    <glyph glyph-name="florin" unicode="&#x192;" horiz-adv-x="825" 
d="M696 1157q-91 0 -135.5 -41t-44.5 -127v-43h256v-61h-256v-889q0 -194 -94.5 -300t-278.5 -106h-102v226h82q66 0 106.5 37.5t40.5 121.5v910h-200v61h200v33q0 196 105 299.5t307 103.5h90v-225h-76z" />
    <glyph glyph-name="AEacute" unicode="&#x1fc;" horiz-adv-x="1974" 
d="M1819 1767l-326 -245h-184l213 245h297zM1343 242h551v-242h-657h-147v326h-545l-203 -326h-336l938 1434h399h543v-242h-543v-291h490v-242h-490v-417zM690 563h400v639z" />
    <glyph glyph-name="aeacute" unicode="&#x1fd;" horiz-adv-x="1679" 
d="M1257 1448l-313 -315h-196l213 315h296zM416 -31q-169 0 -276 92t-107 244q0 149 103 239.5t272 90.5q89 0 163.5 -26.5t118.5 -73.5h4v61q0 81 -53 127.5t-162 46.5q-117 0 -293 -45l-51 207q195 45 352 45q82 0 142.5 -15t111.5 -55.5t80 -107.5h4q50 80 143 129
t216 49q207 0 327.5 -132.5t120.5 -373.5v-49h-700q14 -107 80 -168t180 -61q154 0 283 129l124 -179q-178 -174 -403 -174q-137 0 -238.5 55.5t-152.5 149.5h-4q-60 -103 -162.5 -154t-222.5 -51zM938 584h436q-3 87 -61 138.5t-150 51.5q-88 0 -149.5 -48t-75.5 -142z
M492 170q89 0 146.5 38.5t57.5 102.5q0 65 -57 103.5t-145 38.5q-89 0 -138 -40t-49 -102q0 -64 48.5 -102.5t136.5 -38.5z" />
    <glyph glyph-name="Oslashacute" unicode="&#x1fe;" horiz-adv-x="1619" 
d="M1219 1767l-326 -245h-184l213 245h297zM1298 1298q124 -102 193.5 -251t69.5 -330q0 -218 -99 -389.5t-270 -265t-383 -93.5q-232 0 -412 111l-80 -109l-77 52l82 112q-124 100 -193.5 250.5t-69.5 331.5q0 164 57.5 304t157.5 236.5t238.5 151.5t296.5 55
q232 0 414 -112l82 110l77 -51zM346 717q0 -109 37 -201t104 -156l572 768q-114 68 -250 68q-202 0 -332.5 -133.5t-130.5 -345.5zM809 238q203 0 333 133t130 346q0 223 -139 356l-570 -770q111 -65 246 -65z" />
    <glyph glyph-name="oslashacute" unicode="&#x1ff;" horiz-adv-x="1153" 
d="M983 1448l-313 -315h-197l213 315h297zM944 844q158 -142 158 -371q0 -221 -148.5 -362.5t-375.5 -141.5q-182 0 -322 97l-82 -95l-55 47l82 93q-148 145 -148 362q0 221 149 362.5t376 141.5q177 0 307 -88l78 88l55 -49zM311 473q0 -103 56 -172l354 401
q-61 37 -143 37q-117 0 -192 -73t-75 -193zM578 207q117 0 190.5 73t73.5 193q0 112 -64 182l-358 -403q62 -45 158 -45z" />
    <glyph glyph-name="Scommaaccent" unicode="&#x218;" horiz-adv-x="1067" 
d="M762 786q126 -86 186 -179.5t60 -223.5q0 -200 -130.5 -307t-359.5 -107q-270 0 -495 140l116 239q211 -125 387 -125q99 0 151 39.5t52 106.5q0 52 -34 92.5t-111 95.5l-232 166q-227 155 -227 377q0 169 111.5 266.5t314.5 97.5q202 0 420 -100l-113 -240
q-174 88 -305 88q-150 0 -150 -104q0 -40 25 -72t86 -75zM422 -291v195h240v-195l-134 -139h-90l72 139h-88z" />
    <glyph glyph-name="scommaaccent" unicode="&#x219;" horiz-adv-x="856" 
d="M614 549q104 -43 156.5 -109t52.5 -168q0 -152 -104 -227.5t-287 -75.5q-225 0 -405 101l102 213q169 -99 317 -99q117 0 117 68q0 26 -18.5 43t-63.5 39l-170 74q-213 94 -213 282q0 138 94.5 212.5t272.5 74.5q157 0 336 -66l-84 -211q-153 66 -266 66q-97 0 -97 -57
q0 -27 19.5 -45.5t70.5 -40.5zM319 -291v195h240v-195l-133 -139h-90l72 139h-89z" />
    <glyph glyph-name="uni021A" unicode="&#x21a;" horiz-adv-x="1077" 
d="M1061 1434v-242h-391v-1192h-262v1192h-392v242h1045zM418 -291v195h239v-195l-133 -139h-90l72 139h-88z" />
    <glyph glyph-name="uni021B" unicode="&#x21b;" horiz-adv-x="684" 
d="M647 735h-194v-397q0 -58 22.5 -82.5t77.5 -24.5h43v-233h-111q-136 0 -210 70.5t-74 210.5v456h-174v211h174v379h252v-379h194v-211zM315 -291v195h240v-195l-133 -139h-90l71 139h-88z" />
    <glyph glyph-name="uni0237" unicode="&#x237;" horiz-adv-x="483" 
d="M-43 -184h43q61 0 88 29.5t27 95.5v1005h252v-1016q0 -171 -83 -258.5t-245 -87.5h-82v232z" />
    <glyph glyph-name="uni02BC" unicode="&#x2bc;" horiz-adv-x="372" 
d="M68 1464h247v-247l-163 -312h-91l109 312h-102v247z" />
    <glyph glyph-name="circumflex" unicode="&#x2c6;" horiz-adv-x="950" 
d="M596 1448l252 -315h-221l-152 182l-149 -182h-224l252 315h242z" />
    <glyph glyph-name="caron" unicode="&#x2c7;" horiz-adv-x="950" 
d="M848 1434l-252 -316h-242l-252 316h224l149 -183l152 183h221z" />
    <glyph glyph-name="breve" unicode="&#x2d8;" horiz-adv-x="817" 
d="M715 1434q0 -140 -86.5 -224t-220.5 -84t-220 84t-86 224h166q3 -65 39 -106.5t101 -41.5q66 0 102 41.5t39 106.5h166z" />
    <glyph glyph-name="dotaccent" unicode="&#x2d9;" horiz-adv-x="491" 
d="M389 1421v-276h-287v276h287z" />
    <glyph glyph-name="ring" unicode="&#x2da;" horiz-adv-x="694" 
d="M346 1530q107 0 176.5 -68t69.5 -172t-69.5 -171.5t-176.5 -67.5q-106 0 -175 67.5t-69 171.5t69 172t175 68zM346 1419q-58 0 -93.5 -36.5t-35.5 -92.5t35.5 -92.5t93.5 -36.5q59 0 95 36.5t36 92.5t-36 92.5t-95 36.5z" />
    <glyph glyph-name="ogonek" unicode="&#x2db;" horiz-adv-x="552" 
d="M322 49l116 -29q-153 -150 -153 -217q0 -21 15.5 -33t39.5 -12q27 0 80 11l24 -158q-84 -19 -143 -19q-92 0 -145.5 41t-53.5 123q0 69 53.5 139t166.5 154z" />
    <glyph glyph-name="tilde" unicode="&#x2dc;" horiz-adv-x="960" 
d="M324 1444q63 0 176.5 -49t150.5 -49q65 0 109 92l98 -31q-56 -248 -219 -248q-51 0 -116 25.5t-122.5 50.5t-89.5 25q-67 0 -110 -95l-99 31q56 248 222 248z" />
    <glyph glyph-name="hungarumlaut" unicode="&#x2dd;" horiz-adv-x="942" 
d="M547 1448l-271 -315h-174l232 315h213zM840 1448l-271 -315h-174l230 315h215z" />
    <glyph glyph-name="gravecomb" unicode="&#x300;" horiz-adv-x="0" 
d="M-315 1448l213 -315h-197l-313 315h297z" />
    <glyph glyph-name="acutecomb" unicode="&#x301;" horiz-adv-x="0" 
d="M-102 1448l-314 -315h-196l213 315h297z" />
    <glyph glyph-name="uni0302" unicode="&#x302;" horiz-adv-x="0" 
d="M-354 1448l252 -315h-222l-151 182l-150 -182h-223l252 315h242z" />
    <glyph glyph-name="tildecomb" unicode="&#x303;" horiz-adv-x="0" 
d="M-637 1444q63 0 177 -49t151 -49q64 0 108 92l99 -31q-56 -248 -220 -248q-51 0 -115.5 25.5t-122 50.5t-89.5 25q-68 0 -111 -95l-98 31q56 248 221 248z" />
    <glyph glyph-name="uni0304" unicode="&#x304;" horiz-adv-x="0" 
d="M-102 1366v-174h-627v174h627z" />
    <glyph glyph-name="uni0306" unicode="&#x306;" horiz-adv-x="0" 
d="M-102 1434q0 -140 -86.5 -224t-221.5 -84q-134 0 -219.5 84t-85.5 224h166q3 -65 38.5 -106.5t100.5 -41.5q66 0 102.5 41.5t39.5 106.5h166z" />
    <glyph glyph-name="uni0307" unicode="&#x307;" horiz-adv-x="0" 
d="M-102 1421v-276h-287v276h287z" />
    <glyph glyph-name="uni0308" unicode="&#x308;" horiz-adv-x="0" 
d="M-487 1413v-260h-228v260h228zM-102 1413v-260h-228v260h228z" />
    <glyph glyph-name="uni030A" unicode="&#x30a;" horiz-adv-x="0" 
d="M-348 1530q107 0 176.5 -68t69.5 -172t-69.5 -171.5t-176.5 -67.5q-106 0 -175 67.5t-69 171.5t69 172t175 68zM-348 1419q-58 0 -93.5 -36.5t-35.5 -92.5t35.5 -92.5t93.5 -36.5q59 0 95 36.5t36 92.5t-36 92.5t-95 36.5z" />
    <glyph glyph-name="uni030B" unicode="&#x30b;" horiz-adv-x="0" 
d="M-395 1448l-271 -315h-174l232 315h213zM-102 1448l-271 -315h-174l230 315h215z" />
    <glyph glyph-name="uni030C" unicode="&#x30c;" horiz-adv-x="0" 
d="M-102 1434l-252 -316h-242l-252 316h223l150 -183l151 183h222z" />
    <glyph glyph-name="uni0326" unicode="&#x326;" horiz-adv-x="0" 
d="M-342 -96h240v-195l-134 -139h-90l74 139h-90v195z" />
    <glyph glyph-name="uni0327" unicode="&#x327;" horiz-adv-x="0" 
d="M-207 68l-55 -144q75 -15 117.5 -46t42.5 -91q0 -37 -21 -67.5t-64.5 -56t-89 -45.5t-115.5 -47q-3 -1 -5 -1.5t-4.5 -1.5t-4.5 -2l-28 65q120 56 147 80q21 19 21 37q0 31 -28 46t-97 30l90 244h94z" />
    <glyph glyph-name="uni0328" unicode="&#x328;" horiz-adv-x="0" 
d="M-231 49l116 -29q-153 -150 -153 -217q0 -21 15.5 -33t39.5 -12q27 0 80 11l24 -158q-84 -19 -143 -19q-92 0 -145.5 41t-53.5 123q0 69 53.5 139t166.5 154z" />
    <glyph glyph-name="uni0394" unicode="&#x394;" horiz-adv-x="1286" 
d="M733 1434l512 -1434h-1204l512 1434h180zM643 1071l-303 -928h606z" />
    <glyph glyph-name="uni03A9" unicode="&#x3a9;" horiz-adv-x="1527" 
d="M764 1464q317 0 506.5 -183.5t189.5 -475.5q0 -215 -118.5 -368.5t-294.5 -203.5v-6h391v-227h-592v365q167 31 265.5 148.5t98.5 283.5q0 196 -118.5 312t-327.5 116t-328 -116t-119 -312q0 -166 99.5 -283.5t265.5 -148.5v-365h-590v227h391v6q-178 50 -296.5 203.5
t-118.5 368.5q0 292 189.5 475.5t506.5 183.5z" />
    <glyph glyph-name="uni03BC" unicode="&#x3bc;" horiz-adv-x="1107" 
d="M745 946h252v-946h-247v145h-5q-98 -176 -294 -176q-59 0 -111 15v-394h-236v701q-4 23 -4 76v579h258v-534q0 -107 47 -159t132 -52q208 0 208 291v454z" />
    <glyph glyph-name="pi" unicode="&#x3c0;" horiz-adv-x="1269" 
d="M1208 977v-229h-202v-748h-230v748h-233l-178 -748h-234l178 748q-142 -6 -248 -41v229q125 41 301 41h846z" />
    <glyph glyph-name="uni0401" unicode="&#x401;" horiz-adv-x="1075" 
d="M500 1745v-223h-244v223h244zM936 1745v-223h-244v223h244zM397 242h598v-242h-860v1434h850v-242h-588v-291h537v-242h-537v-417z" />
    <glyph glyph-name="uni0402" unicode="&#x402;" horiz-adv-x="1490" 
d="M1038 877q209 0 312.5 -89.5t103.5 -279.5v-117q0 -196 -103 -293.5t-298 -97.5h-158v246h109q96 0 142 36t46 128v73q0 78 -49 112t-158 34q-144 0 -336 -17v-612h-262v1188h-371v246h1137v-246h-504v-328q257 17 389 17z" />
    <glyph glyph-name="uni0403" unicode="&#x403;" horiz-adv-x="991" 
d="M958 1767l-325 -245h-184l213 245h296zM975 1434v-246h-578v-1188h-262v1434h840z" />
    <glyph glyph-name="uni0404" unicode="&#x404;" horiz-adv-x="1370" 
d="M797 236q210 0 395 126l139 -229q-242 -164 -538 -164q-216 0 -381 86.5t-259 257t-94 404.5q0 176 54 317.5t151.5 235.5t232.5 144t296 50q296 0 538 -164l-139 -229q-187 127 -395 127q-171 0 -287.5 -88t-151.5 -252h584v-242h-592q27 -184 146.5 -282t300.5 -98z
" />
    <glyph glyph-name="uni0405" unicode="&#x405;" horiz-adv-x="1067" 
d="M551 1464q202 0 420 -100l-113 -240q-174 88 -305 88q-150 0 -150 -104q0 -40 25 -72t86 -75l248 -175q126 -86 186 -179.5t60 -223.5q0 -200 -130.5 -307t-359.5 -107q-270 0 -495 140l116 239q211 -125 387 -125q99 0 151 39.5t52 106.5q0 52 -34 92.5t-111 95.5
l-232 166q-227 155 -227 377q0 169 111.5 266.5t314.5 97.5z" />
    <glyph glyph-name="uni0406" unicode="&#x406;" horiz-adv-x="534" 
d="M399 1434v-1434h-264v1434h264z" />
    <glyph glyph-name="uni0407" unicode="&#x407;" horiz-adv-x="534" 
d="M170 1745v-223h-244v223h244zM606 1745v-223h-244v223h244zM399 1434v-1434h-264v1434h264z" />
    <glyph glyph-name="uni0408" unicode="&#x408;" horiz-adv-x="587" 
d="M453 1434v-1076q0 -188 -84 -277t-256 -89h-86v250h59q53 0 78.5 29.5t25.5 99.5v1063h263z" />
    <glyph glyph-name="uni0409" unicode="&#x409;" horiz-adv-x="2125" 
d="M1624 891q97 0 180.5 -27t149 -80t102.5 -140.5t37 -199.5t-37 -198.5t-102.5 -139t-149 -79.5t-180.5 -27h-549v1188h-581v-830q0 -188 -84 -277t-256 -89h-127v250h100q53 0 78.5 29.5t25.5 99.5v1063h1106v-543h287zM1593 242q105 0 164.5 53t59.5 149q0 99 -59.5 152
t-164.5 53h-256v-407h256z" />
    <glyph glyph-name="uni040A" unicode="&#x40a;" horiz-adv-x="2101" 
d="M1599 891q98 0 181.5 -27t148.5 -80t102 -140.5t37 -199.5t-37 -198.5t-102 -139t-148.5 -79.5t-181.5 -27h-546v649h-656v-649h-262v1434h262v-543h656v543h262v-543h284zM1569 242q105 0 164 53t59 149q0 99 -59 152t-164 53h-254v-407h254z" />
    <glyph glyph-name="uni040B" unicode="&#x40b;" horiz-adv-x="1488" 
d="M1040 874q414 0 414 -405v-469h-262v453q0 174 -184 174h-359v-627h-262v1188h-371v246h633h504v-246h-504v-314h391z" />
    <glyph glyph-name="uni040C" unicode="&#x40c;" horiz-adv-x="1402" 
d="M1092 1767l-326 -245h-184l213 245h297zM1399 0h-381l-621 702v-702h-262v1434h262v-637l541 637h360l-608 -664z" />
    <glyph glyph-name="uni040E" unicode="&#x40e;" horiz-adv-x="1337" 
d="M686 1481q-141 0 -220 75.5t-85 210.5h172q0 -69 34 -108t99 -39q66 0 100.5 39t32.5 108h174q-6 -135 -86 -210.5t-221 -75.5zM1047 1434h290l-675 -1434h-293l172 367l-541 1067h328l356 -764z" />
    <glyph glyph-name="uni040F" unicode="&#x40f;" horiz-adv-x="1462" 
d="M1327 1434v-1434h-475v-287h-244v287h-473v1434h262v-1188h668v1188h262z" />
    <glyph glyph-name="uni0410" unicode="&#x410;" horiz-adv-x="1425" 
d="M1128 0l-120 326h-590l-121 -326h-291l576 1434h262l575 -1434h-291zM504 563h418l-209 561z" />
    <glyph glyph-name="uni0411" unicode="&#x411;" 
d="M705 891q97 0 180 -27t148 -80t101.5 -140.5t36.5 -199.5t-36.5 -198.5t-101.5 -139t-148 -79.5t-180 -27h-570v1434h262h705v-246h-705v-297h308zM672 242q105 0 164 53t59 149q0 99 -59 152t-164 53h-275v-407h275z" />
    <glyph glyph-name="uni0412" unicode="&#x412;" horiz-adv-x="1271" 
d="M913 760q134 -21 212.5 -109.5t78.5 -244.5q0 -102 -37 -181.5t-102 -127.5t-147 -72.5t-177 -24.5h-606v1434h567q195 0 313 -93.5t118 -267.5q0 -116 -56.5 -195.5t-163.5 -113.5v-4zM662 1192h-265v-344h254q100 0 153.5 45.5t53.5 128.5t-53 126.5t-143 43.5z
M696 242q107 0 168.5 50.5t61.5 139.5q0 91 -61.5 141t-178.5 50h-289v-381h299z" />
    <glyph glyph-name="uni0413" unicode="&#x413;" horiz-adv-x="991" 
d="M975 1434v-246h-578v-1188h-262v1434h840z" />
    <glyph glyph-name="uni0414" unicode="&#x414;" horiz-adv-x="1415" 
d="M1219 215h157v-502h-246v256h-876v-256h-244v502h156q60 137 85 276.5t25 329.5v613h943v-1219zM539 825q0 -186 -24 -327.5t-79 -282.5h520v973h-417v-363z" />
    <glyph glyph-name="uni0415" unicode="&#x415;" horiz-adv-x="1075" 
d="M397 242h598v-242h-860v1434h850v-242h-588v-291h537v-242h-537v-417z" />
    <glyph glyph-name="uni0416" unicode="&#x416;" horiz-adv-x="2164" 
d="M2159 0h-371l-580 719v-719h-252v719l-581 -719h-369l647 758l-544 676h350l497 -656v656h252v-656l494 656h354l-545 -676z" />
    <glyph glyph-name="uni0417" unicode="&#x417;" horiz-adv-x="1204" 
d="M584 1464q239 0 368 -93t129 -267q0 -134 -78.5 -221t-228.5 -119v-4q167 -22 264 -111.5t97 -257.5q0 -90 -31.5 -164.5t-97 -133.5t-177 -91.5t-260.5 -32.5q-298 0 -530 133l117 234q211 -119 415 -119q144 0 221.5 51.5t77.5 145.5q0 211 -397 211h-137v241h137
q163 0 251.5 49.5t88.5 141.5q0 78 -64 119t-184 41q-189 0 -399 -107l-105 236q259 118 523 118z" />
    <glyph glyph-name="uni0418" unicode="&#x418;" horiz-adv-x="1474" 
d="M135 1434h262v-1000h2l697 1000h243v-1434h-262v997h-2l-696 -997h-244v1434z" />
    <glyph glyph-name="uni0419" unicode="&#x419;" horiz-adv-x="1474" 
d="M1053 1767q-6 -135 -86.5 -210.5t-221.5 -75.5t-220 75.5t-85 210.5h172q0 -69 34 -108t99 -39q66 0 101 39t33 108h174zM135 1434h262v-1000h2l697 1000h243v-1434h-262v997h-2l-696 -997h-244v1434z" />
    <glyph glyph-name="uni041A" unicode="&#x41a;" horiz-adv-x="1402" 
d="M1399 0h-381l-621 702v-702h-262v1434h262v-637l541 637h360l-608 -664z" />
    <glyph glyph-name="uni041B" unicode="&#x41b;" horiz-adv-x="1447" 
d="M1313 1434v-1434h-262v1188h-578v-830q0 -188 -84 -277t-256 -89h-106v250h79q53 0 79 29.5t26 99.5v1063h1102z" />
    <glyph glyph-name="uni041C" unicode="&#x41c;" horiz-adv-x="1787" 
d="M1425 1434l357 -1434h-277l-217 926h-4l-295 -713h-190l-295 713h-4l-219 -926h-275l356 1434h205l324 -811h4l326 811h204z" />
    <glyph glyph-name="uni041D" unicode="&#x41d;" horiz-adv-x="1474" 
d="M1077 1434h262v-1434h-262v629h-680v-629h-262v1434h262v-555h680v555z" />
    <glyph glyph-name="uni041E" unicode="&#x41e;" horiz-adv-x="1619" 
d="M809 1464q158 0 297 -55t239 -151.5t158 -237t58 -303.5q0 -218 -99 -389.5t-270 -265t-383 -93.5t-382.5 93.5t-269 265t-98.5 389.5q0 164 57.5 304t157.5 236.5t238.5 151.5t296.5 55zM809 1196q-202 0 -332.5 -133.5t-130.5 -345.5t130.5 -345.5t332.5 -133.5
q203 0 333 133t130 346t-130 346t-333 133z" />
    <glyph glyph-name="uni041F" unicode="&#x41f;" horiz-adv-x="1462" 
d="M1329 1434v-1434h-262v1188h-670v-1188h-262v1434h1194z" />
    <glyph glyph-name="uni0420" unicode="&#x420;" horiz-adv-x="1140" 
d="M635 1434q233 0 358 -124t125 -323q0 -133 -52.5 -234.5t-163 -162t-267.5 -60.5h-238v-530h-262v1434h500zM606 772q108 0 170 54.5t62 158.5q0 102 -61.5 154.5t-170.5 52.5h-209v-420h209z" />
    <glyph glyph-name="uni0421" unicode="&#x421;" horiz-adv-x="1382" 
d="M834 -31q-168 0 -311.5 53.5t-246 150t-160 237t-57.5 307.5q0 223 99 393.5t275 262t401 91.5q287 0 512 -157l-152 -230q-172 119 -363 119q-212 0 -348.5 -131t-136.5 -348t136.5 -348t348.5 -131q193 0 363 118l152 -229q-226 -158 -512 -158z" />
    <glyph glyph-name="uni0422" unicode="&#x422;" horiz-adv-x="1077" 
d="M1061 1434v-242h-391v-1192h-262v1192h-392v242h1045z" />
    <glyph glyph-name="uni0423" unicode="&#x423;" horiz-adv-x="1337" 
d="M1047 1434h290l-675 -1434h-293l172 367l-541 1067h328l356 -764z" />
    <glyph glyph-name="uni0424" unicode="&#x424;" horiz-adv-x="1716" 
d="M1657 717q0 -298 -180 -470t-494 -175v-133h-250v133q-314 3 -494 175t-180 470t180 469.5t494 173.5v133h250v-133q314 -2 494 -173.5t180 -469.5zM336 717q0 -194 103 -296t302 -102v795q-198 0 -301.5 -100t-103.5 -297zM975 319q199 0 302 102t103 296
q0 197 -103.5 297t-301.5 100v-795z" />
    <glyph glyph-name="uni0425" unicode="&#x425;" horiz-adv-x="1368" 
d="M1356 0h-324l-348 545l-348 -545h-324l506 760l-450 674h325l291 -457l293 457h323l-450 -674z" />
    <glyph glyph-name="uni0426" unicode="&#x426;" horiz-adv-x="1468" 
d="M1264 246h166v-533h-246v287h-1049v1434h262v-1188h604v1188h263v-1188z" />
    <glyph glyph-name="uni0427" unicode="&#x427;" horiz-adv-x="1236" 
d="M842 1434h262v-1434h-262v559h-393q-412 0 -412 406v469h262v-453q0 -89 45 -131.5t139 -42.5h359v627z" />
    <glyph glyph-name="uni0428" unicode="&#x428;" horiz-adv-x="2109" 
d="M135 0v1434h262v-1188h527v1188h262v-1188h528v1188h262v-1434h-1841z" />
    <glyph glyph-name="uni0429" unicode="&#x429;" horiz-adv-x="2181" 
d="M1976 246h164v-533h-244v287h-1761v1434h262v-1188h527v1188h262v-1188h528v1188h262v-1188z" />
    <glyph glyph-name="uni042A" unicode="&#x42a;" horiz-adv-x="1466" 
d="M965 891q98 0 181.5 -27t148.5 -80t102 -140.5t37 -199.5t-37 -198.5t-102 -139t-148.5 -79.5t-181.5 -27h-568v1188h-381v246h643v-543h306zM934 242q105 0 164 53t59 149q0 99 -59 152t-164 53h-275v-407h275z" />
    <glyph glyph-name="uni042B" unicode="&#x42b;" horiz-adv-x="1726" 
d="M705 891q97 0 180 -27t148 -80t101.5 -140.5t36.5 -199.5t-36.5 -198.5t-101.5 -139t-148 -79.5t-180 -27h-570v1434h262v-543h308zM1327 1434h264v-1434h-264v1434zM672 242q105 0 164 53t59 149q0 99 -59 152t-164 53h-275v-407h275z" />
    <glyph glyph-name="uni042C" unicode="&#x42c;" horiz-adv-x="1204" 
d="M705 891q97 0 180 -27t148 -80t101.5 -140.5t36.5 -199.5t-36.5 -198.5t-101.5 -139t-148 -79.5t-180 -27h-570v1434h262v-543h308zM672 242q105 0 164 53t59 149q0 99 -59 152t-164 53h-275v-407h275z" />
    <glyph glyph-name="uni042D" unicode="&#x42d;" horiz-adv-x="1370" 
d="M578 1464q161 0 296 -50t232 -144t151 -235.5t54 -317.5q0 -234 -94 -404.5t-258.5 -257t-380.5 -86.5q-297 0 -539 164l139 229q185 -126 395 -126q181 0 300 98t145 282h-590v242h584q-36 165 -152.5 252.5t-286.5 87.5q-208 0 -395 -127l-139 229q242 164 539 164z
" />
    <glyph glyph-name="uni042E" unicode="&#x42e;" horiz-adv-x="2125" 
d="M1317 1464q158 0 296.5 -55t238 -151.5t157 -236.5t57.5 -304t-57.5 -304t-157 -237t-238 -152t-296.5 -55q-290 0 -496.5 172t-247.5 453h-176v-594h-262v1434h262v-594h176q41 281 247.5 452.5t496.5 171.5zM1317 238q202 0 332.5 133.5t130.5 345.5t-130.5 345.5
t-332.5 133.5q-204 0 -334.5 -133t-130.5 -346t130.5 -346t334.5 -133z" />
    <glyph glyph-name="uni042F" unicode="&#x42f;" horiz-adv-x="1265" 
d="M582 1434h551v-1434h-263v569h-131l-383 -569h-323l407 584q-151 36 -235 146.5t-84 268.5q0 195 124.5 315t336.5 120zM623 803h247v389h-247q-109 0 -165.5 -53t-56.5 -144q0 -92 55.5 -142t166.5 -50z" />
    <glyph glyph-name="uni0430" unicode="&#x430;" horiz-adv-x="1183" 
d="M508 -31q-94 0 -176 33.5t-144.5 96t-98.5 159.5t-36 215t36 215t98.5 159.5t144.5 96t176 33.5q216 0 315 -164h4v133h250v-946h-250v133h-4q-99 -164 -315 -164zM571 207q114 0 185 73t71 193t-71 193t-185 73t-185 -73t-71 -193t71 -193t185 -73z" />
    <glyph glyph-name="uni0431" unicode="&#x431;" horiz-adv-x="1171" 
d="M592 -31q-90 0 -168 20.5t-147 68t-118 119.5t-77.5 181t-28.5 246q0 208 62 374.5t192 246.5q47 27 114 50.5t169.5 51t109.5 29.5q94 29 97 86h252q0 -108 -44 -171.5t-139 -94.5q-26 -9 -195.5 -50.5t-228.5 -72.5q-80 -43 -118.5 -125.5t-51.5 -206.5h7
q49 118 149.5 179t233.5 61q204 0 330 -132.5t126 -351.5q0 -227 -141.5 -367.5t-384.5 -140.5zM590 207q114 0 190 72.5t76 193.5t-76 193.5t-190 72.5q-112 0 -188 -72.5t-76 -193.5t76 -193.5t188 -72.5z" />
    <glyph glyph-name="uni0432" unicode="&#x432;" horiz-adv-x="1050" 
d="M786 498q205 -25 205 -228q0 -91 -46.5 -153.5t-117 -89.5t-157.5 -27h-559v946h559q135 0 214 -62.5t79 -170.5q0 -82 -43.5 -138t-133.5 -75v-2zM588 760h-228v-182h230q54 0 83 24t29 70q0 88 -114 88zM602 186q60 0 94.5 27.5t34.5 79.5t-31 78t-88 26h-252v-211h242
z" />
    <glyph glyph-name="uni0433" unicode="&#x433;" horiz-adv-x="765" 
d="M756 946v-231h-396v-715h-249v946h645z" />
    <glyph glyph-name="uni0434" unicode="&#x434;" horiz-adv-x="1128" 
d="M975 188h127v-454h-215v239h-668v-239h-215v454h123q72 129 72 285v473h250h423h103v-758zM449 463q0 -148 -62 -275h338v535h-276v-260z" />
    <glyph glyph-name="uni0435" unicode="&#x435;" horiz-adv-x="1052" 
d="M545 977q217 0 338 -132t121 -374v-49h-707q10 -107 83 -168t183 -61q154 0 283 129l127 -183q-183 -170 -410 -170q-231 0 -370.5 138t-139.5 364q0 227 135 366.5t357 139.5zM532 774q-94 0 -154 -47.5t-75 -142.5h447q-6 89 -65 139.5t-153 50.5z" />
    <glyph glyph-name="uni0436" unicode="&#x436;" horiz-adv-x="1624" 
d="M1614 0h-328l-354 457v-457h-240v457l-354 -457h-328l424 514l-373 432h320l311 -397v397h240v-397l309 397h322l-373 -432z" />
    <glyph glyph-name="uni0437" unicode="&#x437;" horiz-adv-x="925" 
d="M432 -31q-234 0 -403 82l84 199q163 -72 317 -72q193 0 193 107q0 110 -172 110h-193v189h186q144 0 144 94q0 92 -162 92q-124 0 -301 -57l-68 200q212 64 392 64q397 0 397 -252q0 -88 -55 -145t-156 -72v-6q110 -11 173.5 -73t63.5 -167q0 -141 -109 -217t-331 -76z
" />
    <glyph glyph-name="uni0438" unicode="&#x438;" horiz-adv-x="1138" 
d="M111 0v946h249v-573h5l438 573h227v-946h-252v573h-4l-438 -573h-225z" />
    <glyph glyph-name="uni0439" unicode="&#x439;" horiz-adv-x="1138" 
d="M885 1323q0 -140 -86 -223.5t-221 -83.5q-134 0 -220 83.5t-86 223.5h166q3 -65 39 -106t101 -41q66 0 102 41t39 106h166zM111 0v946h249v-573h5l438 573h227v-946h-252v573h-4l-438 -573h-225z" />
    <glyph glyph-name="uni043A" unicode="&#x43a;" horiz-adv-x="1052" 
d="M1042 0h-327l-355 451v-451h-249v946h249v-389l312 389h319l-387 -430z" />
    <glyph glyph-name="uni043B" unicode="&#x43b;" horiz-adv-x="1118" 
d="M1010 946v-946h-252v715h-338v-416q0 -152 -79 -229.5t-216 -77.5h-105v231h66q43 0 63.5 24.5t20.5 80.5v618h840z" />
    <glyph glyph-name="uni043C" unicode="&#x43c;" horiz-adv-x="1392" 
d="M27 0l276 946h201l190 -461h4l191 461h201l276 -946h-248l-153 580h-4l-183 -443h-164l-182 443h-4l-154 -580h-247z" />
    <glyph glyph-name="uni043D" unicode="&#x43d;" horiz-adv-x="1138" 
d="M776 946h252v-946h-252v377h-416v-377h-249v946h249v-340h416v340z" />
    <glyph glyph-name="uni043E" unicode="&#x43e;" horiz-adv-x="1153" 
d="M578 977q227 0 375.5 -141.5t148.5 -362.5t-148.5 -362.5t-375.5 -141.5t-376 141.5t-149 362.5t149 362.5t376 141.5zM578 739q-117 0 -192 -73t-75 -193t75 -193t192 -73t190.5 73t73.5 193t-73.5 193t-190.5 73z" />
    <glyph glyph-name="uni043F" unicode="&#x43f;" horiz-adv-x="1118" 
d="M1010 946v-946h-252v715h-398v-715h-249v946h249h650z" />
    <glyph glyph-name="uni0440" unicode="&#x440;" horiz-adv-x="1187" 
d="M111 -410v1356h249v-133h5q99 164 315 164q94 0 176 -33.5t144.5 -96t98.5 -159.5t36 -215t-36 -215t-98.5 -159.5t-144.5 -96t-176 -33.5q-216 0 -315 164h-5v-543h-249zM616 207q114 0 185 73t71 193t-71 193t-185 73t-185 -73t-71 -193t71 -193t185 -73z" />
    <glyph glyph-name="uni0441" unicode="&#x441;" horiz-adv-x="935" 
d="M575 -31q-230 0 -376 139t-146 365t146 365t376 139q181 0 332 -94l-108 -207q-102 65 -219 65q-118 0 -193.5 -74.5t-75.5 -193.5t75.5 -193.5t193.5 -74.5q117 0 219 65l108 -207q-151 -94 -332 -94z" />
    <glyph glyph-name="uni0442" unicode="&#x442;" horiz-adv-x="903" 
d="M893 946v-227h-315v-719h-252v719h-316v227h883z" />
    <glyph glyph-name="uni0443" unicode="&#x443;" horiz-adv-x="1064" 
d="M791 946h264l-606 -1356h-261l232 498l-410 858h295l240 -573z" />
    <glyph glyph-name="uni0444" unicode="&#x444;" horiz-adv-x="1775" 
d="M766 -410v543h-4q-45 -79 -113.5 -121.5t-177.5 -42.5q-184 0 -296 133.5t-112 370.5t112 370.5t296 133.5q109 0 177.5 -42.5t113.5 -121.5h4v569h242v-569h4q92 164 293 164q184 0 295.5 -133.5t111.5 -370.5t-111.5 -370.5t-295.5 -133.5q-201 0 -293 164h-4v-543
h-242zM549 193q107 0 167 75.5t60 204.5t-60 205t-167 76q-108 0 -163.5 -75t-55.5 -206t55.5 -205.5t163.5 -74.5zM1227 193q107 0 163 75t56 205t-56 205.5t-163 75.5q-108 0 -169 -76t-61 -205t61 -204.5t169 -75.5z" />
    <glyph glyph-name="uni0445" unicode="&#x445;" horiz-adv-x="1079" 
d="M764 0l-225 319l-226 -319h-303l377 498l-332 448h305l179 -274l180 274h305l-332 -448l377 -498h-305z" />
    <glyph glyph-name="uni0446" unicode="&#x446;" horiz-adv-x="1140" 
d="M991 231h123v-497h-231v266h-523h-249v946h249v-715h379v715h252v-715z" />
    <glyph glyph-name="uni0447" unicode="&#x447;" horiz-adv-x="987" 
d="M627 946h250v-946h-250v334h-281q-319 0 -319 305v307h252v-282q0 -59 26.5 -84t87.5 -25h234v391z" />
    <glyph glyph-name="uni0448" unicode="&#x448;" horiz-adv-x="1677" 
d="M1317 946h252v-946h-252h-604h-514h-88v946h249v-715h353v715h252v-715h352v715z" />
    <glyph glyph-name="uni0449" unicode="&#x449;" horiz-adv-x="1716" 
d="M1569 231h121v-497h-232v266h-493h-605h-249v946h249v-715h353v715h252v-715h352v715h252v-715z" />
    <glyph glyph-name="uni044A" unicode="&#x44a;" horiz-adv-x="1185" 
d="M801 645q163 0 257.5 -84t94.5 -237q0 -150 -95 -237t-257 -87h-482v715h-309v231h561v-231v-70h230zM760 207q65 0 100 29.5t35 85.5q0 116 -135 116h-189v-231h189z" />
    <glyph glyph-name="uni044B" unicode="&#x44b;" horiz-adv-x="1392" 
d="M590 645q163 0 257.5 -84t94.5 -237q0 -150 -95 -237t-257 -87h-479v946h249v-301h230zM1032 946h250v-946h-250v946zM549 207q65 0 100 29.5t35 85.5q0 116 -135 116h-189v-231h189z" />
    <glyph glyph-name="uni044C" unicode="&#x44c;" horiz-adv-x="974" 
d="M590 645q163 0 257.5 -84t94.5 -237q0 -150 -95 -237t-257 -87h-479v946h249v-301h230zM549 207q65 0 100 29.5t35 85.5q0 116 -135 116h-189v-231h189z" />
    <glyph glyph-name="uni044D" unicode="&#x44d;" horiz-adv-x="933" 
d="M379 977q227 0 359 -131t132 -373t-132 -373t-359 -131q-193 0 -350 92l106 211q116 -65 234 -65q200 0 241 178h-319v176h319q-41 178 -241 178q-118 0 -234 -65l-106 211q162 92 350 92z" />
    <glyph glyph-name="uni044E" unicode="&#x44e;" horiz-adv-x="1589" 
d="M1012 977q227 0 375.5 -141.5t148.5 -362.5t-148.5 -362.5t-375.5 -141.5q-198 0 -339 110t-175 290h-138v-369h-249v946h249v-366h138q35 180 175.5 288.5t338.5 108.5zM1012 207q117 0 191.5 73t74.5 193t-74.5 193t-191.5 73t-192 -73t-75 -193t75 -193t192 -73z" />
    <glyph glyph-name="uni044F" unicode="&#x44f;" horiz-adv-x="1056" 
d="M414 946h532v-946h-252v324h-96l-258 -324h-309l278 336q-112 27 -173.5 107.5t-61.5 189.5q0 142 92 227.5t248 85.5zM489 516h205v221h-205q-139 0 -139 -110q0 -52 35 -81.5t104 -29.5z" />
    <glyph glyph-name="uni0451" unicode="&#x451;" horiz-adv-x="1052" 
d="M481 1319v-260h-213v260h213zM827 1319v-260h-213v260h213zM545 977q217 0 338 -132t121 -374v-49h-707q10 -107 83 -168t183 -61q154 0 283 129l127 -183q-183 -170 -410 -170q-231 0 -370.5 138t-139.5 364q0 227 135 366.5t357 139.5zM532 774q-94 0 -154 -47.5
t-75 -142.5h447q-6 89 -65 139.5t-153 50.5z" />
    <glyph glyph-name="uni0452" unicode="&#x452;" horiz-adv-x="1134" 
d="M678 977q163 0 259.5 -96.5t96.5 -296.5v-674q0 -320 -303 -320h-131v230h86q96 0 96 102v78v524q0 219 -196 219q-102 0 -160.5 -67t-58.5 -213v-463h-252v1139h-133v149h133v146h252v-146h280v-149h-280v-328h4q105 166 307 166z" />
    <glyph glyph-name="uni0453" unicode="&#x453;" horiz-adv-x="765" 
d="M852 1346l-313 -316h-197l213 316h297zM756 946v-231h-396v-715h-249v946h645z" />
    <glyph glyph-name="uni0454" unicode="&#x454;" horiz-adv-x="933" 
d="M565 207q118 0 234 65l106 -211q-157 -92 -350 -92q-227 0 -359.5 131t-132.5 373t132.5 373t359.5 131q188 0 350 -92l-106 -211q-116 65 -234 65q-200 0 -241 -178h319v-176h-319q41 -178 241 -178z" />
    <glyph glyph-name="uni0455" unicode="&#x455;" horiz-adv-x="856" 
d="M432 -31q-225 0 -405 101l102 213q169 -99 317 -99q117 0 117 68q0 26 -18.5 43t-63.5 39l-170 74q-213 94 -213 282q0 138 94.5 212.5t272.5 74.5q157 0 336 -66l-84 -211q-153 66 -266 66q-97 0 -97 -57q0 -27 19.5 -45.5t70.5 -40.5l170 -74q104 -43 156.5 -109
t52.5 -168q0 -152 -104 -227.5t-287 -75.5z" />
    <glyph glyph-name="uni0456" unicode="&#x456;" horiz-adv-x="483" 
d="M385 1421v-276h-287v276h287zM115 0v946h252v-946h-252z" />
    <glyph glyph-name="uni0457" unicode="&#x457;" horiz-adv-x="483" 
d="M209 1319v-260h-213v260h213zM485 1319v-260h-213v260h213zM115 0v946h252v-946h-252z" />
    <glyph glyph-name="uni0458" unicode="&#x458;" horiz-adv-x="483" 
d="M385 1421v-276h-287v276h287zM-43 -184h43q61 0 88 29.5t27 95.5v1005h252v-1016q0 -171 -83 -258.5t-245 -87.5h-82v232z" />
    <glyph glyph-name="uni0459" unicode="&#x459;" horiz-adv-x="1564" 
d="M1180 645q163 0 257.5 -84t94.5 -237q0 -150 -95.5 -237t-258.5 -87h-467v715h-316v-418q0 -150 -80 -227.5t-215 -77.5h-80v231h39q43 0 63.5 24.5t20.5 80.5v618h820v-301h217zM1139 205q65 0 100 30t35 87q0 116 -135 116h-176v-233h176z" />
    <glyph glyph-name="uni045A" unicode="&#x45a;" horiz-adv-x="1609" 
d="M1225 639q164 0 258 -83.5t94 -236.5q0 -149 -95 -234t-257 -85h-469v426h-396v-426h-249v946h249v-307h396v307h252v-307h217zM1184 207q137 0 137 110q0 109 -137 109h-176v-219h176z" />
    <glyph glyph-name="uni045B" unicode="&#x45b;" horiz-adv-x="1134" 
d="M678 977q163 0 259.5 -96.5t96.5 -296.5v-584h-252v524q0 219 -196 219q-102 0 -160.5 -67t-58.5 -213v-463h-252v1139h-133v149h133v146h252v-146h280v-149h-280v-328h4q105 166 307 166z" />
    <glyph glyph-name="uni045C" unicode="&#x45c;" horiz-adv-x="1052" 
d="M922 1346l-314 -316h-196l213 316h297zM1042 0h-327l-355 451v-451h-249v946h249v-389l312 389h319l-387 -430z" />
    <glyph glyph-name="uni045E" unicode="&#x45e;" horiz-adv-x="1064" 
d="M545 1016q-134 0 -219.5 83.5t-85.5 223.5h166q3 -65 38.5 -106t100.5 -41q66 0 102 41t39 106h166q0 -140 -86 -223.5t-221 -83.5zM791 946h264l-606 -1356h-261l232 498l-410 858h295l240 -573z" />
    <glyph glyph-name="uni045F" unicode="&#x45f;" horiz-adv-x="1114" 
d="M754 946h252v-946h-336v-266h-226v266h-333v946h249v-721h394v721z" />
    <glyph glyph-name="uni0462" unicode="&#x462;" horiz-adv-x="1318" 
d="M817 891q98 0 181.5 -27t148.5 -80t102 -140.5t37 -199.5t-37 -198.5t-102 -139t-148.5 -79.5t-181.5 -27h-567v1053h-234v213h234v168h262v-168h422v-213h-422v-162h305zM786 242q105 0 164.5 53t59.5 149q0 99 -59.5 152t-164.5 53h-274v-407h274z" />
    <glyph glyph-name="uni0463" unicode="&#x463;" horiz-adv-x="1042" 
d="M649 645q167 0 264 -84t97 -237q0 -150 -98 -237t-265 -87h-479v786h-186v160h186v488h252v-488h289v-160h-289v-141h229zM608 213q64 0 98.5 28t34.5 81q0 110 -133 110h-188v-219h188z" />
    <glyph glyph-name="uni0472" unicode="&#x472;" horiz-adv-x="1619" 
d="M809 1464q158 0 297 -55t239 -151.5t158 -237t58 -303.5q0 -218 -99 -389.5t-270 -265t-383 -93.5t-382.5 93.5t-269 265t-98.5 389.5q0 164 57.5 304t157.5 236.5t238.5 151.5t296.5 55zM809 1200q-190 0 -320 -113t-153 -299h946q-23 186 -153 299t-320 113zM809 233
q190 0 320 113t153 299h-946q23 -186 153 -299t320 -113z" />
    <glyph glyph-name="uni0473" unicode="&#x473;" horiz-adv-x="1153" 
d="M578 977q227 0 375.5 -141.5t148.5 -362.5t-148.5 -362.5t-375.5 -141.5t-376 141.5t-149 362.5t149 362.5t376 141.5zM578 754q-107 0 -182 -59t-95 -160h551q-19 101 -93.5 160t-180.5 59zM578 193q106 0 180.5 59t93.5 160h-551q20 -101 95 -160t182 -59z" />
    <glyph glyph-name="uni0474" unicode="&#x474;" horiz-adv-x="1415" 
d="M1190 1098l-397 -1098h-265l-522 1434h307l344 -1069h5l270 817q48 148 127.5 213t236.5 65q27 0 113 -8v-242q-31 4 -80 4q-50 0 -82.5 -25t-56.5 -91z" />
    <glyph glyph-name="uni0475" unicode="&#x475;" horiz-adv-x="1036" 
d="M1006 965h20v-238h-16q-43 0 -69 -21t-44 -67l-256 -639h-246l-385 946h281l227 -657l166 477q38 110 112 154.5t210 44.5z" />
    <glyph glyph-name="uni048E" unicode="&#x48e;" horiz-adv-x="1140" 
d="M1118 987q0 -125 -48 -224.5t-142 -158.5l110 -158l-90 -63l-121 174q-96 -27 -192 -27h-238v-530h-262v1434h500q233 0 358 -124t125 -323zM606 772q36 0 66 6l-109 152l90 63l119 -170q66 57 66 162q0 102 -61.5 154.5t-170.5 52.5h-209v-420h209z" />
    <glyph glyph-name="uni048F" unicode="&#x48f;" horiz-adv-x="1187" 
d="M1135 473q0 -136 -46 -240.5t-128 -169.5l104 -129l-78 -65l-115 141q-90 -41 -192 -41q-216 0 -315 164h-5v-543h-249v1356h249v-133h5q99 164 315 164q94 0 176 -33.5t144.5 -96t98.5 -159.5t36 -215zM616 207q46 0 84 12l-100 123l78 66l113 -140q81 75 81 205
q0 120 -71 193t-185 73t-185 -73t-71 -193t71 -193t185 -73z" />
    <glyph glyph-name="uni0490" unicode="&#x490;" horiz-adv-x="1030" 
d="M752 1720h262v-534h-617v-1186h-262v1434h617v286z" />
    <glyph glyph-name="uni0491" unicode="&#x491;" horiz-adv-x="815" 
d="M582 1141h223v-420h-445v-721h-249v946h471v195z" />
    <glyph glyph-name="uni0492" unicode="&#x492;" horiz-adv-x="1040" 
d="M1024 1188h-578v-371h396v-229h-396v-588h-262v588h-168v229h168v617h840v-246z" />
    <glyph glyph-name="uni0493" unicode="&#x493;" horiz-adv-x="839" 
d="M829 715h-393v-178h277v-205h-277v-332h-252v332h-157v205h157v409h645v-231z" />
    <glyph glyph-name="uni0494" unicode="&#x494;" horiz-adv-x="1247" 
d="M795 827q211 0 313 -89t102 -279v-467q0 -200 -102 -301t-291 -101h-149v246h125q75 0 115 41.5t40 142.5v414q0 76 -49 111t-156 35q-147 0 -346 -17v-563h-262v1434h840v-246h-578v-379q221 18 398 18z" />
    <glyph glyph-name="uni0495" unicode="&#x495;" horiz-adv-x="1038" 
d="M633 520q178 0 265 -79t87 -244v-228q0 -190 -94 -284.5t-273 -94.5h-122v232h100q69 0 103 35t34 116v199q0 68 -35 99.5t-110 31.5q-87 0 -228 -16v-287h-249v946h727v-231h-478v-211q141 16 273 16z" />
    <glyph glyph-name="uni0496" unicode="&#x496;" horiz-adv-x="2168" 
d="M2003 182h156v-469h-244v287h-127l-580 719v-719h-252v719l-581 -719h-369l647 758l-544 676h350l497 -656v656h252v-656l494 656h354l-545 -676z" />
    <glyph glyph-name="uni0497" unicode="&#x497;" horiz-adv-x="1654" 
d="M1499 137h131v-403h-215v266h-129l-354 457v-457h-240v457l-354 -457h-328l424 514l-373 432h320l311 -397v397h240v-397l309 397h322l-373 -432z" />
    <glyph glyph-name="uni0498" unicode="&#x498;" horiz-adv-x="1204" 
d="M1135 391q0 -173 -116.5 -286.5t-361.5 -131.5l-18 -49q75 -15 117.5 -46t42.5 -91q0 -77 -104 -135q-50 -28 -199 -86l-29 65q120 56 147 80q21 19 21 37q0 31 -28 46t-97 30l53 145q-290 0 -524 133l117 234q211 -119 415 -119q144 0 221.5 51.5t77.5 145.5
q0 211 -397 211h-137v241h137q163 0 251.5 49.5t88.5 141.5q0 78 -64 119t-184 41q-189 0 -399 -107l-105 236q259 118 523 118q239 0 368 -93t129 -267q0 -134 -78.5 -221t-228.5 -119v-4q167 -22 264 -111.5t97 -257.5z" />
    <glyph glyph-name="uni0499" unicode="&#x499;" horiz-adv-x="925" 
d="M872 262q0 -133 -95 -207.5t-290 -83.5l-18 -47q75 -15 117.5 -46t42.5 -91q0 -77 -104 -135q-50 -28 -199 -86l-29 65q120 56 147 80q21 19 21 37q0 31 -28 46t-97 30l53 145q-213 6 -364 82l84 199q163 -72 317 -72q193 0 193 107q0 110 -172 110h-193v189h186
q144 0 144 94q0 92 -162 92q-124 0 -301 -57l-68 200q212 64 392 64q397 0 397 -252q0 -88 -55 -145t-156 -72v-6q110 -11 173.5 -73t63.5 -167z" />
    <glyph glyph-name="uni049A" unicode="&#x49a;" horiz-adv-x="1409" 
d="M1399 0h-2v-287h-244v287h-135l-621 702v-702h-262v1434h262v-637l541 637h360l-608 -664l541 -588h166v-180z" />
    <glyph glyph-name="uni049B" unicode="&#x49b;" horiz-adv-x="1083" 
d="M926 137h131v-403h-213v266h-129l-355 451v-451h-249v946h249v-389l312 389h319l-387 -430z" />
    <glyph glyph-name="uni049C" unicode="&#x49c;" horiz-adv-x="1566" 
d="M1186 0l-512 643h-72v-258h-94v258h-111v-643h-262v1434h262v-547h111v282h94v-282h88l397 547h349l-529 -664l656 -770h-377z" />
    <glyph glyph-name="uni049D" unicode="&#x49d;" horiz-adv-x="1120" 
d="M793 0l-281 418h-33v-217h-57v217h-62v-418h-249v946h249v-348h62v215h57v-215h31l258 348h311l-356 -430l387 -516h-317z" />
    <glyph glyph-name="uni049E" unicode="&#x49e;" horiz-adv-x="1484" 
d="M1479 0h-379l-623 702v-702h-262v1133h-199v172h199v129h262v-129h230v-172h-230v-336l543 637h358l-608 -664z" />
    <glyph glyph-name="uni049F" unicode="&#x49f;" horiz-adv-x="1058" 
d="M1049 0h-328l-354 451v-451h-252v1139h-133v149h133v146h252v-146h280v-149h-280v-582l311 389h319l-387 -430z" />
    <glyph glyph-name="uni04A0" unicode="&#x4a0;" horiz-adv-x="1673" 
d="M1667 0h-379l-622 702v-702h-263v1188h-387v246h547h103v-637l542 637h359l-609 -664z" />
    <glyph glyph-name="uni04A1" unicode="&#x4a1;" horiz-adv-x="1263" 
d="M1253 0h-327l-355 453v-453h-252v715h-309v231h508h53v-391l312 391h319l-387 -430z" />
    <glyph glyph-name="uni04A2" unicode="&#x4a2;" horiz-adv-x="1456" 
d="M1339 182h109v-469h-246v287h-125v629h-680v-629h-262v1434h262v-555h680v555h262v-1252z" />
    <glyph glyph-name="uni04A3" unicode="&#x4a3;" horiz-adv-x="1175" 
d="M1028 137h121v-403h-213v266h-160v377h-416v-377h-249v946h249v-340h416v340h252v-809z" />
    <glyph glyph-name="uni04A4" unicode="&#x4a4;" horiz-adv-x="1892" 
d="M1876 1434v-246h-578v-1188h-262v629h-639v-629h-262v1434h262v-555h639v555h840z" />
    <glyph glyph-name="uni04A5" unicode="&#x4a5;" horiz-adv-x="1392" 
d="M1382 946v-231h-387v-715h-250v377h-385v-377h-249v946h249v-340h385v340h637z" />
    <glyph glyph-name="uni04A6" unicode="&#x4a6;" horiz-adv-x="2168" 
d="M1716 891q212 0 315 -88.5t103 -278.5v-133q0 -197 -103 -294t-300 -97h-144v246h115q86 0 128 36.5t42 127.5v90q0 76 -49.5 110.5t-157.5 34.5q-155 0 -336 -16v-629h-262v1188h-670v-1188h-262v1434h1194v-560q202 17 387 17z" />
    <glyph glyph-name="uni04A7" unicode="&#x4a7;" horiz-adv-x="1687" 
d="M1282 600q180 0 267 -79t87 -247v-301q0 -192 -88.5 -287.5t-255.5 -95.5h-121v232h99q58 0 86 36t28 119v273q0 70 -34.5 100.5t-110.5 30.5q-88 0 -229 -16v-365h-252v715h-398v-715h-249v946h249h566h84v-364q158 18 272 18z" />
    <glyph glyph-name="uni04A8" unicode="&#x4a8;" horiz-adv-x="1660" 
d="M1645 39q-162 -70 -312 -70q-161 0 -274 58q-110 -58 -277 -58q-215 0 -374.5 95t-243.5 264t-84 391q0 352 210 548.5t566 196.5q102 0 219 -26l-65 -242q-66 16 -150 16q-226 0 -359.5 -130.5t-133.5 -374.5q0 -231 120 -375t328 -144h10q-77 80 -120 190.5t-43 239.5
q0 216 118.5 336.5t304.5 120.5q183 0 293.5 -116.5t110.5 -317.5q0 -135 -48.5 -253t-137.5 -202q12 -2 38 -2q104 0 226 56zM924 600q0 -220 153 -334q78 58 121 147.5t43 198.5q0 103 -40 158t-116 55q-78 0 -119.5 -56.5t-41.5 -168.5z" />
    <glyph glyph-name="uni04A9" unicode="&#x4a9;" horiz-adv-x="1198" 
d="M1130 176l58 -162q-102 -45 -203 -45q-120 0 -197 51q-77 -51 -217 -51q-238 0 -378 135.5t-140 374.5q0 127 41 223.5t116.5 156t175.5 89t224 29.5q101 0 201 -19l-47 -206q-61 12 -131 12q-147 0 -235.5 -70t-88.5 -221q0 -125 60.5 -208t171.5 -103q-70 95 -70 221
q0 150 92 228.5t234 78.5q139 0 222 -74t83 -217q0 -153 -107 -260q68 3 135 37zM795 504q-49 0 -79 -36t-30 -103q0 -117 84 -177q59 27 94 75t35 112q0 59 -27 94t-77 35z" />
    <glyph glyph-name="uni04AA" unicode="&#x4aa;" horiz-adv-x="1382" 
d="M1346 127q-217 -153 -488 -158l-18 -45q75 -15 117 -46t42 -91q0 -49 -45.5 -90.5t-91 -62.5t-154.5 -63q-8 -3 -12 -5l-28 65q120 56 147 80q21 19 21 37q0 31 -28 46t-97 30l55 147q-316 22 -511.5 225t-195.5 521q0 223 99 393.5t275 262t401 91.5q287 0 512 -157
l-152 -230q-172 119 -363 119q-212 0 -348.5 -131t-136.5 -348t136.5 -348t348.5 -131q193 0 363 118z" />
    <glyph glyph-name="uni04AB" unicode="&#x4ab;" horiz-adv-x="935" 
d="M907 63q-145 -91 -313 -94l-19 -45q75 -15 117.5 -46t42.5 -91q0 -77 -104 -135q-50 -28 -199 -86l-29 65q120 56 147 80q21 19 21 37q0 31 -28 46t-97 30l56 149q-202 24 -325.5 158.5t-123.5 341.5q0 226 146 365t376 139q181 0 332 -94l-108 -207q-102 65 -219 65
q-118 0 -193.5 -74.5t-75.5 -193.5t75.5 -193.5t193.5 -74.5q117 0 219 65z" />
    <glyph glyph-name="uni04AC" unicode="&#x4ac;" horiz-adv-x="1077" 
d="M1061 1192h-391v-1010h161v-469h-243v287h-180v1192h-392v242h1045v-242z" />
    <glyph glyph-name="uni04AD" unicode="&#x4ad;" horiz-adv-x="903" 
d="M893 719h-315v-582h122v-403h-215v266h-159v719h-316v227h883v-227z" />
    <glyph glyph-name="uni04AE" unicode="&#x4ae;" horiz-adv-x="1222" 
d="M1223 1434l-480 -885v-549h-264v547l-479 887h309l299 -617h6l299 617h310z" />
    <glyph glyph-name="uni04AF" unicode="&#x4af;" horiz-adv-x="1036" 
d="M1026 946l-381 -940v-416h-252v416l-383 940h281l227 -655l230 655h278z" />
    <glyph glyph-name="uni04B0" unicode="&#x4b0;" horiz-adv-x="1222" 
d="M1223 1434l-461 -852h244v-207h-263v-375h-264v375h-262v205l244 2l-461 852h309l299 -617h6l299 617h310z" />
    <glyph glyph-name="uni04B1" unicode="&#x4b1;" horiz-adv-x="1036" 
d="M1026 946l-381 -936h244v-192h-244v-228h-252v228h-246v192h244l-381 936h281l227 -655l230 655h278z" />
    <glyph glyph-name="uni04B2" unicode="&#x4b2;" horiz-adv-x="1433" 
d="M1235 182h190v-469h-243v287h-150l-348 545l-348 -545h-324l506 760l-450 674h325l291 -457l293 457h323l-450 -674z" />
    <glyph glyph-name="uni04B3" unicode="&#x4b3;" horiz-adv-x="1105" 
d="M965 137h143v-403h-215v266h-129l-225 319l-226 -319h-303l377 498l-332 448h305l179 -274l180 274h305l-332 -448z" />
    <glyph glyph-name="uni04B4" unicode="&#x4b4;" horiz-adv-x="1753" 
d="M1548 246h166v-533h-244v287h-1050v1188h-404v246h666h344v-246h-344v-942h604v1188h262v-1188z" />
    <glyph glyph-name="uni04B5" unicode="&#x4b5;" horiz-adv-x="1359" 
d="M1212 231h121v-497h-231v266h-520h-252v715h-320v231h572h241v-231h-241v-484h379v715h251v-715z" />
    <glyph glyph-name="uni04B6" unicode="&#x4b6;" horiz-adv-x="1275" 
d="M1104 182h162v-469h-244v287h-180v559h-393q-412 0 -412 406v469h262v-453q0 -89 45 -131.5t139 -42.5h359v627h262v-1252z" />
    <glyph glyph-name="uni04B7" unicode="&#x4b7;" horiz-adv-x="1034" 
d="M877 137h131v-403h-215v266h-166v334h-281q-319 0 -319 305v307h252v-282q0 -59 26.5 -84t87.5 -25h234v391h250v-809z" />
    <glyph glyph-name="uni04B8" unicode="&#x4b8;" horiz-adv-x="1236" 
d="M842 1434h262v-1434h-262v559h-195v-268h-110v268h-88q-412 0 -412 406v469h262v-453q0 -89 45 -131.5t139 -42.5h54v270h110v-270h195v627z" />
    <glyph glyph-name="uni04B9" unicode="&#x4b9;" horiz-adv-x="983" 
d="M627 946h250v-946h-250v334h-97v-170h-61v170h-123q-319 0 -319 305v307h252v-282q0 -59 26.5 -84t87.5 -25h76v186h61v-186h97v391z" />
    <glyph glyph-name="uni04BA" unicode="&#x4ba;" horiz-adv-x="1239" 
d="M788 874q414 0 414 -405v-469h-262v453q0 174 -184 174h-359v-627h-262v1434h262v-560h391z" />
    <glyph glyph-name="uni04BB" unicode="&#x4bb;" horiz-adv-x="1134" 
d="M367 1434v-623h4q105 166 307 166q163 0 259.5 -96.5t96.5 -296.5v-584h-252v524q0 219 -196 219q-102 0 -160.5 -67t-58.5 -213v-463h-252v1434h252z" />
    <glyph glyph-name="uni04BC" unicode="&#x4bc;" horiz-adv-x="1933" 
d="M1876 717v-111l-25 2v-2h-1142q33 -175 159.5 -275t331.5 -100q130 0 236.5 39.5t216.5 112.5l133 -236q-267 -178 -578 -178q-329 0 -540 172.5t-248 462.5h-53q-72 0 -131.5 18t-106 56t-72.5 102.5t-26 151.5q0 64 20 145h240q-19 -69 -19 -123q0 -116 117 -116h31
q36 284 235 455t508 171q224 0 386.5 -96t244.5 -263.5t82 -387.5zM1163 1208q-192 0 -310 -98t-146 -272h876q-52 370 -420 370z" />
    <glyph glyph-name="uni04BD" unicode="&#x4bd;" horiz-adv-x="1275" 
d="M1227 471v-49h-709q10 -107 83 -168t183 -61q159 0 283 129l129 -183q-183 -170 -412 -170q-218 0 -355.5 123.5t-152.5 329.5h-16q-119 0 -184.5 57.5t-65.5 171.5q0 49 17 109h172q-15 -52 -15 -92q0 -84 90 -84h11q33 180 161 286.5t320 106.5q217 0 339 -132.5
t122 -373.5zM526 584h445q-4 89 -62.5 139.5t-152.5 50.5q-96 0 -156.5 -47.5t-73.5 -142.5z" />
    <glyph glyph-name="uni04BE" unicode="&#x4be;" horiz-adv-x="1933" 
d="M1876 717v-111l-25 2v-2h-1142q33 -175 159.5 -275t331.5 -100q130 0 236.5 39.5t216.5 112.5l133 -236q-128 -87 -273 -133q-147 -144 -147 -211q0 -21 15.5 -33t39.5 -12q27 0 80 11l25 -158q-84 -19 -144 -19q-91 0 -144.5 41t-53.5 123q0 105 127 217q-66 -4 -103 -4
q-329 0 -540 172.5t-248 462.5h-53q-72 0 -131.5 18t-106 56t-72.5 102.5t-26 151.5q0 64 20 145h240q-19 -69 -19 -123q0 -116 117 -116h31q36 284 235 455t508 171q224 0 386.5 -96t244.5 -263.5t82 -387.5zM1163 1208q-192 0 -310 -98t-146 -272h876q-52 370 -420 370z
" />
    <glyph glyph-name="uni04BF" unicode="&#x4bf;" horiz-adv-x="1275" 
d="M1227 471v-49h-709q10 -107 83 -168t183 -61q159 0 283 129l129 -183q-76 -73 -168 -116l6 -3q-153 -150 -153 -217q0 -21 15.5 -33t39.5 -12q27 0 80 11l24 -158q-84 -19 -143 -19q-92 0 -145.5 41t-53.5 123q0 102 123 213h-37q-218 0 -355.5 123.5t-152.5 329.5h-16
q-119 0 -184.5 57.5t-65.5 171.5q0 49 17 109h172q-15 -52 -15 -92q0 -84 90 -84h11q33 180 161 286.5t320 106.5q217 0 339 -132.5t122 -373.5zM526 584h445q-4 89 -62.5 139.5t-152.5 50.5q-96 0 -156.5 -47.5t-73.5 -142.5z" />
    <glyph glyph-name="uni04C0" unicode="&#x4c0;" horiz-adv-x="534" 
d="M399 1434v-1434h-264v1434h264z" />
    <glyph glyph-name="uni04C1" unicode="&#x4c1;" horiz-adv-x="2164" 
d="M1079 1481q-141 0 -220 75.5t-85 210.5h172q0 -69 34 -108t99 -39q66 0 100.5 39t32.5 108h174q-6 -135 -86 -210.5t-221 -75.5zM2159 0h-371l-580 719v-719h-252v719l-581 -719h-369l647 758l-544 676h350l497 -656v656h252v-656l494 656h354l-545 -676z" />
    <glyph glyph-name="uni04C2" unicode="&#x4c2;" horiz-adv-x="1624" 
d="M811 1016q-134 0 -219.5 83.5t-85.5 223.5h166q3 -65 38.5 -106t100.5 -41q66 0 102 41t39 106h166q0 -140 -86 -223.5t-221 -83.5zM1614 0h-328l-354 457v-457h-240v457l-354 -457h-328l424 514l-373 432h320l311 -397v397h240v-397l309 397h322l-373 -432z" />
    <glyph glyph-name="uni04C3" unicode="&#x4c3;" horiz-adv-x="1325" 
d="M825 793q212 0 313 -87t101 -288v-426q0 -200 -102 -301t-291 -101h-150v246h123q76 0 117 41.5t41 142.5v359q0 94 -51 137t-164 43q-157 0 -365 -20v-539h-262v1434h262v-641l531 641h354l-592 -646q107 5 135 5z" />
    <glyph glyph-name="uni04C4" unicode="&#x4c4;" horiz-adv-x="1026" 
d="M653 528q171 0 255.5 -79t84.5 -242v-238q0 -190 -93.5 -284.5t-272.5 -94.5h-121v232h98q70 0 103.5 35t33.5 116v226q0 69 -35 103t-110 34q-101 0 -236 -12v-324h-249v946h249v-371l312 371h319l-401 -420q12 0 32.5 1t30.5 1z" />
    <glyph glyph-name="uni04C5" unicode="&#x4c5;" horiz-adv-x="1509" 
d="M1313 162h186l-192 -428h-207l108 266h-157v1188h-578v-830q0 -188 -84 -277t-256 -89h-106v250h79q53 0 79 29.5t26 99.5v1063h1102v-1272z" />
    <glyph glyph-name="uni04C6" unicode="&#x4c6;" horiz-adv-x="1187" 
d="M1010 162h198l-192 -428h-207l109 266h-160v715h-338v-416q0 -152 -79 -229.5t-216 -77.5h-105v231h66q43 0 63.5 24.5t20.5 80.5v618h250h590v-784z" />
    <glyph glyph-name="uni04C7" unicode="&#x4c7;" horiz-adv-x="1474" 
d="M1339 23h2v-91q0 -342 -335 -342h-156v246h104q65 0 95 27.5t30 95.5v41h-2v629h-680v-629h-262v1434h262v-555h680v555h262v-1411z" />
    <glyph glyph-name="uni04C8" unicode="&#x4c8;" horiz-adv-x="1138" 
d="M776 946h252v-946v-90q0 -320 -303 -320h-131v230h86q96 0 96 102v78v377h-416v-377h-249v946h249v-340h416v340z" />
    <glyph glyph-name="uni04C9" unicode="&#x4c9;" horiz-adv-x="1533" 
d="M1339 162h185l-193 -428h-207l109 266h-156v629h-680v-629h-262v1434h262v-555h680v555h262v-1272z" />
    <glyph glyph-name="uni04CA" unicode="&#x4ca;" horiz-adv-x="1202" 
d="M1028 162h195l-193 -428h-207l109 266h-156v377h-416v-377h-249v946h249v-340h416v340h252v-784z" />
    <glyph glyph-name="uni04CB" unicode="&#x4cb;" horiz-adv-x="1236" 
d="M1104 1434v-1434h-215v-287h-244v469h197v377h-393q-412 0 -412 406v469h262v-453q0 -89 45 -131.5t139 -42.5h359v627h262z" />
    <glyph glyph-name="uni04CC" unicode="&#x4cc;" horiz-adv-x="983" 
d="M877 946v-946h-162v-266h-213v403h125v197h-281q-319 0 -319 305v307h252v-282q0 -59 26.5 -84t87.5 -25h234v391h250z" />
    <glyph glyph-name="uni04CD" unicode="&#x4cd;" horiz-adv-x="1935" 
d="M1741 162h184l-192 -428h-207l108 266h-129l-217 926h-4l-295 -713h-190l-295 713h-4l-219 -926h-275l356 1434h205l324 -811h4l326 811h204z" />
    <glyph glyph-name="uni04CE" unicode="&#x4ce;" horiz-adv-x="1503" 
d="M1319 162h205l-193 -428h-207l109 266h-115l-153 580h-4l-183 -443h-164l-182 443h-4l-154 -580h-247l276 946h201l190 -461h4l191 461h201z" />
    <glyph glyph-name="uni04CF" unicode="&#x4cf;" horiz-adv-x="483" 
d="M115 0v946h252v-946h-252z" />
    <glyph glyph-name="uni04D0" unicode="&#x4d0;" horiz-adv-x="1425" 
d="M713 1481q-141 0 -220 75.5t-85 210.5h172q0 -69 34 -108t99 -39q66 0 100.5 39t32.5 108h174q-6 -135 -86 -210.5t-221 -75.5zM1128 0l-120 326h-590l-121 -326h-291l576 1434h262l575 -1434h-291zM504 563h418l-209 561z" />
    <glyph glyph-name="uni04D1" unicode="&#x4d1;" horiz-adv-x="1183" 
d="M881 1323q0 -140 -86.5 -223.5t-221.5 -83.5q-134 0 -219.5 83.5t-85.5 223.5h166q3 -65 38.5 -106t100.5 -41q66 0 102.5 41t39.5 106h166zM508 -31q-94 0 -176 33.5t-144.5 96t-98.5 159.5t-36 215t36 215t98.5 159.5t144.5 96t176 33.5q216 0 315 -164h4v133h250v-946
h-250v133h-4q-99 -164 -315 -164zM571 207q114 0 185 73t71 193t-71 193t-185 73t-185 -73t-71 -193t71 -193t185 -73z" />
    <glyph glyph-name="uni04D2" unicode="&#x4d2;" horiz-adv-x="1425" 
d="M616 1745v-223h-243v223h243zM1053 1745v-223h-244v223h244zM1128 0l-120 326h-590l-121 -326h-291l576 1434h262l575 -1434h-291zM504 563h418l-209 561z" />
    <glyph glyph-name="uni04D3" unicode="&#x4d3;" horiz-adv-x="1183" 
d="M506 1319v-260h-213v260h213zM852 1319v-260h-213v260h213zM508 -31q-94 0 -176 33.5t-144.5 96t-98.5 159.5t-36 215t36 215t98.5 159.5t144.5 96t176 33.5q216 0 315 -164h4v133h250v-946h-250v133h-4q-99 -164 -315 -164zM571 207q114 0 185 73t71 193t-71 193
t-185 73t-185 -73t-71 -193t71 -193t185 -73z" />
    <glyph glyph-name="uni04D4" unicode="&#x4d4;" horiz-adv-x="1974" 
d="M1343 242h551v-242h-657h-147v326h-545l-203 -326h-336l938 1434h399h543v-242h-543v-291h490v-242h-490v-417zM690 563h400v639z" />
    <glyph glyph-name="uni04D5" unicode="&#x4d5;" horiz-adv-x="1679" 
d="M416 -31q-169 0 -276 92t-107 244q0 149 103 239.5t272 90.5q89 0 163.5 -26.5t118.5 -73.5h4v61q0 81 -53 127.5t-162 46.5q-117 0 -293 -45l-51 207q195 45 352 45q82 0 142.5 -15t111.5 -55.5t80 -107.5h4q50 80 143 129t216 49q207 0 327.5 -132.5t120.5 -373.5v-49
h-700q14 -107 80 -168t180 -61q154 0 283 129l124 -179q-178 -174 -403 -174q-137 0 -238.5 55.5t-152.5 149.5h-4q-60 -103 -162.5 -154t-222.5 -51zM938 584h436q-3 87 -61 138.5t-150 51.5q-88 0 -149.5 -48t-75.5 -142zM492 170q89 0 146.5 38.5t57.5 102.5
q0 65 -57 103.5t-145 38.5q-89 0 -138 -40t-49 -102q0 -64 48.5 -102.5t136.5 -38.5z" />
    <glyph glyph-name="uni04D6" unicode="&#x4d6;" horiz-adv-x="1075" 
d="M596 1481q-141 0 -220 75.5t-85 210.5h172q0 -69 34 -108t99 -39q66 0 100.5 39t32.5 108h174q-6 -135 -86 -210.5t-221 -75.5zM397 242h598v-242h-860v1434h850v-242h-588v-291h537v-242h-537v-417z" />
    <glyph glyph-name="uni04D7" unicode="&#x4d7;" horiz-adv-x="1052" 
d="M854 1323q0 -140 -86 -223.5t-221 -83.5q-134 0 -219.5 83.5t-85.5 223.5h166q3 -65 38.5 -106t100.5 -41q66 0 102 41t39 106h166zM545 977q217 0 338 -132t121 -374v-49h-707q10 -107 83 -168t183 -61q154 0 283 129l127 -183q-183 -170 -410 -170q-231 0 -370.5 138
t-139.5 364q0 227 135 366.5t357 139.5zM532 774q-94 0 -154 -47.5t-75 -142.5h447q-6 89 -65 139.5t-153 50.5z" />
    <glyph glyph-name="uni04D8" unicode="&#x4d8;" horiz-adv-x="1581" 
d="M741 1464q362 0 571.5 -200t209.5 -549q0 -222 -86.5 -390t-254 -262t-395.5 -94q-173 0 -311 55t-229 154t-139 235t-48 298v116l23 -2v2h1147q-31 179 -155.5 277t-332.5 98q-238 0 -460 -131l-129 248q284 145 589 145zM788 225q193 0 305.5 96.5t137.5 270.5h-879
q25 -176 134.5 -271.5t301.5 -95.5z" />
    <glyph glyph-name="uni04D9" unicode="&#x4d9;" horiz-adv-x="1052" 
d="M508 -31q-217 0 -338 132t-121 374v49h707q-10 107 -83.5 168.5t-183.5 61.5q-153 0 -282 -129l-127 182q183 170 409 170q231 0 370.5 -138t139.5 -364q0 -227 -134.5 -366.5t-356.5 -139.5zM520 172q94 0 154.5 47.5t75.5 142.5h-447q6 -90 64.5 -140t152.5 -50z" />
    <glyph glyph-name="uni04DA" unicode="&#x4da;" horiz-adv-x="1581" 
d="M686 1745v-223h-244v223h244zM1122 1745v-223h-243v223h243zM741 1464q362 0 571.5 -200t209.5 -549q0 -222 -86.5 -390t-254 -262t-395.5 -94q-173 0 -311 55t-229 154t-139 235t-48 298v116l23 -2v2h1147q-31 179 -155.5 277t-332.5 98q-238 0 -460 -131l-129 248
q284 145 589 145zM788 225q193 0 305.5 96.5t137.5 270.5h-879q25 -176 134.5 -271.5t301.5 -95.5z" />
    <glyph glyph-name="uni04DB" unicode="&#x4db;" horiz-adv-x="1052" 
d="M461 1319v-260h-213v260h213zM807 1319v-260h-213v260h213zM508 -31q-217 0 -338 132t-121 374v49h707q-10 107 -83.5 168.5t-183.5 61.5q-153 0 -282 -129l-127 182q183 170 409 170q231 0 370.5 -138t139.5 -364q0 -227 -134.5 -366.5t-356.5 -139.5zM520 172
q94 0 154.5 47.5t75.5 142.5h-447q6 -90 64.5 -140t152.5 -50z" />
    <glyph glyph-name="uni04DC" unicode="&#x4dc;" horiz-adv-x="2164" 
d="M985 1745v-223h-244v223h244zM1421 1745v-223h-243v223h243zM2159 0h-371l-580 719v-719h-252v719l-581 -719h-369l647 758l-544 676h350l497 -656v656h252v-656l494 656h354l-545 -676z" />
    <glyph glyph-name="uni04DD" unicode="&#x4dd;" horiz-adv-x="1624" 
d="M745 1319v-260h-213v260h213zM1092 1319v-260h-213v260h213zM1614 0h-328l-354 457v-457h-240v457l-354 -457h-328l424 514l-373 432h320l311 -397v397h240v-397l309 397h322l-373 -432z" />
    <glyph glyph-name="uni04DE" unicode="&#x4de;" horiz-adv-x="1204" 
d="M508 1745v-223h-244v223h244zM944 1745v-223h-244v223h244zM584 1464q239 0 368 -93t129 -267q0 -134 -78.5 -221t-228.5 -119v-4q167 -22 264 -111.5t97 -257.5q0 -90 -31.5 -164.5t-97 -133.5t-177 -91.5t-260.5 -32.5q-298 0 -530 133l117 234q211 -119 415 -119
q144 0 221.5 51.5t77.5 145.5q0 211 -397 211h-137v241h137q163 0 251.5 49.5t88.5 141.5q0 78 -64 119t-184 41q-189 0 -399 -107l-105 236q259 118 523 118z" />
    <glyph glyph-name="uni04DF" unicode="&#x4df;" horiz-adv-x="925" 
d="M365 1319v-260h-213v260h213zM711 1319v-260h-213v260h213zM432 -31q-234 0 -403 82l84 199q163 -72 317 -72q193 0 193 107q0 110 -172 110h-193v189h186q144 0 144 94q0 92 -162 92q-124 0 -301 -57l-68 200q212 64 392 64q397 0 397 -252q0 -88 -55 -145t-156 -72v-6
q110 -11 173.5 -73t63.5 -167q0 -141 -109 -217t-331 -76z" />
    <glyph glyph-name="uni04E0" unicode="&#x4e0;" horiz-adv-x="1136" 
d="M532 -31q-142 0 -277.5 34.5t-238.5 98.5l121 234q198 -111 389 -111q133 0 201 52.5t68 150.5q0 107 -88.5 159t-268.5 52h-155v211l372 344h-534v240h901v-228l-463 -387q64 17 115 17q81 0 153 -27.5t127 -79t87 -131.5t32 -178q0 -93 -29 -171.5t-90 -142.5
t-169 -100.5t-253 -36.5z" />
    <glyph glyph-name="uni04E1" unicode="&#x4e1;" horiz-adv-x="997" 
d="M422 -440q-117 0 -236.5 26.5t-216.5 73.5l97 223q179 -92 358 -92q129 0 198.5 57.5t69.5 157.5q0 203 -309 203h-180v184l364 322h-514v231h828v-227l-412 -340q44 8 96 8q163 0 272 -102.5t109 -282.5q0 -207 -132 -324.5t-392 -117.5z" />
    <glyph glyph-name="uni04E2" unicode="&#x4e2;" horiz-adv-x="1474" 
d="M1057 1716v-170h-627v170h627zM135 1434h262v-1000h2l697 1000h243v-1434h-262v997h-2l-696 -997h-244v1434z" />
    <glyph glyph-name="uni04E3" unicode="&#x4e3;" horiz-adv-x="1138" 
d="M891 1251v-172h-627v172h627zM111 0v946h249v-573h5l438 573h227v-946h-252v573h-4l-438 -573h-225z" />
    <glyph glyph-name="uni04E4" unicode="&#x4e4;" horiz-adv-x="1474" 
d="M649 1745v-223h-243v223h243zM1085 1745v-223h-243v223h243zM135 1434h262v-1000h2l697 1000h243v-1434h-262v997h-2l-696 -997h-244v1434z" />
    <glyph glyph-name="uni04E5" unicode="&#x4e5;" horiz-adv-x="1138" 
d="M512 1319v-260h-213v260h213zM858 1319v-260h-213v260h213zM111 0v946h249v-573h5l438 573h227v-946h-252v573h-4l-438 -573h-225z" />
    <glyph glyph-name="uni04E6" unicode="&#x4e6;" horiz-adv-x="1619" 
d="M715 1745v-223h-244v223h244zM1151 1745v-223h-244v223h244zM809 1464q158 0 297 -55t239 -151.5t158 -237t58 -303.5q0 -218 -99 -389.5t-270 -265t-383 -93.5t-382.5 93.5t-269 265t-98.5 389.5q0 164 57.5 304t157.5 236.5t238.5 151.5t296.5 55zM809 1196
q-202 0 -332.5 -133.5t-130.5 -345.5t130.5 -345.5t332.5 -133.5q203 0 333 133t130 346t-130 346t-333 133z" />
    <glyph glyph-name="uni04E7" unicode="&#x4e7;" horiz-adv-x="1153" 
d="M510 1319v-260h-213v260h213zM856 1319v-260h-213v260h213zM578 977q227 0 375.5 -141.5t148.5 -362.5t-148.5 -362.5t-375.5 -141.5t-376 141.5t-149 362.5t149 362.5t376 141.5zM578 739q-117 0 -192 -73t-75 -193t75 -193t192 -73t190.5 73t73.5 193t-73.5 193
t-190.5 73z" />
    <glyph glyph-name="uni04E8" unicode="&#x4e8;" horiz-adv-x="1619" 
d="M809 1464q158 0 297 -55t239 -151.5t158 -237t58 -303.5q0 -218 -99 -389.5t-270 -265t-383 -93.5t-382.5 93.5t-269 265t-98.5 389.5q0 164 57.5 304t157.5 236.5t238.5 151.5t296.5 55zM809 1200q-190 0 -320 -113t-153 -299h946q-23 186 -153 299t-320 113zM809 233
q190 0 320 113t153 299h-946q23 -186 153 -299t320 -113z" />
    <glyph glyph-name="uni04E9" unicode="&#x4e9;" horiz-adv-x="1153" 
d="M578 977q227 0 375.5 -141.5t148.5 -362.5t-148.5 -362.5t-375.5 -141.5t-376 141.5t-149 362.5t149 362.5t376 141.5zM578 754q-107 0 -182 -59t-95 -160h551q-19 101 -93.5 160t-180.5 59zM578 193q106 0 180.5 59t93.5 160h-551q20 -101 95 -160t182 -59z" />
    <glyph glyph-name="uni04EA" unicode="&#x4ea;" horiz-adv-x="1619" 
d="M715 1745v-223h-244v223h244zM1151 1745v-223h-244v223h244zM809 1464q158 0 297 -55t239 -151.5t158 -237t58 -303.5q0 -218 -99 -389.5t-270 -265t-383 -93.5t-382.5 93.5t-269 265t-98.5 389.5q0 164 57.5 304t157.5 236.5t238.5 151.5t296.5 55zM809 1200
q-190 0 -320 -113t-153 -299h946q-23 186 -153 299t-320 113zM809 233q190 0 320 113t153 299h-946q23 -186 153 -299t320 -113z" />
    <glyph glyph-name="uni04EB" unicode="&#x4eb;" horiz-adv-x="1153" 
d="M496 1319v-260h-213v260h213zM842 1319v-260h-213v260h213zM578 977q227 0 375.5 -141.5t148.5 -362.5t-148.5 -362.5t-375.5 -141.5t-376 141.5t-149 362.5t149 362.5t376 141.5zM578 754q-107 0 -182 -59t-95 -160h551q-19 101 -93.5 160t-180.5 59zM578 193
q106 0 180.5 59t93.5 160h-551q20 -101 95 -160t182 -59z" />
    <glyph glyph-name="uni04EC" unicode="&#x4ec;" horiz-adv-x="1370" 
d="M506 1745v-223h-244v223h244zM942 1745v-223h-244v223h244zM578 1464q161 0 296 -50t232 -144t151 -235.5t54 -317.5q0 -234 -94 -404.5t-258.5 -257t-380.5 -86.5q-297 0 -539 164l139 229q185 -126 395 -126q181 0 300 98t145 282h-590v242h584q-36 165 -152.5 252.5
t-286.5 87.5q-208 0 -395 -127l-139 229q242 164 539 164z" />
    <glyph glyph-name="uni04ED" unicode="&#x4ed;" horiz-adv-x="933" 
d="M360 1319v-260h-213v260h213zM707 1319v-260h-213v260h213zM379 977q227 0 359 -131t132 -373t-132 -373t-359 -131q-193 0 -350 92l106 211q116 -65 234 -65q200 0 241 178h-319v176h319q-41 178 -241 178q-118 0 -234 -65l-106 211q162 92 350 92z" />
    <glyph glyph-name="uni04EE" unicode="&#x4ee;" horiz-adv-x="1337" 
d="M999 1716v-170h-626v170h626zM1047 1434h290l-675 -1434h-293l172 367l-541 1067h328l356 -764z" />
    <glyph glyph-name="uni04EF" unicode="&#x4ef;" horiz-adv-x="1064" 
d="M858 1251v-172h-627v172h627zM791 946h264l-606 -1356h-261l232 498l-410 858h295l240 -573z" />
    <glyph glyph-name="uni04F0" unicode="&#x4f0;" horiz-adv-x="1337" 
d="M590 1745v-223h-244v223h244zM1026 1745v-223h-244v223h244zM1047 1434h290l-675 -1434h-293l172 367l-541 1067h328l356 -764z" />
    <glyph glyph-name="uni04F1" unicode="&#x4f1;" horiz-adv-x="1064" 
d="M479 1319v-260h-213v260h213zM825 1319v-260h-213v260h213zM791 946h264l-606 -1356h-261l232 498l-410 858h295l240 -573z" />
    <glyph glyph-name="uni04F2" unicode="&#x4f2;" horiz-adv-x="1337" 
d="M874 1767l-221 -245h-172l185 245h208zM938 1522h-172l184 245h207zM1047 1434h290l-675 -1434h-293l172 367l-541 1067h328l356 -764z" />
    <glyph glyph-name="uni04F3" unicode="&#x4f3;" horiz-adv-x="1064" 
d="M758 1346l-271 -316h-174l232 316h213zM780 1030h-174l230 316h215zM791 946h264l-606 -1356h-261l232 498l-410 858h295l240 -573z" />
    <glyph glyph-name="uni04F4" unicode="&#x4f4;" horiz-adv-x="1236" 
d="M473 1745v-223h-244v223h244zM909 1745v-223h-243v223h243zM842 1434h262v-1434h-262v559h-393q-412 0 -412 406v469h262v-453q0 -89 45 -131.5t139 -42.5h359v627z" />
    <glyph glyph-name="uni04F5" unicode="&#x4f5;" horiz-adv-x="987" 
d="M381 1319v-260h-213v260h213zM727 1319v-260h-213v260h213zM627 946h250v-946h-250v334h-281q-319 0 -319 305v307h252v-282q0 -59 26.5 -84t87.5 -25h234v391z" />
    <glyph glyph-name="uni04F8" unicode="&#x4f8;" horiz-adv-x="1726" 
d="M776 1745v-223h-244v223h244zM969 1522v223h243v-223h-243zM705 891q97 0 180 -27t148 -80t101.5 -140.5t36.5 -199.5t-36.5 -198.5t-101.5 -139t-148 -79.5t-180 -27h-570v1434h262v-543h308zM1327 1434h264v-1434h-264v1434zM672 242q105 0 164 53t59 149q0 99 -59 152
t-164 53h-275v-407h275z" />
    <glyph glyph-name="uni04F9" unicode="&#x4f9;" horiz-adv-x="1392" 
d="M635 1319v-260h-213v260h213zM768 1059v260h213v-260h-213zM590 645q163 0 257.5 -84t94.5 -237q0 -150 -95 -237t-257 -87h-479v946h249v-301h230zM1032 946h250v-946h-250v946zM549 207q65 0 100 29.5t35 85.5q0 116 -135 116h-189v-231h189z" />
    <glyph glyph-name="uni04FC" unicode="&#x4fc;" horiz-adv-x="1320" 
d="M1135 338q89 -132 128.5 -228t39.5 -194q0 -326 -406 -326h-80l2 244h70q143 0 143 107q0 37 -19 83.5t-39.5 80.5t-76.5 120l-213 326l-350 -551h-322l508 762l-448 672h321l291 -457l293 457h319l-448 -670z" />
    <glyph glyph-name="uni04FD" unicode="&#x4fd;" horiz-adv-x="1036" 
d="M610 -410v230h86q99 0 99 90q0 57 -78 164l-185 248l-229 -322h-293l377 498l-332 448h295l182 -276l185 276h295l-332 -448l244 -320q68 -89 95.5 -155.5t27.5 -153.5q0 -132 -79 -205.5t-225 -73.5h-133z" />
    <glyph glyph-name="uni0510" unicode="&#x510;" horiz-adv-x="1204" 
d="M621 1464q263 0 522 -118l-105 -236q-210 107 -399 107q-120 0 -184 -41t-64 -119q0 -92 88.5 -141.5t251.5 -49.5h137v-241h-137q-397 0 -397 -211q0 -94 77.5 -145.5t221.5 -51.5q205 0 416 119l116 -234q-232 -133 -530 -133q-149 0 -260.5 32.5t-176.5 91.5
t-96.5 133.5t-31.5 164.5q0 168 97 257.5t263 111.5v4q-150 32 -228.5 119t-78.5 221q0 174 129.5 267t368.5 93z" />
    <glyph glyph-name="uni0511" unicode="&#x511;" horiz-adv-x="901" 
d="M473 -31q-420 0 -420 287q0 106 67 170.5t181 75.5v6q-106 17 -163.5 75t-57.5 148q0 123 93.5 184.5t270.5 61.5q184 0 400 -64l-68 -200q-158 57 -287 57q-151 0 -151 -88q0 -98 194 -98h144v-189h-150q-118 0 -170.5 -25.5t-52.5 -86.5q0 -105 180 -105q149 0 305 72
l86 -199q-178 -82 -401 -82z" />
    <glyph glyph-name="uni0512" unicode="&#x512;" horiz-adv-x="1447" 
d="M1313 1434v-1434v-68q0 -171 -85.5 -256.5t-250.5 -85.5h-156v246h105q65 0 95 27.5t30 95.5v82v1147h-578v-830q0 -188 -84 -277t-256 -89h-106v250h79q53 0 79 29.5t26 99.5v1063h1102z" />
    <glyph glyph-name="uni0513" unicode="&#x513;" horiz-adv-x="1118" 
d="M1010 946v-946h-2v-90q0 -320 -303 -320h-132v230h86q97 0 97 102v78h2v715h-338v-416q0 -152 -79 -229.5t-216 -77.5h-105v231h66q43 0 63.5 24.5t20.5 80.5v618h840z" />
    <glyph glyph-name="uni051C" unicode="&#x51c;" horiz-adv-x="2095" 
d="M2073 1434l-455 -1434h-242l-325 1006h-7l-325 -1006h-242l-454 1434h301l276 -1014h4l322 1014h243l324 -1014h4l277 1014h299z" />
    <glyph glyph-name="uni051D" unicode="&#x51d;" horiz-adv-x="1560" 
d="M1288 946h262l-329 -946h-224l-217 618l-217 -618h-223l-330 946h262l183 -622l207 622h237l207 -622z" />
    <glyph glyph-name="uni0524" unicode="&#x524;" horiz-adv-x="1501" 
d="M1329 182h162v-469h-244v287h-180v1188h-670v-1188h-262v1434h1194v-1252z" />
    <glyph glyph-name="uni0525" unicode="&#x525;" horiz-adv-x="1157" 
d="M1010 137h120v-403h-215v266h-157v715h-398v-715h-249v946h249h566h84v-809z" />
    <glyph glyph-name="uni0526" unicode="&#x526;" horiz-adv-x="1372" 
d="M1202 182h162v-469h-244v287h-180v453q0 174 -184 174h-359v-627h-262v1434h262v-560h391q414 0 414 -405v-287z" />
    <glyph glyph-name="uni0527" unicode="&#x527;" horiz-adv-x="1181" 
d="M1034 137h121v-403h-215v266h-158v524q0 219 -196 219q-102 0 -160.5 -67t-58.5 -213v-463h-252v1434h252v-623h4q105 166 307 166q163 0 259.5 -96.5t96.5 -296.5v-447z" />
    <glyph glyph-name="uni0E3F" unicode="&#xe3f;" horiz-adv-x="1077" 
d="M778 688q105 -30 165.5 -110t60.5 -195q0 -187 -121.5 -285t-321.5 -98h-29v-178h-57v178h-401v1382h401v179h57v-179h37q195 0 315 -97.5t120 -274.5q0 -118 -61 -201.5t-165 -114.5v-6zM475 1157h-156v-360h156v360zM555 1157h-23v-360q103 0 158 48.5t55 139.5
q0 77 -53 124.5t-137 47.5zM319 225h156v361h-156v-361zM555 225q84 0 137 48.5t53 127.5q0 90 -55 137.5t-158 47.5v-361h23z" />
    <glyph glyph-name="Wgrave" unicode="&#x1e80;" horiz-adv-x="2095" 
d="M934 1767l215 -245h-184l-326 245h295zM2073 1434l-455 -1434h-242l-325 1006h-7l-325 -1006h-242l-454 1434h301l276 -1014h4l322 1014h243l324 -1014h4l277 1014h299z" />
    <glyph glyph-name="wgrave" unicode="&#x1e81;" horiz-adv-x="1560" 
d="M877 1133h-197l-313 315h297zM1288 946h262l-329 -946h-224l-217 618l-217 -618h-223l-330 946h262l183 -622l207 622h237l207 -622z" />
    <glyph glyph-name="Wacute" unicode="&#x1e82;" horiz-adv-x="2095" 
d="M1458 1767l-325 -245h-185l213 245h297zM2073 1434l-455 -1434h-242l-325 1006h-7l-325 -1006h-242l-454 1434h301l276 -1014h4l322 1014h243l324 -1014h4l277 1014h299z" />
    <glyph glyph-name="wacute" unicode="&#x1e83;" horiz-adv-x="1560" 
d="M1188 1448l-314 -315h-196l213 315h297zM1288 946h262l-329 -946h-224l-217 618l-217 -618h-223l-330 946h262l183 -622l207 622h237l207 -622z" />
    <glyph glyph-name="Wdieresis" unicode="&#x1e84;" horiz-adv-x="2095" 
d="M952 1745v-223h-243v223h243zM1389 1745v-223h-244v223h244zM2073 1434l-455 -1434h-242l-325 1006h-7l-325 -1006h-242l-454 1434h301l276 -1014h4l322 1014h243l324 -1014h4l277 1014h299z" />
    <glyph glyph-name="wdieresis" unicode="&#x1e85;" horiz-adv-x="1560" 
d="M700 1413v-260h-227v260h227zM1085 1413v-260h-227v260h227zM1288 946h262l-329 -946h-224l-217 618l-217 -618h-223l-330 946h262l183 -622l207 622h237l207 -622z" />
    <glyph glyph-name="Ygrave" unicode="&#x1ef2;" horiz-adv-x="1222" 
d="M713 1522h-185l-325 245h295zM1223 1434l-480 -885v-549h-264v547l-479 887h309l299 -617h6l299 617h310z" />
    <glyph glyph-name="ygrave" unicode="&#x1ef3;" horiz-adv-x="1064" 
d="M641 1133h-197l-313 315h297zM791 946h264l-606 -1356h-261l232 498l-410 858h295l240 -573z" />
    <glyph glyph-name="endash" unicode="&#x2013;" horiz-adv-x="1521" 
d="M1430 655v-209h-1336v209h1336z" />
    <glyph glyph-name="emdash" unicode="&#x2014;" horiz-adv-x="2363" 
d="M2261 655v-204h-2159v204h2159z" />
    <glyph glyph-name="quoteleft" unicode="&#x2018;" horiz-adv-x="372" 
d="M311 1540l-108 -309h102v-248h-248v248l164 309h90z" />
    <glyph glyph-name="quoteright" unicode="&#x2019;" horiz-adv-x="372" 
d="M68 1464h247v-247l-163 -312h-91l109 312h-102v247z" />
    <glyph glyph-name="quotesinglbase" unicode="&#x201a;" horiz-adv-x="372" 
d="M68 248h247v-248l-163 -309h-91l109 309h-102v248z" />
    <glyph glyph-name="quotedblleft" unicode="&#x201c;" horiz-adv-x="704" 
d="M221 1540h90l-108 -309h102v-248h-248v248zM643 1540l-108 -309h102v-248h-248v248l164 309h90z" />
    <glyph glyph-name="quotedblright" unicode="&#x201d;" horiz-adv-x="704" 
d="M68 1217v247h247v-247l-163 -312h-91l109 312h-102zM399 1464h250v-247l-166 -312h-90l109 312h-103v247z" />
    <glyph glyph-name="quotedblbase" unicode="&#x201e;" horiz-adv-x="704" 
d="M68 0v248h247v-248l-163 -309h-91l109 309h-102zM399 248h250v-248l-166 -309h-90l109 309h-103v248z" />
    <glyph glyph-name="dagger" unicode="&#x2020;" horiz-adv-x="1073" 
d="M971 983v-197h-328v-976h-213v976h-328v197h328v451h213v-451h328z" />
    <glyph glyph-name="daggerdbl" unicode="&#x2021;" horiz-adv-x="1071" 
d="M969 827h-328v-372h328v-197h-328v-448h-213v448h-326v197h326v372h-326v197h326v410h213v-410h328v-197z" />
    <glyph glyph-name="bullet" unicode="&#x2022;" horiz-adv-x="757" 
d="M379 995q105 0 175.5 -70.5t70.5 -174.5q0 -107 -70 -176.5t-176 -69.5t-176 69.5t-70 176.5q0 104 70.5 174.5t175.5 70.5z" />
    <glyph glyph-name="ellipsis" unicode="&#x2026;" horiz-adv-x="1488" 
d="M383 285v-285h-283v285h283zM887 285v-285h-285v285h285zM1391 285v-285h-285v285h285z" />
    <glyph glyph-name="perthousand" unicode="&#x2030;" horiz-adv-x="2326" 
d="M434 1413q147 0 239.5 -92.5t92.5 -239.5q0 -148 -92.5 -239.5t-239.5 -91.5q-146 0 -239 91.5t-93 239.5q0 147 93.5 239.5t238.5 92.5zM311 0l811 1382h138l-811 -1382h-138zM434 1284q-88 0 -141 -56t-53 -147t53 -146.5t141 -55.5t141.5 55.5t53.5 146.5t-53.5 147
t-141.5 56zM1151 653q147 0 239.5 -91.5t92.5 -239.5q0 -147 -92.5 -239.5t-239.5 -92.5t-239.5 92.5t-92.5 239.5q0 148 92.5 239.5t239.5 91.5zM1892 653q146 0 239 -91.5t93 -239.5q0 -147 -93.5 -239.5t-238.5 -92.5q-146 0 -238.5 92t-92.5 240q0 149 92 240t239 91z
M1151 524q-88 0 -141.5 -55.5t-53.5 -146.5t53.5 -147t141.5 -56t141.5 56t53.5 147t-53.5 146.5t-141.5 55.5zM1892 524q-88 0 -141 -55.5t-53 -146.5t53 -147t141 -56t141.5 56t53.5 147t-53.5 146.5t-141.5 55.5z" />
    <glyph glyph-name="guilsinglleft" unicode="&#x2039;" horiz-adv-x="649" 
d="M629 823l-318 -340l318 -342h-275l-317 342l317 340h275z" />
    <glyph glyph-name="guilsinglright" unicode="&#x203a;" horiz-adv-x="649" 
d="M20 823h275l317 -340l-317 -342h-275l318 342z" />
    <glyph glyph-name="fraction" unicode="&#x2044;" horiz-adv-x="249" 
d="M-348 0l809 1382h137l-809 -1382h-137z" />
    <glyph glyph-name="uni2070" unicode="&#x2070;" horiz-adv-x="931" 
d="M465 692q-178 0 -282.5 126.5t-104.5 350.5t104 350t283 126q180 0 284.5 -126t104.5 -350t-104.5 -350.5t-284.5 -126.5zM465 899q79 0 122.5 72t43.5 198q0 124 -44 197.5t-122 73.5q-77 0 -120.5 -74t-43.5 -197t43.5 -196.5t120.5 -73.5z" />
    <glyph glyph-name="uni2074" unicode="&#x2074;" horiz-adv-x="864" 
d="M811 1059v-191h-102v-155h-209v155h-463v164l448 594h224v-567h102zM258 1059h242v311h-6z" />
    <glyph glyph-name="uni2075" unicode="&#x2075;" horiz-adv-x="827" 
d="M391 692q-207 0 -328 129l132 166q77 -92 196 -92q69 0 108.5 34t39.5 97q0 57 -33 89t-92 32q-83 0 -125 -64h-174l53 543h504v-196l-344 -3l-19 -155h2q60 43 150 43q128 0 210.5 -79t82.5 -222q0 -150 -96 -236t-267 -86z" />
    <glyph glyph-name="uni2076" unicode="&#x2076;" horiz-adv-x="831" 
d="M424 692q-160 0 -261.5 94t-101.5 256q0 104 36 184t114 181l180 233h268l-335 -368l4 -2q65 65 164 65q55 0 105 -19t91 -55.5t65.5 -98.5t24.5 -140q0 -65 -22 -123t-64 -105t-111 -74.5t-157 -27.5zM420 889q61 0 100 37.5t39 99.5q0 61 -39 97t-100 36
q-60 0 -98.5 -36.5t-38.5 -96.5q0 -62 38.5 -99.5t98.5 -37.5z" />
    <glyph glyph-name="uni2077" unicode="&#x2077;" horiz-adv-x="706" 
d="M57 713l369 696h-399v217h643v-203l-371 -710h-242z" />
    <glyph glyph-name="uni2078" unicode="&#x2078;" horiz-adv-x="866" 
d="M432 692q-176 0 -269 72t-93 199q0 98 51 156.5t135 72.5v4q-75 17 -116.5 73t-41.5 130q0 112 89 179t245 67q158 0 247 -67t89 -179q0 -74 -41.5 -130t-118.5 -73v-4q84 -14 136.5 -72.5t52.5 -156.5q0 -127 -94 -199t-271 -72zM432 1282q50 0 81.5 25.5t31.5 66.5
q0 46 -32 71t-81 25t-79.5 -25t-30.5 -71q0 -41 31 -66.5t79 -25.5zM432 881q61 0 98 32t37 82q0 51 -36.5 83t-98.5 32q-61 0 -98 -32.5t-37 -82.5t37.5 -82t97.5 -32z" />
    <glyph glyph-name="uni2079" unicode="&#x2079;" horiz-adv-x="825" 
d="M164 713l340 344l-4 2q-75 -60 -158 -60q-118 0 -203.5 90.5t-85.5 223.5q0 143 97 237.5t256 94.5q163 0 264.5 -93.5t101.5 -257.5q0 -108 -43.5 -207.5t-144.5 -209.5l-150 -164h-270zM414 1176q61 0 100 37t39 98q0 63 -39 101t-100 38t-101.5 -38t-40.5 -101
q0 -60 40.5 -97.5t101.5 -37.5z" />
    <glyph glyph-name="uni2080" unicode="&#x2080;" horiz-adv-x="931" 
d="M465 -246q-178 0 -282.5 126.5t-104.5 350.5t104 350t283 126q180 0 284.5 -126t104.5 -350t-104.5 -350.5t-284.5 -126.5zM465 -39q79 0 122.5 72t43.5 198q0 124 -44 197.5t-122 73.5q-77 0 -120.5 -74t-43.5 -197t43.5 -196.5t120.5 -73.5z" />
    <glyph glyph-name="uni2081" unicode="&#x2081;" horiz-adv-x="514" 
d="M152 -225v698h-43v215h270v-913h-227z" />
    <glyph glyph-name="uni2082" unicode="&#x2082;" horiz-adv-x="821" 
d="M80 -225v186l321 287q66 58 93.5 94.5t27.5 77.5q0 42 -29 66t-81 24q-56 0 -91 -30.5t-36 -94.5h-217q2 152 91 238t259 86q158 0 244 -72.5t86 -204.5q0 -87 -42.5 -157t-125.5 -138l-189 -155h365v-207h-676z" />
    <glyph glyph-name="uni2083" unicode="&#x2083;" horiz-adv-x="839" 
d="M420 -246q-165 0 -259.5 72.5t-97.5 232.5h213q7 -106 140 -106q69 0 105 27.5t36 80.5q0 60 -48.5 81.5t-156.5 21.5v155q176 3 176 101q0 92 -116 92q-56 0 -89 -26.5t-36 -77.5h-211q0 138 89 218.5t259 80.5q154 0 241 -66t87 -178q0 -78 -46 -132t-128 -69v-4
q94 -12 146 -67.5t52 -153.5q0 -126 -88.5 -204.5t-267.5 -78.5z" />
    <glyph glyph-name="uni2084" unicode="&#x2084;" horiz-adv-x="864" 
d="M811 121v-191h-102v-155h-209v155h-463v164l448 594h224v-567h102zM258 121h242v311h-6z" />
    <glyph glyph-name="uni2085" unicode="&#x2085;" horiz-adv-x="827" 
d="M391 -246q-207 0 -328 129l132 166q77 -92 196 -92q69 0 108.5 34t39.5 97q0 57 -33 89t-92 32q-83 0 -125 -64h-174l53 543h504v-196l-344 -3l-19 -155h2q60 43 150 43q128 0 210.5 -79t82.5 -222q0 -150 -96 -236t-267 -86z" />
    <glyph glyph-name="uni2086" unicode="&#x2086;" horiz-adv-x="831" 
d="M424 -246q-160 0 -261.5 94t-101.5 256q0 104 36 184t114 181l180 233h268l-335 -368l4 -2q65 65 164 65q55 0 105 -19t91 -55.5t65.5 -98.5t24.5 -140q0 -65 -22 -123t-64 -105t-111 -74.5t-157 -27.5zM420 -49q61 0 100 37.5t39 99.5q0 61 -39 97t-100 36
q-60 0 -98.5 -36.5t-38.5 -96.5q0 -62 38.5 -99.5t98.5 -37.5z" />
    <glyph glyph-name="uni2087" unicode="&#x2087;" horiz-adv-x="706" 
d="M57 -225l369 696h-399v217h643v-203l-371 -710h-242z" />
    <glyph glyph-name="uni2088" unicode="&#x2088;" horiz-adv-x="866" 
d="M432 -246q-176 0 -269 72t-93 199q0 98 51 156.5t135 72.5v4q-75 17 -116.5 73t-41.5 130q0 112 89 179t245 67q158 0 247 -67t89 -179q0 -74 -41.5 -130t-118.5 -73v-4q84 -14 136.5 -72.5t52.5 -156.5q0 -127 -94 -199t-271 -72zM432 344q50 0 81.5 25.5t31.5 66.5
q0 46 -32 71t-81 25t-79.5 -25t-30.5 -71q0 -41 31 -66.5t79 -25.5zM432 -57q61 0 98 32t37 82q0 51 -36.5 83t-98.5 32q-61 0 -98 -32.5t-37 -82.5t37.5 -82t97.5 -32z" />
    <glyph glyph-name="uni2089" unicode="&#x2089;" horiz-adv-x="825" 
d="M164 -225l340 344l-4 2q-75 -60 -158 -60q-118 0 -203.5 90.5t-85.5 223.5q0 143 97 237.5t256 94.5q163 0 264.5 -93.5t101.5 -257.5q0 -108 -43.5 -207.5t-144.5 -209.5l-150 -164h-270zM414 238q61 0 100 37t39 98q0 63 -39 101t-100 38t-101.5 -38t-40.5 -101
q0 -60 40.5 -97.5t101.5 -37.5z" />
    <glyph glyph-name="TRY" unicode="&#x20a4;" horiz-adv-x="1216" 
d="M899 670h244q0 -200 -84 -353t-233 -235t-339 -82h-200v600l-232 -102v63l232 103v114l-232 -102v63l232 103v540h248v-430l368 164v-63l-368 -164v-115l368 164v-64l-368 -163v-445q166 0 265 108.5t99 295.5z" />
    <glyph glyph-name="uni20A9" unicode="&#x20a9;" horiz-adv-x="2025" 
d="M1985 795h-185l-37 -140h222v-61h-238l-158 -594h-272l-174 594h-262l-172 -594h-273l-160 594h-235v61h219l-37 140h-182v61h166l-139 526h282l113 -526h262l152 526h272l151 -526h261l114 526h283l-141 -526h168v-61zM1010 1034l-52 -178h109l-51 178h-6zM477 795
l31 -140h158l41 140h-230zM899 655h227l-41 140h-145zM1518 655l30 140h-229l39 -140h160zM578 348l71 246h-129l53 -246h5zM1452 348l53 246h-129l72 -246h4z" />
    <glyph glyph-name="Euro" unicode="&#x20ac;" horiz-adv-x="1366" 
d="M481 580q27 -173 133 -272t275 -99q165 0 334 94v-260q-144 -72 -332 -72q-155 0 -278 46.5t-204 130t-128.5 192.5t-61.5 240h-209l31 61h172v51q0 47 2 70h-195l31 61h170q16 127 64 232.5t129 186.5t203.5 126t275.5 45q226 0 412 -104l-109 -215q-156 82 -307 82
q-165 0 -269.5 -94t-134.5 -259h600l-30 -61h-578q-4 -46 -4 -70q0 -9 1 -26t1 -25h522l-30 -61h-486z" />
    <glyph glyph-name="uni20AE" unicode="&#x20ae;" horiz-adv-x="1120" 
d="M1069 1157h-391v-252l246 123v-63l-246 -123v-115l246 123v-64l-246 -122v-664h-246v541l-246 -123v63l246 123v115l-246 -123v63l246 123v375h-391v225h1028v-225z" />
    <glyph glyph-name="uni20B4" unicode="&#x20b4;" horiz-adv-x="1099" 
d="M846 809q-6 -5 -86 -70l-96 -69h387v-62h-471l-52 -39q-78 -58 -114.5 -107t-36.5 -100q0 -67 53.5 -110t165.5 -43q90 0 181.5 28t215.5 87v-254q-220 -101 -432 -101q-217 0 -332.5 98t-115.5 273q0 154 100 268h-164v62h225q10 8 95 73l90 66h-410v61h496l71 52
q97 69 97 147q0 49 -41.5 80t-126.5 31q-139 0 -361 -80v239q229 74 402 74q195 0 292 -85.5t97 -240.5q0 -123 -72 -217h148v-61h-205z" />
    <glyph glyph-name="uni20B8" unicode="&#x20b8;" horiz-adv-x="1110" 
d="M41 1382h1028v-225h-1028v225zM41 815v225h1028v-225h-391v-815h-246v815h-391z" />
    <glyph glyph-name="uni20B9" unicode="&#x20b9;" horiz-adv-x="1069" 
d="M616 1321q85 -48 137.5 -129t59.5 -184h174l-45 -62h-129q-10 -166 -131 -272.5t-297 -108.5l487 -565h-317l-473 565v230h264q91 0 143.5 41t61.5 110h-469v62h467q-9 66 -61.5 105.5t-141.5 39.5h-264v229h291h614l-45 -61h-326z" />
    <glyph glyph-name="uni20BD" unicode="&#x20bd;" horiz-adv-x="1257" 
d="M733 557h-213v-127h414v-61h-414v-369h-248v369h-198v61h198v127h-198v225h198v600h461q213 0 332 -115t119 -300q0 -186 -118.5 -298t-332.5 -112zM520 1157v-375h199q203 0 203 187q0 94 -54 141t-149 47h-199z" />
    <glyph glyph-name="uni2113" unicode="&#x2113;" horiz-adv-x="999" 
d="M436 561q8 -194 51.5 -279t139.5 -85q47 0 97.5 15.5t135.5 53.5v-229q-6 -2 -26.5 -10t-26 -10t-23.5 -8.5t-25 -8.5t-23 -7t-25.5 -6.5t-25 -4.5t-28 -4t-28 -2t-31.5 -1q-184 0 -274 117t-109 389q-25 -8 -72.5 -22.5t-60.5 -18.5v224q86 24 129 38q3 164 25 289
t57.5 204t87.5 129t110 69.5t130 19.5q138 0 217.5 -82t79.5 -221q0 -96 -35.5 -179.5t-103 -150.5t-151 -119.5t-192.5 -99.5zM618 1214q-158 0 -180 -421q264 134 264 313q0 54 -22.5 81t-61.5 27z" />
    <glyph glyph-name="uni2116" unicode="&#x2116;" horiz-adv-x="2394" 
d="M1339 1434v-1434h-243l-697 983h-2v-983h-262v1434h244l696 -985h2v985h262zM1878 1174q190 0 310 -117.5t120 -308.5q0 -190 -120 -307t-310 -117t-310 117t-120 307q0 191 120 308.5t310 117.5zM1878 965q-94 0 -154.5 -61t-60.5 -156t60.5 -156.5t154.5 -61.5
t154.5 61.5t60.5 156.5t-60.5 156t-154.5 61zM2271 205v-205h-786v205h786z" />
    <glyph glyph-name="trademark" unicode="&#x2122;" horiz-adv-x="1804" 
d="M707 1255h-232v-684h-182v684h-232v179h646v-179zM1548 1434l195 -863h-191l-112 516l-164 -393h-146l-165 393l-113 -516h-188l192 863h156l190 -492l191 492h155z" />
    <glyph glyph-name="estimated" unicode="&#x212e;" horiz-adv-x="1556" 
d="M59 623q0 176 96.5 325t262 235.5t360.5 86.5q196 0 362 -86.5t262.5 -235.5t96.5 -325v-19h-1175v-287q0 -68 27.5 -124.5t78.5 -88.5q139 -92 352 -92q151 0 285 57t223 158h60q-101 -118 -253 -185t-319 -67q-146 0 -279.5 51.5t-229.5 138t-153 206.5t-57 252z
M1145 1130q-133 103 -363 103q-216 0 -352 -94q-106 -71 -106 -174v-324h911v311q0 109 -90 178z" />
    <glyph glyph-name="uni2153" unicode="&#x2153;" horiz-adv-x="1439" 
d="M293 1382v-790h-139v651h-68v139h207zM121 0l809 1382h137l-809 -1382h-137zM1077 809q125 0 193.5 -56t68.5 -149q0 -144 -149 -180v-2q178 -28 178 -203q0 -107 -74 -172t-221 -65q-136 0 -212.5 64t-82.5 183h144q13 -114 151 -114q148 0 148 116q0 63 -51 90t-158 27
v125q182 0 182 107q0 98 -123 98q-60 0 -97 -28.5t-40 -86.5h-139q6 117 78 181.5t204 64.5z" />
    <glyph glyph-name="uni2154" unicode="&#x2154;" horiz-adv-x="1748" 
d="M358 1401q126 0 196.5 -64.5t70.5 -171.5q0 -71 -34.5 -129.5t-103.5 -122.5l-198 -186h340v-135h-549l-2 117l293 278q50 49 77 88.5t27 81.5q0 48 -31.5 78.5t-87.5 30.5q-127 0 -141 -127h-139q5 122 77 192t205 70zM430 0l809 1382h137l-809 -1382h-137zM1386 809
q125 0 194 -56t69 -149q0 -144 -150 -180v-2q178 -28 178 -203q0 -107 -74 -172t-221 -65q-136 0 -212.5 64t-82.5 183h144q13 -114 151 -114q148 0 148 116q0 63 -51 90t-158 27v125q182 0 182 107q0 98 -123 98q-60 0 -97 -28.5t-40 -86.5h-139q6 117 78 181.5t204 64.5z
" />
    <glyph glyph-name="oneeighth" unicode="&#x215b;" horiz-adv-x="1454" 
d="M293 1382v-790h-139v651h-68v139h207zM121 0l809 1382h137l-809 -1382h-137zM1075 -18q-140 0 -216.5 65t-76.5 170q0 160 152 201v4q-58 20 -92.5 65t-34.5 111q0 95 71 153t197 58q127 0 199 -58t72 -153q0 -67 -34 -112t-93 -64v-4q153 -42 153 -201
q0 -105 -77.5 -170t-219.5 -65zM1075 481q56 0 89.5 27t33.5 72q0 44 -33.5 70t-89.5 26q-53 0 -87 -26t-34 -70q0 -45 33.5 -72t87.5 -27zM1075 119q71 0 110.5 32.5t39.5 88.5q0 55 -39.5 87.5t-110.5 32.5q-68 0 -107.5 -32.5t-39.5 -87.5q0 -56 38 -88.5t109 -32.5z" />
    <glyph glyph-name="threeeighths" unicode="&#x215c;" horiz-adv-x="1728" 
d="M367 1401q125 0 193.5 -56t68.5 -149q0 -144 -150 -180v-2q178 -28 178 -203q0 -107 -74 -172.5t-221 -65.5q-136 0 -212 64.5t-82 183.5h143q13 -114 151 -114q148 0 148 116q0 63 -51 90t-158 27v125q182 0 182 106q0 99 -123 99q-60 0 -97 -28.5t-40 -86.5h-139
q6 117 78.5 181.5t204.5 64.5zM393 0l809 1382h137l-809 -1382h-137zM1350 -18q-140 0 -216.5 65t-76.5 170q0 160 151 201v4q-58 20 -92.5 65t-34.5 111q0 95 71.5 153t197.5 58q127 0 198.5 -58t71.5 -153q0 -67 -34 -112t-93 -64v-4q154 -42 154 -201q0 -105 -77.5 -170
t-219.5 -65zM1350 481q56 0 89.5 27t33.5 72q0 44 -33.5 70t-89.5 26q-53 0 -87 -26t-34 -70q0 -45 33.5 -72t87.5 -27zM1350 119q71 0 110 32.5t39 88.5q0 55 -39 87.5t-110 32.5q-68 0 -108 -33t-40 -87q0 -56 38.5 -88.5t109.5 -32.5z" />
    <glyph glyph-name="fiveeighths" unicode="&#x215d;" horiz-adv-x="1681" 
d="M391 1112q103 0 172.5 -68t69.5 -192q0 -132 -80.5 -205.5t-212.5 -73.5q-187 0 -287 132l97 102q74 -94 186 -94q71 0 112 37.5t41 101.5t-38 101.5t-99 37.5q-84 0 -135 -61h-121l49 452h430v-137h-323l-25 -192h4q59 59 160 59zM348 0l809 1382h137l-809 -1382h-137z
M1303 -18q-140 0 -216.5 65t-76.5 170q0 160 151 201v4q-58 20 -92.5 65t-34.5 111q0 95 71.5 153t197.5 58q127 0 198.5 -58t71.5 -153q0 -67 -34 -112t-93 -64v-4q153 -42 153 -201q0 -105 -77 -170t-219 -65zM1303 481q56 0 89 26.5t33 72.5q0 44 -33 70t-89 26
q-53 0 -87 -26t-34 -70q0 -45 33.5 -72t87.5 -27zM1303 119q71 0 110 32.5t39 88.5q0 55 -39 87.5t-110 32.5q-68 0 -108 -33t-40 -87q0 -56 38.5 -88.5t109.5 -32.5z" />
    <glyph glyph-name="seveneighths" unicode="&#x215e;" horiz-adv-x="1531" 
d="M569 1382v-133l-342 -657h-151l344 651h-383v139h532zM197 0l809 1382h137l-809 -1382h-137zM1151 -18q-140 0 -216.5 65t-76.5 170q0 160 152 201v4q-58 20 -92.5 65t-34.5 111q0 95 71 153t197 58q127 0 198.5 -58t71.5 -153q0 -67 -34 -112t-93 -64v-4
q154 -42 154 -201q0 -105 -77.5 -170t-219.5 -65zM1151 481q56 0 89.5 27t33.5 72q0 44 -33.5 70t-89.5 26q-53 0 -87 -26t-34 -70q0 -45 33.5 -72t87.5 -27zM1151 119q71 0 110 32.5t39 88.5q0 55 -39 87.5t-110 32.5q-68 0 -107.5 -32.5t-39.5 -87.5q0 -56 38 -88.5
t109 -32.5z" />
    <glyph glyph-name="arrowleft" unicode="&#x2190;" horiz-adv-x="1669" 
d="M1567 702v-217h-1061l385 -379l-166 -165l-623 653l623 653l166 -166l-385 -379h1061z" />
    <glyph glyph-name="arrowup" unicode="&#x2191;" horiz-adv-x="1513" 
d="M1411 680l-168 -164l-379 385v-1063h-215v1065l-381 -387l-166 164l654 623z" />
    <glyph glyph-name="arrowright" unicode="&#x2192;" horiz-adv-x="1669" 
d="M944 1249l623 -653l-623 -653l-164 166l385 378h-1063v218h1063l-385 378z" />
    <glyph glyph-name="arrowdown" unicode="&#x2193;" horiz-adv-x="1513" 
d="M1243 674l168 -164l-655 -623l-654 623l166 164l381 -387v1065h215v-1063z" />
    <glyph glyph-name="arrowboth" unicode="&#x2194;" horiz-adv-x="2568" 
d="M1843 1247l623 -653l-623 -653l-164 165l385 379h-1063h-495l385 -379l-166 -165l-623 653l623 653l166 -166l-385 -379h1061h497l-385 379z" />
    <glyph glyph-name="arrowupdn" unicode="&#x2195;" horiz-adv-x="1513" 
d="M1245 319l166 -163l-653 -623l-656 623l168 163l379 -385v289h-2v1061l-379 -385l-166 166l654 623l653 -623l-166 -166l-379 385v-1061v-291z" />
    <glyph glyph-name="uni2196" unicode="&#x2196;" horiz-adv-x="1337" 
d="M1235 137l-152 -151l-751 751l4 -542l-234 -2l21 903l903 22l-2 -235l-541 6z" />
    <glyph glyph-name="uni2197" unicode="&#x2197;" horiz-adv-x="1339" 
d="M1237 193l-236 2l7 540l-754 -751l-152 151l752 752l-541 -4l-2 233l903 -20z" />
    <glyph glyph-name="uni2198" unicode="&#x2198;" horiz-adv-x="1337" 
d="M1001 993l234 2l-21 -903l-903 -22l2 235l541 -6l-752 752l152 151l752 -751z" />
    <glyph glyph-name="uni2199" unicode="&#x2199;" horiz-adv-x="1339" 
d="M483 301l543 4l2 -233l-903 20l-23 903l236 -2l-6 -540l751 751l154 -151z" />
    <glyph glyph-name="partialdiff" unicode="&#x2202;" horiz-adv-x="1181" 
d="M485 1464q133 0 244 -43.5t197 -131t134 -231.5t48 -333q0 -157 -33.5 -291.5t-99 -239.5t-173.5 -165t-247 -60q-216 0 -348.5 133.5t-132.5 341.5q0 213 136 346.5t333 133.5q200 0 331 -131q-18 211 -124.5 323.5t-274.5 112.5q-130 0 -270 -68l-86 221q168 82 366 82
zM569 205q239 0 295 334q-118 151 -297 151q-116 0 -182 -68.5t-66 -175.5q0 -111 69.5 -176t180.5 -65z" />
    <glyph glyph-name="emptyset" unicode="&#x2205;" 
d="M979 985q123 -129 123 -321q0 -204 -139.5 -340t-348.5 -136q-188 0 -323 113l-115 -115l-39 41l113 113q-123 129 -123 324q0 204 139 339.5t348 135.5q186 0 322 -113l115 115l41 -41zM365 664q0 -94 51 -160l356 358q-67 51 -158 51q-110 0 -179.5 -70.5t-69.5 -178.5
zM614 414q110 0 180 70.5t70 179.5q0 91 -51 157l-356 -356q63 -51 157 -51z" />
    <glyph glyph-name="product" unicode="&#x220f;" horiz-adv-x="1472" 
d="M1432 1434v-224h-240v-1370h-229v1370h-453v-1370h-231v1370h-238v224h1391z" />
    <glyph glyph-name="summation" unicode="&#x2211;" horiz-adv-x="1132" 
d="M1059 1434v-236h-688l508 -594l-508 -594h688v-235h-985v235l510 594l-510 594v236h985z" />
    <glyph glyph-name="minus" unicode="&#x2212;" 
d="M1104 670v-119h-979v119h979z" />
    <glyph glyph-name="radical" unicode="&#x221a;" horiz-adv-x="1300" 
d="M1024 1464h236l-480 -1464h-227l-299 727h-213v219h365l249 -629z" />
    <glyph glyph-name="infinity" unicode="&#x221e;" horiz-adv-x="1556" 
d="M1186 922q148 0 239 -86.5t91 -227.5t-91 -227t-239 -86q-65 0 -123 18.5t-109.5 55t-89.5 73t-86 90.5q-49 -55 -86 -90.5t-88.5 -72.5t-109.5 -55.5t-123 -18.5q-148 0 -239 86t-91 227t91 227.5t239 86.5q65 0 123 -18.5t109.5 -56t88.5 -73t86 -90.5q48 54 86 90.5
t89.5 73.5t109.5 55.5t123 18.5zM371 821q-100 0 -163 -60t-63 -153t63 -153t163 -60q96 0 173.5 55t166.5 158q-89 103 -166.5 158t-173.5 55zM1186 821q-51 0 -97 -16t-90 -49.5t-76 -65.5t-77 -82q45 -50 77 -82t76 -65.5t90 -49.5t97 -16q100 0 162.5 60t62.5 153
t-62.5 153t-162.5 60z" />
    <glyph glyph-name="integral" unicode="&#x222b;" horiz-adv-x="833" 
d="M752 1464v-217q-113 0 -167.5 -52t-54.5 -169v-1069q0 -194 -113 -295.5t-335 -101.5v217q109 2 162 53t53 168v1069q0 195 113.5 296t341.5 101z" />
    <glyph glyph-name="approxequal" unicode="&#x2248;" 
d="M348 944q58 0 136.5 -27t142 -59t135 -59t117.5 -27q117 0 165 146h111q-35 -139 -108 -203t-166 -64q-59 0 -137.5 27t-142 59t-134.5 59t-117 27q-61 0 -101.5 -34.5t-64.5 -110.5h-110q34 139 108 202.5t166 63.5zM348 608q58 0 136.5 -27t142 -60t135 -60t117.5 -27
q116 0 165 148h111q-35 -139 -108 -203t-166 -64q-59 0 -137.5 27t-142 59t-134.5 59t-117 27q-60 0 -100.5 -35.5t-65.5 -111.5h-110q23 95 68 157t96 86.5t110 24.5z" />
    <glyph glyph-name="notequal" unicode="&#x2260;" 
d="M1133 762h-369l-178 -295h547v-115h-619l-115 -190h-114l114 190h-303v115h373l178 295h-551v115h623l110 184h117l-112 -184h299v-115z" />
    <glyph glyph-name="lessequal" unicode="&#x2264;" 
d="M1081 1001v-120l-774 -187l774 -182v-123l-938 244v125zM1092 317v-110h-955v110h955z" />
    <glyph glyph-name="greaterequal" unicode="&#x2265;" 
d="M147 1001l938 -243v-125l-938 -244v123l775 182l-775 187v120zM137 317h955v-110h-955v110z" />
    <glyph glyph-name="uni2460" unicode="&#x2460;" horiz-adv-x="1699" 
d="M850 -31q-217 0 -388 96.5t-265.5 267t-94.5 384.5q0 160 55.5 298.5t153 237t237 155t302.5 56.5q217 0 387.5 -96t265 -266.5t94.5 -384.5t-94.5 -384.5t-265 -267t-387.5 -96.5zM850 104q171 0 309 80t215.5 220t77.5 313t-77.5 313t-215.5 219.5t-309 79.5
t-309 -79.5t-215.5 -219.5t-77.5 -313t77.5 -313t215.5 -220t309 -80zM801 332v649h-68v141h207v-790h-139z" />
    <glyph glyph-name="uni2461" unicode="&#x2461;" horiz-adv-x="1699" 
d="M850 -31q-217 0 -388 96.5t-265.5 267t-94.5 384.5q0 160 55.5 298.5t153 237t237 155t302.5 56.5q217 0 387.5 -96t265 -266.5t94.5 -384.5t-94.5 -384.5t-265 -267t-387.5 -96.5zM850 104q171 0 309 80t215.5 220t77.5 313t-77.5 313t-215.5 219.5t-309 79.5
t-309 -79.5t-215.5 -219.5t-77.5 -313t77.5 -313t215.5 -220t309 -80zM594 360v117l291 279q52 49 80 88.5t28 81.5q0 48 -32.5 78t-88.5 30q-129 0 -141 -116h-141q5 114 77.5 182.5t204.5 68.5q128 0 198.5 -64t70.5 -171q0 -70 -35 -127.5t-105 -124.5l-202 -186h346
v-136h-551z" />
    <glyph glyph-name="uni2462" unicode="&#x2462;" horiz-adv-x="1699" 
d="M850 -31q-217 0 -388 96.5t-265.5 267t-94.5 384.5q0 160 55.5 298.5t153 237t237 155t302.5 56.5q217 0 387.5 -96t265 -266.5t94.5 -384.5t-94.5 -384.5t-265 -267t-387.5 -96.5zM850 104q171 0 309 80t215.5 220t77.5 313t-77.5 313t-215.5 219.5t-309 79.5
t-309 -79.5t-215.5 -219.5t-77.5 -313t77.5 -313t215.5 -220t309 -80zM856 311q-131 0 -210 64.5t-85 183.5h144q5 -55 43.5 -86t107.5 -31q148 0 148 119q0 60 -51.5 87.5t-157.5 27.5v127q176 0 176 106q0 46 -32 72.5t-89 26.5q-56 0 -90 -25.5t-37 -75.5h-139
q6 107 75 169.5t197 62.5q123 0 191.5 -57.5t68.5 -149.5q0 -67 -37.5 -115t-105.5 -65v-2q81 -13 129.5 -63t48.5 -138q0 -105 -74.5 -171.5t-220.5 -66.5z" />
    <glyph glyph-name="uni2463" unicode="&#x2463;" horiz-adv-x="1699" 
d="M850 1464q217 0 387.5 -96t265 -266.5t94.5 -384.5t-94.5 -384.5t-265 -267t-387.5 -96.5t-388 96.5t-265.5 267t-94.5 384.5q0 160 55.5 298.5t153 237t237 155t302.5 56.5zM850 104q171 0 309 80t215.5 220t77.5 313t-77.5 313t-215.5 219.5t-309 79.5t-309 -79.5
t-215.5 -219.5t-77.5 -313t77.5 -313t215.5 -220t309 -80zM1042 1124v-520h93v-129h-93v-141h-137v141h-413v121l391 528h159zM643 604h262v348h-4z" />
    <glyph glyph-name="uni2464" unicode="&#x2464;" horiz-adv-x="1699" 
d="M850 -31q-217 0 -388 96.5t-265.5 267t-94.5 384.5q0 160 55.5 298.5t153 237t237 155t302.5 56.5q217 0 387.5 -96t265 -266.5t94.5 -384.5t-94.5 -384.5t-265 -267t-387.5 -96.5zM850 104q171 0 309 80t215.5 220t77.5 313t-77.5 313t-215.5 219.5t-309 79.5
t-309 -79.5t-215.5 -219.5t-77.5 -313t77.5 -313t215.5 -220t309 -80zM854 311q-191 0 -289 133l99 101q71 -94 186 -94q70 0 110.5 38t40.5 101q0 64 -37.5 101.5t-97.5 37.5q-83 0 -137 -61h-121l49 452h433v-137h-326l-25 -192h6q55 59 156 59q99 0 171.5 -70t72.5 -192
q0 -129 -80 -203t-211 -74z" />
    <glyph glyph-name="uni2465" unicode="&#x2465;" horiz-adv-x="1699" 
d="M850 -31q-217 0 -388 96.5t-265.5 267t-94.5 384.5q0 160 55.5 298.5t153 237t237 155t302.5 56.5q217 0 387.5 -96t265 -266.5t94.5 -384.5t-94.5 -384.5t-265 -267t-387.5 -96.5zM850 104q171 0 309 80t215.5 220t77.5 313t-77.5 313t-215.5 219.5t-309 79.5
t-309 -79.5t-215.5 -219.5t-77.5 -313t77.5 -313t215.5 -220t309 -80zM848 311q-132 0 -217.5 78.5t-85.5 222.5q0 97 38 172.5t107 157.5l164 197h174l-295 -336l4 -2q62 59 150 59q106 0 181 -71.5t75 -192.5q0 -122 -79.5 -203.5t-215.5 -81.5zM844 449q66 0 108.5 38.5
t42.5 104.5t-42.5 104.5t-108.5 38.5t-110 -38.5t-44 -104.5t44 -104.5t110 -38.5z" />
    <glyph glyph-name="uni2466" unicode="&#x2466;" horiz-adv-x="1699" 
d="M850 -31q-217 0 -388 96.5t-265.5 267t-94.5 384.5q0 160 55.5 298.5t153 237t237 155t302.5 56.5q217 0 387.5 -96t265 -266.5t94.5 -384.5t-94.5 -384.5t-265 -267t-387.5 -96.5zM850 104q171 0 309 80t215.5 220t77.5 313t-77.5 313t-215.5 219.5t-309 79.5
t-309 -79.5t-215.5 -219.5t-77.5 -313t77.5 -313t215.5 -220t309 -80zM653 313l340 652h-379v139h533v-133l-342 -658h-152z" />
    <glyph glyph-name="uni2467" unicode="&#x2467;" horiz-adv-x="1699" 
d="M850 -31q-217 0 -388 96.5t-265.5 267t-94.5 384.5q0 160 55.5 298.5t153 237t237 155t302.5 56.5q217 0 387.5 -96t265 -266.5t94.5 -384.5t-94.5 -384.5t-265 -267t-387.5 -96.5zM850 104q171 0 309 80t215.5 220t77.5 313t-77.5 313t-215.5 219.5t-309 79.5
t-309 -79.5t-215.5 -219.5t-77.5 -313t77.5 -313t215.5 -220t309 -80zM852 315q-142 0 -218.5 65.5t-76.5 170.5q0 153 154 201v4q-59 21 -94 66.5t-35 109.5q0 95 71.5 153t198.5 58q126 0 197 -58t71 -153q0 -65 -33.5 -110t-93.5 -66v-4q154 -49 154 -201
q0 -105 -77 -170.5t-218 -65.5zM852 815q55 0 88 26.5t33 71.5q0 44 -33.5 70.5t-87.5 26.5q-55 0 -89 -26.5t-34 -70.5q0 -45 33.5 -71.5t89.5 -26.5zM852 453q71 0 109 32t38 88q0 55 -39 88t-108 33q-70 0 -110 -33t-40 -88q0 -56 38.5 -88t111.5 -32z" />
    <glyph glyph-name="uni2468" unicode="&#x2468;" horiz-adv-x="1699" 
d="M850 -31q-217 0 -388 96.5t-265.5 267t-94.5 384.5q0 160 55.5 298.5t153 237t237 155t302.5 56.5q217 0 387.5 -96t265 -266.5t94.5 -384.5t-94.5 -384.5t-265 -267t-387.5 -96.5zM850 104q171 0 309 80t215.5 220t77.5 313t-77.5 313t-215.5 219.5t-309 79.5
t-309 -79.5t-215.5 -219.5t-77.5 -313t77.5 -313t215.5 -220t309 -80zM680 315l291 312l-4 2q-76 -54 -150 -54q-106 0 -178 75.5t-72 189.5q0 125 81 204.5t218 79.5q130 0 213.5 -79t83.5 -220q0 -171 -139 -327l-162 -183h-182zM866 698q69 0 111.5 40t42.5 106
q0 67 -42 106t-112 39q-67 0 -111 -40.5t-44 -106.5q0 -64 43.5 -104t111.5 -40z" />
    <glyph glyph-name="uni24EA" unicode="&#x24ea;" horiz-adv-x="1699" 
d="M850 -31q-217 0 -388 96.5t-265.5 267t-94.5 384.5q0 160 55.5 298.5t153 237t237 155t302.5 56.5q217 0 387.5 -96t265 -266.5t94.5 -384.5t-94.5 -384.5t-265 -267t-387.5 -96.5zM850 104q171 0 309 80t215.5 220t77.5 313t-77.5 313t-215.5 219.5t-309 79.5
t-309 -79.5t-215.5 -219.5t-77.5 -313t77.5 -313t215.5 -220t309 -80zM852 307q-160 0 -251 110t-91 306q0 194 91 303t251 109q158 0 248 -109t90 -303q0 -196 -90.5 -306t-247.5 -110zM850 446q93 0 142.5 73t49.5 204q0 127 -50 200.5t-142 73.5q-91 0 -142 -74t-51 -200
q0 -129 51 -203t142 -74z" />
    <glyph glyph-name="uni24FF" unicode="&#x24ff;" horiz-adv-x="1699" 
d="M850 -31q-159 0 -298 57.5t-237.5 156.5t-155.5 238t-57 296q0 210 96.5 381t268 268.5t383.5 97.5t383 -97.5t267.5 -268.5t96.5 -381t-96.5 -381.5t-267.5 -269t-383 -97.5zM852 307q157 0 247.5 110t90.5 306q0 194 -90 303t-248 109q-160 0 -251 -109t-91 -303
q0 -196 91 -306t251 -110zM850 446q-91 0 -142 74t-51 203q0 126 51 200t142 74q92 0 142 -73.5t50 -200.5q0 -131 -49.5 -204t-142.5 -73z" />
    <glyph glyph-name="lozenge" unicode="&#x25ca;" horiz-adv-x="1230" 
d="M727 1464l463 -747l-463 -748h-223l-463 748l463 747h223zM616 1229l-309 -512l309 -512l310 512z" />
    <glyph glyph-name="uni2776" unicode="&#x2776;" horiz-adv-x="1699" 
d="M850 -31q-159 0 -298 57.5t-237.5 156.5t-155.5 238t-57 296q0 210 96.5 381t268 268.5t383.5 97.5t383 -97.5t267.5 -268.5t96.5 -381t-96.5 -381.5t-267.5 -269t-383 -97.5zM801 334h139v790h-207v-139h68v-651z" />
    <glyph glyph-name="uni2777" unicode="&#x2777;" horiz-adv-x="1699" 
d="M850 -31q-159 0 -298 57.5t-237.5 156.5t-155.5 238t-57 296q0 210 96.5 381t268 268.5t383.5 97.5t383 -97.5t267.5 -268.5t96.5 -381t-96.5 -381.5t-267.5 -269t-383 -97.5zM575 352h549v135h-344l203 187q70 67 104.5 124.5t34.5 127.5q0 107 -71 171t-199 64
q-132 0 -204 -69t-77 -183h140q15 117 141 117q56 0 88.5 -30t32.5 -78q0 -41 -27.5 -80.5t-79.5 -89.5l-293 -279z" />
    <glyph glyph-name="uni2778" unicode="&#x2778;" horiz-adv-x="1699" 
d="M850 -31q-159 0 -298 57.5t-237.5 156.5t-155.5 238t-57 296q0 210 96.5 381t268 268.5t383.5 97.5t383 -97.5t267.5 -268.5t96.5 -381t-96.5 -381.5t-267.5 -269t-383 -97.5zM848 319q146 0 219.5 67t73.5 171q0 88 -48 139t-128 64v2q67 17 105 65.5t38 114.5
q0 90 -69.5 147.5t-192.5 57.5q-128 0 -197.5 -62t-75.5 -170h140q6 101 129 101q57 0 88 -25.5t31 -72.5q0 -54 -46.5 -80.5t-128.5 -26.5v-125q105 0 156 -27.5t51 -89.5q0 -116 -147 -116q-69 0 -108 30t-42 84h-145q6 -118 86 -183t211 -65z" />
    <glyph glyph-name="uni2779" unicode="&#x2779;" horiz-adv-x="1699" 
d="M850 -31q-159 0 -298 57.5t-237.5 156.5t-155.5 238t-57 296q0 210 96.5 381t268 268.5t383.5 97.5t383 -97.5t267.5 -268.5t96.5 -381t-96.5 -381.5t-267.5 -269t-383 -97.5zM893 348h137v141h90v129h-90v521h-160l-391 -529v-121h414v-141zM631 618l258 349h4v-349
h-262z" />
    <glyph glyph-name="uni277A" unicode="&#x277a;" horiz-adv-x="1699" 
d="M850 -31q-159 0 -298 57.5t-237.5 156.5t-155.5 238t-57 296q0 210 96.5 381t268 268.5t383.5 97.5t383 -97.5t267.5 -268.5t96.5 -381t-96.5 -381.5t-267.5 -269t-383 -97.5zM840 311q130 0 210 74.5t80 202.5q0 123 -72.5 192.5t-172.5 69.5q-97 0 -156 -59h-4l25 192
h323v137h-430l-49 -452h121q51 61 135 61q60 0 98.5 -38t38.5 -101q0 -64 -41 -101.5t-112 -37.5q-113 0 -187 94l-96 -101q98 -133 289 -133z" />
    <glyph glyph-name="uni277B" unicode="&#x277b;" horiz-adv-x="1699" 
d="M850 -31q-159 0 -298 57.5t-237.5 156.5t-155.5 238t-57 296q0 210 96.5 381t268 268.5t383.5 97.5t383 -97.5t267.5 -268.5t96.5 -381t-96.5 -381.5t-267.5 -269t-383 -97.5zM848 322q137 0 215 80.5t78 203.5q0 121 -74 192.5t-180 71.5q-85 0 -150 -59l-4 2l295 336
h-174l-164 -197q-69 -82 -107 -157t-38 -172q0 -144 85.5 -222.5t217.5 -78.5zM844 459q-67 0 -110.5 38t-43.5 105q0 66 44 104.5t110 38.5t108.5 -38.5t42.5 -104.5q0 -67 -42 -105t-109 -38z" />
    <glyph glyph-name="uni277C" unicode="&#x277c;" horiz-adv-x="1699" 
d="M850 -31q-159 0 -298 57.5t-237.5 156.5t-155.5 238t-57 296q0 210 96.5 381t268 268.5t383.5 97.5t383 -97.5t267.5 -268.5t96.5 -381t-96.5 -381.5t-267.5 -269t-383 -97.5zM647 313h152l342 658v133h-533v-139h379z" />
    <glyph glyph-name="uni277D" unicode="&#x277d;" horiz-adv-x="1699" 
d="M850 -31q-159 0 -298 57.5t-237.5 156.5t-155.5 238t-57 296q0 210 96.5 381t268 268.5t383.5 97.5t383 -97.5t267.5 -268.5t96.5 -381t-96.5 -381.5t-267.5 -269t-383 -97.5zM852 315q141 0 218 65.5t77 170.5q0 152 -154 201v4q60 21 93.5 66t33.5 110q0 95 -71 153
t-197 58q-127 0 -198.5 -58t-71.5 -153q0 -64 35 -109.5t94 -66.5v-4q-154 -48 -154 -201q0 -105 76.5 -170.5t218.5 -65.5zM852 815q-56 0 -89.5 26.5t-33.5 71.5q0 44 34 70.5t89 26.5q54 0 87.5 -26.5t33.5 -70.5q0 -45 -33 -71.5t-88 -26.5zM852 453q-73 0 -111.5 32
t-38.5 88q0 55 40 88t110 33q69 0 108 -33t39 -88q0 -56 -38 -88t-109 -32z" />
    <glyph glyph-name="uni277E" unicode="&#x277e;" horiz-adv-x="1699" 
d="M850 -31q-159 0 -298 57.5t-237.5 156.5t-155.5 238t-57 296q0 210 96.5 381t268 268.5t383.5 97.5t383 -97.5t267.5 -268.5t96.5 -381t-96.5 -381.5t-267.5 -269t-383 -97.5zM668 315h182l162 183q139 152 139 327q0 141 -82.5 219t-212.5 78q-138 0 -219.5 -79
t-81.5 -205q0 -114 72 -188.5t180 -74.5q77 0 149 54l5 -2zM854 698q-68 0 -111 39.5t-43 104.5q0 67 44 107t112 40q69 0 111.5 -39t42.5 -106q0 -66 -43.5 -106t-112.5 -40z" />
    <glyph glyph-name="uniF8FF" unicode="&#xf8ff;" horiz-adv-x="1771" 
d="M102 1384q0 32 22 53t54 21q31 0 53.5 -21t22.5 -53q0 -48 -37 -69v-49q65 27 108 42t112 29.5t134 14.5q92 0 156 -43.5t64 -126.5v-52q118 25 213 25q53 0 98.5 -8t88 -26t67 -53t24.5 -83v-98q98 24 166 24q113 0 167 -44t54 -117v-492q-109 66 -219 66
q-52 0 -131 -20.5t-115 -20.5q-104 0 -104 94v176q-48 10 -96 10q-50 0 -149.5 -18.5t-137.5 -18.5q-111 0 -111 95v139h-28q-130 0 -361 -90v-670h-80v1317q-35 21 -35 67zM731 1182q0 57 -46 84.5t-112 27.5q-62 0 -135.5 -17.5t-110.5 -31t-110 -43.5v-471q225 86 358 86
q91 0 156 -29v394zM639 1188l-133 -195v-139h-62v139l-133 195h78l86 -131l86 131h78zM1225 971q0 17 -2 29t-13.5 32t-32.5 33t-64.5 23t-104.5 10q-86 0 -217 -25v-350q0 -23 -20.5 -38.5t-45.5 -21.5t-45.5 -18.5t-20.5 -32.5q0 -28 56 -28q35 0 134 17t155 17
q130 0 221 -51v404zM819 848q0 72 46 119t118 47t118 -47t46 -119t-46 -119t-118 -47t-118 47t-46 119zM1085 848q0 46 -29 76t-73 30t-73 -30t-29 -76t29 -76.5t73 -30.5t73 30.5t29 76.5zM1614 748q0 58 -43 81t-121 23q-65 0 -168 -25v-342q0 -25 -20 -41.5t-43.5 -23
t-43.5 -19t-20 -30.5q0 -33 51 -33q30 0 111 21.5t131 21.5q78 0 166 -31v398zM1452 764l-20 -205h-33l-21 205h74zM729 721q0 22 -65 33v-66q9 5 27 10.5t28 10.5t10 12zM1225 492q0 27 -70 49v-97q13 8 32.5 16t28.5 14.5t9 17.5zM1374 473q0 17 11 28t30 11t30 -11
t11 -28q0 -19 -11 -30t-30 -11t-30 11t-11 30z" />
    <glyph glyph-name="CR" horiz-adv-x="690" 
 />
    <glyph glyph-name="Adieresis.ss01" horiz-adv-x="1425" 
d="M487 1507q-61 0 -102 42t-41 104t41 103.5t102 41.5q62 0 104 -42t42 -103t-42.5 -103.5t-103.5 -42.5zM936 1507q-61 0 -102 42t-41 104t41 103.5t102 41.5q62 0 103.5 -42t41.5 -103q0 -62 -42 -104t-103 -42zM1128 0l-120 326h-590l-121 -326h-291l576 1434h262
l575 -1434h-291zM504 563h418l-209 561z" />
    <glyph glyph-name="Adieresis.ss01.ss02" horiz-adv-x="1425" 
d="M358 1341q-63 0 -104 42t-41 104t41 103.5t104 41.5q61 0 102.5 -41.5t41.5 -103.5t-41.5 -104t-102.5 -42zM1067 1341q-61 0 -103 42t-42 104q0 61 42 103t103 42t102 -41.5t41 -103.5t-41 -104t-102 -42zM1128 0l-120 326h-590l-121 -326h-291l576 1434h262l575 -1434
h-291zM504 563h418l-209 561z" />
    <glyph glyph-name="Adieresis.ss02" horiz-adv-x="1425" 
d="M477 1636v-223h-235v223h235zM1184 1636v-223h-234v223h234zM1128 0l-120 326h-590l-121 -326h-291l576 1434h262l575 -1434h-291zM504 563h418l-209 561z" />
    <glyph glyph-name="Cdotaccent.ss01" horiz-adv-x="1382" 
d="M825 1806q62 0 104 -42t42 -103t-42 -103t-104 -42q-61 0 -102 41.5t-41 103.5t41 103.5t102 41.5zM834 -31q-168 0 -311.5 53.5t-246 150t-160 237t-57.5 307.5q0 223 99 393.5t275 262t401 91.5q287 0 512 -157l-152 -230q-172 119 -363 119q-212 0 -348.5 -131
t-136.5 -348t136.5 -348t348.5 -131q193 0 363 118l152 -229q-226 -158 -512 -158z" />
    <glyph glyph-name="Edieresis.ss01" horiz-adv-x="1075" 
d="M371 1507q-61 0 -102.5 42t-41.5 104t41.5 103.5t102.5 41.5t103 -42t42 -103q0 -62 -42 -104t-103 -42zM819 1507q-61 0 -102 42t-41 104t41 103.5t102 41.5q62 0 104 -42t42 -103t-42.5 -103.5t-103.5 -42.5zM397 242h598v-242h-860v1434h850v-242h-588v-291h537v-242
h-537v-417z" />
    <glyph glyph-name="Edotaccent.ss01" horiz-adv-x="1075" 
d="M594 1516q-61 0 -102 41.5t-41 103.5t41 103.5t102 41.5q62 0 103.5 -42t41.5 -103t-41.5 -103t-103.5 -42zM397 242h598v-242h-860v1434h850v-242h-588v-291h537v-242h-537v-417z" />
    <glyph glyph-name="Euro.tf" 
d="M428 580q25 -179 124.5 -279t260.5 -100t315 98v-256q-131 -72 -311 -72q-145 0 -262 48t-194 133t-123 193t-60 235h-162l31 61h127q-2 16 -2 51q0 47 2 70h-147l30 61h123q16 124 62.5 228.5t123 186.5t193.5 128.5t262 46.5q218 0 389 -108l-98 -207q-156 86 -295 86
q-159 0 -258.5 -95.5t-126.5 -265.5h559l-30 -61h-537q-2 -23 -2 -70v-51h491l-30 -61h-455z" />
    <glyph glyph-name="Gcommaaccent.ss01" horiz-adv-x="1570" 
d="M1528 811q2 -29 2 -82q0 -124 -27.5 -236t-85 -208t-140.5 -166t-201 -110t-259 -40q-219 0 -390.5 90.5t-269.5 261.5t-98 396q0 220 94 389t269.5 263.5t406.5 94.5q322 0 557 -190l-174 -223q-173 145 -393 145q-215 0 -344 -135.5t-129 -343.5q0 -212 131.5 -345.5
t351.5 -133.5q99 0 179 29.5t129.5 78t77.5 105.5t34 118h-411v242h690zM827 -76q57 0 94 -36t37 -93q0 -63 -49 -112l-110 -113h-84l61 108q-35 13 -55.5 46.5t-20.5 72.5q0 55 36 91t91 36z" />
    <glyph glyph-name="Gdotaccent.ss01" horiz-adv-x="1570" 
d="M801 1516q-61 0 -102.5 41.5t-41.5 103.5t41.5 103.5t102.5 41.5t103 -42t42 -103t-42 -103t-103 -42zM1528 811q2 -29 2 -82q0 -124 -27.5 -236t-85 -208t-140.5 -166t-201 -110t-259 -40q-219 0 -390.5 90.5t-269.5 261.5t-98 396q0 220 94 389t269.5 263.5t406.5 94.5
q322 0 557 -190l-174 -223q-173 145 -393 145q-215 0 -344 -135.5t-129 -343.5q0 -212 131.5 -345.5t351.5 -133.5q99 0 179 29.5t129.5 78t77.5 105.5t34 118h-411v242h690z" />
    <glyph glyph-name="Ghedescendercy" horiz-adv-x="448" 
d="M346 182v-469h-244v469h244z" />
    <glyph glyph-name="Idieresis.ss01" horiz-adv-x="534" 
d="M41 1798q61 0 103 -42t42 -103q0 -62 -42 -104t-103 -42t-102 42t-41 104t41 103.5t102 41.5zM489 1798q62 0 104 -42t42 -103t-42.5 -103.5t-103.5 -42.5t-102 42t-41 104t41 103.5t102 41.5zM399 1434v-1434h-264v1434h264z" />
    <glyph glyph-name="Idieresis.ss01.ss02" horiz-adv-x="534" 
d="M-37 1632q61 0 102 -41.5t41 -103.5t-41 -104t-102 -42q-63 0 -104 42t-41 104t41 103.5t104 41.5zM571 1632q62 0 104 -42t42 -103t-42.5 -103.5t-103.5 -42.5t-102 42t-41 104t41 103.5t102 41.5zM399 1434v-1434h-264v1434h264z" />
    <glyph glyph-name="Idieresis.ss02" horiz-adv-x="534" 
d="M74 1636v-223h-236v223h236zM694 1636v-223h-235v223h235zM399 1434v-1434h-264v1434h264z" />
    <glyph glyph-name="Idotaccent.ss01" horiz-adv-x="534" 
d="M266 1806q62 0 104 -42t42 -103t-42 -103t-104 -42q-61 0 -102 41.5t-41 103.5t41 103.5t102 41.5zM399 1434v-1434h-264v1434h264z" />
    <glyph glyph-name="Indianrupeesign.tf" 
d="M694 1321q85 -48 137.5 -129t59.5 -184h176l-45 -62h-129q-10 -167 -131 -273t-299 -108l487 -565h-315l-475 565v230h266q90 0 142.5 41.5t60.5 109.5h-469v62h469q-11 65 -63.5 105t-139.5 40h-266v229h291h616l-45 -61h-328z" />
    <glyph glyph-name="Kcommaaccent.ss01" horiz-adv-x="1402" 
d="M690 770l709 -770h-381l-621 702v-702h-262v1434h262v-637l541 637h360zM686 -76q57 0 94 -36t37 -93q0 -63 -49 -112l-111 -113h-84l62 108q-35 13 -55.5 46.5t-20.5 72.5q0 55 35.5 91t91.5 36z" />
    <glyph glyph-name="Lcaron.ss01" horiz-adv-x="1001" 
d="M821 1475q67 0 109.5 -43.5t42.5 -108.5q0 -51 -33 -106l-170 -312h-96l94 283q-44 12 -71 51.5t-27 87.5q0 63 42.5 105.5t108.5 42.5zM397 1434v-1186h598v-248h-860v1434h262z" />
    <glyph glyph-name="Lcommaaccent.ss01" horiz-adv-x="1001" 
d="M397 1434v-1186h598v-248h-860v1434h262zM707 -205q0 -62 -50 -112l-110 -113h-84l61 108q-34 13 -54.5 46.5t-20.5 72.5q0 56 35.5 91.5t90.5 35.5q57 0 94.5 -36t37.5 -93z" />
    <glyph glyph-name="Ldot.ss01" horiz-adv-x="1001" 
d="M397 1434v-1186h598v-248h-860v1434h262zM756 977q72 0 121 -49t49 -121t-49 -120t-121 -48q-71 0 -119.5 48t-48.5 120t48.5 121t119.5 49z" />
    <glyph glyph-name="Ncommaaccent.ss01" horiz-adv-x="1474" 
d="M1339 1434v-1434h-243l-697 983h-2v-983h-262v1434h244l696 -985h2v985h262zM870 -205q0 -63 -49 -112l-110 -113h-84l61 108q-35 13 -55.5 46.5t-20.5 72.5q0 55 36 91t91 36q57 0 94 -36t37 -93z" />
    <glyph glyph-name="Odieresis.ss01" horiz-adv-x="1619" 
d="M586 1798q62 0 103.5 -42t41.5 -103q0 -62 -42 -104t-103 -42t-102.5 42t-41.5 104t41.5 103.5t102.5 41.5zM1034 1798q62 0 104 -42t42 -103t-42 -103.5t-104 -42.5q-61 0 -102 42t-41 104t41 103.5t102 41.5zM809 1464q158 0 297 -55t239 -151.5t158 -237t58 -303.5
q0 -218 -99 -389.5t-270 -265t-383 -93.5t-382.5 93.5t-269 265t-98.5 389.5q0 164 57.5 304t157.5 236.5t238.5 151.5t296.5 55zM809 1196q-202 0 -332.5 -133.5t-130.5 -345.5t130.5 -345.5t332.5 -133.5q203 0 333 133t130 346t-130 346t-333 133z" />
    <glyph glyph-name="Odieresis.ss01.ss02" horiz-adv-x="1619" 
d="M229 1632q61 0 102.5 -41.5t41.5 -103.5t-41.5 -104t-102.5 -42q-63 0 -104 42t-41 104t41 103.5t104 41.5zM1393 1632q61 0 102 -41.5t41 -103.5t-41 -104t-102 -42t-103.5 42.5t-42.5 103.5t42 103t104 42zM809 1464q158 0 297 -55t239 -151.5t158 -237t58 -303.5
q0 -218 -99 -389.5t-270 -265t-383 -93.5t-382.5 93.5t-269 265t-98.5 389.5q0 164 57.5 304t157.5 236.5t238.5 151.5t296.5 55zM809 1196q-202 0 -332.5 -133.5t-130.5 -345.5t130.5 -345.5t332.5 -133.5q203 0 333 133t130 346t-130 346t-333 133z" />
    <glyph glyph-name="Odieresis.ss02" horiz-adv-x="1619" 
d="M381 1636v-223h-236v223h236zM1475 1636v-223h-234v223h234zM809 1464q158 0 297 -55t239 -151.5t158 -237t58 -303.5q0 -218 -99 -389.5t-270 -265t-383 -93.5t-382.5 93.5t-269 265t-98.5 389.5q0 164 57.5 304t157.5 236.5t238.5 151.5t296.5 55zM809 1196
q-202 0 -332.5 -133.5t-130.5 -345.5t130.5 -345.5t332.5 -133.5q203 0 333 133t130 346t-130 346t-333 133z" />
    <glyph glyph-name="RUB.tf" 
d="M719 557h-213v-127h414v-61h-414v-369h-248v369h-199v61h199v127h-199v225h199v600h461q213 0 331.5 -115t118.5 -300q0 -186 -118 -298t-332 -112zM506 1157v-375h199q202 0 202 187q0 94 -53.5 141t-148.5 47h-199z" />
    <glyph glyph-name="Rcommaaccent.ss01" horiz-adv-x="1224" 
d="M791 584l423 -584h-329l-389 571h-99v-571h-262v1434h529q212 0 337 -120t125 -315q0 -161 -89 -272t-246 -143zM397 1192v-389h226q112 0 167.5 49.5t55.5 142.5q0 91 -56 144t-167 53h-226zM637 -76q57 0 94 -36t37 -93q0 -63 -49 -112l-111 -113h-84l62 108
q-35 13 -55.5 46.5t-20.5 72.5q0 55 36 91t91 36z" />
    <glyph glyph-name="Scommaaccent.ss01" horiz-adv-x="1067" 
d="M551 1464q202 0 420 -100l-113 -240q-174 88 -305 88q-150 0 -150 -104q0 -40 25 -72t86 -75l248 -175q126 -86 186 -179.5t60 -223.5q0 -200 -130.5 -307t-359.5 -107q-270 0 -495 140l116 239q211 -125 387 -125q99 0 151 39.5t52 106.5q0 52 -34 92.5t-111 95.5
l-232 166q-227 155 -227 377q0 169 111.5 266.5t314.5 97.5zM676 -205q0 -63 -49 -112l-111 -113h-84l62 108q-35 13 -55.5 46.5t-20.5 72.5q0 55 36 91t91 36q57 0 94 -36t37 -93z" />
    <glyph glyph-name="THB.tf" 
d="M854 688q105 -30 165 -109.5t60 -195.5q0 -187 -120.5 -285t-321.5 -98h-29v-178h-57v178h-401v1382h401v179h57v-179h37q195 0 314.5 -97.5t119.5 -274.5q0 -119 -60 -202t-165 -114v-6zM551 1157h-156v-360h156v360zM633 1157h-25v-360h2q101 0 156 48.5t55 139.5
q0 77 -52.5 124.5t-135.5 47.5zM395 225h156v361h-156v-361zM633 225q83 0 136.5 48.5t53.5 127.5q0 90 -55 137.5t-158 47.5h-2v-361h25z" />
    <glyph glyph-name="TRY.tf" 
d="M913 670h244q0 -150 -48.5 -275.5t-135 -212t-208 -134.5t-263.5 -48h-199v602l-233 -104v63l233 105v114l-233 -104v63l233 105v538h246v-430l371 164v-63l-371 -164v-115l371 164v-64l-371 -163v-445q166 0 265 108.5t99 295.5z" />
    <glyph glyph-name="Udieresis.ss01" horiz-adv-x="1419" 
d="M485 1798q62 0 104 -42t42 -103t-42.5 -103.5t-103.5 -42.5t-102 42t-41 104t41 103.5t102 41.5zM934 1798q62 0 103.5 -42t41.5 -103q0 -62 -42 -104t-103 -42t-102 42t-41 104t41 103.5t102 41.5zM1300 1434v-869q0 -274 -155.5 -434t-433.5 -160q-280 0 -436 160
t-156 434v869h276v-852q0 -155 85.5 -247.5t230.5 -92.5q143 0 228 92.5t85 247.5v852h276z" />
    <glyph glyph-name="Udieresis.ss01.ss02" horiz-adv-x="1419" 
d="M711 1599q61 0 102 -41.5t41 -103.5t-41 -103.5t-102 -41.5q-63 0 -104.5 41.5t-41.5 103.5t41.5 103.5t104.5 41.5zM1300 1434v-869q0 -274 -155.5 -434t-433.5 -160q-280 0 -436 160t-156 434v869h276v-852q0 -155 85.5 -247.5t230.5 -92.5q143 0 228 92.5t85 247.5
v852h276zM711 1233q61 0 102 -42t41 -104t-41 -103.5t-102 -41.5q-63 0 -104.5 41.5t-41.5 103.5t41.5 104t104.5 42z" />
    <glyph glyph-name="Udieresis.ss02" horiz-adv-x="1419" 
d="M670 1636v-223h-205v223h205zM954 1636v-223h-202v223h202zM1300 1434v-869q0 -274 -155.5 -434t-433.5 -160q-280 0 -436 160t-156 434v869h276v-852q0 -155 85.5 -247.5t230.5 -92.5q143 0 228 92.5t85 247.5v852h276z" />
    <glyph glyph-name="Wdieresis.ss01" horiz-adv-x="2095" 
d="M823 1798q62 0 104 -42t42 -103t-42.5 -103.5t-103.5 -42.5t-102 42t-41 104t41 103.5t102 41.5zM1272 1798q62 0 103.5 -42t41.5 -103q0 -62 -42 -104t-103 -42t-102.5 42t-41.5 104t41.5 103.5t102.5 41.5zM2073 1434l-455 -1434h-242l-325 1006h-7l-325 -1006h-242
l-454 1434h301l276 -1014h4l322 1014h243l324 -1014h4l277 1014h299z" />
    <glyph glyph-name="Wdieresis.ss01.ss02" horiz-adv-x="2095" 
d="M723 1632q61 0 102 -41.5t41 -103.5t-41 -104t-102 -42q-63 0 -104 42t-41 104t41 103.5t104 41.5zM1374 1632q63 0 104.5 -41.5t41.5 -103.5t-41.5 -104t-104.5 -42q-61 0 -102 42t-41 104t41 103.5t102 41.5zM2073 1434l-455 -1434h-242l-325 1006h-7l-325 -1006h-242
l-454 1434h301l276 -1014h4l322 1014h243l324 -1014h4l277 1014h299z" />
    <glyph glyph-name="Wdieresis.ss02" horiz-adv-x="2095" 
d="M823 1636v-223h-235v223h235zM1507 1636v-223h-233v223h233zM2073 1434l-455 -1434h-242l-325 1006h-7l-325 -1006h-242l-454 1434h301l276 -1014h4l322 1014h243l324 -1014h4l277 1014h299z" />
    <glyph glyph-name="XBT" horiz-adv-x="1075" 
d="M778 688q105 -30 165.5 -110.5t60.5 -198.5q0 -182 -116.5 -279t-303.5 -100v-178h-58v178h-100v-178h-57v178h-295v1382h295v179h57v-179h100v179h58v-179q185 -2 302.5 -99t117.5 -271q0 -119 -61 -203t-165 -115v-6zM537 1157h-218v-360h213q103 0 158 48.5t55 139.5
q0 79 -55.5 125.5t-152.5 46.5zM537 225q97 0 152.5 48t55.5 128q0 90 -55 137.5t-158 47.5h-213v-361h218z" />
    <glyph glyph-name="XBT.tf" 
d="M854 688q106 -30 165.5 -110t59.5 -199q0 -122 -56 -208.5t-148 -127.5t-213 -43v-178h-58v178h-100v-178h-58v178h-296v1382h296v179h58v-179h100v179h58v-179q185 -2 301 -99.5t116 -270.5q0 -119 -60 -203t-165 -115v-6zM612 1157h-217v-360h215q101 0 156 48.5
t55 139.5q0 79 -56 125.5t-153 46.5zM612 225q98 0 154.5 48t56.5 128q0 90 -55 137.5t-158 47.5h-215v-361h217z" />
    <glyph glyph-name="Ydieresis.ss01" horiz-adv-x="1222" 
d="M387 1507q-61 0 -102 42t-41 104t41 103.5t102 41.5t103 -42t42 -103q0 -62 -42 -104t-103 -42zM836 1507q-61 0 -102.5 42t-41.5 104t41.5 103.5t102.5 41.5q62 0 103.5 -42t41.5 -103q0 -62 -42 -104t-103 -42zM1223 1434l-480 -885v-549h-264v547l-479 887h309
l299 -617h6l299 617h310z" />
    <glyph glyph-name="Ydieresis.ss01.ss02" horiz-adv-x="1222" 
d="M446 1384q-63 0 -104 41t-41 103t41 103.5t104 41.5q61 0 102.5 -41.5t41.5 -103.5t-41 -103t-103 -41zM778 1384q-62 0 -103.5 41.5t-41.5 102.5q0 62 41.5 103.5t103.5 41.5q61 0 102.5 -41.5t41.5 -103.5t-41 -103t-103 -41zM1223 1434l-480 -885v-549h-264v547
l-479 887h309l299 -617h6l299 617h310z" />
    <glyph glyph-name="Ydieresis.ss02" horiz-adv-x="1222" 
d="M578 1636v-223h-201v223h201zM846 1636v-223h-201v223h201zM1223 1434l-480 -885v-549h-264v547l-479 887h309l299 -617h6l299 617h310z" />
    <glyph glyph-name="Zdotaccent.ss01" horiz-adv-x="1134" 
d="M571 1516q-61 0 -102 41.5t-41 103.5t41 103.5t102 41.5q62 0 104 -42t42 -103t-42 -103t-104 -42zM362 246h732v-246h-1053v246l709 942h-650v246h969v-246z" />
    <glyph glyph-name="a.subs" horiz-adv-x="856" 
d="M358 -246q-128 0 -216.5 89.5t-88.5 244.5t88.5 244.5t216.5 89.5q147 0 215 -119h5v98h196v-626h-196v98h-5q-68 -119 -215 -119zM418 -66q68 0 111.5 41.5t43.5 112.5t-43.5 112.5t-111.5 41.5q-69 0 -113.5 -41.5t-44.5 -112.5t44.5 -112.5t113.5 -41.5z" />
    <glyph glyph-name="a.sups" horiz-adv-x="856" 
d="M358 692q-128 0 -216.5 89.5t-88.5 244.5t88.5 244.5t216.5 89.5q147 0 215 -119h5v98h196v-626h-196v98h-5q-68 -119 -215 -119zM418 872q68 0 111.5 41.5t43.5 112.5t-43.5 112.5t-111.5 41.5q-69 0 -113.5 -41.5t-44.5 -112.5t44.5 -112.5t113.5 -41.5z" />
    </font>
</defs>
</svg>
