<?xml version="1.0" standalone="no"?>
<!DOCTYPE svg PUBLIC "-//W3C//DTD SVG 1.1//EN" "http://www.w3.org/Graphics/SVG/1.1/DTD/svg11.dtd" >
<svg xmlns="http://www.w3.org/2000/svg" xmlns:xlink="http://www.w3.org/1999/xlink" version="1.1">
<metadata>
Created by FontForge 20170731 at Sat Jul 23 01:24:56 2022
 By Aleksey,,,
Copyright (c) 2015 by Reto Moser. All rights reserved.
</metadata>
<defs>
<font id="GTEestiProDisplay-LightItalic" horiz-adv-x="1228" >
  <font-face 
    font-family="GT Eesti Pro Display Light"
    font-weight="300"
    font-style="italic"
    font-stretch="normal"
    units-per-em="2048"
    panose-1="0 0 4 0 0 0 0 0 0 0"
    ascent="1536"
    descent="-512"
    x-height="946"
    cap-height="1434"
    bbox="-653 -528 2533 1825"
    underline-thickness="102"
    underline-position="-307"
    slope="-11"
    unicode-range="U+000D-FB02"
  />
<missing-glyph horiz-adv-x="1609" 
d="M852 -31q-213 0 -384 96.5t-267.5 267.5t-96.5 384q0 214 96.5 385t267.5 266.5t384 95.5q160 0 299 -56t237.5 -154.5t154.5 -237.5t56 -299q0 -213 -95.5 -384t-266.5 -267.5t-385 -96.5zM852 20q199 0 359 91t250.5 253t90.5 363l-104 133l-143 -61l-140 184l-161 -90
l-152 242l-152 -242l-161 90l-140 -184l-143 61l-104 -133q0 -201 90.5 -363t250.5 -253t359 -91zM641 651q-31 0 -51.5 20.5t-20.5 51.5t20.5 51.5t51.5 20.5t51.5 -20.5t20.5 -51.5t-20.5 -51.5t-51.5 -20.5zM1061 651q-31 0 -51.5 20.5t-20.5 51.5t20.5 51.5t51.5 20.5
t51.5 -20.5t20.5 -51.5t-20.5 -51.5t-51.5 -20.5zM766 522l74 207q3 17 22 10q6 -2 9.5 -8.5t0.5 -13.5l-57 -160h70q7 0 12.5 -5.5t5.5 -12.5q0 -6 -5.5 -11.5t-12.5 -5.5h-119zM449 350q-61 0 -101.5 40t-40.5 102q0 61 40 101t102 40q61 0 101 -39.5t40 -101.5t-40 -102
t-101 -40zM1253 350q-61 0 -101 40t-40 102t40 101.5t101 39.5q62 0 102 -40t40 -101q0 -62 -40.5 -102t-101.5 -40zM852 395q-96 0 -127 -61q-6 -12 -18 -12q-17 0 -17 18q0 35 50 63.5t112 28.5t112 -28.5t50 -63.5q0 -18 -17 -18q-12 0 -18 12q-31 61 -127 61z" />
    <glyph glyph-name="fi" unicode="fi" horiz-adv-x="1060" 
d="M504 1106l-31 -160h207l-23 -125h-208l-162 -821h-148l160 821h-176l24 125h177l30 158q66 350 387 350h37l-28 -141h-19q-186 0 -227 -207zM936 1413h188l-49 -246h-186zM686 0l184 946h150l-184 -946h-150z" />
    <glyph glyph-name="fl" unicode="fl" horiz-adv-x="1077" 
d="M504 1106l-31 -160h207l-23 -125h-208l-162 -821h-148l160 821h-176l24 125h177l30 158q66 350 387 350h37l-28 -141h-19q-186 0 -227 -207zM973 1434h149l-278 -1434h-150z" />
    <glyph glyph-name="f_f" unicode="ff" horiz-adv-x="1288" 
d="M741 1454h37l-28 -141h-19q-186 0 -227 -207l-31 -160h207l-23 -125h-208l-162 -821h-148l160 821h-176l24 125h177l30 158q66 350 387 350zM1386 1454h37l-28 -141h-19q-186 0 -227 -207l-31 -160h207l-22 -125h-209l-162 -821h-148l160 821h-176l25 125h176l30 158
q66 350 387 350z" />
    <glyph glyph-name="f_f_i" unicode="ffi" horiz-adv-x="1703" 
d="M741 1454h37l-28 -141h-19q-186 0 -227 -207l-31 -160h207l-23 -125h-208l-162 -821h-148l160 821h-176l24 125h177l30 158q66 350 387 350zM1149 1106l-31 -160h207l-22 -125h-209l-162 -821h-148l160 821h-176l25 125h176l30 158q66 350 387 350h37l-28 -141h-19
q-186 0 -227 -207zM1579 1413h188l-49 -246h-186zM1329 0l184 946h150l-184 -946h-150z" />
    <glyph glyph-name="f_f_l" unicode="ffl" horiz-adv-x="1720" 
d="M741 1454h37l-28 -141h-19q-186 0 -227 -207l-31 -160h207l-23 -125h-208l-162 -821h-148l160 821h-176l24 125h177l30 158q66 350 387 350zM1149 1106l-31 -160h207l-22 -125h-209l-162 -821h-148l160 821h-176l25 125h176l30 158q66 350 387 350h37l-28 -141h-19
q-186 0 -227 -207zM1616 1434h149l-278 -1434h-150z" />
    <glyph glyph-name=".notdef" horiz-adv-x="1609" 
d="M852 -31q-213 0 -384 96.5t-267.5 267.5t-96.5 384q0 214 96.5 385t267.5 266.5t384 95.5q160 0 299 -56t237.5 -154.5t154.5 -237.5t56 -299q0 -213 -95.5 -384t-266.5 -267.5t-385 -96.5zM852 20q199 0 359 91t250.5 253t90.5 363l-104 133l-143 -61l-140 184l-161 -90
l-152 242l-152 -242l-161 90l-140 -184l-143 61l-104 -133q0 -201 90.5 -363t250.5 -253t359 -91zM641 651q-31 0 -51.5 20.5t-20.5 51.5t20.5 51.5t51.5 20.5t51.5 -20.5t20.5 -51.5t-20.5 -51.5t-51.5 -20.5zM1061 651q-31 0 -51.5 20.5t-20.5 51.5t20.5 51.5t51.5 20.5
t51.5 -20.5t20.5 -51.5t-20.5 -51.5t-51.5 -20.5zM766 522l74 207q3 17 22 10q6 -2 9.5 -8.5t0.5 -13.5l-57 -160h70q7 0 12.5 -5.5t5.5 -12.5q0 -6 -5.5 -11.5t-12.5 -5.5h-119zM449 350q-61 0 -101.5 40t-40.5 102q0 61 40 101t102 40q61 0 101 -39.5t40 -101.5t-40 -102
t-101 -40zM1253 350q-61 0 -101 40t-40 102t40 101.5t101 39.5q62 0 102 -40t40 -101q0 -62 -40.5 -102t-101.5 -40zM852 395q-96 0 -127 -61q-6 -12 -18 -12q-17 0 -17 18q0 35 50 63.5t112 28.5t112 -28.5t50 -63.5q0 -18 -17 -18q-12 0 -18 12q-31 61 -127 61z" />
    <glyph glyph-name=".null" horiz-adv-x="0" 
 />
    <glyph glyph-name="nonmarkingreturn" horiz-adv-x="682" 
 />
    <glyph glyph-name="CR" unicode="&#xd;" horiz-adv-x="0" 
 />
    <glyph glyph-name="CR" horiz-adv-x="0" 
 />
    <glyph glyph-name="space" unicode=" " horiz-adv-x="610" 
 />
    <glyph glyph-name="exclam" unicode="!" horiz-adv-x="624" 
d="M588 1434l-238 -1012h-100l153 1012h185zM117 0l41 211h211l-41 -211h-211z" />
    <glyph glyph-name="quotedbl" unicode="&#x22;" horiz-adv-x="548" 
d="M233 946l62 518h137l-139 -518h-60zM440 946l62 518h137l-139 -518h-60z" />
    <glyph glyph-name="numbersign" unicode="#" horiz-adv-x="1290" 
d="M1278 934h-254l-145 -389h249l-16 -86h-266l-172 -459h-99l173 459h-302l-172 -459h-98l172 459h-248l17 86h264l147 389h-262l17 86h276l156 414h98l-156 -414h301l156 414h98l-155 -414h237zM780 545l148 389h-303l-146 -389h301z" />
    <glyph glyph-name="dollar" unicode="$" horiz-adv-x="1050" 
d="M920 1030v35q0 84 -54 137.5t-153 63.5l-90 -471q134 -73 187 -116q146 -118 151 -301v-13q0 -185 -123.5 -290.5t-345.5 -105.5h-31l-25 -127h-57l27 131q-171 19 -269 107t-98 225q0 24 4 78h152q-2 -23 -2 -49q0 -97 64 -151.5t175 -65.5l107 549q-50 27 -76 42.5
t-68.5 44.5t-66 55.5t-48.5 63.5t-36 81.5t-11 97.5q0 165 114 263.5t319 98.5h18l29 148h57l-29 -152q156 -17 244 -99t88 -212q0 -18 -4 -68h-149zM391 1057q0 -78 46 -131t132 -103l88 445q-123 -2 -194.5 -58t-71.5 -153zM803 358q0 96 -54 158t-157 121l-103 -522h5
q152 0 230.5 65t78.5 178z" />
    <glyph glyph-name="percent" unicode="%" horiz-adv-x="1591" 
d="M528 797q-130 0 -215.5 74.5t-85.5 209.5q0 95 43.5 177t127.5 134t190 52q128 0 213.5 -74.5t85.5 -208.5q0 -96 -43.5 -178.5t-127 -134t-188.5 -51.5zM272 0l1004 1382h100l-1005 -1382h-99zM532 893q80 0 140.5 42.5t88 101.5t27.5 122q0 90 -57.5 139.5t-148.5 49.5
q-80 0 -140.5 -42.5t-88 -101.5t-27.5 -121q0 -89 58 -139.5t148 -50.5zM1098 -10q-128 0 -213.5 74t-85.5 208q0 148 100.5 256.5t259.5 108.5q128 0 213.5 -75t85.5 -210q0 -95 -43.5 -177t-127 -133.5t-189.5 -51.5zM1104 86q61 0 111.5 24.5t81 64t47 85t16.5 90.5
q0 90 -58 140.5t-149 50.5q-61 0 -111.5 -25t-81 -64.5t-47 -85.5t-16.5 -92q0 -89 58 -138.5t149 -49.5z" />
    <glyph glyph-name="ampersand" unicode="&#x26;" horiz-adv-x="1411" 
d="M1313 643q-113 -248 -226 -391l150 -252h-176l-82 135q-186 -166 -434 -166q-206 0 -332.5 108.5t-126.5 307.5q0 193 121 314.5t330 174.5q-78 144 -78 252q0 127 82 207t241 80q161 0 320 -92l-76 -131q-131 78 -242 78q-81 0 -122 -41t-41 -105q0 -72 73 -200
l312 -529q88 128 165 314zM551 115q196 0 350 151l-287 475q-370 -75 -370 -344q0 -131 84.5 -206.5t222.5 -75.5z" />
    <glyph glyph-name="quotesingle" unicode="'" horiz-adv-x="352" 
d="M442 1464l-137 -518h-72l62 518h147z" />
    <glyph glyph-name="parenleft" unicode="(" horiz-adv-x="655" 
d="M317 -440q-78 131 -134 324t-56 423q0 130 20.5 254t51.5 223t81 198.5t96.5 171.5t111.5 152t111 130t110 114l108 -96q-132 -137 -222 -252.5t-166 -254t-113 -294.5t-37 -334q0 -377 163 -686z" />
    <glyph glyph-name="parenright" unicode=")" horiz-adv-x="653" 
d="M367 1540q78 -131 134 -324t56 -423q0 -130 -20 -253.5t-51.5 -223t-81 -198.5t-96.5 -172t-111 -152.5t-111.5 -130.5t-110.5 -114l-108 97q105 109 181 200t147 201.5t115 219t70 240t26 275.5q0 373 -164 684z" />
    <glyph glyph-name="asterisk" unicode="*" horiz-adv-x="823" 
d="M899 1169l-278 -77l180 -226l-94 -69l-158 241l-160 -243l-94 69l180 226l-278 77l36 109l269 -100l-15 288h119l-14 -286l270 100z" />
    <glyph glyph-name="plus" unicode="+" 
d="M684 1108v-459h457v-78h-457v-460h-86v460h-457v78h457v459h86z" />
    <glyph glyph-name="comma" unicode="," horiz-adv-x="462" 
d="M-33 -272l176 272h-94l41 211h209l-41 -211l-217 -272h-74z" />
    <glyph glyph-name="hyphen" unicode="-" horiz-adv-x="702" 
d="M92 477l29 148h518l-29 -148h-518z" />
    <glyph glyph-name="period" unicode="." horiz-adv-x="436" 
d="M20 0l41 211h211l-41 -211h-211z" />
    <glyph glyph-name="slash" unicode="/" horiz-adv-x="1177" 
d="M55 -190l-108 73l1267 1719l105 -76z" />
    <glyph glyph-name="zero" unicode="0" horiz-adv-x="1189" 
d="M557 -31q-206 0 -319 134.5t-113 390.5q0 181 41 346.5t115 293t188 203.5t250 76q205 0 317.5 -134.5t112.5 -389.5q0 -145 -25.5 -280.5t-76 -251.5t-120.5 -202.5t-165.5 -136t-204.5 -49.5zM559 115q99 0 182 66.5t136.5 176t83.5 248.5t30 287q0 185 -74 280
t-200 95q-99 0 -182.5 -66.5t-137.5 -176.5t-84 -249t-30 -287q0 -184 75 -279t201 -95z" />
    <glyph glyph-name="one" unicode="1" horiz-adv-x="626" 
d="M582 1382l-269 -1382h-147l240 1237h-109l29 145h256z" />
    <glyph glyph-name="two" unicode="2" horiz-adv-x="1064" 
d="M657 1413q189 0 298.5 -95t109.5 -251q0 -131 -72.5 -237.5t-222.5 -237.5l-522 -451h661l-28 -141h-891l22 121l631 549q133 117 198.5 205.5t65.5 183.5q0 90 -68 149.5t-190 59.5q-126 0 -209 -63.5t-104 -188.5h-154q30 190 151.5 293.5t323.5 103.5z" />
    <glyph glyph-name="three" unicode="3" horiz-adv-x="1101" 
d="M489 -31q-203 0 -323.5 83.5t-120.5 234.5q0 27 6 67h150l-2 -28q0 -100 76 -155.5t223 -55.5q163 0 253.5 77t90.5 220q0 138 -96.5 197t-313.5 59l27 131q456 0 456 258q0 103 -67 157t-189 54q-125 0 -205.5 -56.5t-95.5 -164.5h-151q21 168 139 267t316 99
q193 0 302 -93t109 -245q0 -140 -88.5 -228.5t-249.5 -111.5v-2q121 -18 192.5 -102.5t71.5 -220.5q0 -91 -31 -169.5t-92 -140t-160.5 -96.5t-226.5 -35z" />
    <glyph glyph-name="four" unicode="4" horiz-adv-x="1130" 
d="M1061 420l-31 -139h-192l-56 -281h-143l55 281h-690l23 120l872 981h152l-187 -962h197zM209 420h512l143 729h-8z" />
    <glyph glyph-name="five" unicode="5" horiz-adv-x="1091" 
d="M621 903q174 0 284.5 -111.5t110.5 -306.5q0 -147 -60 -262.5t-182.5 -184.5t-290.5 -69q-172 0 -293.5 74t-175.5 223l129 74q50 -115 132 -170t212 -55q183 0 277 103.5t94 260.5q0 136 -77.5 211.5t-205.5 75.5q-179 0 -290 -137h-142l228 753h686l-29 -141h-557
l-145 -461h4q47 57 122.5 90t168.5 33z" />
    <glyph glyph-name="six" unicode="6" horiz-adv-x="1120" 
d="M520 -31q-210 0 -334.5 112.5t-124.5 315.5q0 152 74 289t238 301l405 412h209l-620 -602l4 -4q151 129 311 129q166 0 279.5 -110.5t113.5 -303.5q0 -109 -40 -207.5t-111.5 -172t-176.5 -116.5t-227 -43zM520 115q174 0 286 112t112 273q0 133 -80 207.5t-215 74.5
q-175 0 -291.5 -113.5t-116.5 -273.5q0 -130 83.5 -205t221.5 -75z" />
    <glyph glyph-name="seven" unicode="7" horiz-adv-x="903" 
d="M1047 1382l-25 -131l-821 -1253h-172l819 1239h-672l27 145h844z" />
    <glyph glyph-name="eight" unicode="8" horiz-adv-x="1130" 
d="M516 -31q-213 0 -331.5 103t-118.5 272q0 158 102.5 269.5t257.5 136.5v4q-87 35 -136.5 103t-49.5 167q0 167 127.5 278t343.5 111q194 0 300.5 -90t106.5 -242q0 -134 -85 -221.5t-226 -116.5v-4q102 -30 160.5 -110.5t58.5 -202.5q0 -93 -33 -174.5t-95 -145
t-160.5 -100.5t-221.5 -37zM639 807q144 0 231.5 72.5t87.5 187.5q0 95 -64.5 148t-186.5 53q-139 0 -224.5 -71t-85.5 -187q0 -96 62.5 -149.5t179.5 -53.5zM520 115q163 0 255.5 85.5t92.5 223.5q0 118 -71.5 181t-208.5 63q-164 0 -263.5 -89.5t-99.5 -224.5
q0 -113 78 -176t217 -63z" />
    <glyph glyph-name="nine" unicode="9" horiz-adv-x="1081" 
d="M209 0l629 594l-7 4q-142 -117 -311 -117q-171 0 -277 114t-106 294q0 106 40 202t110.5 167t173 113t221.5 42q92 0 171.5 -25t142 -75t98.5 -132.5t36 -189.5q0 -150 -71.5 -287.5t-214.5 -277.5l-443 -426h-192zM584 625q168 0 281.5 107.5t113.5 262.5
q0 127 -80.5 200t-212.5 73q-168 0 -279.5 -107.5t-111.5 -263.5q0 -128 78.5 -200t210.5 -72z" />
    <glyph glyph-name="colon" unicode=":" horiz-adv-x="436" 
d="M164 735l41 211h211l-41 -211h-211zM20 0l41 211h211l-41 -211h-211z" />
    <glyph glyph-name="semicolon" unicode=";" horiz-adv-x="462" 
d="M168 735l41 211h211l-41 -211h-211zM-33 -272l176 272h-94l41 211h209l-41 -211l-217 -272h-74z" />
    <glyph glyph-name="less" unicode="&#x3c;" 
d="M1055 1055v-94l-803 -349l803 -346v-94l-903 399v84z" />
    <glyph glyph-name="equal" unicode="=" 
d="M1159 836v-80h-1036v80h1036zM1159 469v-80h-1036v80h1036z" />
    <glyph glyph-name="greater" unicode="&#x3e;" 
d="M227 1055l903 -400v-84l-903 -399v94l803 346l-803 349v94z" />
    <glyph glyph-name="question" unicode="?" horiz-adv-x="974" 
d="M373 422l10 55q11 52 31.5 97t44.5 79.5t63.5 72.5t73 65.5t88.5 68.5q87 67 130.5 131t43.5 139q0 87 -58.5 138t-170.5 51q-256 0 -297 -238h-152q34 196 152 289.5t303 93.5q181 0 281 -86t100 -235q0 -114 -60.5 -204.5t-173.5 -176.5q-13 -10 -51.5 -38.5t-55 -42
t-47 -41.5t-45.5 -49.5t-30.5 -53.5t-22.5 -66l-10 -49h-147zM268 0l41 211h209l-41 -211h-209z" />
    <glyph glyph-name="at" unicode="@" horiz-adv-x="1955" 
d="M946 -307q-126 0 -242.5 28t-222.5 90t-184 153t-124 226t-46 299q0 203 71 375.5t195.5 293t299.5 188t378 67.5q243 0 429 -89.5t286 -248t100 -362.5q0 -151 -54.5 -285t-157 -219.5t-228.5 -85.5q-92 0 -140 47t-51 129h-6q-126 -195 -340 -195q-161 0 -262.5 108
t-101.5 294q0 112 39.5 206t106 155.5t152.5 95.5t179 34q238 0 309 -204h4l33 174h131l-113 -590q-6 -27 -6 -49q0 -95 95 -95q82 0 147.5 69.5t100 177.5t34.5 227q0 185 -92 320t-244 201t-344 66q-170 0 -319.5 -56t-261 -157.5t-176 -253t-64.5 -333.5
q0 -142 39 -257.5t104.5 -193.5t155.5 -131t189 -76.5t208 -23.5q227 0 422 90l33 -115q-226 -94 -461 -94zM950 240q154 0 254.5 106.5t100.5 255.5q0 121 -70.5 192.5t-196.5 71.5q-156 0 -252 -103.5t-96 -254.5q0 -123 67.5 -195.5t192.5 -72.5z" />
    <glyph glyph-name="A" unicode="A" horiz-adv-x="1355" 
d="M1085 0l-77 383h-674l-221 -383h-187l844 1434h168l307 -1434h-160zM416 528h561l-146 723z" />
    <glyph glyph-name="B" unicode="B" horiz-adv-x="1269" 
d="M905 758q129 -26 193.5 -109t64.5 -209q0 -138 -69.5 -239t-186.5 -151t-266 -50h-582l281 1434h485q178 0 276.5 -85.5t98.5 -238.5q0 -126 -77 -221.5t-218 -126.5v-4zM788 1284h-317l-92 -465h332q148 0 235.5 71t87.5 193q0 201 -246 201zM645 150q168 0 261 79.5
t93 204.5q0 112 -69.5 176t-210.5 64h-369l-104 -524h399z" />
    <glyph glyph-name="C" unicode="C" horiz-adv-x="1419" 
d="M791 -31q-308 0 -487 181t-179 487q0 173 61 324.5t169.5 262.5t268 175.5t347.5 64.5q286 0 497 -161l-100 -134q-190 136 -407 136q-148 0 -274.5 -53.5t-211.5 -144.5t-132.5 -212t-47.5 -256q0 -239 136 -374.5t374 -135.5q116 0 208.5 33t192.5 96l86 -133
q-228 -156 -501 -156z" />
    <glyph glyph-name="D" unicode="D" horiz-adv-x="1415" 
d="M59 0l281 1434h428q280 0 450.5 -166.5t170.5 -454.5q0 -243 -112.5 -428t-315 -285t-463.5 -100h-439zM248 150h284q142 0 266.5 45.5t218 129t148 209.5t54.5 277q0 224 -128 348.5t-339 124.5h-281z" />
    <glyph glyph-name="E" unicode="E" horiz-adv-x="1054" 
d="M1112 1284h-641l-82 -412h592l-29 -147h-592l-112 -575h651l-29 -150h-811l281 1434h801z" />
    <glyph glyph-name="F" unicode="F" horiz-adv-x="1013" 
d="M1122 1284h-651l-90 -465h600l-29 -147h-602l-129 -672h-162l281 1434h811z" />
    <glyph glyph-name="G" unicode="G" horiz-adv-x="1650" 
d="M969 760h669l-10 -64q-19 -121 -56 -225t-101 -197.5t-150 -159.5t-207.5 -104.5t-267.5 -38.5q-328 0 -523.5 182.5t-195.5 499.5q0 230 104 414.5t292.5 289.5t428.5 105q352 0 588 -205l-123 -124q-191 170 -471 170q-195 0 -344.5 -89.5t-227 -237t-77.5 -325.5
q0 -245 149 -382.5t406 -137.5q109 0 199.5 26t153.5 69.5t110.5 106t75.5 130.5t45 149h-502z" />
    <glyph glyph-name="H" unicode="H" horiz-adv-x="1423" 
d="M1298 1434h160l-278 -1434h-160l133 684h-801l-133 -684h-160l279 1434h160l-117 -598h801z" />
    <glyph glyph-name="I" unicode="I" horiz-adv-x="466" 
d="M59 0l281 1434h162l-281 -1434h-162z" />
    <glyph glyph-name="J" unicode="J" horiz-adv-x="569" 
d="M-57 -10l28 153h52q84 0 132.5 38.5t69.5 135.5l219 1117h158l-221 -1149q-31 -159 -117.5 -227t-238.5 -68h-82z" />
    <glyph glyph-name="K" unicode="K" horiz-adv-x="1255" 
d="M1329 1434l-786 -676l610 -758h-213l-575 745l-146 -745h-160l279 1434h160l-125 -641l721 641h235z" />
    <glyph glyph-name="L" unicode="L" horiz-adv-x="989" 
d="M59 0l281 1434h160l-250 -1284h661l-28 -150h-824z" />
    <glyph glyph-name="M" unicode="M" horiz-adv-x="1765" 
d="M-74 0l600 1434h144l192 -975h4l551 975h144l94 -1434h-160l-68 1137h-4l-522 -906h-137l-191 902h-4l-458 -1133h-185z" />
    <glyph glyph-name="N" unicode="N" horiz-adv-x="1415" 
d="M59 0l279 1434h168l553 -1180h4l227 1180h160l-279 -1434h-167l-553 1182h-2l-230 -1182h-160z" />
    <glyph glyph-name="O" unicode="O" horiz-adv-x="1701" 
d="M840 -31q-209 0 -370.5 82.5t-252 237.5t-90.5 360q0 168 60 317.5t167 259.5t263 174t339 64q210 0 371.5 -82.5t251.5 -237.5t90 -360q0 -168 -60 -317.5t-167 -259.5t-263 -174t-339 -64zM844 127q150 0 275 53.5t207 145.5t127.5 213t45.5 256q0 156 -73 273.5
t-196.5 178t-277.5 60.5q-120 0 -224.5 -35t-182.5 -97t-134.5 -145.5t-85 -183t-28.5 -207.5q0 -155 73.5 -273t197 -178.5t276.5 -60.5z" />
    <glyph glyph-name="P" unicode="P" horiz-adv-x="1122" 
d="M758 1434q200 0 311 -108t111 -277q0 -201 -146 -331t-401 -130h-299l-115 -588h-160l279 1434h420zM664 737q160 0 253 80t93 221q0 121 -71.5 183.5t-193.5 62.5h-276l-107 -547h302z" />
    <glyph glyph-name="Q" unicode="Q" horiz-adv-x="1712" 
d="M1669 784q0 -179 -67 -335t-189 -267l180 -196h-192l-101 110q-202 -127 -460 -127q-209 0 -370.5 82.5t-252 237.5t-90.5 360q0 168 60 317.5t167 259.5t263 174t339 64q210 0 371.5 -82.5t251.5 -237.5t90 -360zM844 127q194 0 346 90l-266 289h192l187 -203
q95 92 145.5 219.5t50.5 272.5q0 156 -73 273.5t-196.5 178t-277.5 60.5q-120 0 -224.5 -35t-182.5 -97t-134.5 -145.5t-85 -183t-28.5 -207.5q0 -155 73.5 -273t197 -178.5t276.5 -60.5z" />
    <glyph glyph-name="R" unicode="R" horiz-adv-x="1177" 
d="M1180 1067q0 -181 -120.5 -305t-332.5 -144l332 -618h-189l-313 614h-217l-121 -614h-160l281 1434h442q190 0 294 -99.5t104 -267.5zM469 1284l-102 -522h295q156 0 252 77.5t96 213.5q0 111 -67 171t-193 60h-281z" />
    <glyph glyph-name="S" unicode="S" horiz-adv-x="1050" 
d="M502 -31q-157 0 -290 57.5t-230 149.5l100 133q197 -178 424 -178q128 0 197 58.5t69 162.5q0 69 -37.5 129t-116.5 127l-194 166q-184 156 -184 344q0 151 102.5 248.5t290.5 97.5q112 0 211 -35.5t205 -107.5l-93 -141q-168 125 -329 125q-108 0 -162.5 -54.5
t-54.5 -132.5q0 -109 139 -225l192 -162q103 -88 152 -177.5t49 -197.5q0 -185 -119.5 -286t-320.5 -101z" />
    <glyph glyph-name="T" unicode="T" horiz-adv-x="1062" 
d="M1225 1434l-29 -150h-428l-250 -1284h-158l248 1284h-426l29 150h1014z" />
    <glyph glyph-name="U" unicode="U" horiz-adv-x="1411" 
d="M1458 1434l-176 -895q-51 -269 -211 -419.5t-430 -150.5q-238 0 -368 118.5t-130 330.5q0 64 17 157l168 859h166l-170 -883q-13 -63 -13 -111q0 -145 90 -226t254 -81q189 0 306.5 109t156.5 309l174 883h166z" />
    <glyph glyph-name="V" unicode="V" horiz-adv-x="1224" 
d="M446 0l-249 1434h176l180 -1201h4l649 1201h195l-805 -1434h-150z" />
    <glyph glyph-name="W" unicode="W" horiz-adv-x="2021" 
d="M2167 1434l-721 -1434h-158l-137 1167h-4l-592 -1167h-158l-168 1434h172l113 -1178h4l588 1178h164l137 -1178h4l565 1178h191z" />
    <glyph glyph-name="X" unicode="X" horiz-adv-x="1243" 
d="M1360 1434l-584 -689l346 -745h-170l-290 618l-525 -618h-200l649 764l-314 670h172l256 -545l463 545h197z" />
    <glyph glyph-name="Y" unicode="Y" horiz-adv-x="1093" 
d="M1272 1434l-629 -871l-108 -563h-160l108 561l-288 873h176l209 -715h4l491 715h197z" />
    <glyph glyph-name="Z" unicode="Z" horiz-adv-x="1130" 
d="M1237 1434l-29 -150l-1020 -1134h824l-29 -150h-1018l27 150l1022 1134h-727l28 150h922z" />
    <glyph glyph-name="bracketleft" unicode="[" horiz-adv-x="645" 
d="M831 1538l-26 -135h-262l-332 -1710h262l-27 -133h-407l385 1978h407z" />
    <glyph glyph-name="backslash" unicode="\" horiz-adv-x="1181" 
d="M881 -190l-615 1716l115 45l618 -1718z" />
    <glyph glyph-name="bracketright" unicode="]" horiz-adv-x="645" 
d="M-158 -440l27 135h262l332 1710h-262l26 133h408l-385 -1978h-408z" />
    <glyph glyph-name="asciicircum" unicode="^" 
d="M752 1464l299 -659h-125l-248 553l-248 -553h-125l299 659h148z" />
    <glyph glyph-name="underscore" unicode="_" horiz-adv-x="1091" 
d="M-102 -160l24 129h1051l-25 -129h-1050z" />
    <glyph glyph-name="grave" unicode="`" horiz-adv-x="585" 
d="M479 1448l133 -315h-108l-211 315h186z" />
    <glyph glyph-name="a" unicode="a" horiz-adv-x="1200" 
d="M498 -31q-190 0 -308 126t-118 329q0 236 150 394.5t374 158.5q137 0 236.5 -60t140.5 -169h4l39 198h147l-182 -946h-150l31 154h-4q-144 -185 -360 -185zM547 111q170 0 281.5 116t111.5 291q0 145 -87.5 231.5t-236.5 86.5q-164 0 -275.5 -118.5t-111.5 -293.5
q0 -143 86 -228t232 -85z" />
    <glyph glyph-name="b" unicode="b" horiz-adv-x="1212" 
d="M608 -31q-137 0 -231 60.5t-135 163.5h-6l-37 -193h-148l277 1434h149l-123 -631h6q65 80 157.5 127t205.5 47q184 0 302 -121t118 -326q0 -114 -39.5 -216.5t-108.5 -178.5t-170 -121t-217 -45zM584 111q93 0 170 35.5t127 95t77 134t27 154.5q0 139 -81 222.5
t-222 83.5q-118 0 -213 -60t-145 -155.5t-50 -204.5q0 -139 82.5 -222t227.5 -83z" />
    <glyph glyph-name="c" unicode="c" horiz-adv-x="1003" 
d="M561 -31q-221 0 -353 129t-132 342q0 236 154 386.5t399 150.5q207 0 372 -123l-86 -121q-140 103 -294 103q-168 0 -278 -111.5t-110 -280.5q0 -149 93 -241t237 -92q123 0 258 77l66 -127q-159 -92 -326 -92z" />
    <glyph glyph-name="d" unicode="d" horiz-adv-x="1214" 
d="M1108 1434h149l-276 -1434h-150l31 154h-4q-144 -185 -360 -185q-190 0 -308 126t-118 329q0 236 150 394.5t374 158.5q137 0 236.5 -60t140.5 -169h4zM547 111q170 0 281.5 116t111.5 291q0 145 -87.5 231.5t-236.5 86.5q-164 0 -275.5 -118.5t-111.5 -293.5
q0 -143 86 -228t232 -85z" />
    <glyph glyph-name="e" unicode="e" horiz-adv-x="1112" 
d="M1032 453h-813q-2 -10 -2 -33q0 -151 78 -229t227 -78q109 0 195 42t170 124l92 -111q-102 -96 -210 -147.5t-249 -51.5q-211 0 -330.5 116t-119.5 323q0 246 157.5 407.5t403.5 161.5q198 0 308 -106.5t110 -282.5q0 -42 -17 -135zM623 846q-142 0 -243 -76t-140 -203
h657q2 10 2 31q0 115 -72 181.5t-204 66.5z" />
    <glyph glyph-name="f" unicode="f" horiz-adv-x="645" 
d="M741 1454h37l-28 -141h-19q-186 0 -227 -207l-31 -160h207l-23 -125h-208l-162 -821h-148l160 821h-176l24 125h177l30 158q66 350 387 350z" />
    <glyph glyph-name="g" unicode="g" horiz-adv-x="1200" 
d="M1016 946h147l-182 -946q-44 -235 -156 -337.5t-325 -102.5q-204 0 -420 92l57 141q197 -90 367 -90q143 0 219.5 69.5t107.5 227.5l31 154h-4q-144 -185 -360 -185q-190 0 -308 126t-118 329q0 236 150 394.5t374 158.5q137 0 236.5 -60t140.5 -169h4zM547 111
q170 0 281.5 116t111.5 291q0 145 -87.5 231.5t-236.5 86.5q-164 0 -275.5 -118.5t-111.5 -293.5q0 -143 86 -228t232 -85z" />
    <glyph glyph-name="h" unicode="h" horiz-adv-x="1118" 
d="M49 0l279 1434h149l-131 -672h4q132 215 359 215q142 0 225.5 -79.5t83.5 -238.5q0 -68 -12 -124l-101 -535h-149l104 543q6 43 6 78q0 102 -54 157.5t-155 55.5q-63 0 -119 -21.5t-106.5 -66.5t-89 -124t-59.5 -186l-84 -436h-150z" />
    <glyph glyph-name="i" unicode="i" horiz-adv-x="415" 
d="M479 1413l-49 -246h-186l47 246h188zM41 0l184 946h150l-185 -946h-149z" />
    <glyph glyph-name="j" unicode="j" horiz-adv-x="409" 
d="M479 1413l-49 -246h-186l47 246h188zM-209 -281h59q139 0 166 146l209 1081h150l-213 -1091q-28 -146 -109.5 -208.5t-210.5 -62.5h-78z" />
    <glyph glyph-name="k" unicode="k" horiz-adv-x="952" 
d="M967 946l-514 -446l391 -500h-189l-364 477l-92 -477h-150l279 1434h149l-174 -899l451 411h213z" />
    <glyph glyph-name="l" unicode="l" horiz-adv-x="432" 
d="M49 0l279 1434h149l-278 -1434h-150z" />
    <glyph glyph-name="m" unicode="m" horiz-adv-x="1644" 
d="M35 0l184 946h150l-35 -174h4q111 205 326 205q112 0 180.5 -55t85.5 -162h4q115 217 334 217q125 0 204.5 -70t79.5 -221q0 -68 -20 -160l-102 -526h-150l106 543q13 67 13 102q0 98 -49 144.5t-136 46.5q-123 0 -200 -84.5t-111 -257.5l-96 -494h-150l101 520
q14 63 14 121q0 195 -180 195q-247 0 -316 -363l-92 -473h-149z" />
    <glyph glyph-name="n" unicode="n" horiz-adv-x="1103" 
d="M35 0l184 946h150l-37 -182h4q67 110 155.5 161.5t208.5 51.5q148 0 228 -79.5t80 -223.5q0 -56 -15 -152l-102 -522h-150l99 508q12 58 12 123q0 205 -215 205q-292 0 -369 -400l-84 -436h-149z" />
    <glyph glyph-name="o" unicode="o" horiz-adv-x="1173" 
d="M537 -31q-213 0 -340 118.5t-127 326.5q0 156 72.5 284.5t203 203.5t293.5 75q212 0 338.5 -118.5t126.5 -326.5q0 -156 -72 -284.5t-202.5 -203.5t-292.5 -75zM549 115q174 0 285.5 119.5t111.5 293.5q0 141 -86 222t-235 81q-174 0 -286 -120t-112 -293
q0 -141 86.5 -222t235.5 -81z" />
    <glyph glyph-name="p" unicode="p" horiz-adv-x="1198" 
d="M-43 -412l262 1358h150l-31 -149h6q143 180 365 180q188 0 303.5 -120t115.5 -318q0 -164 -72 -295t-195.5 -203t-272.5 -72q-133 0 -227.5 59.5t-133.5 159.5h-6l-117 -600h-147zM565 111q173 0 289.5 122t116.5 304q0 136 -80.5 217.5t-220.5 81.5q-175 0 -292.5 -122
t-117.5 -304q0 -136 82 -217.5t223 -81.5z" />
    <glyph glyph-name="q" unicode="q" horiz-adv-x="1200" 
d="M1016 946h147l-262 -1356h-149l110 564h-4q-144 -185 -360 -185q-190 0 -308 126t-118 329q0 236 150 394.5t374 158.5q137 0 236.5 -60t140.5 -169h4zM547 111q170 0 281.5 116t111.5 291q0 145 -87.5 231.5t-236.5 86.5q-164 0 -275.5 -118.5t-111.5 -293.5
q0 -143 86 -228t232 -85z" />
    <glyph glyph-name="r" unicode="r" horiz-adv-x="659" 
d="M35 0l184 946h150l-43 -209h4q106 238 350 238q25 0 37 -2l-33 -172q-7 0 -22.5 1t-22.5 1q-300 0 -369 -359l-86 -444h-149z" />
    <glyph glyph-name="s" unicode="s" horiz-adv-x="806" 
d="M61 246q160 -140 320 -140q83 0 124.5 33t41.5 90q0 78 -103 148l-125 84q-80 56 -122.5 118t-42.5 146q0 116 79.5 184t217.5 68q163 0 325 -107l-76 -122q-134 92 -245 92q-70 0 -108 -32t-38 -89q0 -43 27.5 -76t87.5 -74l115 -77q83 -57 124.5 -117.5t41.5 -145.5
q0 -128 -85 -194t-233 -66q-122 0 -228 43.5t-186 118.5z" />
    <glyph glyph-name="t" unicode="t" horiz-adv-x="628" 
d="M436 821l-106 -553q-6 -27 -6 -49q0 -82 96 -82h55l-26 -139h-70q-97 0 -153 49t-56 141q0 24 8 78l109 555h-185l25 125h184l74 379h150l-74 -379h219l-25 -125h-219z" />
    <glyph glyph-name="u" unicode="u" horiz-adv-x="1071" 
d="M387 -31q-145 0 -225 78t-80 215q0 60 16 141l107 543h153l-104 -534q-12 -55 -12 -105q0 -95 51.5 -143.5t150.5 -48.5q277 0 355 403l84 428h151l-184 -946h-148l35 176h-4q-127 -207 -346 -207z" />
    <glyph glyph-name="v" unicode="v" horiz-adv-x="948" 
d="M838 946h184l-569 -946h-142l-200 946h165l130 -770z" />
    <glyph glyph-name="w" unicode="w" horiz-adv-x="1513" 
d="M1413 946h168l-506 -946h-141l-113 754l-407 -754h-142l-135 946h156l82 -758l401 758h152l106 -756z" />
    <glyph glyph-name="x" unicode="x" horiz-adv-x="952" 
d="M993 946l-424 -454l271 -492h-158l-211 385l-360 -385h-185l475 510l-239 436h160l180 -330l307 330h184z" />
    <glyph glyph-name="y" unicode="y" horiz-adv-x="940" 
d="M844 946h168l-838 -1358h-160l324 525l-227 833h159l166 -676z" />
    <glyph glyph-name="z" unicode="z" horiz-adv-x="903" 
d="M903 946l-24 -131l-699 -676h602l-26 -139h-793l27 131l696 678h-528l26 137h719z" />
    <glyph glyph-name="braceleft" unicode="{" horiz-adv-x="770" 
d="M954 1526l-24 -133h-68q-104 0 -164.5 -51.5t-89.5 -190.5l-57 -291q-27 -132 -89 -193.5t-192 -76.5v-4q96 -17 138.5 -63.5t42.5 -133.5q0 -46 -13 -119l-61 -319q-10 -46 -10 -94q0 -91 43 -127.5t122 -36.5h66l-27 -133h-63q-131 0 -213 65t-82 205q0 50 12 115
l64 325q10 46 10 78q0 88 -54 127.5t-163 44.5l29 154q136 5 205 46t90 150l55 287q21 106 60 180t94.5 114.5t119.5 57.5t146 17h73z" />
    <glyph glyph-name="bar" unicode="|" horiz-adv-x="581" 
d="M47 -440l377 1929h129l-375 -1929h-131z" />
    <glyph glyph-name="braceright" unicode="}" horiz-adv-x="770" 
d="M-158 -440l27 133h65q105 0 165.5 51.5t88.5 189.5l58 291q27 132 89 194t191 77v4q-96 17 -138 63t-42 133q0 56 14 119l62 320q10 62 10 94q0 90 -44 127t-122 37h-67l26 133h64q132 0 213.5 -65t81.5 -206q0 -44 -13 -114l-63 -326q-8 -49 -8 -78q0 -88 53.5 -127
t163.5 -45l-31 -153q-136 -5 -205 -46.5t-90 -150.5l-55 -287q-20 -106 -58.5 -179.5t-94.5 -114t-119.5 -57.5t-145.5 -17h-76z" />
    <glyph glyph-name="asciitilde" unicode="~" 
d="M420 768q65 0 130 -24t109 -52t102.5 -52t112.5 -24q68 0 124 29.5t122 85.5l72 -110q-169 -140 -326 -140q-53 0 -104 15.5t-91.5 38t-80 45t-85.5 38t-93 15.5q-69 0 -125.5 -29.5t-122.5 -85.5l-72 111q167 139 328 139z" />
    <glyph glyph-name="exclamdown" unicode="&#xa1;" horiz-adv-x="624" 
d="M522 1026l-41 -211h-211l41 211h211zM51 -408l238 1012h102l-155 -1012h-185z" />
    <glyph glyph-name="cent" unicode="&#xa2;" horiz-adv-x="970" 
d="M946 768q-148 63 -264 63l-139 -716h16q118 0 283 69l-29 -157q-143 -58 -276 -58h-23l-20 -100h-58l21 106q-169 23 -266 139t-97 298q0 249 156.5 402.5t402.5 162.5l21 110h57l-20 -110q155 -6 270 -62zM252 418q0 -124 63.5 -201t169.5 -96l140 708
q-163 -18 -268 -127.5t-105 -283.5z" />
    <glyph glyph-name="sterling" unicode="&#xa3;" horiz-adv-x="1060" 
d="M733 1413q175 0 278 -78t103 -225q0 -36 -6 -74h-150v33q0 199 -231 199q-133 0 -212 -74t-79 -205q0 -83 43 -221h400l-13 -61h-368q41 -125 41 -209q0 -115 -78 -200t-221 -153l-2 -4h680l-27 -141h-854l24 123q152 82 237 173.5t85 201.5q0 70 -47 209h-209l12 61h178
q-38 129 -38 223q0 195 122.5 308.5t331.5 113.5z" />
    <glyph glyph-name="currency" unicode="&#xa4;" 
d="M211 186l-39 41l117 117q-117 133 -117 320q0 186 117 319l-117 117l41 41l117 -117q134 115 319 115q186 0 320 -115l116 117l41 -41l-116 -117q116 -132 116 -319q0 -191 -116 -320l116 -119l-41 -39l-116 117q-134 -115 -320 -115q-189 0 -319 117zM649 328
q147 0 238.5 94.5t91.5 241.5t-91.5 241t-238.5 94t-238.5 -94t-91.5 -241t91.5 -241.5t238.5 -94.5z" />
    <glyph glyph-name="yen" unicode="&#xa5;" horiz-adv-x="1095" 
d="M1221 1382l-449 -661h262l-12 -62h-291l-78 -114h346l-12 -62h-366l-93 -483h-147l94 483h-364l12 62h346l-33 114h-291l13 62h260l-191 661h158l190 -729l469 729h177z" />
    <glyph glyph-name="brokenbar" unicode="&#xa6;" horiz-adv-x="583" 
d="M299 842h129l-156 -803h-131z" />
    <glyph glyph-name="section" unicode="&#xa7;" horiz-adv-x="1118" 
d="M463 1141q0 -43 19.5 -78t52 -60t74.5 -46.5t89 -41.5t93.5 -41.5t88.5 -50.5t74.5 -64t52 -87t19.5 -115q0 -127 -72 -205.5t-198 -128.5q92 -85 92 -219q0 -146 -101.5 -238t-300.5 -92q-222 0 -401 113l88 129q145 -100 316 -100q118 0 181.5 50.5t63.5 131.5
q0 48 -24 86.5t-64 63t-90.5 49.5t-103 46t-103 52t-90.5 67t-64 92.5t-24 127.5q0 67 20.5 121t60 93t84.5 67t105 52q-92 85 -92 220q0 145 101.5 237t300.5 92q223 0 401 -112l-86 -129q-148 100 -317 100q-118 0 -182 -50.5t-64 -131.5zM649 295q223 92 223 254
q0 42 -16.5 77t-41 58t-64.5 46.5t-75 38t-85 36.5t-82 39q-223 -92 -223 -254q0 -42 16.5 -77t41 -58t64.5 -46.5t75 -38t85 -36.5t82 -39z" />
    <glyph glyph-name="dieresis" unicode="&#xa8;" horiz-adv-x="749" 
d="M240 1176l45 237h164l-46 -237h-163zM621 1176l47 237h161l-45 -237h-163z" />
    <glyph glyph-name="copyright" unicode="&#xa9;" horiz-adv-x="1726" 
d="M911 -31q-154 0 -291.5 56t-237.5 154t-158 238t-58 300q0 214 99 385.5t269.5 266.5t376.5 95t376.5 -95t270 -266.5t99.5 -385.5q0 -160 -58.5 -300t-158.5 -238t-237.5 -154t-291.5 -56zM911 66q178 0 324.5 81.5t232.5 231.5t86 338t-86 338t-232.5 231.5
t-324.5 81.5t-324.5 -81.5t-232.5 -231.5t-86 -338t86 -338t232.5 -231.5t324.5 -81.5zM918 260q-207 0 -339.5 131t-132.5 334t132.5 334t339.5 131q173 0 311 -98l-62 -105q-130 78 -254 78q-151 0 -242 -92.5t-91 -247.5q0 -154 91 -247t242 -93q128 0 254 80l62 -107
q-143 -98 -311 -98z" />
    <glyph glyph-name="ordfeminine" unicode="&#xaa;" horiz-adv-x="882" 
d="M492 692q-127 0 -209 80.5t-82 222.5q0 159 99.5 262t252.5 103q90 0 154.5 -39.5t97.5 -112.5h2l24 131h130l-123 -626h-129l24 100h-4q-86 -121 -237 -121zM535 813q104 0 171.5 70.5t67.5 167.5q0 88 -57 138t-146 50q-108 0 -169.5 -68.5t-61.5 -166.5
q0 -88 53 -139.5t142 -51.5z" />
    <glyph glyph-name="guillemotleft" unicode="&#xab;" horiz-adv-x="831" 
d="M575 162l-229 317l354 318h174l-374 -330l223 -305h-148zM274 162l-231 317l354 318h174l-374 -330l225 -305h-148z" />
    <glyph glyph-name="logicalnot" unicode="&#xac;" 
d="M174 885h936v-78v-465h-80v465h-856v78z" />
    <glyph glyph-name="uni00AD" unicode="&#xad;" horiz-adv-x="702" 
d="M92 477l29 148h518l-29 -148h-518z" />
    <glyph glyph-name="registered" unicode="&#xae;" horiz-adv-x="1167" 
d="M684 1464q208 0 339.5 -132t131.5 -343t-131.5 -343t-339.5 -132t-339.5 132t-131.5 343t131.5 343t339.5 132zM684 578q177 0 290 112.5t113 298.5q0 187 -113 299.5t-290 112.5t-290 -112.5t-113 -299.5q0 -186 113 -298.5t290 -112.5zM881 1116q0 -61 -36 -103.5
t-93 -51.5l149 -226h-80l-145 221h-82v-221h-66v533h191q71 0 116.5 -41t45.5 -111zM594 1208v-190h111q52 0 79 26t27 68q0 44 -27.5 70t-78.5 26h-111z" />
    <glyph glyph-name="macron" unicode="&#xaf;" horiz-adv-x="782" 
d="M850 1346l-23 -113h-577l22 113h578z" />
    <glyph glyph-name="degree" unicode="&#xb0;" horiz-adv-x="733" 
d="M496 1413q121 0 199.5 -77.5t78.5 -200.5q0 -124 -78.5 -201.5t-199.5 -77.5t-200 78t-79 201t79 200.5t200 77.5zM496 1333q-86 0 -141.5 -55t-55.5 -143t55.5 -143.5t141.5 -55.5q84 0 139 55.5t55 143.5t-55 143t-139 55z" />
    <glyph glyph-name="plusminus" unicode="&#xb1;" 
d="M662 1069v-289h446v-82h-446v-288h-84v288h-447v82h447v289h84zM1108 313v-77h-977v77h977z" />
    <glyph glyph-name="uni00B2" unicode="&#xb2;" horiz-adv-x="806" 
d="M600 1647q137 0 212 -65t75 -177q0 -171 -215 -324l-314 -239h428l-26 -129h-633l25 118l411 320q91 68 139 122.5t48 117.5q0 55 -41 90t-117 35q-72 0 -124.5 -37t-68.5 -113h-141q25 136 112 208.5t230 72.5z" />
    <glyph glyph-name="uni00B3" unicode="&#xb3;" horiz-adv-x="806" 
d="M467 692q-132 0 -217.5 54t-85.5 159q0 11 4 51h135q-2 -14 -2 -24q0 -52 48 -81.5t126 -29.5q102 0 155.5 44t53.5 128q0 77 -52 111.5t-171 34.5l22 114q240 3 240 148q0 115 -150 115q-71 0 -118 -30t-56 -87h-137q15 117 99 182.5t219 65.5q129 0 204.5 -58
t75.5 -162q0 -86 -52 -145t-155 -76v-4q168 -26 168 -209q0 -62 -19 -114t-59 -95t-110.5 -67.5t-165.5 -24.5z" />
    <glyph glyph-name="acute" unicode="&#xb4;" horiz-adv-x="614" 
d="M231 1133l263 315h208l-344 -315h-127z" />
    <glyph glyph-name="paragraph" unicode="&#xb6;" horiz-adv-x="1230" 
d="M1315 1434l-25 -117h-116l-300 -1534h-124l299 1534h-252l-297 -1534h-125l166 852q-146 0 -237 101t-91 261q0 199 141.5 318t362.5 119h598z" />
    <glyph glyph-name="periodcentered" unicode="&#xb7;" horiz-adv-x="436" 
d="M164 735l41 211h211l-41 -211h-211z" />
    <glyph glyph-name="cedilla" unicode="&#xb8;" horiz-adv-x="481" 
d="M-37 -434l-24 53q94 43 136 72.5t42 64.5q0 26 -31 43.5t-92 32.5l127 211h67l-77 -125q30 -11 48.5 -19.5t40.5 -24t33 -37.5t11 -50q0 -25 -8.5 -47.5t-34 -44t-40.5 -34.5t-59 -34t-58 -27t-67 -28q-9 -4 -14 -6z" />
    <glyph glyph-name="uni00B9" unicode="&#xb9;" horiz-adv-x="579" 
d="M580 1626l-179 -913h-143l152 778h-64l27 135h207z" />
    <glyph glyph-name="ordmasculine" unicode="&#xba;" horiz-adv-x="894" 
d="M588 1360q145 0 234 -80t89 -219q0 -156 -107.5 -262.5t-281.5 -106.5q-147 0 -235 80t-88 219q0 156 107.5 262.5t281.5 106.5zM584 1239q-110 0 -180 -70.5t-70 -173.5q0 -87 52.5 -134.5t139.5 -47.5q110 0 180 70.5t70 173.5q0 87 -52.5 134.5t-139.5 47.5z" />
    <glyph glyph-name="guillemotright" unicode="&#xbb;" horiz-adv-x="839" 
d="M258 797l231 -318l-354 -317h-174l375 330l-225 305h147zM571 797l230 -318l-355 -317h-174l375 330l-223 305h147z" />
    <glyph glyph-name="onequarter" unicode="&#xbc;" horiz-adv-x="1497" 
d="M1161 1382h99l-1006 -1382h-98zM377 592h-96l135 694h-88l18 96h184zM1380 791l-106 -547h98l-18 -90h-97l-30 -154h-99l31 154h-424l17 88l499 549h129zM862 244h314l86 436h-5z" />
    <glyph glyph-name="onehalf" unicode="&#xbd;" horiz-adv-x="1521" 
d="M156 0l1005 1382h99l-1006 -1382h-98zM281 592l135 694h-88l18 96h184l-153 -790h-96zM791 0l16 86l352 295q39 32 60 51t47.5 48.5t38.5 59t12 60.5q0 53 -34 85t-103 32q-67 0 -112 -33.5t-58 -95.5h-99q17 108 89.5 164.5t183.5 56.5t172 -55.5t61 -149.5
q0 -78 -45 -140.5t-139 -139.5l-283 -230h385l-18 -94h-526z" />
    <glyph glyph-name="threequarters" unicode="&#xbe;" horiz-adv-x="1718" 
d="M719 829q0 -48 -15.5 -91t-48 -81t-92.5 -61t-141 -23q-126 0 -196 51t-70 138q0 27 2 43h96q-2 -8 -2 -19q0 -62 46 -91t126 -29q94 0 145.5 43t51.5 116q0 78 -58 109.5t-182 28.5l18 92q131 2 193.5 36t62.5 109q0 58 -38.5 83.5t-98.5 25.5q-71 0 -118.5 -30.5
t-57.5 -88.5h-96q13 103 86 157t186 54q106 0 172 -47.5t66 -141.5q0 -79 -51 -129.5t-140 -68.5v-2q72 -9 113 -57t41 -126zM1384 1382h99l-1006 -1382h-98zM1602 791l-107 -547h98l-18 -90h-96l-31 -154h-98l30 154h-424l17 88l500 549h129zM1083 244h314l86 436h-4z" />
    <glyph glyph-name="questiondown" unicode="&#xbf;" horiz-adv-x="851" 
d="M680 1022l-41 -211h-209l41 211h209zM578 600l-13 -55q-11 -52 -31.5 -97t-44.5 -79.5t-63.5 -72.5t-73 -65.5t-88.5 -68.5q-86 -67 -130 -131.5t-44 -139.5q0 -87 59 -137.5t173 -50.5q253 0 294 238h152q-33 -196 -151 -289.5t-304 -93.5q-180 0 -280.5 86t-100.5 235
q0 114 60.5 204.5t173.5 176.5q13 10 51.5 38.5t55 42t47 41.5t45.5 49.5t30.5 53.5t22.5 66l10 49h150z" />
    <glyph glyph-name="Agrave" unicode="&#xc0;" horiz-adv-x="1355" 
d="M930 1522h-96l-222 245h183zM1085 0l-77 383h-674l-221 -383h-187l844 1434h168l307 -1434h-160zM416 528h561l-146 723z" />
    <glyph glyph-name="Aacute" unicode="&#xc1;" horiz-adv-x="1355" 
d="M1247 1767l-325 -245h-121l248 245h198zM770 1434h168l307 -1434h-160l-77 383h-674l-221 -383h-187zM416 528h561l-146 723z" />
    <glyph glyph-name="Acircumflex" unicode="&#xc2;" horiz-adv-x="1355" 
d="M913 1696l-225 -174h-168l318 245h161l201 -245h-151zM1085 0l-77 383h-674l-221 -383h-187l844 1434h168l307 -1434h-160zM416 528h561l-146 723z" />
    <glyph glyph-name="Atilde" unicode="&#xc3;" horiz-adv-x="1355" 
d="M750 1642q-71 0 -132 -88l-63 21q83 190 219 190q51 0 111.5 -25t113.5 -50t88 -25q72 0 130 88l65 -20q-83 -191 -219 -191q-51 0 -111.5 25t-114 50t-87.5 25zM770 1434h168l307 -1434h-160l-77 383h-674l-221 -383h-187zM416 528h561l-146 723z" />
    <glyph glyph-name="Adieresis" unicode="&#xc4;" horiz-adv-x="1355" 
d="M793 1726l-41 -204h-170l41 204h170zM1188 1726l-41 -204h-170l41 204h170zM1085 0l-77 383h-674l-221 -383h-187l844 1434h168l307 -1434h-160zM416 528h561l-146 723z" />
    <glyph glyph-name="Aring" unicode="&#xc5;" horiz-adv-x="1355" 
d="M1085 0l-77 383h-674l-221 -383h-187l809 1376q-108 51 -108 189q0 110 74.5 185t189.5 75q103 0 161 -58t58 -155q0 -82 -43 -146.5t-117 -93.5l295 -1372h-160zM883 1745q-78 0 -124 -52t-46 -124q0 -64 36.5 -99.5t104.5 -35.5q78 0 124 52t46 122q0 65 -36.5 101
t-104.5 36zM416 528h561l-146 723z" />
    <glyph glyph-name="AE" unicode="&#xc6;" horiz-adv-x="1906" 
d="M1962 1284h-582l-80 -412h529l-27 -147h-530l-113 -575h592l-29 -150h-669h-78l74 383h-586l-328 -383h-209l1241 1434h242h582zM588 528h489l144 742z" />
    <glyph glyph-name="Ccedilla" unicode="&#xc7;" horiz-adv-x="1419" 
d="M961 1305q-148 0 -274.5 -53.5t-211.5 -144.5t-132.5 -212t-47.5 -256q0 -239 136 -374.5t374 -135.5q116 0 208.5 33t192.5 96l86 -133q-228 -156 -501 -156h-21l-33 -51q30 -11 48.5 -19.5t40.5 -24t33 -37.5t11 -50q0 -38 -22 -70t-64.5 -58.5t-82.5 -45t-98 -42.5
q-9 -3 -13 -5l-25 53q94 43 136 72.5t42 64.5q0 26 -30.5 44t-91.5 32l84 141q-270 26 -425 203.5t-155 460.5q0 173 61 324.5t169.5 262.5t268 175.5t347.5 64.5q286 0 497 -161l-100 -134q-190 136 -407 136z" />
    <glyph glyph-name="Egrave" unicode="&#xc8;" horiz-adv-x="1054" 
d="M827 1522h-96l-221 245h182zM1112 1284h-641l-82 -412h592l-29 -147h-592l-112 -575h651l-29 -150h-811l281 1434h801z" />
    <glyph glyph-name="Eacute" unicode="&#xc9;" horiz-adv-x="1054" 
d="M1145 1767l-326 -245h-121l248 245h199zM59 0l281 1434h801l-29 -150h-641l-82 -412h592l-29 -147h-592l-112 -575h651l-29 -150h-811z" />
    <glyph glyph-name="Ecircumflex" unicode="&#xca;" horiz-adv-x="1054" 
d="M811 1696l-225 -174h-168l317 245h162l201 -245h-152zM1112 1284h-641l-82 -412h592l-29 -147h-592l-112 -575h651l-29 -150h-811l281 1434h801z" />
    <glyph glyph-name="Edieresis" unicode="&#xcb;" horiz-adv-x="1054" 
d="M690 1726l-41 -204h-170l41 204h170zM1085 1726l-41 -204h-170l41 204h170zM1112 1284h-641l-82 -412h592l-29 -147h-592l-112 -575h651l-29 -150h-811l281 1434h801z" />
    <glyph glyph-name="Igrave" unicode="&#xcc;" horiz-adv-x="466" 
d="M362 1767l136 -245h-97l-221 245h182zM59 0l281 1434h162l-281 -1434h-162z" />
    <glyph glyph-name="Iacute" unicode="&#xcd;" horiz-adv-x="466" 
d="M369 1522l247 245h199l-326 -245h-120zM59 0l281 1434h162l-281 -1434h-162z" />
    <glyph glyph-name="Icircumflex" unicode="&#xce;" horiz-adv-x="466" 
d="M88 1522l318 245h161l201 -245h-152l-135 174l-225 -174h-168zM59 0l281 1434h162l-281 -1434h-162z" />
    <glyph glyph-name="Idieresis" unicode="&#xcf;" horiz-adv-x="466" 
d="M150 1522l40 204h170l-41 -204h-169zM545 1522l41 204h170l-41 -204h-170zM59 0l281 1434h162l-281 -1434h-162z" />
    <glyph glyph-name="Eth" unicode="&#xd0;" horiz-adv-x="1439" 
d="M791 1434q281 0 450.5 -166t169.5 -455q0 -243 -112.5 -428t-315 -285t-463.5 -100h-436l133 684h-168l29 125h164l120 625h429zM555 150q142 0 266.5 45.5t218 129t147.5 209.5t54 277q0 224 -127.5 348.5t-339.5 124.5h-280l-95 -475h342l-28 -125h-338l-105 -534h285z
" />
    <glyph glyph-name="Ntilde" unicode="&#xd1;" horiz-adv-x="1415" 
d="M1108 1542q-51 0 -111.5 25t-114 50t-87.5 25q-70 0 -131 -88l-64 21q83 190 219 190q51 0 111.5 -25t114 -50t88.5 -25q71 0 129 88l65 -20q-83 -191 -219 -191zM59 0l279 1434h168l553 -1180h4l227 1180h160l-279 -1434h-167l-553 1182h-2l-230 -1182h-160z" />
    <glyph glyph-name="Ograve" unicode="&#xd2;" horiz-adv-x="1701" 
d="M915 1767l136 -245h-97l-221 245h182zM840 -31q-209 0 -370.5 82.5t-252 237.5t-90.5 360q0 168 60 317.5t167 259.5t263 174t339 64q210 0 371.5 -82.5t251.5 -237.5t90 -360q0 -168 -60 -317.5t-167 -259.5t-263 -174t-339 -64zM844 127q150 0 275 53.5t207 145.5
t127.5 213t45.5 256q0 156 -73 273.5t-196.5 178t-277.5 60.5q-120 0 -224.5 -35t-182.5 -97t-134.5 -145.5t-85 -183t-28.5 -207.5q0 -155 73.5 -273t197 -178.5t276.5 -60.5z" />
    <glyph glyph-name="Oacute" unicode="&#xd3;" horiz-adv-x="1701" 
d="M922 1522l247 245h199l-326 -245h-120zM840 -31q-209 0 -370.5 82.5t-252 237.5t-90.5 360q0 168 60 317.5t167 259.5t263 174t339 64q210 0 371.5 -82.5t251.5 -237.5t90 -360q0 -168 -60 -317.5t-167 -259.5t-263 -174t-339 -64zM844 127q150 0 275 53.5t207 145.5
t127.5 213t45.5 256q0 156 -73 273.5t-196.5 178t-277.5 60.5q-120 0 -224.5 -35t-182.5 -97t-134.5 -145.5t-85 -183t-28.5 -207.5q0 -155 73.5 -273t197 -178.5t276.5 -60.5z" />
    <glyph glyph-name="Ocircumflex" unicode="&#xd4;" horiz-adv-x="1701" 
d="M641 1522l317 245h162l201 -245h-152l-135 174l-225 -174h-168zM840 -31q-209 0 -370.5 82.5t-252 237.5t-90.5 360q0 168 60 317.5t167 259.5t263 174t339 64q210 0 371.5 -82.5t251.5 -237.5t90 -360q0 -168 -60 -317.5t-167 -259.5t-263 -174t-339 -64zM844 127
q150 0 275 53.5t207 145.5t127.5 213t45.5 256q0 156 -73 273.5t-196.5 178t-277.5 60.5q-120 0 -224.5 -35t-182.5 -97t-134.5 -145.5t-85 -183t-28.5 -207.5q0 -155 73.5 -273t197 -178.5t276.5 -60.5z" />
    <glyph glyph-name="Otilde" unicode="&#xd5;" horiz-adv-x="1701" 
d="M1184 1542q-51 0 -112 25t-114.5 50t-87.5 25q-70 0 -131 -88l-63 21q83 190 219 190q51 0 111.5 -25t113.5 -50t88 -25q71 0 129 88l66 -20q-83 -191 -219 -191zM840 -31q-209 0 -370.5 82.5t-252 237.5t-90.5 360q0 168 60 317.5t167 259.5t263 174t339 64
q210 0 371.5 -82.5t251.5 -237.5t90 -360q0 -168 -60 -317.5t-167 -259.5t-263 -174t-339 -64zM844 127q150 0 275 53.5t207 145.5t127.5 213t45.5 256q0 156 -73 273.5t-196.5 178t-277.5 60.5q-120 0 -224.5 -35t-182.5 -97t-134.5 -145.5t-85 -183t-28.5 -207.5
q0 -155 73.5 -273t197 -178.5t276.5 -60.5z" />
    <glyph glyph-name="Odieresis" unicode="&#xd6;" horiz-adv-x="1701" 
d="M702 1522l41 204h170l-41 -204h-170zM1098 1522l41 204h170l-41 -204h-170zM840 -31q-209 0 -370.5 82.5t-252 237.5t-90.5 360q0 168 60 317.5t167 259.5t263 174t339 64q210 0 371.5 -82.5t251.5 -237.5t90 -360q0 -168 -60 -317.5t-167 -259.5t-263 -174t-339 -64z
M844 127q150 0 275 53.5t207 145.5t127.5 213t45.5 256q0 156 -73 273.5t-196.5 178t-277.5 60.5q-120 0 -224.5 -35t-182.5 -97t-134.5 -145.5t-85 -183t-28.5 -207.5q0 -155 73.5 -273t197 -178.5t276.5 -60.5z" />
    <glyph glyph-name="multiply" unicode="&#xd7;" 
d="M1016 1047l59 -60l-377 -377l377 -377l-59 -57l-375 375l-377 -377l-61 62l377 376l-375 375l57 60l377 -377z" />
    <glyph glyph-name="Oslash" unicode="&#xd8;" horiz-adv-x="1701" 
d="M1481 1272q188 -188 188 -488q0 -168 -60 -317.5t-167 -259.5t-263 -174t-339 -64q-276 0 -463 142l-137 -144l-52 45l136 144q-197 184 -197 493q0 168 60 317.5t167 259.5t263 174t339 64q282 0 471 -147l140 145l51 -45zM297 639q0 -223 143 -360l873 915
q-151 113 -361 113q-120 0 -224.5 -35t-182.5 -97t-134.5 -145.5t-85 -183t-28.5 -207.5zM844 127q150 0 275 53.5t207 145.5t127.5 213t45.5 256q0 216 -135 354l-870 -916q142 -106 350 -106z" />
    <glyph glyph-name="Ugrave" unicode="&#xd9;" horiz-adv-x="1411" 
d="M829 1767l136 -245h-97l-221 245h182zM1458 1434l-176 -895q-51 -269 -211 -419.5t-430 -150.5q-238 0 -368 118.5t-130 330.5q0 64 17 157l168 859h166l-170 -883q-13 -63 -13 -111q0 -145 90 -226t254 -81q189 0 306.5 109t156.5 309l174 883h166z" />
    <glyph glyph-name="Uacute" unicode="&#xda;" horiz-adv-x="1411" 
d="M834 1522l247 245h199l-326 -245h-120zM1458 1434l-176 -895q-51 -269 -211 -419.5t-430 -150.5q-238 0 -368 118.5t-130 330.5q0 64 17 157l168 859h166l-170 -883q-13 -63 -13 -111q0 -145 90 -226t254 -81q189 0 306.5 109t156.5 309l174 883h166z" />
    <glyph glyph-name="Ucircumflex" unicode="&#xdb;" horiz-adv-x="1411" 
d="M553 1522l317 245h162l201 -245h-152l-135 174l-225 -174h-168zM1458 1434l-176 -895q-51 -269 -211 -419.5t-430 -150.5q-238 0 -368 118.5t-130 330.5q0 64 17 157l168 859h166l-170 -883q-13 -63 -13 -111q0 -145 90 -226t254 -81q189 0 306.5 109t156.5 309l174 883
h166z" />
    <glyph glyph-name="Udieresis" unicode="&#xdc;" horiz-adv-x="1411" 
d="M616 1522l41 204h170l-41 -204h-170zM1012 1522l41 204h170l-41 -204h-170zM1458 1434l-176 -895q-51 -269 -211 -419.5t-430 -150.5q-238 0 -368 118.5t-130 330.5q0 64 17 157l168 859h166l-170 -883q-13 -63 -13 -111q0 -145 90 -226t254 -81q189 0 306.5 109
t156.5 309l174 883h166z" />
    <glyph glyph-name="Yacute" unicode="&#xdd;" horiz-adv-x="1093" 
d="M1116 1767l-325 -245h-121l248 245h198zM1272 1434l-629 -871l-108 -563h-160l108 561l-288 873h176l209 -715h4l491 715h197z" />
    <glyph glyph-name="Thorn" unicode="&#xde;" horiz-adv-x="1171" 
d="M729 1135q196 0 304 -106.5t108 -272.5q0 -204 -146 -335.5t-401 -131.5h-320l-55 -289h-160l279 1434h160l-60 -299h291zM625 438q159 0 252.5 81t93.5 226q0 118 -69.5 179t-186.5 61h-305l-107 -547h322z" />
    <glyph glyph-name="germandbls" unicode="&#xdf;" horiz-adv-x="1153" 
d="M729 811q165 -12 253.5 -100t88.5 -250q0 -220 -159.5 -345.5t-442.5 -125.5h-139l26 139h105q216 0 334 81t118 247q0 147 -97 213.5t-294 66.5l25 129q168 0 268 67t100 195q0 96 -56 144.5t-154 48.5q-111 0 -190 -65t-107 -205l-261 -1317h-147l254 1310
q39 203 154 311.5t307 108.5q173 0 264.5 -89.5t91.5 -221.5q0 -130 -89.5 -224t-252.5 -114v-4z" />
    <glyph glyph-name="agrave" unicode="&#xe0;" horiz-adv-x="1200" 
d="M618 1448l134 -315h-109l-211 315h186zM498 -31q-190 0 -308 126t-118 329q0 236 150 394.5t374 158.5q137 0 236.5 -60t140.5 -169h4l39 198h147l-182 -946h-150l31 154h-4q-144 -185 -360 -185zM547 111q170 0 281.5 116t111.5 291q0 145 -87.5 231.5t-236.5 86.5
q-164 0 -275.5 -118.5t-111.5 -293.5q0 -143 86 -228t232 -85z" />
    <glyph glyph-name="aacute" unicode="&#xe1;" horiz-adv-x="1200" 
d="M633 1133l262 315h209l-344 -315h-127zM498 -31q-190 0 -308 126t-118 329q0 236 150 394.5t374 158.5q137 0 236.5 -60t140.5 -169h4l39 198h147l-182 -946h-150l31 154h-4q-144 -185 -360 -185zM547 111q170 0 281.5 116t111.5 291q0 145 -87.5 231.5t-236.5 86.5
q-164 0 -275.5 -118.5t-111.5 -293.5q0 -143 86 -228t232 -85z" />
    <glyph glyph-name="acircumflex" unicode="&#xe2;" horiz-adv-x="1200" 
d="M322 1133l325 315h156l198 -315h-145l-137 227l-234 -227h-163zM498 -31q-190 0 -308 126t-118 329q0 236 150 394.5t374 158.5q137 0 236.5 -60t140.5 -169h4l39 198h147l-182 -946h-150l31 154h-4q-144 -185 -360 -185zM547 111q170 0 281.5 116t111.5 291
q0 145 -87.5 231.5t-236.5 86.5q-164 0 -275.5 -118.5t-111.5 -293.5q0 -143 86 -228t232 -85z" />
    <glyph glyph-name="atilde" unicode="&#xe3;" horiz-adv-x="1200" 
d="M866 1200q-52 0 -112.5 28t-113.5 55.5t-87 27.5q-70 0 -131 -94l-64 20q84 197 220 197q51 0 111.5 -28t113.5 -55.5t88 -27.5q68 0 129 94l63 -22q-17 -41 -35.5 -72t-44.5 -61t-61 -46t-76 -16zM498 -31q-190 0 -308 126t-118 329q0 236 150 394.5t374 158.5
q137 0 236.5 -60t140.5 -169h4l39 198h147l-182 -946h-150l31 154h-4q-144 -185 -360 -185zM547 111q170 0 281.5 116t111.5 291q0 145 -87.5 231.5t-236.5 86.5q-164 0 -275.5 -118.5t-111.5 -293.5q0 -143 86 -228t232 -85z" />
    <glyph glyph-name="adieresis" unicode="&#xe4;" horiz-adv-x="1200" 
d="M414 1176l45 237h164l-45 -237h-164zM795 1176l47 237h162l-46 -237h-163zM498 -31q-190 0 -308 126t-118 329q0 236 150 394.5t374 158.5q137 0 236.5 -60t140.5 -169h4l39 198h147l-182 -946h-150l31 154h-4q-144 -185 -360 -185zM547 111q170 0 281.5 116t111.5 291
q0 145 -87.5 231.5t-236.5 86.5q-164 0 -275.5 -118.5t-111.5 -293.5q0 -143 86 -228t232 -85z" />
    <glyph glyph-name="aring" unicode="&#xe5;" horiz-adv-x="1200" 
d="M715 1530q103 0 166 -62.5t63 -160.5q0 -105 -71.5 -180.5t-186.5 -75.5q-104 0 -166.5 62.5t-62.5 160.5q0 106 71 181t187 75zM713 1450q-81 0 -125.5 -51t-44.5 -123q0 -67 38.5 -106.5t106.5 -39.5q80 0 125 52t45 123q0 66 -39 105.5t-106 39.5zM498 -31
q-190 0 -308 126t-118 329q0 236 150 394.5t374 158.5q137 0 236.5 -60t140.5 -169h4l39 198h147l-182 -946h-150l31 154h-4q-144 -185 -360 -185zM547 111q170 0 281.5 116t111.5 291q0 145 -87.5 231.5t-236.5 86.5q-164 0 -275.5 -118.5t-111.5 -293.5q0 -143 86 -228
t232 -85z" />
    <glyph glyph-name="ae" unicode="&#xe6;" horiz-adv-x="1777" 
d="M385 -31q-166 0 -267.5 84t-101.5 232q0 155 112.5 257.5t301.5 102.5q228 0 328 -158h2q31 127 31 183q0 172 -222 172q-145 0 -331 -47l-31 133q208 49 371 49q304 0 323 -217h4q60 103 168.5 160t243.5 57q187 0 289 -103.5t102 -277.5q0 -47 -16 -145h-783
q-6 -30 -6 -64q0 -116 72.5 -195t218.5 -79q116 0 198.5 44t157.5 119l92 -106q-196 -201 -448 -201q-151 0 -253.5 71.5t-129.5 184.5h-4q-63 -126 -171 -191t-251 -65zM938 565h612q2 14 2 41q0 109 -65.5 172.5t-194.5 63.5q-128 0 -221.5 -72t-132.5 -205zM414 100
q135 0 218 70.5t83 163.5q0 88 -70 135t-180 47q-131 0 -214 -63.5t-83 -163.5q0 -87 67.5 -138t178.5 -51z" />
    <glyph glyph-name="ccedilla" unicode="&#xe7;" horiz-adv-x="1003" 
d="M621 836q-168 0 -278 -111.5t-110 -280.5q0 -149 93 -241t237 -92q123 0 258 77l66 -127q-160 -92 -322 -92l-33 -51q31 -11 49 -19.5t40.5 -24t33.5 -37.5t11 -50q0 -25 -8.5 -47.5t-34 -44t-40.5 -34.5t-59 -34t-58 -27t-67 -28q-9 -4 -14 -6l-25 53q94 44 136.5 73
t42.5 64q0 26 -31 43.5t-92 32.5l84 139q-195 19 -309.5 145.5t-114.5 323.5q0 236 154 386.5t399 150.5q207 0 372 -123l-86 -121q-140 103 -294 103z" />
    <glyph glyph-name="egrave" unicode="&#xe8;" horiz-adv-x="1112" 
d="M743 1133h-108l-211 315h186zM1032 453h-813q-2 -10 -2 -33q0 -151 78 -229t227 -78q109 0 195 42t170 124l92 -111q-102 -96 -210 -147.5t-249 -51.5q-211 0 -330.5 116t-119.5 323q0 246 157.5 407.5t403.5 161.5q198 0 308 -106.5t110 -282.5q0 -42 -17 -135zM623 846
q-142 0 -243 -76t-140 -203h657q2 10 2 31q0 115 -72 181.5t-204 66.5z" />
    <glyph glyph-name="eacute" unicode="&#xe9;" horiz-adv-x="1112" 
d="M1096 1448l-344 -315h-127l262 315h209zM631 977q198 0 308 -106.5t110 -282.5q0 -42 -17 -135h-813q-2 -10 -2 -33q0 -151 78 -229t227 -78q109 0 195 42t170 124l92 -111q-102 -96 -210 -147.5t-249 -51.5q-211 0 -330.5 116t-119.5 323q0 246 157.5 407.5t403.5 161.5
zM897 567q2 10 2 31q0 115 -72 181.5t-204 66.5q-142 0 -243 -76t-140 -203h657z" />
    <glyph glyph-name="ecircumflex" unicode="&#xea;" horiz-adv-x="1112" 
d="M711 1360l-234 -227h-164l326 315h156l198 -315h-145zM1032 453h-813q-2 -10 -2 -33q0 -151 78 -229t227 -78q109 0 195 42t170 124l92 -111q-102 -96 -210 -147.5t-249 -51.5q-211 0 -330.5 116t-119.5 323q0 246 157.5 407.5t403.5 161.5q198 0 308 -106.5t110 -282.5
q0 -42 -17 -135zM623 846q-142 0 -243 -76t-140 -203h657q2 10 2 31q0 115 -72 181.5t-204 66.5z" />
    <glyph glyph-name="edieresis" unicode="&#xeb;" horiz-adv-x="1112" 
d="M614 1413l-45 -237h-163l45 237h163zM995 1413l-45 -237h-164l48 237h161zM1032 453h-813q-2 -10 -2 -33q0 -151 78 -229t227 -78q109 0 195 42t170 124l92 -111q-102 -96 -210 -147.5t-249 -51.5q-211 0 -330.5 116t-119.5 323q0 246 157.5 407.5t403.5 161.5
q198 0 308 -106.5t110 -282.5q0 -42 -17 -135zM623 846q-142 0 -243 -76t-140 -203h657q2 10 2 31q0 115 -72 181.5t-204 66.5z" />
    <glyph glyph-name="igrave" unicode="&#xec;" horiz-adv-x="415" 
d="M332 1448l59 -315h-115l-88 315h144zM41 0l184 946h150l-185 -946h-149z" />
    <glyph glyph-name="iacute" unicode="&#xed;" horiz-adv-x="415" 
d="M276 1133l181 315h168l-217 -315h-132zM41 0l184 946h150l-185 -946h-149z" />
    <glyph glyph-name="icircumflex" unicode="&#xee;" horiz-adv-x="415" 
d="M80 1133l227 315h156l100 -315h-129l-55 235l-154 -235h-145zM41 0l184 946h150l-185 -946h-149z" />
    <glyph glyph-name="idieresis" unicode="&#xef;" horiz-adv-x="415" 
d="M139 1176l45 237h164l-45 -237h-164zM393 1176l45 237h164l-47 -237h-162zM41 0l184 946h150l-185 -946h-149z" />
    <glyph glyph-name="eth" unicode="&#xf0;" horiz-adv-x="1232" 
d="M967 1360q209 -186 209 -565q0 -170 -32.5 -309t-90 -234t-137 -159.5t-171 -94t-194.5 -29.5q-218 0 -346.5 132t-128.5 341q0 149 65.5 270.5t186.5 193t274 71.5q106 0 192 -34t147.5 -111t78.5 -191h4q10 63 10 176q0 304 -184 459l-236 -172l-47 65l215 156
q-130 77 -317 107l39 122q251 -44 397 -143l207 148l43 -66zM561 115q179 0 289.5 114t110.5 281q0 147 -90.5 234t-243.5 87q-97 0 -174 -33.5t-124 -89.5t-71.5 -124.5t-24.5 -143.5q0 -150 89.5 -237.5t238.5 -87.5z" />
    <glyph glyph-name="ntilde" unicode="&#xf1;" horiz-adv-x="1103" 
d="M874 1200q-52 0 -112.5 28t-113.5 55.5t-87 27.5q-70 0 -131 -94l-63 20q84 197 219 197q51 0 111.5 -28t113.5 -55.5t88 -27.5q68 0 129 94l64 -22q-37 -87 -88.5 -141t-129.5 -54zM35 0l184 946h150l-37 -182h4q67 110 155.5 161.5t208.5 51.5q148 0 228 -79.5
t80 -223.5q0 -56 -15 -152l-102 -522h-150l99 508q12 58 12 123q0 205 -215 205q-292 0 -369 -400l-84 -436h-149z" />
    <glyph glyph-name="ograve" unicode="&#xf2;" horiz-adv-x="1173" 
d="M621 1448l133 -315h-109l-211 315h187zM537 -31q-213 0 -340 118.5t-127 326.5q0 156 72.5 284.5t203 203.5t293.5 75q212 0 338.5 -118.5t126.5 -326.5q0 -156 -72 -284.5t-202.5 -203.5t-292.5 -75zM549 115q174 0 285.5 119.5t111.5 293.5q0 141 -86 222t-235 81
q-174 0 -286 -120t-112 -293q0 -141 86.5 -222t235.5 -81z" />
    <glyph glyph-name="oacute" unicode="&#xf3;" horiz-adv-x="1173" 
d="M637 1133l262 315h209l-344 -315h-127zM537 -31q-213 0 -340 118.5t-127 326.5q0 156 72.5 284.5t203 203.5t293.5 75q212 0 338.5 -118.5t126.5 -326.5q0 -156 -72 -284.5t-202.5 -203.5t-292.5 -75zM549 115q174 0 285.5 119.5t111.5 293.5q0 141 -86 222t-235 81
q-174 0 -286 -120t-112 -293q0 -141 86.5 -222t235.5 -81z" />
    <glyph glyph-name="ocircumflex" unicode="&#xf4;" horiz-adv-x="1173" 
d="M324 1133l325 315h156l199 -315h-146l-137 227l-234 -227h-163zM537 -31q-213 0 -340 118.5t-127 326.5q0 156 72.5 284.5t203 203.5t293.5 75q212 0 338.5 -118.5t126.5 -326.5q0 -156 -72 -284.5t-202.5 -203.5t-292.5 -75zM549 115q174 0 285.5 119.5t111.5 293.5
q0 141 -86 222t-235 81q-174 0 -286 -120t-112 -293q0 -141 86.5 -222t235.5 -81z" />
    <glyph glyph-name="otilde" unicode="&#xf5;" horiz-adv-x="1173" 
d="M868 1200q-52 0 -112.5 28t-113.5 55.5t-87 27.5q-70 0 -131 -94l-64 20q84 197 220 197q51 0 111.5 -28t113.5 -55.5t88 -27.5q68 0 129 94l63 -22q-17 -41 -35.5 -72t-44.5 -61t-61 -46t-76 -16zM537 -31q-213 0 -340 118.5t-127 326.5q0 156 72.5 284.5t203 203.5
t293.5 75q212 0 338.5 -118.5t126.5 -326.5q0 -156 -72 -284.5t-202.5 -203.5t-292.5 -75zM549 115q174 0 285.5 119.5t111.5 293.5q0 141 -86 222t-235 81q-174 0 -286 -120t-112 -293q0 -141 86.5 -222t235.5 -81z" />
    <glyph glyph-name="odieresis" unicode="&#xf6;" horiz-adv-x="1173" 
d="M418 1176l45 237h164l-45 -237h-164zM799 1176l47 237h162l-45 -237h-164zM537 -31q-213 0 -340 118.5t-127 326.5q0 156 72.5 284.5t203 203.5t293.5 75q212 0 338.5 -118.5t126.5 -326.5q0 -156 -72 -284.5t-202.5 -203.5t-292.5 -75zM549 115q174 0 285.5 119.5
t111.5 293.5q0 141 -86 222t-235 81q-174 0 -286 -120t-112 -293q0 -141 86.5 -222t235.5 -81z" />
    <glyph glyph-name="divide" unicode="&#xf7;" 
d="M711 1004v-160h-140v160h140zM1171 651v-80h-1060v80h1060zM711 379v-162h-140v162h140z" />
    <glyph glyph-name="oslash" unicode="&#xf8;" horiz-adv-x="1173" 
d="M1106 932l-105 -98q103 -115 103 -302q0 -156 -72 -284.5t-202.5 -203.5t-292.5 -75q-212 0 -336 115l-119 -113l-43 43l121 115q-90 114 -90 285q0 156 72.5 284.5t203 203.5t293.5 75q196 0 317 -100l105 100zM227 418q0 -104 49 -178l564 528q-85 63 -215 63
q-174 0 -286 -120t-112 -293zM946 528q0 117 -61 197l-568 -532q84 -78 232 -78q174 0 285.5 119.5t111.5 293.5z" />
    <glyph glyph-name="ugrave" unicode="&#xf9;" horiz-adv-x="1071" 
d="M578 1448l133 -315h-109l-211 315h187zM387 -31q-145 0 -225 78t-80 215q0 60 16 141l107 543h153l-104 -534q-12 -55 -12 -105q0 -95 51.5 -143.5t150.5 -48.5q277 0 355 403l84 428h151l-184 -946h-148l35 176h-4q-127 -207 -346 -207z" />
    <glyph glyph-name="uacute" unicode="&#xfa;" horiz-adv-x="1071" 
d="M594 1133l262 315h209l-344 -315h-127zM387 -31q-145 0 -225 78t-80 215q0 60 16 141l107 543h153l-104 -534q-12 -55 -12 -105q0 -95 51.5 -143.5t150.5 -48.5q277 0 355 403l84 428h151l-184 -946h-148l35 176h-4q-127 -207 -346 -207z" />
    <glyph glyph-name="ucircumflex" unicode="&#xfb;" horiz-adv-x="1071" 
d="M281 1133l325 315h156l199 -315h-146l-137 227l-234 -227h-163zM387 -31q-145 0 -225 78t-80 215q0 60 16 141l107 543h153l-104 -534q-12 -55 -12 -105q0 -95 51.5 -143.5t150.5 -48.5q277 0 355 403l84 428h151l-184 -946h-148l35 176h-4q-127 -207 -346 -207z" />
    <glyph glyph-name="udieresis" unicode="&#xfc;" horiz-adv-x="1071" 
d="M375 1176l45 237h164l-45 -237h-164zM756 1176l47 237h162l-45 -237h-164zM387 -31q-145 0 -225 78t-80 215q0 60 16 141l107 543h153l-104 -534q-12 -55 -12 -105q0 -95 51.5 -143.5t150.5 -48.5q277 0 355 403l84 428h151l-184 -946h-148l35 176h-4
q-127 -207 -346 -207z" />
    <glyph glyph-name="yacute" unicode="&#xfd;" horiz-adv-x="940" 
d="M997 1448l-344 -315h-127l262 315h209zM844 946h168l-838 -1358h-160l324 525l-227 833h159l166 -676z" />
    <glyph glyph-name="thorn" unicode="&#xfe;" horiz-adv-x="1212" 
d="M723 977q188 0 304 -120.5t116 -317.5q0 -164 -72.5 -295t-196 -203t-272.5 -72q-133 0 -227 59.5t-133 159.5h-6l-117 -600h-148l262 1358l95 488h149l-94 -488l-29 -149h4q68 86 162 133t203 47zM580 111q173 0 289 122t116 304q0 136 -80.5 217.5t-220.5 81.5
q-175 0 -292.5 -122t-117.5 -304q0 -136 82.5 -217.5t223.5 -81.5z" />
    <glyph glyph-name="ydieresis" unicode="&#xff;" horiz-adv-x="940" 
d="M516 1413l-45 -237h-164l45 237h164zM897 1413l-45 -237h-164l47 237h162zM844 946h168l-838 -1358h-160l324 525l-227 833h159l166 -676z" />
    <glyph glyph-name="Amacron" unicode="&#x100;" horiz-adv-x="1355" 
d="M1174 1686l-23 -113h-578l23 113h578zM1085 0l-77 383h-674l-221 -383h-187l844 1434h168l307 -1434h-160zM416 528h561l-146 723z" />
    <glyph glyph-name="amacron" unicode="&#x101;" horiz-adv-x="1200" 
d="M1006 1346l-23 -113h-577l22 113h578zM498 -31q-190 0 -308 126t-118 329q0 236 150 394.5t374 158.5q137 0 236.5 -60t140.5 -169h4l39 198h147l-182 -946h-150l31 154h-4q-144 -185 -360 -185zM547 111q170 0 281.5 116t111.5 291q0 145 -87.5 231.5t-236.5 86.5
q-164 0 -275.5 -118.5t-111.5 -293.5q0 -143 86 -228t232 -85z" />
    <glyph glyph-name="Abreve" unicode="&#x102;" horiz-adv-x="1355" 
d="M874 1522q-109 0 -171 51.5t-62 144.5q0 13 4 49h100q0 -7 -1 -17t-1 -13q0 -54 37 -83.5t107 -29.5q150 0 200 143h111q-29 -115 -115.5 -180t-208.5 -65zM1085 0l-77 383h-674l-221 -383h-187l844 1434h168l307 -1434h-160zM416 528h561l-146 723z" />
    <glyph glyph-name="abreve" unicode="&#x103;" horiz-adv-x="1200" 
d="M1026 1430q-25 -137 -107 -214t-212 -77q-109 0 -176.5 56.5t-67.5 156.5q0 42 8 78h98q-6 -24 -6 -52q0 -65 38 -102t108 -37q89 0 137.5 49.5t68.5 141.5h111zM498 -31q-190 0 -308 126t-118 329q0 236 150 394.5t374 158.5q137 0 236.5 -60t140.5 -169h4l39 198h147
l-182 -946h-150l31 154h-4q-144 -185 -360 -185zM547 111q170 0 281.5 116t111.5 291q0 145 -87.5 231.5t-236.5 86.5q-164 0 -275.5 -118.5t-111.5 -293.5q0 -143 86 -228t232 -85z" />
    <glyph glyph-name="Aogonek" unicode="&#x104;" horiz-adv-x="1355" 
d="M1053 -279q38 0 92 15l2 -101q-56 -20 -123 -20q-76 0 -125 33t-49 96q0 133 229 287l-71 352h-674l-221 -383h-187l844 1434h168l307 -1434h-92q-176 -141 -176 -223q0 -56 76 -56zM416 528h561l-146 723z" />
    <glyph glyph-name="aogonek" unicode="&#x105;" horiz-adv-x="1200" 
d="M899 0q-176 -141 -176 -223q0 -56 76 -56q38 0 92 15l2 -101q-56 -20 -123 -20q-76 0 -125 33t-49 96q0 137 244 297l22 113h-4q-144 -185 -360 -185q-190 0 -308 126t-118 329q0 236 150 394.5t374 158.5q137 0 236.5 -60t140.5 -169h4l39 198h147l-182 -946h-82z
M547 111q170 0 281.5 116t111.5 291q0 145 -87.5 231.5t-236.5 86.5q-164 0 -275.5 -118.5t-111.5 -293.5q0 -143 86 -228t232 -85z" />
    <glyph glyph-name="Cacute" unicode="&#x106;" horiz-adv-x="1419" 
d="M922 1522l247 245h199l-326 -245h-120zM791 -31q-308 0 -487 181t-179 487q0 173 61 324.5t169.5 262.5t268 175.5t347.5 64.5q286 0 497 -161l-100 -134q-190 136 -407 136q-148 0 -274.5 -53.5t-211.5 -144.5t-132.5 -212t-47.5 -256q0 -239 136 -374.5t374 -135.5
q116 0 208.5 33t192.5 96l86 -133q-228 -156 -501 -156z" />
    <glyph glyph-name="cacute" unicode="&#x107;" horiz-adv-x="1003" 
d="M625 1133l262 315h209l-344 -315h-127zM561 -31q-221 0 -353 129t-132 342q0 236 154 386.5t399 150.5q207 0 372 -123l-86 -121q-140 103 -294 103q-168 0 -278 -111.5t-110 -280.5q0 -149 93 -241t237 -92q123 0 258 77l66 -127q-159 -92 -326 -92z" />
    <glyph glyph-name="Ccircumflex" unicode="&#x108;" horiz-adv-x="1419" 
d="M641 1522l317 245h162l201 -245h-152l-135 174l-225 -174h-168zM791 -31q-308 0 -487 181t-179 487q0 173 61 324.5t169.5 262.5t268 175.5t347.5 64.5q286 0 497 -161l-100 -134q-190 136 -407 136q-148 0 -274.5 -53.5t-211.5 -144.5t-132.5 -212t-47.5 -256
q0 -239 136 -374.5t374 -135.5q116 0 208.5 33t192.5 96l86 -133q-228 -156 -501 -156z" />
    <glyph glyph-name="ccircumflex" unicode="&#x109;" horiz-adv-x="1003" 
d="M313 1133l326 315h156l198 -315h-145l-137 227l-234 -227h-164zM561 -31q-221 0 -353 129t-132 342q0 236 154 386.5t399 150.5q207 0 372 -123l-86 -121q-140 103 -294 103q-168 0 -278 -111.5t-110 -280.5q0 -149 93 -241t237 -92q123 0 258 77l66 -127
q-159 -92 -326 -92z" />
    <glyph glyph-name="Cdotaccent" unicode="&#x10a;" horiz-adv-x="1419" 
d="M1120 1741l-43 -219h-170l43 219h170zM791 -31q-308 0 -487 181t-179 487q0 173 61 324.5t169.5 262.5t268 175.5t347.5 64.5q286 0 497 -161l-100 -134q-190 136 -407 136q-148 0 -274.5 -53.5t-211.5 -144.5t-132.5 -212t-47.5 -256q0 -239 136 -374.5t374 -135.5
q116 0 208.5 33t192.5 96l86 -133q-228 -156 -501 -156z" />
    <glyph glyph-name="cdotaccent" unicode="&#x10b;" horiz-adv-x="1003" 
d="M829 1413l-49 -246h-186l47 246h188zM561 -31q-221 0 -353 129t-132 342q0 236 154 386.5t399 150.5q207 0 372 -123l-86 -121q-140 103 -294 103q-168 0 -278 -111.5t-110 -280.5q0 -149 93 -241t237 -92q123 0 258 77l66 -127q-159 -92 -326 -92z" />
    <glyph glyph-name="Ccaron" unicode="&#x10c;" horiz-adv-x="1419" 
d="M915 1522l-198 245h143l137 -174l226 174h174l-324 -245h-158zM791 -31q-308 0 -487 181t-179 487q0 173 61 324.5t169.5 262.5t268 175.5t347.5 64.5q286 0 497 -161l-100 -134q-190 136 -407 136q-148 0 -274.5 -53.5t-211.5 -144.5t-132.5 -212t-47.5 -256
q0 -239 136 -374.5t374 -135.5q116 0 208.5 33t192.5 96l86 -133q-228 -156 -501 -156z" />
    <glyph glyph-name="ccaron" unicode="&#x10d;" horiz-adv-x="1003" 
d="M588 1116l-199 316h143l140 -230l231 230h166l-326 -316h-155zM561 -31q-221 0 -353 129t-132 342q0 236 154 386.5t399 150.5q207 0 372 -123l-86 -121q-140 103 -294 103q-168 0 -278 -111.5t-110 -280.5q0 -149 93 -241t237 -92q123 0 258 77l66 -127
q-159 -92 -326 -92z" />
    <glyph glyph-name="Dcaron" unicode="&#x10e;" horiz-adv-x="1415" 
d="M700 1522l-198 245h143l137 -174l226 174h174l-324 -245h-158zM59 0l281 1434h428q280 0 450.5 -166.5t170.5 -454.5q0 -243 -112.5 -428t-315 -285t-463.5 -100h-439zM248 150h284q142 0 266.5 45.5t218 129t148 209.5t54.5 277q0 224 -128 348.5t-339 124.5h-281z" />
    <glyph glyph-name="dcaron" unicode="&#x10f;" horiz-adv-x="1396" 
d="M1386 1464h187l-35 -186l-203 -242h-65l151 242h-71zM977 748l131 686h149l-276 -1434h-150l31 154h-4q-144 -185 -360 -185q-190 0 -308 126t-118 329q0 236 150 394.5t374 158.5q137 0 236.5 -60t140.5 -169h4zM547 111q170 0 281.5 116t111.5 291q0 145 -87.5 231.5
t-236.5 86.5q-164 0 -275.5 -118.5t-111.5 -293.5q0 -143 86 -228t232 -85z" />
    <glyph glyph-name="Dcroat" unicode="&#x110;" horiz-adv-x="1439" 
d="M791 1434q280 0 450 -166.5t170 -454.5q0 -243 -112.5 -428t-315 -285t-463.5 -100h-438l133 684h-166l29 125h162l122 625h429zM555 150q142 0 266.5 45.5t218 129t147.5 209.5t54 277q0 224 -128 348.5t-339 124.5h-280l-95 -475h342l-28 -125h-338l-105 -534h285z" />
    <glyph glyph-name="dcroat" unicode="&#x111;" horiz-adv-x="1241" 
d="M1395 1266l-21 -97h-168l-225 -1169h-150l31 154h-4q-144 -185 -360 -185q-190 0 -308 126t-118 329q0 236 150 394.5t374 158.5q137 0 236.5 -60t140.5 -169h4l82 421h-303l20 97h301l31 168h149l-32 -168h170zM547 111q170 0 281.5 116t111.5 291q0 145 -87.5 231.5
t-236.5 86.5q-164 0 -275.5 -118.5t-111.5 -293.5q0 -143 86 -228t232 -85z" />
    <glyph glyph-name="Emacron" unicode="&#x112;" horiz-adv-x="1054" 
d="M1071 1686l-22 -113h-578l23 113h577zM1112 1284h-641l-82 -412h592l-29 -147h-592l-112 -575h651l-29 -150h-811l281 1434h801z" />
    <glyph glyph-name="emacron" unicode="&#x113;" horiz-adv-x="1112" 
d="M997 1346l-22 -113h-578l23 113h577zM1032 453h-813q-2 -10 -2 -33q0 -151 78 -229t227 -78q109 0 195 42t170 124l92 -111q-102 -96 -210 -147.5t-249 -51.5q-211 0 -330.5 116t-119.5 323q0 246 157.5 407.5t403.5 161.5q198 0 308 -106.5t110 -282.5q0 -42 -17 -135z
M623 846q-142 0 -243 -76t-140 -203h657q2 10 2 31q0 115 -72 181.5t-204 66.5z" />
    <glyph glyph-name="Ebreve" unicode="&#x114;" horiz-adv-x="1054" 
d="M770 1522q-109 0 -171 51.5t-62 144.5q0 13 4 49h100q0 -7 -1 -17t-1 -13q0 -54 36.5 -83.5t106.5 -29.5q151 0 201 143h111q-29 -115 -115.5 -180t-208.5 -65zM1112 1284h-641l-82 -412h592l-29 -147h-592l-112 -575h651l-29 -150h-811l281 1434h801z" />
    <glyph glyph-name="ebreve" unicode="&#x115;" horiz-adv-x="1112" 
d="M698 1139q-109 0 -176 56.5t-67 156.5q0 42 8 78h98q-6 -24 -6 -52q0 -65 37.5 -102t107.5 -37q89 0 138 49.5t69 141.5h111q-25 -137 -107.5 -214t-212.5 -77zM1032 453h-813q-2 -10 -2 -33q0 -151 78 -229t227 -78q109 0 195 42t170 124l92 -111q-102 -96 -210 -147.5
t-249 -51.5q-211 0 -330.5 116t-119.5 323q0 246 157.5 407.5t403.5 161.5q198 0 308 -106.5t110 -282.5q0 -42 -17 -135zM623 846q-142 0 -243 -76t-140 -203h657q2 10 2 31q0 115 -72 181.5t-204 66.5z" />
    <glyph glyph-name="Edotaccent" unicode="&#x116;" horiz-adv-x="1054" 
d="M897 1741l-43 -219h-170l43 219h170zM1112 1284h-641l-82 -412h592l-29 -147h-592l-112 -575h651l-29 -150h-811l281 1434h801z" />
    <glyph glyph-name="edotaccent" unicode="&#x117;" horiz-adv-x="1112" 
d="M827 1413l-49 -246h-186l47 246h188zM1032 453h-813q-2 -10 -2 -33q0 -151 78 -229t227 -78q109 0 195 42t170 124l92 -111q-102 -96 -210 -147.5t-249 -51.5q-211 0 -330.5 116t-119.5 323q0 246 157.5 407.5t403.5 161.5q198 0 308 -106.5t110 -282.5q0 -42 -17 -135z
M623 846q-142 0 -243 -76t-140 -203h657q2 10 2 31q0 115 -72 181.5t-204 66.5z" />
    <glyph glyph-name="Eogonek" unicode="&#x118;" horiz-adv-x="1054" 
d="M1112 1284h-641l-82 -412h592l-29 -147h-592l-112 -575h651l-29 -150h-26q-176 -141 -176 -223q0 -56 75 -56q39 0 93 15l2 -101q-56 -20 -123 -20q-76 0 -125 33t-49 96q0 121 184 256h-666l281 1434h801z" />
    <glyph glyph-name="eogonek" unicode="&#x119;" horiz-adv-x="1112" 
d="M1032 453h-813q-2 -10 -2 -33q0 -151 78 -229t227 -78q109 0 195 42t170 124l92 -111q-102 -99 -215 -150q-201 -154 -201 -241q0 -56 76 -56q38 0 92 15l2 -101q-56 -20 -123 -20q-76 0 -125 33t-49 96q0 109 150 229q-40 -4 -66 -4q-211 0 -330.5 116t-119.5 323
q0 246 157.5 407.5t403.5 161.5q198 0 308 -106.5t110 -282.5q0 -42 -17 -135zM623 846q-142 0 -243 -76t-140 -203h657q2 10 2 31q0 115 -72 181.5t-204 66.5z" />
    <glyph glyph-name="Ecaron" unicode="&#x11a;" horiz-adv-x="1054" 
d="M850 1522h-158l-198 245h143l137 -174l225 174h175zM59 0l281 1434h801l-29 -150h-641l-82 -412h592l-29 -147h-592l-112 -575h651l-29 -150h-811z" />
    <glyph glyph-name="ecaron" unicode="&#x11b;" horiz-adv-x="1112" 
d="M741 1116h-155l-199 316h143l140 -230l231 230h166zM631 977q198 0 308 -106.5t110 -282.5q0 -42 -17 -135h-813q-2 -10 -2 -33q0 -151 78 -229t227 -78q109 0 195 42t170 124l92 -111q-102 -96 -210 -147.5t-249 -51.5q-211 0 -330.5 116t-119.5 323q0 246 157.5 407.5
t403.5 161.5zM897 567q2 10 2 31q0 115 -72 181.5t-204 66.5q-142 0 -243 -76t-140 -203h657z" />
    <glyph glyph-name="Gcircumflex" unicode="&#x11c;" horiz-adv-x="1650" 
d="M1051 1696l-226 -174h-168l318 245h162l200 -245h-151zM969 760h669l-10 -64q-19 -121 -56 -225t-101 -197.5t-150 -159.5t-207.5 -104.5t-267.5 -38.5q-328 0 -523.5 182.5t-195.5 499.5q0 230 104 414.5t292.5 289.5t428.5 105q352 0 588 -205l-123 -124
q-191 170 -471 170q-195 0 -344.5 -89.5t-227 -237t-77.5 -325.5q0 -245 149 -382.5t406 -137.5q109 0 199.5 26t153.5 69.5t110.5 106t75.5 130.5t45 149h-502z" />
    <glyph glyph-name="gcircumflex" unicode="&#x11d;" horiz-adv-x="1200" 
d="M336 1133l326 315h155l199 -315h-146l-137 227l-233 -227h-164zM1016 946h147l-182 -946q-44 -235 -156 -337.5t-325 -102.5q-204 0 -420 92l57 141q197 -90 367 -90q143 0 219.5 69.5t107.5 227.5l31 154h-4q-144 -185 -360 -185q-190 0 -308 126t-118 329
q0 236 150 394.5t374 158.5q137 0 236.5 -60t140.5 -169h4zM547 111q170 0 281.5 116t111.5 291q0 145 -87.5 231.5t-236.5 86.5q-164 0 -275.5 -118.5t-111.5 -293.5q0 -143 86 -228t232 -85z" />
    <glyph glyph-name="Gbreve" unicode="&#x11e;" horiz-adv-x="1650" 
d="M1010 1522q-110 0 -172 51.5t-62 144.5q0 13 4 49h101q0 -7 -1 -17t-1 -13q0 -54 36.5 -83.5t106.5 -29.5q151 0 201 143h110q-29 -115 -115 -180t-208 -65zM969 760h669l-10 -64q-19 -121 -56 -225t-101 -197.5t-150 -159.5t-207.5 -104.5t-267.5 -38.5
q-328 0 -523.5 182.5t-195.5 499.5q0 230 104 414.5t292.5 289.5t428.5 105q352 0 588 -205l-123 -124q-191 170 -471 170q-195 0 -344.5 -89.5t-227 -237t-77.5 -325.5q0 -245 149 -382.5t406 -137.5q109 0 199.5 26t153.5 69.5t110.5 106t75.5 130.5t45 149h-502z" />
    <glyph glyph-name="gbreve" unicode="&#x11f;" horiz-adv-x="1200" 
d="M1040 1430q-25 -137 -107 -214t-212 -77q-109 0 -176.5 56.5t-67.5 156.5q0 42 8 78h99q-6 -24 -6 -52q0 -65 37.5 -102t107.5 -37q89 0 138 49.5t69 141.5h110zM1016 946h147l-182 -946q-44 -235 -156 -337.5t-325 -102.5q-204 0 -420 92l57 141q197 -90 367 -90
q143 0 219.5 69.5t107.5 227.5l31 154h-4q-144 -185 -360 -185q-190 0 -308 126t-118 329q0 236 150 394.5t374 158.5q137 0 236.5 -60t140.5 -169h4zM547 111q170 0 281.5 116t111.5 291q0 145 -87.5 231.5t-236.5 86.5q-164 0 -275.5 -118.5t-111.5 -293.5q0 -143 86 -228
t232 -85z" />
    <glyph glyph-name="Gdotaccent" unicode="&#x120;" horiz-adv-x="1650" 
d="M1135 1741l-43 -219h-170l43 219h170zM969 760h669l-10 -64q-19 -121 -56 -225t-101 -197.5t-150 -159.5t-207.5 -104.5t-267.5 -38.5q-328 0 -523.5 182.5t-195.5 499.5q0 230 104 414.5t292.5 289.5t428.5 105q352 0 588 -205l-123 -124q-191 170 -471 170
q-195 0 -344.5 -89.5t-227 -237t-77.5 -325.5q0 -245 149 -382.5t406 -137.5q109 0 199.5 26t153.5 69.5t110.5 106t75.5 130.5t45 149h-502z" />
    <glyph glyph-name="gdotaccent" unicode="&#x121;" horiz-adv-x="1200" 
d="M850 1413l-49 -246h-187l48 246h188zM1016 946h147l-182 -946q-44 -235 -156 -337.5t-325 -102.5q-204 0 -420 92l57 141q197 -90 367 -90q143 0 219.5 69.5t107.5 227.5l31 154h-4q-144 -185 -360 -185q-190 0 -308 126t-118 329q0 236 150 394.5t374 158.5
q137 0 236.5 -60t140.5 -169h4zM547 111q170 0 281.5 116t111.5 291q0 145 -87.5 231.5t-236.5 86.5q-164 0 -275.5 -118.5t-111.5 -293.5q0 -143 86 -228t232 -85z" />
    <glyph glyph-name="Gcommaaccent" unicode="&#x122;" horiz-adv-x="1650" 
d="M969 760h669l-10 -64q-19 -121 -56 -225t-101 -197.5t-150 -159.5t-207.5 -104.5t-267.5 -38.5q-328 0 -523.5 182.5t-195.5 499.5q0 230 104 414.5t292.5 289.5t428.5 105q352 0 588 -205l-123 -124q-191 170 -471 170q-195 0 -344.5 -89.5t-227 -237t-77.5 -325.5
q0 -245 149 -382.5t406 -137.5q109 0 199.5 26t153.5 69.5t110.5 106t75.5 130.5t45 149h-502zM690 -264l33 168h180l-33 -168l-157 -158h-62l117 158h-78z" />
    <glyph glyph-name="gcommaaccent" unicode="&#x123;" horiz-adv-x="1200" 
d="M823 1274l-32 -168h-181l33 168l158 158h61l-117 -158h78zM1016 946h147l-182 -946q-44 -235 -156 -337.5t-325 -102.5q-204 0 -420 92l57 141q197 -90 367 -90q143 0 219.5 69.5t107.5 227.5l31 154h-4q-144 -185 -360 -185q-190 0 -308 126t-118 329q0 236 150 394.5
t374 158.5q137 0 236.5 -60t140.5 -169h4zM547 111q170 0 281.5 116t111.5 291q0 145 -87.5 231.5t-236.5 86.5q-164 0 -275.5 -118.5t-111.5 -293.5q0 -143 86 -228t232 -85z" />
    <glyph glyph-name="Hcircumflex" unicode="&#x124;" horiz-adv-x="1423" 
d="M956 1696l-225 -174h-168l318 245h161l201 -245h-151zM1298 1434h160l-278 -1434h-160l133 684h-801l-133 -684h-160l279 1434h160l-117 -598h801z" />
    <glyph glyph-name="hcircumflex" unicode="&#x125;" horiz-adv-x="1118" 
d="M70 1522l317 245h162l201 -245h-152l-135 174l-225 -174h-168zM49 0l279 1434h149l-131 -672h4q132 215 359 215q142 0 225.5 -79.5t83.5 -238.5q0 -68 -12 -124l-101 -535h-149l104 543q6 43 6 78q0 102 -54 157.5t-155 55.5q-63 0 -119 -21.5t-106.5 -66.5t-89 -124
t-59.5 -186l-84 -436h-150z" />
    <glyph glyph-name="Hbar" unicode="&#x126;" horiz-adv-x="1419" 
d="M1554 1163l-20 -104h-148l-204 -1059h-160l133 684h-799l-133 -684h-160l205 1059h-153l20 104h154l53 271h160l-53 -271h798l53 271h160l-53 -271h147zM1184 836l43 223h-799l-43 -223h799z" />
    <glyph glyph-name="hbar" unicode="&#x127;" horiz-adv-x="1120" 
d="M711 977q142 0 225.5 -79.5t83.5 -238.5q0 -68 -12 -124l-101 -535h-149l104 543q6 43 6 78q0 102 -54 157.5t-155 55.5q-63 0 -119 -21.5t-106.5 -66.5t-89 -124t-59.5 -186l-84 -436h-150l228 1169h-144l21 97h141l33 168h149l-33 -168h328l-18 -97h-328l-80 -407h4
q132 215 359 215z" />
    <glyph glyph-name="Itilde" unicode="&#x128;" horiz-adv-x="466" 
d="M631 1542q-51 0 -112 25t-114.5 50t-87.5 25q-70 0 -131 -88l-63 21q83 190 219 190q51 0 111.5 -25t113.5 -50t88 -25q71 0 129 88l66 -20q-83 -191 -219 -191zM59 0l281 1434h162l-281 -1434h-162z" />
    <glyph glyph-name="itilde" unicode="&#x129;" horiz-adv-x="415" 
d="M274 1430q34 0 68.5 -18t58 -39.5t50.5 -39.5t47 -18q23 0 44 22t46 68l63 -25q-76 -188 -190 -188q-34 0 -68.5 17.5t-58 39t-50 39t-46.5 17.5q-25 0 -46.5 -21.5t-46.5 -66.5l-61 22q74 191 190 191zM41 0l184 946h150l-185 -946h-149z" />
    <glyph glyph-name="Imacron" unicode="&#x12a;" horiz-adv-x="466" 
d="M741 1686l-22 -113h-578l23 113h577zM59 0l281 1434h162l-281 -1434h-162z" />
    <glyph glyph-name="imacron" unicode="&#x12b;" horiz-adv-x="415" 
d="M582 1346l-23 -113h-414l23 113h414zM41 0l184 946h150l-185 -946h-149z" />
    <glyph glyph-name="Ibreve" unicode="&#x12c;" horiz-adv-x="466" 
d="M440 1522q-109 0 -171 51.5t-62 144.5q0 13 4 49h100q0 -7 -1 -17t-1 -13q0 -54 37 -83.5t107 -29.5q150 0 200 143h111q-29 -115 -115.5 -180t-208.5 -65zM59 0l281 1434h162l-281 -1434h-162z" />
    <glyph glyph-name="ibreve" unicode="&#x12d;" horiz-adv-x="415" 
d="M612 1430q-24 -147 -86.5 -219t-171.5 -72q-93 0 -143.5 51.5t-50.5 148.5q0 36 10 91h98q-8 -39 -8 -78q0 -113 94 -113q69 0 100 46.5t48 144.5h110zM41 0l184 946h150l-185 -946h-149z" />
    <glyph glyph-name="Iogonek" unicode="&#x12e;" horiz-adv-x="466" 
d="M166 0q-186 -146 -186 -231q0 -56 75 -56q38 0 92 15l3 -101q-56 -20 -123 -20q-76 0 -125 33t-49 96q0 127 208 274l279 1424h162l-281 -1434h-55z" />
    <glyph glyph-name="iogonek" unicode="&#x12f;" horiz-adv-x="415" 
d="M291 1413h188l-49 -246h-186zM47 29l178 917h150l-185 -946h-65q-176 -141 -176 -223q0 -56 76 -56q38 0 92 15l2 -101q-56 -20 -123 -20q-76 0 -125 33t-49 96q0 132 225 285z" />
    <glyph glyph-name="Idotaccent" unicode="&#x130;" horiz-adv-x="466" 
d="M565 1741l-43 -219h-170l43 219h170zM59 0l281 1434h162l-281 -1434h-162z" />
    <glyph glyph-name="dotlessi" unicode="&#x131;" horiz-adv-x="415" 
d="M41 0l184 946h150l-185 -946h-149z" />
    <glyph glyph-name="IJ" unicode="&#x132;" horiz-adv-x="1036" 
d="M59 0l281 1434h162l-281 -1434h-162zM410 -10l28 153h51q84 0 133 38.5t70 135.5l219 1117h158l-221 -1149q-31 -159 -117.5 -227t-238.5 -68h-82z" />
    <glyph glyph-name="ij" unicode="&#x133;" horiz-adv-x="825" 
d="M479 1413l-49 -246h-186l47 246h188zM895 1413l-49 -246h-187l48 246h188zM41 0l184 946h150l-185 -946h-149zM207 -281h59q139 0 166 146l209 1081h150l-213 -1091q-28 -146 -109.5 -208.5t-210.5 -62.5h-78z" />
    <glyph glyph-name="Jcircumflex" unicode="&#x134;" horiz-adv-x="569" 
d="M190 1522l318 245h162l200 -245h-151l-135 174l-226 -174h-168zM-57 -10l28 153h52q84 0 132.5 38.5t69.5 135.5l219 1117h158l-221 -1149q-31 -159 -117.5 -227t-238.5 -68h-82z" />
    <glyph glyph-name="jcircumflex" unicode="&#x135;" horiz-adv-x="409" 
d="M80 1133l227 315h156l100 -315h-129l-55 235l-154 -235h-145zM-209 -281h59q139 0 166 146l209 1081h150l-213 -1091q-28 -146 -109.5 -208.5t-210.5 -62.5h-78z" />
    <glyph glyph-name="Kcommaaccent" unicode="&#x136;" horiz-adv-x="1255" 
d="M1329 1434l-786 -676l610 -758h-213l-575 745l-146 -745h-160l279 1434h160l-125 -641l721 641h235zM430 -264l33 168h180l-33 -168l-157 -158h-62l117 158h-78z" />
    <glyph glyph-name="kcommaaccent" unicode="&#x137;" horiz-adv-x="952" 
d="M967 946l-514 -446l391 -500h-189l-364 477l-92 -477h-150l279 1434h149l-174 -899l451 411h213zM283 -264l32 168h181l-33 -168l-158 -158h-61l116 158h-77z" />
    <glyph glyph-name="kgreenlandic" unicode="&#x138;" horiz-adv-x="933" 
d="M950 946l-514 -446l391 -500h-186l-365 477l-92 -477h-147l182 946h148l-80 -411l452 411h211z" />
    <glyph glyph-name="Lacute" unicode="&#x139;" horiz-adv-x="989" 
d="M369 1522l247 245h199l-326 -245h-120zM59 0l281 1434h160l-250 -1284h661l-28 -150h-824z" />
    <glyph glyph-name="lacute" unicode="&#x13a;" horiz-adv-x="432" 
d="M350 1520l248 245h199l-326 -245h-121zM49 0l279 1434h149l-278 -1434h-150z" />
    <glyph glyph-name="Lcommaaccent" unicode="&#x13b;" horiz-adv-x="989" 
d="M250 150h661l-28 -150h-824l281 1434h160zM322 -264l32 168h181l-33 -168l-158 -158h-61l116 158h-77z" />
    <glyph glyph-name="lcommaaccent" unicode="&#x13c;" horiz-adv-x="432" 
d="M328 1434h149l-278 -1434h-150zM-20 -264l32 168h181l-33 -168l-158 -158h-61l116 158h-77z" />
    <glyph glyph-name="Lcaron" unicode="&#x13d;" horiz-adv-x="989" 
d="M823 1464h187l-35 -186l-215 -289h-66l172 289h-80zM500 1434l-250 -1284h661l-28 -150h-824l281 1434h160z" />
    <glyph glyph-name="lcaron" unicode="&#x13e;" horiz-adv-x="614" 
d="M604 1464h187l-35 -186l-203 -242h-66l154 242h-72zM49 0l279 1434h149l-278 -1434h-150z" />
    <glyph glyph-name="Ldot" unicode="&#x13f;" horiz-adv-x="989" 
d="M59 0l281 1434h160l-250 -1284h661l-28 -150h-824zM674 735l41 211h211l-41 -211h-211z" />
    <glyph glyph-name="ldot" unicode="&#x140;" horiz-adv-x="612" 
d="M49 0l279 1434h149l-278 -1434h-150zM442 735l41 211h211l-41 -211h-211z" />
    <glyph glyph-name="Lslash" unicode="&#x141;" horiz-adv-x="1003" 
d="M262 150h662l-29 -150h-821l121 627l-179 -70l23 119l180 69l133 689h160l-121 -623l414 162l-23 -119l-413 -162z" />
    <glyph glyph-name="lslash" unicode="&#x142;" horiz-adv-x="524" 
d="M602 981l-22 -119l-185 -88l-149 -774h-150l135 696l-184 -88l23 119l184 88l121 619h149l-104 -541z" />
    <glyph glyph-name="Nacute" unicode="&#x143;" horiz-adv-x="1415" 
d="M848 1522l248 245h198l-325 -245h-121zM59 0l279 1434h168l553 -1180h4l227 1180h160l-279 -1434h-167l-553 1182h-2l-230 -1182h-160z" />
    <glyph glyph-name="nacute" unicode="&#x144;" horiz-adv-x="1103" 
d="M641 1133l262 315h209l-344 -315h-127zM35 0l184 946h150l-37 -182h4q67 110 155.5 161.5t208.5 51.5q148 0 228 -79.5t80 -223.5q0 -56 -15 -152l-102 -522h-150l99 508q12 58 12 123q0 205 -215 205q-292 0 -369 -400l-84 -436h-149z" />
    <glyph glyph-name="Ncommaaccent" unicode="&#x145;" horiz-adv-x="1415" 
d="M1290 1434h160l-279 -1434h-167l-553 1182h-2l-230 -1182h-160l279 1434h168l553 -1180h4zM467 -264l33 168h180l-33 -168l-158 -158h-61l117 158h-78z" />
    <glyph glyph-name="ncommaaccent" unicode="&#x146;" horiz-adv-x="1103" 
d="M700 977q148 0 228 -79.5t80 -223.5q0 -56 -15 -152l-102 -522h-150l99 508q12 58 12 123q0 205 -215 205q-292 0 -369 -400l-84 -436h-149l184 946h150l-37 -182h4q67 110 155.5 161.5t208.5 51.5zM330 -264l32 168h181l-33 -168l-158 -158h-61l117 158h-78z" />
    <glyph glyph-name="Ncaron" unicode="&#x147;" horiz-adv-x="1415" 
d="M840 1522l-199 245h143l138 -174l225 174h174l-324 -245h-157zM59 0l279 1434h168l553 -1180h4l227 1180h160l-279 -1434h-167l-553 1182h-2l-230 -1182h-160z" />
    <glyph glyph-name="ncaron" unicode="&#x148;" horiz-adv-x="1103" 
d="M604 1116l-198 316h143l139 -230l232 230h165l-325 -316h-156zM35 0l184 946h150l-37 -182h4q67 110 155.5 161.5t208.5 51.5q148 0 228 -79.5t80 -223.5q0 -56 -15 -152l-102 -522h-150l99 508q12 58 12 123q0 205 -215 205q-292 0 -369 -400l-84 -436h-149z" />
    <glyph glyph-name="napostrophe" unicode="&#x149;" horiz-adv-x="1103" 
d="M125 989h-66l172 289h-79l36 186h187l-35 -186zM700 977q148 0 228 -79.5t80 -223.5q0 -56 -15 -152l-102 -522h-150l99 508q12 58 12 123q0 205 -215 205q-292 0 -369 -400l-84 -436h-149l184 946h150l-37 -182h4q67 110 155.5 161.5t208.5 51.5z" />
    <glyph glyph-name="Eng" unicode="&#x14a;" horiz-adv-x="1415" 
d="M1290 1434h158l-279 -1434l-26 -133q-28 -142 -102 -210t-201 -67l-117 2l29 150h94q58 0 91.5 28.5t47.5 100.5l25 129l-559 1182h-2l-232 -1182h-158l281 1434h166l553 -1178h4z" />
    <glyph glyph-name="eng" unicode="&#x14b;" horiz-adv-x="1103" 
d="M1008 674q0 -56 -15 -152l-102 -522l-29 -154q-28 -139 -108 -199.5t-205 -60.5h-84l27 135h61q71 0 109 34t53 110l26 135l99 508q12 58 12 123q0 205 -215 205q-292 0 -369 -400l-84 -436h-149l184 946h150l-37 -182h4q67 110 155.5 161.5t208.5 51.5q148 0 228 -79.5
t80 -223.5z" />
    <glyph glyph-name="Omacron" unicode="&#x14c;" horiz-adv-x="1701" 
d="M1294 1686l-22 -113h-578l23 113h577zM840 -31q-209 0 -370.5 82.5t-252 237.5t-90.5 360q0 168 60 317.5t167 259.5t263 174t339 64q210 0 371.5 -82.5t251.5 -237.5t90 -360q0 -168 -60 -317.5t-167 -259.5t-263 -174t-339 -64zM844 127q150 0 275 53.5t207 145.5
t127.5 213t45.5 256q0 156 -73 273.5t-196.5 178t-277.5 60.5q-120 0 -224.5 -35t-182.5 -97t-134.5 -145.5t-85 -183t-28.5 -207.5q0 -155 73.5 -273t197 -178.5t276.5 -60.5z" />
    <glyph glyph-name="omacron" unicode="&#x14d;" horiz-adv-x="1173" 
d="M1008 1346l-23 -113h-577l22 113h578zM537 -31q-213 0 -340 118.5t-127 326.5q0 156 72.5 284.5t203 203.5t293.5 75q212 0 338.5 -118.5t126.5 -326.5q0 -156 -72 -284.5t-202.5 -203.5t-292.5 -75zM549 115q174 0 285.5 119.5t111.5 293.5q0 141 -86 222t-235 81
q-174 0 -286 -120t-112 -293q0 -141 86.5 -222t235.5 -81z" />
    <glyph glyph-name="Obreve" unicode="&#x14e;" horiz-adv-x="1701" 
d="M993 1522q-109 0 -171 51.5t-62 144.5q0 13 4 49h100q0 -7 -1 -17t-1 -13q0 -54 37 -83.5t107 -29.5q150 0 200 143h111q-29 -115 -115.5 -180t-208.5 -65zM840 -31q-209 0 -370.5 82.5t-252 237.5t-90.5 360q0 168 60 317.5t167 259.5t263 174t339 64q210 0 371.5 -82.5
t251.5 -237.5t90 -360q0 -168 -60 -317.5t-167 -259.5t-263 -174t-339 -64zM844 127q150 0 275 53.5t207 145.5t127.5 213t45.5 256q0 156 -73 273.5t-196.5 178t-277.5 60.5q-120 0 -224.5 -35t-182.5 -97t-134.5 -145.5t-85 -183t-28.5 -207.5q0 -155 73.5 -273
t197 -178.5t276.5 -60.5z" />
    <glyph glyph-name="obreve" unicode="&#x14f;" horiz-adv-x="1173" 
d="M1030 1430q-25 -137 -107 -214t-212 -77q-109 0 -176.5 56.5t-67.5 156.5q0 42 8 78h98q-6 -24 -6 -52q0 -65 38 -102t108 -37q89 0 138 49.5t69 141.5h110zM537 -31q-213 0 -340 118.5t-127 326.5q0 156 72.5 284.5t203 203.5t293.5 75q212 0 338.5 -118.5t126.5 -326.5
q0 -156 -72 -284.5t-202.5 -203.5t-292.5 -75zM549 115q174 0 285.5 119.5t111.5 293.5q0 141 -86 222t-235 81q-174 0 -286 -120t-112 -293q0 -141 86.5 -222t235.5 -81z" />
    <glyph glyph-name="Ohungarumlaut" unicode="&#x150;" horiz-adv-x="1701" 
d="M1204 1767l-307 -245h-113l279 245h141zM1423 1767l-307 -245h-112l278 245h141zM840 -31q-209 0 -370.5 82.5t-252 237.5t-90.5 360q0 168 60 317.5t167 259.5t263 174t339 64q210 0 371.5 -82.5t251.5 -237.5t90 -360q0 -168 -60 -317.5t-167 -259.5t-263 -174
t-339 -64zM844 127q150 0 275 53.5t207 145.5t127.5 213t45.5 256q0 156 -73 273.5t-196.5 178t-277.5 60.5q-120 0 -224.5 -35t-182.5 -97t-134.5 -145.5t-85 -183t-28.5 -207.5q0 -155 73.5 -273t197 -178.5t276.5 -60.5z" />
    <glyph glyph-name="ohungarumlaut" unicode="&#x151;" horiz-adv-x="1173" 
d="M883 1448l-305 -315h-113l274 315h144zM1110 1448l-305 -315h-113l275 315h143zM537 -31q-213 0 -340 118.5t-127 326.5q0 156 72.5 284.5t203 203.5t293.5 75q212 0 338.5 -118.5t126.5 -326.5q0 -156 -72 -284.5t-202.5 -203.5t-292.5 -75zM549 115q174 0 285.5 119.5
t111.5 293.5q0 141 -86 222t-235 81q-174 0 -286 -120t-112 -293q0 -141 86.5 -222t235.5 -81z" />
    <glyph glyph-name="OE" unicode="&#x152;" horiz-adv-x="2355" 
d="M2413 1284h-641l-82 -412h591l-28 -147h-592l-113 -575h652l-29 -150h-811l33 164q-230 -195 -557 -195q-209 0 -369.5 82.5t-250 237.5t-89.5 360q0 168 61 317.5t168.5 259.5t264.5 174t340 64q214 0 375 -88.5t243 -249.5l61 308h801zM840 127q148 0 273.5 54t209 145
t130 212.5t46.5 256.5q0 156 -72.5 273.5t-195 178t-275.5 60.5q-147 0 -272 -54t-209 -145t-131 -212.5t-47 -256.5q0 -156 72.5 -273.5t195 -178t275.5 -60.5z" />
    <glyph glyph-name="oe" unicode="&#x153;" horiz-adv-x="1990" 
d="M1098 453q0 -13 -2 -19v-14q0 -152 77.5 -229.5t225.5 -77.5q109 0 194.5 41.5t171.5 124.5l90 -111q-100 -95 -208 -147t-248 -52q-147 0 -251 56.5t-155 162.5q-77 -102 -195 -160.5t-261 -58.5q-213 0 -340 118.5t-127 326.5q0 156 72.5 284.5t203 203.5t293.5 75
q146 0 253 -57.5t163 -163.5q75 104 192 162.5t260 58.5q199 0 308.5 -106.5t109.5 -282.5q0 -47 -16 -135h-811zM1499 846q-139 0 -240.5 -76.5t-140.5 -202.5h658q0 5 1 15t1 16q0 115 -73 181.5t-206 66.5zM549 115q174 0 285.5 119.5t111.5 293.5q0 141 -86 222t-235 81
q-174 0 -286 -120t-112 -293q0 -141 86.5 -222t235.5 -81z" />
    <glyph glyph-name="Racute" unicode="&#x154;" horiz-adv-x="1177" 
d="M1116 1767l-325 -245h-121l248 245h198zM1180 1067q0 -181 -120.5 -305t-332.5 -144l332 -618h-189l-313 614h-217l-121 -614h-160l281 1434h442q190 0 294 -99.5t104 -267.5zM469 1284l-102 -522h295q156 0 252 77.5t96 213.5q0 111 -67 171t-193 60h-281z" />
    <glyph glyph-name="racute" unicode="&#x155;" horiz-adv-x="659" 
d="M446 1133l263 315h209l-345 -315h-127zM35 0l184 946h150l-43 -209h4q106 238 350 238q25 0 37 -2l-33 -172q-7 0 -22.5 1t-22.5 1q-300 0 -369 -359l-86 -444h-149z" />
    <glyph glyph-name="Rcommaaccent" unicode="&#x156;" horiz-adv-x="1177" 
d="M1180 1067q0 -181 -120.5 -305t-332.5 -144l332 -618h-189l-313 614h-217l-121 -614h-160l281 1434h442q190 0 294 -99.5t104 -267.5zM469 1284l-102 -522h295q156 0 252 77.5t96 213.5q0 111 -67 171t-193 60h-281zM414 -264l32 168h181l-33 -168l-158 -158h-61l117 158
h-78z" />
    <glyph glyph-name="rcommaaccent" unicode="&#x157;" horiz-adv-x="659" 
d="M680 975q25 0 37 -2l-33 -172q-7 0 -22.5 1t-22.5 1q-300 0 -369 -359l-86 -444h-149l184 946h150l-43 -209h4q106 238 350 238zM-35 -264l33 168h180l-33 -168l-157 -158h-62l117 158h-78z" />
    <glyph glyph-name="Rcaron" unicode="&#x158;" horiz-adv-x="1177" 
d="M821 1522h-157l-199 245h143l137 -174l226 174h174zM1180 1067q0 -181 -120.5 -305t-332.5 -144l332 -618h-189l-313 614h-217l-121 -614h-160l281 1434h442q190 0 294 -99.5t104 -267.5zM469 1284l-102 -522h295q156 0 252 77.5t96 213.5q0 111 -67 171t-193 60h-281z
" />
    <glyph glyph-name="rcaron" unicode="&#x159;" horiz-adv-x="659" 
d="M408 1116l-199 316h143l140 -230l231 230h166l-326 -316h-155zM35 0l184 946h150l-43 -209h4q106 238 350 238q25 0 37 -2l-33 -172q-7 0 -22.5 1t-22.5 1q-300 0 -369 -359l-86 -444h-149z" />
    <glyph glyph-name="Sacute" unicode="&#x15a;" horiz-adv-x="1050" 
d="M594 1522l248 245h198l-325 -245h-121zM502 -31q-157 0 -290 57.5t-230 149.5l100 133q197 -178 424 -178q128 0 197 58.5t69 162.5q0 69 -37.5 129t-116.5 127l-194 166q-184 156 -184 344q0 151 102.5 248.5t290.5 97.5q112 0 211 -35.5t205 -107.5l-93 -141
q-168 125 -329 125q-108 0 -162.5 -54.5t-54.5 -132.5q0 -109 139 -225l192 -162q103 -88 152 -177.5t49 -197.5q0 -185 -119.5 -286t-320.5 -101z" />
    <glyph glyph-name="sacute" unicode="&#x15b;" horiz-adv-x="806" 
d="M489 1133l263 315h209l-345 -315h-127zM61 246q160 -140 320 -140q83 0 124.5 33t41.5 90q0 78 -103 148l-125 84q-80 56 -122.5 118t-42.5 146q0 116 79.5 184t217.5 68q163 0 325 -107l-76 -122q-134 92 -245 92q-70 0 -108 -32t-38 -89q0 -43 27.5 -76t87.5 -74
l115 -77q83 -57 124.5 -117.5t41.5 -145.5q0 -128 -85 -194t-233 -66q-122 0 -228 43.5t-186 118.5z" />
    <glyph glyph-name="Scircumflex" unicode="&#x15c;" horiz-adv-x="1050" 
d="M313 1522l318 245h162l200 -245h-151l-135 174l-226 -174h-168zM502 -31q-157 0 -290 57.5t-230 149.5l100 133q197 -178 424 -178q128 0 197 58.5t69 162.5q0 69 -37.5 129t-116.5 127l-194 166q-184 156 -184 344q0 151 102.5 248.5t290.5 97.5q112 0 211 -35.5
t205 -107.5l-93 -141q-168 125 -329 125q-108 0 -162.5 -54.5t-54.5 -132.5q0 -109 139 -225l192 -162q103 -88 152 -177.5t49 -197.5q0 -185 -119.5 -286t-320.5 -101z" />
    <glyph glyph-name="scircumflex" unicode="&#x15d;" horiz-adv-x="806" 
d="M178 1133l326 315h155l199 -315h-145l-138 227l-233 -227h-164zM61 246q160 -140 320 -140q83 0 124.5 33t41.5 90q0 78 -103 148l-125 84q-80 56 -122.5 118t-42.5 146q0 116 79.5 184t217.5 68q163 0 325 -107l-76 -122q-134 92 -245 92q-70 0 -108 -32t-38 -89
q0 -43 27.5 -76t87.5 -74l115 -77q83 -57 124.5 -117.5t41.5 -145.5q0 -128 -85 -194t-233 -66q-122 0 -228 43.5t-186 118.5z" />
    <glyph glyph-name="Scedilla" unicode="&#x15e;" horiz-adv-x="1050" 
d="M627 1305q-108 0 -162.5 -54.5t-54.5 -132.5q0 -109 139 -225l192 -162q103 -88 152 -177.5t49 -197.5q0 -185 -119.5 -286t-320.5 -101l-33 -51q30 -11 48.5 -19.5t40.5 -24t33 -37.5t11 -50q0 -38 -22 -70t-64.5 -58.5t-82.5 -45t-98 -42.5q-9 -3 -13 -5l-25 53
q94 43 136 72.5t42 64.5q0 26 -31 43.5t-92 32.5l84 139q-255 21 -454 205l100 133q197 -178 424 -178q128 0 197 58.5t69 162.5q0 69 -37.5 129t-116.5 127l-194 166q-184 156 -184 344q0 151 102.5 248.5t290.5 97.5q112 0 211 -35.5t205 -107.5l-93 -141
q-168 125 -329 125z" />
    <glyph glyph-name="scedilla" unicode="&#x15f;" horiz-adv-x="806" 
d="M539 492q83 -57 124.5 -117.5t41.5 -145.5q0 -128 -85 -194t-233 -66h-14l-33 -51q30 -11 48.5 -19.5t40.5 -24t33 -37.5t11 -50q0 -38 -22 -70t-64.5 -58.5t-82.5 -45t-98 -42.5q-9 -3 -13 -5l-25 53q94 43 136 72.5t42 64.5q0 26 -31 43.5t-92 32.5l86 141
q-194 23 -336 158l88 115q160 -140 320 -140q83 0 124.5 33t41.5 90q0 78 -103 148l-125 84q-80 56 -122.5 118t-42.5 146q0 116 79.5 184t217.5 68q163 0 325 -107l-76 -122q-134 92 -245 92q-70 0 -108 -32t-38 -89q0 -43 27.5 -76t87.5 -74z" />
    <glyph glyph-name="Scaron" unicode="&#x160;" horiz-adv-x="1050" 
d="M588 1522l-199 245h143l138 -174l225 174h174l-324 -245h-157zM502 -31q-157 0 -290 57.5t-230 149.5l100 133q197 -178 424 -178q128 0 197 58.5t69 162.5q0 69 -37.5 129t-116.5 127l-194 166q-184 156 -184 344q0 151 102.5 248.5t290.5 97.5q112 0 211 -35.5
t205 -107.5l-93 -141q-168 125 -329 125q-108 0 -162.5 -54.5t-54.5 -132.5q0 -109 139 -225l192 -162q103 -88 152 -177.5t49 -197.5q0 -185 -119.5 -286t-320.5 -101z" />
    <glyph glyph-name="scaron" unicode="&#x161;" horiz-adv-x="806" 
d="M451 1116l-199 316h143l140 -230l231 230h166l-326 -316h-155zM61 246q160 -140 320 -140q83 0 124.5 33t41.5 90q0 78 -103 148l-125 84q-80 56 -122.5 118t-42.5 146q0 116 79.5 184t217.5 68q163 0 325 -107l-76 -122q-134 92 -245 92q-70 0 -108 -32t-38 -89
q0 -43 27.5 -76t87.5 -74l115 -77q83 -57 124.5 -117.5t41.5 -145.5q0 -128 -85 -194t-233 -66q-122 0 -228 43.5t-186 118.5z" />
    <glyph glyph-name="uni0162" unicode="&#x162;" horiz-adv-x="1062" 
d="M518 0h-41l-51 -82q30 -11 48.5 -19.5t40.5 -24t33 -37.5t11 -50q0 -38 -22 -70t-64.5 -58.5t-82.5 -45t-98 -42.5q-9 -3 -13 -5l-25 53q94 43 136 72.5t42 64.5q0 26 -31 43.5t-92 32.5l101 168h-50l248 1284h-426l29 150h1014l-29 -150h-428z" />
    <glyph glyph-name="uni0163" unicode="&#x163;" horiz-adv-x="628" 
d="M436 821l-106 -553q-6 -27 -6 -49q0 -82 96 -82h55l-26 -139h-70h-10l-50 -80q31 -11 49 -19.5t40.5 -24t33.5 -37.5t11 -50q0 -25 -8.5 -47.5t-34 -44t-40.5 -34.5t-59 -34t-58 -27t-67 -28q-9 -4 -14 -6l-25 53q94 44 136.5 73t42.5 64q0 26 -31 43.5t-92 32.5l104 174
q-65 15 -101 61.5t-36 120.5q0 24 8 78l109 555h-185l25 125h184l74 379h150l-74 -379h219l-25 -125h-219z" />
    <glyph glyph-name="Tcaron" unicode="&#x164;" horiz-adv-x="1062" 
d="M825 1522h-157l-199 245h143l138 -174l225 174h174zM1225 1434l-29 -150h-428l-250 -1284h-158l248 1284h-426l29 150h1014z" />
    <glyph glyph-name="tcaron" unicode="&#x165;" horiz-adv-x="778" 
d="M727 1464h188l-36 -186l-201 -242h-68l154 242h-72zM535 1325l-74 -379h219l-25 -125h-219l-106 -553q-6 -27 -6 -49q0 -82 96 -82h55l-26 -139h-70q-97 0 -153 49t-56 141q0 24 8 78l109 555h-185l25 125h184l74 379h150z" />
    <glyph glyph-name="Tbar" unicode="&#x166;" horiz-adv-x="1062" 
d="M1196 1284h-428l-59 -309h292l-20 -103h-293l-170 -872h-158l168 872h-286l20 103h287l59 309h-426l29 150h1014z" />
    <glyph glyph-name="tbar" unicode="&#x167;" horiz-adv-x="636" 
d="M666 821h-222l-32 -168h200l-22 -110h-199l-53 -275q-4 -36 -4 -49q0 -82 96 -82h55l-28 -139h-70q-97 0 -152 49t-55 141q0 42 8 78l54 277h-191l25 110h188l33 168h-184l24 125h185l73 379h148l-74 -379h219z" />
    <glyph glyph-name="Utilde" unicode="&#x168;" horiz-adv-x="1411" 
d="M1096 1542q-51 0 -112 25t-114.5 50t-87.5 25q-70 0 -131 -88l-63 21q83 190 219 190q51 0 111.5 -25t113.5 -50t88 -25q71 0 129 88l66 -20q-83 -191 -219 -191zM1458 1434l-176 -895q-51 -269 -211 -419.5t-430 -150.5q-238 0 -368 118.5t-130 330.5q0 64 17 157
l168 859h166l-170 -883q-13 -63 -13 -111q0 -145 90 -226t254 -81q189 0 306.5 109t156.5 309l174 883h166z" />
    <glyph glyph-name="utilde" unicode="&#x169;" horiz-adv-x="1071" 
d="M825 1200q-52 0 -112.5 28t-113.5 55.5t-87 27.5q-70 0 -131 -94l-64 20q84 197 220 197q51 0 111.5 -28t113.5 -55.5t88 -27.5q68 0 129 94l63 -22q-17 -41 -35.5 -72t-44.5 -61t-61 -46t-76 -16zM387 -31q-145 0 -225 78t-80 215q0 60 16 141l107 543h153l-104 -534
q-12 -55 -12 -105q0 -95 51.5 -143.5t150.5 -48.5q277 0 355 403l84 428h151l-184 -946h-148l35 176h-4q-127 -207 -346 -207z" />
    <glyph glyph-name="Umacron" unicode="&#x16a;" horiz-adv-x="1411" 
d="M1208 1686l-22 -113h-578l23 113h577zM1458 1434l-176 -895q-51 -269 -211 -419.5t-430 -150.5q-238 0 -368 118.5t-130 330.5q0 64 17 157l168 859h166l-170 -883q-13 -63 -13 -111q0 -145 90 -226t254 -81q189 0 306.5 109t156.5 309l174 883h166z" />
    <glyph glyph-name="umacron" unicode="&#x16b;" horiz-adv-x="1071" 
d="M965 1346l-23 -113h-577l22 113h578zM387 -31q-145 0 -225 78t-80 215q0 60 16 141l107 543h153l-104 -534q-12 -55 -12 -105q0 -95 51.5 -143.5t150.5 -48.5q277 0 355 403l84 428h151l-184 -946h-148l35 176h-4q-127 -207 -346 -207z" />
    <glyph glyph-name="Ubreve" unicode="&#x16c;" horiz-adv-x="1411" 
d="M907 1522q-109 0 -171 51.5t-62 144.5q0 13 4 49h100q0 -7 -1 -17t-1 -13q0 -54 37 -83.5t107 -29.5q150 0 200 143h111q-29 -115 -115.5 -180t-208.5 -65zM1458 1434l-176 -895q-51 -269 -211 -419.5t-430 -150.5q-238 0 -368 118.5t-130 330.5q0 64 17 157l168 859h166
l-170 -883q-13 -63 -13 -111q0 -145 90 -226t254 -81q189 0 306.5 109t156.5 309l174 883h166z" />
    <glyph glyph-name="ubreve" unicode="&#x16d;" horiz-adv-x="1071" 
d="M987 1430q-25 -137 -107 -214t-212 -77q-109 0 -176.5 56.5t-67.5 156.5q0 42 8 78h98q-6 -24 -6 -52q0 -65 38 -102t108 -37q89 0 138 49.5t69 141.5h110zM387 -31q-145 0 -225 78t-80 215q0 60 16 141l107 543h153l-104 -534q-12 -55 -12 -105q0 -95 51.5 -143.5
t150.5 -48.5q277 0 355 403l84 428h151l-184 -946h-148l35 176h-4q-127 -207 -346 -207z" />
    <glyph glyph-name="Uring" unicode="&#x16e;" horiz-adv-x="1411" 
d="M879 1354q-103 0 -161.5 57.5t-58.5 153.5q0 110 74.5 185t190.5 75q103 0 161 -58t58 -155q0 -109 -74.5 -183.5t-189.5 -74.5zM887 1434q78 0 124 52t46 122q0 65 -37 101t-105 36q-78 0 -124 -52t-46 -124q0 -64 37 -99.5t105 -35.5zM1458 1434l-176 -895
q-51 -269 -211 -419.5t-430 -150.5q-238 0 -368 118.5t-130 330.5q0 64 17 157l168 859h166l-170 -883q-13 -63 -13 -111q0 -145 90 -226t254 -81q189 0 306.5 109t156.5 309l174 883h166z" />
    <glyph glyph-name="uring" unicode="&#x16f;" horiz-adv-x="1071" 
d="M674 1530q103 0 166 -62.5t63 -160.5q0 -105 -71.5 -180.5t-186.5 -75.5q-104 0 -166.5 62.5t-62.5 160.5q0 106 71 181t187 75zM672 1450q-81 0 -125.5 -51t-44.5 -123q0 -67 38.5 -106.5t106.5 -39.5q80 0 125 52t45 123q0 66 -39 105.5t-106 39.5zM387 -31
q-145 0 -225 78t-80 215q0 60 16 141l107 543h153l-104 -534q-12 -55 -12 -105q0 -95 51.5 -143.5t150.5 -48.5q277 0 355 403l84 428h151l-184 -946h-148l35 176h-4q-127 -207 -346 -207z" />
    <glyph glyph-name="Uhungarumlaut" unicode="&#x170;" horiz-adv-x="1411" 
d="M1116 1767l-307 -245h-113l279 245h141zM1335 1767l-307 -245h-113l279 245h141zM1458 1434l-176 -895q-51 -269 -211 -419.5t-430 -150.5q-238 0 -368 118.5t-130 330.5q0 64 17 157l168 859h166l-170 -883q-13 -63 -13 -111q0 -145 90 -226t254 -81q189 0 306.5 109
t156.5 309l174 883h166z" />
    <glyph glyph-name="uhungarumlaut" unicode="&#x171;" horiz-adv-x="1071" 
d="M840 1448l-305 -315h-113l274 315h144zM1067 1448l-305 -315h-113l275 315h143zM387 -31q-145 0 -225 78t-80 215q0 60 16 141l107 543h153l-104 -534q-12 -55 -12 -105q0 -95 51.5 -143.5t150.5 -48.5q277 0 355 403l84 428h151l-184 -946h-148l35 176h-4
q-127 -207 -346 -207z" />
    <glyph glyph-name="Uogonek" unicode="&#x172;" horiz-adv-x="1411" 
d="M1292 1434h166l-176 -895q-49 -261 -201.5 -411t-408.5 -159q-140 -122 -140 -192q0 -56 76 -56q38 0 92 15l2 -101q-56 -20 -122 -20q-76 0 -125 33t-49 96q0 107 149 229q-199 22 -305.5 137.5t-106.5 307.5q0 64 17 157l168 859h166l-170 -883q-13 -63 -13 -111
q0 -145 90 -226t254 -81q189 0 306.5 109t156.5 309z" />
    <glyph glyph-name="uogonek" unicode="&#x173;" horiz-adv-x="1071" 
d="M780 0q-176 -141 -176 -223q0 -56 76 -56q38 0 92 15l2 -101q-56 -20 -123 -20q-76 0 -125 33t-49 96q0 69 57 139.5t175 149.5l28 143h-4q-127 -207 -346 -207q-145 0 -225 78t-80 215q0 60 16 141l107 543h153l-104 -534q-12 -55 -12 -105q0 -95 51.5 -143.5
t150.5 -48.5q277 0 355 403l84 428h151l-184 -946h-70z" />
    <glyph glyph-name="Wcircumflex" unicode="&#x174;" horiz-adv-x="2021" 
d="M856 1522l318 245h161l201 -245h-152l-135 174l-225 -174h-168zM2167 1434l-721 -1434h-158l-137 1167h-4l-592 -1167h-158l-168 1434h172l113 -1178h4l588 1178h164l137 -1178h4l565 1178h191z" />
    <glyph glyph-name="wcircumflex" unicode="&#x175;" horiz-adv-x="1513" 
d="M915 1360l-233 -227h-164l326 315h155l199 -315h-145zM1413 946h168l-506 -946h-141l-113 754l-407 -754h-142l-135 946h156l82 -758l401 758h152l106 -756z" />
    <glyph glyph-name="Ycircumflex" unicode="&#x176;" horiz-adv-x="1093" 
d="M782 1696l-225 -174h-168l318 245h161l201 -245h-151zM1272 1434l-629 -871l-108 -563h-160l108 561l-288 873h176l209 -715h4l491 715h197z" />
    <glyph glyph-name="ycircumflex" unicode="&#x177;" horiz-adv-x="940" 
d="M610 1360l-233 -227h-164l326 315h155l199 -315h-145zM844 946h168l-838 -1358h-160l324 525l-227 833h159l166 -676z" />
    <glyph glyph-name="Ydieresis" unicode="&#x178;" horiz-adv-x="1093" 
d="M662 1726l-41 -204h-170l41 204h170zM1057 1726l-41 -204h-170l41 204h170zM1272 1434l-629 -871l-108 -563h-160l108 561l-288 873h176l209 -715h4l491 715h197z" />
    <glyph glyph-name="Zacute" unicode="&#x179;" horiz-adv-x="1130" 
d="M1171 1767l-325 -245h-121l248 245h198zM1237 1434l-29 -150l-1020 -1134h824l-29 -150h-1018l27 150l1022 1134h-727l28 150h922z" />
    <glyph glyph-name="zacute" unicode="&#x17a;" horiz-adv-x="903" 
d="M991 1448l-344 -315h-127l262 315h209zM158 809l26 137h719l-24 -131l-699 -676h602l-26 -139h-793l27 131l696 678h-528z" />
    <glyph glyph-name="Zdotaccent" unicode="&#x17b;" horiz-adv-x="1130" 
d="M922 1741l-43 -219h-170l43 219h170zM1237 1434l-29 -150l-1020 -1134h824l-29 -150h-1018l27 150l1022 1134h-727l28 150h922z" />
    <glyph glyph-name="zdotaccent" unicode="&#x17c;" horiz-adv-x="903" 
d="M723 1413l-49 -246h-187l48 246h188zM903 946l-24 -131l-699 -676h602l-26 -139h-793l27 131l696 678h-528l26 137h719z" />
    <glyph glyph-name="Zcaron" unicode="&#x17d;" horiz-adv-x="1130" 
d="M877 1522h-158l-199 245h144l137 -174l225 174h174zM1237 1434l-29 -150l-1020 -1134h824l-29 -150h-1018l27 150l1022 1134h-727l28 150h922z" />
    <glyph glyph-name="zcaron" unicode="&#x17e;" horiz-adv-x="903" 
d="M637 1116h-156l-198 316h143l139 -230l232 230h166zM158 809l26 137h719l-24 -131l-699 -676h602l-26 -139h-793l27 131l696 678h-528z" />
    <glyph glyph-name="florin" unicode="&#x192;" horiz-adv-x="802" 
d="M823 1266q-101 0 -163.5 -49.5t-84.5 -165.5l-20 -105h287l-13 -61h-286l-187 -957q-34 -178 -122.5 -258t-251.5 -80h-111l25 138h98q78 0 135.5 46t77.5 148l186 963h-231l12 61h232l18 94q17 89 48.5 155.5t68.5 105.5t87 62.5t97.5 31.5t105.5 8h97l-27 -137h-78z
" />
    <glyph glyph-name="AEacute" unicode="&#x1fc;" horiz-adv-x="1906" 
d="M1987 1767l-326 -245h-121l248 245h199zM1962 1284h-582l-80 -412h529l-27 -147h-530l-113 -575h592l-29 -150h-669h-78l74 383h-586l-328 -383h-209l1241 1434h242h582zM588 528h489l144 742z" />
    <glyph glyph-name="aeacute" unicode="&#x1fd;" horiz-adv-x="1777" 
d="M926 1133l262 315h209l-344 -315h-127zM385 -31q-166 0 -267.5 84t-101.5 232q0 155 112.5 257.5t301.5 102.5q228 0 328 -158h2q31 127 31 183q0 172 -222 172q-145 0 -331 -47l-31 133q208 49 371 49q304 0 323 -217h4q60 103 168.5 160t243.5 57q187 0 289 -103.5
t102 -277.5q0 -47 -16 -145h-783q-6 -30 -6 -64q0 -116 72.5 -195t218.5 -79q116 0 198.5 44t157.5 119l92 -106q-196 -201 -448 -201q-151 0 -253.5 71.5t-129.5 184.5h-4q-63 -126 -171 -191t-251 -65zM938 565h612q2 14 2 41q0 109 -65.5 172.5t-194.5 63.5
q-128 0 -221.5 -72t-132.5 -205zM414 100q135 0 218 70.5t83 163.5q0 88 -70 135t-180 47q-131 0 -214 -63.5t-83 -163.5q0 -87 67.5 -138t178.5 -51z" />
    <glyph glyph-name="Oslashacute" unicode="&#x1fe;" horiz-adv-x="1701" 
d="M1391 1767l-326 -245h-121l248 245h199zM1481 1272q188 -188 188 -488q0 -168 -60 -317.5t-167 -259.5t-263 -174t-339 -64q-276 0 -463 142l-137 -144l-52 45l136 144q-197 184 -197 493q0 168 60 317.5t167 259.5t263 174t339 64q282 0 471 -147l140 145l51 -45z
M297 639q0 -223 143 -360l873 915q-151 113 -361 113q-120 0 -224.5 -35t-182.5 -97t-134.5 -145.5t-85 -183t-28.5 -207.5zM844 127q150 0 275 53.5t207 145.5t127.5 213t45.5 256q0 216 -135 354l-870 -916q142 -106 350 -106z" />
    <glyph glyph-name="oslashacute" unicode="&#x1ff;" horiz-adv-x="1173" 
d="M1114 1448l-344 -315h-127l262 315h209zM1061 977l45 -45l-105 -98q103 -115 103 -302q0 -156 -72 -284.5t-202.5 -203.5t-292.5 -75q-212 0 -336 115l-119 -113l-43 43l121 115q-90 114 -90 285q0 156 72.5 284.5t203 203.5t293.5 75q196 0 317 -100zM227 418
q0 -104 49 -178l564 528q-85 63 -215 63q-174 0 -286 -120t-112 -293zM946 528q0 117 -61 197l-568 -532q84 -78 232 -78q174 0 285.5 119.5t111.5 293.5z" />
    <glyph glyph-name="Scommaaccent" unicode="&#x218;" horiz-adv-x="1050" 
d="M627 1305q-108 0 -162.5 -54.5t-54.5 -132.5q0 -109 139 -225l192 -162q103 -88 152 -177.5t49 -197.5q0 -185 -119.5 -286t-320.5 -101q-157 0 -290 57.5t-230 149.5l100 133q197 -178 424 -178q128 0 197 58.5t69 162.5q0 69 -37.5 129t-116.5 127l-194 166
q-184 156 -184 344q0 151 102.5 248.5t290.5 97.5q112 0 211 -35.5t205 -107.5l-93 -141q-168 125 -329 125zM348 -264l33 168h180l-33 -168l-157 -158h-62l117 158h-78z" />
    <glyph glyph-name="scommaaccent" unicode="&#x219;" horiz-adv-x="806" 
d="M539 492q83 -57 124.5 -117.5t41.5 -145.5q0 -128 -85 -194t-233 -66q-122 0 -228 43.5t-186 118.5l88 115q160 -140 320 -140q83 0 124.5 33t41.5 90q0 78 -103 148l-125 84q-80 56 -122.5 118t-42.5 146q0 116 79.5 184t217.5 68q163 0 325 -107l-76 -122
q-134 92 -245 92q-70 0 -108 -32t-38 -89q0 -43 27.5 -76t87.5 -74zM219 -264l33 168h180l-33 -168l-157 -158h-62l117 158h-78z" />
    <glyph glyph-name="uni021A" unicode="&#x21a;" horiz-adv-x="1062" 
d="M1225 1434l-29 -150h-428l-250 -1284h-158l248 1284h-426l29 150h1014zM305 -264l33 168h180l-33 -168l-157 -158h-62l117 158h-78z" />
    <glyph glyph-name="uni021B" unicode="&#x21b;" horiz-adv-x="628" 
d="M436 821l-106 -553q-6 -27 -6 -49q0 -82 96 -82h55l-26 -139h-70q-97 0 -153 49t-56 141q0 24 8 78l109 555h-185l25 125h184l74 379h150l-74 -379h219l-25 -125h-219zM199 -264l32 168h181l-33 -168l-158 -158h-61l116 158h-77z" />
    <glyph glyph-name="uni0237" unicode="&#x237;" horiz-adv-x="409" 
d="M-209 -281h59q139 0 166 146l209 1081h150l-213 -1091q-28 -146 -109.5 -208.5t-210.5 -62.5h-78z" />
    <glyph glyph-name="uni02BC" unicode="&#x2bc;" horiz-adv-x="356" 
d="M301 1464h186l-34 -186l-215 -289h-66l170 289h-78z" />
    <glyph glyph-name="circumflex" unicode="&#x2c6;" horiz-adv-x="884" 
d="M231 1133l326 315h156l198 -315h-145l-137 227l-234 -227h-164z" />
    <glyph glyph-name="caron" unicode="&#x2c7;" horiz-adv-x="884" 
d="M487 1116l-198 316h143l139 -230l232 230h166l-326 -316h-156z" />
    <glyph glyph-name="breve" unicode="&#x2d8;" horiz-adv-x="759" 
d="M844 1430q-25 -137 -107.5 -214t-212.5 -77q-109 0 -176 56.5t-67 156.5q0 42 8 78h98q-6 -24 -6 -52q0 -65 37.5 -102t107.5 -37q89 0 138 49.5t69 141.5h111z" />
    <glyph glyph-name="dotaccent" unicode="&#x2d9;" horiz-adv-x="393" 
d="M473 1413l-49 -246h-186l47 246h188z" />
    <glyph glyph-name="ring" unicode="&#x2da;" horiz-adv-x="694" 
d="M520 1530q103 0 166.5 -62.5t63.5 -160.5q0 -105 -71.5 -180.5t-186.5 -75.5q-104 0 -167 62.5t-63 160.5q0 106 71 181t187 75zM518 1450q-81 0 -125.5 -51t-44.5 -123q0 -67 39 -106.5t107 -39.5q80 0 125 52t45 123q0 66 -39.5 105.5t-106.5 39.5z" />
    <glyph glyph-name="ogonek" unicode="&#x2db;" horiz-adv-x="524" 
d="M219 51l74 -28q-203 -156 -203 -244q0 -55 76 -55q41 0 92 14l2 -100q-59 -21 -123 -21q-76 0 -125 33t-49 96q0 72 63 146t193 159z" />
    <glyph glyph-name="tilde" unicode="&#x2dc;" horiz-adv-x="899" 
d="M760 1200q-52 0 -113 28t-114 55.5t-87 27.5q-70 0 -131 -94l-63 20q84 197 219 197q51 0 111.5 -28t113.5 -55.5t88 -27.5q68 0 129 94l64 -22q-17 -41 -35.5 -72t-44.5 -61t-61 -46t-76 -16z" />
    <glyph glyph-name="hungarumlaut" unicode="&#x2dd;" horiz-adv-x="788" 
d="M649 1448l-305 -315h-113l275 315h143zM877 1448l-306 -315h-112l274 315h144z" />
    <glyph glyph-name="gravecomb" unicode="&#x300;" horiz-adv-x="0" 
d="M-106 1448l133 -315h-109l-211 315h187z" />
    <glyph glyph-name="acutecomb" unicode="&#x301;" horiz-adv-x="0" 
d="M-383 1133l262 315h209l-344 -315h-127z" />
    <glyph glyph-name="uni0302" unicode="&#x302;" horiz-adv-x="0" 
d="M-653 1133l325 315h156l199 -315h-146l-137 227l-233 -227h-164z" />
    <glyph glyph-name="tildecomb" unicode="&#x303;" horiz-adv-x="0" 
d="M-139 1200q-52 0 -113 28t-114 55.5t-87 27.5q-70 0 -131 -94l-63 20q84 197 219 197q51 0 111.5 -28t113.5 -55.5t88 -27.5q68 0 129 94l64 -22q-17 -41 -35.5 -72t-44.5 -61t-61 -46t-76 -16z" />
    <glyph glyph-name="uni0304" unicode="&#x304;" horiz-adv-x="0" 
d="M68 1346l-23 -113h-577l22 113h578z" />
    <glyph glyph-name="uni0306" unicode="&#x306;" horiz-adv-x="0" 
d="M84 1430q-25 -137 -107.5 -214t-212.5 -77q-109 0 -176 56.5t-67 156.5q0 42 8 78h98q-6 -24 -6 -52q0 -65 38 -102t108 -37q89 0 137.5 49.5t68.5 141.5h111z" />
    <glyph glyph-name="uni0307" unicode="&#x307;" horiz-adv-x="0" 
d="M80 1413l-49 -246h-187l47 246h189z" />
    <glyph glyph-name="uni0308" unicode="&#x308;" horiz-adv-x="0" 
d="M-510 1176l45 237h164l-45 -237h-164zM-129 1176l47 237h162l-45 -237h-164z" />
    <glyph glyph-name="uni030A" unicode="&#x30a;" horiz-adv-x="0" 
d="M-174 1530q103 0 166 -62.5t63 -160.5q0 -105 -71.5 -180.5t-186.5 -75.5q-104 0 -166.5 62.5t-62.5 160.5q0 106 71 181t187 75zM-176 1450q-81 0 -125.5 -51t-44.5 -123q0 -67 38.5 -106.5t106.5 -39.5q80 0 125 52t45 123q0 66 -39 105.5t-106 39.5z" />
    <glyph glyph-name="uni030B" unicode="&#x30b;" horiz-adv-x="0" 
d="M-139 1448l-305 -315h-113l274 315h144zM88 1448l-305 -315h-113l275 315h143z" />
    <glyph glyph-name="uni030C" unicode="&#x30c;" horiz-adv-x="0" 
d="M-397 1116l-199 316h143l140 -230l231 230h166l-326 -316h-155z" />
    <glyph glyph-name="uni0326" unicode="&#x326;" horiz-adv-x="0" 
d="M-393 -96h180l-33 -168l-157 -158h-62l117 158h-78z" />
    <glyph glyph-name="uni0327" unicode="&#x327;" horiz-adv-x="0" 
d="M-518 -434l-25 53q94 43 136 72.5t42 64.5q0 26 -30.5 44t-91.5 32l127 211h67l-78 -125q30 -11 48.5 -19.5t40.5 -24t33 -37.5t11 -50q0 -38 -22 -70t-64.5 -58.5t-82.5 -45t-98 -42.5q-9 -3 -13 -5z" />
    <glyph glyph-name="uni0328" unicode="&#x328;" horiz-adv-x="0" 
d="M-305 51l74 -28q-203 -156 -203 -244q0 -55 76 -55q41 0 92 14l2 -100q-58 -21 -123 -21q-76 0 -125 33t-49 96q0 72 63 146t193 159z" />
    <glyph glyph-name="uni0394" unicode="&#x394;" horiz-adv-x="1286" 
d="M623 1434l530 -1434h-1204l530 1434h144zM551 1245l-416 -1175h832z" />
    <glyph glyph-name="uni03A9" unicode="&#x3a9;" horiz-adv-x="1710" 
d="M866 1464q161 0 295.5 -51t225.5 -142t141.5 -217t50.5 -274q0 -245 -137 -411t-357 -222v-6h457v-141h-594v219q223 43 352.5 192t129.5 363q0 160 -67 283.5t-195.5 194.5t-301.5 71q-261 0 -413 -152.5t-152 -396.5q0 -214 129.5 -363t353.5 -192v-219h-596v141h457v6
q-219 56 -356 222.5t-137 410.5q0 148 50 274t141.5 217t226 142t296.5 51z" />
    <glyph glyph-name="uni03BC" unicode="&#x3bc;" horiz-adv-x="1071" 
d="M883 946h151l-184 -946h-148l35 176h-4q-127 -207 -346 -207q-150 0 -221 90l-92 -469h-135l266 1356h153l-104 -534q-12 -55 -12 -105q0 -95 51.5 -143.5t150.5 -48.5q277 0 355 403z" />
    <glyph glyph-name="pi" unicode="&#x3c0;" horiz-adv-x="1234" 
d="M1272 977l-29 -141h-225l-162 -836h-139l162 836h-324l-358 -836h-144l361 836q-165 -3 -289 -41l27 141q125 41 290 41h830z" />
    <glyph glyph-name="uni0401" unicode="&#x401;" horiz-adv-x="1054" 
d="M690 1726l-41 -204h-170l41 204h170zM1085 1726l-41 -204h-170l41 204h170zM1112 1284h-641l-82 -412h592l-29 -147h-592l-112 -575h651l-29 -150h-811l281 1434h801z" />
    <glyph glyph-name="uni0402" unicode="&#x402;" horiz-adv-x="1458" 
d="M1051 846q94 0 160.5 -11.5t117.5 -39t76 -76t25 -119.5q0 -32 -11 -96l-30 -158q-32 -164 -139 -255t-292 -91h-174l29 150h137q126 0 192.5 52.5t90.5 176.5l20 96q11 69 11 82q0 80 -62 109.5t-201 29.5q-119 0 -362 -18l-131 -678h-160l250 1284h-416l29 150h1094
l-29 -150h-520l-88 -459q263 21 383 21z" />
    <glyph glyph-name="uni0403" unicode="&#x403;" horiz-adv-x="980" 
d="M1133 1767l-326 -245h-121l248 245h199zM1143 1434l-29 -152h-645l-250 -1282h-160l279 1434h805z" />
    <glyph glyph-name="uni0404" unicode="&#x404;" horiz-adv-x="1419" 
d="M961 1305q-254 0 -428.5 -144.5t-221.5 -369.5h670l-29 -148h-657v-4q0 -239 136 -374.5t374 -135.5q116 0 208.5 33t192.5 96l86 -133q-228 -156 -501 -156q-308 0 -487 181t-179 487q0 173 61 324.5t169.5 262.5t268 175.5t347.5 64.5q286 0 497 -161l-100 -134
q-190 136 -407 136z" />
    <glyph glyph-name="uni0405" unicode="&#x405;" horiz-adv-x="1050" 
d="M502 -31q-157 0 -290 57.5t-230 149.5l100 133q197 -178 424 -178q128 0 197 58.5t69 162.5q0 69 -37.5 129t-116.5 127l-194 166q-184 156 -184 344q0 151 102.5 248.5t290.5 97.5q112 0 211 -35.5t205 -107.5l-93 -141q-168 125 -329 125q-108 0 -162.5 -54.5
t-54.5 -132.5q0 -109 139 -225l192 -162q103 -88 152 -177.5t49 -197.5q0 -185 -119.5 -286t-320.5 -101z" />
    <glyph glyph-name="uni0406" unicode="&#x406;" horiz-adv-x="466" 
d="M59 0l281 1434h162l-281 -1434h-162z" />
    <glyph glyph-name="uni0407" unicode="&#x407;" horiz-adv-x="466" 
d="M150 1522l40 204h170l-41 -204h-169zM545 1522l41 204h170l-41 -204h-170zM59 0l281 1434h162l-281 -1434h-162z" />
    <glyph glyph-name="uni0408" unicode="&#x408;" horiz-adv-x="569" 
d="M-57 -10l28 153h52q84 0 132.5 38.5t69.5 135.5l219 1117h158l-221 -1149q-31 -159 -117.5 -227t-238.5 -68h-82z" />
    <glyph glyph-name="uni0409" unicode="&#x409;" horiz-adv-x="2199" 
d="M1718 834q205 0 316.5 -97t111.5 -276q0 -217 -149.5 -339t-386.5 -122h-520l249 1282h-731l-192 -997q-32 -158 -118 -226.5t-239 -68.5h-116l28 153h86q85 0 135 42t72 149l215 1100h160h774h115l-117 -600h307zM1606 150q178 0 273 83t95 220q0 112 -68.5 171.5
t-203.5 59.5h-320l-104 -534h328z" />
    <glyph glyph-name="uni040A" unicode="&#x40a;" horiz-adv-x="2142" 
d="M1661 834q205 0 316.5 -97t111.5 -276q0 -145 -70.5 -250.5t-191.5 -158t-277 -52.5h-518l133 684h-811l-133 -684h-162l279 1434h162l-117 -600h811l117 600h159l-116 -600h307zM1548 150q178 0 273.5 83t95.5 220q0 111 -69 171t-203 60h-320l-104 -534h327z" />
    <glyph glyph-name="uni040B" unicode="&#x40b;" horiz-adv-x="1445" 
d="M1081 825q167 0 247.5 -63t80.5 -191q0 -47 -12 -112l-90 -459h-160l92 477q6 35 6 62q0 73 -46.5 105t-147.5 32h-424l-131 -676h-160l250 1284h-404l29 150h563h531l-29 -150h-531l-90 -459h426z" />
    <glyph glyph-name="uni040C" unicode="&#x40c;" horiz-adv-x="1255" 
d="M1165 1767l-325 -245h-121l248 245h198zM1329 1434l-786 -676l610 -758h-213l-575 745l-146 -745h-160l279 1434h160l-125 -641l721 641h235z" />
    <glyph glyph-name="uni040E" unicode="&#x40e;" 
d="M827 1489q-117 0 -181 55t-64 154q0 32 6 69h104q-6 -35 -6 -55q0 -125 145 -125q89 0 135.5 47t65.5 133h109q-52 -278 -314 -278zM1223 1434h184l-954 -1434h-185l254 383l-327 1051h172l272 -877z" />
    <glyph glyph-name="uni040F" unicode="&#x40f;" horiz-adv-x="1427" 
d="M1462 1434l-278 -1434h-488l-55 -287h-149l55 287h-488l279 1434h162l-250 -1284h799l251 1284h162z" />
    <glyph glyph-name="uni0410" unicode="&#x410;" horiz-adv-x="1355" 
d="M1085 0l-77 383h-674l-221 -383h-187l844 1434h168l307 -1434h-160zM416 528h561l-146 723z" />
    <glyph glyph-name="uni0411" unicode="&#x411;" horiz-adv-x="1169" 
d="M1161 1284h-692l-88 -450h307q205 0 316.5 -97t111.5 -276q0 -217 -149 -339t-387 -122h-521l279 1434h160h692zM672 684h-320l-104 -534h327q179 0 274 83t95 220q0 112 -68.5 171.5t-203.5 59.5z" />
    <glyph glyph-name="uni0412" unicode="&#x412;" horiz-adv-x="1269" 
d="M905 758q129 -26 193.5 -109t64.5 -209q0 -138 -69.5 -239t-186.5 -151t-266 -50h-582l281 1434h485q178 0 276.5 -85.5t98.5 -238.5q0 -126 -77 -221.5t-218 -126.5v-4zM788 1284h-317l-92 -465h332q148 0 235.5 71t87.5 193q0 201 -246 201zM645 150q168 0 261 79.5
t93 204.5q0 112 -69.5 176t-210.5 64h-369l-104 -524h399z" />
    <glyph glyph-name="uni0413" unicode="&#x413;" horiz-adv-x="980" 
d="M1143 1434l-29 -152h-645l-250 -1282h-160l279 1434h805z" />
    <glyph glyph-name="uni0414" unicode="&#x414;" horiz-adv-x="1355" 
d="M1341 1434l-254 -1303h132l-80 -418h-148l51 269h-966l-51 -269h-150l82 418h113q116 139 178.5 301t109.5 402l117 600h866zM520 838q-47 -249 -104.5 -409t-165.5 -298h680l225 1153h-549z" />
    <glyph glyph-name="uni0415" unicode="&#x415;" horiz-adv-x="1054" 
d="M1112 1284h-641l-82 -412h592l-29 -147h-592l-112 -575h651l-29 -150h-811l281 1434h801z" />
    <glyph glyph-name="uni0416" unicode="&#x416;" horiz-adv-x="1865" 
d="M1958 1434l-711 -693l516 -741h-207l-487 735l-143 -735h-154l143 735l-765 -735h-232l830 778l-439 656h203l410 -660l129 660h153l-129 -662l660 662h223z" />
    <glyph glyph-name="uni0417" unicode="&#x417;" horiz-adv-x="1181" 
d="M535 -31q-305 0 -531 152l98 143q99 -64 201 -100.5t232 -36.5q166 0 268 68t102 215q0 272 -375 272h-170l29 149h168q188 0 305 72t117 201q0 103 -77.5 153t-205.5 50q-189 0 -399 -93l-66 144q252 106 480 106q209 0 324.5 -89.5t115.5 -250.5q0 -303 -387 -358v-2
q141 -18 223 -107t82 -249q0 -204 -136 -321.5t-398 -117.5z" />
    <glyph glyph-name="uni0418" unicode="&#x418;" horiz-adv-x="1423" 
d="M59 0l279 1434h160l-228 -1160h4l1014 1160h170l-278 -1434h-160l227 1159h-4l-1014 -1159h-170z" />
    <glyph glyph-name="uni0419" unicode="&#x419;" horiz-adv-x="1423" 
d="M1221 1767q-52 -278 -314 -278q-117 0 -181 55t-64 154q0 32 6 69h104q-6 -35 -6 -55q0 -125 145 -125q89 0 135.5 47t65.5 133h109zM59 0l279 1434h160l-228 -1160h4l1014 1160h170l-278 -1434h-160l227 1159h-4l-1014 -1159h-170z" />
    <glyph glyph-name="uni041A" unicode="&#x41a;" horiz-adv-x="1255" 
d="M1329 1434l-786 -676l610 -758h-213l-575 745l-146 -745h-160l279 1434h160l-125 -641l721 641h235z" />
    <glyph glyph-name="uni041B" unicode="&#x41b;" horiz-adv-x="1488" 
d="M1524 1434l-279 -1434h-160l250 1282h-729l-188 -981q-32 -165 -118.5 -238t-240.5 -73h-116l28 153h86q83 0 133.5 44t71.5 147l213 1100h1049z" />
    <glyph glyph-name="uni041C" unicode="&#x41c;" horiz-adv-x="1765" 
d="M-74 0l600 1434h144l192 -975h4l551 975h144l94 -1434h-160l-68 1137h-4l-522 -906h-137l-191 902h-4l-458 -1133h-185z" />
    <glyph glyph-name="uni041D" unicode="&#x41d;" horiz-adv-x="1423" 
d="M1298 1434h160l-278 -1434h-160l133 684h-801l-133 -684h-160l279 1434h160l-117 -598h801z" />
    <glyph glyph-name="uni041E" unicode="&#x41e;" horiz-adv-x="1701" 
d="M840 -31q-209 0 -370.5 82.5t-252 237.5t-90.5 360q0 168 60 317.5t167 259.5t263 174t339 64q210 0 371.5 -82.5t251.5 -237.5t90 -360q0 -168 -60 -317.5t-167 -259.5t-263 -174t-339 -64zM844 127q150 0 275 53.5t207 145.5t127.5 213t45.5 256q0 156 -73 273.5
t-196.5 178t-277.5 60.5q-120 0 -224.5 -35t-182.5 -97t-134.5 -145.5t-85 -183t-28.5 -207.5q0 -155 73.5 -273t197 -178.5t276.5 -60.5z" />
    <glyph glyph-name="uni041F" unicode="&#x41f;" horiz-adv-x="1411" 
d="M1444 1434l-279 -1434h-161l249 1284h-782l-250 -1284h-162l279 1434h1106z" />
    <glyph glyph-name="uni0420" unicode="&#x420;" horiz-adv-x="1122" 
d="M758 1434q200 0 311 -108t111 -277q0 -201 -146 -331t-401 -130h-299l-115 -588h-160l279 1434h420zM664 737q160 0 253 80t93 221q0 121 -71.5 183.5t-193.5 62.5h-276l-107 -547h302z" />
    <glyph glyph-name="uni0421" unicode="&#x421;" horiz-adv-x="1419" 
d="M791 -31q-308 0 -487 181t-179 487q0 173 61 324.5t169.5 262.5t268 175.5t347.5 64.5q286 0 497 -161l-100 -134q-190 136 -407 136q-148 0 -274.5 -53.5t-211.5 -144.5t-132.5 -212t-47.5 -256q0 -239 136 -374.5t374 -135.5q116 0 208.5 33t192.5 96l86 -133
q-228 -156 -501 -156z" />
    <glyph glyph-name="uni0422" unicode="&#x422;" horiz-adv-x="1062" 
d="M1225 1434l-29 -150h-428l-250 -1284h-158l248 1284h-426l29 150h1014z" />
    <glyph glyph-name="uni0423" unicode="&#x423;" 
d="M1223 1434h184l-954 -1434h-185l254 383l-327 1051h172l272 -877z" />
    <glyph glyph-name="uni0424" unicode="&#x424;" horiz-adv-x="1748" 
d="M1133 1354q271 -25 427 -178t156 -414q0 -210 -95.5 -366t-270 -239t-406.5 -83h-76l-26 -131h-158l27 135q-269 25 -424.5 178.5t-155.5 415.5q0 314 208.5 499t561.5 187h76l27 131h157zM303 674q0 -210 115 -321t332 -126l202 979h-61q-282 0 -435 -142.5t-153 -389.5
zM956 223q280 0 433 143.5t153 393.5q0 413 -448 444l-203 -981h65z" />
    <glyph glyph-name="uni0425" unicode="&#x425;" horiz-adv-x="1243" 
d="M1360 1434l-584 -689l346 -745h-170l-290 618l-525 -618h-200l649 764l-314 670h172l256 -545l463 545h197z" />
    <glyph glyph-name="uni0426" unicode="&#x426;" horiz-adv-x="1394" 
d="M1030 -287l55 287h-1026l279 1434h162l-250 -1284h721l250 1284h161l-249 -1284h129l-84 -437h-148z" />
    <glyph glyph-name="uni0427" unicode="&#x427;" horiz-adv-x="1169" 
d="M1044 1434h160l-278 -1434h-160l119 608h-426q-168 0 -248 63t-80 191q0 48 12 113l90 459h160l-94 -478q-6 -35 -6 -61q0 -72 47 -104.5t147 -32.5h426z" />
    <glyph glyph-name="uni0428" unicode="&#x428;" horiz-adv-x="2056" 
d="M59 0l279 1434h162l-250 -1284h635l250 1284h161l-249 -1284h632l250 1284h162l-279 -1434h-1753z" />
    <glyph glyph-name="uni0429" unicode="&#x429;" horiz-adv-x="2103" 
d="M1841 150h129l-84 -437h-149l55 287h-1733l279 1434h162l-250 -1284h635l250 1284h161l-249 -1284h632l250 1284h162z" />
    <glyph glyph-name="uni042A" unicode="&#x42a;" horiz-adv-x="1462" 
d="M981 834q205 0 316.5 -97t111.5 -276q0 -217 -150 -339t-387 -122h-520l250 1284h-420l29 150h580l-117 -600h307zM868 150q178 0 273.5 83t95.5 220q0 112 -68.5 171.5t-203.5 59.5h-320l-104 -534h327z" />
    <glyph glyph-name="uni042B" unicode="&#x42b;" horiz-adv-x="1564" 
d="M688 834q205 0 316.5 -97t111.5 -276q0 -217 -149 -339t-387 -122h-521l279 1434h160l-117 -600h307zM1438 1434h161l-278 -1434h-162zM575 150q179 0 274 83t95 220q0 112 -68.5 171.5t-203.5 59.5h-320l-104 -534h327z" />
    <glyph glyph-name="uni042C" unicode="&#x42c;" horiz-adv-x="1169" 
d="M688 834q205 0 316.5 -97t111.5 -276q0 -217 -149 -339t-387 -122h-521l279 1434h160l-117 -600h307zM575 150q179 0 274 83t95 220q0 112 -68.5 171.5t-203.5 59.5h-320l-104 -534h327z" />
    <glyph glyph-name="uni042D" unicode="&#x42d;" horiz-adv-x="1435" 
d="M756 1464q306 0 477.5 -168.5t171.5 -484.5q0 -178 -57 -331t-163.5 -267t-270 -179t-365.5 -65q-328 0 -537 166l111 139q90 -70 193 -108.5t243 -38.5q270 0 443 142.5t217 373.5h-672l28 148h658v6q0 246 -129.5 378t-353.5 132q-228 0 -453 -125l-72 145
q252 137 531 137z" />
    <glyph glyph-name="uni042E" unicode="&#x42e;" horiz-adv-x="2111" 
d="M1366 1464q209 0 370.5 -82.5t252 -237.5t90.5 -360q0 -168 -60.5 -317.5t-167.5 -259.5t-263 -174t-339 -64q-210 0 -371 82.5t-251 237.5t-90 360v21h-187l-131 -670h-160l279 1434h160l-119 -615h174q27 138 97 256.5t173.5 204.5t243.5 135t299 49zM1253 127
q149 0 274 53.5t207.5 145.5t128.5 213t46 256q0 155 -73.5 273t-197 178.5t-276.5 60.5q-150 0 -275 -53.5t-207 -145.5t-127.5 -213t-45.5 -256q0 -156 72.5 -273.5t196 -178t277.5 -60.5z" />
    <glyph glyph-name="uni042F" unicode="&#x42f;" horiz-adv-x="1206" 
d="M760 1434h481l-278 -1434h-160l121 616h-193l-565 -616h-211l584 627q-143 27 -222 119.5t-79 238.5q0 208 143.5 328.5t378.5 120.5zM655 766h297l101 520h-291q-170 0 -261 -82.5t-91 -210.5q0 -105 63.5 -166t181.5 -61z" />
    <glyph glyph-name="uni0430" unicode="&#x430;" horiz-adv-x="1200" 
d="M498 -31q-190 0 -308 126t-118 329q0 236 150 394.5t374 158.5q137 0 236.5 -60t140.5 -169h4l39 198h147l-182 -946h-150l31 154h-4q-144 -185 -360 -185zM547 111q170 0 281.5 116t111.5 291q0 145 -87.5 231.5t-236.5 86.5q-164 0 -275.5 -118.5t-111.5 -293.5
q0 -143 86 -228t232 -85z" />
    <glyph glyph-name="uni0431" unicode="&#x431;" horiz-adv-x="1216" 
d="M580 -31q-223 0 -353.5 130.5t-130.5 383.5q0 124 23.5 240t70 220t125 184t181.5 122q47 19 119 36.5t118 26t130 21t89 13.5q112 19 131 104h148q-13 -93 -67 -146t-152 -75q-39 -9 -132.5 -24.5t-176.5 -33.5t-144 -41q-252 -100 -301 -434h6q66 133 182.5 200
t260.5 67q195 0 315.5 -119.5t120.5 -317.5q0 -117 -40 -219t-111.5 -177t-178 -118t-233.5 -43zM592 115q177 0 286 112.5t109 290.5q0 147 -84.5 227t-228.5 80q-113 0 -209 -50t-153.5 -142t-57.5 -207q0 -144 93 -227.5t245 -83.5z" />
    <glyph glyph-name="uni0432" unicode="&#x432;" horiz-adv-x="1032" 
d="M748 496q170 -28 170 -199q0 -140 -103 -218.5t-252 -78.5h-528l184 946h481q121 0 193 -54.5t72 -162.5q0 -87 -56.5 -148.5t-160.5 -82.5v-2zM655 819h-311l-53 -268h315q98 0 147.5 41.5t49.5 107.5q0 58 -38 88.5t-110 30.5zM551 127q104 0 158.5 47.5t54.5 126.5
q0 135 -168 135h-328l-59 -309h342z" />
    <glyph glyph-name="uni0433" unicode="&#x433;" horiz-adv-x="743" 
d="M825 946l-26 -139h-459l-156 -807h-149l184 946h606z" />
    <glyph glyph-name="uni0434" unicode="&#x434;" horiz-adv-x="1089" 
d="M1016 946l-160 -829h125l-74 -383h-133l49 248h-764l-47 -248h-133l76 383h117q79 81 119 165t63 205l90 459h154h458h60zM408 479q-23 -120 -59 -203t-105 -159h463l135 696h-371z" />
    <glyph glyph-name="uni0435" unicode="&#x435;" horiz-adv-x="1112" 
d="M1032 453h-813q-2 -10 -2 -33q0 -151 78 -229t227 -78q109 0 195 42t170 124l92 -111q-102 -96 -210 -147.5t-249 -51.5q-211 0 -330.5 116t-119.5 323q0 246 157.5 407.5t403.5 161.5q198 0 308 -106.5t110 -282.5q0 -42 -17 -135zM623 846q-142 0 -243 -76t-140 -203
h657q2 10 2 31q0 115 -72 181.5t-204 66.5z" />
    <glyph glyph-name="uni0436" unicode="&#x436;" horiz-adv-x="1413" 
d="M1448 946l-502 -446l361 -500h-187l-338 485l-94 -485h-147l96 485l-504 -485h-211l561 522l-333 424h190l303 -420l82 420h147l-81 -418l444 418h213z" />
    <glyph glyph-name="uni0437" unicode="&#x437;" horiz-adv-x="944" 
d="M395 -31q-254 0 -438 99l68 125q180 -84 374 -84q287 0 287 180q0 78 -48 110.5t-153 32.5h-213l27 131h215q205 0 205 148q0 66 -51 96.5t-156 30.5q-171 0 -340 -47l-41 135q202 51 379 51q367 0 367 -238q0 -95 -70 -158t-193 -75l-2 -4q217 -15 217 -219
q0 -146 -111 -230t-323 -84z" />
    <glyph glyph-name="uni0438" unicode="&#x438;" horiz-adv-x="1097" 
d="M35 0l184 946h150l-144 -717h4l682 717h152l-184 -946h-150l141 717h-4l-682 -717h-149z" />
    <glyph glyph-name="uni0439" unicode="&#x439;" horiz-adv-x="1097" 
d="M954 1307q-25 -137 -107 -214t-212 -77q-109 0 -176.5 56.5t-67.5 156.5q0 42 8 78h99q-6 -24 -6 -52q0 -65 37.5 -102t107.5 -37q89 0 138 49.5t69 141.5h110zM35 0l184 946h150l-144 -717h4l682 717h152l-184 -946h-150l141 717h-4l-682 -717h-149z" />
    <glyph glyph-name="uni043A" unicode="&#x43a;" horiz-adv-x="933" 
d="M950 946l-514 -446l391 -500h-186l-365 477l-92 -477h-147l182 946h148l-80 -411l452 411h211z" />
    <glyph glyph-name="uni043B" unicode="&#x43b;" horiz-adv-x="1097" 
d="M1063 946l-184 -946h-150l158 811h-475l-115 -586q-46 -233 -272 -233h-88l24 139h72q98 0 119 119l137 696h774z" />
    <glyph glyph-name="uni043C" unicode="&#x43c;" horiz-adv-x="1341" 
d="M-57 0l446 946h137l123 -573h4l344 573h140l77 -946h-145l-49 715h-4l-340 -557h-115l-125 559h-4l-326 -717h-163z" />
    <glyph glyph-name="uni043D" unicode="&#x43d;" horiz-adv-x="1101" 
d="M920 946h147l-184 -946h-148l84 432h-551l-84 -432h-149l184 946h150l-74 -381h549z" />
    <glyph glyph-name="uni043E" unicode="&#x43e;" horiz-adv-x="1173" 
d="M537 -31q-213 0 -340 118.5t-127 326.5q0 156 72.5 284.5t203 203.5t293.5 75q212 0 338.5 -118.5t126.5 -326.5q0 -156 -72 -284.5t-202.5 -203.5t-292.5 -75zM549 115q174 0 285.5 119.5t111.5 293.5q0 141 -86 222t-235 81q-174 0 -286 -120t-112 -293
q0 -141 86.5 -222t235.5 -81z" />
    <glyph glyph-name="uni043F" unicode="&#x43f;" horiz-adv-x="1112" 
d="M1077 946l-184 -946h-150l158 811h-559l-158 -811h-149l184 946h150h708z" />
    <glyph glyph-name="uni0440" unicode="&#x440;" horiz-adv-x="1198" 
d="M-43 -412l262 1358h150l-31 -149h6q143 180 365 180q188 0 303.5 -120t115.5 -318q0 -164 -72 -295t-195.5 -203t-272.5 -72q-133 0 -227.5 59.5t-133.5 159.5h-6l-117 -600h-147zM565 111q173 0 289.5 122t116.5 304q0 136 -80.5 217.5t-220.5 81.5q-175 0 -292.5 -122
t-117.5 -304q0 -136 82 -217.5t223 -81.5z" />
    <glyph glyph-name="uni0441" unicode="&#x441;" horiz-adv-x="1003" 
d="M561 -31q-221 0 -353 129t-132 342q0 236 154 386.5t399 150.5q207 0 372 -123l-86 -121q-140 103 -294 103q-168 0 -278 -111.5t-110 -280.5q0 -149 93 -241t237 -92q123 0 258 77l66 -127q-159 -92 -326 -92z" />
    <glyph glyph-name="uni0442" unicode="&#x442;" horiz-adv-x="897" 
d="M977 946l-25 -135h-362l-158 -811h-149l157 811h-362l24 135h875z" />
    <glyph glyph-name="uni0443" unicode="&#x443;" horiz-adv-x="940" 
d="M844 946h168l-838 -1358h-160l324 525l-227 833h159l166 -676z" />
    <glyph glyph-name="uni0444" unicode="&#x444;" horiz-adv-x="1726" 
d="M621 -410l112 578h-4q-119 -199 -315 -199q-149 0 -241.5 107t-92.5 313q0 159 54 291t161 214.5t248 82.5q119 0 197.5 -58.5t103.5 -158.5h4l121 622h143l-119 -604h4q121 199 320 199q148 0 239 -107t91 -311q0 -159 -54.5 -292t-162 -215.5t-248.5 -82.5
q-122 0 -198 60t-101 159h-4l-115 -598h-143zM461 106q79 0 145.5 37.5t110 99t68 139t24.5 159.5q0 140 -66 218.5t-184 78.5q-82 0 -145.5 -38.5t-100.5 -103.5t-56 -141.5t-19 -159.5q0 -148 58 -218.5t165 -70.5zM1167 106q81 0 144.5 39.5t101.5 105t57 143t19 161.5
q0 283 -219 283q-106 0 -188 -63.5t-123 -160.5t-41 -208q0 -139 65.5 -219.5t183.5 -80.5z" />
    <glyph glyph-name="uni0445" unicode="&#x445;" horiz-adv-x="952" 
d="M993 946l-424 -454l271 -492h-158l-211 385l-360 -385h-185l475 510l-239 436h160l180 -330l307 330h184z" />
    <glyph glyph-name="uni0446" unicode="&#x446;" horiz-adv-x="1095" 
d="M1044 946l-157 -811h104l-78 -401h-133l51 266h-647h-149l184 946h150l-158 -811h528l158 811h147z" />
    <glyph glyph-name="uni0447" unicode="&#x447;" horiz-adv-x="897" 
d="M715 946h147l-184 -946h-148l76 381h-309q-123 0 -183.5 44.5t-60.5 149.5q0 32 10 97l54 274h149l-53 -262q-8 -39 -8 -72q0 -55 30.5 -76.5t98.5 -21.5h297z" />
    <glyph glyph-name="uni0448" unicode="&#x448;" horiz-adv-x="1613" 
d="M1430 946h149l-184 -946h-150h-604h-553h-53l184 946h150l-158 -811h457l157 811h148l-158 -811h457z" />
    <glyph glyph-name="uni0449" unicode="&#x449;" horiz-adv-x="1630" 
d="M1579 946l-158 -811h103l-76 -401h-133l51 266h-578h-604h-149l184 946h150l-158 -811h457l157 811h148l-158 -811h457l158 811h149z" />
    <glyph glyph-name="uni044A" unicode="&#x44a;" horiz-adv-x="1165" 
d="M793 596q134 0 217.5 -64.5t83.5 -195.5q0 -150 -106 -243t-275 -93h-445l158 811h-348l24 135h488h12l-67 -350h258zM723 135q99 0 156 52.5t57 136.5q0 137 -170 137h-258l-64 -326h279z" />
    <glyph glyph-name="uni044B" unicode="&#x44b;" horiz-adv-x="1280" 
d="M559 596q134 0 217.5 -64.5t83.5 -195.5q0 -150 -106 -243t-275 -93h-444l184 946h150l-70 -350h260zM1096 946h149l-184 -946h-150zM489 135q99 0 156 52.5t57 136.5q0 137 -170 137h-258l-63 -326h278z" />
    <glyph glyph-name="uni044C" unicode="&#x44c;" horiz-adv-x="931" 
d="M559 596q134 0 217.5 -64.5t83.5 -195.5q0 -150 -106 -243t-275 -93h-444l184 946h150l-70 -350h260zM489 135q99 0 156 52.5t57 136.5q0 137 -170 137h-258l-63 -326h278z" />
    <glyph glyph-name="uni044D" unicode="&#x44d;" horiz-adv-x="974" 
d="M449 977q214 0 330 -119t116 -326q0 -158 -65 -284t-196 -202.5t-308 -76.5q-187 0 -346 90l77 125q127 -73 271 -73q159 0 263 82.5t138 216.5h-420l23 127h411q-3 144 -81.5 221.5t-217.5 77.5q-130 0 -268 -58l-51 131q157 68 324 68z" />
    <glyph glyph-name="uni044E" unicode="&#x44e;" horiz-adv-x="1509" 
d="M975 977q212 0 338.5 -118.5t126.5 -326.5q0 -238 -161.5 -400.5t-406.5 -162.5q-213 0 -339 117t-127 326h-142l-80 -412h-149l184 946h150l-80 -409h129q40 194 192.5 317t364.5 123zM887 115q172 0 283.5 120t111.5 293q0 141 -86 222t-235 81q-174 0 -286 -120
t-112 -293q0 -141 86.5 -222t237.5 -81z" />
    <glyph glyph-name="uni044F" unicode="&#x44f;" horiz-adv-x="966" 
d="M469 946h463l-184 -946h-148l72 371h-187l-358 -371h-188l368 377q-106 17 -165.5 83.5t-59.5 170.5q0 142 103.5 228.5t283.5 86.5zM696 504l62 309h-289q-106 0 -166.5 -47t-60.5 -129q0 -133 159 -133h295z" />
    <glyph glyph-name="uni0451" unicode="&#x451;" horiz-adv-x="1112" 
d="M631 1303l-45 -238h-152l45 238h152zM954 1303l-45 -238h-151l45 238h151zM1032 453h-813q-2 -10 -2 -33q0 -151 78 -229t227 -78q109 0 195 42t170 124l92 -111q-102 -96 -210 -147.5t-249 -51.5q-211 0 -330.5 116t-119.5 323q0 246 157.5 407.5t403.5 161.5
q198 0 308 -106.5t110 -282.5q0 -42 -17 -135zM623 846q-142 0 -243 -76t-140 -203h657q2 10 2 31q0 115 -72 181.5t-204 66.5z" />
    <glyph glyph-name="uni0452" unicode="&#x452;" horiz-adv-x="1120" 
d="M711 977q142 0 225.5 -79.5t83.5 -238.5q0 -68 -12 -124l-101 -535l-28 -154q-52 -260 -314 -260h-84l27 135h61q71 0 109 34t53 110l27 135l104 543q6 43 6 78q0 102 -54 157.5t-155 55.5q-63 0 -119 -21.5t-106.5 -66.5t-89 -124t-59.5 -186l-84 -436h-150l228 1169
h-144l21 97h141l33 168h149l-33 -168h328l-18 -97h-328l-80 -407h4q132 215 359 215z" />
    <glyph glyph-name="uni0453" unicode="&#x453;" horiz-adv-x="743" 
d="M940 1346l-332 -316h-123l256 316h199zM825 946l-26 -139h-459l-156 -807h-149l184 946h606z" />
    <glyph glyph-name="uni0454" unicode="&#x454;" horiz-adv-x="1013" 
d="M582 838q-146 0 -244 -81.5t-129 -209.5h444l-24 -127h-432q9 -143 102.5 -227t232.5 -84q129 0 259 79l65 -127q-157 -92 -326 -92q-221 0 -353 129t-132 342q0 113 38.5 211.5t108 170.5t172.5 113.5t226 41.5q217 0 381 -123l-86 -121q-137 105 -303 105z" />
    <glyph glyph-name="uni0455" unicode="&#x455;" horiz-adv-x="806" 
d="M61 246q160 -140 320 -140q83 0 124.5 33t41.5 90q0 78 -103 148l-125 84q-80 56 -122.5 118t-42.5 146q0 116 79.5 184t217.5 68q163 0 325 -107l-76 -122q-134 92 -245 92q-70 0 -108 -32t-38 -89q0 -43 27.5 -76t87.5 -74l115 -77q83 -57 124.5 -117.5t41.5 -145.5
q0 -128 -85 -194t-233 -66q-122 0 -228 43.5t-186 118.5z" />
    <glyph glyph-name="uni0456" unicode="&#x456;" horiz-adv-x="415" 
d="M479 1413l-49 -246h-186l47 246h188zM41 0l184 946h150l-185 -946h-149z" />
    <glyph glyph-name="uni0457" unicode="&#x457;" horiz-adv-x="415" 
d="M324 1303l-45 -238h-158l45 238h158zM571 1303l-45 -238h-157l45 238h157zM41 0l184 946h150l-185 -946h-149z" />
    <glyph glyph-name="uni0458" unicode="&#x458;" horiz-adv-x="409" 
d="M479 1413l-49 -246h-186l47 246h188zM-209 -281h59q139 0 166 146l209 1081h150l-213 -1091q-28 -146 -109.5 -208.5t-210.5 -62.5h-78z" />
    <glyph glyph-name="uni0459" unicode="&#x459;" horiz-adv-x="1619" 
d="M1247 596q134 0 217.5 -64.5t83.5 -195.5q0 -151 -105.5 -243.5t-275.5 -92.5h-442l158 811h-471l-115 -586q-46 -233 -272 -233h-88l24 139h72q98 0 119 119l137 696h149h514h105l-68 -350h258zM1178 135q99 0 156 52.5t57 136.5q0 137 -170 137h-258l-64 -326h279z" />
    <glyph glyph-name="uni045A" unicode="&#x45a;" horiz-adv-x="1638" 
d="M1272 596q131 0 213 -63.5t82 -194.5q0 -150 -107 -244t-274 -94h-457l90 461h-545l-90 -461h-149l184 946h150l-70 -350h547l67 350h150l-68 -350h277zM1196 135q96 0 154.5 54.5t58.5 138.5q0 133 -170 133h-270l-64 -326h291z" />
    <glyph glyph-name="uni045B" unicode="&#x45b;" horiz-adv-x="1120" 
d="M711 977q142 0 225.5 -79.5t83.5 -238.5q0 -68 -12 -124l-101 -535h-149l104 543q6 43 6 78q0 102 -54 157.5t-155 55.5q-63 0 -119 -21.5t-106.5 -66.5t-89 -124t-59.5 -186l-84 -436h-150l228 1169h-144l21 97h141l33 168h149l-33 -168h328l-18 -97h-328l-80 -407h4
q132 215 359 215z" />
    <glyph glyph-name="uni045C" unicode="&#x45c;" horiz-adv-x="933" 
d="M969 1346l-332 -316h-123l256 316h199zM739 946h211l-514 -446l391 -500h-186l-365 477l-92 -477h-147l182 946h148l-80 -411z" />
    <glyph glyph-name="uni045E" unicode="&#x45e;" horiz-adv-x="940" 
d="M563 1016q-109 0 -176.5 56.5t-67.5 156.5q0 37 9 78h98q-6 -24 -6 -52q0 -65 37.5 -102t107.5 -37q89 0 138 49.5t69 141.5h111q-25 -137 -107.5 -214t-212.5 -77zM844 946h168l-838 -1358h-160l324 525l-227 833h159l166 -676z" />
    <glyph glyph-name="uni045F" unicode="&#x45f;" horiz-adv-x="1073" 
d="M889 946h147l-184 -946h-342l-51 -266h-133l51 266h-342l184 946h150l-158 -811h520z" />
    <glyph glyph-name="uni0462" unicode="&#x462;" horiz-adv-x="1271" 
d="M791 834q205 0 316.5 -97t111.5 -276q0 -145 -70.5 -250.5t-191.5 -158t-277 -52.5h-518l207 1067h-230l29 139h227l45 228h160l-45 -228h485l-26 -139h-486l-45 -233h308zM678 150q178 0 273.5 83t95.5 220q0 111 -69.5 171t-203.5 60h-319l-105 -534h328z" />
    <glyph glyph-name="uni0463" unicode="&#x463;" horiz-adv-x="972" 
d="M600 596q134 0 217.5 -64.5t83.5 -195.5q0 -150 -106 -243t-275 -93h-444l162 825h-168l22 121h168l94 488h150l-94 -488h356l-23 -121h-356l-45 -229h258zM530 135q99 0 156 52.5t57 136.5q0 137 -170 137h-258l-63 -326h278z" />
    <glyph glyph-name="uni0472" unicode="&#x472;" horiz-adv-x="1701" 
d="M956 1464q210 0 371.5 -82.5t251.5 -237.5t90 -360q0 -168 -60 -317.5t-167 -259.5t-263 -174t-339 -64q-209 0 -370.5 82.5t-252 237.5t-90.5 360q0 168 60 317.5t167 259.5t263 174t339 64zM952 1307q-173 0 -312 -72t-222 -192.5t-109 -272.5h1190v25q0 156 -73 273.5
t-196.5 178t-277.5 60.5zM844 127q131 0 244 41.5t193.5 114.5t134 170t73.5 211h-1192v-25q0 -155 73.5 -273t197 -178.5t276.5 -60.5z" />
    <glyph glyph-name="uni0473" unicode="&#x473;" horiz-adv-x="1173" 
d="M639 977q208 0 336.5 -117t128.5 -328q0 -153 -70 -281t-200.5 -205t-296.5 -77q-210 0 -338.5 117t-128.5 328q0 154 70 281.5t201 204.5t298 77zM625 831q-155 0 -258 -88.5t-134 -220.5h719v6q0 144 -89 223.5t-238 79.5zM549 115q156 0 258 88.5t133 220.5h-719v-6
q0 -144 89.5 -223.5t238.5 -79.5z" />
    <glyph glyph-name="uni0474" unicode="&#x474;" horiz-adv-x="1318" 
d="M1180 1106l-598 -1106h-150l-235 1434h172l170 -1192h4l456 874q41 79 69 126t65 93.5t74 70t87 38t113 14.5q34 0 92 -4l-29 -147q-25 2 -71 2q-63 0 -109.5 -43.5t-109.5 -159.5z" />
    <glyph glyph-name="uni0475" unicode="&#x475;" horiz-adv-x="1003" 
d="M1065 965h16l-30 -150h-17q-51 0 -87 -23.5t-70 -78.5l-424 -713h-144l-198 946h157l135 -768l351 615q55 97 123.5 134.5t187.5 37.5z" />
    <glyph glyph-name="uni048E" unicode="&#x48e;" horiz-adv-x="1122" 
d="M1180 1049q0 -135 -69 -242.5t-196 -163.5l127 -176l-63 -47l-139 194q-99 -26 -207 -26h-299l-115 -588h-160l279 1434h420q200 0 311 -108t111 -277zM827 764q88 34 135.5 104t47.5 170q0 121 -71.5 183.5t-193.5 62.5h-276l-107 -547h302q44 0 81 6l-143 199l64 45z
" />
    <glyph glyph-name="uni048F" unicode="&#x48f;" horiz-adv-x="1210" 
d="M1128 539q0 -155 -65 -280.5t-176 -199.5l121 -165l-66 -46l-125 172q-108 -51 -229 -51q-133 0 -227.5 59.5t-133.5 159.5h-6l-117 -600h-147l262 1358h150l-31 -149h6q143 180 365 180q188 0 303.5 -120t115.5 -318zM565 111q84 0 162 32l-115 156l64 45l119 -162
q83 58 129.5 150t46.5 205q0 136 -80.5 217.5t-220.5 81.5q-175 0 -292.5 -122t-117.5 -304q0 -136 82 -217.5t223 -81.5z" />
    <glyph glyph-name="uni0490" unicode="&#x490;" horiz-adv-x="993" 
d="M59 0l279 1434h657l56 286h159l-84 -438h-657l-250 -1282h-160z" />
    <glyph glyph-name="uni0491" unicode="&#x491;" horiz-adv-x="757" 
d="M748 1233h147l-84 -426h-471l-156 -807h-149l184 946h473z" />
    <glyph glyph-name="uni0492" unicode="&#x492;" horiz-adv-x="1060" 
d="M1194 1282h-645l-94 -479h456l-26 -139h-457l-129 -664h-160l129 664h-207l27 139h207l123 631h805z" />
    <glyph glyph-name="uni0493" unicode="&#x493;" horiz-adv-x="808" 
d="M864 807h-456l-52 -264h320l-29 -140h-317l-80 -403h-150l78 403h-155l28 140h156l78 403h606z" />
    <glyph glyph-name="uni0494" unicode="&#x494;" horiz-adv-x="1208" 
d="M805 821q178 0 269 -61t91 -209q0 -64 -14 -133l-84 -434q-37 -198 -139.5 -296t-274.5 -98h-159l28 150h121q108 0 173 59.5t91 188.5l84 430q8 66 8 88q0 97 -58.5 132.5t-182.5 35.5q-130 0 -412 -23l-127 -651h-160l279 1434h805l-29 -152h-645l-94 -483
q293 22 430 22z" />
    <glyph glyph-name="uni0495" unicode="&#x495;" horiz-adv-x="964" 
d="M578 520q284 0 284 -221q0 -53 -12 -117l-49 -264q-65 -328 -367 -328h-143l28 140h109q89 0 146 43.5t79 150.5l41 217q17 83 17 121q0 67 -44.5 97t-136.5 30q-100 0 -276 -20l-72 -369h-147l184 946h670l-27 -139h-522l-61 -307q220 20 299 20z" />
    <glyph glyph-name="uni0496" unicode="&#x496;" horiz-adv-x="1937" 
d="M1247 741l447 -641h131l-76 -391h-147l57 291h-103l-487 735l-143 -735h-154l143 735l-765 -735h-232l830 778l-439 656h203l410 -660l129 660h153l-129 -662l660 662h223z" />
    <glyph glyph-name="uni0497" unicode="&#x497;" horiz-adv-x="1464" 
d="M946 500l297 -412h109l-70 -354h-133l53 266h-82l-338 485l-94 -485h-147l96 485l-504 -485h-211l561 522l-333 424h190l303 -420l82 420h147l-81 -418l444 418h213z" />
    <glyph glyph-name="uni0498" unicode="&#x498;" horiz-adv-x="1181" 
d="M764 764q141 -18 223 -107t82 -249q0 -203 -134.5 -320.5t-395.5 -118.5l-33 -51q30 -11 48.5 -19.5t40.5 -24t33 -37.5t11 -50q0 -25 -8.5 -47.5t-34 -44t-40.5 -34.5t-59 -34t-58 -27t-67 -28q-9 -4 -14 -6l-24 53q94 43 136 72.5t42 64.5q0 26 -31 43.5t-92 32.5
l84 139q-261 13 -469 150l98 143q99 -64 201 -100.5t232 -36.5q166 0 268 68t102 215q0 272 -375 272h-170l29 149h168q188 0 305 72t117 201q0 103 -77.5 153t-205.5 50q-189 0 -399 -93l-66 144q252 106 480 106q209 0 324.5 -89.5t115.5 -250.5q0 -303 -387 -358v-2z" />
    <glyph glyph-name="uni0499" unicode="&#x499;" horiz-adv-x="944" 
d="M612 502q217 -15 217 -219q0 -145 -108 -229t-315 -85l-33 -51q30 -11 48.5 -19.5t40.5 -24t33 -37.5t11 -50q0 -25 -8.5 -47.5t-34 -44t-40.5 -34.5t-59 -34t-58 -27t-67 -28q-9 -4 -14 -6l-24 53q94 43 136 72.5t42 64.5q0 26 -31 43.5t-92 32.5l84 139q-219 8 -383 97
l68 125q180 -84 374 -84q287 0 287 180q0 78 -48 110.5t-153 32.5h-213l27 131h215q205 0 205 148q0 66 -51 96.5t-156 30.5q-171 0 -340 -47l-41 135q202 51 379 51q367 0 367 -238q0 -95 -70 -158t-193 -75z" />
    <glyph glyph-name="uni049A" unicode="&#x49a;" horiz-adv-x="1327" 
d="M543 758l528 -658h143l-75 -391h-148l58 291h-109l-575 745l-146 -745h-160l279 1434h160l-125 -641l721 641h235z" />
    <glyph glyph-name="uni049B" unicode="&#x49b;" horiz-adv-x="968" 
d="M436 500l324 -412h110l-69 -354h-131l51 266h-80l-365 477l-92 -477h-147l182 946h148l-80 -411l452 411h211z" />
    <glyph glyph-name="uni049C" unicode="&#x49c;" horiz-adv-x="1372" 
d="M1456 1434l-696 -676l510 -758h-207l-447 700h-71l-56 -286h-86l56 286h-103l-137 -700h-160l279 1434h160l-115 -586h104l62 317h86l-62 -317h80l572 586h231z" />
    <glyph glyph-name="uni049D" unicode="&#x49d;" horiz-adv-x="1003" 
d="M1034 946l-446 -448l309 -498h-174l-270 449h-52l-47 -248h-57l47 248h-74l-86 -449h-149l184 946h150l-74 -375h74l47 242h57l-47 -242h47l354 375h207z" />
    <glyph glyph-name="uni049E" unicode="&#x49e;" horiz-adv-x="1384" 
d="M1458 1434l-784 -676l608 -758h-213l-575 745l-146 -745h-160l224 1151h-254l18 104h256l35 179h160l-35 -179h246l-21 -104h-246l-69 -358l721 641h235z" />
    <glyph glyph-name="uni049F" unicode="&#x49f;" horiz-adv-x="954" 
d="M969 946l-514 -446l391 -500h-189l-364 477l-92 -477h-150l228 1169h-144l21 97h141l33 168h149l-33 -168h328l-18 -97h-328l-123 -634l451 411h213z" />
    <glyph glyph-name="uni04A0" unicode="&#x4a0;" horiz-adv-x="1546" 
d="M1622 1434l-786 -676l608 -758h-211l-576 745l-145 -745h-160l250 1284h-420l29 150h580l-125 -641l720 641h236z" />
    <glyph glyph-name="uni04A1" unicode="&#x4a1;" horiz-adv-x="1167" 
d="M1182 946l-512 -446l391 -500h-189l-364 477l-92 -477h-146l156 807h-350l26 139h410h88l-80 -411l453 411h209z" />
    <glyph glyph-name="uni04A2" unicode="&#x4a2;" horiz-adv-x="1406" 
d="M1458 1434l-260 -1334h96l-75 -391h-148l57 291h-108l133 684h-801l-133 -684h-160l279 1434h160l-117 -598h801l116 598h160z" />
    <glyph glyph-name="uni04A3" unicode="&#x4a3;" horiz-adv-x="1107" 
d="M1067 946l-166 -858h92l-69 -354h-131l51 266h-109l84 432h-551l-84 -432h-149l184 946h150l-74 -381h549l76 381h147z" />
    <glyph glyph-name="uni04A4" unicode="&#x4a4;" horiz-adv-x="1867" 
d="M2030 1434l-27 -146h-573l-250 -1288h-160l133 684h-801l-133 -684h-160l279 1434h160l-117 -598h801l116 598h732z" />
    <glyph glyph-name="uni04A5" unicode="&#x4a5;" horiz-adv-x="1402" 
d="M1483 946l-27 -139h-416l-157 -807h-148l84 432h-551l-84 -432h-149l184 946h150l-74 -381h549l76 381h147h416z" />
    <glyph glyph-name="uni04A6" unicode="&#x4a6;" horiz-adv-x="2158" 
d="M1751 846q189 0 283 -54t94 -192q0 -38 -10 -96l-31 -158q-30 -164 -137 -255t-293 -91h-174l28 150h140q125 0 190.5 52t91.5 177l19 96q12 75 12 82q0 80 -61.5 109.5t-200.5 29.5q-175 0 -406 -22l-131 -674h-161l249 1284h-782l-250 -1284h-162l279 1434h1106
l-119 -611q301 23 426 23z" />
    <glyph glyph-name="uni04A7" unicode="&#x4a7;" horiz-adv-x="1658" 
d="M1307 555q286 0 286 -221q0 -52 -12 -117l-63 -299q-34 -167 -122.5 -247.5t-242.5 -80.5h-143l26 140h109q90 0 146.5 43t78.5 151l55 254q17 79 17 121q0 66 -44 95.5t-136 29.5q-98 0 -291 -21l-78 -403h-150l158 811h-559l-158 -811h-149l184 946h150h673h35
l-80 -411q220 20 310 20z" />
    <glyph glyph-name="uni04A8" unicode="&#x4a8;" horiz-adv-x="1632" 
d="M1243 104q103 0 225 64l39 -129q-88 -37 -152.5 -53.5t-135.5 -16.5q-141 0 -226 54q-102 -54 -256 -54q-131 0 -238 40.5t-186 120t-122.5 205.5t-43.5 288q0 138 31.5 263t96.5 230.5t158.5 183t223.5 121t285 43.5q173 0 311 -51l-71 -145q-113 37 -244 37
q-152 0 -272.5 -56.5t-194.5 -152.5t-113 -218t-39 -260q0 -250 118 -379.5t325 -129.5q66 0 112 10q-73 73 -112 185.5t-39 244.5q0 114 30.5 214.5t86.5 177.5t143.5 122t194.5 45q165 0 254.5 -100.5t89.5 -280.5t-89.5 -347t-261.5 -267q52 -9 72 -9zM885 547
q0 -122 40 -218.5t111 -154.5q149 77 238.5 222.5t89.5 314.5q0 239 -193 239q-132 0 -209 -111.5t-77 -291.5z" />
    <glyph glyph-name="uni04A9" unicode="&#x4a9;" horiz-adv-x="1167" 
d="M1028 121l37 -98q-123 -54 -223 -54q-107 0 -172 41q-68 -41 -187 -41q-193 0 -303 116.5t-110 320.5q0 261 158.5 416t424.5 155q144 0 246 -41l-61 -131q-90 33 -181 33q-198 0 -316 -118.5t-118 -316.5q0 -151 77.5 -232t223.5 -81h8q-86 92 -86 242q0 161 94 261.5
t244 100.5q126 0 196.5 -66t70.5 -186q0 -109 -57 -203.5t-158 -158.5h16q95 0 176 41zM584 326q0 -144 102 -207q105 41 168.5 122.5t63.5 182.5q0 72 -36 110.5t-104 38.5q-87 0 -140.5 -68t-53.5 -179z" />
    <glyph glyph-name="uni04AA" unicode="&#x4aa;" horiz-adv-x="1425" 
d="M961 1305q-148 0 -274.5 -53.5t-211.5 -144.5t-132.5 -212t-47.5 -256q0 -239 136 -374.5t374 -135.5q116 0 208.5 33t192.5 96l86 -133q-228 -156 -501 -156h-21l-33 -51q30 -11 48.5 -19.5t40.5 -24t33 -37.5t11 -50q0 -38 -22 -70t-64.5 -58.5t-82.5 -45t-98 -42.5
q-9 -3 -13 -5l-25 53q94 43 136 72.5t42 64.5q0 26 -30.5 44t-91.5 32l84 141q-270 26 -425 203.5t-155 460.5q0 173 61 324.5t169.5 262.5t268 175.5t347.5 64.5q286 0 497 -161l-100 -134q-190 136 -407 136z" />
    <glyph glyph-name="uni04AB" unicode="&#x4ab;" horiz-adv-x="1003" 
d="M621 836q-168 0 -278 -111.5t-110 -280.5q0 -149 93 -241t237 -92q123 0 258 77l66 -127q-160 -92 -322 -92l-33 -51q31 -11 49 -19.5t40.5 -24t33.5 -37.5t11 -50q0 -25 -8.5 -47.5t-34 -44t-40.5 -34.5t-59 -34t-58 -27t-67 -28q-9 -4 -14 -6l-25 53q94 44 136.5 73
t42.5 64q0 26 -31 43.5t-92 32.5l84 139q-195 19 -309.5 145.5t-114.5 323.5q0 236 154 386.5t399 150.5q207 0 372 -123l-86 -121q-140 103 -294 103z" />
    <glyph glyph-name="uni04AC" unicode="&#x4ac;" horiz-adv-x="1062" 
d="M1196 1284h-428l-229 -1184h98l-78 -391h-147l57 291h-109l248 1284h-426l29 150h1014z" />
    <glyph glyph-name="uni04AD" unicode="&#x4ad;" horiz-adv-x="897" 
d="M952 811h-362l-141 -723h92l-70 -354h-133l53 266h-108l157 811h-362l24 135h875z" />
    <glyph glyph-name="uni04AE" unicode="&#x4ae;" horiz-adv-x="1097" 
d="M1274 1434l-629 -873l-110 -561h-158l108 557l-288 877h176l209 -715h4l489 715h199z" />
    <glyph glyph-name="uni04AF" unicode="&#x4af;" horiz-adv-x="948" 
d="M1022 946l-565 -938l-80 -418h-150l82 418l-198 938h157l138 -768l436 768h180z" />
    <glyph glyph-name="uni04B0" unicode="&#x4b0;" horiz-adv-x="1093" 
d="M1272 1434l-613 -850l347 2l-25 -133h-358l-88 -453h-160l88 453l-346 -2l24 133h334l-280 850h176l209 -715h4l491 715h197z" />
    <glyph glyph-name="uni04B1" unicode="&#x4b1;" horiz-adv-x="948" 
d="M1022 946l-547 -907h244l-25 -129h-256l-61 -320h-150l62 320h-254l22 129h246l-192 907h157l138 -768l436 768h180z" />
    <glyph glyph-name="uni04B2" unicode="&#x4b2;" horiz-adv-x="1302" 
d="M776 745l299 -645h117l-78 -391h-147l57 291h-72l-290 618l-525 -618h-200l649 764l-314 670h172l256 -545l463 545h197z" />
    <glyph glyph-name="uni04B3" unicode="&#x4b3;" horiz-adv-x="1021" 
d="M569 492l224 -404h116l-69 -354h-133l53 266h-78l-211 385l-360 -385h-185l475 510l-239 436h160l180 -330l307 330h184z" />
    <glyph glyph-name="uni04B4" unicode="&#x4b4;" horiz-adv-x="1712" 
d="M1700 1434l-250 -1284h129l-84 -437h-147l55 287h-1026l250 1284h-445l29 150h606h352l-28 -150h-353l-221 -1134h721l250 1284h162z" />
    <glyph glyph-name="uni04B5" unicode="&#x4b5;" horiz-adv-x="1331" 
d="M1280 946l-158 -811h105l-78 -401h-133l51 266h-649h-148l158 807h-352l26 139h500h272l-26 -139h-273l-131 -672h529l157 811h150z" />
    <glyph glyph-name="uni04B6" unicode="&#x4b6;" horiz-adv-x="1175" 
d="M1204 1434l-260 -1334h121l-78 -391h-147l57 291h-131l119 608h-426q-168 0 -248 63t-80 191q0 48 12 113l90 459h160l-94 -478q-6 -35 -6 -61q0 -72 47 -104.5t147 -32.5h426l131 676h160z" />
    <glyph glyph-name="uni04B7" unicode="&#x4b7;" horiz-adv-x="915" 
d="M862 946l-166 -858h105l-68 -354h-133l53 266h-123l76 381h-309q-123 0 -183.5 44.5t-60.5 149.5q0 32 10 97l54 274h149l-53 -262q-8 -39 -8 -72q0 -55 30.5 -76.5t98.5 -21.5h297l84 432h147z" />
    <glyph glyph-name="uni04B8" unicode="&#x4b8;" horiz-adv-x="1169" 
d="M1044 1434h160l-278 -1434h-160l119 608h-252l-55 -289h-86l55 289h-88q-168 0 -248 63t-80 191q0 48 12 113l90 459h160l-94 -478q-6 -35 -6 -61q0 -72 47 -104.5t147 -32.5h91l59 311h86l-61 -311h251z" />
    <glyph glyph-name="uni04B9" unicode="&#x4b9;" horiz-adv-x="897" 
d="M715 946h147l-184 -946h-148l76 381h-186l-35 -186h-61l36 186h-63q-123 0 -183.5 44.5t-60.5 149.5q0 32 10 97l54 274h149l-53 -262q-8 -39 -8 -72q0 -55 30.5 -76.5t98.5 -21.5h51l43 215h59l-41 -215h185z" />
    <glyph glyph-name="uni04BA" unicode="&#x4ba;" horiz-adv-x="1169" 
d="M805 825q167 0 247.5 -63t80.5 -191q0 -42 -13 -112l-90 -459h-160l95 477q6 35 6 62q0 73 -47 105t-148 32h-426l-131 -676h-160l279 1434h160l-119 -609h426z" />
    <glyph glyph-name="uni04BB" unicode="&#x4bb;" horiz-adv-x="1118" 
d="M49 0l279 1434h149l-131 -672h4q132 215 359 215q142 0 225.5 -79.5t83.5 -238.5q0 -68 -12 -124l-101 -535h-149l104 543q6 43 6 78q0 102 -54 157.5t-155 55.5q-63 0 -119 -21.5t-106.5 -66.5t-89 -124t-59.5 -186l-84 -436h-150z" />
    <glyph glyph-name="uni04BC" unicode="&#x4bc;" horiz-adv-x="1898" 
d="M1241 1464q298 0 473.5 -154.5t175.5 -418.5q0 -89 -35 -242h-165h-1129v-16q0 -240 143.5 -373t378.5 -133q161 0 297.5 61t239.5 168l102 -123q-270 -264 -641 -264q-203 0 -358 75t-244.5 225.5t-89.5 357.5v20h-31q-118 0 -188 56t-70 157q0 86 54 189h149
q-45 -102 -45 -150q0 -98 115 -98h33q28 140 98.5 260.5t176 210t250 141t310.5 51.5zM582 801h1134q6 43 6 78q0 198 -129 313t-354 115q-256 0 -430.5 -143t-226.5 -363z" />
    <glyph glyph-name="uni04BD" unicode="&#x4bd;" horiz-adv-x="1292" 
d="M1212 453h-815v-33q0 -151 78 -229t227 -78q109 0 194 41.5t171 124.5l92 -111q-102 -96 -210 -147.5t-249 -51.5q-211 0 -330.5 116t-119.5 323q0 31 2 45h-43q-168 0 -168 149q0 35 8 68h111q-6 -21 -6 -45q0 -60 67 -60h47q48 186 194 299t349 113q198 0 308 -106.5
t110 -282.5q0 -42 -17 -135zM803 846q-141 0 -242.5 -76.5t-140.5 -202.5h657q2 10 2 31q0 115 -72 181.5t-204 66.5z" />
    <glyph glyph-name="uni04BE" unicode="&#x4be;" horiz-adv-x="1898" 
d="M1241 1464q298 0 473.5 -154.5t175.5 -418.5q0 -89 -35 -242h-165h-1129v-16q0 -240 143.5 -373t378.5 -133q161 0 297.5 61t239.5 168l102 -123q-161 -155 -344 -217q-198 -152 -198 -239q0 -56 75 -56q39 0 93 15l2 -101q-56 -20 -123 -20q-76 0 -125 33t-49 96
q0 111 155 233q-55 -8 -127 -8q-203 0 -358 75t-244.5 225.5t-89.5 357.5v20h-31q-118 0 -188 56t-70 157q0 86 54 189h149q-45 -102 -45 -150q0 -98 115 -98h33q28 140 98.5 260.5t176 210t250 141t310.5 51.5zM582 801h1134q6 43 6 78q0 198 -129 313t-354 115
q-256 0 -430.5 -143t-226.5 -363z" />
    <glyph glyph-name="uni04BF" unicode="&#x4bf;" horiz-adv-x="1292" 
d="M1212 453h-815v-33q0 -151 78 -229t227 -78q109 0 194 41.5t171 124.5l92 -111q-120 -111 -225 -154q-193 -147 -193 -235q0 -55 76 -55q38 0 92 14l2 -100q-61 -21 -125 -21q-75 0 -123.5 33t-48.5 96q0 106 146 225q-18 -2 -60 -2q-211 0 -330.5 116t-119.5 323
q0 31 2 45h-43q-168 0 -168 149q0 35 8 68h111q-6 -21 -6 -45q0 -60 67 -60h47q48 186 194 299t349 113q198 0 308 -106.5t110 -282.5q0 -42 -17 -135zM803 846q-141 0 -242.5 -76.5t-140.5 -202.5h657q2 10 2 31q0 115 -72 181.5t-204 66.5z" />
    <glyph glyph-name="uni04C0" unicode="&#x4c0;" horiz-adv-x="466" 
d="M59 0l281 1434h162l-281 -1434h-162z" />
    <glyph glyph-name="uni04C1" unicode="&#x4c1;" horiz-adv-x="1865" 
d="M1141 1489q-117 0 -181.5 55t-64.5 154q0 32 6 69h105q-7 -40 -7 -55q0 -125 146 -125q89 0 135.5 47t65.5 133h108q-52 -278 -313 -278zM1958 1434l-711 -693l516 -741h-207l-487 735l-143 -735h-154l143 735l-765 -735h-232l830 778l-439 656h203l410 -660l129 660h153
l-129 -662l660 662h223z" />
    <glyph glyph-name="uni04C2" unicode="&#x4c2;" horiz-adv-x="1413" 
d="M813 1016q-109 0 -176.5 56.5t-67.5 156.5q0 37 9 78h98q-6 -24 -6 -52q0 -65 37.5 -102t107.5 -37q89 0 138 49.5t69 141.5h111q-25 -137 -107.5 -214t-212.5 -77zM1448 946l-502 -446l361 -500h-187l-338 485l-94 -485h-147l96 485l-504 -485h-211l561 522l-333 424
h190l303 -420l82 420h147l-81 -418l444 418h213z" />
    <glyph glyph-name="uni04C3" unicode="&#x4c3;" horiz-adv-x="1204" 
d="M811 778q175 0 260.5 -57t85.5 -201q0 -52 -12 -119l-82 -417q-76 -394 -412 -394h-159l28 150h121q108 0 173 60t89 188l80 397q10 48 10 78q0 93 -56 129.5t-169 36.5q-188 0 -430 -23l-119 -606h-160l279 1434h160l-131 -676l716 676h232l-748 -668q168 12 244 12z
" />
    <glyph glyph-name="uni04C4" unicode="&#x4c4;" horiz-adv-x="933" 
d="M565 518q289 0 289 -231q0 -45 -12 -107l-49 -262q-31 -166 -120.5 -247t-244.5 -81h-143l26 140h107q94 0 150 44t77 150l47 242q8 41 8 84q0 79 -45 110t-141 31q-99 0 -258 -16l-74 -375h-147l184 946h148l-84 -430l477 430h203l-517 -436q86 8 119 8z" />
    <glyph glyph-name="uni04C5" unicode="&#x4c5;" horiz-adv-x="1490" 
d="M1524 1434l-256 -1315h121l-236 -385h-133l158 266h-93l250 1282h-729l-188 -981q-32 -165 -118.5 -238t-240.5 -73h-116l28 153h86q83 0 133.5 44t71.5 147l213 1100h160h889z" />
    <glyph glyph-name="uni04C6" unicode="&#x4c6;" horiz-adv-x="1118" 
d="M1063 946l-162 -827h119l-236 -385h-133l158 266h-80l158 811h-475l-115 -586q-46 -233 -272 -233h-88l24 139h72q98 0 119 119l137 696h149h625z" />
    <glyph glyph-name="uni04C7" unicode="&#x4c7;" horiz-adv-x="1441" 
d="M1313 1434h164l-306 -1567q-55 -280 -307 -277l-143 2l31 152h120q58 0 91.5 30t46.5 97l159 817h-813l-135 -688h-162l279 1434h162l-115 -596h813z" />
    <glyph glyph-name="uni04C8" unicode="&#x4c8;" horiz-adv-x="1101" 
d="M920 946h147l-184 -946l-29 -154q-28 -139 -108 -199.5t-205 -60.5h-84l26 135h62q71 0 109 34t53 110l26 135h2l84 432h-551l-84 -432h-149l184 946h150l-74 -381h549z" />
    <glyph glyph-name="uni04C9" unicode="&#x4c9;" horiz-adv-x="1423" 
d="M1458 1434l-256 -1315h121l-238 -385h-131l156 266h-90l133 684h-801l-133 -684h-160l279 1434h160l-117 -598h801l116 598h160z" />
    <glyph glyph-name="uni04CA" unicode="&#x4ca;" horiz-adv-x="1126" 
d="M1067 946l-160 -827h121l-235 -385h-134l158 266h-82l84 432h-551l-84 -432h-149l184 946h150l-74 -381h549l76 381h147z" />
    <glyph glyph-name="uni04CB" unicode="&#x4cb;" horiz-adv-x="1169" 
d="M1204 1434l-278 -1434h-115l-55 -287h-150l78 391h102l99 504h-426q-168 0 -248 63t-80 191q0 48 12 113l90 459h160l-94 -478q-6 -35 -6 -61q0 -72 47 -104.5t147 -32.5h426l131 676h160z" />
    <glyph glyph-name="uni04CC" unicode="&#x4cc;" horiz-adv-x="897" 
d="M862 946l-184 -946h-115l-53 -266h-131l67 354h103l57 293h-309q-123 0 -183.5 44.5t-60.5 149.5q0 32 10 97l54 274h149l-53 -262q-8 -39 -8 -72q0 -55 30.5 -76.5t98.5 -21.5h297l84 432h147z" />
    <glyph glyph-name="uni04CD" unicode="&#x4cd;" horiz-adv-x="1830" 
d="M1647 119h116l-235 -385h-131l155 266h-57l-68 1137h-4l-522 -906h-137l-191 902h-4l-458 -1133h-185l600 1434h144l192 -975h4l551 975h144z" />
    <glyph glyph-name="uni04CE" unicode="&#x4ce;" horiz-adv-x="1398" 
d="M1204 119h127l-235 -385h-133l157 266h-51l-49 715h-4l-340 -557h-115l-125 559h-4l-326 -717h-163l446 946h137l123 -573h4l344 573h140z" />
    <glyph glyph-name="uni04CF" unicode="&#x4cf;" horiz-adv-x="415" 
d="M41 0l184 946h150l-185 -946h-149z" />
    <glyph glyph-name="uni04D0" unicode="&#x4d0;" horiz-adv-x="1355" 
d="M866 1489q-117 0 -181 55t-64 154q0 32 6 69h104q-6 -35 -6 -55q0 -125 145 -125q88 0 135 47t66 133h109q-52 -278 -314 -278zM1085 0l-77 383h-674l-221 -383h-187l844 1434h168l307 -1434h-160zM416 528h561l-146 723z" />
    <glyph glyph-name="uni04D1" unicode="&#x4d1;" horiz-adv-x="1200" 
d="M991 1307q-25 -137 -107 -214t-212 -77q-109 0 -176.5 56.5t-67.5 156.5q0 42 8 78h99q-7 -28 -7 -52q0 -65 38 -102t108 -37q89 0 138 49.5t69 141.5h110zM498 -31q-190 0 -308 126t-118 329q0 236 150 394.5t374 158.5q137 0 236.5 -60t140.5 -169h4l39 198h147
l-182 -946h-150l31 154h-4q-144 -185 -360 -185zM547 111q170 0 281.5 116t111.5 291q0 145 -87.5 231.5t-236.5 86.5q-164 0 -275.5 -118.5t-111.5 -293.5q0 -143 86 -228t232 -85z" />
    <glyph glyph-name="uni04D2" unicode="&#x4d2;" horiz-adv-x="1355" 
d="M793 1726l-41 -204h-170l41 204h170zM1188 1726l-41 -204h-170l41 204h170zM1085 0l-77 383h-674l-221 -383h-187l844 1434h168l307 -1434h-160zM416 528h561l-146 723z" />
    <glyph glyph-name="uni04D3" unicode="&#x4d3;" horiz-adv-x="1200" 
d="M639 1303l-45 -238h-152l45 238h152zM963 1303l-45 -238h-152l45 238h152zM498 -31q-190 0 -308 126t-118 329q0 236 150 394.5t374 158.5q137 0 236.5 -60t140.5 -169h4l39 198h147l-182 -946h-150l31 154h-4q-144 -185 -360 -185zM547 111q170 0 281.5 116t111.5 291
q0 145 -87.5 231.5t-236.5 86.5q-164 0 -275.5 -118.5t-111.5 -293.5q0 -143 86 -228t232 -85z" />
    <glyph glyph-name="uni04D4" unicode="&#x4d4;" horiz-adv-x="1906" 
d="M1962 1284h-582l-80 -412h529l-27 -147h-530l-113 -575h592l-29 -150h-669h-78l74 383h-586l-328 -383h-209l1241 1434h242h582zM588 528h489l144 742z" />
    <glyph glyph-name="uni04D5" unicode="&#x4d5;" horiz-adv-x="1777" 
d="M385 -31q-166 0 -267.5 84t-101.5 232q0 155 112.5 257.5t301.5 102.5q228 0 328 -158h2q31 127 31 183q0 172 -222 172q-145 0 -331 -47l-31 133q208 49 371 49q304 0 323 -217h4q60 103 168.5 160t243.5 57q187 0 289 -103.5t102 -277.5q0 -47 -16 -145h-783
q-6 -30 -6 -64q0 -116 72.5 -195t218.5 -79q116 0 198.5 44t157.5 119l92 -106q-196 -201 -448 -201q-151 0 -253.5 71.5t-129.5 184.5h-4q-63 -126 -171 -191t-251 -65zM938 565h612q2 14 2 41q0 109 -65.5 172.5t-194.5 63.5q-128 0 -221.5 -72t-132.5 -205zM414 100
q135 0 218 70.5t83 163.5q0 88 -70 135t-180 47q-131 0 -214 -63.5t-83 -163.5q0 -87 67.5 -138t178.5 -51z" />
    <glyph glyph-name="uni04D6" unicode="&#x4d6;" horiz-adv-x="1054" 
d="M764 1489q-117 0 -181.5 55t-64.5 154q0 32 6 69h105q-6 -35 -6 -55q0 -125 145 -125q88 0 135 47t66 133h108q-52 -278 -313 -278zM1112 1284h-641l-82 -412h592l-29 -147h-592l-112 -575h651l-29 -150h-811l281 1434h801z" />
    <glyph glyph-name="uni04D7" unicode="&#x4d7;" horiz-adv-x="1112" 
d="M662 1016q-109 0 -176.5 56.5t-67.5 156.5q0 42 8 78h98q-6 -24 -6 -52q0 -65 38 -102t108 -37q89 0 137.5 49.5t68.5 141.5h111q-25 -137 -107 -214t-212 -77zM1032 453h-813q-2 -10 -2 -33q0 -151 78 -229t227 -78q109 0 195 42t170 124l92 -111q-102 -96 -210 -147.5
t-249 -51.5q-211 0 -330.5 116t-119.5 323q0 246 157.5 407.5t403.5 161.5q198 0 308 -106.5t110 -282.5q0 -42 -17 -135zM623 846q-142 0 -243 -76t-140 -203h657q2 10 2 31q0 115 -72 181.5t-204 66.5z" />
    <glyph glyph-name="uni04D8" unicode="&#x4d8;" horiz-adv-x="1636" 
d="M928 1464q204 0 355.5 -72t238 -220t86.5 -357q0 -170 -57 -322t-162.5 -269t-269 -186t-361.5 -69q-304 0 -479 155t-175 423q0 78 33 237h168h1131v25q0 242 -135 370t-369 128q-294 0 -543 -191l-80 144q275 204 619 204zM762 127q136 0 250 40t193.5 110.5t133 160.5
t78.5 195h-1138q-7 -51 -7 -76q0 -200 128 -315t362 -115z" />
    <glyph glyph-name="uni04D9" unicode="&#x4d9;" horiz-adv-x="1112" 
d="M592 977q211 0 330.5 -115.5t119.5 -322.5q0 -121 -41.5 -226.5t-114.5 -181t-177.5 -119t-225.5 -43.5q-199 0 -308 106.5t-109 282.5q0 59 14 136h815v32q0 152 -77.5 230t-227.5 78q-108 0 -193.5 -41.5t-171.5 -124.5l-92 110q102 95 210.5 147t248.5 52zM492 100
q139 0 240 76.5t140 202.5h-657q-2 -10 -2 -31q0 -115 73 -181.5t206 -66.5z" />
    <glyph glyph-name="uni04DA" unicode="&#x4da;" horiz-adv-x="1636" 
d="M889 1726l-41 -204h-170l41 204h170zM1284 1726l-41 -204h-170l41 204h170zM928 1464q204 0 355.5 -72t238 -220t86.5 -357q0 -170 -57 -322t-162.5 -269t-269 -186t-361.5 -69q-304 0 -479 155t-175 423q0 78 33 237h168h1131v25q0 242 -135 370t-369 128
q-294 0 -543 -191l-80 144q275 204 619 204zM762 127q136 0 250 40t193.5 110.5t133 160.5t78.5 195h-1138q-7 -51 -7 -76q0 -200 128 -315t362 -115z" />
    <glyph glyph-name="uni04DB" unicode="&#x4db;" horiz-adv-x="1112" 
d="M612 1303l-45 -238h-151l45 238h151zM936 1303l-45 -238h-152l45 238h152zM592 977q211 0 330.5 -115.5t119.5 -322.5q0 -121 -41.5 -226.5t-114.5 -181t-177.5 -119t-225.5 -43.5q-199 0 -308 106.5t-109 282.5q0 59 14 136h815v32q0 152 -77.5 230t-227.5 78
q-108 0 -193.5 -41.5t-171.5 -124.5l-92 110q102 95 210.5 147t248.5 52zM492 100q139 0 240 76.5t140 202.5h-657q-2 -10 -2 -31q0 -115 73 -181.5t206 -66.5z" />
    <glyph glyph-name="uni04DC" unicode="&#x4dc;" horiz-adv-x="1865" 
d="M1067 1726l-41 -204h-170l41 204h170zM1462 1726l-41 -204h-170l41 204h170zM1958 1434l-711 -693l516 -741h-207l-487 735l-143 -735h-154l143 735l-765 -735h-232l830 778l-439 656h203l410 -660l129 660h153l-129 -662l660 662h223z" />
    <glyph glyph-name="uni04DD" unicode="&#x4dd;" horiz-adv-x="1413" 
d="M780 1303l-45 -238h-151l45 238h151zM1104 1303l-45 -238h-152l45 238h152zM1448 946l-502 -446l361 -500h-187l-338 485l-94 -485h-147l96 485l-504 -485h-211l561 522l-333 424h190l303 -420l82 420h147l-81 -418l444 418h213z" />
    <glyph glyph-name="uni04DE" unicode="&#x4de;" horiz-adv-x="1181" 
d="M481 1522l41 204h170l-41 -204h-170zM877 1522l41 204h169l-40 -204h-170zM535 -31q-305 0 -531 152l98 143q99 -64 201 -100.5t232 -36.5q166 0 268 68t102 215q0 272 -375 272h-170l29 149h168q188 0 305 72t117 201q0 103 -77.5 153t-205.5 50q-189 0 -399 -93
l-66 144q252 106 480 106q209 0 324.5 -89.5t115.5 -250.5q0 -303 -387 -358v-2q141 -18 223 -107t82 -249q0 -204 -136 -321.5t-398 -117.5z" />
    <glyph glyph-name="uni04DF" unicode="&#x4df;" horiz-adv-x="944" 
d="M530 1303l-45 -238h-151l45 238h151zM854 1303l-45 -238h-152l45 238h152zM395 -31q-254 0 -438 99l68 125q180 -84 374 -84q287 0 287 180q0 78 -48 110.5t-153 32.5h-213l27 131h215q205 0 205 148q0 66 -51 96.5t-156 30.5q-171 0 -340 -47l-41 135q202 51 379 51
q367 0 367 -238q0 -95 -70 -158t-193 -75l-2 -4q217 -15 217 -219q0 -146 -111 -230t-323 -84z" />
    <glyph glyph-name="uni04E0" unicode="&#x4e0;" horiz-adv-x="1146" 
d="M465 -31q-301 0 -504 150l102 147q96 -66 191 -101.5t215 -35.5q185 0 293 82.5t108 237.5q0 136 -91.5 196t-286.5 60h-164l24 135l563 444h-628l28 150h871l-29 -148l-598 -452q87 6 96 6q174 0 280.5 -100t106.5 -285q0 -102 -34.5 -188.5t-103 -154t-181 -105.5
t-258.5 -38z" />
    <glyph glyph-name="uni04E1" unicode="&#x4e1;" horiz-adv-x="874" 
d="M219 -440q-245 0 -452 121l79 129q189 -113 373 -113q178 0 281.5 89t103.5 243q0 237 -282 237h-234l25 127l534 414h-573l26 139h772l-28 -147l-553 -412q12 1 33 2.5t38 2.5t33 1q168 0 268.5 -94.5t100.5 -265.5q0 -73 -18 -140t-60 -128.5t-103.5 -106.5t-155 -71.5
t-208.5 -26.5z" />
    <glyph glyph-name="uni04E2" unicode="&#x4e2;" horiz-adv-x="1423" 
d="M1214 1686l-22 -113h-578l23 113h577zM59 0l279 1434h160l-228 -1160h4l1014 1160h170l-278 -1434h-160l227 1159h-4l-1014 -1159h-170z" />
    <glyph glyph-name="uni04E3" unicode="&#x4e3;" horiz-adv-x="1097" 
d="M967 1208l-23 -114h-577l22 114h578zM35 0l184 946h150l-144 -717h4l682 717h152l-184 -946h-150l141 717h-4l-682 -717h-149z" />
    <glyph glyph-name="uni04E4" unicode="&#x4e4;" horiz-adv-x="1423" 
d="M623 1522l41 204h170l-41 -204h-170zM1018 1522l41 204h170l-41 -204h-170zM59 0l279 1434h160l-228 -1160h4l1014 1160h170l-278 -1434h-160l227 1159h-4l-1014 -1159h-170z" />
    <glyph glyph-name="uni04E5" unicode="&#x4e5;" horiz-adv-x="1097" 
d="M604 1303l-45 -238h-151l45 238h151zM928 1303l-45 -238h-152l45 238h152zM35 0l184 946h150l-144 -717h4l682 717h152l-184 -946h-150l141 717h-4l-682 -717h-149z" />
    <glyph glyph-name="uni04E6" unicode="&#x4e6;" horiz-adv-x="1701" 
d="M702 1522l41 204h170l-41 -204h-170zM1098 1522l41 204h170l-41 -204h-170zM840 -31q-209 0 -370.5 82.5t-252 237.5t-90.5 360q0 168 60 317.5t167 259.5t263 174t339 64q210 0 371.5 -82.5t251.5 -237.5t90 -360q0 -168 -60 -317.5t-167 -259.5t-263 -174t-339 -64z
M844 127q150 0 275 53.5t207 145.5t127.5 213t45.5 256q0 156 -73 273.5t-196.5 178t-277.5 60.5q-120 0 -224.5 -35t-182.5 -97t-134.5 -145.5t-85 -183t-28.5 -207.5q0 -155 73.5 -273t197 -178.5t276.5 -60.5z" />
    <glyph glyph-name="uni04E7" unicode="&#x4e7;" horiz-adv-x="1173" 
d="M641 1303l-45 -238h-152l45 238h152zM965 1303l-45 -238h-152l45 238h152zM537 -31q-213 0 -340 118.5t-127 326.5q0 156 72.5 284.5t203 203.5t293.5 75q212 0 338.5 -118.5t126.5 -326.5q0 -156 -72 -284.5t-202.5 -203.5t-292.5 -75zM549 115q174 0 285.5 119.5
t111.5 293.5q0 141 -86 222t-235 81q-174 0 -286 -120t-112 -293q0 -141 86.5 -222t235.5 -81z" />
    <glyph glyph-name="uni04E8" unicode="&#x4e8;" horiz-adv-x="1701" 
d="M956 1464q210 0 371.5 -82.5t251.5 -237.5t90 -360q0 -168 -60 -317.5t-167 -259.5t-263 -174t-339 -64q-209 0 -370.5 82.5t-252 237.5t-90.5 360q0 168 60 317.5t167 259.5t263 174t339 64zM952 1307q-173 0 -312 -72t-222 -192.5t-109 -272.5h1190v25q0 156 -73 273.5
t-196.5 178t-277.5 60.5zM844 127q131 0 244 41.5t193.5 114.5t134 170t73.5 211h-1192v-25q0 -155 73.5 -273t197 -178.5t276.5 -60.5z" />
    <glyph glyph-name="uni04E9" unicode="&#x4e9;" horiz-adv-x="1173" 
d="M639 977q208 0 336.5 -117t128.5 -328q0 -153 -70 -281t-200.5 -205t-296.5 -77q-210 0 -338.5 117t-128.5 328q0 154 70 281.5t201 204.5t298 77zM625 831q-155 0 -258 -88.5t-134 -220.5h719v6q0 144 -89 223.5t-238 79.5zM549 115q156 0 258 88.5t133 220.5h-719v-6
q0 -144 89.5 -223.5t238.5 -79.5z" />
    <glyph glyph-name="uni04EA" unicode="&#x4ea;" horiz-adv-x="1701" 
d="M913 1726l-41 -204h-170l41 204h170zM1309 1726l-41 -204h-170l41 204h170zM956 1464q210 0 371.5 -82.5t251.5 -237.5t90 -360q0 -168 -60 -317.5t-167 -259.5t-263 -174t-339 -64q-209 0 -370.5 82.5t-252 237.5t-90.5 360q0 168 60 317.5t167 259.5t263 174t339 64z
M952 1307q-173 0 -312 -72t-222 -192.5t-109 -272.5h1190v25q0 156 -73 273.5t-196.5 178t-277.5 60.5zM844 127q131 0 244 41.5t193.5 114.5t134 170t73.5 211h-1192v-25q0 -155 73.5 -273t197 -178.5t276.5 -60.5z" />
    <glyph glyph-name="uni04EB" unicode="&#x4eb;" horiz-adv-x="1173" 
d="M635 1303l-45 -238h-152l45 238h152zM958 1303l-45 -238h-151l45 238h151zM639 977q208 0 336.5 -117t128.5 -328q0 -153 -70 -281t-200.5 -205t-296.5 -77q-210 0 -338.5 117t-128.5 328q0 154 70 281.5t201 204.5t298 77zM625 831q-155 0 -258 -88.5t-134 -220.5h719v6
q0 144 -89 223.5t-238 79.5zM549 115q156 0 258 88.5t133 220.5h-719v-6q0 -144 89.5 -223.5t238.5 -79.5z" />
    <glyph glyph-name="uni04EC" unicode="&#x4ec;" horiz-adv-x="1435" 
d="M735 1726l-41 -204h-170l41 204h170zM1130 1726l-40 -204h-170l41 204h169zM756 1464q306 0 477.5 -168.5t171.5 -484.5q0 -178 -57 -331t-163.5 -267t-270 -179t-365.5 -65q-328 0 -537 166l111 139q90 -70 193 -108.5t243 -38.5q270 0 443 142.5t217 373.5h-672l28 148
h658v6q0 246 -129.5 378t-353.5 132q-228 0 -453 -125l-72 145q252 137 531 137z" />
    <glyph glyph-name="uni04ED" unicode="&#x4ed;" horiz-adv-x="974" 
d="M510 1303l-45 -238h-152l45 238h152zM834 1303l-46 -238h-151l45 238h152zM449 977q214 0 330 -119t116 -326q0 -158 -65 -284t-196 -202.5t-308 -76.5q-187 0 -346 90l77 125q127 -73 271 -73q159 0 263 82.5t138 216.5h-420l23 127h411q-3 144 -81.5 221.5t-217.5 77.5
q-130 0 -268 -58l-51 131q157 68 324 68z" />
    <glyph glyph-name="uni04EE" unicode="&#x4ee;" 
d="M1137 1686l-23 -113h-577l22 113h578zM1223 1434h184l-954 -1434h-185l254 383l-327 1051h172l272 -877z" />
    <glyph glyph-name="uni04EF" unicode="&#x4ef;" horiz-adv-x="940" 
d="M895 1208l-23 -114h-577l22 114h578zM844 946h168l-838 -1358h-160l324 525l-227 833h159l166 -676z" />
    <glyph glyph-name="uni04F0" unicode="&#x4f0;" 
d="M754 1726l-41 -204h-170l41 204h170zM1149 1726l-41 -204h-170l41 204h170zM1223 1434h184l-954 -1434h-185l254 383l-327 1051h172l272 -877z" />
    <glyph glyph-name="uni04F1" unicode="&#x4f1;" horiz-adv-x="940" 
d="M530 1303l-45 -238h-151l45 238h151zM854 1303l-45 -238h-152l45 238h152zM844 946h168l-838 -1358h-160l324 525l-227 833h159l166 -676z" />
    <glyph glyph-name="uni04F2" unicode="&#x4f2;" 
d="M1044 1767l-307 -245h-112l278 245h141zM956 1522h-112l278 245h142zM1223 1434h184l-954 -1434h-185l254 383l-327 1051h172l272 -877z" />
    <glyph glyph-name="uni04F3" unicode="&#x4f3;" horiz-adv-x="940" 
d="M795 1346l-306 -316h-112l274 316h144zM717 1030h-113l275 316h143zM436 270l408 676h168l-838 -1358h-160l324 525l-227 833h159z" />
    <glyph glyph-name="uni04F4" unicode="&#x4f4;" horiz-adv-x="1169" 
d="M659 1726l-41 -204h-169l40 204h170zM1055 1726l-41 -204h-170l41 204h170zM1044 1434h160l-278 -1434h-160l119 608h-426q-168 0 -248 63t-80 191q0 48 12 113l90 459h160l-94 -478q-6 -35 -6 -61q0 -72 47 -104.5t147 -32.5h426z" />
    <glyph glyph-name="uni04F5" unicode="&#x4f5;" horiz-adv-x="897" 
d="M473 1303l-45 -238h-152l46 238h151zM797 1303l-45 -238h-152l45 238h152zM715 946h147l-184 -946h-148l76 381h-309q-123 0 -183.5 44.5t-60.5 149.5q0 32 10 97l54 274h149l-53 -262q-8 -39 -8 -72q0 -55 30.5 -76.5t98.5 -21.5h297z" />
    <glyph glyph-name="uni04F8" unicode="&#x4f8;" horiz-adv-x="1564" 
d="M895 1726l-41 -204h-170l41 204h170zM1290 1726l-41 -204h-170l41 204h170zM688 834q205 0 316.5 -97t111.5 -276q0 -217 -149 -339t-387 -122h-521l279 1434h160l-117 -600h307zM1438 1434h161l-278 -1434h-162zM575 150q179 0 274 83t95 220q0 112 -68.5 171.5
t-203.5 59.5h-320l-104 -534h327z" />
    <glyph glyph-name="uni04F9" unicode="&#x4f9;" horiz-adv-x="1280" 
d="M707 1303l-45 -238h-152l45 238h152zM1030 1303l-45 -238h-151l45 238h151zM559 596q134 0 217.5 -64.5t83.5 -195.5q0 -150 -106 -243t-275 -93h-444l184 946h150l-70 -350h260zM1096 946h149l-184 -946h-150zM489 135q99 0 156 52.5t57 136.5q0 137 -170 137h-258
l-63 -326h278z" />
    <glyph glyph-name="uni04FC" unicode="&#x4fc;" horiz-adv-x="1245" 
d="M780 754l226 -492q92 -204 92 -348q0 -160 -92.5 -242t-245.5 -82h-119l29 146h86q97 0 142.5 47t45.5 129q0 65 -24.5 138.5t-69.5 172.5l-184 408l-527 -631h-202l651 774l-297 660h174l237 -537l447 537h203z" />
    <glyph glyph-name="uni04FD" unicode="&#x4fd;" horiz-adv-x="944" 
d="M432 -410l27 140h92q67 0 105 41.5t38 113.5q0 89 -76 224l-149 274l-358 -383h-185l475 510l-241 436h159l181 -325l309 325h182l-422 -454l183 -332q47 -85 69.5 -149t22.5 -134q0 -128 -73 -207.5t-208 -79.5h-131z" />
    <glyph glyph-name="uni0510" unicode="&#x510;" horiz-adv-x="1175" 
d="M756 1464q151 0 280.5 -42.5t223.5 -108.5l-97 -139q-192 133 -411 133q-146 0 -230 -60.5t-84 -169.5q0 -118 95.5 -182t265.5 -64h106l-31 -149h-108q-520 0 -520 -309q0 -126 82 -186t229 -60q206 0 438 115l45 -152q-240 -121 -487 -121q-238 0 -356.5 107.5
t-118.5 283.5q0 98 35.5 174t98.5 124t140.5 75.5t169.5 36.5v4q-246 78 -246 313q0 169 125.5 273t354.5 104z" />
    <glyph glyph-name="uni0511" unicode="&#x511;" horiz-adv-x="929" 
d="M406 -31q-184 0 -279.5 70t-95.5 197q0 120 82.5 191t228.5 77l2 6q-176 24 -176 199q0 127 95.5 197.5t273.5 70.5q202 0 391 -76l-62 -131q-161 70 -327 70q-230 0 -230 -148q0 -61 41.5 -95t114.5 -34h235l-22 -131h-227q-271 0 -271 -170q0 -84 60 -120t172 -36
q170 0 360 87l39 -132q-199 -92 -405 -92z" />
    <glyph glyph-name="uni0512" unicode="&#x512;" horiz-adv-x="1509" 
d="M1544 1434l-307 -1567q-27 -149 -99 -213t-204 -64h-139l28 154h113q59 0 96 33t47 94l275 1411h-754l-192 -997q-31 -159 -116.5 -227t-236.5 -68h-112l28 153h78q84 0 133 38.5t70 135.5l219 1117h1073z" />
    <glyph glyph-name="uni0513" unicode="&#x513;" horiz-adv-x="1097" 
d="M1063 946l-184 -946l-29 -154q-28 -139 -108 -199.5t-205 -60.5h-84l26 135h62q71 0 108.5 34t52.5 110l27 135l158 811h-475l-115 -586q-46 -233 -272 -233h-88l24 139h72q98 0 119 119l137 696h149h625z" />
    <glyph glyph-name="uni051C" unicode="&#x51c;" horiz-adv-x="2021" 
d="M2167 1434l-721 -1434h-158l-137 1167h-4l-592 -1167h-158l-168 1434h172l113 -1178h4l588 1178h164l137 -1178h4l565 1178h191z" />
    <glyph glyph-name="uni051D" unicode="&#x51d;" horiz-adv-x="1513" 
d="M1413 946h168l-506 -946h-141l-113 754l-407 -754h-142l-135 946h156l82 -758l401 758h152l106 -756z" />
    <glyph glyph-name="uni0524" unicode="&#x524;" horiz-adv-x="1392" 
d="M1444 1434l-258 -1334h96l-76 -391h-149l57 291h-110l249 1284h-782l-250 -1284h-162l279 1434h1106z" />
    <glyph glyph-name="uni0525" unicode="&#x525;" horiz-adv-x="1128" 
d="M1077 946l-168 -858h107l-70 -354h-133l53 266h-123l158 811h-559l-158 -811h-149l184 946h150h673h35z" />
    <glyph glyph-name="uni0526" unicode="&#x526;" horiz-adv-x="1275" 
d="M1051 100h112l-76 -391h-147l57 291h-127l95 477q6 35 6 62q0 73 -47 105t-148 32h-426l-131 -676h-160l279 1434h160l-119 -609h426q167 0 247.5 -63t80.5 -191q0 -42 -13 -112z" />
    <glyph glyph-name="uni0527" unicode="&#x527;" horiz-adv-x="1126" 
d="M1006 535l-84 -447h90l-68 -354h-133l53 266h-108l104 543q6 43 6 78q0 102 -54 157.5t-155 55.5q-63 0 -119 -21.5t-106.5 -66.5t-89 -124t-59.5 -186l-84 -436h-150l279 1434h149l-131 -672h4q132 215 359 215q142 0 225.5 -79.5t83.5 -238.5q0 -68 -12 -124z" />
    <glyph glyph-name="uni0E3F" unicode="&#xe3f;" horiz-adv-x="1048" 
d="M1044 1059q0 -151 -86.5 -245t-240.5 -124l-2 -6q113 -19 172 -90t59 -188q0 -194 -136.5 -300t-358.5 -106h-31l-35 -178h-57l34 178h-372l268 1382h373l35 179h57l-35 -179q164 -6 260 -84.5t96 -238.5zM604 1243h-225l-94 -485h223zM565 758q153 6 237.5 79t84.5 197
q0 103 -61 155t-164 54zM166 139h223l94 486h-223zM788 406q0 98 -63 155.5t-184 63.5l-95 -486h15q150 0 238.5 69t88.5 198z" />
    <glyph glyph-name="Wgrave" unicode="&#x1e80;" horiz-adv-x="2021" 
d="M1130 1767l136 -245h-97l-221 245h182zM2167 1434l-721 -1434h-158l-137 1167h-4l-592 -1167h-158l-168 1434h172l113 -1178h4l588 1178h164l137 -1178h4l565 1178h191z" />
    <glyph glyph-name="wgrave" unicode="&#x1e81;" horiz-adv-x="1513" 
d="M948 1133h-108l-211 315h186zM1413 946h168l-506 -946h-141l-113 754l-407 -754h-142l-135 946h156l82 -758l401 758h152l106 -756z" />
    <glyph glyph-name="Wacute" unicode="&#x1e82;" horiz-adv-x="2021" 
d="M1137 1522l247 245h199l-326 -245h-120zM2167 1434l-721 -1434h-158l-137 1167h-4l-592 -1167h-158l-168 1434h172l113 -1178h4l588 1178h164l137 -1178h4l565 1178h191z" />
    <glyph glyph-name="wacute" unicode="&#x1e83;" horiz-adv-x="1513" 
d="M1300 1448l-344 -315h-127l263 315h208zM1413 946h168l-506 -946h-141l-113 754l-407 -754h-142l-135 946h156l82 -758l401 758h152l106 -756z" />
    <glyph glyph-name="Wdieresis" unicode="&#x1e84;" horiz-adv-x="2021" 
d="M918 1522l40 204h170l-41 -204h-169zM1313 1522l41 204h170l-41 -204h-170zM2167 1434l-721 -1434h-158l-137 1167h-4l-592 -1167h-158l-168 1434h172l113 -1178h4l588 1178h164l137 -1178h4l565 1178h191z" />
    <glyph glyph-name="wdieresis" unicode="&#x1e85;" horiz-adv-x="1513" 
d="M819 1413l-45 -237h-164l45 237h164zM1200 1413l-45 -237h-164l47 237h162zM1413 946h168l-506 -946h-141l-113 754l-407 -754h-142l-135 946h156l82 -758l401 758h152l106 -756z" />
    <glyph glyph-name="Ygrave" unicode="&#x1ef2;" horiz-adv-x="1093" 
d="M799 1522h-97l-221 245h183zM1272 1434l-629 -871l-108 -563h-160l108 561l-288 873h176l209 -715h4l491 715h197z" />
    <glyph glyph-name="ygrave" unicode="&#x1ef3;" horiz-adv-x="940" 
d="M643 1133h-108l-211 315h186zM844 946h168l-838 -1358h-160l324 525l-227 833h159l166 -676z" />
    <glyph glyph-name="endash" unicode="&#x2013;" horiz-adv-x="1540" 
d="M1466 623l-24 -136h-1336l25 136h1335z" />
    <glyph glyph-name="emdash" unicode="&#x2014;" horiz-adv-x="2363" 
d="M2290 623l-25 -136h-2159l25 136h2159z" />
    <glyph glyph-name="quoteleft" unicode="&#x2018;" horiz-adv-x="356" 
d="M475 1454l-170 -289h78l-37 -188h-186l35 188l215 289h65z" />
    <glyph glyph-name="quoteright" unicode="&#x2019;" horiz-adv-x="356" 
d="M301 1464h186l-34 -186l-215 -289h-66l170 289h-78z" />
    <glyph glyph-name="quotesinglbase" unicode="&#x201a;" horiz-adv-x="358" 
d="M53 188h187l-35 -188l-215 -289h-66l172 289h-80z" />
    <glyph glyph-name="quotedblleft" unicode="&#x201c;" horiz-adv-x="612" 
d="M475 1454l-170 -289h78l-37 -188h-186l35 188l215 289h65zM731 1454l-170 -289h78l-35 -188h-188l37 188l213 289h65z" />
    <glyph glyph-name="quotedblright" unicode="&#x201d;" horiz-adv-x="612" 
d="M487 1464l-34 -186l-215 -289h-66l170 289h-78l37 186h186zM557 1464h186l-34 -186l-215 -289h-66l172 289h-80z" />
    <glyph glyph-name="quotedblbase" unicode="&#x201e;" horiz-adv-x="614" 
d="M240 188l-35 -188l-215 -289h-66l172 289h-80l37 188h187zM309 188h187l-35 -188l-215 -289h-66l172 289h-80z" />
    <glyph glyph-name="dagger" unicode="&#x2020;" horiz-adv-x="1019" 
d="M1014 973l-25 -125h-338l-202 -1038h-136l203 1038h-340l25 125h340l88 461h135l-88 -461h338z" />
    <glyph glyph-name="daggerdbl" unicode="&#x2021;" horiz-adv-x="1019" 
d="M991 858h-338l-88 -450h338l-24 -125h-338l-92 -473h-136l93 473h-340l24 125h340l88 450h-340l25 125h340l86 451h135l-88 -451h340z" />
    <glyph glyph-name="bullet" unicode="&#x2022;" horiz-adv-x="673" 
d="M395 969q85 0 143 -58t58 -143q0 -86 -58 -143.5t-143 -57.5q-86 0 -143 57.5t-57 143.5q0 85 57 143t143 58z" />
    <glyph glyph-name="ellipsis" unicode="&#x2026;" horiz-adv-x="1349" 
d="M20 0l41 211h211l-41 -211h-211zM477 0l41 211h211l-41 -211h-211zM936 0l41 211h209l-41 -211h-209z" />
    <glyph glyph-name="perthousand" unicode="&#x2030;" horiz-adv-x="2332" 
d="M528 797q-130 0 -215.5 74.5t-85.5 209.5q0 95 43.5 177t127.5 134t190 52q128 0 213.5 -74.5t85.5 -208.5q0 -96 -43.5 -178.5t-127 -134t-188.5 -51.5zM272 0l1004 1382h100l-1005 -1382h-99zM532 893q80 0 140.5 42.5t88 101.5t27.5 122q0 90 -57.5 139.5t-148.5 49.5
q-80 0 -140.5 -42.5t-88 -101.5t-27.5 -121q0 -89 58 -139.5t148 -50.5zM1098 -10q-128 0 -213.5 74t-85.5 208q0 148 100.5 256.5t259.5 108.5q128 0 213.5 -75t85.5 -210q0 -95 -43.5 -177t-127 -133.5t-189.5 -51.5zM1835 -10q-126 0 -210.5 74t-84.5 206q0 147 104 257
t261 110q126 0 210.5 -74t84.5 -207q0 -149 -103 -257.5t-262 -108.5zM1104 86q61 0 111.5 24.5t81 64t47 85t16.5 90.5q0 90 -58 140.5t-149 50.5q-61 0 -111.5 -25t-81 -64.5t-47 -85.5t-16.5 -92q0 -89 58 -138.5t149 -49.5zM1839 86q116 0 189 81.5t73 186.5
q0 92 -57 139.5t-143 47.5q-115 0 -189 -82.5t-74 -186.5q0 -91 58 -138.5t143 -47.5z" />
    <glyph glyph-name="guilsinglleft" unicode="&#x2039;" horiz-adv-x="528" 
d="M274 162l-231 317l354 318h174l-374 -330l225 -305h-148z" />
    <glyph glyph-name="guilsinglright" unicode="&#x203a;" horiz-adv-x="528" 
d="M258 797l231 -318l-354 -317h-174l375 330l-225 305h147z" />
    <glyph glyph-name="fraction" unicode="&#x2044;" horiz-adv-x="139" 
d="M-440 0l1005 1382h99l-1006 -1382h-98z" />
    <glyph glyph-name="uni2070" unicode="&#x2070;" horiz-adv-x="940" 
d="M666 1645q147 0 234 -94t87 -285q0 -105 -27.5 -205t-80 -183.5t-139.5 -134.5t-195 -51q-147 0 -234.5 94t-87.5 285q0 84 17 165t53 155.5t87 130.5t125 89.5t161 33.5zM657 1516q-75 0 -134.5 -43t-93 -111t-50.5 -142.5t-17 -146.5q0 -127 51 -189.5t140 -62.5
q75 0 134.5 43t93 111t50.5 142.5t17 146.5q0 127 -51 189.5t-140 62.5z" />
    <glyph glyph-name="uni2074" unicode="&#x2074;" horiz-adv-x="839" 
d="M889 1626l-119 -612h115l-27 -133h-113l-32 -168h-133l32 168h-491l20 110l584 635h164zM309 1014h328l86 442h-6z" />
    <glyph glyph-name="uni2075" unicode="&#x2075;" horiz-adv-x="784" 
d="M555 1311q116 0 191 -71.5t75 -207.5q0 -155 -98.5 -247.5t-261.5 -92.5q-122 0 -206 47t-126 127l109 82q69 -125 227 -125q100 0 158.5 57.5t58.5 149.5q0 80 -44.5 123t-121.5 43q-121 0 -184 -90h-115l150 520h501l-24 -131h-389l-72 -244h4q64 60 168 60z" />
    <glyph glyph-name="uni2076" unicode="&#x2076;" horiz-adv-x="800" 
d="M487 692q-138 0 -225.5 77.5t-87.5 217.5q0 106 49 198t166 208l250 249h182l-415 -387l4 -2q91 76 196 76q112 0 185 -75t73 -210q0 -143 -106 -247.5t-271 -104.5zM496 821q103 0 166 65.5t63 155.5q0 78 -47 123t-127 45q-110 0 -175 -66.5t-65 -156.5
q0 -76 49.5 -121t135.5 -45z" />
    <glyph glyph-name="uni2077" unicode="&#x2077;" horiz-adv-x="659" 
d="M850 1626l-25 -127l-542 -786h-158l547 778h-447l27 135h598z" />
    <glyph glyph-name="uni2078" unicode="&#x2078;" horiz-adv-x="843" 
d="M492 692q-147 0 -229.5 68t-82.5 178q0 101 64.5 170t167.5 88v2q-117 46 -117 182q0 117 90.5 191t243.5 74q135 0 209.5 -59.5t74.5 -160.5q0 -87 -56 -146t-140 -81l-2 -2q65 -22 102 -76.5t37 -130.5q0 -125 -98 -211t-264 -86zM578 1253q84 0 139 43t55 111
q0 57 -40 88t-109 31q-87 0 -140 -41t-53 -107q0 -58 39.5 -91.5t108.5 -33.5zM500 817q100 0 158.5 49.5t58.5 130.5q0 66 -44 104t-128 38q-103 0 -165.5 -52.5t-62.5 -128.5q0 -66 48 -103.5t135 -37.5z" />
    <glyph glyph-name="uni2079" unicode="&#x2079;" horiz-adv-x="776" 
d="M248 713l405 364l-4 4q-91 -67 -192 -67q-107 0 -175.5 78.5t-68.5 197.5q0 149 101.5 252t265.5 103q86 0 156 -29t116.5 -96.5t46.5 -165.5q0 -100 -53.5 -196t-179.5 -214l-246 -231h-172zM530 1130q104 0 168 65t64 153q0 75 -50.5 120t-136.5 45q-102 0 -162.5 -64
t-60.5 -157q0 -76 47 -119t131 -43z" />
    <glyph glyph-name="uni2080" unicode="&#x2080;" horiz-adv-x="940" 
d="M483 707q147 0 234.5 -94t87.5 -285q0 -83 -17 -164t-53 -155.5t-87 -131t-125 -90t-161 -33.5q-147 0 -234 94t-87 285q0 84 16.5 165t52.5 155.5t87 130.5t125 89.5t161 33.5zM475 578q-75 0 -134.5 -43t-93 -111t-50.5 -142.5t-17 -146.5q0 -127 51 -189.5t140 -62.5
q75 0 134.5 43t93 111t50.5 142.5t17 146.5q0 127 -51 189.5t-140 62.5z" />
    <glyph glyph-name="uni2081" unicode="&#x2081;" horiz-adv-x="579" 
d="M397 688l-178 -913h-143l151 778h-63l26 135h207z" />
    <glyph glyph-name="uni2082" unicode="&#x2082;" horiz-adv-x="806" 
d="M418 709q137 0 212 -65t75 -177q0 -170 -216 -324l-313 -239h428l-26 -129h-633l24 119l412 319q59 44 93.5 74.5t63.5 76t29 89.5q0 55 -40.5 90t-116.5 35q-72 0 -124.5 -37t-68.5 -113h-141q25 136 112 208.5t230 72.5z" />
    <glyph glyph-name="uni2083" unicode="&#x2083;" horiz-adv-x="806" 
d="M285 -246q-132 0 -217.5 54t-85.5 159q0 11 4 51h135q-2 -14 -2 -24q0 -52 48 -81.5t126 -29.5q102 0 155.5 44t53.5 128q0 77 -52 111.5t-171 34.5l22 114q240 3 240 148q0 115 -150 115q-71 0 -118 -30t-56 -87h-137q15 117 98.5 182.5t218.5 65.5q129 0 205 -58
t76 -162q0 -86 -52 -145t-155 -76v-4q168 -26 168 -209q0 -62 -19 -114t-59 -95t-110.5 -67.5t-165.5 -24.5z" />
    <glyph glyph-name="uni2084" unicode="&#x2084;" horiz-adv-x="839" 
d="M707 688l-119 -612h114l-26 -133h-113l-33 -168h-133l33 168h-491l20 110l584 635h164zM127 76h328l86 442h-6z" />
    <glyph glyph-name="uni2085" unicode="&#x2085;" horiz-adv-x="784" 
d="M373 373q116 0 191 -71.5t75 -207.5q0 -155 -98.5 -247.5t-261.5 -92.5q-122 0 -206 47t-126 127l108 82q69 -125 228 -125q100 0 158.5 57.5t58.5 149.5q0 80 -44.5 123t-121.5 43q-121 0 -184 -90h-115l149 520h502l-24 -131h-390l-71 -244h4q64 60 168 60z" />
    <glyph glyph-name="uni2086" unicode="&#x2086;" horiz-adv-x="800" 
d="M305 -246q-138 0 -225.5 77.5t-87.5 217.5q0 106 49 198t166 208l250 250h182l-416 -388l4 -2q91 76 197 76q112 0 185 -75t73 -210q0 -143 -106 -247.5t-271 -104.5zM313 -117q103 0 166.5 65.5t63.5 155.5q0 78 -47 123t-127 45q-110 0 -175 -66.5t-65 -156.5
q0 -76 49 -121t135 -45z" />
    <glyph glyph-name="uni2087" unicode="&#x2087;" horiz-adv-x="659" 
d="M668 688l-25 -127l-543 -786h-157l546 778h-446l27 135h598z" />
    <glyph glyph-name="uni2088" unicode="&#x2088;" horiz-adv-x="843" 
d="M309 -246q-147 0 -229 68t-82 178q0 102 64 170.5t167 87.5v2q-116 45 -116 182q0 117 90 191t243 74q135 0 210 -59.5t75 -160.5q0 -87 -56 -146t-140 -81l-3 -2q65 -22 102.5 -76.5t37.5 -130.5q0 -125 -98.5 -211t-264.5 -86zM395 315q84 0 139.5 43t55.5 111
q0 57 -40.5 88t-109.5 31q-87 0 -139.5 -41t-52.5 -107q0 -59 39 -92t108 -33zM317 -121q100 0 159 50t59 130q0 66 -44.5 104t-128.5 38q-103 0 -165 -52.5t-62 -128.5q0 -66 47.5 -103.5t134.5 -37.5z" />
    <glyph glyph-name="uni2089" unicode="&#x2089;" horiz-adv-x="776" 
d="M66 -225l405 364l-4 4q-91 -67 -193 -67q-107 0 -175 78.5t-68 197.5q0 149 101 252t265 103q64 0 120 -17t101.5 -51t72 -91.5t26.5 -131.5q0 -100 -54 -196t-180 -214l-245 -231h-172zM348 193q104 0 168 64.5t64 152.5q0 75 -50.5 120t-136.5 45q-102 0 -162.5 -64
t-60.5 -157q0 -75 47 -118t131 -43z" />
    <glyph glyph-name="TRY" unicode="&#x20a4;" horiz-adv-x="1214" 
d="M1014 670h155q-55 -320 -261 -495t-515 -175h-141l117 602l-281 -115l12 64l281 115l27 133l-285 -115l12 64l285 114l100 520h150l-90 -456l434 176l-13 -64l-434 -176l-24 -133l436 176l-12 -63l-439 -176l-100 -516q235 0 388 137.5t198 382.5z" />
    <glyph glyph-name="uni20A9" unicode="&#x20a9;" horiz-adv-x="1941" 
d="M2044 1434l-252 -551h188l-12 -62h-205l-63 -139h242l-13 -61h-258l-282 -621h-179l-45 621h-334l-286 -621h-176l-43 621h-256l12 61h240l-11 139h-202l12 62h186l-37 551h160l23 -551h350l254 551h182l41 -551h348l238 551h178zM1116 1233l-162 -350h193l-25 350h-6z
M457 821l4 -139h248l65 139h-317zM860 682h301l-10 139h-225zM1542 682l60 139h-318l10 -139h248zM487 201l193 420h-215l18 -420h4zM1333 201l183 420h-218l31 -420h4z" />
    <glyph glyph-name="Euro" unicode="&#x20ac;" horiz-adv-x="1345" 
d="M1028 1268q-208 0 -357.5 -121t-209.5 -324h680l-43 -61h-652q-8 -39 -16 -121h596l-43 -61h-553q0 -227 103 -345t292 -118q153 0 332 76l-31 -160q-144 -62 -309 -62q-138 0 -243 44t-170.5 125t-98.5 190t-33 243v7h-241l43 61h200q3 53 13 121h-211l43 61h182
q31 128 92.5 234t152.5 186.5t217.5 125t276.5 44.5q232 0 406 -115l-90 -131q-145 101 -328 101z" />
    <glyph glyph-name="uni20AE" unicode="&#x20ae;" horiz-adv-x="1089" 
d="M1196 1243h-428l-66 -334l316 146l-12 -64l-316 -145l-22 -115l315 146l-12 -64l-316 -145l-129 -668h-147l115 592l-316 -148l12 64l316 147l20 115l-313 -147l12 63l314 148l79 409h-428l27 139h1008z" />
    <glyph glyph-name="uni20B4" unicode="&#x20b4;" horiz-adv-x="1034" 
d="M811 809q-9 -7 -29.5 -20t-23.5 -15l-162 -104h436l-12 -62h-520l-17 -10q-132 -86 -187.5 -153.5t-55.5 -145.5q0 -82 59.5 -132t177.5 -50q81 0 170 25.5t227 84.5l-30 -164q-207 -94 -381 -94q-80 0 -147 17.5t-120.5 54.5t-83.5 99.5t-30 146.5q0 102 44.5 177
t131.5 144h-190l12 62h262l61 39l154 100h-451l13 61h532l13 9q104 66 155 123.5t51 127.5q0 138 -194 138q-132 0 -348 -80l26 155q196 70 340 70q158 0 246 -65.5t88 -204.5q0 -155 -135 -273h178l-12 -61h-248z" />
    <glyph glyph-name="uni20B8" unicode="&#x20b8;" horiz-adv-x="1089" 
d="M217 1382h1008l-29 -139h-1006zM139 981l29 139h1006l-29 -139h-428l-191 -981h-149l190 981h-428z" />
    <glyph glyph-name="uni20B9" unicode="&#x20b9;" horiz-adv-x="1054" 
d="M1149 1382l-57 -61h-351q74 -45 115 -121.5t41 -177.5v-6h180l-57 -62h-129q-24 -168 -161 -269t-361 -101h-88l405 -584h-184l-398 584l27 141h248q162 0 248.5 63.5t105.5 165.5h-557l12 62h551q-2 106 -67.5 165.5t-192.5 59.5h-246l27 141h246h643z" />
    <glyph glyph-name="uni20BD" unicode="&#x20bd;" horiz-adv-x="1220" 
d="M729 592h-268l-31 -162h461l-12 -61h-461l-72 -369h-149l71 369h-207l13 61h207l30 162h-207l29 139h205l127 651h358q202 0 308 -95t106 -257q0 -199 -134 -318.5t-374 -119.5zM586 1243l-99 -512h242q168 0 259 74t91 213q0 112 -67 168.5t-187 56.5h-239z" />
    <glyph glyph-name="uni2113" unicode="&#x2113;" horiz-adv-x="962" 
d="M1010 1176q0 -355 -623 -580q-14 -106 -14 -221q0 -149 37 -209t131 -60q53 0 108 16t142 52l-27 -141q-7 -3 -30.5 -12t-30 -11.5t-26 -9.5t-28 -9t-26 -6t-30 -5.5t-29.5 -3t-34 -1.5q-72 0 -124.5 19.5t-84 52t-50 86t-25 111t-6.5 137.5q0 83 6 168q-66 -21 -158 -45
l25 129q77 21 147 45q22 148 64 276.5t104.5 233t152 165t195.5 60.5q109 0 171.5 -62.5t62.5 -174.5zM770 1288q-86 0 -160 -80.5t-122 -202t-78 -274.5q467 189 467 440q0 117 -107 117z" />
    <glyph glyph-name="uni2116" unicode="&#x2116;" horiz-adv-x="2381" 
d="M59 0l279 1434h168l553 -1180h4l227 1180h160l-279 -1434h-167l-553 1182h-2l-230 -1182h-160zM1860 281q-178 0 -282.5 98t-104.5 270q0 202 135 341.5t346 139.5q177 0 282 -98t105 -270q0 -99 -35 -187t-97.5 -153t-153 -103t-195.5 -38zM1868 410q145 0 240.5 102
t95.5 244q0 114 -69 179.5t-189 65.5q-146 0 -241 -101.5t-95 -244.5q0 -114 68.5 -179.5t189.5 -65.5zM1389 0l26 127h787l-25 -127h-788z" />
    <glyph glyph-name="trademark" unicode="&#x2122;" horiz-adv-x="1734" 
d="M854 1360h-250l-147 -758h-109l148 758h-250l20 104h608zM1665 1464l21 -862h-109l-14 653l-310 -522h-90l-106 522l-264 -653h-121l354 862h100l111 -557l328 557h100z" />
    <glyph glyph-name="estimated" unicode="&#x212e;" horiz-adv-x="1607" 
d="M117 623q0 176 96.5 325t262 235.5t360.5 86.5q196 0 362 -86.5t262 -235.5t96 -325v-19h-1175v-287q0 -68 27.5 -124.5t78.5 -88.5q139 -92 353 -92q151 0 285 57t223 158h59q-101 -118 -252.5 -185t-318.5 -67q-146 0 -279.5 51.5t-229.5 138t-153 206.5t-57 252z
M1202 1130q-133 103 -362 103q-217 0 -353 -94q-106 -71 -106 -174v-324h911v311q0 109 -90 178z" />
    <glyph glyph-name="uni2153" unicode="&#x2153;" horiz-adv-x="1536" 
d="M156 0l1005 1382h99l-1006 -1382h-98zM281 592l135 694h-88l18 96h184l-153 -790h-96zM1085 -18q-126 0 -196 50.5t-70 137.5q0 27 2 43h97q-3 -12 -3 -18q0 -62 46.5 -91.5t125.5 -29.5q94 0 145.5 43t51.5 116q0 78 -58 109.5t-182 28.5l19 92q131 2 193.5 36t62.5 109
q0 58 -38.5 83.5t-98.5 25.5q-71 0 -118.5 -30.5t-57.5 -88.5h-97q13 103 86 157t187 54q106 0 171.5 -47t65.5 -141q0 -80 -50.5 -130.5t-139.5 -68.5v-2q72 -9 112.5 -56.5t40.5 -125.5q0 -48 -15.5 -91t-48 -81t-92.5 -61t-141 -23z" />
    <glyph glyph-name="uni2154" unicode="&#x2154;" horiz-adv-x="1765" 
d="M119 592l16 86l352 295q39 32 60 51t47.5 48.5t38.5 59t12 60.5q0 53 -34 85t-103 32q-67 0 -112 -33.5t-58 -95.5h-98q17 108 89 164.5t183 56.5t172 -55.5t61 -149.5q0 -78 -45 -141t-139 -140l-282 -229h385l-19 -94h-526zM385 0l1006 1382h98l-1006 -1382h-98z
M1315 -18q-126 0 -196 50.5t-70 137.5q0 27 2 43h96q-2 -8 -2 -18q0 -62 46.5 -91.5t125.5 -29.5q94 0 145 43t51 116q0 78 -57.5 109.5t-181.5 28.5l18 92q131 2 193.5 36t62.5 109q0 58 -38.5 83.5t-98.5 25.5q-71 0 -118.5 -30.5t-57.5 -88.5h-96q13 103 86 157t186 54
q106 0 172 -47t66 -141q0 -80 -51 -130.5t-140 -68.5v-2q72 -9 113 -56.5t41 -125.5q0 -48 -15.5 -91t-48 -81t-92.5 -61t-141 -23z" />
    <glyph glyph-name="oneeighth" unicode="&#x215b;" horiz-adv-x="1536" 
d="M156 0l1005 1382h99l-1006 -1382h-98zM281 592l135 694h-88l18 96h184l-153 -790h-96zM1073 -18q-124 0 -192 58.5t-68 154.5q0 90 58 152.5t147 76.5l2 4q-47 14 -77 54t-30 100q0 97 76 162t203 65q111 0 174.5 -53.5t63.5 -141.5q0 -81 -51 -132t-124 -64v-4
q59 -15 92 -60.5t33 -113.5q0 -110 -81 -184t-226 -74zM1149 465q79 0 128.5 39.5t49.5 101.5q0 51 -36 81t-103 30q-76 0 -124 -36.5t-48 -102.5q0 -53 33 -83t100 -30zM1081 74q90 0 143.5 43.5t53.5 118.5q0 66 -41.5 101.5t-118.5 35.5q-89 0 -146 -45t-57 -119
q0 -65 44.5 -100t121.5 -35z" />
    <glyph glyph-name="threeeighths" unicode="&#x215c;" horiz-adv-x="1757" 
d="M422 573q-126 0 -196 51t-70 138q0 27 2 43h96q-2 -8 -2 -19q0 -62 46 -91t126 -29q94 0 145.5 43t51.5 116q0 78 -58 109.5t-182 28.5l18 92q131 2 193.5 36t62.5 109q0 58 -38.5 83.5t-98.5 25.5q-71 0 -118.5 -30.5t-57.5 -88.5h-96q13 103 86 157t186 54
q106 0 172 -47.5t66 -141.5q0 -79 -51 -129.5t-140 -68.5v-2q72 -9 113 -57t41 -126q0 -48 -15.5 -91t-48 -81t-92.5 -61t-141 -23zM379 0l1005 1382h99l-1006 -1382h-98zM1294 -18q-124 0 -192 58.5t-68 154.5q0 90 58 152.5t147 76.5l2 4q-47 14 -76.5 54t-29.5 100
q0 97 75.5 162t202.5 65q111 0 174.5 -53.5t63.5 -141.5q0 -81 -51 -132t-123 -64v-4q59 -15 92 -60.5t33 -113.5q0 -110 -81.5 -184t-226.5 -74zM1370 465q79 0 128.5 39.5t49.5 101.5q0 51 -36 81t-103 30q-76 0 -124 -36.5t-48 -102.5q0 -53 33 -83t100 -30zM1303 74
q90 0 143 43.5t53 118.5q0 66 -41.5 101.5t-118.5 35.5q-89 0 -145.5 -45t-56.5 -119q0 -65 44.5 -100t121.5 -35z" />
    <glyph glyph-name="fiveeighths" unicode="&#x215d;" horiz-adv-x="1744" 
d="M397 573q-102 0 -171.5 44t-100.5 126l90 45q45 -122 188 -122q54 0 95.5 17.5t64.5 47t34 63t11 70.5q0 79 -42.5 117.5t-112.5 38.5q-94 0 -164 -76h-90l135 438h424l-19 -94h-342l-78 -248h5q62 72 163 72q40 0 77.5 -13.5t70.5 -41.5t53.5 -77.5t20.5 -113.5
q0 -130 -82.5 -211.5t-229.5 -81.5zM365 0l1005 1382h98l-1005 -1382h-98zM1282 -18q-124 0 -192 58.5t-68 154.5q0 90 58 152.5t147 76.5l2 4q-47 14 -77 54t-30 100q0 97 76 162t203 65q111 0 174 -53.5t63 -141.5q0 -81 -51 -132t-123 -64v-4q59 -15 92 -60.5t33 -113.5
q0 -110 -81 -184t-226 -74zM1358 465q79 0 128.5 39.5t49.5 101.5q0 51 -36 81t-103 30q-76 0 -124 -36.5t-48 -102.5q0 -53 33 -83t100 -30zM1290 74q90 0 143.5 43.5t53.5 118.5q0 66 -41.5 101.5t-118.5 35.5q-89 0 -146 -45t-57 -119q0 -65 44.5 -100t121.5 -35z" />
    <glyph glyph-name="seveneighths" unicode="&#x215e;" horiz-adv-x="1544" 
d="M115 592l485 694h-395l18 96h506l-18 -92l-488 -698h-108zM164 0l1005 1382h99l-1006 -1382h-98zM1081 -18q-124 0 -192 58.5t-68 154.5q0 90 58 152.5t147 76.5l2 4q-47 14 -76.5 54t-29.5 100q0 97 75.5 162t202.5 65q111 0 174.5 -53.5t63.5 -141.5q0 -81 -51 -132
t-123 -64v-4q59 -15 92 -60.5t33 -113.5q0 -110 -81.5 -184t-226.5 -74zM1157 465q79 0 128.5 39.5t49.5 101.5q0 51 -36 81t-103 30q-76 0 -124 -36.5t-48 -102.5q0 -53 33 -83t100 -30zM1090 74q90 0 143 43.5t53 118.5q0 66 -41.5 101.5t-118.5 35.5q-89 0 -145.5 -45
t-56.5 -119q0 -65 44.5 -100t121.5 -35z" />
    <glyph glyph-name="arrowleft" unicode="&#x2190;" horiz-adv-x="1679" 
d="M1614 664l-29 -140h-1229l383 -471l-114 -94l-500 635l737 645l88 -106l-557 -469h1221z" />
    <glyph glyph-name="arrowup" unicode="&#x2191;" horiz-adv-x="1482" 
d="M1427 711l-112 -97l-377 476l-240 -1227h-139l238 1212l-559 -461l-86 107l763 614z" />
    <glyph glyph-name="arrowright" unicode="&#x2192;" horiz-adv-x="1679" 
d="M1102 1231l500 -635l-742 -645l-84 106l547 469h-1210l26 140h1233l-387 469z" />
    <glyph glyph-name="arrowdown" unicode="&#x2193;" horiz-adv-x="1486" 
d="M1298 575l86 -106l-763 -614l-519 622l119 98l375 -477l240 1229h139l-236 -1212z" />
    <glyph glyph-name="arrowboth" unicode="&#x2194;" horiz-adv-x="2580" 
d="M2001 1229l500 -635l-742 -645l-84 106l545 469h-1208h-656l383 -471l-114 -94l-500 635l737 645l88 -106l-557 -469h645h1235l-389 469z" />
    <glyph glyph-name="arrowupdn" unicode="&#x2195;" horiz-adv-x="1495" 
d="M553 -528l-516 622l117 99l376 -478l344 1776l-557 -461l-86 107l764 614l512 -625l-112 -96l-377 473l-344 -1771l557 461l86 -107z" />
    <glyph glyph-name="uni2196" unicode="&#x2196;" horiz-adv-x="1316" 
d="M1149 127l-117 -98l-694 860l-133 -660h-150l195 889l893 15l-29 -142l-663 2z" />
    <glyph glyph-name="uni2197" unicode="&#x2197;" horiz-adv-x="1316" 
d="M432 1137l887 -17l-152 -893l-149 2l123 660l-1026 -862l-82 98l1040 868l-670 -2z" />
    <glyph glyph-name="uni2198" unicode="&#x2198;" horiz-adv-x="1316" 
d="M1159 958h150l-195 -888l-893 -7l25 130l672 -3l-701 871l115 98l694 -862z" />
    <glyph glyph-name="uni2199" unicode="&#x2199;" horiz-adv-x="1318" 
d="M467 342l149 -143l324 -101l-520 -32l-90 161l-113 -94l-80 96l131 111l-135 244l174 374l-45 -419l113 -109l874 731l80 -98z" />
    <glyph glyph-name="partialdiff" unicode="&#x2202;" horiz-adv-x="1193" 
d="M653 1464q115 0 206.5 -35.5t159 -108.5t104 -192.5t36.5 -279.5q0 -125 -21 -245t-70 -236.5t-121 -203.5t-182 -140.5t-245 -53.5q-207 0 -324.5 116.5t-117.5 311.5q0 103 35 196.5t99.5 168t167.5 118.5t228 44q136 0 237.5 -51t158.5 -140q6 59 6 113q0 233 -93 354
t-270 121q-153 0 -305 -68l-47 131q189 80 358 80zM532 111q90 0 164.5 35t127.5 97.5t89.5 138t59.5 165.5q-17 43 -45 81.5t-70.5 74.5t-106.5 57.5t-141 21.5q-96 0 -171.5 -34.5t-119 -90.5t-66 -121t-22.5 -133q0 -133 81 -212.5t220 -79.5z" />
    <glyph glyph-name="emptyset" unicode="&#x2205;" 
d="M1020 985q123 -132 123 -321q0 -202 -141 -339t-351 -137q-190 0 -327 115l-119 -117l-39 41l117 115q-123 132 -123 322q0 202 140.5 338.5t350.5 136.5q192 0 326 -115l119 117l41 -41zM307 664q0 -128 78 -222l492 482q-90 75 -226 75q-151 0 -247.5 -94.5
t-96.5 -240.5zM651 328q151 0 247.5 95t96.5 241q0 128 -77 221l-492 -482q94 -75 225 -75z" />
    <glyph glyph-name="product" unicode="&#x220f;" horiz-adv-x="1495" 
d="M1599 1434v-142h-270v-1452h-143v1452h-545v-1452h-143v1452h-271v142h1372z" />
    <glyph glyph-name="summation" unicode="&#x2211;" horiz-adv-x="1449" 
d="M1233 1434v-142h-782l575 -688l-575 -688h782v-141h-965v143l576 686l-576 686v144h965z" />
    <glyph glyph-name="minus" unicode="&#x2212;" 
d="M1130 651v-82h-978v82h978z" />
    <glyph glyph-name="radical" unicode="&#x221a;" horiz-adv-x="1105" 
d="M1116 1464h141l-479 -1464h-137l-326 813h-182v133h275l297 -756z" />
    <glyph glyph-name="infinity" unicode="&#x221e;" horiz-adv-x="1568" 
d="M1221 922q140 0 233.5 -88.5t93.5 -225.5t-93 -225t-234 -88q-64 0 -122 20t-110.5 60.5t-89.5 77.5t-88 96q-40 -47 -68.5 -77t-71 -67t-80.5 -58.5t-87.5 -36.5t-102.5 -15q-141 0 -234 88t-93 225t93.5 225.5t233.5 88.5q53 0 102.5 -15t87.5 -36.5t80.5 -58.5t71 -67
t68.5 -77q51 59 88 96t89.5 77.5t110.5 60.5t122 20zM401 846q-103 0 -175 -68.5t-72 -169.5t72 -169t175 -68q55 0 104.5 18t95.5 55t80.5 72.5t80.5 91.5q-47 56 -81 91.5t-80 73t-95.5 55.5t-104.5 18zM1221 846q-54 0 -103 -18t-95.5 -55.5t-80 -73t-80.5 -91.5
q46 -56 80.5 -91.5t80.5 -72.5t95 -55t103 -18q103 0 175 68t72 169t-72 169.5t-175 68.5z" />
    <glyph glyph-name="integral" unicode="&#x222b;" horiz-adv-x="778" 
d="M889 1464l-27 -135q-120 0 -191 -61t-96 -199l-221 -1130q-40 -205 -149.5 -292t-300.5 -87l26 135q58 1 99.5 12t78.5 38.5t62.5 79.5t40.5 130l221 1130q39 198 152.5 288.5t304.5 90.5z" />
    <glyph glyph-name="approxequal" unicode="&#x2248;" 
d="M381 913q52 0 129.5 -23.5t144 -52t139 -52t115.5 -23.5q111 0 156 133h80q-28 -110 -90.5 -164.5t-143.5 -54.5q-53 0 -131 23.5t-144 52t-138 52t-115 23.5q-111 0 -156 -135h-80q28 112 91.5 166.5t142.5 54.5zM381 598q65 0 170 -38t205 -76t153 -38q110 0 156 136
h80q-28 -111 -90.5 -165.5t-143.5 -54.5q-67 0 -171.5 37.5t-204 75t-152.5 37.5q-111 0 -156 -135h-80q28 112 91.5 166.5t142.5 54.5z" />
    <glyph glyph-name="notequal" unicode="&#x2260;" 
d="M1159 756h-397l-170 -287h567v-80h-612l-125 -211h-80l125 211h-344v80h389l170 287h-559v80h606l123 208h80l-123 -208h350v-80z" />
    <glyph glyph-name="lessequal" unicode="&#x2264;" 
d="M1061 1001v-86l-780 -213l780 -210v-86l-903 256v83zM1075 322v-80h-919v80h919z" />
    <glyph glyph-name="greaterequal" unicode="&#x2265;" 
d="M188 1001l904 -256v-83l-904 -256v86l783 210l-783 213v86zM176 322h920v-80h-920v80z" />
    <glyph glyph-name="uni2460" unicode="&#x2460;" horiz-adv-x="1732" 
d="M913 -31q-217 0 -387.5 96.5t-265 267t-94.5 384.5t94.5 384.5t265 266.5t387.5 96q163 0 302.5 -56.5t237 -155t153 -237t55.5 -298.5q0 -214 -94.5 -384.5t-265.5 -267t-388 -96.5zM913 57q187 0 336 85.5t232.5 236.5t83.5 338t-83.5 338t-232.5 236t-336 85
t-336 -85.5t-232 -236t-83 -337.5t83 -338t232 -236.5t336 -85.5zM891 332v696h-90v94h184v-790h-94z" />
    <glyph glyph-name="uni2461" unicode="&#x2461;" horiz-adv-x="1732" 
d="M913 -31q-217 0 -387.5 96.5t-265 267t-94.5 384.5t94.5 384.5t265 266.5t387.5 96q163 0 302.5 -56.5t237 -155t153 -237t55.5 -298.5q0 -214 -94.5 -384.5t-265.5 -267t-388 -96.5zM913 57q187 0 336 85.5t232.5 236.5t83.5 338t-83.5 338t-232.5 236t-336 85
t-336 -85.5t-232 -236t-83 -337.5t83 -338t232 -236.5t336 -85.5zM670 360l-2 86l299 299q112 108 112 199q0 56 -37.5 92.5t-107.5 36.5q-149 0 -164 -131h-98q6 110 74.5 168.5t187.5 58.5q121 0 184.5 -62t63.5 -163q0 -70 -34.5 -129t-100.5 -125l-240 -235h377v-95
h-514z" />
    <glyph glyph-name="uni2462" unicode="&#x2462;" horiz-adv-x="1732" 
d="M913 -31q-217 0 -387.5 96.5t-265 267t-94.5 384.5t94.5 384.5t265 266.5t387.5 96q163 0 302.5 -56.5t237 -155t153 -237t55.5 -298.5q0 -214 -94.5 -384.5t-265.5 -267t-388 -96.5zM913 57q187 0 336 85.5t232.5 236.5t83.5 338t-83.5 338t-232.5 236t-336 85
t-336 -85.5t-232 -236t-83 -337.5t83 -338t232 -236.5t336 -85.5zM915 324q-122 0 -197 60t-81 171h100q6 -67 54.5 -101t123.5 -34q187 0 187 147q0 83 -61.5 115.5t-176.5 32.5v90q201 6 201 131q0 60 -38 90.5t-109 30.5q-149 0 -160 -123h-99q6 103 74 160t187 57
q115 0 180 -54.5t65 -146.5q0 -68 -38.5 -116.5t-106.5 -63.5v-2q83 -11 131.5 -62.5t48.5 -144.5q0 -106 -69.5 -171.5t-215.5 -65.5z" />
    <glyph glyph-name="uni2463" unicode="&#x2463;" horiz-adv-x="1732" 
d="M913 1464q163 0 302.5 -56.5t237 -155t153 -237t55.5 -298.5q0 -214 -94.5 -384.5t-265.5 -267t-388 -96.5t-387.5 96.5t-265 267t-94.5 384.5t94.5 384.5t265 266.5t387.5 96zM913 57q187 0 336 85.5t232.5 236.5t83.5 338t-83.5 338t-232.5 236t-336 85t-336 -85.5
t-232 -236t-83 -337.5t83 -338t232 -236.5t336 -85.5zM1090 1130v-546h98v-90h-98v-154h-99v154h-422v88l394 548h127zM678 584h313v432h-4z" />
    <glyph glyph-name="uni2464" unicode="&#x2464;" horiz-adv-x="1732" 
d="M913 -31q-217 0 -387.5 96.5t-265 267t-94.5 384.5t94.5 384.5t265 266.5t387.5 96q163 0 302.5 -56.5t237 -155t153 -237t55.5 -298.5q0 -214 -94.5 -384.5t-265.5 -267t-388 -96.5zM913 57q187 0 336 85.5t232.5 236.5t83.5 338t-83.5 338t-232.5 236t-336 85
t-336 -85.5t-232 -236t-83 -337.5t83 -338t232 -236.5t336 -85.5zM920 311q-199 0 -277 160l80 55q65 -118 199 -118q85 0 131.5 47.5t46.5 128.5q0 83 -47.5 128.5t-120.5 45.5q-104 0 -164 -76h-88l53 438h416v-94h-342l-31 -244h6q25 30 69.5 49t98.5 19q101 0 175.5 -69
t74.5 -197t-76.5 -200.5t-203.5 -72.5z" />
    <glyph glyph-name="uni2465" unicode="&#x2465;" horiz-adv-x="1732" 
d="M913 -31q-217 0 -387.5 96.5t-265 267t-94.5 384.5t94.5 384.5t265 266.5t387.5 96q163 0 302.5 -56.5t237 -155t153 -237t55.5 -298.5q0 -214 -94.5 -384.5t-265.5 -267t-388 -96.5zM913 57q187 0 336 85.5t232.5 236.5t83.5 338t-83.5 338t-232.5 236t-336 85
t-336 -85.5t-232 -236t-83 -337.5t83 -338t232 -236.5t336 -85.5zM911 317q-123 0 -204.5 74t-81.5 209q0 103 35 175.5t104 152.5l174 215h123l-295 -346l2 -4q70 67 166 67q111 0 185.5 -72.5t74.5 -193.5q0 -122 -78 -199.5t-205 -77.5zM911 412q82 0 132.5 48t50.5 132
q0 81 -52 129.5t-131 48.5q-81 0 -133.5 -48t-52.5 -130q0 -84 52 -132t134 -48z" />
    <glyph glyph-name="uni2466" unicode="&#x2466;" horiz-adv-x="1732" 
d="M913 -31q-217 0 -387.5 96.5t-265 267t-94.5 384.5t94.5 384.5t265 266.5t387.5 96q163 0 302.5 -56.5t237 -155t153 -237t55.5 -298.5q0 -214 -94.5 -384.5t-265.5 -267t-388 -96.5zM913 57q187 0 336 85.5t232.5 236.5t83.5 338t-83.5 338t-232.5 236t-336 85
t-336 -85.5t-232 -236t-83 -337.5t83 -338t232 -236.5t336 -85.5zM743 313l351 695h-400v96h506v-92l-352 -699h-105z" />
    <glyph glyph-name="uni2467" unicode="&#x2467;" horiz-adv-x="1732" 
d="M913 -31q-217 0 -387.5 96.5t-265 267t-94.5 384.5t94.5 384.5t265 266.5t387.5 96q163 0 302.5 -56.5t237 -155t153 -237t55.5 -298.5q0 -214 -94.5 -384.5t-265.5 -267t-388 -96.5zM913 57q187 0 336 85.5t232.5 236.5t83.5 338t-83.5 338t-232.5 236t-336 85
t-336 -85.5t-232 -236t-83 -337.5t83 -338t232 -236.5t336 -85.5zM915 315q-132 0 -205 65.5t-73 164.5q0 82 42.5 134.5t111.5 72.5v4q-57 19 -93 64t-36 116q0 92 67 149.5t186 57.5q117 0 184.5 -57.5t67.5 -149.5q0 -71 -36 -116t-93 -64v-4q69 -20 111.5 -72.5
t42.5 -134.5q0 -99 -73 -164.5t-204 -65.5zM915 799q68 0 110 35t42 92q0 56 -42 88.5t-110 32.5q-69 0 -111 -32.5t-42 -88.5q0 -57 42 -92t111 -35zM915 412q85 0 131 37.5t46 107.5q0 69 -47.5 109.5t-129.5 40.5q-83 0 -130.5 -40.5t-47.5 -109.5q0 -70 46 -107.5
t132 -37.5z" />
    <glyph glyph-name="uni2468" unicode="&#x2468;" horiz-adv-x="1732" 
d="M913 -31q-217 0 -387.5 96.5t-265 267t-94.5 384.5t94.5 384.5t265 266.5t387.5 96q163 0 302.5 -56.5t237 -155t153 -237t55.5 -298.5q0 -214 -94.5 -384.5t-265.5 -267t-388 -96.5zM913 57q187 0 336 85.5t232.5 236.5t83.5 338t-83.5 338t-232.5 236t-336 85
t-336 -85.5t-232 -236t-83 -337.5t83 -338t232 -236.5t336 -85.5zM782 317l295 342l-2 5q-51 -40 -88 -57t-86 -17q-109 0 -180.5 73t-71.5 185q0 119 76 197.5t205 78.5t206.5 -74.5t77.5 -205.5q0 -79 -24.5 -149.5t-91.5 -153.5l-189 -224h-127zM934 678q84 0 132 48
t48 130q0 79 -48 125.5t-130 46.5q-83 0 -134.5 -48t-51.5 -130q0 -79 49.5 -125.5t134.5 -46.5z" />
    <glyph glyph-name="uni24EA" unicode="&#x24ea;" horiz-adv-x="1732" 
d="M913 -31q-217 0 -387.5 96.5t-265 267t-94.5 384.5t94.5 384.5t265 266.5t387.5 96q163 0 302.5 -56.5t237 -155t153 -237t55.5 -298.5q0 -214 -94.5 -384.5t-265.5 -267t-388 -96.5zM913 57q187 0 336 85.5t232.5 236.5t83.5 338t-83.5 338t-232.5 236t-336 85
t-336 -85.5t-232 -236t-83 -337.5t83 -338t232 -236.5t336 -85.5zM915 307q-152 0 -241.5 110t-89.5 306q0 194 89.5 303t241.5 109q149 0 238.5 -109.5t89.5 -302.5q0 -195 -89.5 -305.5t-238.5 -110.5zM913 403q106 0 168 88t62 232q0 143 -62 230t-168 87t-167.5 -87
t-61.5 -230q0 -144 61.5 -232t167.5 -88z" />
    <glyph glyph-name="uni24FF" unicode="&#x24ff;" horiz-adv-x="1730" 
d="M913 -31q-212 0 -383 97.5t-267.5 269t-96.5 381.5t96.5 381t267.5 268.5t383 97.5t383.5 -97.5t268 -268.5t96.5 -381q0 -157 -57 -296t-155.5 -238t-237.5 -156.5t-298 -57.5zM915 307q149 0 238.5 110.5t89.5 305.5q0 193 -89.5 302.5t-238.5 109.5
q-152 0 -241.5 -109t-89.5 -303q0 -196 89.5 -306t241.5 -110zM913 403q-106 0 -167.5 88t-61.5 232q0 143 61.5 230t167.5 87t168 -87t62 -230q0 -144 -62 -232t-168 -88z" />
    <glyph glyph-name="lozenge" unicode="&#x25ca;" horiz-adv-x="1196" 
d="M723 1464l479 -747l-479 -748h-156l-479 748l479 747h156zM645 1333l-395 -616l395 -617l395 617z" />
    <glyph glyph-name="uni2776" unicode="&#x2776;" horiz-adv-x="1730" 
d="M913 -31q-212 0 -383 97.5t-267.5 269t-96.5 381.5t96.5 381t267.5 268.5t383 97.5t383.5 -97.5t268 -268.5t96.5 -381q0 -157 -57 -296t-155.5 -238t-237.5 -156.5t-298 -57.5zM891 334h94v790h-184v-96h90v-694z" />
    </font>
</defs>
</svg>
