<?xml version="1.0" standalone="no"?>
<!DOCTYPE svg PUBLIC "-//W3C//DTD SVG 1.1//EN" "http://www.w3.org/Graphics/SVG/1.1/DTD/svg11.dtd" >
<svg xmlns="http://www.w3.org/2000/svg" xmlns:xlink="http://www.w3.org/1999/xlink" version="1.1">
<metadata>
Created by FontForge 20170731 at Sat Jul 23 01:24:58 2022
 By Aleksey,,,
Copyright (c) 2015 by Reto Moser. All rights reserved.
</metadata>
<defs>
<font id="GTEestiProDisplay-Light" horiz-adv-x="1228" >
  <font-face 
    font-family="GT Eesti Pro Display Light"
    font-weight="300"
    font-stretch="normal"
    units-per-em="2048"
    panose-1="0 0 4 0 0 0 0 0 0 0"
    ascent="1536"
    descent="-512"
    x-height="946"
    cap-height="1434"
    bbox="-809 -514 2476 1823"
    underline-thickness="102"
    underline-position="-307"
    unicode-range="U+0020-FB02"
  />
<missing-glyph horiz-adv-x="1576" 
d="M788 -31q-213 0 -384 96.5t-267 267.5t-96 384q0 160 56.5 299t155 237.5t237 154.5t298.5 56q214 0 385 -95.5t267 -266.5t96 -385q0 -213 -96 -384t-267 -267.5t-385 -96.5zM788 20q149 0 279 53.5t223 146.5t146 224.5t53 282.5l-105 133l-143 -61l-139 184l-162 -90
l-152 242l-151 -242l-162 90l-139 -184l-143 61l-105 -133q0 -201 90.5 -363t250.5 -253t359 -91zM578 651q-31 0 -51.5 20.5t-20.5 51.5t20.5 51.5t51.5 20.5t51 -20.5t20 -51.5t-20 -51.5t-51 -20.5zM997 651q-31 0 -51 20.5t-20 51.5t20 51.5t51 20.5t51.5 -20.5
t20.5 -51.5t-20.5 -51.5t-51.5 -20.5zM702 522l74 207q1 7 8.5 10t14.5 0q6 -2 9.5 -8.5t0.5 -13.5l-57 -160h69q8 0 13.5 -5.5t5.5 -12.5q0 -6 -6 -11.5t-13 -5.5h-119zM385 350q-61 0 -101 40t-40 102t40 101.5t101 39.5t101 -39.5t40 -101.5t-40 -102t-101 -40zM1190 350
q-61 0 -101 40t-40 102t39.5 101.5t101.5 39.5t101.5 -39.5t39.5 -101.5t-40 -102t-101 -40zM788 395q-95 0 -126 -61q-6 -12 -19 -12q-16 0 -16 18q0 35 49.5 63.5t111.5 28.5t112 -28.5t50 -63.5q0 -18 -16 -18q-13 0 -19 12q-31 61 -127 61z" />
    <glyph glyph-name="fi" unicode="fi" horiz-adv-x="1044" 
d="M223 1104q0 173 88.5 261.5t247.5 88.5h33v-139h-27q-196 0 -196 -209v-160h215v-127h-215v-819h-146v819h-174v127h174v158zM743 1413h187v-246h-187v246zM764 0v946h147v-946h-147z" />
    <glyph glyph-name="fl" unicode="fl" horiz-adv-x="1052" 
d="M223 1104q0 173 88.5 261.5t247.5 88.5h33v-139h-27q-196 0 -196 -209v-160h215v-127h-215v-819h-146v819h-174v127h174v158zM768 1434h147v-1434h-147v1434z" />
    <glyph glyph-name="f_f" unicode="ff" horiz-adv-x="1259" 
d="M223 1104q0 173 88.5 261.5t247.5 88.5h33v-139h-27q-196 0 -196 -209v-160h215v-127h-215v-819h-146v819h-174v127h174v158zM1196 1315q-197 0 -197 -209v-160h215v-127h-215v-819h-145v819h-174v127h174v158q0 173 88.5 261.5t247.5 88.5h33v-139h-27z" />
    <glyph glyph-name="f_f_i" unicode="ffi" horiz-adv-x="1673" 
d="M223 1104q0 173 88.5 261.5t247.5 88.5h33v-139h-27q-196 0 -196 -209v-160h215v-127h-215v-819h-146v819h-174v127h174v158zM854 1104q0 173 88.5 261.5t247.5 88.5h33v-139h-27q-197 0 -197 -209v-160h215v-127h-215v-819h-145v819h-174v127h174v158zM1372 1413h187
v-246h-187v246zM1393 0v946h147v-946h-147z" />
    <glyph glyph-name="f_f_l" unicode="ffl" horiz-adv-x="1681" 
d="M223 1104q0 173 88.5 261.5t247.5 88.5h33v-139h-27q-196 0 -196 -209v-160h215v-127h-215v-819h-146v819h-174v127h174v158zM854 1104q0 173 88.5 261.5t247.5 88.5h33v-139h-27q-197 0 -197 -209v-160h215v-127h-215v-819h-145v819h-174v127h174v158zM1397 1434h147
v-1434h-147v1434z" />
    <glyph glyph-name=".notdef" horiz-adv-x="1576" 
d="M788 -31q-213 0 -384 96.5t-267 267.5t-96 384q0 160 56.5 299t155 237.5t237 154.5t298.5 56q214 0 385 -95.5t267 -266.5t96 -385q0 -213 -96 -384t-267 -267.5t-385 -96.5zM788 20q149 0 279 53.5t223 146.5t146 224.5t53 282.5l-105 133l-143 -61l-139 184l-162 -90
l-152 242l-151 -242l-162 90l-139 -184l-143 61l-105 -133q0 -201 90.5 -363t250.5 -253t359 -91zM578 651q-31 0 -51.5 20.5t-20.5 51.5t20.5 51.5t51.5 20.5t51 -20.5t20 -51.5t-20 -51.5t-51 -20.5zM997 651q-31 0 -51 20.5t-20 51.5t20 51.5t51 20.5t51.5 -20.5
t20.5 -51.5t-20.5 -51.5t-51.5 -20.5zM702 522l74 207q1 7 8.5 10t14.5 0q6 -2 9.5 -8.5t0.5 -13.5l-57 -160h69q8 0 13.5 -5.5t5.5 -12.5q0 -6 -6 -11.5t-13 -5.5h-119zM385 350q-61 0 -101 40t-40 102t40 101.5t101 39.5t101 -39.5t40 -101.5t-40 -102t-101 -40zM1190 350
q-61 0 -101 40t-40 102t39.5 101.5t101.5 39.5t101.5 -39.5t39.5 -101.5t-40 -102t-101 -40zM788 395q-95 0 -126 -61q-6 -12 -19 -12q-16 0 -16 18q0 35 49.5 63.5t111.5 28.5t112 -28.5t50 -63.5q0 -18 -16 -18q-13 0 -19 12q-31 61 -127 61z" />
    <glyph glyph-name=".null" horiz-adv-x="0" 
 />
    <glyph glyph-name="nonmarkingreturn" horiz-adv-x="682" 
 />
    <glyph glyph-name="NULL" horiz-adv-x="0" 
 />
    <glyph glyph-name="NULL" horiz-adv-x="0" 
 />
    <glyph glyph-name="space" unicode=" " horiz-adv-x="610" 
 />
    <glyph glyph-name="exclam" unicode="!" horiz-adv-x="620" 
d="M258 422l-35 1012h172l-35 -1012h-102zM416 211v-211h-211v211h211z" />
    <glyph glyph-name="quotedbl" unicode="&#x22;" horiz-adv-x="546" 
d="M141 946l-39 518h138l-39 -518h-60zM346 946l-39 518h137l-38 -518h-60z" />
    <glyph glyph-name="numbersign" unicode="#" horiz-adv-x="1292" 
d="M1190 934h-258l-72 -389h254v-86h-268l-84 -459h-94l84 459h-306l-84 -459h-94l84 459h-250v86h265l71 389h-260v86h277l73 414h95l-74 -414h305l74 414h94l-74 -414h242v-86zM766 545l72 389h-306l-71 -389h305z" />
    <glyph glyph-name="dollar" unicode="$" horiz-adv-x="1030" 
d="M969 362q0 -177 -110 -279.5t-304 -113.5v-127h-57v127q-202 5 -319 111.5t-118 290.5h152q14 -253 285 -260v555q-153 62 -214 103q-148 97 -160 262q-1 16 -1 32q0 157 100 249t275 101v148h57v-148q114 -4 199 -41t138 -119t54 -204h-151q-8 217 -240 223v-469
q156 -63 217 -100q160 -97 190 -256q7 -40 7 -85zM276 1069q0 -47 16.5 -84.5t49.5 -66t68.5 -49t87.5 -42.5v445q-104 -8 -163 -59.5t-59 -143.5zM555 111q130 9 195 73t65 168q0 58 -19.5 104t-59.5 80t-80 56.5t-101 48.5v-530z" />
    <glyph glyph-name="percent" unicode="%" horiz-adv-x="1538" 
d="M426 1413q142 0 233 -91t91 -232t-91 -232.5t-233 -91.5t-233 91.5t-91 232.5t91 232t233 91zM301 0l809 1382h98l-809 -1382h-98zM426 1317q-101 0 -161 -62.5t-60 -164.5t60 -165t161 -63t161 63t60 165t-60 164.5t-161 62.5zM1112 637q142 0 233 -91.5t91 -232.5
t-91 -232t-233 -91t-233 91t-91 232t91 232.5t233 91.5zM1112 541q-101 0 -161 -63t-60 -165t60 -164.5t161 -62.5t161 62.5t60 164.5t-60 165t-161 63z" />
    <glyph glyph-name="ampersand" unicode="&#x26;" horiz-adv-x="1378" 
d="M1294 0h-180l-115 150q-178 -181 -426 -181q-213 0 -347 119.5t-134 323.5q0 164 92 283t258 177q-123 159 -123 291q0 114 83.5 182t230.5 68q143 0 278 -57l-49 -135q-126 47 -231 47q-77 0 -116.5 -31t-39.5 -88q0 -32 15 -68.5t31.5 -61.5t47.5 -67l432 -565
q75 121 140 301l137 -51q-84 -233 -184 -373zM573 115q194 0 336 151l-379 494q-135 -43 -209.5 -128t-74.5 -212q0 -141 90 -223t237 -82z" />
    <glyph glyph-name="quotesingle" unicode="'" horiz-adv-x="352" 
d="M250 1464l-37 -518h-72l-39 518h148z" />
    <glyph glyph-name="parenleft" unicode="(" horiz-adv-x="579" 
d="M430 1563l115 -84q-161 -213 -236.5 -429.5t-75.5 -478.5q0 -265 74.5 -488t231.5 -439l-113 -84q-109 150 -180 291t-115.5 326t-44.5 394q0 303 87.5 536.5t256.5 455.5z" />
    <glyph glyph-name="parenright" unicode=")" horiz-adv-x="579" 
d="M154 -440l-115 84q158 216 232.5 438.5t74.5 488.5q0 262 -75 478.5t-236 429.5l115 84q169 -222 256.5 -455.5t87.5 -536.5q0 -209 -44.5 -394t-115.5 -326t-180 -291z" />
    <glyph glyph-name="asterisk" unicode="*" horiz-adv-x="825" 
d="M764 1169l-279 -77l181 -226l-95 -69l-157 241l-160 -243l-94 69l180 226l-279 77l37 109l269 -100l-15 288h119l-14 -286l270 100z" />
    <glyph glyph-name="plus" unicode="+" 
d="M657 1108v-459h457v-78h-457v-458h-86v458h-456v78h456v459h86z" />
    <glyph glyph-name="comma" unicode="," horiz-adv-x="436" 
d="M324 211v-211l-129 -291h-82l102 291h-100v211h209z" />
    <glyph glyph-name="hyphen" unicode="-" horiz-adv-x="702" 
d="M610 625v-148h-518v148h518z" />
    <glyph glyph-name="period" unicode="." horiz-adv-x="436" 
d="M324 211v-211h-211v211h211z" />
    <glyph glyph-name="slash" unicode="/" horiz-adv-x="1189" 
d="M1012 1591l116 -65l-948 -1716l-119 63z" />
    <glyph glyph-name="zero" unicode="0" horiz-adv-x="1159" 
d="M580 1413q228 0 357.5 -189t129.5 -532t-130 -533t-357 -190q-228 0 -358 190t-130 533t130 532t358 189zM580 1274q-153 0 -243.5 -157t-90.5 -425t90.5 -425.5t243.5 -157.5t243 157.5t90 425.5t-90 425t-243 157z" />
    <glyph glyph-name="one" unicode="1" horiz-adv-x="626" 
d="M406 1382v-1382h-148v1237h-108v145h256z" />
    <glyph glyph-name="two" unicode="2" horiz-adv-x="1024" 
d="M74 0v115l514 561q96 106 141 185.5t45 162.5q0 111 -72 180.5t-194 69.5q-121 0 -200 -69.5t-83 -196.5h-147q4 188 121.5 296.5t314.5 108.5q194 0 304 -103.5t110 -279.5q0 -110 -52 -210.5t-163 -221.5l-426 -457h645v-141h-858z" />
    <glyph glyph-name="three" unicode="3" horiz-adv-x="1064" 
d="M518 1413q189 0 299.5 -95.5t110.5 -254.5q0 -123 -67.5 -208.5t-194.5 -111.5v-4q151 -12 235 -106t84 -254q0 -189 -116 -299.5t-334 -110.5q-206 0 -328.5 100t-132.5 285h149q9 -115 88 -180t224 -65q143 0 219.5 70.5t76.5 211.5q0 145 -89 209.5t-291 63.5h-76v133
h76q157 0 240 60.5t83 182.5q0 111 -67.5 172.5t-190.5 61.5q-120 0 -194 -58t-78 -169h-148q6 170 119.5 268t302.5 98z" />
    <glyph glyph-name="four" unicode="4" horiz-adv-x="1124" 
d="M1065 403v-141h-168v-262h-145v262h-711v125l696 995h160v-979h168zM207 403h545v771h-7z" />
    <glyph glyph-name="five" unicode="5" horiz-adv-x="1069" 
d="M573 905q193 0 313 -120.5t120 -335.5q0 -222 -126.5 -351t-351.5 -129q-172 0 -295 76.5t-180 218.5l125 72q54 -114 137 -170.5t211 -56.5q162 0 244 91.5t82 245.5q0 156 -85.5 242t-225.5 86q-94 0 -167.5 -38.5t-119.5 -106.5h-133l84 753h690v-141h-569l-56 -448h4
q53 50 130 81t169 31z" />
    <glyph glyph-name="six" unicode="6" horiz-adv-x="1071" 
d="M549 -31q-210 0 -346.5 131t-136.5 357q0 150 55 281.5t182 283.5l307 373h183l-502 -602l6 -5q126 123 291 123q198 0 320 -129.5t122 -337.5q0 -210 -135 -342.5t-346 -132.5zM549 109q146 0 237 91.5t91 241.5q0 149 -89 240.5t-235 91.5q-149 0 -241.5 -92.5
t-92.5 -241.5q0 -148 90.5 -239.5t239.5 -91.5z" />
    <glyph glyph-name="seven" unicode="7" horiz-adv-x="909" 
d="M877 1382v-129l-580 -1253h-158l580 1239h-688v143h846z" />
    <glyph glyph-name="eight" unicode="8" horiz-adv-x="1099" 
d="M549 -31q-217 0 -341 112t-124 296q0 133 71 230.5t193 131.5v4q-98 31 -160.5 113.5t-62.5 198.5q0 162 114.5 260t309.5 98q197 0 311.5 -98t114.5 -260q0 -116 -62.5 -198.5t-160.5 -113.5v-4q120 -34 191 -131.5t71 -230.5q0 -184 -124 -296t-341 -112zM549 805
q124 0 197 65.5t73 173.5t-73 172t-197 64t-197 -64t-73 -172t73.5 -173.5t196.5 -65.5zM549 102q146 0 228.5 75t82.5 208q0 129 -81.5 207t-229.5 78q-146 0 -227.5 -78t-81.5 -207q0 -134 81.5 -208.5t227.5 -74.5z" />
    <glyph glyph-name="nine" unicode="9" horiz-adv-x="1044" 
d="M299 0l492 600l-5 4q-122 -119 -294 -119q-191 0 -316 131.5t-125 327.5q0 211 132.5 340t344.5 129q215 0 345.5 -131.5t130.5 -368.5q0 -138 -53.5 -266t-174.5 -278l-299 -369h-178zM526 623q146 0 237 90t91 233q0 147 -90.5 237.5t-237.5 90.5q-142 0 -231.5 -89.5
t-89.5 -236.5q0 -145 89 -235t232 -90z" />
    <glyph glyph-name="colon" unicode=":" horiz-adv-x="436" 
d="M324 946v-211h-211v211h211zM324 211v-211h-211v211h211z" />
    <glyph glyph-name="semicolon" unicode=";" horiz-adv-x="436" 
d="M324 946v-211h-211v211h211zM324 211v-211l-129 -291h-82l102 291h-100v211h209z" />
    <glyph glyph-name="less" unicode="&#x3c;" 
d="M1067 1055v-94l-803 -349l803 -348v-92l-905 399v84z" />
    <glyph glyph-name="equal" unicode="=" 
d="M1133 836v-80h-1037v80h1037zM1133 469v-80h-1037v80h1037z" />
    <glyph glyph-name="greater" unicode="&#x3e;" 
d="M162 1055l905 -400v-84l-905 -399v92l803 348l-803 349v94z" />
    <glyph glyph-name="question" unicode="?" horiz-adv-x="962" 
d="M481 1464q187 0 293.5 -101.5t106.5 -268.5q0 -105 -42.5 -179t-119.5 -147q-9 -8 -39.5 -35t-41 -38t-34.5 -35.5t-34 -41.5t-23 -41.5t-18 -50.5t-5 -55v-49h-147v59q0 33 6 65t13 55.5t25 52.5t28 44.5t36.5 44t36.5 38.5t43 40.5t41 38.5q58 58 89.5 113.5
t31.5 124.5q0 96 -62.5 158.5t-183.5 62.5q-124 0 -196 -72t-72 -194h-152q0 193 113 302t307 109zM553 211v-211h-209v211h209z" />
    <glyph glyph-name="at" unicode="@" horiz-adv-x="1912" 
d="M981 1413q241 0 428.5 -96.5t294 -277.5t106.5 -418q0 -137 -37 -248t-114 -180.5t-182 -69.5q-179 0 -220 176h-6q-41 -88 -122.5 -141.5t-198.5 -53.5q-177 0 -298.5 123.5t-121.5 323.5q0 202 121 324t299 122q217 0 309 -182h4v152h131v-590q0 -74 33 -109t82 -35
q94 0 145.5 104t51.5 275q0 161 -56.5 292t-153.5 215.5t-224 129.5t-271 45q-120 0 -230 -28.5t-205.5 -88.5t-165.5 -146.5t-110.5 -210t-40.5 -271.5t45 -272.5t120 -209t174.5 -143t207.5 -85.5t221 -27q222 0 414 90l49 -113q-234 -96 -465 -96q-107 0 -212 22.5
t-206 66t-186.5 115t-150 163t-101.5 216.5t-37 269q0 206 67.5 371.5t186 273.5t278.5 165.5t347 57.5zM952 866q-136 0 -217.5 -88.5t-81.5 -224.5q0 -137 81 -225t218 -88q135 0 218 88.5t83 224.5t-83 224.5t-218 88.5z" />
    <glyph glyph-name="A" unicode="A" horiz-adv-x="1349" 
d="M1163 0l-151 383h-674l-152 -383h-172l586 1434h150l583 -1434h-170zM395 528h559l-280 707z" />
    <glyph glyph-name="B" unicode="B" horiz-adv-x="1251" 
d="M854 762q144 -19 227.5 -114t83.5 -245q0 -97 -36 -174.5t-98 -127t-142.5 -75.5t-173.5 -26h-563v1434h507q192 0 307 -96t115 -263q0 -115 -59.5 -197.5t-167.5 -111.5v-4zM625 1284h-316v-465h307q293 0 293 230q0 235 -284 235zM688 150q144 0 225.5 71.5t81.5 192.5
q0 120 -84 190t-239 70h-363v-524h379z" />
    <glyph glyph-name="C" unicode="C" horiz-adv-x="1402" 
d="M842 -31q-170 0 -313 54.5t-242.5 152.5t-155 237t-55.5 304t55.5 304t155 236.5t242.5 152t313 54.5q282 0 499 -161l-96 -138q-184 140 -407 140q-260 0 -425 -163t-165 -425t165 -425t425 -163q224 0 407 139l96 -137q-219 -162 -499 -162z" />
    <glyph glyph-name="D" unicode="D" horiz-adv-x="1398" 
d="M600 1434q155 0 288 -50t229 -141t150 -226.5t54 -299.5t-54 -299.5t-150 -226.5t-229 -141t-288 -50h-448v1434h448zM600 1284h-291v-1137h291q158 0 281 64t196.5 195t73.5 311q0 135 -42 243.5t-117 179t-175 107.5t-217 37z" />
    <glyph glyph-name="E" unicode="E" horiz-adv-x="1060" 
d="M309 150h656v-150h-813v1434h802v-150h-645v-412h594v-147h-594v-575z" />
    <glyph glyph-name="F" unicode="F" horiz-adv-x="1026" 
d="M965 1284h-656v-465h602v-147h-602v-672h-157v1434h813v-150z" />
    <glyph glyph-name="G" unicode="G" horiz-adv-x="1617" 
d="M889 766h667v-66q0 -108 -27 -212t-85 -198.5t-141 -165.5t-204 -113t-265 -42q-218 0 -390 92t-270 262.5t-98 389.5q0 163 55.5 302.5t154.5 238t240.5 154.5t307.5 56q306 0 548 -190l-108 -133q-198 164 -447 164q-168 0 -300.5 -76.5t-205.5 -211t-73 -302.5
q0 -256 163.5 -421t426.5 -165q108 0 199.5 30.5t153.5 80t106.5 114t66 130.5t25.5 132h-500v150z" />
    <glyph glyph-name="H" unicode="H" horiz-adv-x="1437" 
d="M1128 1434h158v-1434h-158v686h-819v-686h-157v1434h157v-596h819v596z" />
    <glyph glyph-name="I" unicode="I" horiz-adv-x="464" 
d="M311 1434v-1434h-159v1434h159z" />
    <glyph glyph-name="J" unicode="J" horiz-adv-x="552" 
d="M401 1434v-1094q0 -180 -73.5 -265t-227.5 -85h-65v153h51q81 0 119.5 44t38.5 153v1094h157z" />
    <glyph glyph-name="K" unicode="K" horiz-adv-x="1253" 
d="M1239 0h-235l-695 731v-731h-157v1434h157v-648l615 648h223l-655 -664z" />
    <glyph glyph-name="L" unicode="L" horiz-adv-x="993" 
d="M309 1434v-1282h666v-152h-823v1434h157z" />
    <glyph glyph-name="M" unicode="M" horiz-adv-x="1728" 
d="M1364 1434l350 -1434h-168l-266 1128h-4l-350 -899h-123l-350 899h-4l-267 -1128h-168l351 1434h131l366 -959h4l367 959h131z" />
    <glyph glyph-name="N" unicode="N" horiz-adv-x="1421" 
d="M1268 1434v-1434h-168l-787 1165h-4v-1165h-157v1434h167l787 -1166h4v1166h158z" />
    <glyph glyph-name="O" unicode="O" horiz-adv-x="1646" 
d="M823 1464q211 0 381.5 -94t268.5 -265.5t98 -387.5t-98 -387.5t-268.5 -266t-381.5 -94.5t-381.5 94.5t-268 266t-97.5 387.5q0 162 57 302t156.5 237t237.5 152.5t296 55.5zM823 1305q-124 0 -231 -44t-182.5 -121.5t-118.5 -186.5t-43 -236t43 -236t118.5 -186.5
t182.5 -121.5t231 -44q253 0 414.5 165.5t161.5 422.5t-161.5 422.5t-414.5 165.5z" />
    <glyph glyph-name="P" unicode="P" horiz-adv-x="1110" 
d="M635 1434q200 0 316 -118.5t116 -305.5q0 -185 -116.5 -303.5t-315.5 -118.5h-326v-588h-157v1434h483zM618 737q127 0 203 71t76 202q0 132 -75.5 203t-203.5 71h-309v-547h309z" />
    <glyph glyph-name="Q" unicode="Q" horiz-adv-x="1654" 
d="M1575 0h-203l-102 104q-193 -135 -447 -135q-211 0 -381.5 94.5t-268 266t-97.5 387.5q0 162 57 302t156.5 237t237.5 152.5t296 55.5q211 0 381.5 -94t268.5 -265.5t98 -387.5q0 -307 -193 -516zM823 129q188 0 330 96l-317 328h202l224 -231q137 159 137 395
q0 257 -161.5 422.5t-414.5 165.5q-124 0 -231 -44t-182.5 -121.5t-118.5 -186.5t-43 -236t43 -236t118.5 -186.5t182.5 -121.5t231 -44z" />
    <glyph glyph-name="R" unicode="R" horiz-adv-x="1169" 
d="M938 0l-426 616h-203v-616h-157v1434h477q192 0 314 -108.5t122 -301.5q0 -171 -100.5 -277.5t-264.5 -125.5l437 -621h-199zM309 1284v-518h299q138 0 212.5 69.5t74.5 188.5q0 121 -74 190.5t-213 69.5h-299z" />
    <glyph glyph-name="S" unicode="S" horiz-adv-x="1017" 
d="M524 1464q178 0 365 -90l-74 -151q-149 82 -293 82q-106 0 -160.5 -44t-54.5 -120q0 -66 37.5 -113.5t116.5 -105.5l235 -174q122 -89 181 -180t59 -214q0 -186 -121 -285.5t-323 -99.5q-121 0 -240.5 35.5t-212.5 95.5l76 148q191 -119 377 -119q136 0 206 60.5
t70 154.5q0 72 -43 132t-143 134l-234 176q-103 77 -157 158t-54 191q0 153 101.5 241t285.5 88z" />
    <glyph glyph-name="T" unicode="T" horiz-adv-x="1054" 
d="M1034 1434v-150h-428v-1284h-157v1284h-429v150h1014z" />
    <glyph glyph-name="U" unicode="U" horiz-adv-x="1411" 
d="M1270 1434v-895q0 -260 -150.5 -415t-414.5 -155q-263 0 -414.5 155.5t-151.5 414.5v895h168v-883q0 -195 109 -306.5t289 -111.5q181 0 290 111.5t109 306.5v883h166z" />
    <glyph glyph-name="V" unicode="V" horiz-adv-x="1236" 
d="M1219 1434l-525 -1434h-151l-525 1434h185l413 -1207h7l413 1207h183z" />
    <glyph glyph-name="W" unicode="W" horiz-adv-x="1992" 
d="M1962 1434l-434 -1434h-158l-371 1169h-6l-370 -1169h-158l-434 1434h176l334 -1180h4l368 1180h164l371 -1180h4l332 1180h178z" />
    <glyph glyph-name="X" unicode="X" horiz-adv-x="1236" 
d="M1208 0h-188l-402 627l-401 -627h-188l491 760l-434 674h188l344 -539l345 539h188l-434 -674z" />
    <glyph glyph-name="Y" unicode="Y" horiz-adv-x="1093" 
d="M1085 1434l-458 -873v-561h-160v561l-459 873h185l352 -703h4l352 703h184z" />
    <glyph glyph-name="Z" unicode="Z" horiz-adv-x="1101" 
d="M227 150h834v-150h-1020v150l807 1134h-735v150h923v-150z" />
    <glyph glyph-name="bracketleft" unicode="[" horiz-adv-x="649" 
d="M629 1538v-135h-264v-1710h264v-133h-412v1978h412z" />
    <glyph glyph-name="backslash" unicode="\" horiz-adv-x="1189" 
d="M1012 -190l-951 1716l117 65l950 -1718z" />
    <glyph glyph-name="bracketright" unicode="]" horiz-adv-x="649" 
d="M20 -440v133h265v1710h-265v135h412v-1978h-412z" />
    <glyph glyph-name="asciicircum" unicode="^" 
d="M688 1464l299 -659h-125l-248 561l-247 -561h-125l299 659h147z" />
    <glyph glyph-name="underscore" unicode="_" horiz-adv-x="1091" 
d="M1071 -31v-127h-1051v127h1051z" />
    <glyph glyph-name="grave" unicode="`" horiz-adv-x="598" 
d="M303 1448l193 -315h-121l-273 315h201z" />
    <glyph glyph-name="a" unicode="a" horiz-adv-x="1171" 
d="M535 -31q-131 0 -236.5 60t-169 176t-63.5 268t63.5 268t169 176t236.5 60q125 0 215.5 -53t142.5 -146h4v168h147v-946h-147v168h-4q-52 -93 -142.5 -146t-215.5 -53zM563 115q154 0 248 100t94 258t-94 258t-248 100t-248 -100t-94 -258t94 -258t248 -100z" />
    <glyph glyph-name="b" unicode="b" horiz-adv-x="1181" 
d="M647 -31q-125 0 -215.5 53t-142.5 146h-4v-168h-148v1434h148v-656h4q52 93 142.5 146t215.5 53q131 0 236.5 -60t169 -176t63.5 -268t-63.5 -268t-169 -176t-236.5 -60zM618 115q154 0 248.5 100t94.5 258t-94.5 258t-248.5 100t-248 -100t-94 -258t94 -258t248 -100z
" />
    <glyph glyph-name="c" unicode="c" horiz-adv-x="952" 
d="M580 -31q-228 0 -371 139.5t-143 364.5t143 364.5t371 139.5q169 0 323 -94l-72 -127q-133 78 -256 78q-158 0 -256 -103.5t-98 -257.5t98 -257t256 -103q125 0 256 77l72 -127q-154 -94 -323 -94z" />
    <glyph glyph-name="d" unicode="d" horiz-adv-x="1181" 
d="M535 -31q-131 0 -236.5 60t-169 176t-63.5 268t63.5 268t169 176t236.5 60q125 0 215.5 -53t142.5 -146h4v656h147v-1434h-147v168h-4q-52 -93 -142.5 -146t-215.5 -53zM563 115q154 0 248 100t94 258t-94 258t-248 100t-248 -100t-94 -258t94 -258t248 -100z" />
    <glyph glyph-name="e" unicode="e" horiz-adv-x="1067" 
d="M547 977q113 0 201 -38t142.5 -106t82.5 -157.5t28 -196.5v-26h-786q3 -156 96.5 -248t243.5 -92q62 0 115 16.5t93 46.5t64.5 55.5t51.5 61.5l106 -96q-24 -34 -48.5 -61.5t-64 -60.5t-82.5 -54.5t-104 -36.5t-129 -15q-223 0 -357 138.5t-134 363.5q0 227 132 366.5
t349 139.5zM539 840q-127 0 -214 -72t-104 -203h621q-11 130 -89.5 202.5t-213.5 72.5z" />
    <glyph glyph-name="f" unicode="f" horiz-adv-x="630" 
d="M565 1315q-196 0 -196 -209v-160h215v-127h-215v-819h-146v819h-174v127h174v158q0 173 88.5 261.5t247.5 88.5h33v-139h-27z" />
    <glyph glyph-name="g" unicode="g" horiz-adv-x="1171" 
d="M606 -440q-166 0 -364 43l28 143q193 -43 336 -43q154 0 222.5 71.5t68.5 235.5v158h-4q-52 -93 -142.5 -146t-215.5 -53q-131 0 -236.5 60t-169 176t-63.5 268t63.5 268t169 176t236.5 60q125 0 215.5 -53t142.5 -146h4v168h147v-946q-2 -108 -26 -187.5t-62 -127
t-95.5 -76.5t-117.5 -39t-137 -10zM563 115q154 0 248 100t94 258t-94 258t-248 100t-248 -100t-94 -258t94 -258t248 -100z" />
    <glyph glyph-name="h" unicode="h" horiz-adv-x="1110" 
d="M285 1434v-670h4q46 103 133.5 158t204.5 55q165 0 263.5 -99t98.5 -303v-575h-147v555q0 140 -66.5 207t-185.5 67q-64 0 -116.5 -20.5t-96 -64.5t-68 -122.5t-24.5 -185.5v-436h-148v1434h148z" />
    <glyph glyph-name="i" unicode="i" horiz-adv-x="413" 
d="M299 1413v-246h-186v246h186zM133 0v946h148v-946h-148z" />
    <glyph glyph-name="j" unicode="j" horiz-adv-x="413" 
d="M299 1413v-246h-186v246h186zM-51 -283h47q72 0 104.5 39.5t32.5 128.5v1061h148v-1073q0 -142 -68.5 -215.5t-198.5 -73.5h-65v133z" />
    <glyph glyph-name="k" unicode="k" horiz-adv-x="940" 
d="M924 0h-203l-436 479v-479h-148v1434h148v-902l393 414h203l-437 -432z" />
    <glyph glyph-name="l" unicode="l" horiz-adv-x="421" 
d="M285 1434v-1434h-148v1434h148z" />
    <glyph glyph-name="m" unicode="m" horiz-adv-x="1642" 
d="M131 0v946h148v-170h4q76 201 297 201t301 -211h4q38 106 122 158.5t191 52.5q69 0 126 -21t102.5 -65.5t70.5 -120.5t25 -178v-592h-148v588q0 119 -55.5 180t-161.5 61q-119 0 -187.5 -81t-68.5 -254v-494h-147v559q0 270 -222 270q-119 0 -186 -87t-67 -269v-473h-148
z" />
    <glyph glyph-name="n" unicode="n" horiz-adv-x="1103" 
d="M621 977q167 0 264.5 -98.5t97.5 -303.5v-575h-147v555q0 140 -67.5 207t-186.5 67q-64 0 -116.5 -20.5t-95.5 -64.5t-67 -122.5t-24 -185.5v-436h-148v946h148v-182h4q95 213 338 213z" />
    <glyph glyph-name="o" unicode="o" horiz-adv-x="1155" 
d="M578 977q223 0 367.5 -142t144.5 -362t-144.5 -362t-367.5 -142q-222 0 -367 142.5t-145 361.5t145 361.5t367 142.5zM578 831q-156 0 -256.5 -98.5t-100.5 -259.5t100.5 -259.5t256.5 -98.5t256 98.5t100 259.5t-100 259.5t-256 98.5z" />
    <glyph glyph-name="p" unicode="p" horiz-adv-x="1175" 
d="M131 -410v1356h148v-168h4q52 93 142.5 146t215.5 53q131 0 236.5 -60t169 -176t63.5 -268t-63.5 -268t-169 -176t-236.5 -60q-125 0 -215.5 53t-142.5 146h-4v-578h-148zM612 115q154 0 248 100t94 258t-94 258t-248 100t-248 -100t-94 -258t94 -258t248 -100z" />
    <glyph glyph-name="q" unicode="q" horiz-adv-x="1171" 
d="M897 -410v578h-4q-52 -93 -142.5 -146t-215.5 -53q-131 0 -236.5 60t-169 176t-63.5 268t63.5 268t169 176t236.5 60q125 0 215.5 -53t142.5 -146h4v168h147v-1356h-147zM563 115q154 0 248 100t94 258t-94 258t-248 100t-248 -100t-94 -258t94 -258t248 -100z" />
    <glyph glyph-name="r" unicode="r" horiz-adv-x="649" 
d="M621 975v-170h-29q-151 0 -232 -93t-81 -268v-444h-148v946h148v-213h4q30 109 113 175.5t200 66.5h25z" />
    <glyph glyph-name="s" unicode="s" horiz-adv-x="831" 
d="M430 -31q-106 0 -208 29.5t-183 81.5l72 131q157 -102 325 -102q94 0 141.5 33t47.5 91q0 45 -31.5 78.5t-97.5 63.5l-177 84q-204 94 -204 264q0 122 87 188t238 66q159 0 320 -74l-64 -131q-139 66 -260 66q-164 0 -164 -109q0 -45 32 -77t104 -66l172 -80
q99 -47 150.5 -109t51.5 -157q0 -132 -94 -201.5t-258 -69.5z" />
    <glyph glyph-name="t" unicode="t" horiz-adv-x="626" 
d="M578 819h-209v-559q0 -125 118 -125h52v-137h-78q-114 0 -177 59.5t-63 173.5v588h-182v127h182v379h148v-379h209v-127z" />
    <glyph glyph-name="u" unicode="u" horiz-adv-x="1077" 
d="M473 -31q-157 0 -254.5 99.5t-97.5 306.5v571h149v-563q0 -137 65 -203.5t175 -66.5q131 0 210 95.5t79 309.5v428h147v-946h-147v176h-4q-40 -92 -119 -149.5t-203 -57.5z" />
    <glyph glyph-name="v" unicode="v" horiz-adv-x="940" 
d="M754 946h172l-385 -946h-142l-385 946h172l283 -770z" />
    <glyph glyph-name="w" unicode="w" horiz-adv-x="1472" 
d="M1294 946h164l-319 -946h-142l-262 754l-262 -754h-139l-320 946h162l230 -756l256 756h149l256 -756z" />
    <glyph glyph-name="x" unicode="x" horiz-adv-x="970" 
d="M768 0l-283 381l-282 -381h-189l381 498l-336 448h191l235 -336l236 336h188l-336 -448l383 -498h-188z" />
    <glyph glyph-name="y" unicode="y" horiz-adv-x="956" 
d="M778 946h164l-618 -1356h-158l242 508l-394 848h174l295 -680z" />
    <glyph glyph-name="z" unicode="z" horiz-adv-x="903" 
d="M236 139h612v-139h-793v131l572 678h-539v137h719v-131z" />
    <glyph glyph-name="braceleft" unicode="{" horiz-adv-x="772" 
d="M752 1526v-133h-56q-102 0 -159.5 -57t-57.5 -201v-265q0 -133 -48 -206t-159 -99v-4q111 -26 159 -99t48 -206v-305q0 -76 16.5 -128t47.5 -79.5t67.5 -39t85.5 -11.5h56v-133h-64q-78 0 -141 20.5t-113 64t-77 120t-27 180.5v325q0 100 -65.5 155.5t-192.5 61.5v152
q127 6 192.5 61.5t65.5 155.5v285q0 104 27 180.5t77 120t113 64t141 20.5h64z" />
    <glyph glyph-name="bar" unicode="|" horiz-adv-x="581" 
d="M356 1489v-1929h-131v1929h131z" />
    <glyph glyph-name="braceright" unicode="}" horiz-adv-x="772" 
d="M20 -440v133h56q48 0 84.5 11.5t68 39t48 79.5t16.5 128v305q0 133 47.5 206t159.5 99v4q-112 26 -159.5 99t-47.5 206v265q0 144 -57.5 201t-159.5 57h-56v133h64q78 0 140.5 -20.5t112.5 -64t77.5 -120t27.5 -180.5v-285q0 -100 65 -155.5t193 -61.5v-152
q-128 -6 -193 -61.5t-65 -155.5v-325q0 -104 -27.5 -180.5t-77.5 -120t-112.5 -64t-140.5 -20.5h-64z" />
    <glyph glyph-name="asciitilde" unicode="~" 
d="M389 760q65 0 130.5 -21.5t110.5 -47t104.5 -47t113.5 -21.5q68 0 124.5 29.5t121.5 84.5l71 -110q-165 -140 -325 -140q-65 0 -129.5 21.5t-108.5 47.5t-103.5 47.5t-115.5 21.5q-70 0 -128 -30.5t-122 -86.5l-70 110q86 73 163.5 107.5t162.5 34.5z" />
    <glyph glyph-name="exclamdown" unicode="&#xa1;" horiz-adv-x="620" 
d="M205 813v211h211v-211h-211zM223 -410l35 1012h102l35 -1012h-172z" />
    <glyph glyph-name="cent" unicode="&#xa2;" horiz-adv-x="944" 
d="M598 109q121 3 285 84v-150q-136 -74 -283 -74h-2v-100h-57v102q-200 20 -324.5 159t-124.5 343t125.5 343.5t323.5 158.5v112h57v-110q153 0 279 -66v-149q-85 42 -147.5 59t-129.5 17h-2v-729zM246 475q0 -150 83 -246.5t212 -115.5v721q-131 -19 -213 -114.5
t-82 -244.5z" />
    <glyph glyph-name="sterling" unicode="&#xa3;" horiz-adv-x="1058" 
d="M313 147v-4h670v-143h-854v123q248 147 248 328q0 16 -2.5 34t-5 31t-10 33t-11 29.5t-15.5 33t-15 30t-18 33.5t-17 32h-201v61h168q-64 132 -64 252q0 174 110.5 283.5t301.5 109.5q177 0 288 -96t111 -281h-149q-4 118 -69 178t-181 60q-120 0 -189 -68.5t-69 -187.5
q0 -105 76 -250h405v-61h-372q79 -147 79 -250q0 -181 -215 -310z" />
    <glyph glyph-name="currency" unicode="&#xa4;" 
d="M1106 664q0 -188 -121 -322l115 -117l-41 -39l-117 117q-134 -115 -328 -115q-192 0 -329 115l-117 -117l-39 41l115 115q-121 134 -121 322q0 187 121 321l-115 115l41 41l117 -117q134 115 327 115q194 0 328 -115l117 117l41 -41l-115 -115q121 -134 121 -321z
M614 328q152 0 248 94t96 242t-96 241.5t-248 93.5t-248 -93.5t-96 -241.5t96 -242t248 -94z" />
    <glyph glyph-name="yen" unicode="&#xa5;" horiz-adv-x="1095" 
d="M1044 1382l-319 -661h260v-62h-291l-55 -114h346v-62h-364v-483h-148v483h-364v62h346l-56 114h-290v62h262l-320 661h174l322 -727l323 727h174z" />
    <glyph glyph-name="brokenbar" unicode="&#xa6;" horiz-adv-x="581" 
d="M356 1489v-795h-131v795h131zM356 371v-811h-131v811h131z" />
    <glyph glyph-name="section" unicode="&#xa7;" horiz-adv-x="1099" 
d="M795 229q131 -92 131 -245q0 -137 -100.5 -222.5t-282.5 -85.5q-206 0 -385 113l82 127q157 -98 311 -98q109 0 167 45.5t58 118.5q0 46 -23 82.5t-62 61.5t-89.5 46.5t-106.5 41.5t-112 42t-106.5 52.5t-89.5 68t-62 94t-23 125.5q0 107 56.5 186t144.5 129
q-129 90 -129 244q0 138 100.5 223.5t282.5 85.5q206 0 385 -114l-82 -125q-161 98 -311 98q-109 0 -168 -46t-59 -118q0 -46 23 -83t62 -62t90 -46.5t107 -41.5t111.5 -42t106.5 -52.5t90 -68.5t62 -94t23 -126q0 -106 -56.5 -185.5t-145.5 -128.5zM252 608q0 -45 19 -83
t46 -63t74 -50t85 -39.5t98.5 -37.5t95.5 -38q30 15 57.5 34.5t56.5 48.5t46.5 67.5t17.5 80.5q0 46 -19 84t-46 63.5t-74 51t-85 40.5t-99 38t-97 39q-69 -38 -122.5 -97t-53.5 -139z" />
    <glyph glyph-name="dieresis" unicode="&#xa8;" horiz-adv-x="749" 
d="M266 1413v-237h-164v237h164zM647 1413v-237h-164v237h164z" />
    <glyph glyph-name="copyright" unicode="&#xa9;" horiz-adv-x="1695" 
d="M848 -31q-154 0 -291.5 56t-237.5 154t-158.5 238t-58.5 300q0 214 99.5 385.5t270 266.5t376.5 95t376.5 -95t269.5 -266.5t99 -385.5q0 -160 -58 -300t-158 -238t-237.5 -154t-291.5 -56zM848 66q178 0 324.5 81.5t232.5 231.5t86 338t-86 338t-232.5 231.5
t-324.5 81.5t-324.5 -81.5t-232.5 -231.5t-86 -338t86 -338t232.5 -231.5t324.5 -81.5zM854 260q-207 0 -339 131t-132 334t132 334t339 131q168 0 311 -98l-61 -107q-126 80 -254 80q-151 0 -242.5 -92.5t-91.5 -247.5q0 -154 91.5 -247t242.5 -93q125 0 254 82l61 -107
q-140 -100 -311 -100z" />
    <glyph glyph-name="ordfeminine" unicode="&#xaa;" horiz-adv-x="892" 
d="M416 692q-133 0 -223.5 91t-90.5 243t90.5 243t223.5 91q170 0 241 -135h5v114h129v-626h-129v114h-5q-71 -135 -241 -135zM446 811q93 0 154.5 59.5t61.5 155.5t-61.5 155.5t-154.5 59.5q-92 0 -149 -59t-57 -156t57 -156t149 -59z" />
    <glyph glyph-name="guillemotleft" unicode="&#xab;" horiz-adv-x="845" 
d="M825 797l-295 -318l295 -317h-172l-291 317l291 318h172zM506 797l-297 -318l297 -317h-172l-293 317l293 318h172z" />
    <glyph glyph-name="logicalnot" unicode="&#xac;" 
d="M145 885h938v-82v-461h-86v461h-852v82z" />
    <glyph glyph-name="uni00AD" unicode="&#xad;" horiz-adv-x="702" 
d="M610 625v-148h-518v148h518z" />
    <glyph glyph-name="registered" unicode="&#xae;" horiz-adv-x="1146" 
d="M573 1464q208 0 339.5 -132t131.5 -343t-131.5 -343t-339.5 -132t-339.5 132t-131.5 343t131.5 343t339.5 132zM573 578q177 0 290.5 112.5t113.5 298.5t-113.5 299t-290.5 113t-290 -112.5t-113 -299.5q0 -186 113 -298.5t290 -112.5zM770 1116q0 -61 -36 -103.5
t-93 -51.5l150 -226h-82l-142 221h-84v-221h-65v533h190q71 0 116.5 -41t45.5 -111zM483 1208v-190h111q52 0 79 26t27 68q0 44 -27.5 70t-78.5 26h-111z" />
    <glyph glyph-name="macron" unicode="&#xaf;" horiz-adv-x="782" 
d="M680 1346v-115h-578v115h578z" />
    <glyph glyph-name="degree" unicode="&#xb0;" horiz-adv-x="720" 
d="M360 1413q121 0 200 -77.5t79 -200.5t-79 -201t-200 -78t-199.5 77.5t-78.5 201.5q0 123 78.5 200.5t199.5 77.5zM360 1333q-86 0 -141 -55t-55 -143q0 -89 55 -144t141 -55q84 0 139.5 55.5t55.5 143.5t-55.5 143t-139.5 55z" />
    <glyph glyph-name="plusminus" unicode="&#xb1;" 
d="M657 1069v-289h447v-82h-447v-288h-86v288h-446v82h446v289h86zM1104 317v-81h-979v81h979z" />
    <glyph glyph-name="uni00B2" unicode="&#xb2;" horiz-adv-x="761" 
d="M80 713v118l348 338q63 59 93 108t30 105q0 62 -43.5 100t-118.5 38q-74 0 -123.5 -39t-52.5 -123h-135q1 143 86.5 216t228.5 73q141 0 218 -70.5t77 -192.5q0 -86 -39.5 -153.5t-109.5 -134.5l-267 -254h424v-129h-616z" />
    <glyph glyph-name="uni00B3" unicode="&#xb3;" horiz-adv-x="802" 
d="M393 692q-142 0 -228 64t-89 202h135q13 -139 188 -139q92 0 142.5 39.5t50.5 120.5q0 87 -62 121.5t-196 34.5v112q112 2 167.5 33.5t55.5 103.5q0 67 -41 100.5t-117 33.5q-78 0 -125.5 -34t-50.5 -104h-135q2 123 84.5 194t228.5 71q139 0 217 -64t78 -170
q0 -78 -43.5 -134t-128.5 -73v-4q92 -13 147.5 -69t55.5 -162q0 -123 -82 -200t-252 -77z" />
    <glyph glyph-name="acute" unicode="&#xb4;" horiz-adv-x="598" 
d="M496 1448l-271 -315h-123l195 315h199z" />
    <glyph glyph-name="paragraph" unicode="&#xb6;" horiz-adv-x="1220" 
d="M1118 1434v-117h-119v-1534h-125v1534h-249v-1534h-125v852q-182 0 -290 111.5t-108 295.5q0 178 113.5 285t304.5 107h598z" />
    <glyph glyph-name="periodcentered" unicode="&#xb7;" horiz-adv-x="436" 
d="M324 946v-211h-211v211h211z" />
    <glyph glyph-name="cedilla" unicode="&#xb8;" horiz-adv-x="481" 
d="M281 39l-45 -123q65 -17 104 -48.5t39 -94.5q0 -21 -7.5 -40t-18 -33.5t-32.5 -31t-38 -27t-48.5 -26t-51.5 -24t-58 -25.5l-23 49q90 43 131 72.5t41 60.5q0 36 -30.5 54t-104.5 34l76 203h66z" />
    <glyph glyph-name="uni00B9" unicode="&#xb9;" horiz-adv-x="477" 
d="M180 713v778h-63v135h207v-913h-144z" />
    <glyph glyph-name="ordmasculine" unicode="&#xba;" horiz-adv-x="903" 
d="M453 1360q151 0 249.5 -91.5t98.5 -242.5t-98.5 -242.5t-249.5 -91.5q-152 0 -251.5 91.5t-99.5 242.5t99.5 242.5t251.5 91.5zM453 1239q-92 0 -153.5 -57.5t-61.5 -155.5t61.5 -155.5t153.5 -57.5q91 0 152 57.5t61 155.5t-61 155.5t-152 57.5z" />
    <glyph glyph-name="guillemotright" unicode="&#xbb;" horiz-adv-x="845" 
d="M20 797h173l292 -318l-292 -317h-173l295 317zM342 797h170l293 -318l-293 -317h-170l295 317z" />
    <glyph glyph-name="onequarter" unicode="&#xbc;" horiz-adv-x="1273" 
d="M170 592v694h-88v96h184v-790h-96zM903 1382h98l-808 -1382h-99zM1219 244v-90h-99v-154h-98v154h-422v88l393 549h127v-547h99zM709 244h313v436h-4z" />
    <glyph glyph-name="onehalf" unicode="&#xbd;" horiz-adv-x="1325" 
d="M266 1382v-790h-96v694h-88v96h184zM94 0l809 1382h98l-808 -1382h-99zM989 809q123 0 186.5 -62t63.5 -163q0 -70 -35 -130t-100 -124l-238 -236h375v-94h-516v86l299 299q113 113 113 199q0 55 -39 92t-109 37q-147 0 -162 -146h-98q4 116 74 179t186 63z" />
    <glyph glyph-name="threequarters" unicode="&#xbe;" horiz-adv-x="1556" 
d="M631 811q0 -107 -69.5 -172.5t-215.5 -65.5q-126 0 -199 60t-79 172h100q7 -66 53.5 -100.5t124.5 -34.5q184 0 184 147q0 81 -60 113.5t-175 32.5v92q209 3 209 131q0 119 -152 119q-75 0 -121 -33.5t-49 -102.5h-98q6 114 75 173t195 59q120 0 185 -54t65 -149
q0 -70 -40 -116.5t-113 -63.5v-2q84 -11 132 -61.5t48 -143.5zM1186 1382h98l-809 -1382h-98zM1501 244v-90h-98v-154h-98v154h-422v88l393 549h127v-547h98zM991 244h314v436h-5z" />
    <glyph glyph-name="questiondown" unicode="&#xbf;" horiz-adv-x="839" 
d="M369 813v211h209v-211h-209zM440 -440q-186 0 -292.5 101.5t-106.5 268.5q0 105 42.5 179t119.5 147l35 31.5t35.5 32.5t31.5 31t31 34.5t24 35t20.5 40t11.5 43t5 49.5v49h148v-59q0 -33 -6 -64.5t-13.5 -56t-24.5 -52t-28.5 -44.5t-36 -44t-37 -39t-42 -40t-40.5 -39
q-120 -116 -120 -238q0 -96 61 -158.5t182 -62.5q124 0 196.5 72t72.5 194h151q0 -193 -113 -302t-307 -109z" />
    <glyph glyph-name="Agrave" unicode="&#xc0;" horiz-adv-x="1349" 
d="M737 1522h-119l-274 245h199zM1163 0l-151 383h-674l-152 -383h-172l586 1434h150l583 -1434h-170zM395 528h559l-280 707z" />
    <glyph glyph-name="Aacute" unicode="&#xc1;" horiz-adv-x="1349" 
d="M1004 1767l-275 -245h-119l195 245h199zM1163 0l-151 383h-674l-152 -383h-172l586 1434h150l583 -1434h-170zM395 528h559l-280 707z" />
    <glyph glyph-name="Acircumflex" unicode="&#xc2;" horiz-adv-x="1349" 
d="M674 1688l-170 -166h-158l250 245h156l252 -245h-158zM1163 0l-151 383h-674l-152 -383h-172l586 1434h150l583 -1434h-170zM395 528h559l-280 707z" />
    <glyph glyph-name="Atilde" unicode="&#xc3;" horiz-adv-x="1349" 
d="M516 1638q-71 0 -110 -96l-68 23q58 192 197 192q59 0 175.5 -53t155.5 -53q71 0 111 94l67 -21q-58 -194 -196 -194q-60 0 -176 54t-156 54zM1163 0l-151 383h-674l-152 -383h-172l586 1434h150l583 -1434h-170zM395 528h559l-280 707z" />
    <glyph glyph-name="Adieresis" unicode="&#xc4;" horiz-adv-x="1349" 
d="M555 1726v-204h-170v204h170zM963 1726v-204h-170v204h170zM1163 0l-151 383h-674l-152 -383h-172l586 1434h150l583 -1434h-170zM395 528h559l-280 707z" />
    <glyph glyph-name="Aring" unicode="&#xc5;" horiz-adv-x="1349" 
d="M1163 0l-151 383h-674l-152 -383h-172l561 1374q-63 26 -100 83t-37 130q0 103 67.5 169.5t170.5 66.5t169 -66.5t66 -169.5q0 -74 -36.5 -131.5t-100.5 -83.5l559 -1372h-170zM522 1587q0 -66 42.5 -109.5t109.5 -43.5q68 0 110.5 43t42.5 110q0 69 -42 112.5t-111 43.5
q-67 0 -109.5 -43.5t-42.5 -112.5zM395 528h559l-280 707z" />
    <glyph glyph-name="AE" unicode="&#xc6;" horiz-adv-x="1898" 
d="M1210 150h592v-150h-669h-78v383h-588l-254 -383h-199l963 1434h233h582v-150h-582v-412h531v-147h-531v-575zM563 528h492v744z" />
    <glyph glyph-name="Ccedilla" unicode="&#xc7;" horiz-adv-x="1402" 
d="M1341 131q-106 -78 -223 -119.5t-264 -42.5l-20 -53q65 -17 104 -48.5t39 -94.5q0 -21 -7.5 -40t-18 -33.5t-32.5 -31t-38 -27t-48.5 -26t-51.5 -24t-58 -25.5l-23 49q90 43 131 72.5t41 60.5q0 36 -30.5 54t-104.5 34l51 135q-322 17 -517 221.5t-195 524.5
q0 165 55.5 304t155 236.5t242.5 152t313 54.5q282 0 499 -161l-96 -138q-184 140 -407 140q-260 0 -425 -163t-165 -425t165 -425t425 -163q224 0 407 139z" />
    <glyph glyph-name="Egrave" unicode="&#xc8;" horiz-adv-x="1060" 
d="M655 1522h-118l-275 245h199zM309 150h656v-150h-813v1434h802v-150h-645v-412h594v-147h-594v-575z" />
    <glyph glyph-name="Eacute" unicode="&#xc9;" horiz-adv-x="1060" 
d="M922 1767l-275 -245h-119l195 245h199zM309 150h656v-150h-813v1434h802v-150h-645v-412h594v-147h-594v-575z" />
    <glyph glyph-name="Ecircumflex" unicode="&#xca;" horiz-adv-x="1060" 
d="M592 1688l-170 -166h-158l250 245h156l252 -245h-158zM309 150h656v-150h-813v1434h802v-150h-645v-412h594v-147h-594v-575z" />
    <glyph glyph-name="Edieresis" unicode="&#xcb;" horiz-adv-x="1060" 
d="M473 1726v-204h-170v204h170zM881 1726v-204h-170v204h170zM309 150h656v-150h-813v1434h802v-150h-645v-412h594v-147h-594v-575z" />
    <glyph glyph-name="Igrave" unicode="&#xcc;" horiz-adv-x="464" 
d="M100 1767l195 -245h-119l-274 245h198zM311 1434v-1434h-159v1434h159z" />
    <glyph glyph-name="Iacute" unicode="&#xcd;" horiz-adv-x="464" 
d="M561 1767l-274 -245h-119l194 245h199zM311 1434v-1434h-159v1434h159z" />
    <glyph glyph-name="Icircumflex" unicode="&#xce;" horiz-adv-x="464" 
d="M309 1767l252 -245h-158l-172 166l-170 -166h-157l250 245h155zM311 1434v-1434h-159v1434h159z" />
    <glyph glyph-name="Idieresis" unicode="&#xcf;" horiz-adv-x="464" 
d="M113 1726v-204h-170v204h170zM520 1726v-204h-170v204h170zM311 1434v-1434h-159v1434h159z" />
    <glyph glyph-name="Eth" unicode="&#xd0;" horiz-adv-x="1419" 
d="M621 1434q155 0 287.5 -50t228.5 -141t150 -226.5t54 -299.5t-54 -299.5t-150 -226.5t-228.5 -141t-287.5 -50h-449v670h-164v129h164v635h449zM621 147q117 0 217 37.5t174.5 108t116.5 179.5t42 245q0 135 -42 243.5t-116.5 179t-174.5 107.5t-217 37h-291v-485h381
v-129h-381v-523h291z" />
    <glyph glyph-name="Ntilde" unicode="&#xd1;" horiz-adv-x="1421" 
d="M891 1530q-60 0 -176 54t-156 54q-71 0 -110 -96l-68 23q58 192 197 192q59 0 175.5 -53t155.5 -53q71 0 111 94l67 -21q-58 -194 -196 -194zM1268 1434v-1434h-168l-787 1165h-4v-1165h-157v1434h167l787 -1166h4v1166h158z" />
    <glyph glyph-name="Ograve" unicode="&#xd2;" horiz-adv-x="1646" 
d="M694 1767l195 -245h-119l-274 245h198zM823 1464q211 0 381.5 -94t268.5 -265.5t98 -387.5t-98 -387.5t-268.5 -266t-381.5 -94.5t-381.5 94.5t-268 266t-97.5 387.5q0 162 57 302t156.5 237t237.5 152.5t296 55.5zM823 1305q-124 0 -231 -44t-182.5 -121.5
t-118.5 -186.5t-43 -236t43 -236t118.5 -186.5t182.5 -121.5t231 -44q253 0 414.5 165.5t161.5 422.5t-161.5 422.5t-414.5 165.5z" />
    <glyph glyph-name="Oacute" unicode="&#xd3;" horiz-adv-x="1646" 
d="M1155 1767l-274 -245h-119l194 245h199zM823 1464q211 0 381.5 -94t268.5 -265.5t98 -387.5t-98 -387.5t-268.5 -266t-381.5 -94.5t-381.5 94.5t-268 266t-97.5 387.5q0 162 57 302t156.5 237t237.5 152.5t296 55.5zM823 1305q-124 0 -231 -44t-182.5 -121.5
t-118.5 -186.5t-43 -236t43 -236t118.5 -186.5t182.5 -121.5t231 -44q253 0 414.5 165.5t161.5 422.5t-161.5 422.5t-414.5 165.5z" />
    <glyph glyph-name="Ocircumflex" unicode="&#xd4;" horiz-adv-x="1646" 
d="M903 1767l252 -245h-158l-172 166l-170 -166h-157l250 245h155zM823 1464q211 0 381.5 -94t268.5 -265.5t98 -387.5t-98 -387.5t-268.5 -266t-381.5 -94.5t-381.5 94.5t-268 266t-97.5 387.5q0 162 57 302t156.5 237t237.5 152.5t296 55.5zM823 1305q-124 0 -231 -44
t-182.5 -121.5t-118.5 -186.5t-43 -236t43 -236t118.5 -186.5t182.5 -121.5t231 -44q253 0 414.5 165.5t161.5 422.5t-161.5 422.5t-414.5 165.5z" />
    <glyph glyph-name="Otilde" unicode="&#xd5;" horiz-adv-x="1646" 
d="M997 1530q-60 0 -175.5 54t-155.5 54q-72 0 -111 -96l-68 23q58 192 197 192q59 0 176 -53t156 -53q70 0 110 94l68 -21q-58 -194 -197 -194zM823 1464q211 0 381.5 -94t268.5 -265.5t98 -387.5t-98 -387.5t-268.5 -266t-381.5 -94.5t-381.5 94.5t-268 266t-97.5 387.5
q0 162 57 302t156.5 237t237.5 152.5t296 55.5zM823 1305q-124 0 -231 -44t-182.5 -121.5t-118.5 -186.5t-43 -236t43 -236t118.5 -186.5t182.5 -121.5t231 -44q253 0 414.5 165.5t161.5 422.5t-161.5 422.5t-414.5 165.5z" />
    <glyph glyph-name="Odieresis" unicode="&#xd6;" horiz-adv-x="1646" 
d="M707 1726v-204h-170v204h170zM1114 1726v-204h-170v204h170zM823 1464q211 0 381.5 -94t268.5 -265.5t98 -387.5t-98 -387.5t-268.5 -266t-381.5 -94.5t-381.5 94.5t-268 266t-97.5 387.5q0 162 57 302t156.5 237t237.5 152.5t296 55.5zM823 1305q-124 0 -231 -44
t-182.5 -121.5t-118.5 -186.5t-43 -236t43 -236t118.5 -186.5t182.5 -121.5t231 -44q253 0 414.5 165.5t161.5 422.5t-161.5 422.5t-414.5 165.5z" />
    <glyph glyph-name="multiply" unicode="&#xd7;" 
d="M991 1047l60 -60l-377 -377l377 -377l-60 -59l-377 377l-376 -377l-60 59l377 377l-377 377l60 60l376 -377z" />
    <glyph glyph-name="Oslash" unicode="&#xd8;" horiz-adv-x="1646" 
d="M1296 1309q130 -100 202.5 -253t72.5 -339q0 -216 -98 -387.5t-268.5 -266t-381.5 -94.5q-227 0 -411 113l-80 -111l-62 37l82 115q-130 102 -203 255t-73 339q0 162 57 302t156.5 237t237.5 152.5t296 55.5q234 0 414 -114l82 112l59 -37zM248 717q0 -143 53 -261.5
t148 -197.5l692 959q-136 88 -318 88q-124 0 -231 -44t-182.5 -121.5t-118.5 -186.5t-43 -236zM823 129q253 0 414.5 165.5t161.5 422.5q0 143 -52.5 261.5t-148.5 197.5l-690 -961q138 -86 315 -86z" />
    <glyph glyph-name="Ugrave" unicode="&#xd9;" horiz-adv-x="1411" 
d="M573 1767l195 -245h-119l-274 245h198zM1270 1434v-895q0 -260 -150.5 -415t-414.5 -155q-263 0 -414.5 155.5t-151.5 414.5v895h168v-883q0 -195 109 -306.5t289 -111.5q181 0 290 111.5t109 306.5v883h166z" />
    <glyph glyph-name="Uacute" unicode="&#xda;" horiz-adv-x="1411" 
d="M1036 1767l-274 -245h-119l195 245h198zM1270 1434v-895q0 -260 -150.5 -415t-414.5 -155q-263 0 -414.5 155.5t-151.5 414.5v895h168v-883q0 -195 109 -306.5t289 -111.5q181 0 290 111.5t109 306.5v883h166z" />
    <glyph glyph-name="Ucircumflex" unicode="&#xdb;" horiz-adv-x="1411" 
d="M782 1767l252 -245h-157l-172 166l-170 -166h-158l250 245h155zM1270 1434v-895q0 -260 -150.5 -415t-414.5 -155q-263 0 -414.5 155.5t-151.5 414.5v895h168v-883q0 -195 109 -306.5t289 -111.5q181 0 290 111.5t109 306.5v883h166z" />
    <glyph glyph-name="Udieresis" unicode="&#xdc;" horiz-adv-x="1411" 
d="M586 1726v-204h-170v204h170zM993 1726v-204h-170v204h170zM1270 1434v-895q0 -260 -150.5 -415t-414.5 -155q-263 0 -414.5 155.5t-151.5 414.5v895h168v-883q0 -195 109 -306.5t289 -111.5q181 0 290 111.5t109 306.5v883h166z" />
    <glyph glyph-name="Yacute" unicode="&#xdd;" horiz-adv-x="1093" 
d="M877 1767l-275 -245h-119l195 245h199zM1085 1434l-458 -873v-561h-160v561l-459 873h185l352 -703h4l352 703h184z" />
    <glyph glyph-name="Thorn" unicode="&#xde;" horiz-adv-x="1128" 
d="M303 1434v-283h307q205 0 323 -117t118 -301q0 -188 -119.5 -308t-325.5 -120h-303v-305h-151v1434h151zM610 1004h-307v-551h305q130 0 209.5 72.5t79.5 207.5q0 128 -79 199.5t-208 71.5z" />
    <glyph glyph-name="germandbls" unicode="&#xdf;" horiz-adv-x="1112" 
d="M637 815q195 -11 302.5 -109t107.5 -284q0 -211 -137 -321.5t-392 -110.5h-119v139h105q190 0 289.5 70.5t99.5 226.5q0 169 -116.5 240t-354.5 71v129q342 0 342 238q0 103 -61 160t-166 57q-109 0 -180.5 -63.5t-71.5 -192.5v-1331h-148v1325q0 183 106.5 294
t297.5 111q182 0 277 -97.5t95 -242.5q0 -120 -69.5 -199.5t-206.5 -105.5v-4z" />
    <glyph glyph-name="agrave" unicode="&#xe0;" horiz-adv-x="1171" 
d="M436 1448l193 -315h-121l-272 315h200zM535 -31q-131 0 -236.5 60t-169 176t-63.5 268t63.5 268t169 176t236.5 60q125 0 215.5 -53t142.5 -146h4v168h147v-946h-147v168h-4q-52 -93 -142.5 -146t-215.5 -53zM563 115q154 0 248 100t94 258t-94 258t-248 100t-248 -100
t-94 -258t94 -258t248 -100z" />
    <glyph glyph-name="aacute" unicode="&#xe1;" horiz-adv-x="1171" 
d="M901 1448l-270 -315h-123l194 315h199zM535 -31q-131 0 -236.5 60t-169 176t-63.5 268t63.5 268t169 176t236.5 60q125 0 215.5 -53t142.5 -146h4v168h147v-946h-147v168h-4q-52 -93 -142.5 -146t-215.5 -53zM563 115q154 0 248 100t94 258t-94 258t-248 100t-248 -100
t-94 -258t94 -258t248 -100z" />
    <glyph glyph-name="acircumflex" unicode="&#xe2;" horiz-adv-x="1171" 
d="M647 1448l254 -315h-153l-179 221l-178 -221h-153l254 315h155zM535 -31q-131 0 -236.5 60t-169 176t-63.5 268t63.5 268t169 176t236.5 60q125 0 215.5 -53t142.5 -146h4v168h147v-946h-147v168h-4q-52 -93 -142.5 -146t-215.5 -53zM563 115q154 0 248 100t94 258
t-94 258t-248 100t-248 -100t-94 -258t94 -258t248 -100z" />
    <glyph glyph-name="atilde" unicode="&#xe3;" horiz-adv-x="1171" 
d="M424 1430q48 0 110 -29t118.5 -57.5t90.5 -28.5q67 0 109 96l70 -22q-22 -85 -69 -141t-124 -56q-38 0 -85.5 17.5t-85 39t-79 39t-69.5 17.5q-67 0 -109 -95l-72 21q22 85 70 142t125 57zM535 -31q-131 0 -236.5 60t-169 176t-63.5 268t63.5 268t169 176t236.5 60
q125 0 215.5 -53t142.5 -146h4v168h147v-946h-147v168h-4q-52 -93 -142.5 -146t-215.5 -53zM563 115q154 0 248 100t94 258t-94 258t-248 100t-248 -100t-94 -258t94 -258t248 -100z" />
    <glyph glyph-name="adieresis" unicode="&#xe4;" horiz-adv-x="1171" 
d="M461 1413v-237h-164v237h164zM842 1413v-237h-164v237h164zM535 -31q-131 0 -236.5 60t-169 176t-63.5 268t63.5 268t169 176t236.5 60q125 0 215.5 -53t142.5 -146h4v168h147v-946h-147v168h-4q-52 -93 -142.5 -146t-215.5 -53zM563 115q154 0 248 100t94 258t-94 258
t-248 100t-248 -100t-94 -258t94 -258t248 -100z" />
    <glyph glyph-name="aring" unicode="&#xe5;" horiz-adv-x="1171" 
d="M569 1530q106 0 175 -68t69 -172t-69 -171.5t-175 -67.5t-174.5 67.5t-68.5 171.5t68.5 172t174.5 68zM569 1450q-72 0 -115.5 -44.5t-43.5 -115.5t43.5 -115.5t115.5 -44.5t116 44.5t44 115.5t-44 115.5t-116 44.5zM535 -31q-131 0 -236.5 60t-169 176t-63.5 268
t63.5 268t169 176t236.5 60q125 0 215.5 -53t142.5 -146h4v168h147v-946h-147v168h-4q-52 -93 -142.5 -146t-215.5 -53zM563 115q154 0 248 100t94 258t-94 258t-248 100t-248 -100t-94 -258t94 -258t248 -100z" />
    <glyph glyph-name="ae" unicode="&#xe6;" horiz-adv-x="1746" 
d="M420 -31q-168 0 -277.5 93t-109.5 247q0 150 106 243t277 93q106 0 191.5 -40t133.5 -118h4v107q0 248 -268 248q-127 0 -313 -47l-31 135q180 47 352 47q290 0 353 -219h4q51 101 153.5 160t237.5 59q142 0 245 -66.5t153 -177.5t50 -254v-26h-782q5 -152 94 -246
t244 -94q62 0 114 16t92 46t64.5 55.5t53.5 62.5l102 -94q-29 -43 -64.5 -79t-87 -72.5t-121.5 -57.5t-149 -21q-150 0 -261.5 70.5t-158.5 185.5h-4q-43 -122 -149.5 -189t-247.5 -67zM907 565h613q-8 125 -88 200t-211 75q-124 0 -210 -72t-104 -203zM449 100
q125 0 203.5 60t78.5 149q0 94 -82 150.5t-203 56.5t-189.5 -58.5t-68.5 -150.5q0 -94 69 -150.5t192 -56.5z" />
    <glyph glyph-name="ccedilla" unicode="&#xe7;" horiz-adv-x="952" 
d="M903 63q-146 -91 -315 -94l-21 -53q65 -17 104.5 -48.5t39.5 -94.5q0 -21 -7.5 -40t-18 -33.5t-32.5 -31t-38 -27t-48.5 -26t-51.5 -24t-58 -25.5l-23 49q90 43 131 72.5t41 60.5q0 36 -30.5 54t-104.5 34l51 135q-205 19 -330.5 155.5t-125.5 346.5q0 225 143 364.5
t371 139.5q169 0 323 -94l-72 -127q-133 78 -256 78q-158 0 -256 -103.5t-98 -257.5t98 -257t256 -103q125 0 256 77z" />
    <glyph glyph-name="egrave" unicode="&#xe8;" horiz-adv-x="1067" 
d="M418 1448l192 -315h-121l-272 315h201zM547 977q113 0 201 -38t142.5 -106t82.5 -157.5t28 -196.5v-26h-786q3 -156 96.5 -248t243.5 -92q62 0 115 16.5t93 46.5t64.5 55.5t51.5 61.5l106 -96q-24 -34 -48.5 -61.5t-64 -60.5t-82.5 -54.5t-104 -36.5t-129 -15
q-223 0 -357 138.5t-134 363.5q0 227 132 366.5t349 139.5zM539 840q-127 0 -214 -72t-104 -203h621q-11 130 -89.5 202.5t-213.5 72.5z" />
    <glyph glyph-name="eacute" unicode="&#xe9;" horiz-adv-x="1067" 
d="M885 1448l-271 -315h-122l194 315h199zM547 977q113 0 201 -38t142.5 -106t82.5 -157.5t28 -196.5v-26h-786q3 -156 96.5 -248t243.5 -92q62 0 115 16.5t93 46.5t64.5 55.5t51.5 61.5l106 -96q-24 -34 -48.5 -61.5t-64 -60.5t-82.5 -54.5t-104 -36.5t-129 -15
q-223 0 -357 138.5t-134 363.5q0 227 132 366.5t349 139.5zM539 840q-127 0 -214 -72t-104 -203h621q-11 130 -89.5 202.5t-213.5 72.5z" />
    <glyph glyph-name="ecircumflex" unicode="&#xea;" horiz-adv-x="1067" 
d="M629 1448l254 -315h-154l-178 221l-178 -221h-154l254 315h156zM547 977q113 0 201 -38t142.5 -106t82.5 -157.5t28 -196.5v-26h-786q3 -156 96.5 -248t243.5 -92q62 0 115 16.5t93 46.5t64.5 55.5t51.5 61.5l106 -96q-24 -34 -48.5 -61.5t-64 -60.5t-82.5 -54.5
t-104 -36.5t-129 -15q-223 0 -357 138.5t-134 363.5q0 227 132 366.5t349 139.5zM539 840q-127 0 -214 -72t-104 -203h621q-11 130 -89.5 202.5t-213.5 72.5z" />
    <glyph glyph-name="edieresis" unicode="&#xeb;" horiz-adv-x="1067" 
d="M442 1413v-237h-163v237h163zM823 1413v-237h-164v237h164zM547 977q113 0 201 -38t142.5 -106t82.5 -157.5t28 -196.5v-26h-786q3 -156 96.5 -248t243.5 -92q62 0 115 16.5t93 46.5t64.5 55.5t51.5 61.5l106 -96q-24 -34 -48.5 -61.5t-64 -60.5t-82.5 -54.5t-104 -36.5
t-129 -15q-223 0 -357 138.5t-134 363.5q0 227 132 366.5t349 139.5zM539 840q-127 0 -214 -72t-104 -203h621q-11 130 -89.5 202.5t-213.5 72.5z" />
    <glyph glyph-name="igrave" unicode="&#xec;" horiz-adv-x="413" 
d="M156 1448l112 -315h-121l-153 315h162zM133 0v946h148v-946h-148z" />
    <glyph glyph-name="iacute" unicode="&#xed;" horiz-adv-x="413" 
d="M145 1133l111 315h164l-154 -315h-121zM133 0v946h148v-946h-148z" />
    <glyph glyph-name="icircumflex" unicode="&#xee;" horiz-adv-x="413" 
d="M285 1448l168 -315h-144l-102 223l-103 -223h-143l168 315h156zM133 0v946h148v-946h-148z" />
    <glyph glyph-name="idieresis" unicode="&#xef;" horiz-adv-x="413" 
d="M162 1413v-237h-158v237h158zM410 1413v-237h-158v237h158zM133 0v946h148v-946h-148z" />
    <glyph glyph-name="eth" unicode="&#xf0;" horiz-adv-x="1187" 
d="M793 1370q307 -241 307 -743q0 -146 -30 -261.5t-80 -188.5t-119 -121t-142 -67.5t-154 -19.5q-234 0 -371.5 141.5t-137.5 360.5q0 154 66.5 270t178.5 176t252 60q141 0 242 -66t151 -196h7q-21 371 -277 563l-221 -186l-57 63l202 174q-145 81 -329 111l28 125
q244 -41 410 -144l162 138l55 -66zM582 113q156 0 254 96.5t98 257.5q0 168 -98.5 267.5t-257.5 99.5q-160 0 -258.5 -99.5t-98.5 -261.5q0 -163 101.5 -261.5t259.5 -98.5z" />
    <glyph glyph-name="ntilde" unicode="&#xf1;" horiz-adv-x="1103" 
d="M436 1430q48 0 110 -29t119 -57.5t91 -28.5q66 0 108 96l70 -22q-22 -85 -69 -141t-124 -56q-38 0 -85.5 17.5t-85 39t-79 39t-69.5 17.5q-67 0 -109 -95l-71 21q22 85 69.5 142t124.5 57zM621 977q167 0 264.5 -98.5t97.5 -303.5v-575h-147v555q0 140 -67.5 207
t-186.5 67q-64 0 -116.5 -20.5t-95.5 -64.5t-67 -122.5t-24 -185.5v-436h-148v946h148v-182h4q95 213 338 213z" />
    <glyph glyph-name="ograve" unicode="&#xf2;" horiz-adv-x="1155" 
d="M444 1448l193 -315h-121l-272 315h200zM578 977q223 0 367.5 -142t144.5 -362t-144.5 -362t-367.5 -142q-222 0 -367 142.5t-145 361.5t145 361.5t367 142.5zM578 831q-156 0 -256.5 -98.5t-100.5 -259.5t100.5 -259.5t256.5 -98.5t256 98.5t100 259.5t-100 259.5
t-256 98.5z" />
    <glyph glyph-name="oacute" unicode="&#xf3;" horiz-adv-x="1155" 
d="M911 1448l-270 -315h-123l195 315h198zM578 977q223 0 367.5 -142t144.5 -362t-144.5 -362t-367.5 -142q-222 0 -367 142.5t-145 361.5t145 361.5t367 142.5zM578 831q-156 0 -256.5 -98.5t-100.5 -259.5t100.5 -259.5t256.5 -98.5t256 98.5t100 259.5t-100 259.5
t-256 98.5z" />
    <glyph glyph-name="ocircumflex" unicode="&#xf4;" horiz-adv-x="1155" 
d="M655 1448l254 -315h-153l-178 221l-179 -221h-153l254 315h155zM578 977q223 0 367.5 -142t144.5 -362t-144.5 -362t-367.5 -142q-222 0 -367 142.5t-145 361.5t145 361.5t367 142.5zM578 831q-156 0 -256.5 -98.5t-100.5 -259.5t100.5 -259.5t256.5 -98.5t256 98.5
t100 259.5t-100 259.5t-256 98.5z" />
    <glyph glyph-name="otilde" unicode="&#xf5;" horiz-adv-x="1155" 
d="M432 1430q48 0 110 -29t119 -57.5t91 -28.5q66 0 108 96l70 -22q-22 -85 -69 -141t-124 -56q-38 0 -85.5 17.5t-85 39t-79 39t-69.5 17.5q-67 0 -109 -95l-71 21q22 85 69.5 142t124.5 57zM578 977q223 0 367.5 -142t144.5 -362t-144.5 -362t-367.5 -142
q-222 0 -367 142.5t-145 361.5t145 361.5t367 142.5zM578 831q-156 0 -256.5 -98.5t-100.5 -259.5t100.5 -259.5t256.5 -98.5t256 98.5t100 259.5t-100 259.5t-256 98.5z" />
    <glyph glyph-name="odieresis" unicode="&#xf6;" horiz-adv-x="1155" 
d="M469 1413v-237h-164v237h164zM850 1413v-237h-164v237h164zM578 977q223 0 367.5 -142t144.5 -362t-144.5 -362t-367.5 -142q-222 0 -367 142.5t-145 361.5t145 361.5t367 142.5zM578 831q-156 0 -256.5 -98.5t-100.5 -259.5t100.5 -259.5t256.5 -98.5t256 98.5
t100 259.5t-100 259.5t-256 98.5z" />
    <glyph glyph-name="divide" unicode="&#xf7;" 
d="M686 1004v-160h-143v160h143zM1145 651v-80h-1061v80h1061zM686 379v-162h-143v162h143z" />
    <glyph glyph-name="oslash" unicode="&#xf8;" horiz-adv-x="1155" 
d="M940 840q71 -67 110.5 -161.5t39.5 -205.5q0 -220 -144.5 -362t-367.5 -142q-182 0 -314 99l-84 -97l-51 43l84 95q-147 144 -147 364q0 219 145 361.5t367 142.5q175 0 309 -94l82 94l51 -45zM221 473q0 -150 90 -250l477 547q-85 61 -210 61q-156 0 -256.5 -98.5
t-100.5 -259.5zM578 115q156 0 256 98.5t100 259.5q0 154 -94 254l-478 -547q86 -65 216 -65z" />
    <glyph glyph-name="ugrave" unicode="&#xf9;" horiz-adv-x="1077" 
d="M403 1448l193 -315h-121l-272 315h200zM473 -31q-157 0 -254.5 99.5t-97.5 306.5v571h149v-563q0 -137 65 -203.5t175 -66.5q131 0 210 95.5t79 309.5v428h147v-946h-147v176h-4q-40 -92 -119 -149.5t-203 -57.5z" />
    <glyph glyph-name="uacute" unicode="&#xfa;" horiz-adv-x="1077" 
d="M868 1448l-270 -315h-123l195 315h198zM473 -31q-157 0 -254.5 99.5t-97.5 306.5v571h149v-563q0 -137 65 -203.5t175 -66.5q131 0 210 95.5t79 309.5v428h147v-946h-147v176h-4q-40 -92 -119 -149.5t-203 -57.5z" />
    <glyph glyph-name="ucircumflex" unicode="&#xfb;" horiz-adv-x="1077" 
d="M614 1448l254 -315h-153l-178 221l-179 -221h-153l254 315h155zM473 -31q-157 0 -254.5 99.5t-97.5 306.5v571h149v-563q0 -137 65 -203.5t175 -66.5q131 0 210 95.5t79 309.5v428h147v-946h-147v176h-4q-40 -92 -119 -149.5t-203 -57.5z" />
    <glyph glyph-name="udieresis" unicode="&#xfc;" horiz-adv-x="1077" 
d="M428 1413v-237h-164v237h164zM809 1413v-237h-164v237h164zM473 -31q-157 0 -254.5 99.5t-97.5 306.5v571h149v-563q0 -137 65 -203.5t175 -66.5q131 0 210 95.5t79 309.5v428h147v-946h-147v176h-4q-40 -92 -119 -149.5t-203 -57.5z" />
    <glyph glyph-name="yacute" unicode="&#xfd;" horiz-adv-x="956" 
d="M817 1448l-270 -315h-123l194 315h199zM778 946h164l-618 -1356h-158l242 508l-394 848h174l295 -680z" />
    <glyph glyph-name="thorn" unicode="&#xfe;" horiz-adv-x="1179" 
d="M137 -410v1844h148v-656h4q52 93 142.5 146t215.5 53q97 0 182 -35t148.5 -99t100 -159.5t36.5 -210.5t-36.5 -210.5t-100 -159.5t-148.5 -99t-182 -35q-125 0 -215.5 53t-142.5 146h-4v-578h-148zM618 115q154 0 248.5 100t94.5 258t-94.5 258t-248.5 100t-248 -100
t-94 -258t94 -258t248 -100z" />
    <glyph glyph-name="ydieresis" unicode="&#xff;" horiz-adv-x="956" 
d="M375 1413v-237h-164v237h164zM756 1413v-237h-164v237h164zM778 946h164l-618 -1356h-158l242 508l-394 848h174l295 -680z" />
    <glyph glyph-name="Amacron" unicode="&#x100;" horiz-adv-x="1349" 
d="M963 1698v-115h-578v115h578zM1163 0l-151 383h-674l-152 -383h-172l586 1434h150l583 -1434h-170zM395 528h559l-280 707z" />
    <glyph glyph-name="amacron" unicode="&#x101;" horiz-adv-x="1171" 
d="M858 1346v-115h-577v115h577zM535 -31q-131 0 -236.5 60t-169 176t-63.5 268t63.5 268t169 176t236.5 60q125 0 215.5 -53t142.5 -146h4v168h147v-946h-147v168h-4q-52 -93 -142.5 -146t-215.5 -53zM563 115q154 0 248 100t94 258t-94 258t-248 100t-248 -100t-94 -258
t94 -258t248 -100z" />
    <glyph glyph-name="Abreve" unicode="&#x102;" horiz-adv-x="1349" 
d="M674 1522q-123 0 -199 65t-80 180h109q4 -69 48.5 -106t121.5 -37t121.5 37t48.5 106h108q-4 -116 -79.5 -180.5t-198.5 -64.5zM1163 0l-151 383h-674l-152 -383h-172l586 1434h150l583 -1434h-170zM395 528h559l-280 707z" />
    <glyph glyph-name="abreve" unicode="&#x103;" horiz-adv-x="1171" 
d="M848 1434q0 -134 -77.5 -210.5t-201.5 -76.5t-201 76.5t-77 210.5h110q3 -83 48 -131t120 -48t120 48t48 131h111zM535 -31q-131 0 -236.5 60t-169 176t-63.5 268t63.5 268t169 176t236.5 60q125 0 215.5 -53t142.5 -146h4v168h147v-946h-147v168h-4q-52 -93 -142.5 -146
t-215.5 -53zM563 115q154 0 248 100t94 258t-94 258t-248 100t-248 -100t-94 -258t94 -258t248 -100z" />
    <glyph glyph-name="Aogonek" unicode="&#x104;" horiz-adv-x="1349" 
d="M1149 -276q39 0 90 14l16 -100q-64 -21 -133 -21q-76 0 -126 37t-50 108q0 133 203 271l-137 350h-674l-152 -383h-172l586 1434h150l583 -1434h-110q-156 -138 -156 -217q0 -30 23 -44.5t59 -14.5zM395 528h559l-280 707z" />
    <glyph glyph-name="aogonek" unicode="&#x105;" horiz-adv-x="1171" 
d="M975 0q-156 -138 -156 -217q0 -30 23 -44.5t59 -14.5q39 0 90 14l17 -100q-65 -21 -134 -21q-76 0 -126 37t-50 108q0 130 199 269v137h-4q-52 -93 -142.5 -146t-215.5 -53q-131 0 -236.5 60t-169 176t-63.5 268t63.5 268t169 176t236.5 60q125 0 215.5 -53t142.5 -146h4
v168h147v-946h-69zM563 115q154 0 248 100t94 258t-94 258t-248 100t-248 -100t-94 -258t94 -258t248 -100z" />
    <glyph glyph-name="Cacute" unicode="&#x106;" horiz-adv-x="1402" 
d="M1167 1767l-274 -245h-119l195 245h198zM842 -31q-170 0 -313 54.5t-242.5 152.5t-155 237t-55.5 304t55.5 304t155 236.5t242.5 152t313 54.5q282 0 499 -161l-96 -138q-184 140 -407 140q-260 0 -425 -163t-165 -425t165 -425t425 -163q224 0 407 139l96 -137
q-219 -162 -499 -162z" />
    <glyph glyph-name="cacute" unicode="&#x107;" horiz-adv-x="952" 
d="M899 1448l-270 -315h-123l194 315h199zM580 -31q-228 0 -371 139.5t-143 364.5t143 364.5t371 139.5q169 0 323 -94l-72 -127q-133 78 -256 78q-158 0 -256 -103.5t-98 -257.5t98 -257t256 -103q125 0 256 77l72 -127q-154 -94 -323 -94z" />
    <glyph glyph-name="Ccircumflex" unicode="&#x108;" horiz-adv-x="1402" 
d="M915 1767l252 -245h-157l-172 166l-170 -166h-158l250 245h155zM842 -31q-170 0 -313 54.5t-242.5 152.5t-155 237t-55.5 304t55.5 304t155 236.5t242.5 152t313 54.5q282 0 499 -161l-96 -138q-184 140 -407 140q-260 0 -425 -163t-165 -425t165 -425t425 -163
q224 0 407 139l96 -137q-219 -162 -499 -162z" />
    <glyph glyph-name="ccircumflex" unicode="&#x109;" horiz-adv-x="952" 
d="M643 1448l254 -315h-154l-178 221l-178 -221h-154l254 315h156zM580 -31q-228 0 -371 139.5t-143 364.5t143 364.5t371 139.5q169 0 323 -94l-72 -127q-133 78 -256 78q-158 0 -256 -103.5t-98 -257.5t98 -257t256 -103q125 0 256 77l72 -127q-154 -94 -323 -94z" />
    <glyph glyph-name="Cdotaccent" unicode="&#x10a;" horiz-adv-x="1402" 
d="M920 1741v-219h-170v219h170zM842 -31q-170 0 -313 54.5t-242.5 152.5t-155 237t-55.5 304t55.5 304t155 236.5t242.5 152t313 54.5q282 0 499 -161l-96 -138q-184 140 -407 140q-260 0 -425 -163t-165 -425t165 -425t425 -163q224 0 407 139l96 -137
q-219 -162 -499 -162z" />
    <glyph glyph-name="cdotaccent" unicode="&#x10b;" horiz-adv-x="952" 
d="M659 1413v-246h-186v246h186zM580 -31q-228 0 -371 139.5t-143 364.5t143 364.5t371 139.5q169 0 323 -94l-72 -127q-133 78 -256 78q-158 0 -256 -103.5t-98 -257.5t98 -257t256 -103q125 0 256 77l72 -127q-154 -94 -323 -94z" />
    <glyph glyph-name="Ccaron" unicode="&#x10c;" horiz-adv-x="1402" 
d="M915 1522h-155l-250 245h158l170 -165l172 165h157zM842 -31q-170 0 -313 54.5t-242.5 152.5t-155 237t-55.5 304t55.5 304t155 236.5t242.5 152t313 54.5q282 0 499 -161l-96 -138q-184 140 -407 140q-260 0 -425 -163t-165 -425t165 -425t425 -163q224 0 407 139
l96 -137q-219 -162 -499 -162z" />
    <glyph glyph-name="ccaron" unicode="&#x10d;" horiz-adv-x="952" 
d="M907 1434l-262 -316h-158l-262 316h154l186 -222l187 222h155zM580 -31q-228 0 -371 139.5t-143 364.5t143 364.5t371 139.5q169 0 323 -94l-72 -127q-133 78 -256 78q-158 0 -256 -103.5t-98 -257.5t98 -257t256 -103q125 0 256 77l72 -127q-154 -94 -323 -94z" />
    <glyph glyph-name="Dcaron" unicode="&#x10e;" horiz-adv-x="1398" 
d="M664 1522h-156l-250 245h158l170 -165l172 165h157zM600 1434q155 0 288 -50t229 -141t150 -226.5t54 -299.5t-54 -299.5t-150 -226.5t-229 -141t-288 -50h-448v1434h448zM600 1284h-291v-1137h291q158 0 281 64t196.5 195t73.5 311q0 135 -42 243.5t-117 179t-175 107.5
t-217 37z" />
    <glyph glyph-name="dcaron" unicode="&#x10f;" horiz-adv-x="1353" 
d="M1153 1464h188v-186l-145 -250h-66l95 250h-72v186zM897 778v656h147v-1434h-147v168h-4q-52 -93 -142.5 -146t-215.5 -53q-131 0 -236.5 60t-169 176t-63.5 268t63.5 268t169 176t236.5 60q125 0 215.5 -53t142.5 -146h4zM563 115q154 0 248 100t94 258t-94 258
t-248 100t-248 -100t-94 -258t94 -258t248 -100z" />
    <glyph glyph-name="Dcroat" unicode="&#x110;" horiz-adv-x="1419" 
d="M621 1434q155 0 287.5 -50t228.5 -141t150 -226.5t54 -299.5t-54 -299.5t-150 -226.5t-228.5 -141t-287.5 -50h-449v670h-164v129h164v635h449zM621 147q117 0 217 37.5t174.5 108t116.5 179.5t42 245q0 135 -42 243.5t-116.5 179t-174.5 107.5t-217 37h-291v-485h381
v-129h-381v-523h291z" />
    <glyph glyph-name="dcroat" unicode="&#x111;" horiz-adv-x="1169" 
d="M1169 1266v-97h-125v-1169h-147v168h-4q-52 -93 -142.5 -146t-215.5 -53q-131 0 -236.5 60t-169 176t-63.5 268t63.5 268t169 176t236.5 60q125 0 215.5 -53t142.5 -146h4v391h-279v97h279v168h147v-168h125zM563 115q154 0 248 100t94 258t-94 258t-248 100t-248 -100
t-94 -258t94 -258t248 -100z" />
    <glyph glyph-name="Emacron" unicode="&#x112;" horiz-adv-x="1060" 
d="M879 1698v-115h-578v115h578zM309 150h656v-150h-813v1434h802v-150h-645v-412h594v-147h-594v-575z" />
    <glyph glyph-name="emacron" unicode="&#x113;" horiz-adv-x="1067" 
d="M840 1346v-115h-578v115h578zM547 977q113 0 201 -38t142.5 -106t82.5 -157.5t28 -196.5v-26h-786q3 -156 96.5 -248t243.5 -92q62 0 115 16.5t93 46.5t64.5 55.5t51.5 61.5l106 -96q-24 -34 -48.5 -61.5t-64 -60.5t-82.5 -54.5t-104 -36.5t-129 -15q-223 0 -357 138.5
t-134 363.5q0 227 132 366.5t349 139.5zM539 840q-127 0 -214 -72t-104 -203h621q-11 130 -89.5 202.5t-213.5 72.5z" />
    <glyph glyph-name="Ebreve" unicode="&#x114;" horiz-adv-x="1060" 
d="M592 1522q-123 0 -199 65t-80 180h109q4 -69 48.5 -106t121.5 -37t121.5 37t48.5 106h108q-4 -116 -79.5 -180.5t-198.5 -64.5zM309 150h656v-150h-813v1434h802v-150h-645v-412h594v-147h-594v-575z" />
    <glyph glyph-name="ebreve" unicode="&#x115;" horiz-adv-x="1067" 
d="M829 1434q0 -134 -77 -210.5t-201 -76.5t-201.5 76.5t-77.5 210.5h111q3 -83 48 -131t120 -48t120 48t48 131h110zM547 977q113 0 201 -38t142.5 -106t82.5 -157.5t28 -196.5v-26h-786q3 -156 96.5 -248t243.5 -92q62 0 115 16.5t93 46.5t64.5 55.5t51.5 61.5l106 -96
q-24 -34 -48.5 -61.5t-64 -60.5t-82.5 -54.5t-104 -36.5t-129 -15q-223 0 -357 138.5t-134 363.5q0 227 132 366.5t349 139.5zM539 840q-127 0 -214 -72t-104 -203h621q-11 130 -89.5 202.5t-213.5 72.5z" />
    <glyph glyph-name="Edotaccent" unicode="&#x116;" horiz-adv-x="1060" 
d="M676 1741v-219h-170v219h170zM309 150h656v-150h-813v1434h802v-150h-645v-412h594v-147h-594v-575z" />
    <glyph glyph-name="edotaccent" unicode="&#x117;" horiz-adv-x="1067" 
d="M645 1413v-246h-186v246h186zM547 977q113 0 201 -38t142.5 -106t82.5 -157.5t28 -196.5v-26h-786q3 -156 96.5 -248t243.5 -92q62 0 115 16.5t93 46.5t64.5 55.5t51.5 61.5l106 -96q-24 -34 -48.5 -61.5t-64 -60.5t-82.5 -54.5t-104 -36.5t-129 -15q-223 0 -357 138.5
t-134 363.5q0 227 132 366.5t349 139.5zM539 840q-127 0 -214 -72t-104 -203h621q-11 130 -89.5 202.5t-213.5 72.5z" />
    <glyph glyph-name="Eogonek" unicode="&#x118;" horiz-adv-x="1060" 
d="M907 0q-155 -137 -155 -217q0 -30 23 -44.5t59 -14.5q39 0 90 14l16 -100q-65 -21 -133 -21q-76 0 -126 37t-50 108q0 117 157 238h-636v1434h802v-150h-645v-412h594v-147h-594v-575h656v-150h-58z" />
    <glyph glyph-name="eogonek" unicode="&#x119;" horiz-adv-x="1067" 
d="M1001 479v-26h-786q3 -156 96.5 -248t243.5 -92q62 0 115 16.5t93 46.5t64.5 55.5t51.5 61.5l106 -96q-94 -129 -203 -179q-176 -147 -176 -235q0 -30 23 -44.5t59 -14.5q39 0 90 14l17 -100q-64 -21 -133 -21q-76 0 -126.5 37t-50.5 108q0 101 123 209q-16 -2 -51 -2
q-223 0 -357 138.5t-134 363.5q0 227 132 366.5t349 139.5q113 0 201 -38t142.5 -106t82.5 -157.5t28 -196.5zM221 565h621q-11 130 -89.5 202.5t-213.5 72.5q-127 0 -214 -72t-104 -203z" />
    <glyph glyph-name="Ecaron" unicode="&#x11a;" horiz-adv-x="1060" 
d="M670 1522h-156l-250 245h158l170 -165l172 165h158zM309 150h656v-150h-813v1434h802v-150h-645v-412h594v-147h-594v-575z" />
    <glyph glyph-name="ecaron" unicode="&#x11b;" horiz-adv-x="1067" 
d="M893 1434l-262 -316h-158l-262 316h154l186 -222l186 222h156zM547 977q113 0 201 -38t142.5 -106t82.5 -157.5t28 -196.5v-26h-786q3 -156 96.5 -248t243.5 -92q62 0 115 16.5t93 46.5t64.5 55.5t51.5 61.5l106 -96q-24 -34 -48.5 -61.5t-64 -60.5t-82.5 -54.5
t-104 -36.5t-129 -15q-223 0 -357 138.5t-134 363.5q0 227 132 366.5t349 139.5zM539 840q-127 0 -214 -72t-104 -203h621q-11 130 -89.5 202.5t-213.5 72.5z" />
    <glyph glyph-name="Gcircumflex" unicode="&#x11c;" horiz-adv-x="1617" 
d="M819 1688l-170 -166h-157l249 245h156l252 -245h-158zM889 766h667v-66q0 -108 -27 -212t-85 -198.5t-141 -165.5t-204 -113t-265 -42q-218 0 -390 92t-270 262.5t-98 389.5q0 163 55.5 302.5t154.5 238t240.5 154.5t307.5 56q306 0 548 -190l-108 -133
q-198 164 -447 164q-168 0 -300.5 -76.5t-205.5 -211t-73 -302.5q0 -256 163.5 -421t426.5 -165q108 0 199.5 30.5t153.5 80t106.5 114t66 130.5t25.5 132h-500v150z" />
    <glyph glyph-name="gcircumflex" unicode="&#x11d;" horiz-adv-x="1171" 
d="M666 1448l254 -315h-154l-178 221l-178 -221h-154l254 315h156zM606 -440q-166 0 -364 43l28 143q193 -43 336 -43q154 0 222.5 71.5t68.5 235.5v158h-4q-52 -93 -142.5 -146t-215.5 -53q-131 0 -236.5 60t-169 176t-63.5 268t63.5 268t169 176t236.5 60q125 0 215.5 -53
t142.5 -146h4v168h147v-946q-2 -108 -26 -187.5t-62 -127t-95.5 -76.5t-117.5 -39t-137 -10zM563 115q154 0 248 100t94 258t-94 258t-248 100t-248 -100t-94 -258t94 -258t248 -100z" />
    <glyph glyph-name="Gbreve" unicode="&#x11e;" horiz-adv-x="1617" 
d="M819 1522q-123 0 -198.5 64.5t-79.5 180.5h108q4 -69 48.5 -106t121.5 -37t121.5 37t48.5 106h109q-4 -115 -80 -180t-199 -65zM889 766h667v-66q0 -108 -27 -212t-85 -198.5t-141 -165.5t-204 -113t-265 -42q-218 0 -390 92t-270 262.5t-98 389.5q0 163 55.5 302.5
t154.5 238t240.5 154.5t307.5 56q306 0 548 -190l-108 -133q-198 164 -447 164q-168 0 -300.5 -76.5t-205.5 -211t-73 -302.5q0 -256 163.5 -421t426.5 -165q108 0 199.5 30.5t153.5 80t106.5 114t66 130.5t25.5 132h-500v150z" />
    <glyph glyph-name="gbreve" unicode="&#x11f;" horiz-adv-x="1171" 
d="M866 1434q0 -134 -77 -210.5t-201 -76.5t-201.5 76.5t-77.5 210.5h111q3 -83 48 -131t120 -48t120 48t48 131h110zM606 -440q-166 0 -364 43l28 143q193 -43 336 -43q154 0 222.5 71.5t68.5 235.5v158h-4q-52 -93 -142.5 -146t-215.5 -53q-131 0 -236.5 60t-169 176
t-63.5 268t63.5 268t169 176t236.5 60q125 0 215.5 -53t142.5 -146h4v168h147v-946q-2 -108 -26 -187.5t-62 -127t-95.5 -76.5t-117.5 -39t-137 -10zM563 115q154 0 248 100t94 258t-94 258t-248 100t-248 -100t-94 -258t94 -258t248 -100z" />
    <glyph glyph-name="Gdotaccent" unicode="&#x120;" horiz-adv-x="1617" 
d="M903 1741v-219h-170v219h170zM889 766h667v-66q0 -108 -27 -212t-85 -198.5t-141 -165.5t-204 -113t-265 -42q-218 0 -390 92t-270 262.5t-98 389.5q0 163 55.5 302.5t154.5 238t240.5 154.5t307.5 56q306 0 548 -190l-108 -133q-198 164 -447 164q-168 0 -300.5 -76.5
t-205.5 -211t-73 -302.5q0 -256 163.5 -421t426.5 -165q108 0 199.5 30.5t153.5 80t106.5 114t66 130.5t25.5 132h-500v150z" />
    <glyph glyph-name="gdotaccent" unicode="&#x121;" horiz-adv-x="1171" 
d="M682 1413v-246h-186v246h186zM606 -440q-166 0 -364 43l28 143q193 -43 336 -43q154 0 222.5 71.5t68.5 235.5v158h-4q-52 -93 -142.5 -146t-215.5 -53q-131 0 -236.5 60t-169 176t-63.5 268t63.5 268t169 176t236.5 60q125 0 215.5 -53t142.5 -146h4v168h147v-946
q-2 -108 -26 -187.5t-62 -127t-95.5 -76.5t-117.5 -39t-137 -10zM563 115q154 0 248 100t94 258t-94 258t-248 100t-248 -100t-94 -258t94 -258t248 -100z" />
    <glyph glyph-name="Gcommaaccent" unicode="&#x122;" horiz-adv-x="1617" 
d="M889 766h667v-66q0 -108 -27 -212t-85 -198.5t-141 -165.5t-204 -113t-265 -42q-218 0 -390 92t-270 262.5t-98 389.5q0 163 55.5 302.5t154.5 238t240.5 154.5t307.5 56q306 0 548 -190l-108 -133q-198 164 -447 164q-168 0 -300.5 -76.5t-205.5 -211t-73 -302.5
q0 -256 163.5 -421t426.5 -165q108 0 199.5 30.5t153.5 80t106.5 114t66 130.5t25.5 132h-500v150zM748 -264v168h180v-168l-127 -158h-64l80 158h-69z" />
    <glyph glyph-name="gcommaaccent" unicode="&#x123;" horiz-adv-x="1171" 
d="M676 1274v-168h-180v168l127 158h63l-80 -158h70zM897 946h147v-946q-2 -108 -26 -187.5t-62 -127t-95.5 -76.5t-117.5 -39t-137 -10q-166 0 -364 43l28 143q193 -43 336 -43q154 0 222.5 71.5t68.5 235.5v158h-4q-52 -93 -142.5 -146t-215.5 -53q-131 0 -236.5 60
t-169 176t-63.5 268t63.5 268t169 176t236.5 60q125 0 215.5 -53t142.5 -146h4v168zM563 115q154 0 248 100t94 258t-94 258t-248 100t-248 -100t-94 -258t94 -258t248 -100z" />
    <glyph glyph-name="Hcircumflex" unicode="&#x124;" horiz-adv-x="1437" 
d="M719 1688l-170 -166h-158l250 245h156l252 -245h-158zM1128 1434h158v-1434h-158v686h-819v-686h-157v1434h157v-596h819v596z" />
    <glyph glyph-name="hcircumflex" unicode="&#x125;" horiz-adv-x="1110" 
d="M289 1767l252 -245h-158l-172 166l-170 -166h-158l250 245h156zM285 1434v-670h4q46 103 133.5 158t204.5 55q165 0 263.5 -99t98.5 -303v-575h-147v555q0 140 -66.5 207t-185.5 67q-64 0 -116.5 -20.5t-96 -64.5t-68 -122.5t-24.5 -185.5v-436h-148v1434h148z" />
    <glyph glyph-name="Hbar" unicode="&#x126;" horiz-adv-x="1419" 
d="M1419 1186v-133h-141v-1053h-158v686h-819v-686h-158v1053h-143v133h143v248h158v-248h819v248h158v-248h141zM1120 838v215h-819v-215h819z" />
    <glyph glyph-name="hbar" unicode="&#x127;" horiz-adv-x="1110" 
d="M627 977q165 0 263.5 -99t98.5 -303v-575h-147v555q0 140 -66.5 207t-185.5 67q-64 0 -116.5 -20.5t-96 -64.5t-68 -122.5t-24.5 -185.5v-436h-148v1169h-137v97h137v168h148v-168h309v-97h-309v-405h4q46 103 133.5 158t204.5 55z" />
    <glyph glyph-name="Itilde" unicode="&#x128;" horiz-adv-x="464" 
d="M406 1530q-60 0 -176 54t-156 54q-72 0 -111 -96l-67 23q58 192 196 192q59 0 176 -53t156 -53q71 0 111 94l67 -21q-58 -194 -196 -194zM311 1434v-1434h-159v1434h159z" />
    <glyph glyph-name="itilde" unicode="&#x129;" horiz-adv-x="413" 
d="M98 1430q40 0 88.5 -29t89.5 -57.5t64 -28.5q24 0 41 21t35 69l67 -23q-39 -190 -155 -190q-32 0 -70.5 17.5t-66.5 39t-58 39t-49 17.5q-24 0 -41.5 -21t-32.5 -67l-69 20q39 193 157 193zM133 0v946h148v-946h-148z" />
    <glyph glyph-name="Imacron" unicode="&#x12a;" horiz-adv-x="464" 
d="M520 1698v-115h-577v115h577zM311 1434v-1434h-159v1434h159z" />
    <glyph glyph-name="imacron" unicode="&#x12b;" horiz-adv-x="413" 
d="M399 1346v-115h-389v115h389zM133 0v946h148v-946h-148z" />
    <glyph glyph-name="Ibreve" unicode="&#x12c;" horiz-adv-x="464" 
d="M510 1767q-4 -115 -80 -180t-199 -65t-198.5 64.5t-79.5 180.5h108q4 -69 48.5 -106t121.5 -37t121.5 37t48.5 106h109zM311 1434v-1434h-159v1434h159z" />
    <glyph glyph-name="ibreve" unicode="&#x12d;" horiz-adv-x="413" 
d="M424 1434q0 -141 -56 -214t-161 -73t-161 73t-56 214h110q0 -93 25 -136t82 -43t81.5 43t24.5 136h111zM133 0v946h148v-946h-148z" />
    <glyph glyph-name="Iogonek" unicode="&#x12e;" horiz-adv-x="464" 
d="M279 0q-166 -141 -166 -225q0 -30 23.5 -45t58.5 -15q36 0 90 15l16 -101q-61 -20 -133 -20q-76 0 -126 37t-50 108q0 120 168 246h-8v1434h159v-1434h-32z" />
    <glyph glyph-name="iogonek" unicode="&#x12f;" horiz-adv-x="413" 
d="M113 1413h186v-246h-186v246zM133 23v923h148v-946h-58q-155 -137 -155 -217q0 -30 23 -44.5t59 -14.5q39 0 90 14l16 -100q-64 -21 -133 -21q-76 0 -126 37t-50 108q0 125 186 261z" />
    <glyph glyph-name="Idotaccent" unicode="&#x130;" horiz-adv-x="464" 
d="M315 1741v-219h-170v219h170zM311 1434v-1434h-159v1434h159z" />
    <glyph glyph-name="dotlessi" unicode="&#x131;" horiz-adv-x="413" 
d="M133 0v946h148v-946h-148z" />
    <glyph glyph-name="IJ" unicode="&#x132;" horiz-adv-x="1017" 
d="M311 1434v-1434h-159v1434h159zM866 1434v-1094q0 -180 -73.5 -265t-227.5 -85h-65v153h51q81 0 119.5 44t38.5 153v1094h157z" />
    <glyph glyph-name="ij" unicode="&#x133;" horiz-adv-x="827" 
d="M299 1413v-246h-186v246h186zM713 1413v-246h-187v246h187zM133 0v946h148v-946h-148zM362 -283h48q72 0 104.5 39.5t32.5 128.5v1061h147v-1073q0 -142 -68 -215.5t-198 -73.5h-66v133z" />
    <glyph glyph-name="Jcircumflex" unicode="&#x134;" horiz-adv-x="552" 
d="M399 1767l252 -245h-157l-172 166l-170 -166h-158l250 245h155zM401 1434v-1094q0 -180 -73.5 -265t-227.5 -85h-65v153h51q81 0 119.5 44t38.5 153v1094h157z" />
    <glyph glyph-name="jcircumflex" unicode="&#x135;" horiz-adv-x="413" 
d="M285 1448l168 -315h-144l-102 223l-103 -223h-143l168 315h156zM-51 -283h47q72 0 104.5 39.5t32.5 128.5v1061h148v-1073q0 -142 -68.5 -215.5t-198.5 -73.5h-65v133z" />
    <glyph glyph-name="Kcommaaccent" unicode="&#x136;" horiz-adv-x="1253" 
d="M492 770l747 -770h-235l-695 731v-731h-157v1434h157v-648l615 648h223zM537 -264v168h180v-168l-127 -158h-64l80 158h-69z" />
    <glyph glyph-name="kcommaaccent" unicode="&#x137;" horiz-adv-x="940" 
d="M444 514l480 -514h-203l-436 479v-479h-148v1434h148v-902l393 414h203zM387 -264v168h180v-168l-127 -158h-63l80 158h-70z" />
    <glyph glyph-name="kgreenlandic" unicode="&#x138;" horiz-adv-x="929" 
d="M915 0h-202l-434 477v-477h-148v946h148v-411l389 411h202l-436 -432z" />
    <glyph glyph-name="Lacute" unicode="&#x139;" horiz-adv-x="993" 
d="M608 1767l-274 -245h-119l195 245h198zM309 1434v-1282h666v-152h-823v1434h157z" />
    <glyph glyph-name="lacute" unicode="&#x13a;" horiz-adv-x="421" 
d="M541 1767l-275 -245h-119l195 245h199zM285 1434v-1434h-148v1434h148z" />
    <glyph glyph-name="Lcommaaccent" unicode="&#x13b;" horiz-adv-x="993" 
d="M309 152h666v-152h-823v1434h157v-1282zM496 -264v168h180v-168l-127 -158h-64l80 158h-69z" />
    <glyph glyph-name="lcommaaccent" unicode="&#x13c;" horiz-adv-x="421" 
d="M285 1434v-1434h-148v1434h148zM121 -96h180v-168l-127 -158h-63l79 158h-69v168z" />
    <glyph glyph-name="Lcaron" unicode="&#x13d;" horiz-adv-x="993" 
d="M676 981h-64l111 297h-88v186h186v-186zM309 152h666v-152h-823v1434h157v-1282z" />
    <glyph glyph-name="lcaron" unicode="&#x13e;" horiz-adv-x="585" 
d="M385 1464h188v-186l-145 -250h-66l95 250h-72v186zM137 0v1434h148v-1434h-148z" />
    <glyph glyph-name="Ldot" unicode="&#x13f;" horiz-adv-x="993" 
d="M309 1434v-1282h666v-152h-823v1434h157zM795 946v-211h-211v211h211z" />
    <glyph glyph-name="ldot" unicode="&#x140;" horiz-adv-x="591" 
d="M285 1434v-1434h-148v1434h148zM571 948v-211h-211v211h211z" />
    <glyph glyph-name="Lslash" unicode="&#x141;" horiz-adv-x="993" 
d="M309 152h666v-152h-823v600l-164 -84v115l164 84v719h157v-637l383 196v-114l-383 -197v-530z" />
    <glyph glyph-name="lslash" unicode="&#x142;" horiz-adv-x="524" 
d="M504 981v-115l-172 -90v-776h-148v698l-164 -86v115l164 86v621h148v-543z" />
    <glyph glyph-name="Nacute" unicode="&#x143;" horiz-adv-x="1421" 
d="M1047 1767l-275 -245h-119l195 245h199zM1268 1434v-1434h-168l-787 1165h-4v-1165h-157v1434h167l787 -1166h4v1166h158z" />
    <glyph glyph-name="nacute" unicode="&#x144;" horiz-adv-x="1103" 
d="M913 1448l-270 -315h-123l195 315h198zM621 977q167 0 264.5 -98.5t97.5 -303.5v-575h-147v555q0 140 -67.5 207t-186.5 67q-64 0 -116.5 -20.5t-95.5 -64.5t-67 -122.5t-24 -185.5v-436h-148v946h148v-182h4q95 213 338 213z" />
    <glyph glyph-name="Ncommaaccent" unicode="&#x145;" horiz-adv-x="1421" 
d="M1110 1434h158v-1434h-168l-787 1165h-4v-1165h-157v1434h167l787 -1166h4v1166zM618 -264v168h181v-168l-127 -158h-64l80 158h-70z" />
    <glyph glyph-name="ncommaaccent" unicode="&#x146;" horiz-adv-x="1103" 
d="M621 977q167 0 264.5 -98.5t97.5 -303.5v-575h-147v555q0 140 -67.5 207t-186.5 67q-64 0 -116.5 -20.5t-95.5 -64.5t-67 -122.5t-24 -185.5v-436h-148v946h148v-182h4q95 213 338 213zM489 -264v168h181v-168l-127 -158h-64l80 158h-70z" />
    <glyph glyph-name="Ncaron" unicode="&#x147;" horiz-adv-x="1421" 
d="M795 1522h-156l-250 245h158l170 -165l172 165h158zM1268 1434v-1434h-168l-787 1165h-4v-1165h-157v1434h167l787 -1166h4v1166h158z" />
    <glyph glyph-name="ncaron" unicode="&#x148;" horiz-adv-x="1103" 
d="M922 1434l-263 -316h-157l-262 316h153l187 -222l186 222h156zM621 977q167 0 264.5 -98.5t97.5 -303.5v-575h-147v555q0 140 -67.5 207t-186.5 67q-64 0 -116.5 -20.5t-95.5 -64.5t-67 -122.5t-24 -185.5v-436h-148v946h148v-182h4q95 213 338 213z" />
    <glyph glyph-name="napostrophe" unicode="&#x149;" horiz-adv-x="1161" 
d="M229 1464v-186l-145 -297h-64l111 297h-88v186h186zM676 977q168 0 266 -98.5t98 -303.5v-575h-147v555q0 140 -67.5 207t-186.5 67q-64 0 -116.5 -20.5t-95.5 -64.5t-67 -122.5t-24 -185.5v-436h-148v946h146v-182h4q98 213 338 213z" />
    <glyph glyph-name="Eng" unicode="&#x14a;" horiz-adv-x="1421" 
d="M1110 1434h158v-1555q0 -136 -66 -212.5t-196 -76.5h-105v152h82q127 0 127 141v117l-797 1163h-4v-1163h-157v1434h167l787 -1153h4v1153z" />
    <glyph glyph-name="eng" unicode="&#x14b;" horiz-adv-x="1103" 
d="M983 -147q0 -126 -61 -194.5t-183 -68.5h-110v140h92q55 0 85 32t30 95v143v555q0 140 -67.5 207t-186.5 67q-64 0 -116.5 -20.5t-95.5 -64.5t-67 -122.5t-24 -185.5v-436h-148v946h148v-182h4q95 213 338 213q167 0 264.5 -98.5t97.5 -303.5v-722z" />
    <glyph glyph-name="Omacron" unicode="&#x14c;" horiz-adv-x="1646" 
d="M1112 1698v-115h-577v115h577zM823 1464q211 0 381.5 -94t268.5 -265.5t98 -387.5t-98 -387.5t-268.5 -266t-381.5 -94.5t-381.5 94.5t-268 266t-97.5 387.5q0 162 57 302t156.5 237t237.5 152.5t296 55.5zM823 1305q-124 0 -231 -44t-182.5 -121.5t-118.5 -186.5
t-43 -236t43 -236t118.5 -186.5t182.5 -121.5t231 -44q253 0 414.5 165.5t161.5 422.5t-161.5 422.5t-414.5 165.5z" />
    <glyph glyph-name="omacron" unicode="&#x14d;" horiz-adv-x="1155" 
d="M866 1346v-115h-577v115h577zM578 977q223 0 367.5 -142t144.5 -362t-144.5 -362t-367.5 -142q-222 0 -367 142.5t-145 361.5t145 361.5t367 142.5zM578 831q-156 0 -256.5 -98.5t-100.5 -259.5t100.5 -259.5t256.5 -98.5t256 98.5t100 259.5t-100 259.5t-256 98.5z" />
    <glyph glyph-name="Obreve" unicode="&#x14e;" horiz-adv-x="1646" 
d="M1104 1767q-4 -115 -80 -180t-199 -65t-198.5 64.5t-79.5 180.5h108q4 -69 48.5 -106t121.5 -37t121.5 37t48.5 106h109zM823 1464q211 0 381.5 -94t268.5 -265.5t98 -387.5t-98 -387.5t-268.5 -266t-381.5 -94.5t-381.5 94.5t-268 266t-97.5 387.5q0 162 57 302
t156.5 237t237.5 152.5t296 55.5zM823 1305q-124 0 -231 -44t-182.5 -121.5t-118.5 -186.5t-43 -236t43 -236t118.5 -186.5t182.5 -121.5t231 -44q253 0 414.5 165.5t161.5 422.5t-161.5 422.5t-414.5 165.5z" />
    <glyph glyph-name="obreve" unicode="&#x14f;" horiz-adv-x="1155" 
d="M856 1434q0 -134 -77 -210.5t-201 -76.5t-201.5 76.5t-77.5 210.5h111q3 -83 48 -131t120 -48t119.5 48t47.5 131h111zM578 977q223 0 367.5 -142t144.5 -362t-144.5 -362t-367.5 -142q-222 0 -367 142.5t-145 361.5t145 361.5t367 142.5zM578 831q-156 0 -256.5 -98.5
t-100.5 -259.5t100.5 -259.5t256.5 -98.5t256 98.5t100 259.5t-100 259.5t-256 98.5z" />
    <glyph glyph-name="Ohungarumlaut" unicode="&#x150;" horiz-adv-x="1646" 
d="M989 1767l-211 -245h-112l180 245h143zM1208 1767l-211 -245h-112l180 245h143zM823 1464q211 0 381.5 -94t268.5 -265.5t98 -387.5t-98 -387.5t-268.5 -266t-381.5 -94.5t-381.5 94.5t-268 266t-97.5 387.5q0 162 57 302t156.5 237t237.5 152.5t296 55.5zM823 1305
q-124 0 -231 -44t-182.5 -121.5t-118.5 -186.5t-43 -236t43 -236t118.5 -186.5t182.5 -121.5t231 -44q253 0 414.5 165.5t161.5 422.5t-161.5 422.5t-414.5 165.5z" />
    <glyph glyph-name="ohungarumlaut" unicode="&#x151;" horiz-adv-x="1155" 
d="M772 1448l-244 -315h-112l213 315h143zM999 1448l-243 -315h-113l213 315h143zM578 977q223 0 367.5 -142t144.5 -362t-144.5 -362t-367.5 -142q-222 0 -367 142.5t-145 361.5t145 361.5t367 142.5zM578 831q-156 0 -256.5 -98.5t-100.5 -259.5t100.5 -259.5t256.5 -98.5
t256 98.5t100 259.5t-100 259.5t-256 98.5z" />
    <glyph glyph-name="OE" unicode="&#x152;" horiz-adv-x="2301" 
d="M1548 150h658v-150h-815v231q-101 -124 -250 -193t-322 -69q-209 0 -378.5 94t-267 265.5t-97.5 388.5q0 216 97.5 387.5t267 265.5t378.5 94q172 0 320.5 -69.5t251.5 -192.5v232h792v-150h-635v-412h594v-147h-594v-575zM819 127q254 0 416 168t162 422t-162 422
t-416 168q-249 0 -411 -166t-162 -424t162 -424t411 -166z" />
    <glyph glyph-name="oe" unicode="&#x153;" horiz-adv-x="1914" 
d="M1399 977q111 0 198 -38t141.5 -105.5t82.5 -157t28 -195.5v-26h-786q3 -157 97 -249.5t243 -92.5q62 0 115 16t92.5 46.5t64 56t51.5 61.5l107 -96q-26 -35 -51 -63.5t-64.5 -60.5t-82.5 -53.5t-103.5 -36t-128.5 -14.5q-144 0 -250 61.5t-162 174.5h-4
q-51 -111 -158 -173.5t-249 -62.5q-230 0 -372 140.5t-142 363.5t142 363.5t372 140.5q142 0 248.5 -62.5t160.5 -175.5h4q53 113 158.5 175.5t247.5 62.5zM1389 840q-128 0 -215 -71.5t-105 -203.5h621q-9 130 -88 202.5t-213 72.5zM575 831q-155 0 -254.5 -98.5
t-99.5 -259.5t99.5 -259.5t254.5 -98.5q156 0 255.5 98.5t99.5 259.5t-99.5 259.5t-255.5 98.5z" />
    <glyph glyph-name="Racute" unicode="&#x154;" horiz-adv-x="1169" 
d="M872 1767l-274 -245h-119l195 245h198zM938 0l-426 616h-203v-616h-157v1434h477q192 0 314 -108.5t122 -301.5q0 -171 -100.5 -277.5t-264.5 -125.5l437 -621h-199zM309 1284v-518h299q138 0 212.5 69.5t74.5 188.5q0 121 -74 190.5t-213 69.5h-299z" />
    <glyph glyph-name="racute" unicode="&#x155;" horiz-adv-x="649" 
d="M719 1448l-270 -315h-123l194 315h199zM621 975v-170h-29q-151 0 -232 -93t-81 -268v-444h-148v946h148v-213h4q30 109 113 175.5t200 66.5h25z" />
    <glyph glyph-name="Rcommaaccent" unicode="&#x156;" horiz-adv-x="1169" 
d="M700 621l437 -621h-199l-426 616h-203v-616h-157v1434h477q192 0 314 -108.5t122 -301.5q0 -171 -100.5 -277.5t-264.5 -125.5zM309 1284v-518h299q138 0 212.5 69.5t74.5 188.5q0 121 -74 190.5t-213 69.5h-299zM508 -264v168h180v-168l-127 -158h-63l80 158h-70z" />
    <glyph glyph-name="rcommaaccent" unicode="&#x157;" horiz-adv-x="649" 
d="M596 975h25v-170h-29q-151 0 -232 -93t-81 -268v-444h-148v946h148v-213h4q30 109 113 175.5t200 66.5zM117 -264v168h180v-168l-127 -158h-64l80 158h-69z" />
    <glyph glyph-name="Rcaron" unicode="&#x158;" horiz-adv-x="1169" 
d="M621 1522h-156l-250 245h158l170 -165l172 165h157zM938 0l-426 616h-203v-616h-157v1434h477q192 0 314 -108.5t122 -301.5q0 -171 -100.5 -277.5t-264.5 -125.5l437 -621h-199zM309 1284v-518h299q138 0 212.5 69.5t74.5 188.5q0 121 -74 190.5t-213 69.5h-299z" />
    <glyph glyph-name="rcaron" unicode="&#x159;" horiz-adv-x="649" 
d="M729 1434l-262 -316h-158l-262 316h154l186 -222l186 222h156zM621 975v-170h-29q-151 0 -232 -93t-81 -268v-444h-148v946h148v-213h4q30 109 113 175.5t200 66.5h25z" />
    <glyph glyph-name="Sacute" unicode="&#x15a;" horiz-adv-x="1017" 
d="M856 1767l-274 -245h-119l194 245h199zM524 1464q178 0 365 -90l-74 -151q-149 82 -293 82q-106 0 -160.5 -44t-54.5 -120q0 -66 37.5 -113.5t116.5 -105.5l235 -174q122 -89 181 -180t59 -214q0 -186 -121 -285.5t-323 -99.5q-121 0 -240.5 35.5t-212.5 95.5l76 148
q191 -119 377 -119q136 0 206 60.5t70 154.5q0 72 -43 132t-143 134l-234 176q-103 77 -157 158t-54 191q0 153 101.5 241t285.5 88z" />
    <glyph glyph-name="sacute" unicode="&#x15b;" horiz-adv-x="831" 
d="M756 1448l-271 -315h-123l195 315h199zM430 -31q-106 0 -208 29.5t-183 81.5l72 131q157 -102 325 -102q94 0 141.5 33t47.5 91q0 45 -31.5 78.5t-97.5 63.5l-177 84q-204 94 -204 264q0 122 87 188t238 66q159 0 320 -74l-64 -131q-139 66 -260 66q-164 0 -164 -109
q0 -45 32 -77t104 -66l172 -80q99 -47 150.5 -109t51.5 -157q0 -132 -94 -201.5t-258 -69.5z" />
    <glyph glyph-name="Scircumflex" unicode="&#x15c;" horiz-adv-x="1017" 
d="M604 1767l252 -245h-158l-172 166l-170 -166h-157l250 245h155zM524 1464q178 0 365 -90l-74 -151q-149 82 -293 82q-106 0 -160.5 -44t-54.5 -120q0 -66 37.5 -113.5t116.5 -105.5l235 -174q122 -89 181 -180t59 -214q0 -186 -121 -285.5t-323 -99.5q-121 0 -240.5 35.5
t-212.5 95.5l76 148q191 -119 377 -119q136 0 206 60.5t70 154.5q0 72 -43 132t-143 134l-234 176q-103 77 -157 158t-54 191q0 153 101.5 241t285.5 88z" />
    <glyph glyph-name="scircumflex" unicode="&#x15d;" horiz-adv-x="831" 
d="M502 1448l254 -315h-154l-178 221l-178 -221h-154l254 315h156zM430 -31q-106 0 -208 29.5t-183 81.5l72 131q157 -102 325 -102q94 0 141.5 33t47.5 91q0 45 -31.5 78.5t-97.5 63.5l-177 84q-204 94 -204 264q0 122 87 188t238 66q159 0 320 -74l-64 -131
q-139 66 -260 66q-164 0 -164 -109q0 -45 32 -77t104 -66l172 -80q99 -47 150.5 -109t51.5 -157q0 -132 -94 -201.5t-258 -69.5z" />
    <glyph glyph-name="Scedilla" unicode="&#x15e;" horiz-adv-x="1017" 
d="M936 354q0 -176 -108.5 -275t-292.5 -108l-21 -55q65 -17 104 -48.5t39 -94.5q0 -21 -7.5 -40t-18 -33.5t-32.5 -31t-38 -27t-48.5 -26t-51.5 -24t-58 -25.5l-22 49q90 43 131 72.5t41 60.5q0 36 -30.5 54t-104.5 34l49 133q-230 6 -428 131l76 148q191 -119 377 -119
q136 0 206 60.5t70 154.5q0 72 -43 132t-143 134l-234 176q-103 77 -157 158t-54 191q0 153 101.5 241t285.5 88q178 0 365 -90l-74 -151q-149 82 -293 82q-106 0 -160.5 -44t-54.5 -120q0 -66 37.5 -113.5t116.5 -105.5l235 -174q122 -89 181 -180t59 -214z" />
    <glyph glyph-name="scedilla" unicode="&#x15f;" horiz-adv-x="831" 
d="M782 240q0 -129 -91 -198.5t-247 -72.5l-20 -53q65 -17 104 -48.5t39 -94.5q0 -21 -7.5 -40t-18 -33.5t-32.5 -31t-38 -27t-48.5 -26t-51.5 -24t-58 -25.5l-22 49q90 43 131 72.5t41 60.5q0 36 -30.5 54t-104.5 34l51 135q-185 12 -340 109l72 131q157 -102 325 -102
q94 0 141.5 33t47.5 91q0 45 -31.5 78.5t-97.5 63.5l-177 84q-204 94 -204 264q0 122 87 188t238 66q159 0 320 -74l-64 -131q-139 66 -260 66q-164 0 -164 -109q0 -45 32 -77t104 -66l172 -80q99 -47 150.5 -109t51.5 -157z" />
    <glyph glyph-name="Scaron" unicode="&#x160;" horiz-adv-x="1017" 
d="M604 1522h-155l-250 245h157l170 -165l172 165h158zM524 1464q178 0 365 -90l-74 -151q-149 82 -293 82q-106 0 -160.5 -44t-54.5 -120q0 -66 37.5 -113.5t116.5 -105.5l235 -174q122 -89 181 -180t59 -214q0 -186 -121 -285.5t-323 -99.5q-121 0 -240.5 35.5
t-212.5 95.5l76 148q191 -119 377 -119q136 0 206 60.5t70 154.5q0 72 -43 132t-143 134l-234 176q-103 77 -157 158t-54 191q0 153 101.5 241t285.5 88z" />
    <glyph glyph-name="scaron" unicode="&#x161;" horiz-adv-x="831" 
d="M764 1434l-262 -316h-158l-262 316h154l186 -222l186 222h156zM430 -31q-106 0 -208 29.5t-183 81.5l72 131q157 -102 325 -102q94 0 141.5 33t47.5 91q0 45 -31.5 78.5t-97.5 63.5l-177 84q-204 94 -204 264q0 122 87 188t238 66q159 0 320 -74l-64 -131
q-139 66 -260 66q-164 0 -164 -109q0 -45 32 -77t104 -66l172 -80q99 -47 150.5 -109t51.5 -157q0 -132 -94 -201.5t-258 -69.5z" />
    <glyph glyph-name="uni0162" unicode="&#x162;" horiz-adv-x="1054" 
d="M606 0h-39l-30 -84q65 -17 104 -48.5t39 -94.5q0 -21 -7.5 -40t-18 -33.5t-32.5 -31t-38 -27t-48.5 -26t-51.5 -24t-58 -25.5l-23 49q90 43 131 72.5t41 60.5q0 36 -30.5 54t-104.5 34l62 164h-53v1284h-429v150h1014v-150h-428v-1284z" />
    <glyph glyph-name="uni0163" unicode="&#x163;" horiz-adv-x="626" 
d="M578 819h-209v-559q0 -125 118 -125h52v-137h-78h-10l-31 -84q65 -17 104 -48.5t39 -94.5q0 -21 -7.5 -40t-18 -33.5t-32.5 -31t-38 -27t-48.5 -26t-51.5 -24t-58 -25.5l-22 49q90 43 131 72.5t41 60.5q0 36 -30.5 54t-104.5 34l63 170q-166 40 -166 227v588h-182v127
h182v379h148v-379h209v-127z" />
    <glyph glyph-name="Tcaron" unicode="&#x164;" horiz-adv-x="1054" 
d="M604 1522h-155l-250 245h157l170 -165l172 165h158zM1034 1434v-150h-428v-1284h-157v1284h-429v150h1014z" />
    <glyph glyph-name="tcaron" unicode="&#x165;" horiz-adv-x="747" 
d="M522 1464h187v-186l-146 -250h-63l92 250h-70v186zM369 1325v-379h209v-127h-209v-559q0 -125 118 -125h52v-137h-78q-114 0 -177 59.5t-63 173.5v588h-182v127h182v379h148z" />
    <glyph glyph-name="Tbar" unicode="&#x166;" horiz-adv-x="1054" 
d="M1034 1284h-428v-338h293v-131h-293v-815h-157v815h-285v131h285v338h-429v150h1014v-150z" />
    <glyph glyph-name="tbar" unicode="&#x167;" horiz-adv-x="618" 
d="M578 819h-209v-170h202v-106h-202v-283q0 -125 118 -125h52v-137h-78q-114 0 -177 59.5t-63 173.5v312h-176v106h176v170h-182v127h182v379h148v-379h209v-127z" />
    <glyph glyph-name="Utilde" unicode="&#x168;" horiz-adv-x="1411" 
d="M879 1530q-60 0 -176 54t-156 54q-72 0 -111 -96l-67 23q58 192 196 192q59 0 176 -53t156 -53q71 0 111 94l67 -21q-58 -194 -196 -194zM1270 1434v-895q0 -260 -150.5 -415t-414.5 -155q-263 0 -414.5 155.5t-151.5 414.5v895h168v-883q0 -195 109 -306.5t289 -111.5
q181 0 290 111.5t109 306.5v883h166z" />
    <glyph glyph-name="utilde" unicode="&#x169;" horiz-adv-x="1077" 
d="M391 1430q48 0 110 -29t119 -57.5t91 -28.5q66 0 108 96l70 -22q-22 -85 -69 -141t-124 -56q-38 0 -85.5 17.5t-85 39t-79 39t-69.5 17.5q-67 0 -109 -95l-71 21q22 85 69.5 142t124.5 57zM473 -31q-157 0 -254.5 99.5t-97.5 306.5v571h149v-563q0 -137 65 -203.5
t175 -66.5q131 0 210 95.5t79 309.5v428h147v-946h-147v176h-4q-40 -92 -119 -149.5t-203 -57.5z" />
    <glyph glyph-name="Umacron" unicode="&#x16a;" horiz-adv-x="1411" 
d="M993 1698v-115h-577v115h577zM1270 1434v-895q0 -260 -150.5 -415t-414.5 -155q-263 0 -414.5 155.5t-151.5 414.5v895h168v-883q0 -195 109 -306.5t289 -111.5q181 0 290 111.5t109 306.5v883h166z" />
    <glyph glyph-name="umacron" unicode="&#x16b;" horiz-adv-x="1077" 
d="M823 1346v-115h-577v115h577zM473 -31q-157 0 -254.5 99.5t-97.5 306.5v571h149v-563q0 -137 65 -203.5t175 -66.5q131 0 210 95.5t79 309.5v428h147v-946h-147v176h-4q-40 -92 -119 -149.5t-203 -57.5z" />
    <glyph glyph-name="Ubreve" unicode="&#x16c;" horiz-adv-x="1411" 
d="M983 1767q-4 -116 -79.5 -180.5t-198.5 -64.5t-199 65t-80 180h109q4 -69 48.5 -106t121.5 -37t121 37t48 106h109zM1270 1434v-895q0 -260 -150.5 -415t-414.5 -155q-263 0 -414.5 155.5t-151.5 414.5v895h168v-883q0 -195 109 -306.5t289 -111.5q181 0 290 111.5
t109 306.5v883h166z" />
    <glyph glyph-name="ubreve" unicode="&#x16d;" horiz-adv-x="1077" 
d="M815 1434q0 -134 -77 -210.5t-201 -76.5t-201.5 76.5t-77.5 210.5h111q3 -83 48 -131t120 -48t120 48t48 131h110zM473 -31q-157 0 -254.5 99.5t-97.5 306.5v571h149v-563q0 -137 65 -203.5t175 -66.5q131 0 210 95.5t79 309.5v428h147v-946h-147v176h-4
q-40 -92 -119 -149.5t-203 -57.5z" />
    <glyph glyph-name="Uring" unicode="&#x16e;" horiz-adv-x="1411" 
d="M707 1823q103 0 169 -66.5t66 -169.5q0 -101 -66 -167t-169 -66t-170.5 66t-67.5 167q0 103 67.5 169.5t170.5 66.5zM705 1743q-67 0 -109.5 -43.5t-42.5 -112.5q0 -66 42.5 -109.5t109.5 -43.5q68 0 110.5 43t42.5 110q0 69 -42 112.5t-111 43.5zM1270 1434v-895
q0 -260 -150.5 -415t-414.5 -155q-263 0 -414.5 155.5t-151.5 414.5v895h168v-883q0 -195 109 -306.5t289 -111.5q181 0 290 111.5t109 306.5v883h166z" />
    <glyph glyph-name="uring" unicode="&#x16f;" horiz-adv-x="1077" 
d="M537 1530q106 0 174.5 -68t68.5 -172t-68.5 -171.5t-174.5 -67.5t-175 67.5t-69 171.5t69 172t175 68zM537 1450q-72 0 -116 -44.5t-44 -115.5t44 -115.5t116 -44.5t115.5 44.5t43.5 115.5t-43.5 115.5t-115.5 44.5zM473 -31q-157 0 -254.5 99.5t-97.5 306.5v571h149
v-563q0 -137 65 -203.5t175 -66.5q131 0 210 95.5t79 309.5v428h147v-946h-147v176h-4q-40 -92 -119 -149.5t-203 -57.5z" />
    <glyph glyph-name="Uhungarumlaut" unicode="&#x170;" horiz-adv-x="1411" 
d="M870 1767l-211 -245h-112l180 245h143zM1090 1767l-211 -245h-113l180 245h144zM1270 1434v-895q0 -260 -150.5 -415t-414.5 -155q-263 0 -414.5 155.5t-151.5 414.5v895h168v-883q0 -195 109 -306.5t289 -111.5q181 0 290 111.5t109 306.5v883h166z" />
    <glyph glyph-name="uhungarumlaut" unicode="&#x171;" horiz-adv-x="1077" 
d="M729 1448l-244 -315h-112l213 315h143zM956 1448l-243 -315h-113l213 315h143zM473 -31q-157 0 -254.5 99.5t-97.5 306.5v571h149v-563q0 -137 65 -203.5t175 -66.5q131 0 210 95.5t79 309.5v428h147v-946h-147v176h-4q-40 -92 -119 -149.5t-203 -57.5z" />
    <glyph glyph-name="Uogonek" unicode="&#x172;" horiz-adv-x="1411" 
d="M1104 1434h166v-895q0 -238 -127.5 -389.5t-354.5 -176.5q-126 -117 -126 -190q0 -30 23 -44.5t58 -14.5q40 0 91 14l16 -100q-64 -21 -133 -21q-76 0 -126 37t-50 108q0 102 121 209q-244 12 -383.5 166t-139.5 402v895h168v-883q0 -195 109 -306.5t289 -111.5
q181 0 290 111.5t109 306.5v883z" />
    <glyph glyph-name="uogonek" unicode="&#x173;" horiz-adv-x="1077" 
d="M870 0q-155 -137 -155 -217q0 -30 23 -44.5t59 -14.5q39 0 90 14l16 -100q-65 -21 -133 -21q-76 0 -126 37t-50 108q0 131 205 273v141h-4q-40 -92 -119 -149.5t-203 -57.5q-157 0 -254.5 99.5t-97.5 306.5v571h149v-563q0 -137 65 -203.5t175 -66.5q131 0 210 95.5
t79 309.5v428h147v-946h-76z" />
    <glyph glyph-name="Wcircumflex" unicode="&#x174;" horiz-adv-x="1992" 
d="M1075 1767l252 -245h-158l-172 166l-170 -166h-157l250 245h155zM1962 1434l-434 -1434h-158l-371 1169h-6l-370 -1169h-158l-434 1434h176l334 -1180h4l368 1180h164l371 -1180h4l332 1180h178z" />
    <glyph glyph-name="wcircumflex" unicode="&#x175;" horiz-adv-x="1472" 
d="M735 1354l-178 -221h-154l254 315h156l254 -315h-154zM1294 946h164l-319 -946h-142l-262 754l-262 -754h-139l-320 946h162l230 -756l256 756h149l256 -756z" />
    <glyph glyph-name="Ycircumflex" unicode="&#x176;" horiz-adv-x="1093" 
d="M547 1688l-170 -166h-158l250 245h156l252 -245h-158zM1085 1434l-458 -873v-561h-160v561l-459 873h185l352 -703h4l352 703h184z" />
    <glyph glyph-name="ycircumflex" unicode="&#x177;" horiz-adv-x="956" 
d="M483 1354l-178 -221h-153l254 315h155l254 -315h-153zM778 946h164l-618 -1356h-158l242 508l-394 848h174l295 -680z" />
    <glyph glyph-name="Ydieresis" unicode="&#x178;" horiz-adv-x="1093" 
d="M428 1726v-204h-170v204h170zM836 1726v-204h-170v204h170zM1085 1434l-458 -873v-561h-160v561l-459 873h185l352 -703h4l352 703h184z" />
    <glyph glyph-name="Zacute" unicode="&#x179;" horiz-adv-x="1101" 
d="M901 1767l-274 -245h-119l194 245h199zM227 150h834v-150h-1020v150l807 1134h-735v150h923v-150z" />
    <glyph glyph-name="zacute" unicode="&#x17a;" horiz-adv-x="903" 
d="M799 1448l-271 -315h-122l194 315h199zM236 139h612v-139h-793v131l572 678h-539v137h719v-131z" />
    <glyph glyph-name="Zdotaccent" unicode="&#x17b;" horiz-adv-x="1101" 
d="M655 1741v-219h-170v219h170zM227 150h834v-150h-1020v150l807 1134h-735v150h923v-150z" />
    <glyph glyph-name="zdotaccent" unicode="&#x17c;" horiz-adv-x="903" 
d="M559 1413v-246h-186v246h186zM236 139h612v-139h-793v131l572 678h-539v137h719v-131z" />
    <glyph glyph-name="Zcaron" unicode="&#x17d;" horiz-adv-x="1101" 
d="M649 1522h-155l-250 245h157l170 -165l172 165h158zM227 150h834v-150h-1020v150l807 1134h-735v150h923v-150z" />
    <glyph glyph-name="zcaron" unicode="&#x17e;" horiz-adv-x="903" 
d="M545 1118h-158l-262 316h154l186 -222l186 222h156zM236 139h612v-139h-793v131l572 678h-539v137h719v-131z" />
    <glyph glyph-name="florin" unicode="&#x192;" horiz-adv-x="802" 
d="M668 1247q-207 0 -207 -225v-76h289v-61h-289v-942q0 -170 -81.5 -261.5t-250.5 -91.5h-88v138h86q186 0 186 200v957h-233v61h233v64q0 188 91 280t258 92h88v-135h-82z" />
    <glyph glyph-name="AEacute" unicode="&#x1fc;" horiz-adv-x="1898" 
d="M1716 1767l-274 -245h-119l195 245h198zM1210 150h592v-150h-669h-78v383h-588l-254 -383h-199l963 1434h233h582v-150h-582v-412h531v-147h-531v-575zM563 528h492v744z" />
    <glyph glyph-name="aeacute" unicode="&#x1fd;" horiz-adv-x="1746" 
d="M1204 1448l-270 -315h-123l195 315h198zM420 -31q-168 0 -277.5 93t-109.5 247q0 150 106 243t277 93q106 0 191.5 -40t133.5 -118h4v107q0 248 -268 248q-127 0 -313 -47l-31 135q180 47 352 47q290 0 353 -219h4q51 101 153.5 160t237.5 59q142 0 245 -66.5t153 -177.5
t50 -254v-26h-782q5 -152 94 -246t244 -94q62 0 114 16t92 46t64.5 55.5t53.5 62.5l102 -94q-29 -43 -64.5 -79t-87 -72.5t-121.5 -57.5t-149 -21q-150 0 -261.5 70.5t-158.5 185.5h-4q-43 -122 -149.5 -189t-247.5 -67zM907 565h613q-8 125 -88 200t-211 75
q-124 0 -210 -72t-104 -203zM449 100q125 0 203.5 60t78.5 149q0 94 -82 150.5t-203 56.5t-189.5 -58.5t-68.5 -150.5q0 -94 69 -150.5t192 -56.5z" />
    <glyph glyph-name="Oslashacute" unicode="&#x1fe;" horiz-adv-x="1646" 
d="M1153 1767l-274 -245h-119l194 245h199zM1296 1309q130 -100 202.5 -253t72.5 -339q0 -216 -98 -387.5t-268.5 -266t-381.5 -94.5q-227 0 -411 113l-80 -111l-62 37l82 115q-130 102 -203 255t-73 339q0 162 57 302t156.5 237t237.5 152.5t296 55.5q234 0 414 -114
l82 112l59 -37zM248 717q0 -143 53 -261.5t148 -197.5l692 959q-136 88 -318 88q-124 0 -231 -44t-182.5 -121.5t-118.5 -186.5t-43 -236zM823 129q253 0 414.5 165.5t161.5 422.5q0 143 -52.5 261.5t-148.5 197.5l-690 -961q138 -86 315 -86z" />
    <glyph glyph-name="oslashacute" unicode="&#x1ff;" horiz-adv-x="1155" 
d="M913 1448l-270 -315h-123l195 315h198zM940 840q71 -67 110.5 -161.5t39.5 -205.5q0 -220 -144.5 -362t-367.5 -142q-182 0 -314 99l-84 -97l-51 43l84 95q-147 144 -147 364q0 219 145 361.5t367 142.5q175 0 309 -94l82 94l51 -45zM221 473q0 -150 90 -250l477 547
q-85 61 -210 61q-156 0 -256.5 -98.5t-100.5 -259.5zM578 115q156 0 256 98.5t100 259.5q0 154 -94 254l-478 -547q86 -65 216 -65z" />
    <glyph glyph-name="Scommaaccent" unicode="&#x218;" horiz-adv-x="1017" 
d="M696 748q122 -89 181 -180t59 -214q0 -186 -121 -285.5t-323 -99.5q-121 0 -240.5 35.5t-212.5 95.5l76 148q191 -119 377 -119q136 0 206 60.5t70 154.5q0 72 -43 132t-143 134l-234 176q-103 77 -157 158t-54 191q0 153 101.5 241t285.5 88q178 0 365 -90l-74 -151
q-149 82 -293 82q-106 0 -160.5 -44t-54.5 -120q0 -66 37.5 -113.5t116.5 -105.5zM412 -264v168h180v-168l-127 -158h-64l80 158h-69z" />
    <glyph glyph-name="scommaaccent" unicode="&#x219;" horiz-adv-x="831" 
d="M580 506q99 -47 150.5 -109t51.5 -157q0 -132 -94 -201.5t-258 -69.5q-106 0 -208 29.5t-183 81.5l72 131q157 -102 325 -102q94 0 141.5 33t47.5 91q0 45 -31.5 78.5t-97.5 63.5l-177 84q-204 94 -204 264q0 122 87 188t238 66q159 0 320 -74l-64 -131q-139 66 -260 66
q-164 0 -164 -109q0 -45 32 -77t104 -66zM322 -264v168h180v-168l-127 -158h-64l80 158h-69z" />
    <glyph glyph-name="uni021A" unicode="&#x21a;" horiz-adv-x="1054" 
d="M20 1434h1014v-150h-428v-1284h-157v1284h-429v150zM436 -264v168h180v-168l-127 -158h-63l80 158h-70z" />
    <glyph glyph-name="uni021B" unicode="&#x21b;" horiz-adv-x="626" 
d="M578 819h-209v-559q0 -125 118 -125h52v-137h-78q-114 0 -177 59.5t-63 173.5v588h-182v127h182v379h148v-379h209v-127zM317 -266v168h181v-168l-127 -158h-64l80 158h-70z" />
    <glyph glyph-name="uni0237" unicode="&#x237;" horiz-adv-x="413" 
d="M-51 -283h47q72 0 104.5 39.5t32.5 128.5v1061h148v-1073q0 -142 -68.5 -215.5t-198.5 -73.5h-65v133z" />
    <glyph glyph-name="uni02BC" unicode="&#x2bc;" horiz-adv-x="342" 
d="M94 1464h187v-186l-146 -297h-63l108 297h-86v186z" />
    <glyph glyph-name="circumflex" unicode="&#x2c6;" horiz-adv-x="868" 
d="M512 1448l254 -315h-154l-178 221l-178 -221h-154l254 315h156z" />
    <glyph glyph-name="caron" unicode="&#x2c7;" horiz-adv-x="886" 
d="M784 1434l-262 -316h-157l-263 316h154l186 -222l187 222h155z" />
    <glyph glyph-name="breve" unicode="&#x2d8;" horiz-adv-x="761" 
d="M659 1434q0 -134 -77 -210.5t-201 -76.5t-201.5 76.5t-77.5 210.5h111q3 -83 48 -131t120 -48t120 48t48 131h110z" />
    <glyph glyph-name="dotaccent" unicode="&#x2d9;" horiz-adv-x="391" 
d="M289 1413v-246h-187v246h187z" />
    <glyph glyph-name="ring" unicode="&#x2da;" horiz-adv-x="692" 
d="M346 1530q106 0 175 -68t69 -172t-69 -171.5t-175 -67.5t-175 67.5t-69 171.5t69 172t175 68zM346 1450q-72 0 -116 -44.5t-44 -115.5t44 -115.5t116 -44.5t116 44.5t44 115.5t-44 115.5t-116 44.5z" />
    <glyph glyph-name="ogonek" unicode="&#x2db;" horiz-adv-x="518" 
d="M332 51l74 -28q-183 -151 -183 -240q0 -30 23 -44.5t59 -14.5q39 0 90 14l17 -100q-65 -21 -133 -21q-76 0 -126.5 37t-50.5 108q0 140 230 289z" />
    <glyph glyph-name="tilde" unicode="&#x2dc;" horiz-adv-x="897" 
d="M297 1430q48 0 110 -29t118.5 -57.5t90.5 -28.5q67 0 109 96l70 -22q-22 -85 -69 -141t-124 -56q-38 0 -85.5 17.5t-85 39t-79 39t-69.5 17.5q-67 0 -109 -95l-72 21q22 85 70 142t125 57z" />
    <glyph glyph-name="hungarumlaut" unicode="&#x2dd;" horiz-adv-x="788" 
d="M459 1448l-244 -315h-113l213 315h144zM686 1448l-244 -315h-112l213 315h143z" />
    <glyph glyph-name="gravecomb" unicode="&#x300;" horiz-adv-x="0" 
d="M-295 1448l193 -315h-121l-273 315h201z" />
    <glyph glyph-name="acutecomb" unicode="&#x301;" horiz-adv-x="0" 
d="M-102 1448l-271 -315h-123l195 315h199z" />
    <glyph glyph-name="uni0302" unicode="&#x302;" horiz-adv-x="0" 
d="M-356 1448l254 -315h-154l-178 221l-178 -221h-154l254 315h156z" />
    <glyph glyph-name="tildecomb" unicode="&#x303;" horiz-adv-x="0" 
d="M-600 1430q48 0 110 -29t118.5 -57.5t90.5 -28.5q67 0 109 96l70 -22q-22 -85 -69 -141t-124 -56q-38 0 -85.5 17.5t-85 39t-79 39t-69.5 17.5q-67 0 -109 -95l-72 21q22 85 70 142t125 57z" />
    <glyph glyph-name="uni0304" unicode="&#x304;" horiz-adv-x="0" 
d="M-102 1346v-115h-578v115h578z" />
    <glyph glyph-name="uni0306" unicode="&#x306;" horiz-adv-x="0" 
d="M-102 1434q0 -134 -77.5 -210.5t-201.5 -76.5t-201 76.5t-77 210.5h110q3 -83 48 -131t120 -48t120 48t48 131h111z" />
    <glyph glyph-name="uni0307" unicode="&#x307;" horiz-adv-x="0" 
d="M-102 1413v-246h-187v246h187z" />
    <glyph glyph-name="uni0308" unicode="&#x308;" horiz-adv-x="0" 
d="M-483 1413v-237h-164v237h164zM-102 1413v-237h-164v237h164z" />
    <glyph glyph-name="uni030A" unicode="&#x30a;" horiz-adv-x="0" 
d="M-346 1530q106 0 175 -68t69 -172t-69 -171.5t-175 -67.5t-175 67.5t-69 171.5t69 172t175 68zM-346 1450q-72 0 -116 -44.5t-44 -115.5t44 -115.5t116 -44.5t116 44.5t44 115.5t-44 115.5t-116 44.5z" />
    <glyph glyph-name="uni030B" unicode="&#x30b;" horiz-adv-x="0" 
d="M-330 1448l-243 -315h-113l213 315h143zM-102 1448l-244 -315h-113l213 315h144z" />
    <glyph glyph-name="uni030C" unicode="&#x30c;" horiz-adv-x="0" 
d="M-102 1434l-263 -316h-157l-262 316h153l187 -222l186 222h156z" />
    <glyph glyph-name="uni0326" unicode="&#x326;" horiz-adv-x="0" 
d="M-283 -96h181v-168l-127 -158h-64l80 158h-70v168z" />
    <glyph glyph-name="uni0327" unicode="&#x327;" horiz-adv-x="0" 
d="M-201 39l-45 -123q65 -17 104.5 -48.5t39.5 -94.5q0 -21 -7.5 -40t-18 -33.5t-32.5 -31t-38 -27t-48.5 -26t-51.5 -24t-58 -25.5l-23 49q90 43 131 72.5t41 60.5q0 36 -30.5 54t-104.5 34l76 203h65z" />
    <glyph glyph-name="uni0328" unicode="&#x328;" horiz-adv-x="0" 
d="M-186 51l73 -28q-182 -150 -182 -240q0 -30 23 -44.5t59 -14.5q39 0 90 14l17 -100q-64 -21 -134 -21q-76 0 -126 37t-50 108q0 140 230 289z" />
    <glyph glyph-name="uni0394" unicode="&#x394;" horiz-adv-x="1286" 
d="M715 1434l530 -1434h-1204l530 1434h144zM643 1245l-416 -1175h832z" />
    <glyph glyph-name="uni03A9" unicode="&#x3a9;" horiz-adv-x="1581" 
d="M791 1464q161 0 295.5 -51t226 -142t142 -217t50.5 -274q0 -244 -137 -410.5t-356 -222.5v-6h454v-141h-594v219q224 43 354 192t130 363q0 246 -152 397.5t-413 151.5q-262 0 -414 -152t-152 -397q0 -214 130 -363t354 -192v-219h-596v141h456v6q-219 56 -356 222.5
t-137 410.5q0 148 50.5 274t141.5 217t226 142t297 51z" />
    <glyph glyph-name="uni03BC" unicode="&#x3bc;" horiz-adv-x="1077" 
d="M799 946h147v-946h-147v176h-4q-40 -92 -119 -149.5t-203 -57.5q-130 0 -219 66v-445h-133v1115v241h149v-563q0 -137 65 -203.5t175 -66.5q131 0 210 95.5t79 309.5v428z" />
    <glyph glyph-name="pi" unicode="&#x3c0;" horiz-adv-x="1234" 
d="M1174 977v-141h-226v-836h-139v836h-326l-196 -836h-142l199 836q-165 -3 -283 -41v141q118 41 283 41h830z" />
    <glyph glyph-name="uni0401" unicode="&#x401;" horiz-adv-x="1060" 
d="M473 1726v-204h-170v204h170zM881 1726v-204h-170v204h170zM309 150h656v-150h-813v1434h802v-150h-645v-412h594v-147h-594v-575z" />
    <glyph glyph-name="uni0402" unicode="&#x402;" horiz-adv-x="1427" 
d="M971 846q206 0 308.5 -78t102.5 -264v-129q0 -375 -372 -375h-162v150h139q126 0 182 52.5t56 176.5v123q0 108 -66.5 151t-202.5 43q-151 0 -387 -18v-678h-157v1284h-392v150h1094v-150h-545v-459q258 21 402 21z" />
    <glyph glyph-name="uni0403" unicode="&#x403;" horiz-adv-x="976" 
d="M887 1767l-275 -245h-118l194 245h199zM956 1434v-150h-647v-1284h-157v1434h804z" />
    <glyph glyph-name="uni0404" unicode="&#x404;" horiz-adv-x="1396" 
d="M797 127q245 0 456 147l84 -137q-245 -168 -540 -168q-161 0 -294 51.5t-227.5 146.5t-147 236t-52.5 314t52.5 314t147 236t227.5 146t294 51q295 0 540 -168l-84 -137q-213 148 -456 148q-227 0 -374 -131t-173 -365h692v-147h-694q15 -252 164 -394.5t385 -142.5z" />
    <glyph glyph-name="uni0405" unicode="&#x405;" horiz-adv-x="1017" 
d="M524 1464q178 0 365 -90l-74 -151q-149 82 -293 82q-106 0 -160.5 -44t-54.5 -120q0 -66 37.5 -113.5t116.5 -105.5l235 -174q122 -89 181 -180t59 -214q0 -186 -121 -285.5t-323 -99.5q-121 0 -240.5 35.5t-212.5 95.5l76 148q191 -119 377 -119q136 0 206 60.5
t70 154.5q0 72 -43 132t-143 134l-234 176q-103 77 -157 158t-54 191q0 153 101.5 241t285.5 88z" />
    <glyph glyph-name="uni0406" unicode="&#x406;" horiz-adv-x="464" 
d="M311 1434v-1434h-159v1434h159z" />
    <glyph glyph-name="uni0407" unicode="&#x407;" horiz-adv-x="464" 
d="M113 1726v-204h-170v204h170zM520 1726v-204h-170v204h170zM311 1434v-1434h-159v1434h159z" />
    <glyph glyph-name="uni0408" unicode="&#x408;" horiz-adv-x="552" 
d="M401 1434v-1094q0 -180 -73.5 -265t-227.5 -85h-65v153h51q81 0 119.5 44t38.5 153v1094h157z" />
    <glyph glyph-name="uni0409" unicode="&#x409;" horiz-adv-x="2129" 
d="M1647 834q198 0 320 -111t122 -307q0 -194 -122 -305t-320 -111h-500v1284h-709v-944q0 -180 -73.5 -265t-227.5 -85h-102v153h88q81 0 119.5 44t38.5 153v1094h1024v-600h342zM1626 150q143 0 219 71.5t76 194.5q0 124 -76 196t-219 72h-321v-534h321z" />
    <glyph glyph-name="uni040A" unicode="&#x40a;" horiz-adv-x="2086" 
d="M1602 834q198 0 321 -111.5t123 -306.5q0 -194 -123 -305t-321 -111h-500v684h-793v-684h-157v1434h157v-600h793v600h158v-600h342zM1581 150q143 0 219 71.5t76 194.5q0 124 -76 196t-219 72h-321v-534h321z" />
    <glyph glyph-name="uni040B" unicode="&#x40b;" horiz-adv-x="1427" 
d="M1018 825q184 0 274 -85.5t90 -260.5v-479h-157v477q0 106 -55 152.5t-175 46.5h-426v-676h-157v1284h-392v150h549h545v-150h-545v-459h449z" />
    <glyph glyph-name="uni040C" unicode="&#x40c;" horiz-adv-x="1253" 
d="M944 1767l-274 -245h-119l194 245h199zM1239 0h-235l-695 731v-731h-157v1434h157v-648l615 648h223l-655 -664z" />
    <glyph glyph-name="uni040E" unicode="&#x40e;" horiz-adv-x="1224" 
d="M621 1489q-127 0 -202.5 74t-76.5 204h109q0 -86 44 -133t126 -47t126 47t44 133h108q-1 -130 -76 -204t-202 -74zM1047 1434h170l-676 -1434h-168l174 371l-539 1063h185l438 -885z" />
    <glyph glyph-name="uni040F" unicode="&#x40f;" horiz-adv-x="1423" 
d="M1272 1434v-1434h-486v-287h-149v287h-485v1434h157v-1284h805v1284h158z" />
    <glyph glyph-name="uni0410" unicode="&#x410;" horiz-adv-x="1349" 
d="M1163 0l-151 383h-674l-152 -383h-172l586 1434h150l583 -1434h-170zM395 528h559l-280 707z" />
    <glyph glyph-name="uni0411" unicode="&#x411;" horiz-adv-x="1181" 
d="M672 834q199 0 321.5 -111t122.5 -307q0 -194 -122.5 -305t-321.5 -111h-520v1434h157h742v-150h-742v-450h363zM651 150q144 0 219.5 71.5t75.5 194.5q0 125 -75.5 196.5t-219.5 71.5h-342v-534h342z" />
    <glyph glyph-name="uni0412" unicode="&#x412;" horiz-adv-x="1251" 
d="M854 762q144 -19 227.5 -114t83.5 -245q0 -97 -36 -174.5t-98 -127t-142.5 -75.5t-173.5 -26h-563v1434h507q192 0 307 -96t115 -263q0 -115 -59.5 -197.5t-167.5 -111.5v-4zM625 1284h-316v-465h307q293 0 293 230q0 235 -284 235zM688 150q144 0 225.5 71.5t81.5 192.5
q0 120 -84 190t-239 70h-363v-524h379z" />
    <glyph glyph-name="uni0413" unicode="&#x413;" horiz-adv-x="976" 
d="M956 1434v-150h-647v-1284h-157v1434h804z" />
    <glyph glyph-name="uni0414" unicode="&#x414;" horiz-adv-x="1363" 
d="M1161 131h133v-418h-147v269h-975v-269h-149v418h137q76 165 104.5 323.5t28.5 379.5v600h868v-1303zM451 838q0 -214 -26 -376t-93 -331h672v1153h-553v-446z" />
    <glyph glyph-name="uni0415" unicode="&#x415;" horiz-adv-x="1060" 
d="M309 150h656v-150h-813v1434h802v-150h-645v-412h594v-147h-594v-575z" />
    <glyph glyph-name="uni0416" unicode="&#x416;" horiz-adv-x="1888" 
d="M1874 0h-223l-629 735v-735h-156v735l-628 -735h-224l674 760l-573 674h217l534 -660v660h156v-660l534 660h218l-574 -674z" />
    <glyph glyph-name="uni0417" unicode="&#x417;" horiz-adv-x="1193" 
d="M596 1464q225 0 341 -93.5t116 -260.5q0 -136 -79.5 -222t-232.5 -120v-2q77 -8 140.5 -32.5t115.5 -68.5t81.5 -115.5t29.5 -164.5q0 -190 -133.5 -303t-403.5 -113q-279 0 -512 135l76 146q215 -127 443 -127q173 0 269.5 66t96.5 202q0 152 -116.5 221.5t-348.5 69.5
h-157v149h155q192 0 302 66.5t110 194.5q0 106 -80.5 162.5t-228.5 56.5q-214 0 -430 -121l-72 141q102 59 237 96t281 37z" />
    <glyph glyph-name="uni0418" unicode="&#x418;" horiz-adv-x="1421" 
d="M152 1434h157v-1174h4l787 1174h168v-1434h-158v1174h-4l-787 -1174h-167v1434z" />
    <glyph glyph-name="uni0419" unicode="&#x419;" horiz-adv-x="1421" 
d="M987 1767q-1 -130 -76 -204t-202 -74t-202.5 74t-76.5 204h109q0 -86 44 -133t126 -47t126 47t44 133h108zM152 1434h157v-1174h4l787 1174h168v-1434h-158v1174h-4l-787 -1174h-167v1434z" />
    <glyph glyph-name="uni041A" unicode="&#x41a;" horiz-adv-x="1253" 
d="M1239 0h-235l-695 731v-731h-157v1434h157v-648l615 648h223l-655 -664z" />
    <glyph glyph-name="uni041B" unicode="&#x41b;" horiz-adv-x="1439" 
d="M1288 1434v-1434h-158v1284h-708v-944q0 -180 -73.5 -265t-227.5 -85h-86v153h71q81 0 119.5 44t38.5 153v1094h1024z" />
    <glyph glyph-name="uni041C" unicode="&#x41c;" horiz-adv-x="1728" 
d="M1364 1434l350 -1434h-168l-266 1128h-4l-350 -899h-123l-350 899h-4l-267 -1128h-168l351 1434h131l366 -959h4l367 959h131z" />
    <glyph glyph-name="uni041D" unicode="&#x41d;" horiz-adv-x="1437" 
d="M1128 1434h158v-1434h-158v686h-819v-686h-157v1434h157v-596h819v596z" />
    <glyph glyph-name="uni041E" unicode="&#x41e;" horiz-adv-x="1646" 
d="M823 1464q211 0 381.5 -94t268.5 -265.5t98 -387.5t-98 -387.5t-268.5 -266t-381.5 -94.5t-381.5 94.5t-268 266t-97.5 387.5q0 162 57 302t156.5 237t237.5 152.5t296 55.5zM823 1305q-124 0 -231 -44t-182.5 -121.5t-118.5 -186.5t-43 -236t43 -236t118.5 -186.5
t182.5 -121.5t231 -44q253 0 414.5 165.5t161.5 422.5t-161.5 422.5t-414.5 165.5z" />
    <glyph glyph-name="uni041F" unicode="&#x41f;" horiz-adv-x="1425" 
d="M1274 1434v-1434h-158v1284h-807v-1284h-157v1434h1122z" />
    <glyph glyph-name="uni0420" unicode="&#x420;" horiz-adv-x="1110" 
d="M635 1434q200 0 316 -118.5t116 -305.5q0 -185 -116.5 -303.5t-315.5 -118.5h-326v-588h-157v1434h483zM618 737q127 0 203 71t76 202q0 132 -75.5 203t-203.5 71h-309v-547h309z" />
    <glyph glyph-name="uni0421" unicode="&#x421;" horiz-adv-x="1402" 
d="M842 -31q-170 0 -313 54.5t-242.5 152.5t-155 237t-55.5 304t55.5 304t155 236.5t242.5 152t313 54.5q282 0 499 -161l-96 -138q-184 140 -407 140q-260 0 -425 -163t-165 -425t165 -425t425 -163q224 0 407 139l96 -137q-219 -162 -499 -162z" />
    <glyph glyph-name="uni0422" unicode="&#x422;" horiz-adv-x="1054" 
d="M1034 1434v-150h-428v-1284h-157v1284h-429v150h1014z" />
    <glyph glyph-name="uni0423" unicode="&#x423;" horiz-adv-x="1224" 
d="M1047 1434h170l-676 -1434h-168l174 371l-539 1063h185l438 -885z" />
    <glyph glyph-name="uni0424" unicode="&#x424;" horiz-adv-x="1691" 
d="M924 1358q324 0 508 -168t184 -473q0 -306 -183.5 -474.5t-508.5 -168.5v-131h-156v131q-325 0 -508.5 168.5t-183.5 474.5q0 305 184 473t508 168v131h156v-131zM246 717q0 -237 136 -365.5t386 -128.5h6v983h-6q-249 0 -385.5 -125t-136.5 -364zM924 223
q250 0 386 128.5t136 365.5q0 239 -136.5 364t-385.5 125h-6v-983h6z" />
    <glyph glyph-name="uni0425" unicode="&#x425;" horiz-adv-x="1236" 
d="M1208 0h-188l-402 627l-401 -627h-188l491 760l-434 674h188l344 -539l345 539h188l-434 -674z" />
    <glyph glyph-name="uni0426" unicode="&#x426;" horiz-adv-x="1392" 
d="M1194 150h129v-437h-149v287h-1022v1434h157v-1284h727v1284h158v-1284z" />
    <glyph glyph-name="uni0427" unicode="&#x427;" horiz-adv-x="1167" 
d="M858 1434h158v-1434h-158v608h-446q-185 0 -276 85.5t-91 260.5v480h158v-478q0 -106 54.5 -152t174.5 -46h426v676z" />
    <glyph glyph-name="uni0428" unicode="&#x428;" horiz-adv-x="2043" 
d="M152 0v1434h157v-1284h635v1284h158v-1284h633v1284h157v-1434h-1740z" />
    <glyph glyph-name="uni0429" unicode="&#x429;" horiz-adv-x="2091" 
d="M1892 150h129v-437h-149v287h-1720v1434h157v-1284h635v1284h158v-1284h633v1284h157v-1284z" />
    <glyph glyph-name="uni042A" unicode="&#x42a;" horiz-adv-x="1415" 
d="M930 834q198 0 321 -111.5t123 -306.5q0 -194 -123 -305t-321 -111h-520v1284h-390v150h547v-600h363zM909 150q143 0 219 71.5t76 194.5q0 124 -76 196t-219 72h-342v-534h342z" />
    <glyph glyph-name="uni042B" unicode="&#x42b;" horiz-adv-x="1611" 
d="M672 834q199 0 321.5 -111t122.5 -307q0 -194 -122.5 -305t-321.5 -111h-520v1434h157v-600h363zM1300 1434h160v-1434h-160v1434zM651 150q144 0 219.5 71.5t75.5 194.5q0 125 -75.5 196.5t-219.5 71.5h-342v-534h342z" />
    <glyph glyph-name="uni042C" unicode="&#x42c;" horiz-adv-x="1157" 
d="M672 834q199 0 321.5 -111t122.5 -307q0 -194 -122.5 -305t-321.5 -111h-520v1434h157v-600h363zM651 150q144 0 219.5 71.5t75.5 194.5q0 125 -75.5 196.5t-219.5 71.5h-342v-534h342z" />
    <glyph glyph-name="uni042D" unicode="&#x42d;" horiz-adv-x="1396" 
d="M600 1464q328 0 524.5 -199.5t196.5 -547.5t-196.5 -548t-524.5 -200q-296 0 -541 168l86 137q208 -147 457 -147q235 0 384.5 142.5t164.5 394.5h-696v147h692q-26 234 -173 365t-372 131q-248 0 -457 -148l-86 137q245 168 541 168z" />
    <glyph glyph-name="uni042E" unicode="&#x42e;" horiz-adv-x="2091" 
d="M1268 1464q158 0 296 -55.5t237.5 -152.5t156.5 -237t57 -302q0 -216 -97.5 -387.5t-268 -266t-381.5 -94.5q-302 0 -510.5 187.5t-233.5 486.5h-215v-643h-157v1434h157v-643h215q25 299 233.5 486t510.5 187zM1268 129q253 0 414 165.5t161 422.5t-161 422.5
t-414 165.5q-166 0 -297.5 -75t-205 -209.5t-73.5 -303.5t73.5 -303.5t205 -209.5t297.5 -75z" />
    <glyph glyph-name="uni042F" unicode="&#x42f;" horiz-adv-x="1210" 
d="M563 1434h496v-1434h-158v616h-223l-424 -616h-201l439 621q-165 19 -265 125.5t-100 277.5q0 193 122 301.5t314 108.5zM582 766h319v518h-319q-137 0 -212 -70t-75 -190q0 -119 75 -188.5t212 -69.5z" />
    <glyph glyph-name="uni0430" unicode="&#x430;" horiz-adv-x="1171" 
d="M535 -31q-131 0 -236.5 60t-169 176t-63.5 268t63.5 268t169 176t236.5 60q125 0 215.5 -53t142.5 -146h4v168h147v-946h-147v168h-4q-52 -93 -142.5 -146t-215.5 -53zM563 115q154 0 248 100t94 258t-94 258t-248 100t-248 -100t-94 -258t94 -258t248 -100z" />
    <glyph glyph-name="uni0431" unicode="&#x431;" horiz-adv-x="1171" 
d="M588 -31q-113 0 -205 34.5t-164.5 107t-112.5 195t-40 286.5q0 92 12.5 176.5t41 169.5t81.5 155t127 113q56 31 131.5 55.5t173.5 48t112 27.5q49 14 81.5 42t35.5 63h146q0 -94 -46.5 -146.5t-140.5 -78.5q-19 -5 -110 -25.5t-171.5 -44t-131.5 -49.5
q-183 -98 -209 -404h6q52 129 165 199t261 70q211 0 342 -134.5t131 -351.5q0 -225 -140.5 -366.5t-375.5 -141.5zM592 115q153 0 254.5 96t101.5 258q0 163 -102 259.5t-254 96.5q-153 0 -256 -96.5t-103 -257.5q0 -162 103 -259t256 -97z" />
    <glyph glyph-name="uni0432" unicode="&#x432;" horiz-adv-x="1017" 
d="M739 496q97 -12 150 -71t53 -157q0 -130 -91.5 -199t-229.5 -69h-490v946h498q132 0 209 -60t77 -175q0 -84 -45 -140t-131 -73v-2zM596 821h-317v-268h311q86 0 129 35.5t43 101.5q0 131 -166 131zM604 125q90 0 137 40.5t47 113.5q0 153 -176 153h-333v-307h325z" />
    <glyph glyph-name="uni0433" unicode="&#x433;" horiz-adv-x="747" 
d="M737 946v-139h-458v-807h-148v946h606z" />
    <glyph glyph-name="uni0434" unicode="&#x434;" horiz-adv-x="1064" 
d="M913 119h117v-385h-131v248h-758v-248h-133v385h121q82 141 82 344v483h147h496h59v-827zM358 455q0 -194 -71 -336h479v692h-408v-356z" />
    <glyph glyph-name="uni0435" unicode="&#x435;" horiz-adv-x="1067" 
d="M547 977q113 0 201 -38t142.5 -106t82.5 -157.5t28 -196.5v-26h-786q3 -156 96.5 -248t243.5 -92q62 0 115 16.5t93 46.5t64.5 55.5t51.5 61.5l106 -96q-24 -34 -48.5 -61.5t-64 -60.5t-82.5 -54.5t-104 -36.5t-129 -15q-223 0 -357 138.5t-134 363.5q0 227 132 366.5
t349 139.5zM539 840q-127 0 -214 -72t-104 -203h621q-11 130 -89.5 202.5t-213.5 72.5z" />
    <glyph glyph-name="uni0436" unicode="&#x436;" horiz-adv-x="1413" 
d="M1397 0h-199l-420 485v-485h-145v485l-420 -485h-199l455 512l-412 434h201l375 -420v420h145v-420l375 420h201l-410 -434z" />
    <glyph glyph-name="uni0437" unicode="&#x437;" horiz-adv-x="929" 
d="M442 -31q-227 0 -393 90l64 129q164 -82 336 -82q264 0 264 164q0 89 -63 125.5t-193 36.5h-178v131h170q114 0 173.5 31.5t59.5 105.5q0 70 -60.5 105t-170.5 35q-150 0 -320 -66l-51 133q187 70 377 70q180 0 280.5 -63.5t100.5 -182.5q0 -91 -59.5 -150.5
t-166.5 -72.5v-4q120 -11 185 -73t65 -173q0 -137 -103.5 -213t-316.5 -76z" />
    <glyph glyph-name="uni0438" unicode="&#x438;" horiz-adv-x="1105" 
d="M131 0v946h150v-721h4l540 721h150v-946h-150v721h-4l-538 -721h-152z" />
    <glyph glyph-name="uni0439" unicode="&#x439;" horiz-adv-x="1105" 
d="M831 1311q0 -134 -77 -210.5t-201 -76.5t-201.5 76.5t-77.5 210.5h111q3 -83 48 -130.5t120 -47.5t120 47.5t48 130.5h110zM131 0v946h150v-721h4l540 721h150v-946h-150v721h-4l-538 -721h-152z" />
    <glyph glyph-name="uni043A" unicode="&#x43a;" horiz-adv-x="929" 
d="M915 0h-202l-434 477v-477h-148v946h148v-411l389 411h202l-436 -432z" />
    <glyph glyph-name="uni043B" unicode="&#x43b;" horiz-adv-x="1089" 
d="M958 946v-946h-147v807h-475v-563q0 -126 -60 -189t-165 -63h-91v135h72q51 0 73.5 28.5t22.5 90.5v700h770z" />
    <glyph glyph-name="uni043C" unicode="&#x43c;" horiz-adv-x="1341" 
d="M35 0l262 946h137l234 -573h4l235 573h137l263 -946h-150l-192 717h-4l-234 -559h-111l-235 559h-4l-193 -717h-149z" />
    <glyph glyph-name="uni043D" unicode="&#x43d;" horiz-adv-x="1107" 
d="M829 946h148v-946h-148v432h-550v-432h-148v946h148v-377h550v377z" />
    <glyph glyph-name="uni043E" unicode="&#x43e;" horiz-adv-x="1155" 
d="M578 977q223 0 367.5 -142t144.5 -362t-144.5 -362t-367.5 -142q-222 0 -367 142.5t-145 361.5t145 361.5t367 142.5zM578 831q-156 0 -256.5 -98.5t-100.5 -259.5t100.5 -259.5t256.5 -98.5t256 98.5t100 259.5t-100 259.5t-256 98.5z" />
    <glyph glyph-name="uni043F" unicode="&#x43f;" horiz-adv-x="1075" 
d="M944 946v-946h-147v807h-518v-807h-148v946h148h665z" />
    <glyph glyph-name="uni0440" unicode="&#x440;" horiz-adv-x="1175" 
d="M131 -410v1356h148v-168h4q52 93 142.5 146t215.5 53q131 0 236.5 -60t169 -176t63.5 -268t-63.5 -268t-169 -176t-236.5 -60q-125 0 -215.5 53t-142.5 146h-4v-578h-148zM612 115q154 0 248 100t94 258t-94 258t-248 100t-248 -100t-94 -258t94 -258t248 -100z" />
    <glyph glyph-name="uni0441" unicode="&#x441;" horiz-adv-x="952" 
d="M580 -31q-228 0 -371 139.5t-143 364.5t143 364.5t371 139.5q169 0 323 -94l-72 -127q-133 78 -256 78q-158 0 -256 -103.5t-98 -257.5t98 -257t256 -103q125 0 256 77l72 -127q-154 -94 -323 -94z" />
    <glyph glyph-name="uni0442" unicode="&#x442;" horiz-adv-x="894" 
d="M885 946v-135h-365v-811h-147v811h-363v135h875z" />
    <glyph glyph-name="uni0443" unicode="&#x443;" horiz-adv-x="956" 
d="M778 946h164l-618 -1356h-158l242 508l-394 848h174l295 -680z" />
    <glyph glyph-name="uni0444" unicode="&#x444;" horiz-adv-x="1738" 
d="M799 -410v578h-4q-47 -96 -123.5 -147.5t-196.5 -51.5q-182 0 -290.5 136t-108.5 368t108.5 368t290.5 136q120 0 196.5 -51.5t123.5 -147.5h4v604h141v-604h4q95 199 320 199q182 0 290.5 -136t108.5 -368t-108.5 -368t-290.5 -136q-225 0 -320 199h-4v-578h-141z
M510 106q141 0 218 101t77 266t-77 266t-218 101q-138 0 -208.5 -100t-70.5 -267t70.5 -267t208.5 -100zM1229 106q136 0 207 100.5t71 266.5t-71 266.5t-207 100.5q-141 0 -218 -101t-77 -266t77 -266t218 -101z" />
    <glyph glyph-name="uni0445" unicode="&#x445;" horiz-adv-x="970" 
d="M768 0l-283 381l-282 -381h-189l381 498l-336 448h191l235 -336l236 336h188l-336 -448l383 -498h-188z" />
    <glyph glyph-name="uni0446" unicode="&#x446;" horiz-adv-x="1052" 
d="M913 139h105v-405h-133v266h-606h-148v946h148v-807h487v807h147v-807z" />
    <glyph glyph-name="uni0447" unicode="&#x447;" horiz-adv-x="911" 
d="M633 946h147v-946h-147v381h-330q-268 0 -268 246v319h147v-305q0 -67 32 -97t99 -30h320v432z" />
    <glyph glyph-name="uni0448" unicode="&#x448;" horiz-adv-x="1617" 
d="M1339 946h148v-946h-148h-604h-551h-53v946h148v-807h456v807h148v-807h456v807z" />
    <glyph glyph-name="uni0449" unicode="&#x449;" horiz-adv-x="1626" 
d="M1487 139h102v-405h-131v266h-575h-604h-148v946h148v-807h456v807h148v-807h456v807h148v-807z" />
    <glyph glyph-name="uni044A" unicode="&#x44a;" horiz-adv-x="1173" 
d="M813 596q148 0 236 -80.5t88 -216.5q0 -133 -88.5 -216t-235.5 -83h-448v807h-355v139h502v-350h301zM797 133q90 0 136 43t46 121q0 166 -182 166h-285v-330h285z" />
    <glyph glyph-name="uni044B" unicode="&#x44b;" horiz-adv-x="1277" 
d="M582 596q147 0 234 -80.5t87 -216.5q0 -133 -88 -216t-235 -83h-449v946h148v-350h303zM999 946h148v-946h-148v946zM565 133q91 0 137 43t46 121q0 81 -46 123.5t-137 42.5h-286v-330h286z" />
    <glyph glyph-name="uni044C" unicode="&#x44c;" horiz-adv-x="942" 
d="M582 596q147 0 234 -80.5t87 -216.5q0 -133 -88 -216t-235 -83h-449v946h148v-350h303zM565 133q91 0 137 43t46 121q0 81 -46 123.5t-137 42.5h-286v-330h286z" />
    <glyph glyph-name="uni044D" unicode="&#x44d;" horiz-adv-x="952" 
d="M393 977q225 0 354.5 -133.5t129.5 -370.5t-129.5 -370.5t-354.5 -133.5q-187 0 -344 101l72 125q134 -80 272 -80t225.5 78.5t104.5 216.5h-410v127h410q-17 138 -104.5 216t-225.5 78q-140 0 -272 -79l-72 125q156 100 344 100z" />
    <glyph glyph-name="uni044E" unicode="&#x44e;" horiz-adv-x="1515" 
d="M938 977q222 0 367 -142.5t145 -361.5t-145 -361.5t-367 -142.5q-205 0 -345.5 122.5t-162.5 318.5h-151v-410h-148v946h148v-409h151q22 195 162.5 317.5t345.5 122.5zM938 115q156 0 256 98.5t100 259.5t-100 259.5t-256 98.5t-256 -98.5t-100 -259.5t100 -259.5
t256 -98.5z" />
    <glyph glyph-name="uni044F" unicode="&#x44f;" horiz-adv-x="974" 
d="M383 946h461v-946h-148v371h-196l-285 -371h-180l293 373q-125 14 -198 88t-73 194q0 134 89.5 212.5t236.5 78.5zM399 504h297v307h-297q-91 0 -138.5 -40.5t-47.5 -113.5q0 -74 47 -113.5t139 -39.5z" />
    <glyph glyph-name="uni0451" unicode="&#x451;" horiz-adv-x="1067" 
d="M471 1303v-238h-158v238h158zM788 1303v-238h-157v238h157zM547 977q113 0 201 -38t142.5 -106t82.5 -157.5t28 -196.5v-26h-786q3 -156 96.5 -248t243.5 -92q62 0 115 16.5t93 46.5t64.5 55.5t51.5 61.5l106 -96q-24 -34 -48.5 -61.5t-64 -60.5t-82.5 -54.5t-104 -36.5
t-129 -15q-223 0 -357 138.5t-134 363.5q0 227 132 366.5t349 139.5zM539 840q-127 0 -214 -72t-104 -203h621q-11 130 -89.5 202.5t-213.5 72.5z" />
    <glyph glyph-name="uni0452" unicode="&#x452;" horiz-adv-x="1110" 
d="M989 -147q0 -126 -61 -194.5t-183 -68.5h-110v140h92q55 0 85 32t30 95v143v555q0 140 -66.5 207t-185.5 67q-64 0 -116.5 -20.5t-96 -64.5t-68 -122.5t-24.5 -185.5v-436h-148v1169h-137v97h137v168h148v-168h309v-97h-309v-405h4q46 103 133.5 158t204.5 55
q165 0 263.5 -99t98.5 -303v-722z" />
    <glyph glyph-name="uni0453" unicode="&#x453;" horiz-adv-x="747" 
d="M788 1346l-270 -316h-123l195 316h198zM737 946v-139h-458v-807h-148v946h606z" />
    <glyph glyph-name="uni0454" unicode="&#x454;" horiz-adv-x="952" 
d="M559 115q138 0 272 80l72 -125q-157 -101 -344 -101q-225 0 -354 133.5t-129 370.5t129 370.5t354 133.5q188 0 344 -100l-72 -125q-132 79 -272 79q-138 0 -225.5 -78t-104.5 -216h410v-127h-410q17 -138 104.5 -216.5t225.5 -78.5z" />
    <glyph glyph-name="uni0455" unicode="&#x455;" horiz-adv-x="831" 
d="M430 -31q-106 0 -208 29.5t-183 81.5l72 131q157 -102 325 -102q94 0 141.5 33t47.5 91q0 45 -31.5 78.5t-97.5 63.5l-177 84q-204 94 -204 264q0 122 87 188t238 66q159 0 320 -74l-64 -131q-139 66 -260 66q-164 0 -164 -109q0 -45 32 -77t104 -66l172 -80
q99 -47 150.5 -109t51.5 -157q0 -132 -94 -201.5t-258 -69.5z" />
    <glyph glyph-name="uni0456" unicode="&#x456;" horiz-adv-x="413" 
d="M299 1413v-246h-186v246h186zM133 0v946h148v-946h-148z" />
    <glyph glyph-name="uni0457" unicode="&#x457;" horiz-adv-x="413" 
d="M162 1303v-238h-158v238h158zM410 1303v-238h-158v238h158zM133 0v946h148v-946h-148z" />
    <glyph glyph-name="uni0458" unicode="&#x458;" horiz-adv-x="413" 
d="M299 1413v-246h-186v246h186zM-51 -283h47q72 0 104.5 39.5t32.5 128.5v1061h148v-1073q0 -142 -68.5 -215.5t-198.5 -73.5h-65v133z" />
    <glyph glyph-name="uni0459" unicode="&#x459;" horiz-adv-x="1554" 
d="M1194 596q148 0 236 -80.5t88 -216.5q0 -133 -88.5 -216t-235.5 -83h-430v807h-455v-563q0 -127 -59.5 -189.5t-165.5 -62.5h-64v135h46q51 0 73.5 28.5t22.5 90.5v700h749v-350h283zM1178 133q90 0 136 43t46 121q0 166 -182 166h-267v-330h267z" />
    <glyph glyph-name="uni045A" unicode="&#x45a;" horiz-adv-x="1597" 
d="M1237 598q148 0 236 -80.5t88 -218.5q0 -133 -88.5 -216t-235.5 -83h-430v461h-528v-461h-148v946h148v-348h528v348h147v-348h283zM1221 133q92 0 138 43t46 121q0 164 -184 164h-267v-328h267z" />
    <glyph glyph-name="uni045B" unicode="&#x45b;" horiz-adv-x="1110" 
d="M627 977q165 0 263.5 -99t98.5 -303v-575h-147v555q0 140 -66.5 207t-185.5 67q-64 0 -116.5 -20.5t-96 -64.5t-68 -122.5t-24.5 -185.5v-436h-148v1169h-137v97h137v168h148v-168h309v-97h-309v-405h4q46 103 133.5 158t204.5 55z" />
    <glyph glyph-name="uni045C" unicode="&#x45c;" horiz-adv-x="929" 
d="M797 1346l-271 -316h-123l195 316h199zM915 0h-202l-434 477v-477h-148v946h148v-411l389 411h202l-436 -432z" />
    <glyph glyph-name="uni045E" unicode="&#x45e;" horiz-adv-x="956" 
d="M483 1024q-124 0 -201 76.5t-77 210.5h110q3 -83 48 -130.5t120 -47.5t120 47.5t48 130.5h111q0 -134 -77.5 -210.5t-201.5 -76.5zM778 946h164l-618 -1356h-158l242 508l-394 848h174l295 -680z" />
    <glyph glyph-name="uni045F" unicode="&#x45f;" horiz-adv-x="1077" 
d="M797 946h147v-946h-338v-266h-135v266h-340v946h148v-807h518v807z" />
    <glyph glyph-name="uni0462" unicode="&#x462;" horiz-adv-x="1300" 
d="M817 834q198 0 320.5 -111t122.5 -307q0 -194 -122.5 -305t-320.5 -111h-520v1067h-277v139h277v228h158v-228h438v-139h-438v-233h362zM797 150q143 0 219 71.5t76 194.5q0 124 -76 196t-219 72h-342v-534h342z" />
    <glyph glyph-name="uni0463" unicode="&#x463;" horiz-adv-x="1007" 
d="M645 596q148 0 236 -80.5t88 -216.5q0 -133 -89 -216t-237 -83h-448v825h-195v121h195v488h147v-488h330v-121h-330v-229h303zM627 135q92 0 139 42.5t47 119.5q0 78 -47 121t-139 43h-285v-326h285z" />
    <glyph glyph-name="uni0472" unicode="&#x472;" horiz-adv-x="1646" 
d="M823 1464q211 0 381.5 -94t268.5 -265.5t98 -387.5t-98 -387.5t-268.5 -266t-381.5 -94.5t-381.5 94.5t-268 266t-97.5 387.5q0 162 57 302t156.5 237t237.5 152.5t296 55.5zM823 1305q-241 0 -401.5 -149t-177.5 -386h1159q-17 237 -177.5 386t-402.5 149zM823 129
q242 0 402.5 149.5t177.5 385.5h-1159q17 -236 178 -385.5t401 -149.5z" />
    <glyph glyph-name="uni0473" unicode="&#x473;" horiz-adv-x="1155" 
d="M578 977q223 0 367.5 -142t144.5 -362t-144.5 -362t-367.5 -142q-222 0 -367 142.5t-145 361.5t145 361.5t367 142.5zM578 838q-146 0 -245 -86t-114 -230h719q-17 144 -116 230t-244 86zM578 109q146 0 244.5 85.5t115.5 229.5h-719q15 -144 114 -229.5t245 -85.5z" />
    <glyph glyph-name="uni0474" unicode="&#x474;" horiz-adv-x="1335" 
d="M1077 1141l-395 -1141h-150l-514 1434h185l403 -1192h4l316 962q44 139 111 196.5t196 57.5q26 0 84 -4v-149q-50 4 -72 4q-63 0 -98.5 -36t-69.5 -132z" />
    <glyph glyph-name="uni0475" unicode="&#x475;" horiz-adv-x="995" 
d="M965 965h16v-146h-18q-52 0 -83 -23.5t-55 -82.5l-284 -713h-142l-385 946h168l287 -770l231 617q37 98 94 135t171 37z" />
    <glyph glyph-name="uni048E" unicode="&#x48e;" horiz-adv-x="1110" 
d="M1067 1010q0 -121 -52.5 -217t-148.5 -150l127 -176l-63 -47l-137 190q-74 -22 -158 -22h-326v-588h-157v1434h483q200 0 316 -118.5t116 -305.5zM618 737q40 0 78 6l-143 199l63 45l156 -215q125 69 125 238q0 132 -75.5 203t-203.5 71h-309v-547h309z" />
    <glyph glyph-name="uni048F" unicode="&#x48f;" horiz-adv-x="1175" 
d="M1110 473q0 -136 -49.5 -241.5t-136.5 -172.5l129 -155l-56 -47l-135 163q-102 -51 -221 -51q-125 0 -215.5 53t-142.5 146h-4v-578h-148v1356h148v-168h4q52 93 142.5 146t215.5 53q131 0 236.5 -60t169 -176t63.5 -268zM612 115q80 0 150 28l-127 156l55 45l133 -162
q62 48 96.5 123t34.5 168q0 158 -94 258t-248 100t-248 -100t-94 -258t94 -258t248 -100z" />
    <glyph glyph-name="uni0490" unicode="&#x490;" horiz-adv-x="1009" 
d="M831 1720h158v-438h-680v-1282h-157v1434h679v286z" />
    <glyph glyph-name="uni0491" unicode="&#x491;" horiz-adv-x="776" 
d="M633 1163h133v-356h-487v-807h-148v946h502v217z" />
    <glyph glyph-name="uni0492" unicode="&#x492;" horiz-adv-x="1042" 
d="M1022 1284h-647v-481h434v-139h-434v-664h-158v664h-197v139h197v631h805v-150z" />
    <glyph glyph-name="uni0493" unicode="&#x493;" horiz-adv-x="817" 
d="M807 807h-459v-264h311v-140h-311v-403h-147v403h-162v140h162v403h606v-139z" />
    <glyph glyph-name="uni0494" unicode="&#x494;" horiz-adv-x="1196" 
d="M737 821q208 0 311 -78t103 -264v-495q0 -187 -91 -290.5t-274 -103.5h-129v150h121q108 0 161.5 60t53.5 188v489q0 108 -66.5 152.5t-201.5 44.5q-146 0 -416 -23v-651h-157v1434h804v-150h-647v-483q258 20 428 20z" />
    <glyph glyph-name="uni0495" unicode="&#x495;" horiz-adv-x="976" 
d="M590 520q163 0 242 -71t79 -226v-305q0 -163 -79.5 -245.5t-247.5 -82.5h-115v140h102q94 0 143.5 44.5t49.5 149.5v285q0 180 -191 180q-118 0 -294 -20v-369h-148v946h672v-139h-524v-307q184 20 311 20z" />
    <glyph glyph-name="uni0496" unicode="&#x496;" horiz-adv-x="1921" 
d="M1782 104h100v-391h-147v287h-84l-629 735v-735h-156v735l-628 -735h-224l674 760l-573 674h217l534 -660v660h156v-660l534 660h218l-574 -674z" />
    <glyph glyph-name="uni0497" unicode="&#x497;" horiz-adv-x="1458" 
d="M1319 88h104v-354h-133v266h-92l-420 485v-485h-145v485l-420 -485h-199l455 512l-412 434h201l375 -420v420h145v-420l375 420h201l-410 -434z" />
    <glyph glyph-name="uni0498" unicode="&#x498;" horiz-adv-x="1193" 
d="M1108 385q0 -177 -116 -288.5t-351 -125.5l-20 -55q65 -17 104 -48.5t39 -94.5q0 -21 -7.5 -40t-18 -33.5t-32.5 -31t-38 -27t-48.5 -26t-51.5 -24t-58 -25.5l-23 49q90 43 131 72.5t41 60.5q0 36 -30.5 54t-104.5 34l49 133h-2q-279 0 -512 135l76 146
q215 -127 443 -127q173 0 269.5 66t96.5 202q0 152 -116.5 221.5t-348.5 69.5h-157v149h155q192 0 302 66.5t110 194.5q0 106 -80.5 162.5t-228.5 56.5q-214 0 -430 -121l-72 141q102 59 237 96t281 37q225 0 341 -93.5t116 -260.5q0 -136 -79.5 -222t-232.5 -120v-2
q77 -8 140.5 -32.5t115.5 -68.5t81.5 -115.5t29.5 -164.5z" />
    <glyph glyph-name="uni0499" unicode="&#x499;" horiz-adv-x="929" 
d="M862 258q0 -132 -96 -207.5t-293 -81.5l-20 -53q65 -17 104 -48.5t39 -94.5q0 -21 -7.5 -40t-18 -33.5t-32.5 -31t-38 -27t-48.5 -26t-51.5 -24t-58 -25.5l-23 49q91 44 132 73t41 60q0 36 -31 54t-105 34l50 133q-204 8 -357 90l64 129q164 -82 336 -82q264 0 264 164
q0 89 -63 125.5t-193 36.5h-178v131h170q114 0 173.5 31.5t59.5 105.5q0 70 -60.5 105t-170.5 35q-150 0 -320 -66l-51 133q187 70 377 70q180 0 280.5 -63.5t100.5 -182.5q0 -91 -59.5 -150.5t-166.5 -72.5v-4q120 -11 185 -73t65 -173z" />
    <glyph glyph-name="uni049A" unicode="&#x49a;" horiz-adv-x="1277" 
d="M1239 0h-2v-287h-147v287h-86l-695 731v-731h-157v1434h157v-648l615 648h223l-655 -664l645 -666h100v-102z" />
    <glyph glyph-name="uni049B" unicode="&#x49b;" horiz-adv-x="968" 
d="M834 88h100v-354h-133v266h-88l-434 477v-477h-148v946h148v-411l389 411h202l-436 -432z" />
    <glyph glyph-name="uni049C" unicode="&#x49c;" horiz-adv-x="1417" 
d="M1171 0l-598 694h-75v-280h-74v280h-115v-694h-157v1434h157v-592h115v323h74v-323h88l489 592h211l-569 -664l686 -770h-232z" />
    <glyph glyph-name="uni049D" unicode="&#x49d;" horiz-adv-x="1003" 
d="M797 0l-348 457h-41v-256h-58v256h-71v-457h-148v946h148v-383h71v250h58v-250h43l323 383h191l-385 -432l409 -514h-192z" />
    <glyph glyph-name="uni049E" unicode="&#x49e;" horiz-adv-x="1355" 
d="M1341 0h-235l-694 733v-733h-158v1151h-234v104h234v179h158v-179h256v-104h-256v-365l614 648h223l-655 -664z" />
    <glyph glyph-name="uni049F" unicode="&#x49f;" horiz-adv-x="940" 
d="M924 0h-203l-436 479v-479h-148v1169h-137v97h137v168h148v-168h309v-97h-309v-637l393 414h203l-437 -432z" />
    <glyph glyph-name="uni04A0" unicode="&#x4a0;" horiz-adv-x="1515" 
d="M1501 0h-235l-695 733v-733h-155v1284h-396v150h512h39v-648l617 648h221l-653 -664z" />
    <glyph glyph-name="uni04A1" unicode="&#x4a1;" horiz-adv-x="1163" 
d="M1149 0h-203l-434 475v-475h-147v807h-355v139h441h61v-409l389 409h203l-436 -432z" />
    <glyph glyph-name="uni04A2" unicode="&#x4a2;" horiz-adv-x="1390" 
d="M1286 104h66v-391h-150v287h-74v686h-819v-686h-157v1434h157v-596h819v596h158v-1330z" />
    <glyph glyph-name="uni04A3" unicode="&#x4a3;" horiz-adv-x="1099" 
d="M977 88h88v-354h-133v266h-103v432h-550v-432h-148v946h148v-377h550v377h148v-858z" />
    <glyph glyph-name="uni04A4" unicode="&#x4a4;" horiz-adv-x="1886" 
d="M1866 1434v-150h-621v-1284h-158v686h-778v-686h-157v1434h157v-596h778v596h779z" />
    <glyph glyph-name="uni04A5" unicode="&#x4a5;" horiz-adv-x="1374" 
d="M1364 946v-139h-428v-807h-148v432h-509v-432h-148v946h148v-377h509v377h576z" />
    <glyph glyph-name="uni04A6" unicode="&#x4a6;" horiz-adv-x="2131" 
d="M1673 846q207 0 310.5 -78t103.5 -264v-129q0 -375 -373 -375h-133v150h121q122 0 174.5 51.5t52.5 177.5v123q0 108 -66 151t-202 43q-151 0 -387 -18v-678h-158v1284h-807v-1284h-157v1434h1122v-609q258 21 399 21z" />
    <glyph glyph-name="uni04A7" unicode="&#x4a7;" horiz-adv-x="1640" 
d="M1262 567q156 0 234.5 -70.5t78.5 -226.5v-346q0 -334 -305 -334h-115v140h102q82 0 126 45t44 153v328q0 96 -47.5 138t-144.5 42q-115 0 -291 -20v-416h-147v807h-518v-807h-148v946h148h630h35v-399q180 20 318 20z" />
    <glyph glyph-name="uni04A8" unicode="&#x4a8;" horiz-adv-x="1593" 
d="M1569 39q-144 -70 -277 -70q-138 0 -241 58q-103 -58 -273 -58q-205 0 -360.5 95.5t-238.5 266t-83 390.5q0 342 196.5 542.5t522.5 200.5q126 0 236 -37l-50 -151q-96 29 -188 29q-242 0 -393.5 -161.5t-151.5 -432.5q0 -171 62 -306.5t183.5 -215.5t283.5 -80
q52 0 114 10q-110 88 -168.5 221t-58.5 295q0 221 106 347t285 126q173 0 274 -122t101 -331q0 -167 -63.5 -308t-188.5 -232q57 -11 90 -11q103 0 217 64zM846 627q0 -151 58.5 -268t156.5 -183q114 66 175.5 186.5t61.5 274.5q0 149 -59.5 231t-163.5 82q-109 0 -169 -85
t-60 -238z" />
    <glyph glyph-name="uni04A9" unicode="&#x4a9;" horiz-adv-x="1142" 
d="M1081 131l47 -113q-103 -49 -208 -49q-108 0 -179 41q-65 -41 -188 -41q-220 0 -353.5 131t-133.5 371q0 243 141 374.5t381 131.5q98 0 190 -25l-39 -135q-79 21 -147 21q-168 0 -269.5 -94t-101.5 -273q0 -171 93 -272t251 -101h6q-116 104 -116 285q0 150 82.5 230.5
t214.5 80.5q135 0 210.5 -78.5t75.5 -220.5q0 -191 -147 -309h16q89 0 174 45zM598 373q0 -168 129 -244q81 36 127.5 103t46.5 153q0 81 -38 131.5t-111 50.5q-69 0 -111.5 -49t-42.5 -145z" />
    <glyph glyph-name="uni04AA" unicode="&#x4aa;" horiz-adv-x="1402" 
d="M1341 131q-106 -78 -223 -119.5t-264 -42.5l-20 -53q65 -17 104 -48.5t39 -94.5q0 -21 -7.5 -40t-18 -33.5t-32.5 -31t-38 -27t-48.5 -26t-51.5 -24t-58 -25.5l-23 49q90 43 131 72.5t41 60.5q0 36 -30.5 54t-104.5 34l51 135q-322 17 -517 221.5t-195 524.5
q0 165 55.5 304t155 236.5t242.5 152t313 54.5q282 0 499 -161l-96 -138q-184 140 -407 140q-260 0 -425 -163t-165 -425t165 -425t425 -163q224 0 407 139z" />
    <glyph glyph-name="uni04AB" unicode="&#x4ab;" horiz-adv-x="952" 
d="M903 63q-146 -91 -315 -94l-21 -53q65 -17 104.5 -48.5t39.5 -94.5q0 -21 -7.5 -40t-18 -33.5t-32.5 -31t-38 -27t-48.5 -26t-51.5 -24t-58 -25.5l-23 49q90 43 131 72.5t41 60.5q0 36 -30.5 54t-104.5 34l51 135q-205 19 -330.5 155.5t-125.5 346.5q0 225 143 364.5
t371 139.5q169 0 323 -94l-72 -127q-133 78 -256 78q-158 0 -256 -103.5t-98 -257.5t98 -257t256 -103q125 0 256 77z" />
    <glyph glyph-name="uni04AC" unicode="&#x4ac;" horiz-adv-x="1054" 
d="M1034 1284h-428v-1180h101v-391h-148v287h-110v1284h-429v150h1014v-150z" />
    <glyph glyph-name="uni04AD" unicode="&#x4ad;" horiz-adv-x="894" 
d="M885 811h-365v-723h90v-354h-133v266h-104v811h-363v135h875v-135z" />
    <glyph glyph-name="uni04AE" unicode="&#x4ae;" horiz-adv-x="1093" 
d="M1085 1434l-458 -873v-561h-160v561l-459 873h185l352 -703h4l352 703h184z" />
    <glyph glyph-name="uni04AF" unicode="&#x4af;" horiz-adv-x="940" 
d="M924 946l-381 -938v-418h-148v418l-381 938h168l287 -768l289 768h166z" />
    <glyph glyph-name="uni04B0" unicode="&#x4b0;" horiz-adv-x="1093" 
d="M1085 1434l-446 -848l258 2v-133h-270v-455h-160v455h-268v131h256l-447 848h185l352 -703h4l352 703h184z" />
    <glyph glyph-name="uni04B1" unicode="&#x4b1;" horiz-adv-x="940" 
d="M924 946l-379 -936h268v-127h-270v-293h-148v293h-260v127h260l-381 936h168l287 -768l289 768h166z" />
    <glyph glyph-name="uni04B2" unicode="&#x4b2;" horiz-adv-x="1296" 
d="M1141 104h116v-391h-149v287h-88l-402 627l-401 -627h-188l491 760l-434 674h188l344 -539l345 539h188l-434 -674z" />
    <glyph glyph-name="uni04B3" unicode="&#x4b3;" horiz-adv-x="995" 
d="M889 88h100v-354h-133v266h-88l-283 381l-282 -381h-189l381 498l-336 448h191l235 -336l236 336h188l-336 -448z" />
    <glyph glyph-name="uni04B4" unicode="&#x4b4;" horiz-adv-x="1712" 
d="M1513 150h129v-437h-149v287h-1022v1284h-451v150h609h375v-150h-375v-1134h727v1284h157v-1284z" />
    <glyph glyph-name="uni04B5" unicode="&#x4b5;" horiz-adv-x="1284" 
d="M1145 139h104v-405h-133v266h-604h-147v807h-355v139h502h285v-139h-285v-668h487v807h146v-807z" />
    <glyph glyph-name="uni04B6" unicode="&#x4b6;" horiz-adv-x="1165" 
d="M1016 104h110v-391h-147v287h-121v608h-446q-185 0 -276 85.5t-91 260.5v480h158v-478q0 -106 54.5 -152t174.5 -46h426v676h158v-1330z" />
    <glyph glyph-name="uni04B7" unicode="&#x4b7;" horiz-adv-x="903" 
d="M780 86h88v-354h-133v268h-102v381h-330q-268 0 -268 246v319h147v-305q0 -67 32 -97t99 -30h320v432h147v-860z" />
    <glyph glyph-name="uni04B8" unicode="&#x4b8;" horiz-adv-x="1167" 
d="M858 1434h158v-1434h-158v608h-258v-311h-84v311h-104q-185 0 -276 85.5t-91 260.5v480h158v-478q0 -106 54.5 -152t174.5 -46h84v291h84v-291h258v676z" />
    <glyph glyph-name="uni04B9" unicode="&#x4b9;" horiz-adv-x="911" 
d="M633 946h147v-946h-147v381h-146v-191h-61v191h-123q-268 0 -268 246v319h147v-305q0 -67 32 -97t99 -30h113v209h61v-209h146v432z" />
    <glyph glyph-name="uni04BA" unicode="&#x4ba;" horiz-adv-x="1169" 
d="M758 825q184 0 274 -85.5t90 -260.5v-479h-157v477q0 106 -55 152.5t-175 46.5h-426v-676h-157v1434h157v-609h449z" />
    <glyph glyph-name="uni04BB" unicode="&#x4bb;" horiz-adv-x="1110" 
d="M285 1434v-670h4q46 103 133.5 158t204.5 55q165 0 263.5 -99t98.5 -303v-575h-147v555q0 140 -66.5 207t-185.5 67q-64 0 -116.5 -20.5t-96 -64.5t-68 -122.5t-24.5 -185.5v-436h-148v1434h148z" />
    <glyph glyph-name="uni04BC" unicode="&#x4bc;" horiz-adv-x="1902" 
d="M1108 1464q330 0 523.5 -202.5t193.5 -538.5v-74h-168h-1125q25 -239 188 -380.5t415 -141.5q298 0 503 205l95 -129q-251 -234 -598 -234q-210 0 -379 82.5t-273 237t-121 358.5h-59q-123 0 -197.5 65.5t-74.5 196.5q0 61 20 140h156q-21 -73 -21 -119q0 -131 142 -131
h34q25 298 228 481.5t518 183.5zM1108 1307q-247 0 -400.5 -139t-175.5 -369h1121q-19 236 -161.5 372t-383.5 136z" />
    <glyph glyph-name="uni04BD" unicode="&#x4bd;" horiz-adv-x="1251" 
d="M1186 479v-26h-785q3 -156 96.5 -248t243.5 -92q62 0 115 16.5t93 46.5t64.5 55.5t51.5 61.5l106 -96q-31 -44 -64.5 -78.5t-85.5 -71.5t-123 -57.5t-155 -20.5q-219 0 -352 132.5t-139 351.5h-14q-99 0 -155 45.5t-56 140.5q0 50 18 109h119q-17 -56 -17 -95
q0 -45 23.5 -66.5t73.5 -21.5h14q28 189 155 300.5t320 111.5q221 0 337 -138.5t116 -359.5zM408 565h618q-9 130 -88 202.5t-213 72.5q-127 0 -213.5 -72t-103.5 -203z" />
    <glyph glyph-name="uni04BE" unicode="&#x4be;" horiz-adv-x="1902" 
d="M1108 1464q330 0 523.5 -202.5t193.5 -538.5v-74h-168h-1125q25 -239 188 -380.5t415 -141.5q298 0 503 205l95 -129q-134 -124 -289 -180q-182 -150 -182 -240q0 -30 23 -44.5t58 -14.5q40 0 91 14l16 -100q-65 -21 -133 -21q-76 0 -126 37t-50 108q0 104 131 218
q-79 -11 -137 -11q-210 0 -379 82.5t-273 237t-121 358.5h-59q-123 0 -197.5 65.5t-74.5 196.5q0 61 20 140h156q-21 -73 -21 -119q0 -131 142 -131h34q25 298 228 481.5t518 183.5zM1108 1307q-247 0 -400.5 -139t-175.5 -369h1121q-19 236 -161.5 372t-383.5 136z" />
    <glyph glyph-name="uni04BF" unicode="&#x4bf;" horiz-adv-x="1251" 
d="M1186 479v-26h-785q3 -156 96.5 -248t243.5 -92q62 0 115 16.5t93 46.5t64.5 55.5t51.5 61.5l106 -96q-90 -128 -206 -181q-174 -148 -174 -233q0 -30 23 -44.5t58 -14.5q40 0 91 14l16 -100q-64 -21 -133 -21q-76 0 -126 37t-50 108q0 101 123 209q-16 -2 -50 -2
q-219 0 -352 132.5t-139 351.5h-14q-99 0 -155 45.5t-56 140.5q0 50 18 109h119q-17 -56 -17 -95q0 -45 23.5 -66.5t73.5 -21.5h14q28 189 155 300.5t320 111.5q221 0 337 -138.5t116 -359.5zM408 565h618q-9 130 -88 202.5t-213 72.5q-127 0 -213.5 -72t-103.5 -203z" />
    <glyph glyph-name="uni04C0" unicode="&#x4c0;" horiz-adv-x="464" 
d="M311 1434v-1434h-159v1434h159z" />
    <glyph glyph-name="uni04C1" unicode="&#x4c1;" horiz-adv-x="1888" 
d="M944 1489q-127 0 -202 74t-76 204h108q0 -86 44 -133t126 -47t126 47t44 133h109q-1 -130 -76.5 -204t-202.5 -74zM1874 0h-223l-629 735v-735h-156v735l-628 -735h-224l674 760l-573 674h217l534 -660v660h156v-660l534 660h218l-574 -674z" />
    <glyph glyph-name="uni04C2" unicode="&#x4c2;" horiz-adv-x="1413" 
d="M707 1024q-124 0 -201.5 76.5t-77.5 210.5h111q3 -83 48 -130.5t120 -47.5t119.5 47.5t47.5 130.5h111q0 -134 -77 -210.5t-201 -76.5zM1397 0h-199l-420 485v-485h-145v485l-420 -485h-199l455 512l-412 434h201l375 -420v420h145v-420l375 420h201l-410 -434z" />
    <glyph glyph-name="uni04C3" unicode="&#x4c3;" horiz-adv-x="1200" 
d="M754 778q202 0 301.5 -76t99.5 -264v-454q0 -187 -91.5 -290.5t-275.5 -103.5h-126v150h120q108 0 161.5 60t53.5 188v434q0 115 -66 161t-204 46q-183 0 -418 -23v-606h-157v1434h157v-686l604 686h220l-623 -668q164 12 244 12z" />
    <glyph glyph-name="uni04C4" unicode="&#x4c4;" horiz-adv-x="937" 
d="M573 518q330 0 330 -289v-311q0 -328 -328 -328h-114v140h102q94 0 143.5 44.5t49.5 149.5v291q0 176 -207 176q-114 0 -270 -16v-375h-148v946h148v-430l393 430h202l-430 -434q61 6 129 6z" />
    <glyph glyph-name="uni04C5" unicode="&#x4c5;" horiz-adv-x="1454" 
d="M1288 119h121l-172 -385h-145l110 266h-72v1284h-708v-944q0 -180 -73.5 -265t-227.5 -85h-86v153h71q81 0 119.5 44t38.5 153v1094h1024v-1315z" />
    <glyph glyph-name="uni04C6" unicode="&#x4c6;" horiz-adv-x="1114" 
d="M958 119h138l-172 -385h-146l111 266h-78v807h-475v-563q0 -126 -60 -189t-165 -63h-91v135h72q51 0 73.5 28.5t22.5 90.5v700h148h622v-827z" />
    <glyph glyph-name="uni04C7" unicode="&#x4c7;" horiz-adv-x="1437" 
d="M1286 -121q0 -136 -66 -212.5t-196 -76.5h-135v150h110q65 0 97 34t32 109v117v686h-819v-686h-157v1434h157v-596h819v596h158v-1555z" />
    <glyph glyph-name="uni04C8" unicode="&#x4c8;" horiz-adv-x="1107" 
d="M977 -147q0 -126 -61 -194.5t-183 -68.5h-110v140h92q114 0 114 127v143v432h-550v-432h-148v946h148v-377h550v377h148v-1093z" />
    <glyph glyph-name="uni04C9" unicode="&#x4c9;" horiz-adv-x="1460" 
d="M1286 119h129l-172 -385h-145l110 266h-80v686h-819v-686h-157v1434h157v-596h819v596h158v-1315z" />
    <glyph glyph-name="uni04CA" unicode="&#x4ca;" horiz-adv-x="1132" 
d="M977 119h137l-172 -385h-145l110 266h-78v432h-550v-432h-148v946h148v-377h550v377h148v-827z" />
    <glyph glyph-name="uni04CB" unicode="&#x4cb;" horiz-adv-x="1167" 
d="M1016 1434v-1434h-123v-287h-148v391h113v504h-446q-185 0 -276 85.5t-91 260.5v480h158v-478q0 -106 54.5 -152t174.5 -46h426v676h158z" />
    <glyph glyph-name="uni04CC" unicode="&#x4cc;" horiz-adv-x="911" 
d="M780 946v-946h-104v-266h-133v354h90v293h-330q-268 0 -268 246v319h147v-305q0 -67 32 -97t99 -30h320v432h147z" />
    <glyph glyph-name="uni04CD" unicode="&#x4cd;" horiz-adv-x="1832" 
d="M1686 119h116l-172 -385h-145l110 266h-49l-266 1128h-4l-350 -899h-123l-350 899h-4l-267 -1128h-168l351 1434h131l366 -959h4l367 959h131z" />
    <glyph glyph-name="uni04CE" unicode="&#x4ce;" horiz-adv-x="1411" 
d="M1274 119h143l-172 -385h-145l110 266h-53l-192 717h-4l-234 -559h-111l-235 559h-4l-193 -717h-149l262 946h137l234 -573h4l235 573h137z" />
    <glyph glyph-name="uni04CF" unicode="&#x4cf;" horiz-adv-x="413" 
d="M133 0v946h148v-946h-148z" />
    <glyph glyph-name="uni04D0" unicode="&#x4d0;" horiz-adv-x="1349" 
d="M674 1489q-127 0 -202.5 74t-76.5 204h109q0 -86 44 -133t126 -47t126 47t44 133h108q-1 -130 -76 -204t-202 -74zM1163 0l-151 383h-674l-152 -383h-172l586 1434h150l583 -1434h-170zM395 528h559l-280 707z" />
    <glyph glyph-name="uni04D1" unicode="&#x4d1;" horiz-adv-x="1171" 
d="M848 1311q0 -134 -77.5 -210.5t-201.5 -76.5t-201 76.5t-77 210.5h110q3 -83 48 -130.5t120 -47.5t120 47.5t48 130.5h111zM535 -31q-131 0 -236.5 60t-169 176t-63.5 268t63.5 268t169 176t236.5 60q125 0 215.5 -53t142.5 -146h4v168h147v-946h-147v168h-4
q-52 -93 -142.5 -146t-215.5 -53zM563 115q154 0 248 100t94 258t-94 258t-248 100t-248 -100t-94 -258t94 -258t248 -100z" />
    <glyph glyph-name="uni04D2" unicode="&#x4d2;" horiz-adv-x="1349" 
d="M555 1726v-204h-170v204h170zM963 1726v-204h-170v204h170zM1163 0l-151 383h-674l-152 -383h-172l586 1434h150l583 -1434h-170zM395 528h559l-280 707z" />
    <glyph glyph-name="uni04D3" unicode="&#x4d3;" horiz-adv-x="1171" 
d="M489 1303v-238h-157v238h157zM807 1303v-238h-158v238h158zM535 -31q-131 0 -236.5 60t-169 176t-63.5 268t63.5 268t169 176t236.5 60q125 0 215.5 -53t142.5 -146h4v168h147v-946h-147v168h-4q-52 -93 -142.5 -146t-215.5 -53zM563 115q154 0 248 100t94 258t-94 258
t-248 100t-248 -100t-94 -258t94 -258t248 -100z" />
    <glyph glyph-name="uni04D4" unicode="&#x4d4;" horiz-adv-x="1898" 
d="M1210 150h592v-150h-669h-78v383h-588l-254 -383h-199l963 1434h233h582v-150h-582v-412h531v-147h-531v-575zM563 528h492v744z" />
    <glyph glyph-name="uni04D5" unicode="&#x4d5;" horiz-adv-x="1746" 
d="M420 -31q-168 0 -277.5 93t-109.5 247q0 150 106 243t277 93q106 0 191.5 -40t133.5 -118h4v107q0 248 -268 248q-127 0 -313 -47l-31 135q180 47 352 47q290 0 353 -219h4q51 101 153.5 160t237.5 59q142 0 245 -66.5t153 -177.5t50 -254v-26h-782q5 -152 94 -246
t244 -94q62 0 114 16t92 46t64.5 55.5t53.5 62.5l102 -94q-29 -43 -64.5 -79t-87 -72.5t-121.5 -57.5t-149 -21q-150 0 -261.5 70.5t-158.5 185.5h-4q-43 -122 -149.5 -189t-247.5 -67zM907 565h613q-8 125 -88 200t-211 75q-124 0 -210 -72t-104 -203zM449 100
q125 0 203.5 60t78.5 149q0 94 -82 150.5t-203 56.5t-189.5 -58.5t-68.5 -150.5q0 -94 69 -150.5t192 -56.5z" />
    <glyph glyph-name="uni04D6" unicode="&#x4d6;" horiz-adv-x="1060" 
d="M592 1489q-127 0 -202.5 74t-76.5 204h109q0 -86 44 -133t126 -47t126 47t44 133h108q-1 -130 -76 -204t-202 -74zM309 150h656v-150h-813v1434h802v-150h-645v-412h594v-147h-594v-575z" />
    <glyph glyph-name="uni04D7" unicode="&#x4d7;" horiz-adv-x="1067" 
d="M829 1311q0 -134 -77 -210.5t-201 -76.5t-201.5 76.5t-77.5 210.5h111q3 -83 48 -130.5t120 -47.5t120 47.5t48 130.5h110zM547 977q113 0 201 -38t142.5 -106t82.5 -157.5t28 -196.5v-26h-786q3 -156 96.5 -248t243.5 -92q62 0 115 16.5t93 46.5t64.5 55.5t51.5 61.5
l106 -96q-24 -34 -48.5 -61.5t-64 -60.5t-82.5 -54.5t-104 -36.5t-129 -15q-223 0 -357 138.5t-134 363.5q0 227 132 366.5t349 139.5zM539 840q-127 0 -214 -72t-104 -203h621q-11 130 -89.5 202.5t-213.5 72.5z" />
    <glyph glyph-name="uni04D8" unicode="&#x4d8;" horiz-adv-x="1617" 
d="M772 1464q349 0 559.5 -201.5t210.5 -549.5q0 -221 -87 -388.5t-253.5 -261.5t-390.5 -94q-339 0 -537 203.5t-198 538.5v73h170h1126q-24 241 -181.5 382t-418.5 141q-155 0 -287 -52t-221 -139l-92 135q112 97 264.5 155t335.5 58zM811 127q247 0 393 136t168 370
h-1124q22 -236 168 -371t395 -135z" />
    <glyph glyph-name="uni04D9" unicode="&#x4d9;" horiz-adv-x="1067" 
d="M520 -31q-113 0 -201 38t-142.5 106t-82.5 157.5t-28 196.5v27h786q-3 156 -96.5 248t-243.5 92q-62 0 -115 -16.5t-93 -47t-64.5 -56t-51.5 -61.5l-106 97q31 44 64.5 78t85 71t122.5 57.5t156 20.5q223 0 357 -138.5t134 -363.5q0 -227 -132 -366.5t-349 -139.5z
M528 106q127 0 214 72t104 203h-621q11 -130 89.5 -202.5t213.5 -72.5z" />
    <glyph glyph-name="uni04DA" unicode="&#x4da;" horiz-adv-x="1617" 
d="M690 1726v-204h-170v204h170zM1098 1726v-204h-170v204h170zM772 1464q349 0 559.5 -201.5t210.5 -549.5q0 -221 -87 -388.5t-253.5 -261.5t-390.5 -94q-339 0 -537 203.5t-198 538.5v73h170h1126q-24 241 -181.5 382t-418.5 141q-155 0 -287 -52t-221 -139l-92 135
q112 97 264.5 155t335.5 58zM811 127q247 0 393 136t168 370h-1124q22 -236 168 -371t395 -135z" />
    <glyph glyph-name="uni04DB" unicode="&#x4db;" horiz-adv-x="1067" 
d="M463 1303v-238h-158v238h158zM780 1303v-238h-157v238h157zM520 -31q-113 0 -201 38t-142.5 106t-82.5 157.5t-28 196.5v27h786q-3 156 -96.5 248t-243.5 92q-62 0 -115 -16.5t-93 -47t-64.5 -56t-51.5 -61.5l-106 97q31 44 64.5 78t85 71t122.5 57.5t156 20.5
q223 0 357 -138.5t134 -363.5q0 -227 -132 -366.5t-349 -139.5zM528 106q127 0 214 72t104 203h-621q11 -130 89.5 -202.5t213.5 -72.5z" />
    <glyph glyph-name="uni04DC" unicode="&#x4dc;" horiz-adv-x="1888" 
d="M823 1726v-204h-170v204h170zM1231 1726v-204h-170v204h170zM1874 0h-223l-629 735v-735h-156v735l-628 -735h-224l674 760l-573 674h217l534 -660v660h156v-660l534 660h218l-574 -674z" />
    <glyph glyph-name="uni04DD" unicode="&#x4dd;" horiz-adv-x="1413" 
d="M627 1303v-238h-158v238h158zM944 1303v-238h-158v238h158zM1397 0h-199l-420 485v-485h-145v485l-420 -485h-199l455 512l-412 434h201l375 -420v420h145v-420l375 420h201l-410 -434z" />
    <glyph glyph-name="uni04DE" unicode="&#x4de;" horiz-adv-x="1193" 
d="M481 1726v-204h-170v204h170zM889 1726v-204h-170v204h170zM596 1464q225 0 341 -93.5t116 -260.5q0 -136 -79.5 -222t-232.5 -120v-2q77 -8 140.5 -32.5t115.5 -68.5t81.5 -115.5t29.5 -164.5q0 -190 -133.5 -303t-403.5 -113q-279 0 -512 135l76 146q215 -127 443 -127
q173 0 269.5 66t96.5 202q0 152 -116.5 221.5t-348.5 69.5h-157v149h155q192 0 302 66.5t110 194.5q0 106 -80.5 162.5t-228.5 56.5q-214 0 -430 -121l-72 141q102 59 237 96t281 37z" />
    <glyph glyph-name="uni04DF" unicode="&#x4df;" horiz-adv-x="929" 
d="M362 1303v-238h-157v238h157zM680 1303v-238h-158v238h158zM442 -31q-227 0 -393 90l64 129q164 -82 336 -82q264 0 264 164q0 89 -63 125.5t-193 36.5h-178v131h170q114 0 173.5 31.5t59.5 105.5q0 70 -60.5 105t-170.5 35q-150 0 -320 -66l-51 133q187 70 377 70
q180 0 280.5 -63.5t100.5 -182.5q0 -91 -59.5 -150.5t-166.5 -72.5v-4q120 -11 185 -73t65 -173q0 -137 -103.5 -213t-316.5 -76z" />
    <glyph glyph-name="uni04E0" unicode="&#x4e0;" horiz-adv-x="1128" 
d="M528 -31q-277 0 -499 131l77 148q193 -119 418 -119q165 0 255.5 71t90.5 214q0 155 -108 223t-330 68h-139v135l479 444h-647v150h868v-148l-514 -461q55 15 101 15q87 0 165.5 -23.5t145.5 -72t107 -133.5t40 -197q0 -95 -28.5 -173.5t-87.5 -140.5t-159.5 -96.5
t-234.5 -34.5z" />
    <glyph glyph-name="uni04E1" unicode="&#x4e1;" horiz-adv-x="958" 
d="M412 -440q-118 0 -233 28t-206 76l66 137q189 -98 381 -98q154 0 241 75t87 214q0 145 -93.5 209.5t-275.5 64.5h-186v127l456 414h-590v139h779v-147l-469 -412q105 6 106 6q192 0 310 -103t118 -296q0 -202 -124 -318t-367 -116z" />
    <glyph glyph-name="uni04E2" unicode="&#x4e2;" horiz-adv-x="1421" 
d="M995 1698v-115h-577v115h577zM152 1434h157v-1174h4l787 1174h168v-1434h-158v1174h-4l-787 -1174h-167v1434z" />
    <glyph glyph-name="uni04E3" unicode="&#x4e3;" horiz-adv-x="1105" 
d="M842 1208v-114h-578v114h578zM131 0v946h150v-721h4l540 721h150v-946h-150v721h-4l-538 -721h-152z" />
    <glyph glyph-name="uni04E4" unicode="&#x4e4;" horiz-adv-x="1421" 
d="M590 1726v-204h-170v204h170zM997 1726v-204h-170v204h170zM152 1434h157v-1174h4l787 1174h168v-1434h-158v1174h-4l-787 -1174h-167v1434z" />
    <glyph glyph-name="uni04E5" unicode="&#x4e5;" horiz-adv-x="1105" 
d="M473 1303v-238h-158v238h158zM791 1303v-238h-158v238h158zM131 0v946h150v-721h4l540 721h150v-946h-150v721h-4l-538 -721h-152z" />
    <glyph glyph-name="uni04E6" unicode="&#x4e6;" horiz-adv-x="1646" 
d="M707 1726v-204h-170v204h170zM1114 1726v-204h-170v204h170zM823 1464q211 0 381.5 -94t268.5 -265.5t98 -387.5t-98 -387.5t-268.5 -266t-381.5 -94.5t-381.5 94.5t-268 266t-97.5 387.5q0 162 57 302t156.5 237t237.5 152.5t296 55.5zM823 1305q-124 0 -231 -44
t-182.5 -121.5t-118.5 -186.5t-43 -236t43 -236t118.5 -186.5t182.5 -121.5t231 -44q253 0 414.5 165.5t161.5 422.5t-161.5 422.5t-414.5 165.5z" />
    <glyph glyph-name="uni04E7" unicode="&#x4e7;" horiz-adv-x="1155" 
d="M498 1303v-238h-158v238h158zM815 1303v-238h-158v238h158zM578 977q223 0 367.5 -142t144.5 -362t-144.5 -362t-367.5 -142q-222 0 -367 142.5t-145 361.5t145 361.5t367 142.5zM578 831q-156 0 -256.5 -98.5t-100.5 -259.5t100.5 -259.5t256.5 -98.5t256 98.5
t100 259.5t-100 259.5t-256 98.5z" />
    <glyph glyph-name="uni04E8" unicode="&#x4e8;" horiz-adv-x="1646" 
d="M823 1464q211 0 381.5 -94t268.5 -265.5t98 -387.5t-98 -387.5t-268.5 -266t-381.5 -94.5t-381.5 94.5t-268 266t-97.5 387.5q0 162 57 302t156.5 237t237.5 152.5t296 55.5zM823 1305q-241 0 -401.5 -149t-177.5 -386h1159q-17 237 -177.5 386t-402.5 149zM823 129
q242 0 402.5 149.5t177.5 385.5h-1159q17 -236 178 -385.5t401 -149.5z" />
    <glyph glyph-name="uni04E9" unicode="&#x4e9;" horiz-adv-x="1155" 
d="M578 977q223 0 367.5 -142t144.5 -362t-144.5 -362t-367.5 -142q-222 0 -367 142.5t-145 361.5t145 361.5t367 142.5zM578 838q-146 0 -245 -86t-114 -230h719q-17 144 -116 230t-244 86zM578 109q146 0 244.5 85.5t115.5 229.5h-719q15 -144 114 -229.5t245 -85.5z" />
    <glyph glyph-name="uni04EA" unicode="&#x4ea;" horiz-adv-x="1646" 
d="M707 1726v-204h-170v204h170zM1114 1726v-204h-170v204h170zM823 1464q211 0 381.5 -94t268.5 -265.5t98 -387.5t-98 -387.5t-268.5 -266t-381.5 -94.5t-381.5 94.5t-268 266t-97.5 387.5q0 162 57 302t156.5 237t237.5 152.5t296 55.5zM823 1305q-241 0 -401.5 -149
t-177.5 -386h1159q-17 237 -177.5 386t-402.5 149zM823 129q242 0 402.5 149.5t177.5 385.5h-1159q17 -236 178 -385.5t401 -149.5z" />
    <glyph glyph-name="uni04EB" unicode="&#x4eb;" horiz-adv-x="1155" 
d="M494 1303v-238h-158v238h158zM811 1303v-238h-158v238h158zM578 977q223 0 367.5 -142t144.5 -362t-144.5 -362t-367.5 -142q-222 0 -367 142.5t-145 361.5t145 361.5t367 142.5zM578 838q-146 0 -245 -86t-114 -230h719q-17 144 -116 230t-244 86zM578 109
q146 0 244.5 85.5t115.5 229.5h-719q15 -144 114 -229.5t245 -85.5z" />
    <glyph glyph-name="uni04EC" unicode="&#x4ec;" horiz-adv-x="1396" 
d="M508 1726v-204h-170v204h170zM915 1726v-204h-170v204h170zM600 1464q328 0 524.5 -199.5t196.5 -547.5t-196.5 -548t-524.5 -200q-296 0 -541 168l86 137q208 -147 457 -147q235 0 384.5 142.5t164.5 394.5h-696v147h692q-26 234 -173 365t-372 131q-248 0 -457 -148
l-86 137q245 168 541 168z" />
    <glyph glyph-name="uni04ED" unicode="&#x4ed;" horiz-adv-x="952" 
d="M356 1303v-238h-157v238h157zM674 1303v-238h-158v238h158zM393 977q225 0 354.5 -133.5t129.5 -370.5t-129.5 -370.5t-354.5 -133.5q-187 0 -344 101l72 125q134 -80 272 -80t225.5 78.5t104.5 216.5h-410v127h410q-17 138 -104.5 216t-225.5 78q-140 0 -272 -79
l-72 125q156 100 344 100z" />
    <glyph glyph-name="uni04EE" unicode="&#x4ee;" horiz-adv-x="1224" 
d="M907 1698v-115h-577v115h577zM1047 1434h170l-676 -1434h-168l174 371l-539 1063h185l438 -885z" />
    <glyph glyph-name="uni04EF" unicode="&#x4ef;" horiz-adv-x="956" 
d="M772 1208v-114h-577v114h577zM778 946h164l-618 -1356h-158l242 508l-394 848h174l295 -680z" />
    <glyph glyph-name="uni04F0" unicode="&#x4f0;" horiz-adv-x="1224" 
d="M502 1726v-204h-170v204h170zM909 1726v-204h-170v204h170zM1047 1434h170l-676 -1434h-168l174 371l-539 1063h185l438 -885z" />
    <glyph glyph-name="uni04F1" unicode="&#x4f1;" horiz-adv-x="956" 
d="M406 1303v-238h-158v238h158zM723 1303v-238h-158v238h158zM778 946h164l-618 -1356h-158l242 508l-394 848h174l295 -680z" />
    <glyph glyph-name="uni04F2" unicode="&#x4f2;" horiz-adv-x="1224" 
d="M784 1767l-211 -245h-112l180 245h143zM793 1522h-113l180 245h144zM1047 1434h170l-676 -1434h-168l174 371l-539 1063h185l438 -885z" />
    <glyph glyph-name="uni04F3" unicode="&#x4f3;" horiz-adv-x="956" 
d="M678 1346l-244 -316h-112l213 316h143zM662 1030h-113l213 316h143zM778 946h164l-618 -1356h-158l242 508l-394 848h174l295 -680z" />
    <glyph glyph-name="uni04F4" unicode="&#x4f4;" horiz-adv-x="1167" 
d="M412 1726v-204h-170v204h170zM819 1726v-204h-170v204h170zM858 1434h158v-1434h-158v608h-446q-185 0 -276 85.5t-91 260.5v480h158v-478q0 -106 54.5 -152t174.5 -46h426v676z" />
    <glyph glyph-name="uni04F5" unicode="&#x4f5;" horiz-adv-x="911" 
d="M324 1303v-238h-158v238h158zM641 1303v-238h-158v238h158zM633 946h147v-946h-147v381h-330q-268 0 -268 246v319h147v-305q0 -67 32 -97t99 -30h320v432z" />
    <glyph glyph-name="uni04F8" unicode="&#x4f8;" horiz-adv-x="1611" 
d="M705 1726v-204h-170v204h170zM1112 1726v-204h-170v204h170zM672 834q199 0 321.5 -111t122.5 -307q0 -194 -122.5 -305t-321.5 -111h-520v1434h157v-600h363zM1300 1434h160v-1434h-160v1434zM651 150q144 0 219.5 71.5t75.5 194.5q0 125 -75.5 196.5t-219.5 71.5h-342
v-534h342z" />
    <glyph glyph-name="uni04F9" unicode="&#x4f9;" horiz-adv-x="1277" 
d="M567 1303v-238h-157v238h157zM885 1303v-238h-158v238h158zM582 596q147 0 234 -80.5t87 -216.5q0 -133 -88 -216t-235 -83h-449v946h148v-350h303zM999 946h148v-946h-148v946zM565 133q91 0 137 43t46 121q0 81 -46 123.5t-137 42.5h-286v-330h286z" />
    <glyph glyph-name="uni04FC" unicode="&#x4fc;" horiz-adv-x="1234" 
d="M1044 262q80 -123 120 -214t40 -187q0 -134 -87.5 -202.5t-235.5 -68.5h-88v148h88q166 0 166 137q0 37 -9.5 72.5t-39 89t-46.5 80t-69 106.5l-265 404l-401 -627h-188l491 760l-434 674h188l344 -539l345 539h188l-434 -674z" />
    <glyph glyph-name="uni04FD" unicode="&#x4fd;" horiz-adv-x="948" 
d="M600 -410v140h92q55 0 85 31.5t30 93.5q0 49 -27 104.5t-96 149.5l-205 274l-286 -383h-179l379 498l-334 448h179l241 -338l242 338h178l-334 -448l258 -334q72 -96 100.5 -165.5t28.5 -158.5q0 -117 -60 -183.5t-181 -66.5h-111z" />
    <glyph glyph-name="uni0510" unicode="&#x510;" horiz-adv-x="1193" 
d="M598 1464q146 0 281 -37t237 -96l-72 -141q-216 121 -430 121q-148 0 -228.5 -56.5t-80.5 -162.5q0 -127 110.5 -194t301.5 -67h155v-149h-157q-232 0 -348.5 -69.5t-116.5 -221.5q0 -136 96.5 -202t269.5 -66q232 0 443 127l76 -146q-233 -135 -512 -135
q-270 0 -403.5 113t-133.5 303q0 93 29.5 164.5t81.5 115.5t115.5 68.5t140.5 32.5v2q-153 34 -232.5 120t-79.5 222q0 167 116 260.5t341 93.5z" />
    <glyph glyph-name="uni0511" unicode="&#x511;" horiz-adv-x="903" 
d="M457 -31q-199 0 -295 72.5t-96 206.5q0 113 69.5 179t190.5 77v4q-108 14 -171 74.5t-63 154.5q0 114 89.5 177t250.5 63q196 0 391 -70l-51 -133q-170 66 -319 66q-207 0 -207 -131q0 -79 65.5 -112.5t194.5 -33.5h145v-131h-153q-144 0 -213.5 -38.5t-69.5 -129.5
q0 -158 236 -158q176 0 340 82l63 -129q-187 -90 -397 -90z" />
    <glyph glyph-name="uni0512" unicode="&#x512;" horiz-adv-x="1439" 
d="M1288 -121q0 -136 -66 -212.5t-196 -76.5h-135v150h110q65 0 97 34t32 109v117v1284h-708v-944q0 -180 -73.5 -265t-227.5 -85h-86v153h71q81 0 119.5 44t38.5 153v1094h1024v-1555z" />
    <glyph glyph-name="uni0513" unicode="&#x513;" horiz-adv-x="1089" 
d="M958 0h3v-147q0 -126 -61 -194.5t-183 -68.5h-111v140h92q55 0 85 32t30 95v143h-2v807h-475v-563q0 -126 -60 -189t-165 -63h-91v135h72q51 0 73.5 28.5t22.5 90.5v700h148h622v-946z" />
    <glyph glyph-name="uni051C" unicode="&#x51c;" horiz-adv-x="1992" 
d="M1962 1434l-434 -1434h-158l-371 1169h-6l-370 -1169h-158l-434 1434h176l334 -1180h4l368 1180h164l371 -1180h4l332 1180h178z" />
    <glyph glyph-name="uni051D" unicode="&#x51d;" horiz-adv-x="1472" 
d="M1294 946h164l-319 -946h-142l-262 754l-262 -754h-139l-320 946h162l230 -756l256 756h149l256 -756z" />
    <glyph glyph-name="uni0524" unicode="&#x524;" horiz-adv-x="1427" 
d="M1274 104h112v-391h-147v287h-123v1284h-807v-1284h-157v1434h1122v-1330z" />
    <glyph glyph-name="uni0525" unicode="&#x525;" horiz-adv-x="1067" 
d="M944 88h88v-354h-133v266h-102v807h-518v-807h-148v946h148h630h35v-858z" />
    <glyph glyph-name="uni0526" unicode="&#x526;" horiz-adv-x="1267" 
d="M1122 104h107v-391h-148v287h-116v477q0 106 -55 152.5t-175 46.5h-426v-676h-157v1434h157v-609h449q184 0 274 -85.5t90 -260.5v-375z" />
    <glyph glyph-name="uni0527" unicode="&#x527;" horiz-adv-x="1114" 
d="M989 88h90v-354h-133v266h-104v555q0 140 -66.5 207t-185.5 67q-64 0 -116.5 -20.5t-96 -64.5t-68 -122.5t-24.5 -185.5v-436h-148v1434h148v-670h4q46 103 133.5 158t204.5 55q165 0 263.5 -99t98.5 -303v-487z" />
    <glyph glyph-name="uni0E3F" unicode="&#xe3f;" horiz-adv-x="1024" 
d="M711 688q108 -31 169.5 -113.5t61.5 -203.5q0 -176 -114 -273.5t-293 -97.5h-27v-178h-57v178h-369v1382h369v179h57v-179h27q178 0 292.5 -97.5t114.5 -272.5q0 -121 -61.5 -204t-169.5 -114v-6zM451 1243h-222v-485h222v485zM545 1243h-37v-485q135 1 207.5 68.5
t72.5 183.5q0 104 -70 168.5t-173 64.5zM229 139h222v486h-222v-486zM545 139q104 0 175 65t71 169q0 116 -73.5 183.5t-209.5 68.5v-486h37z" />
    <glyph glyph-name="Wgrave" unicode="&#x1e80;" horiz-adv-x="1992" 
d="M866 1767l195 -245h-119l-274 245h198zM1962 1434l-434 -1434h-158l-371 1169h-6l-370 -1169h-158l-434 1434h176l334 -1180h4l368 1180h164l371 -1180h4l332 1180h178z" />
    <glyph glyph-name="wgrave" unicode="&#x1e81;" horiz-adv-x="1472" 
d="M795 1133h-121l-273 315h201zM1294 946h164l-319 -946h-142l-262 754l-262 -754h-139l-320 946h162l230 -756l256 756h149l256 -756z" />
    <glyph glyph-name="Wacute" unicode="&#x1e82;" horiz-adv-x="1992" 
d="M1327 1767l-274 -245h-119l194 245h199zM1962 1434l-434 -1434h-158l-371 1169h-6l-370 -1169h-158l-434 1434h176l334 -1180h4l368 1180h164l371 -1180h4l332 1180h178z" />
    <glyph glyph-name="wacute" unicode="&#x1e83;" horiz-adv-x="1472" 
d="M1069 1448l-270 -315h-123l194 315h199zM1294 946h164l-319 -946h-142l-262 754l-262 -754h-139l-320 946h162l230 -756l256 756h149l256 -756z" />
    <glyph glyph-name="Wdieresis" unicode="&#x1e84;" horiz-adv-x="1992" 
d="M879 1726v-204h-170v204h170zM1286 1726v-204h-170v204h170zM1962 1434l-434 -1434h-158l-371 1169h-6l-370 -1169h-158l-434 1434h176l334 -1180h4l368 1180h164l371 -1180h4l332 1180h178z" />
    <glyph glyph-name="wdieresis" unicode="&#x1e85;" horiz-adv-x="1472" 
d="M627 1413v-237h-164v237h164zM1008 1413v-237h-164v237h164zM1294 946h164l-319 -946h-142l-262 754l-262 -754h-139l-320 946h162l230 -756l256 756h149l256 -756z" />
    <glyph glyph-name="Ygrave" unicode="&#x1ef2;" horiz-adv-x="1093" 
d="M610 1522h-118l-275 245h199zM1085 1434l-458 -873v-561h-160v561l-459 873h185l352 -703h4l352 703h184z" />
    <glyph glyph-name="ygrave" unicode="&#x1ef3;" horiz-adv-x="956" 
d="M545 1133h-121l-272 315h200zM778 946h164l-618 -1356h-158l242 508l-394 848h174l295 -680z" />
    <glyph glyph-name="endash" unicode="&#x2013;" horiz-adv-x="1540" 
d="M1438 623v-136h-1336v136h1336z" />
    <glyph glyph-name="emdash" unicode="&#x2014;" horiz-adv-x="2363" 
d="M2261 623v-136h-2159v136h2159z" />
    <glyph glyph-name="quoteleft" unicode="&#x2018;" horiz-adv-x="342" 
d="M270 1513l-110 -296h90v-187h-189v187l146 296h63z" />
    <glyph glyph-name="quoteright" unicode="&#x2019;" horiz-adv-x="342" 
d="M94 1464h187v-186l-146 -297h-63l108 297h-86v186z" />
    <glyph glyph-name="quotesinglbase" unicode="&#x201a;" horiz-adv-x="342" 
d="M94 188h187v-188l-146 -297h-63l110 297h-88v188z" />
    <glyph glyph-name="quotedblleft" unicode="&#x201c;" horiz-adv-x="606" 
d="M207 1513h63l-110 -296h90v-187h-189v187zM535 1513l-111 -296h88v-187h-186v187l145 296h64z" />
    <glyph glyph-name="quotedblright" unicode="&#x201d;" horiz-adv-x="606" 
d="M94 1278v186h187v-186l-146 -297h-63l108 297h-86zM358 1464h187v-186l-146 -297h-63l110 297h-88v186z" />
    <glyph glyph-name="quotedblbase" unicode="&#x201e;" horiz-adv-x="606" 
d="M94 0v188h187v-188l-146 -297h-63l110 297h-88zM358 188h187v-188l-146 -297h-63l110 297h-88v188z" />
    <glyph glyph-name="dagger" unicode="&#x2020;" horiz-adv-x="1019" 
d="M918 973v-123h-340v-1040h-136v1040h-340v123h340v461h136v-461h340z" />
    <glyph glyph-name="daggerdbl" unicode="&#x2021;" horiz-adv-x="1015" 
d="M913 858h-338v-450h338v-125h-338v-473h-135v473h-338v125h338v450h-338v125h338v451h135v-451h338v-125z" />
    <glyph glyph-name="bullet" unicode="&#x2022;" horiz-adv-x="667" 
d="M334 969q85 0 143 -58t58 -143q0 -86 -58 -143.5t-143 -57.5t-143 57.5t-58 143.5q0 85 58 143t143 58z" />
    <glyph glyph-name="ellipsis" unicode="&#x2026;" horiz-adv-x="1402" 
d="M324 211v-211h-211v211h211zM807 211v-211h-211v211h211zM1290 211v-211h-211v211h211z" />
    <glyph glyph-name="perthousand" unicode="&#x2030;" horiz-adv-x="2271" 
d="M426 1413q142 0 233 -91t91 -232t-91 -232.5t-233 -91.5t-233 91.5t-91 232.5t91 232t233 91zM301 0l809 1382h98l-809 -1382h-98zM426 1317q-101 0 -161 -62.5t-60 -164.5t60 -165t161 -63t161 63t60 165t-60 164.5t-161 62.5zM1112 637q142 0 233 -91.5t91 -232.5
t-91 -232t-233 -91t-233 91t-91 232t91 232.5t233 91.5zM1845 637q142 0 233 -91.5t91 -232.5t-91 -232t-233 -91t-232.5 91t-90.5 232t90.5 232.5t232.5 91.5zM1112 541q-101 0 -161 -63t-60 -165t60 -164.5t161 -62.5t161 62.5t60 164.5t-60 165t-161 63zM1845 541
q-102 0 -161.5 -63t-59.5 -165t59.5 -164.5t161.5 -62.5q101 0 161 62.5t60 164.5t-60 165t-161 63z" />
    <glyph glyph-name="guilsinglleft" unicode="&#x2039;" horiz-adv-x="526" 
d="M506 797l-297 -318l297 -317h-172l-293 317l293 318h172z" />
    <glyph glyph-name="guilsinglright" unicode="&#x203a;" horiz-adv-x="526" 
d="M20 797h173l292 -318l-292 -317h-173l295 317z" />
    <glyph glyph-name="fraction" unicode="&#x2044;" horiz-adv-x="210" 
d="M-348 0l809 1382h98l-809 -1382h-98z" />
    <glyph glyph-name="uni2070" unicode="&#x2070;" horiz-adv-x="880" 
d="M440 692q-165 0 -263.5 125t-98.5 352t98.5 351.5t263.5 124.5t264 -124.5t99 -351.5t-99 -352t-264 -125zM440 823q103 0 164.5 93t61.5 253q0 162 -61 254.5t-165 92.5q-103 0 -164 -92.5t-61 -254.5t61 -254t164 -92z" />
    <glyph glyph-name="uni2074" unicode="&#x2074;" horiz-adv-x="831" 
d="M770 1014v-133h-117v-168h-129v168h-483v110l467 635h145v-612h117zM199 1014h325v434h-6z" />
    <glyph glyph-name="uni2075" unicode="&#x2075;" horiz-adv-x="802" 
d="M393 692q-223 0 -321 174l102 86q76 -135 223 -135q94 0 141.5 52.5t47.5 142.5q0 91 -50.5 137.5t-134.5 46.5q-111 0 -176 -88h-114l61 518h479v-131h-375l-32 -246h4q79 62 180 62q127 0 212 -78.5t85 -226.5q0 -146 -87.5 -230t-244.5 -84z" />
    <glyph glyph-name="uni2076" unicode="&#x2076;" horiz-adv-x="798" 
d="M401 692q-140 0 -237.5 88.5t-97.5 239.5q0 92 33 172.5t112 183.5l207 266h174l-338 -391l4 -2q74 74 178 74q130 0 215.5 -83.5t85.5 -233.5q0 -131 -91.5 -222.5t-244.5 -91.5zM406 819q86 0 141 52.5t55 142.5q0 89 -55.5 140.5t-140.5 51.5q-87 0 -144 -52.5
t-57 -139.5q0 -90 57 -142.5t144 -52.5z" />
    <glyph glyph-name="uni2077" unicode="&#x2077;" horiz-adv-x="690" 
d="M94 713l391 778h-450v135h600v-127l-391 -786h-150z" />
    <glyph glyph-name="uni2078" unicode="&#x2078;" horiz-adv-x="823" 
d="M412 692q-161 0 -247.5 73.5t-86.5 195.5q0 95 49.5 154t130.5 81v4q-68 20 -111 74t-43 133q0 108 81.5 173t226.5 65q146 0 226.5 -65t80.5 -173q0 -79 -42.5 -133t-109.5 -74v-4q81 -21 129.5 -80.5t48.5 -154.5q0 -123 -85.5 -196t-247.5 -73zM412 1255
q75 0 121.5 38t46.5 100q0 67 -46 103t-122 36t-121 -36t-45 -103q0 -62 45.5 -100t120.5 -38zM412 811q88 0 141 44.5t53 119.5q0 73 -52 119.5t-142 46.5t-142.5 -47t-52.5 -119q0 -75 53.5 -119.5t141.5 -44.5z" />
    <glyph glyph-name="uni2079" unicode="&#x2079;" horiz-adv-x="796" 
d="M213 713l330 368l-4 4q-81 -65 -185 -65q-123 0 -208 87t-85 218q0 137 93.5 228.5t240.5 91.5t243.5 -89t96.5 -241q0 -97 -38 -186.5t-122 -188.5l-192 -227h-170zM397 1135q87 0 143 52t56 140q0 87 -56 140t-141 53q-87 0 -143.5 -53t-56.5 -142q0 -86 56 -138
t142 -52z" />
    <glyph glyph-name="uni2080" unicode="&#x2080;" horiz-adv-x="880" 
d="M440 -246q-165 0 -263.5 125t-98.5 352t98.5 351.5t263.5 124.5t264 -124.5t99 -351.5t-99 -352t-264 -125zM440 -115q103 0 164.5 93t61.5 253q0 162 -61 254.5t-165 92.5q-103 0 -164 -92.5t-61 -254.5t61 -254t164 -92z" />
    <glyph glyph-name="uni2081" unicode="&#x2081;" horiz-adv-x="477" 
d="M180 -225v778h-63v135h207v-913h-144z" />
    <glyph glyph-name="uni2082" unicode="&#x2082;" horiz-adv-x="761" 
d="M80 -225v119l348 337q63 59 93 108t30 105q0 62 -43.5 100t-118.5 38q-74 0 -123.5 -39t-52.5 -123h-135q1 143 86.5 216t228.5 73q141 0 218 -70.5t77 -192.5q0 -86 -39.5 -153.5t-109.5 -134.5l-267 -254h424v-129h-616z" />
    <glyph glyph-name="uni2083" unicode="&#x2083;" horiz-adv-x="802" 
d="M393 -246q-142 0 -228 64t-89 202h135q13 -139 188 -139q92 0 142.5 39.5t50.5 120.5q0 87 -62 121.5t-196 34.5v112q112 2 167.5 33.5t55.5 103.5q0 67 -41 100.5t-117 33.5q-78 0 -125.5 -34t-50.5 -104h-135q2 123 84.5 194t228.5 71q139 0 217 -64t78 -170
q0 -78 -43.5 -134t-128.5 -73v-4q92 -13 147.5 -69t55.5 -162q0 -123 -82 -200t-252 -77z" />
    <glyph glyph-name="uni2084" unicode="&#x2084;" horiz-adv-x="831" 
d="M770 76v-133h-117v-168h-129v168h-483v110l467 635h145v-612h117zM199 76h325v434h-6z" />
    <glyph glyph-name="uni2085" unicode="&#x2085;" horiz-adv-x="802" 
d="M393 -246q-223 0 -321 174l102 86q76 -135 223 -135q94 0 141.5 52.5t47.5 142.5q0 91 -50.5 137.5t-134.5 46.5q-111 0 -176 -88h-114l61 518h479v-131h-375l-32 -246h4q79 62 180 62q127 0 212 -78.5t85 -226.5q0 -146 -87.5 -230t-244.5 -84z" />
    <glyph glyph-name="uni2086" unicode="&#x2086;" horiz-adv-x="798" 
d="M401 -246q-140 0 -237.5 88.5t-97.5 239.5q0 92 33 172.5t112 183.5l207 267h174l-338 -392l4 -2q74 74 178 74q130 0 215.5 -83.5t85.5 -233.5q0 -131 -91.5 -222.5t-244.5 -91.5zM406 -119q86 0 141 52.5t55 142.5q0 89 -55.5 140.5t-140.5 51.5q-87 0 -144 -52.5
t-57 -139.5q0 -90 57 -142.5t144 -52.5z" />
    <glyph glyph-name="uni2087" unicode="&#x2087;" horiz-adv-x="690" 
d="M94 -225l391 778h-450v135h600v-127l-391 -786h-150z" />
    <glyph glyph-name="uni2088" unicode="&#x2088;" horiz-adv-x="823" 
d="M412 -246q-161 0 -247.5 73.5t-86.5 195.5q0 95 49.5 154t130.5 81v4q-68 20 -111 74t-43 133q0 108 81.5 173t226.5 65q146 0 226.5 -65t80.5 -173q0 -79 -42.5 -133t-109.5 -74v-4q81 -21 129.5 -80.5t48.5 -154.5q0 -123 -85.5 -196t-247.5 -73zM412 317
q75 0 121.5 38t46.5 100q0 67 -46 103t-122 36t-121 -36t-45 -103q0 -62 45.5 -100t120.5 -38zM412 -127q88 0 141 44.5t53 119.5q0 73 -52 119.5t-142 46.5t-142.5 -47t-52.5 -119q0 -75 53.5 -119.5t141.5 -44.5z" />
    <glyph glyph-name="uni2089" unicode="&#x2089;" horiz-adv-x="796" 
d="M213 -225l330 368l-4 4q-81 -65 -185 -65q-123 0 -208 87t-85 218q0 137 93.5 228.5t240.5 91.5t243.5 -89t96.5 -241q0 -97 -38 -186.5t-122 -188.5l-192 -227h-170zM397 197q87 0 143 52t56 140q0 87 -56 140t-141 53q-87 0 -143.5 -53t-56.5 -142q0 -86 56 -138
t142 -52z" />
    <glyph glyph-name="TRY" unicode="&#x20a4;" horiz-adv-x="1214" 
d="M991 670h142q0 -203 -83 -356t-229.5 -233.5t-335.5 -80.5h-139v621l-264 -115v63l264 115v115l-264 -115v64l264 114v520h148v-454l399 174v-64l-399 -174v-114l399 174v-64l-399 -174v-534q228 0 362.5 139t134.5 379z" />
    <glyph glyph-name="uni20A9" unicode="&#x20a9;" horiz-adv-x="1941" 
d="M1901 803h-201l-39 -139h240v-62h-256l-164 -602h-176l-170 602h-330l-168 -602h-176l-164 602h-256v62h238l-37 139h-201v61h184l-141 518h166l129 -518h354l146 518h182l145 -518h355l129 518h168l-142 -518h185v-61zM969 1182l-90 -318h184l-90 318h-4zM395 803
l35 -139h248l39 139h-322zM823 664h295l-39 139h-217zM1511 664l35 139h-321l39 -139h247zM549 201l113 401h-218l101 -401h4zM1397 201l100 401h-217l113 -401h4z" />
    <glyph glyph-name="Euro" unicode="&#x20ac;" horiz-adv-x="1347" 
d="M883 1274q-190 0 -315 -120.5t-156 -330.5h661l-31 -61h-636q-5 -58 -5 -72q0 -8 1 -24.5t1 -24.5h584l-31 -61h-548q25 -222 145.5 -345.5t323.5 -123.5q171 0 333 90v-160q-150 -70 -331 -70q-146 0 -261.5 47t-190 131t-117.5 192t-56 239h-244l31 61h209q0 8 -1 25.5
t-1 25.5q0 24 4 70h-232l31 61h205q16 127 63.5 232.5t124 186.5t189.5 126t252 45q220 0 401 -115l-65 -124q-169 100 -338 100z" />
    <glyph glyph-name="uni20AE" unicode="&#x20ae;" horiz-adv-x="1087" 
d="M1047 1243h-429v-334l287 146v-64l-287 -145v-115l287 146v-64l-287 -145v-668h-147v592l-287 -148v64l287 147v115l-287 -147v63l287 148v409h-430v139h1006v-139z" />
    <glyph glyph-name="uni20B4" unicode="&#x20b4;" horiz-adv-x="1034" 
d="M727 809q-16 -14 -43 -33l-145 -106h454v-62h-538l-13 -10q-176 -129 -176 -270q0 -94 69 -155.5t208 -61.5q87 0 177.5 29t219.5 93v-149q-203 -115 -416 -115q-193 0 -302 91.5t-109 263.5q0 156 125 284h-197v62h264q24 21 51 39l136 100h-451v61h534l11 7
q76 58 112.5 112t36.5 117q0 73 -57.5 120.5t-167.5 47.5q-119 0 -332 -88v147q194 80 348 80q176 0 269.5 -81t93.5 -220t-96 -242h200v-61h-266z" />
    <glyph glyph-name="uni20B8" unicode="&#x20b8;" horiz-adv-x="1087" 
d="M41 1382h1006v-139h-1006v139zM41 981v139h1006v-139h-429v-981h-147v981h-430z" />
    <glyph glyph-name="uni20B9" unicode="&#x20b9;" horiz-adv-x="1052" 
d="M594 1321q177 -99 192 -305h185l-45 -62h-140q-9 -167 -132.5 -268.5t-307.5 -101.5h-78l514 -584h-190l-510 584v141h260q131 0 207 63.5t84 165.5h-551v62h551q-11 100 -87 162.5t-204 62.5h-260v141h256h633l-45 -61h-332z" />
    <glyph glyph-name="uni20BD" unicode="&#x20bd;" horiz-adv-x="1212" 
d="M700 592h-262v-162h461v-61h-461v-369h-147v369h-209v61h209v162h-209v139h209v651h409q204 0 317 -111t113 -288q0 -176 -113 -283.5t-317 -107.5zM438 1243v-512h262q128 0 202.5 65t74.5 189q0 125 -74.5 191.5t-202.5 66.5h-262z" />
    <glyph glyph-name="uni2113" unicode="&#x2113;" horiz-adv-x="925" 
d="M360 606q3 -264 55 -382t169 -118q51 0 103.5 19t137.5 65v-141q-6 -3 -26 -12.5t-25 -12t-22.5 -10.5t-24 -10t-22 -8t-24.5 -7.5t-24 -5.5t-27 -5t-27.5 -2t-31.5 -1q-173 0 -253 133t-87 447q-57 -21 -149 -51v129q58 19 147 53q2 171 22 300t52 209.5t79 130t98 68.5
t114 19q116 0 183 -73t67 -197q0 -324 -484 -537zM588 1288q-211 0 -228 -545q351 173 351 402q0 71 -32.5 107t-90.5 36z" />
    <glyph glyph-name="uni2116" unicode="&#x2116;" horiz-adv-x="2314" 
d="M1268 1434v-1434h-168l-787 1165h-4v-1165h-157v1434h167l787 -1166h4v1166h158zM1806 1130q189 0 307.5 -118t118.5 -307t-118.5 -306.5t-307.5 -117.5t-306.5 117.5t-117.5 306.5t117.5 307t306.5 118zM1808 999q-127 0 -208.5 -82.5t-81.5 -211.5t81.5 -213t208.5 -84
t209 84t82 213t-81.5 211.5t-209.5 82.5zM2195 127v-127h-776v127h776z" />
    <glyph glyph-name="trademark" unicode="&#x2122;" horiz-adv-x="1712" 
d="M672 1329h-252v-758h-107v758h-252v105h611v-105zM1462 1434l189 -863h-115l-143 646l-205 -515h-90l-207 515l-143 -646h-113l188 863h101l219 -566l219 566h100z" />
    <glyph glyph-name="estimated" unicode="&#x212e;" horiz-adv-x="1591" 
d="M76 623q0 176 96.5 325t262 235.5t360.5 86.5q196 0 362 -86.5t262.5 -235.5t96.5 -325v-19h-1176v-287q0 -68 27.5 -124.5t78.5 -88.5q139 -92 353 -92q151 0 285 57t223 158h59q-101 -118 -252.5 -185t-318.5 -67q-146 0 -279.5 51.5t-229.5 138t-153 206.5t-57 252z
M1161 1130q-133 103 -362 103q-217 0 -353 -94q-106 -71 -106 -174v-324h911v311q0 109 -90 178z" />
    <glyph glyph-name="uni2153" unicode="&#x2153;" horiz-adv-x="1366" 
d="M266 1382v-790h-96v694h-88v96h184zM94 0l809 1382h98l-808 -1382h-99zM1008 809q120 0 184.5 -54t64.5 -149q0 -70 -40 -116.5t-113 -63.5v-2q84 -11 132 -61.5t48 -143.5q0 -107 -69.5 -172t-215.5 -65q-126 0 -199 60t-79 171h100q7 -66 53.5 -100.5t124.5 -34.5
q185 0 185 147q0 81 -60.5 113.5t-175.5 32.5v92q209 3 209 131q0 119 -151 119q-75 0 -121 -33t-49 -102h-99q6 114 75.5 172.5t195.5 58.5z" />
    <glyph glyph-name="uni2154" unicode="&#x2154;" horiz-adv-x="1677" 
d="M348 1401q123 0 186.5 -62t63.5 -163q0 -70 -35 -130t-100 -124l-238 -236h375v-94h-516v86l299 299q113 113 113 199q0 55 -39 92t-109 37q-147 0 -162 -146h-98q4 116 74 179t186 63zM406 0l808 1382h99l-809 -1382h-98zM1319 809q120 0 185 -54t65 -149
q0 -70 -40.5 -116.5t-113.5 -63.5v-2q84 -11 132 -61.5t48 -143.5q0 -107 -69 -172t-215 -65q-126 0 -199.5 60t-79.5 171h101q7 -66 53.5 -100.5t124.5 -34.5q184 0 184 147q0 81 -60 113.5t-175 32.5v92q208 3 208 131q0 119 -151 119q-75 0 -121 -33t-49 -102h-98
q6 114 75 172.5t195 58.5z" />
    <glyph glyph-name="oneeighth" unicode="&#x215b;" horiz-adv-x="1370" 
d="M266 1382v-790h-96v694h-88v96h184zM94 0l809 1382h98l-808 -1382h-99zM1006 -18q-132 0 -204.5 65t-72.5 166q0 86 42 136t112 69v4q-57 16 -93 61.5t-36 118.5q0 92 67 149.5t185 57.5q119 0 186.5 -57.5t67.5 -149.5q0 -73 -37 -118.5t-95 -61.5v-4q70 -19 112 -69
t42 -136q0 -101 -71.5 -166t-204.5 -65zM1006 465q69 0 110 35t41 92q0 56 -41.5 88.5t-109.5 32.5t-110 -32.5t-42 -88.5q0 -57 41.5 -92t110.5 -35zM1006 78q86 0 132 38t46 109q0 69 -47.5 108.5t-130.5 39.5q-82 0 -129.5 -39.5t-47.5 -108.5q0 -70 46 -108.5t131 -38.5
z" />
    <glyph glyph-name="threeeighths" unicode="&#x215c;" horiz-adv-x="1652" 
d="M354 1401q120 0 185 -54t65 -149q0 -70 -40 -116.5t-113 -63.5v-2q84 -11 132 -61.5t48 -143.5q0 -107 -69.5 -172.5t-215.5 -65.5q-126 0 -199 60t-79 172h100q7 -66 53.5 -100.5t124.5 -34.5q184 0 184 147q0 81 -60 113.5t-175 32.5v92q209 3 209 131q0 119 -152 119
q-75 0 -121 -33.5t-49 -102.5h-98q6 114 75 173t195 59zM377 0l809 1382h98l-809 -1382h-98zM1288 -18q-132 0 -204 65t-72 166q0 164 153 205v4q-57 16 -93 61.5t-36 118.5q0 92 67 149.5t185 57.5q119 0 186.5 -57.5t67.5 -149.5q0 -73 -36.5 -118.5t-94.5 -61.5v-4
q70 -19 112 -69t42 -136q0 -101 -72 -166t-205 -65zM1288 465q69 0 110.5 35t41.5 92q0 56 -42 88.5t-110 32.5t-109.5 -32.5t-41.5 -88.5q0 -57 41 -92t110 -35zM1288 78q86 0 132 38t46 109q0 69 -47.5 108.5t-130.5 39.5q-82 0 -129 -39.5t-47 -108.5q0 -71 45.5 -109
t130.5 -38z" />
    <glyph glyph-name="fiveeighths" unicode="&#x215d;" horiz-adv-x="1626" 
d="M369 1112q101 0 175 -69t74 -197t-76.5 -200.5t-203.5 -72.5q-199 0 -277 160l80 55q65 -118 199 -118q85 0 131.5 47.5t46.5 128.5q0 83 -47.5 128.5t-120.5 45.5q-107 0 -164 -76h-88l54 438h407v-94h-334l-30 -244h6q25 30 69.5 49t98.5 19zM350 0l809 1382h98
l-808 -1382h-99zM1262 -18q-132 0 -204.5 65t-72.5 166q0 86 42 136t112 69v4q-57 16 -93 61.5t-36 118.5q0 92 67 149.5t185 57.5q119 0 186.5 -57.5t67.5 -149.5q0 -73 -37 -118.5t-95 -61.5v-4q70 -19 112 -69t42 -136q0 -101 -71.5 -166t-204.5 -65zM1262 465
q69 0 110 35t41 92q0 56 -41.5 88.5t-109.5 32.5t-110 -32.5t-42 -88.5q0 -57 41.5 -92t110.5 -35zM1262 78q86 0 132 38t46 109q0 69 -47.5 108.5t-130.5 39.5q-82 0 -129.5 -39.5t-47.5 -108.5q0 -70 46 -108.5t131 -38.5z" />
    <glyph glyph-name="seveneighths" unicode="&#x215e;" horiz-adv-x="1464" 
d="M547 1382v-92l-352 -698h-105l352 694h-401v96h506zM188 0l809 1382h99l-809 -1382h-99zM1100 -18q-132 0 -204.5 65t-72.5 166q0 86 42 136t112 69v4q-57 16 -93 61.5t-36 118.5q0 92 67 149.5t185 57.5q119 0 186.5 -57.5t67.5 -149.5q0 -73 -36.5 -118.5t-94.5 -61.5
v-4q153 -41 153 -205q0 -101 -71.5 -166t-204.5 -65zM1100 465q69 0 110 35t41 92q0 56 -41.5 88.5t-109.5 32.5t-110 -32.5t-42 -88.5q0 -57 41.5 -92t110.5 -35zM1100 78q86 0 132 38t46 109q0 69 -47.5 108.5t-130.5 39.5q-82 0 -129 -39.5t-47 -108.5q0 -71 45.5 -109
t130.5 -38z" />
    <glyph glyph-name="arrowleft" unicode="&#x2190;" horiz-adv-x="1679" 
d="M1577 664v-140h-1221l467 -469l-106 -106l-615 645l615 645l106 -106l-467 -469h1221z" />
    <glyph glyph-name="arrowup" unicode="&#x2191;" horiz-adv-x="1495" 
d="M1393 698l-107 -106l-469 467v-1221h-139v1221l-469 -467l-107 106l646 615z" />
    <glyph glyph-name="arrowright" unicode="&#x2192;" horiz-adv-x="1679" 
d="M963 1241l614 -645l-614 -645l-107 106l467 469h-1221v140h1221l-467 469z" />
    <glyph glyph-name="arrowdown" unicode="&#x2193;" horiz-adv-x="1495" 
d="M1286 598l107 -106l-645 -615l-646 615l107 106l469 -467v1221h139v-1221z" />
    <glyph glyph-name="arrowboth" unicode="&#x2194;" horiz-adv-x="2578" 
d="M1862 1239l614 -645l-614 -645l-107 106l467 469h-1221h-645l467 -469l-106 -106l-615 645l615 645l106 -106l-467 -469h1221h645l-467 469z" />
    <glyph glyph-name="arrowupdn" unicode="&#x2195;" horiz-adv-x="1495" 
d="M817 -223l469 467l107 -107l-645 -614l-646 614l107 107l469 -467v1220v437l-469 -467l-107 106l646 615l645 -615l-107 -106l-469 467v-1221v-436z" />
    <glyph glyph-name="uni2196" unicode="&#x2196;" horiz-adv-x="1316" 
d="M1214 111l-98 -99l-862 865l-2 -664l-150 -2l21 891l891 22v-149l-662 -2z" />
    <glyph glyph-name="uni2197" unicode="&#x2197;" horiz-adv-x="1318" 
d="M1217 211h-152v663l-864 -864l-99 99l865 862l-664 2v149l891 -20z" />
    <glyph glyph-name="uni2198" unicode="&#x2198;" horiz-adv-x="1316" 
d="M1065 975l149 2l-20 -891l-891 -23v150l662 2l-863 862l99 99l862 -865z" />
    <glyph glyph-name="uni2199" unicode="&#x2199;" horiz-adv-x="1318" 
d="M352 217l662 -2l2 -149l-891 20l-23 891h152v-664l862 865l101 -99z" />
    <glyph glyph-name="partialdiff" unicode="&#x2202;" horiz-adv-x="1161" 
d="M477 1464q132 0 241 -46.5t190 -138t126 -237.5t45 -335q0 -120 -18 -227t-59 -201.5t-101 -162.5t-149.5 -107.5t-200.5 -39.5q-216 0 -342.5 131.5t-126.5 339.5q0 222 134.5 353t342.5 131q236 0 377 -174q-11 269 -131.5 420t-329.5 151q-153 0 -289 -78l-61 133
q168 88 352 88zM559 109q75 0 135.5 27.5t100 72t69 107t44.5 125t22 132.5q-52 85 -147 147t-218 62q-150 0 -242 -95t-92 -249q0 -148 90.5 -238.5t237.5 -90.5z" />
    <glyph glyph-name="emptyset" unicode="&#x2205;" 
d="M983 985q123 -132 123 -321q0 -202 -141 -339t-351 -137q-190 0 -327 115l-119 -117l-39 41l117 115q-123 132 -123 322q0 202 140.5 338.5t350.5 136.5q192 0 326 -115l119 117l41 -41zM270 664q0 -128 78 -222l492 482q-90 75 -226 75q-151 0 -247.5 -94.5
t-96.5 -240.5zM614 328q151 0 247.5 95t96.5 241q0 128 -77 221l-492 -482q94 -75 225 -75z" />
    <glyph glyph-name="product" unicode="&#x220f;" horiz-adv-x="1454" 
d="M1413 1434v-138h-270v-1456h-142v1456h-546v-1456h-142v1456h-272v138h1372z" />
    <glyph glyph-name="summation" unicode="&#x2211;" horiz-adv-x="1128" 
d="M1047 1434v-140h-787l580 -690l-580 -690h787v-139h-965v143l575 686l-575 686v144h965z" />
    <glyph glyph-name="minus" unicode="&#x2212;" 
d="M1104 651v-82h-979v82h979z" />
    <glyph glyph-name="radical" unicode="&#x221a;" horiz-adv-x="1206" 
d="M1024 1464h141l-479 -1464h-137l-326 813h-182v133h274l297 -756z" />
    <glyph glyph-name="infinity" unicode="&#x221e;" horiz-adv-x="1556" 
d="M1188 922q147 0 237.5 -85t90.5 -229t-90 -228.5t-238 -84.5q-64 0 -122 20t-110.5 60.5t-89.5 77.5t-88 96q-41 -47 -68.5 -77t-70 -67.5t-80.5 -58.5t-87.5 -36t-102.5 -15q-148 0 -238 84.5t-90 228.5t90.5 229t237.5 85q53 0 102.5 -15t87.5 -36t80.5 -58.5t70 -67.5
t68.5 -77q51 59 88 96t89.5 77.5t110.5 60.5t122 20zM369 846q-109 0 -178.5 -65.5t-69.5 -172.5q0 -106 69 -171.5t179 -65.5q55 0 104.5 18t95.5 55t79.5 72.5t80.5 91.5q-47 56 -80.5 91.5t-80 73t-95.5 55.5t-104 18zM1188 846q-54 0 -103 -18t-95.5 -55.5t-80 -73
t-80.5 -91.5q46 -56 80.5 -91.5t80.5 -72.5t95 -55t103 -18q110 0 179 65.5t69 171.5q0 107 -69.5 172.5t-178.5 65.5z" />
    <glyph glyph-name="integral" unicode="&#x222b;" horiz-adv-x="778" 
d="M696 1464v-135q-237 0 -237 -260v-1130q0 -184 -97 -281.5t-280 -97.5v135q114 2 173.5 62.5t59.5 197.5v1130q0 185 97.5 282t283.5 97z" />
    <glyph glyph-name="approxequal" unicode="&#x2248;" 
d="M348 913q52 0 130 -23.5t145 -52t140 -52t116 -23.5q110 0 155 133h80q-28 -111 -90 -165t-143 -54q-67 0 -172.5 38t-205.5 75.5t-153 37.5q-110 0 -155 -135h-80q28 112 91 166.5t142 54.5zM348 598q65 0 170.5 -38t206.5 -76t154 -38q109 0 155 136h80
q-28 -111 -90 -165.5t-143 -54.5q-67 0 -172.5 37.5t-205.5 75t-153 37.5q-110 0 -155 -135h-80q28 112 91 166.5t142 54.5z" />
    <glyph glyph-name="notequal" unicode="&#x2260;" 
d="M1133 756h-394l-168 -287h562v-80h-609l-125 -211h-80l123 211h-346v80h396l167 287h-563v80h611l122 208h82l-123 -208h345v-80z" />
    <glyph glyph-name="lessequal" unicode="&#x2264;" 
d="M1061 1001v-86l-782 -213l782 -210v-86l-905 256v83zM1075 322v-80h-921v80h921z" />
    <glyph glyph-name="greaterequal" unicode="&#x2265;" 
d="M168 1001l905 -256v-83l-905 -256v86l782 210l-782 213v86zM154 322h921v-80h-921v80z" />
    <glyph glyph-name="uni2460" unicode="&#x2460;" horiz-adv-x="1699" 
d="M850 -31q-217 0 -388 96.5t-265.5 267t-94.5 384.5q0 160 55.5 298.5t153 237t237 155t302.5 56.5q217 0 387.5 -96t265 -266.5t94.5 -384.5t-94.5 -384.5t-265 -267t-387.5 -96.5zM850 57q187 0 336 85.5t232 236.5t83 338t-83 337.5t-232 236t-336 85.5t-336 -85.5
t-232 -236t-83 -337.5t83 -338t232 -236.5t336 -85.5zM827 332v696h-90v94h185v-790h-95z" />
    <glyph glyph-name="uni2461" unicode="&#x2461;" horiz-adv-x="1699" 
d="M850 -31q-217 0 -388 96.5t-265.5 267t-94.5 384.5q0 160 55.5 298.5t153 237t237 155t302.5 56.5q217 0 387.5 -96t265 -266.5t94.5 -384.5t-94.5 -384.5t-265 -267t-387.5 -96.5zM850 57q187 0 336 85.5t232 236.5t83 338t-83 337.5t-232 236t-336 85.5t-336 -85.5
t-232 -236t-83 -337.5t83 -338t232 -236.5t336 -85.5zM606 360l-2 86l299 299q113 109 113 199q0 56 -38 92.5t-108 36.5q-148 0 -163 -131h-99q6 110 74.5 168.5t187.5 58.5q121 0 184.5 -62t63.5 -163q0 -70 -34.5 -129t-100.5 -125l-240 -235h377v-95h-514z" />
    <glyph glyph-name="uni2462" unicode="&#x2462;" horiz-adv-x="1699" 
d="M850 -31q-217 0 -388 96.5t-265.5 267t-94.5 384.5q0 160 55.5 298.5t153 237t237 155t302.5 56.5q217 0 387.5 -96t265 -266.5t94.5 -384.5t-94.5 -384.5t-265 -267t-387.5 -96.5zM850 57q187 0 336 85.5t232 236.5t83 338t-83 337.5t-232 236t-336 85.5t-336 -85.5
t-232 -236t-83 -337.5t83 -338t232 -236.5t336 -85.5zM852 324q-122 0 -197.5 60t-81.5 171h101q6 -67 54.5 -101t123.5 -34q186 0 186 147q0 83 -61 115.5t-176 32.5v90q98 3 149 34t51 97q0 60 -38 90.5t-109 30.5q-149 0 -160 -123h-98q6 103 73.5 160t186.5 57
q116 0 181 -54.5t65 -146.5q0 -68 -39 -116.5t-107 -63.5v-2q84 -11 132.5 -62.5t48.5 -144.5q0 -106 -69.5 -171.5t-215.5 -65.5z" />
    <glyph glyph-name="uni2463" unicode="&#x2463;" horiz-adv-x="1699" 
d="M850 1464q217 0 387.5 -96t265 -266.5t94.5 -384.5t-94.5 -384.5t-265 -267t-387.5 -96.5t-388 96.5t-265.5 267t-94.5 384.5q0 160 55.5 298.5t153 237t237 155t302.5 56.5zM850 57q187 0 336 85.5t232 236.5t83 338t-83 337.5t-232 236t-336 85.5t-336 -85.5t-232 -236
t-83 -337.5t83 -338t232 -236.5t336 -85.5zM1026 1130v-546h98v-90h-98v-154h-98v154h-422v88l393 548h127zM614 584h314v432h-4z" />
    <glyph glyph-name="uni2464" unicode="&#x2464;" horiz-adv-x="1699" 
d="M850 -31q-217 0 -388 96.5t-265.5 267t-94.5 384.5q0 160 55.5 298.5t153 237t237 155t302.5 56.5q217 0 387.5 -96t265 -266.5t94.5 -384.5t-94.5 -384.5t-265 -267t-387.5 -96.5zM850 57q187 0 336 85.5t232 236.5t83 338t-83 337.5t-232 236t-336 85.5t-336 -85.5
t-232 -236t-83 -337.5t83 -338t232 -236.5t336 -85.5zM856 311q-198 0 -276 160l79 55q65 -118 199 -118q85 0 131.5 47.5t46.5 128.5q0 83 -47.5 128.5t-120.5 45.5q-103 0 -163 -76h-89l54 438h415v-94h-342l-30 -244h6q25 30 69.5 49t98.5 19q101 0 175.5 -69t74.5 -197
t-77 -200.5t-204 -72.5z" />
    <glyph glyph-name="uni2465" unicode="&#x2465;" horiz-adv-x="1699" 
d="M850 -31q-217 0 -388 96.5t-265.5 267t-94.5 384.5q0 160 55.5 298.5t153 237t237 155t302.5 56.5q217 0 387.5 -96t265 -266.5t94.5 -384.5t-94.5 -384.5t-265 -267t-387.5 -96.5zM850 57q187 0 336 85.5t232 236.5t83 338t-83 337.5t-232 236t-336 85.5t-336 -85.5
t-232 -236t-83 -337.5t83 -338t232 -236.5t336 -85.5zM848 317q-123 0 -205 74t-82 209q0 103 35 175.5t104 152.5l174 215h123l-295 -346l3 -4q70 67 165 67q111 0 185.5 -72.5t74.5 -193.5q0 -122 -77.5 -199.5t-204.5 -77.5zM848 412q81 0 131.5 48t50.5 132
q0 81 -51.5 129.5t-130.5 48.5q-81 0 -133.5 -48t-52.5 -130q0 -84 52 -132t134 -48z" />
    <glyph glyph-name="uni2466" unicode="&#x2466;" horiz-adv-x="1699" 
d="M850 -31q-217 0 -388 96.5t-265.5 267t-94.5 384.5q0 160 55.5 298.5t153 237t237 155t302.5 56.5q217 0 387.5 -96t265 -266.5t94.5 -384.5t-94.5 -384.5t-265 -267t-387.5 -96.5zM850 57q187 0 336 85.5t232 236.5t83 338t-83 337.5t-232 236t-336 85.5t-336 -85.5
t-232 -236t-83 -337.5t83 -338t232 -236.5t336 -85.5zM680 313l350 695h-399v96h506v-92l-353 -699h-104z" />
    <glyph glyph-name="uni2467" unicode="&#x2467;" horiz-adv-x="1699" 
d="M850 -31q-217 0 -388 96.5t-265.5 267t-94.5 384.5q0 160 55.5 298.5t153 237t237 155t302.5 56.5q217 0 387.5 -96t265 -266.5t94.5 -384.5t-94.5 -384.5t-265 -267t-387.5 -96.5zM850 57q187 0 336 85.5t232 236.5t83 338t-83 337.5t-232 236t-336 85.5t-336 -85.5
t-232 -236t-83 -337.5t83 -338t232 -236.5t336 -85.5zM852 315q-133 0 -206 66.5t-73 167.5q0 82 42 132.5t112 70.5v4q-57 19 -93 64t-36 116q0 92 67.5 149.5t186.5 57.5q117 0 184.5 -57.5t67.5 -149.5q0 -71 -36 -116t-93 -64v-4q69 -20 111 -70.5t42 -132.5
q0 -101 -72.5 -167.5t-203.5 -66.5zM852 799q68 0 110 35t42 92q0 56 -42 88.5t-110 32.5q-69 0 -111.5 -32.5t-42.5 -88.5q0 -57 42.5 -92t111.5 -35zM852 412q85 0 130.5 38t45.5 109q0 69 -47 108.5t-129 39.5q-83 0 -130.5 -39.5t-47.5 -108.5q0 -71 46 -109t132 -38z
" />
    <glyph glyph-name="uni2468" unicode="&#x2468;" horiz-adv-x="1699" 
d="M850 -31q-217 0 -388 96.5t-265.5 267t-94.5 384.5q0 160 55.5 298.5t153 237t237 155t302.5 56.5q217 0 387.5 -96t265 -266.5t94.5 -384.5t-94.5 -384.5t-265 -267t-387.5 -96.5zM850 57q187 0 336 85.5t232 236.5t83 338t-83 337.5t-232 236t-336 85.5t-336 -85.5
t-232 -236t-83 -337.5t83 -338t232 -236.5t336 -85.5zM719 317l295 342l-2 5q-51 -40 -88 -57t-86 -17q-109 0 -180.5 73t-71.5 185q0 119 75.5 197.5t204.5 78.5t207 -75t78 -205q0 -78 -25 -149t-92 -154l-188 -224h-127zM870 678q84 0 132.5 48t48.5 130
q0 79 -48.5 125.5t-130.5 46.5q-83 0 -134.5 -48t-51.5 -130q0 -79 49.5 -125.5t134.5 -46.5z" />
    <glyph glyph-name="uni24EA" unicode="&#x24ea;" horiz-adv-x="1699" 
d="M850 -31q-217 0 -388 96.5t-265.5 267t-94.5 384.5q0 160 55.5 298.5t153 237t237 155t302.5 56.5q217 0 387.5 -96t265 -266.5t94.5 -384.5t-94.5 -384.5t-265 -267t-387.5 -96.5zM850 57q187 0 336 85.5t232 236.5t83 338t-83 337.5t-232 236t-336 85.5t-336 -85.5
t-232 -236t-83 -337.5t83 -338t232 -236.5t336 -85.5zM852 307q-153 0 -242.5 110t-89.5 306q0 194 89.5 303t242.5 109q149 0 238.5 -109.5t89.5 -302.5q0 -195 -89.5 -305.5t-238.5 -110.5zM850 403q106 0 167.5 88t61.5 232q0 143 -61.5 230t-167.5 87t-167.5 -87
t-61.5 -230q0 -144 61.5 -232t167.5 -88z" />
    <glyph glyph-name="uni24FF" unicode="&#x24ff;" horiz-adv-x="1699" 
d="M850 -31q-159 0 -298 57.5t-237.5 156.5t-155.5 238t-57 296q0 210 96.5 381t268 268.5t383.5 97.5t383 -97.5t267.5 -268.5t96.5 -381t-96.5 -381.5t-267.5 -269t-383 -97.5zM852 307q149 0 238.5 110.5t89.5 305.5q0 193 -89.5 302.5t-238.5 109.5q-153 0 -242.5 -109
t-89.5 -303q0 -196 89.5 -306t242.5 -110zM850 403q-106 0 -167.5 88t-61.5 232q0 143 61.5 230t167.5 87t167.5 -87t61.5 -230q0 -144 -61.5 -232t-167.5 -88z" />
    <glyph glyph-name="lozenge" unicode="&#x25ca;" horiz-adv-x="1196" 
d="M676 1464l479 -747l-479 -748h-156l-479 748l479 747h156zM598 1333l-395 -616l395 -617l395 617z" />
    <glyph glyph-name="uni2776" unicode="&#x2776;" horiz-adv-x="1699" 
d="M850 -31q-159 0 -298 57.5t-237.5 156.5t-155.5 238t-57 296q0 210 96.5 381t268 268.5t383.5 97.5t383 -97.5t267.5 -268.5t96.5 -381t-96.5 -381.5t-267.5 -269t-383 -97.5zM827 334h95v790h-185v-96h90v-694z" />
    <glyph glyph-name="uni2777" unicode="&#x2777;" horiz-adv-x="1699" 
d="M850 -31q-159 0 -298 57.5t-237.5 156.5t-155.5 238t-57 296q0 210 96.5 381t268 268.5t383.5 97.5t383 -97.5t267.5 -268.5t96.5 -381t-96.5 -381.5t-267.5 -269t-383 -97.5zM590 352h516v94h-377l240 236q65 65 99 124.5t34 129.5q0 101 -63.5 163t-184.5 62
q-119 0 -187.5 -58.5t-74.5 -168.5h100q12 131 162 131q70 0 107.5 -36.5t37.5 -92.5q0 -91 -112 -199l-299 -299z" />
    <glyph glyph-name="uni2778" unicode="&#x2778;" horiz-adv-x="1699" 
d="M850 -31q-159 0 -298 57.5t-237.5 156.5t-155.5 238t-57 296q0 210 96.5 381t268 268.5t383.5 97.5t383 -97.5t267.5 -268.5t96.5 -381t-96.5 -381.5t-267.5 -269t-383 -97.5zM846 330q146 0 215 64.5t69 170.5q0 184 -180 207v2q69 17 108.5 65.5t39.5 114.5
q0 92 -65.5 147.5t-182.5 55.5q-119 0 -186.5 -57.5t-73.5 -159.5h98q11 121 160 121q147 0 147 -121q0 -125 -198 -131v-90q115 0 175 -32.5t60 -113.5q0 -76 -49 -112.5t-137 -36.5q-75 0 -123.5 35t-52.5 100h-103q6 -111 81.5 -170t197.5 -59z" />
    <glyph glyph-name="uni2779" unicode="&#x2779;" horiz-adv-x="1699" 
d="M850 -31q-159 0 -298 57.5t-237.5 156.5t-155.5 238t-57 296q0 210 96.5 381t268 268.5t383.5 97.5t383 -97.5t267.5 -268.5t96.5 -381t-96.5 -381.5t-267.5 -269t-383 -97.5zM920 348h98v154h98v90h-98v547h-127l-393 -549v-88h422v-154zM606 592l309 432h5v-432h-314z
" />
    <glyph glyph-name="uni277A" unicode="&#x277a;" horiz-adv-x="1699" 
d="M850 -31q-159 0 -298 57.5t-237.5 156.5t-155.5 238t-57 296q0 210 96.5 381t268 268.5t383.5 97.5t383 -97.5t267.5 -268.5t96.5 -381t-96.5 -381.5t-267.5 -269t-383 -97.5zM840 311q127 0 203.5 72.5t76.5 200.5t-74.5 197t-175.5 69q-54 0 -98.5 -19t-69.5 -49h-6
l31 244h352v94h-426l-53 -438h88q60 76 164 76q73 0 120.5 -45.5t47.5 -128.5q0 -81 -46.5 -128.5t-131.5 -47.5q-134 0 -199 118l-80 -55q78 -160 277 -160z" />
    <glyph glyph-name="uni277B" unicode="&#x277b;" horiz-adv-x="1699" 
d="M850 -31q-159 0 -298 57.5t-237.5 156.5t-155.5 238t-57 296q0 210 96.5 381t268 268.5t383.5 97.5t383 -97.5t267.5 -268.5t96.5 -381t-96.5 -381.5t-267.5 -269t-383 -97.5zM846 322q128 0 205 77.5t77 200.5q0 120 -74.5 192t-185.5 72q-96 0 -166 -67l-2 4l295 348
h-123l-174 -217q-69 -79 -104 -152t-35 -174q0 -136 81.5 -210t205.5 -74zM846 418q-82 0 -134.5 47t-52.5 131q0 83 52.5 130.5t134.5 47.5q79 0 130.5 -48t51.5 -130q0 -84 -50 -131t-132 -47z" />
    <glyph glyph-name="uni277C" unicode="&#x277c;" horiz-adv-x="1699" 
d="M850 -31q-159 0 -298 57.5t-237.5 156.5t-155.5 238t-57 296q0 210 96.5 381t268 268.5t383.5 97.5t383 -97.5t267.5 -268.5t96.5 -381t-96.5 -381.5t-267.5 -269t-383 -97.5zM664 313h104l352 699v92h-506v-96h402z" />
    <glyph glyph-name="uni277D" unicode="&#x277d;" horiz-adv-x="1699" 
d="M850 -31q-159 0 -298 57.5t-237.5 156.5t-155.5 238t-57 296q0 210 96.5 381t268 268.5t383.5 97.5t383 -97.5t267.5 -268.5t96.5 -381t-96.5 -381.5t-267.5 -269t-383 -97.5zM852 315q131 0 203.5 65.5t72.5 164.5q0 82 -42 134.5t-111 72.5v4q57 19 93 64t36 116
q0 92 -67.5 149.5t-184.5 57.5q-119 0 -186.5 -57.5t-67.5 -149.5q0 -71 36 -116t93 -64v-4q-69 -20 -111.5 -72.5t-42.5 -134.5q0 -99 73.5 -164.5t205.5 -65.5zM852 799q-69 0 -111.5 35t-42.5 92q0 56 42.5 88.5t111.5 32.5q68 0 110 -32.5t42 -88.5q0 -57 -42 -92
t-110 -35zM852 412q-86 0 -132 37.5t-46 107.5q0 69 47.5 109.5t130.5 40.5q82 0 129 -40.5t47 -109.5q0 -70 -45.5 -107.5t-130.5 -37.5z" />
    <glyph glyph-name="uni277E" unicode="&#x277e;" horiz-adv-x="1699" 
d="M850 -31q-159 0 -298 57.5t-237.5 156.5t-155.5 238t-57 296q0 210 96.5 381t268 268.5t383.5 97.5t383 -97.5t267.5 -268.5t96.5 -381t-96.5 -381.5t-267.5 -269t-383 -97.5zM705 315h126l189 226q67 82 92 152.5t25 150.5q0 130 -78 204t-207 74t-205 -78t-76 -196
q0 -114 71.5 -187t180.5 -73q49 0 86 17t88 57l2 -3zM856 676q-84 0 -134 47t-50 125q0 84 51 132t135 48q82 0 130 -47t48 -125q0 -83 -48.5 -131.5t-131.5 -48.5z" />
    <glyph glyph-name="uniF8FF" unicode="&#xf8ff;" horiz-adv-x="1771" 
d="M102 1384q0 32 22 53t54 21q31 0 53.5 -21t22.5 -53q0 -48 -37 -69v-49q65 27 108 42t112 29.5t134 14.5q92 0 156 -43.5t64 -126.5v-52q118 25 213 25q53 0 98.5 -8t88 -26t67 -53t24.5 -83v-98q98 24 166 24q113 0 167 -44t54 -117v-492q-109 66 -219 66
q-52 0 -131 -20.5t-115 -20.5q-104 0 -104 94v176q-48 10 -96 10q-50 0 -149.5 -18.5t-137.5 -18.5q-111 0 -111 95v139h-28q-130 0 -361 -90v-670h-80v1317q-35 21 -35 67zM731 1182q0 57 -46 84.5t-112 27.5q-62 0 -135.5 -17.5t-110.5 -31t-110 -43.5v-471q225 86 358 86
q91 0 156 -29v394zM639 1188l-133 -195v-139h-62v139l-133 195h78l86 -131l86 131h78zM1225 971q0 17 -2 29t-13.5 32t-32.5 33t-64.5 23t-104.5 10q-86 0 -217 -25v-350q0 -23 -20.5 -38.5t-45.5 -21.5t-45.5 -18.5t-20.5 -32.5q0 -28 56 -28q35 0 134 17t155 17
q130 0 221 -51v404zM819 848q0 72 46 119t118 47t118 -47t46 -119t-46 -119t-118 -47t-118 47t-46 119zM1085 848q0 46 -29 76t-73 30t-73 -30t-29 -76t29 -76.5t73 -30.5t73 30.5t29 76.5zM1614 748q0 58 -43 81t-121 23q-65 0 -168 -25v-342q0 -25 -20 -41.5t-43.5 -23
t-43.5 -19t-20 -30.5q0 -33 51 -33q30 0 111 21.5t131 21.5q78 0 166 -31v398zM1452 764l-20 -205h-33l-21 205h74zM729 721q0 22 -65 33v-66q9 5 27 10.5t28 10.5t10 12zM1225 492q0 27 -70 49v-97q13 8 32.5 16t28.5 14.5t9 17.5zM1374 473q0 17 11 28t30 11t30 -11
t11 -28q0 -19 -11 -30t-30 -11t-30 11t-11 30z" />
    <glyph glyph-name="CR" horiz-adv-x="690" 
 />
    <glyph glyph-name="Adieresis.ss01" horiz-adv-x="1349" 
d="M463 1520q-50 0 -82.5 32.5t-32.5 81.5q0 50 33 82.5t82 32.5t82 -32.5t33 -82.5q0 -49 -32.5 -81.5t-82.5 -32.5zM885 1520q-50 0 -82.5 32.5t-32.5 81.5q0 50 33 82.5t82 32.5t81.5 -32.5t32.5 -82.5t-32.5 -82t-81.5 -32zM1163 0l-151 383h-674l-152 -383h-172
l586 1434h150l583 -1434h-170zM395 528h559l-280 707z" />
    <glyph glyph-name="Adieresis.ss01.ss02" horiz-adv-x="1349" 
d="M381 1346q-50 0 -82.5 32.5t-32.5 81.5q0 50 33 82.5t82 32.5t82 -32.5t33 -82.5q0 -49 -32.5 -81.5t-82.5 -32.5zM969 1346q-50 0 -82.5 32.5t-32.5 81.5q0 50 33 82.5t82 32.5t81.5 -32.5t32.5 -82.5t-32.5 -82t-81.5 -32zM1163 0l-151 383h-674l-152 -383h-172
l586 1434h150l583 -1434h-170zM395 528h559l-280 707z" />
    <glyph glyph-name="Adieresis.ss02" horiz-adv-x="1349" 
d="M471 1579v-205h-170v205h170zM1049 1579v-205h-170v205h170zM1163 0l-151 383h-674l-152 -383h-172l586 1434h150l583 -1434h-170zM395 528h559l-280 707z" />
    <glyph glyph-name="Cdotaccent.ss01" horiz-adv-x="1402" 
d="M836 1749q49 0 81.5 -32.5t32.5 -82.5t-32 -82t-82 -32t-82.5 32.5t-32.5 81.5q0 50 32.5 82.5t82.5 32.5zM842 -31q-170 0 -313 54.5t-242.5 152.5t-155 237t-55.5 304t55.5 304t155 236.5t242.5 152t313 54.5q282 0 499 -161l-96 -138q-184 140 -407 140
q-260 0 -425 -163t-165 -425t165 -425t425 -163q224 0 407 139l96 -137q-219 -162 -499 -162z" />
    <glyph glyph-name="Edieresis.ss01" horiz-adv-x="1060" 
d="M381 1520q-50 0 -82.5 32.5t-32.5 81.5q0 50 33 82.5t82 32.5t82 -32.5t33 -82.5q0 -49 -32.5 -81.5t-82.5 -32.5zM803 1520q-50 0 -82.5 32.5t-32.5 81.5q0 50 33 82.5t82 32.5t82 -32.5t33 -82.5q0 -49 -32.5 -81.5t-82.5 -32.5zM309 150h656v-150h-813v1434h802v-150
h-645v-412h594v-147h-594v-575z" />
    <glyph glyph-name="Edotaccent.ss01" horiz-adv-x="1060" 
d="M592 1520q-50 0 -82.5 32.5t-32.5 81.5q0 50 32.5 82.5t82.5 32.5t82.5 -32.5t32.5 -82.5q0 -49 -32.5 -81.5t-82.5 -32.5zM309 150h656v-150h-813v1434h802v-150h-645v-412h594v-147h-594v-575z" />
    <glyph glyph-name="Euro.tf" 
d="M823 1268q-190 0 -310.5 -118t-150.5 -327h635l-30 -61h-611q-2 -23 -2 -72v-49h566l-31 -61h-529q25 -218 147.5 -340.5t321.5 -122.5q155 0 301 88v-166q-136 -68 -299 -68q-143 0 -258 47t-190 130.5t-120 192.5t-58 239h-182l30 61h148v51q0 47 2 70h-170l30 61h144
q16 127 61 232.5t120 186.5t187 126t252 45q203 0 379 -113l-65 -133q-152 101 -318 101z" />
    <glyph glyph-name="Gcommaaccent.ss01" horiz-adv-x="1617" 
d="M889 766h667v-66q0 -108 -27 -212t-85 -198.5t-141 -165.5t-204 -113t-265 -42q-218 0 -390 92t-270 262.5t-98 389.5q0 163 55.5 302.5t154.5 238t240.5 154.5t307.5 56q306 0 548 -190l-108 -133q-198 164 -447 164q-168 0 -300.5 -76.5t-205.5 -211t-73 -302.5
q0 -256 163.5 -421t426.5 -165q108 0 199.5 30.5t153.5 80t106.5 114t66 130.5t25.5 132h-500v150zM838 -84q48 0 80 -31t32 -78q0 -54 -39 -98l-110 -131h-64l70 127q-34 6 -56 36t-22 66q0 46 31.5 77.5t77.5 31.5z" />
    <glyph glyph-name="Gdotaccent.ss01" horiz-adv-x="1617" 
d="M819 1520q-49 0 -81.5 32t-32.5 82t32.5 82.5t81.5 32.5t82 -32.5t33 -82.5q0 -49 -32.5 -81.5t-82.5 -32.5zM889 766h667v-66q0 -108 -27 -212t-85 -198.5t-141 -165.5t-204 -113t-265 -42q-218 0 -390 92t-270 262.5t-98 389.5q0 163 55.5 302.5t154.5 238t240.5 154.5
t307.5 56q306 0 548 -190l-108 -133q-198 164 -447 164q-168 0 -300.5 -76.5t-205.5 -211t-73 -302.5q0 -256 163.5 -421t426.5 -165q108 0 199.5 30.5t153.5 80t106.5 114t66 130.5t25.5 132h-500v150z" />
    <glyph glyph-name="Ghedescendercy" horiz-adv-x="352" 
d="M250 104v-391h-148v391h148z" />
    <glyph glyph-name="Idieresis.ss01" horiz-adv-x="464" 
d="M20 1749q50 0 82.5 -32.5t32.5 -82.5q0 -49 -32.5 -81.5t-82.5 -32.5t-82 32t-32 82t32.5 82.5t81.5 32.5zM442 1749q50 0 82.5 -32.5t32.5 -82.5q0 -49 -32.5 -81.5t-82.5 -32.5t-82 32t-32 82t32.5 82.5t81.5 32.5zM311 1434v-1434h-159v1434h159z" />
    <glyph glyph-name="Idieresis.ss01.ss02" horiz-adv-x="464" 
d="M-23 1575q49 0 82 -32.5t33 -82.5q0 -49 -32.5 -81.5t-82.5 -32.5q-49 0 -81.5 32t-32.5 82t32.5 82.5t81.5 32.5zM485 1575q49 0 82 -32.5t33 -82.5q0 -49 -32.5 -81.5t-82.5 -32.5q-48 0 -81 32.5t-33 81.5t33 82t81 33zM311 1434v-1434h-159v1434h159z" />
    <glyph glyph-name="Idieresis.ss02" horiz-adv-x="464" 
d="M80 1579v-205h-170v205h170zM553 1579v-205h-170v205h170zM311 1434v-1434h-159v1434h159z" />
    <glyph glyph-name="Idotaccent.ss01" horiz-adv-x="464" 
d="M231 1749q49 0 82 -32.5t33 -82.5q0 -49 -32.5 -81.5t-82.5 -32.5q-49 0 -81.5 32t-32.5 82t32.5 82.5t81.5 32.5zM311 1434v-1434h-159v1434h159z" />
    <glyph glyph-name="Indianrupeesign.tf" 
d="M682 1321q175 -98 190 -305h185l-45 -62h-138q-10 -168 -133.5 -269t-306.5 -101h-80l516 -584h-190l-510 584v141h258q131 0 207 63.5t84 165.5h-549v62h549q-11 100 -87 162.5t-204 62.5h-258v141h256h631l-45 -61h-330z" />
    <glyph glyph-name="Kcommaaccent.ss01" horiz-adv-x="1253" 
d="M492 770l747 -770h-235l-695 731v-731h-157v1434h157v-648l615 648h223zM627 -84q48 0 80 -31t32 -78q0 -54 -39 -98l-110 -131h-64l70 127q-34 6 -56 36t-22 66q0 46 31.5 77.5t77.5 31.5z" />
    <glyph glyph-name="Lcaron.ss01" horiz-adv-x="993" 
d="M756 1468q50 0 83 -34t33 -82q0 -39 -26 -92l-141 -277h-66l88 260q-40 6 -64 38t-24 73q0 47 33 80.5t84 33.5zM309 1434v-1282h666v-152h-823v1434h157z" />
    <glyph glyph-name="Lcommaaccent.ss01" horiz-adv-x="993" 
d="M309 1434v-1282h666v-152h-823v1434h157zM698 -193q0 -54 -39 -98l-110 -131h-64l70 127q-34 6 -56 36t-22 66q0 46 31.5 77.5t77.5 31.5q48 0 80 -31t32 -78z" />
    <glyph glyph-name="Ldot.ss01" horiz-adv-x="993" 
d="M309 1434v-1282h666v-152h-823v1434h157zM735 977q55 0 92 -36.5t37 -92.5t-37 -92.5t-92 -36.5t-92 36.5t-37 92.5t37 92.5t92 36.5z" />
    <glyph glyph-name="Ncommaaccent.ss01" horiz-adv-x="1421" 
d="M1268 1434v-1434h-168l-787 1165h-4v-1165h-157v1434h167l787 -1166h4v1166h158zM821 -193q0 -54 -39 -98l-110 -131h-64l70 127q-34 6 -56 36t-22 66q0 46 31.5 77.5t77.5 31.5q48 0 80 -31t32 -78z" />
    <glyph glyph-name="Odieresis.ss01" horiz-adv-x="1646" 
d="M614 1749q50 0 82.5 -32.5t32.5 -82.5q0 -49 -32.5 -81.5t-82.5 -32.5t-82 32t-32 82t32.5 82.5t81.5 32.5zM1036 1749q50 0 82.5 -32.5t32.5 -82.5q0 -49 -32.5 -81.5t-82.5 -32.5t-82 32t-32 82t32.5 82.5t81.5 32.5zM823 1464q211 0 381.5 -94t268.5 -265.5t98 -387.5
t-98 -387.5t-268.5 -266t-381.5 -94.5t-381.5 94.5t-268 266t-97.5 387.5q0 162 57 302t156.5 237t237.5 152.5t296 55.5zM823 1305q-124 0 -231 -44t-182.5 -121.5t-118.5 -186.5t-43 -236t43 -236t118.5 -186.5t182.5 -121.5t231 -44q253 0 414.5 165.5t161.5 422.5
t-161.5 422.5t-414.5 165.5z" />
    <glyph glyph-name="Odieresis.ss01.ss02" horiz-adv-x="1646" 
d="M242 1575q49 0 81.5 -32.5t32.5 -82.5t-32 -82t-82 -32t-82.5 32.5t-32.5 81.5q0 50 32.5 82.5t82.5 32.5zM1407 1575q49 0 82 -32.5t33 -82.5q0 -49 -32.5 -81.5t-82.5 -32.5t-82.5 32.5t-32.5 81.5q0 50 33 82.5t82 32.5zM823 1464q211 0 381.5 -94t268.5 -265.5
t98 -387.5t-98 -387.5t-268.5 -266t-381.5 -94.5t-381.5 94.5t-268 266t-97.5 387.5q0 162 57 302t156.5 237t237.5 152.5t296 55.5zM823 1305q-124 0 -231 -44t-182.5 -121.5t-118.5 -186.5t-43 -236t43 -236t118.5 -186.5t182.5 -121.5t231 -44q253 0 414.5 165.5
t161.5 422.5t-161.5 422.5t-414.5 165.5z" />
    <glyph glyph-name="Odieresis.ss02" horiz-adv-x="1646" 
d="M350 1579v-205h-170v205h170zM1470 1579v-205h-170v205h170zM823 1464q211 0 381.5 -94t268.5 -265.5t98 -387.5t-98 -387.5t-268.5 -266t-381.5 -94.5t-381.5 94.5t-268 266t-97.5 387.5q0 162 57 302t156.5 237t237.5 152.5t296 55.5zM823 1305q-124 0 -231 -44
t-182.5 -121.5t-118.5 -186.5t-43 -236t43 -236t118.5 -186.5t182.5 -121.5t231 -44q253 0 414.5 165.5t161.5 422.5t-161.5 422.5t-414.5 165.5z" />
    <glyph glyph-name="RUB.tf" 
d="M709 592h-263v-162h461v-61h-461v-369h-147v369h-209v61h209v162h-209v139h209v651h410q204 0 317 -111t113 -288q0 -176 -113 -283.5t-317 -107.5zM446 1243v-512h263q128 0 202 65t74 189q0 125 -74.5 191.5t-201.5 66.5h-263z" />
    <glyph glyph-name="Rcommaaccent.ss01" horiz-adv-x="1169" 
d="M700 621l437 -621h-199l-426 616h-203v-616h-157v1434h477q192 0 314 -108.5t122 -301.5q0 -171 -100.5 -277.5t-264.5 -125.5zM309 1284v-518h299q138 0 212.5 69.5t74.5 188.5q0 121 -74 190.5t-213 69.5h-299zM598 -84q48 0 80.5 -31t32.5 -78q0 -54 -39 -98
l-111 -131h-63l69 127q-34 6 -56 36t-22 66q0 46 31.5 77.5t77.5 31.5z" />
    <glyph glyph-name="Scommaaccent.ss01" horiz-adv-x="1017" 
d="M524 1464q178 0 365 -90l-74 -151q-149 82 -293 82q-106 0 -160.5 -44t-54.5 -120q0 -66 37.5 -113.5t116.5 -105.5l235 -174q122 -89 181 -180t59 -214q0 -186 -121 -285.5t-323 -99.5q-121 0 -240.5 35.5t-212.5 95.5l76 148q191 -119 377 -119q136 0 206 60.5
t70 154.5q0 72 -43 132t-143 134l-234 176q-103 77 -157 158t-54 191q0 153 101.5 241t285.5 88zM614 -193q0 -54 -39 -98l-110 -131h-64l70 127q-34 6 -56 36t-22 66q0 46 31.5 77.5t77.5 31.5q48 0 80 -31t32 -78z" />
    </font>
</defs>
</svg>
