<?xml version="1.0" standalone="no"?>
<!DOCTYPE svg PUBLIC "-//W3C//DTD SVG 1.1//EN" "http://www.w3.org/Graphics/SVG/1.1/DTD/svg11.dtd" >
<svg xmlns="http://www.w3.org/2000/svg" xmlns:xlink="http://www.w3.org/1999/xlink" version="1.1">
<metadata>
Created by FontForge 20170731 at Sat Jul 23 01:24:57 2022
 By Aleksey,,,
Copyright (c) 2015 by Reto Moser. All rights reserved.
</metadata>
<defs>
<font id="GTEestiProDisplay-BoldItalic" horiz-adv-x="1228" >
  <font-face 
    font-family="GT Eesti Pro Display Bold"
    font-weight="700"
    font-style="italic"
    font-stretch="normal"
    units-per-em="2048"
    panose-1="0 0 8 0 0 0 0 0 0 0"
    ascent="1536"
    descent="-512"
    x-height="946"
    cap-height="1434"
    bbox="-799 -528 2517 1825"
    underline-thickness="102"
    underline-position="-307"
    slope="-11"
    unicode-range="U+000D-FB02"
  />
<missing-glyph horiz-adv-x="1609" 
d="M852 -31q-213 0 -384 96.5t-267.5 267.5t-96.5 384q0 214 96.5 385t267.5 266.5t384 95.5q160 0 299 -56t237.5 -154.5t154.5 -237.5t56 -299q0 -213 -95.5 -384t-266.5 -267.5t-385 -96.5zM852 20q199 0 359 91t250.5 253t90.5 363l-104 133l-143 -61l-140 184l-161 -90
l-152 242l-152 -242l-161 90l-140 -184l-143 61l-104 -133q0 -201 90.5 -363t250.5 -253t359 -91zM641 651q-31 0 -51.5 20.5t-20.5 51.5t20.5 51.5t51.5 20.5t51.5 -20.5t20.5 -51.5t-20.5 -51.5t-51.5 -20.5zM1061 651q-31 0 -51.5 20.5t-20.5 51.5t20.5 51.5t51.5 20.5
t51.5 -20.5t20.5 -51.5t-20.5 -51.5t-51.5 -20.5zM766 522l74 207q3 17 22 10q6 -2 9.5 -8.5t0.5 -13.5l-57 -160h70q7 0 12.5 -5.5t5.5 -12.5q0 -6 -5.5 -11.5t-12.5 -5.5h-119zM449 350q-61 0 -101.5 40t-40.5 102q0 61 40 101t102 40q61 0 101 -39.5t40 -101.5t-40 -102
t-101 -40zM1253 350q-61 0 -101 40t-40 102t40 101.5t101 39.5q62 0 102 -40t40 -101q0 -62 -40.5 -102t-101.5 -40zM852 395q-96 0 -127 -61q-6 -12 -18 -12q-17 0 -17 18q0 35 50 63.5t112 28.5t112 -28.5t50 -63.5q0 -18 -17 -18q-12 0 -18 12q-31 61 -127 61z" />
    <glyph glyph-name="fi" unicode="fi" 
d="M741 688h-198l-135 -688h-308l133 688h-167l49 258h168l24 121q38 193 163.5 290t360.5 97h64l-55 -287h-23q-103 0 -150 -37t-67 -139l-8 -45h201zM999 1432h332l-61 -312h-332zM733 0l185 946h309l-185 -946h-309z" />
    <glyph glyph-name="fl" unicode="fl" 
d="M741 688h-198l-135 -688h-308l133 688h-167l49 258h168l24 121q38 193 163.5 290t360.5 97h64l-55 -287h-23q-103 0 -150 -37t-67 -139l-8 -45h201zM1012 1434h309l-279 -1434h-309z" />
    <glyph glyph-name="f_f" unicode="ff" horiz-adv-x="1456" 
d="M600 991l-8 -45h201l-52 -258h-198l-135 -688h-308l133 688h-167l49 258h168l24 121q38 193 163.5 290t360.5 97h64l-55 -287h-23q-103 0 -150 -37t-67 -139zM1561 1454h63l-55 -287h-23q-103 0 -150 -37t-67 -139l-8 -45h201l-52 -258h-200l-133 -688h-308l134 688h-168
l49 258h170l22 121q38 193 163.5 290t361.5 97z" />
    <glyph glyph-name="f_f_i" unicode="ffi" horiz-adv-x="1955" 
d="M600 991l-8 -45h201l-52 -258h-198l-135 -688h-308l133 688h-167l49 258h168l24 121q38 193 163.5 290t360.5 97h64l-55 -287h-23q-103 0 -150 -37t-67 -139zM1470 688h-200l-133 -688h-308l134 688h-168l49 258h170l22 121q38 193 163.5 290t361.5 97h63l-55 -287h-23
q-103 0 -150 -37t-67 -139l-8 -45h201zM1726 1432h332l-61 -312h-332zM1460 0l185 946h309l-185 -946h-309z" />
    <glyph glyph-name="f_f_l" unicode="ffl" horiz-adv-x="1957" 
d="M600 991l-8 -45h201l-52 -258h-198l-135 -688h-308l133 688h-167l49 258h168l24 121q38 193 163.5 290t360.5 97h64l-55 -287h-23q-103 0 -150 -37t-67 -139zM1470 688h-200l-133 -688h-308l134 688h-168l49 258h170l22 121q38 193 163.5 290t361.5 97h63l-55 -287h-23
q-103 0 -150 -37t-67 -139l-8 -45h201zM1739 1434h309l-279 -1434h-309z" />
    <glyph glyph-name=".notdef" horiz-adv-x="1609" 
d="M852 -31q-213 0 -384 96.5t-267.5 267.5t-96.5 384q0 214 96.5 385t267.5 266.5t384 95.5q160 0 299 -56t237.5 -154.5t154.5 -237.5t56 -299q0 -213 -95.5 -384t-266.5 -267.5t-385 -96.5zM852 20q199 0 359 91t250.5 253t90.5 363l-104 133l-143 -61l-140 184l-161 -90
l-152 242l-152 -242l-161 90l-140 -184l-143 61l-104 -133q0 -201 90.5 -363t250.5 -253t359 -91zM641 651q-31 0 -51.5 20.5t-20.5 51.5t20.5 51.5t51.5 20.5t51.5 -20.5t20.5 -51.5t-20.5 -51.5t-51.5 -20.5zM1061 651q-31 0 -51.5 20.5t-20.5 51.5t20.5 51.5t51.5 20.5
t51.5 -20.5t20.5 -51.5t-20.5 -51.5t-51.5 -20.5zM766 522l74 207q3 17 22 10q6 -2 9.5 -8.5t0.5 -13.5l-57 -160h70q7 0 12.5 -5.5t5.5 -12.5q0 -6 -5.5 -11.5t-12.5 -5.5h-119zM449 350q-61 0 -101.5 40t-40.5 102q0 61 40 101t102 40q61 0 101 -39.5t40 -101.5t-40 -102
t-101 -40zM1253 350q-61 0 -101 40t-40 102t40 101.5t101 39.5q62 0 102 -40t40 -101q0 -62 -40.5 -102t-101.5 -40zM852 395q-96 0 -127 -61q-6 -12 -18 -12q-17 0 -17 18q0 35 50 63.5t112 28.5t112 -28.5t50 -63.5q0 -18 -17 -18q-12 0 -18 12q-31 61 -127 61z" />
    <glyph glyph-name=".null" horiz-adv-x="0" 
 />
    <glyph glyph-name="nonmarkingreturn" horiz-adv-x="682" 
 />
    <glyph glyph-name="CR" unicode="&#xd;" horiz-adv-x="0" 
 />
    <glyph glyph-name="CR" horiz-adv-x="0" 
 />
    <glyph glyph-name="space" unicode=" " horiz-adv-x="538" 
 />
    <glyph glyph-name="exclam" unicode="!" horiz-adv-x="671" 
d="M698 1434l-252 -965h-221l119 965h354zM84 0l63 330h328l-63 -330h-328z" />
    <glyph glyph-name="quotedbl" unicode="&#x22;" horiz-adv-x="724" 
d="M242 946l53 518h227l-147 -518h-133zM535 946l53 518h227l-147 -518h-133z" />
    <glyph glyph-name="numbersign" unicode="#" horiz-adv-x="1320" 
d="M1300 903h-239l-127 -336h219l-29 -139h-241l-162 -428h-150l160 428h-266l-162 -428h-149l159 428h-219l29 139h244l125 336h-222l27 139h248l147 392h150l-148 -392h269l147 392h150l-146 -392h213zM784 567l127 336h-268l-127 -336h268z" />
    <glyph glyph-name="dollar" unicode="$" horiz-adv-x="1183" 
d="M1202 961h-317q4 28 4 43q0 106 -125 118l-51 -258q135 -63 182 -92q170 -107 200 -274q7 -39 7 -82q0 -205 -148.5 -326t-404.5 -121h-10l-25 -127h-57l26 129q-210 15 -323 118.5t-113 262.5q0 30 8 88h316q-2 -14 -2 -37q0 -140 170 -149l61 324q-133 66 -183 102
q-158 111 -172 288q-1 19 -1 38q0 194 136.5 300.5t367.5 106.5h14l29 148h57l-29 -150q179 -16 285 -105.5t106 -252.5q0 -48 -8 -92zM557 1010q0 -36 27 -63.5t78 -55.5l45 233q-79 -4 -114.5 -37.5t-35.5 -76.5zM784 393q0 50 -33.5 85.5t-97.5 70.5l-59 -295
q103 5 146.5 45.5t43.5 93.5z" />
    <glyph glyph-name="percent" unicode="%" horiz-adv-x="1693" 
d="M547 770q-136 0 -230 77.5t-94 215.5q0 94 44 180t132.5 143.5t202.5 57.5q136 0 230 -77.5t94 -215.5q0 -94 -44 -180t-132.5 -143.5t-202.5 -57.5zM274 0l1035 1382h159l-1034 -1382h-160zM555 913q71 0 122 36.5t73 86.5t22 103q0 80 -50.5 119.5t-127.5 39.5
q-104 0 -161.5 -69.5t-57.5 -155.5q0 -79 51 -119.5t129 -40.5zM1186 -10q-135 0 -228.5 77.5t-93.5 215.5q0 94 44 180t132.5 143.5t202.5 57.5q135 0 228.5 -77.5t93.5 -215.5q0 -70 -26 -137.5t-73 -122t-120 -88t-160 -33.5zM1194 135q104 0 161.5 69.5t57.5 155.5
q0 79 -51 119.5t-127 40.5q-104 0 -161.5 -70t-57.5 -155q0 -80 50.5 -120t127.5 -40z" />
    <glyph glyph-name="ampersand" unicode="&#x26;" horiz-adv-x="1509" 
d="M1483 633q-175 -245 -287 -359l152 -274h-367l-39 68q-171 -99 -362 -99q-108 0 -199.5 29t-160 84.5t-107.5 142.5t-39 197q0 183 107 309.5t304 177.5q-22 67 -22 144q0 161 107.5 260.5t301.5 99.5q182 0 361 -100l-131 -248q-136 68 -215 68q-99 0 -99 -84
q0 -32 29 -88l236 -424q84 92 196 251zM596 264q98 0 205 58l-195 350q-100 -18 -158.5 -71.5t-58.5 -145.5q0 -90 55 -140.5t152 -50.5z" />
    <glyph glyph-name="quotesingle" unicode="'" horiz-adv-x="452" 
d="M543 1464l-148 -518h-153l53 518h248z" />
    <glyph glyph-name="parenleft" unicode="(" horiz-adv-x="714" 
d="M285 -440q-146 369 -146 743q0 134 16.5 260.5t42 228t68.5 205.5t82.5 180t98.5 165t102.5 147t107.5 139l211 -149q-53 -63 -92.5 -113.5t-91.5 -125t-89 -142.5t-76 -158.5t-63 -180.5t-39.5 -201t-15.5 -228q0 -190 38 -367t93 -311z" />
    <glyph glyph-name="parenright" unicode=")" horiz-adv-x="714" 
d="M461 1542q145 -366 145 -743q0 -134 -16.5 -260t-41.5 -228t-68 -206t-82.5 -180.5t-98.5 -165t-103 -147.5t-108 -140l-211 151q54 64 93 113.5t91 124.5t89 142.5t76 158t63 180.5t39.5 201.5t15.5 228.5q0 190 -38 367t-93 309z" />
    <glyph glyph-name="asterisk" unicode="*" horiz-adv-x="890" 
d="M954 1110l-254 -57l170 -193l-168 -125l-133 223l-133 -225l-168 127l170 193l-254 57l66 199l237 -103l-24 258h213l-25 -258l238 103z" />
    <glyph glyph-name="plus" unicode="+" 
d="M711 1108v-434h430v-129h-430v-434h-138v434h-432v129h432v434h138z" />
    <glyph glyph-name="comma" unicode="," horiz-adv-x="522" 
d="M-72 -336l213 336h-121l66 330h324l-64 -330l-285 -336h-133z" />
    <glyph glyph-name="hyphen" unicode="-" horiz-adv-x="862" 
d="M88 406l53 276h660l-53 -276h-660z" />
    <glyph glyph-name="period" unicode="." horiz-adv-x="497" 
d="M-8 0l65 330h328l-66 -330h-327z" />
    <glyph glyph-name="slash" unicode="/" horiz-adv-x="1304" 
d="M133 -268l-190 133l1308 1757l191 -133z" />
    <glyph glyph-name="zero" unicode="0" horiz-adv-x="1288" 
d="M614 -31q-250 0 -382 140.5t-132 408.5q0 188 45.5 351t128.5 284t209 190.5t279 69.5q249 0 380.5 -140.5t131.5 -408.5q0 -150 -28 -285t-84 -246t-134.5 -192.5t-184.5 -126.5t-229 -45zM633 270q99 0 172 82.5t108 211t35 280.5q0 130 -53.5 199t-151.5 69
t-171.5 -82t-108.5 -210t-35 -279q0 -131 53 -201t152 -70z" />
    <glyph glyph-name="one" unicode="1" horiz-adv-x="722" 
d="M694 1382l-268 -1382h-324l211 1085h-59l57 297h383z" />
    <glyph glyph-name="two" unicode="2" horiz-adv-x="1142" 
d="M715 1413q215 0 334.5 -99t119.5 -274q0 -129 -75.5 -244t-239.5 -241l-356 -285l526 4l-53 -274h-998l47 246l578 459q138 108 189 169t51 121q0 59 -40 92t-116 33q-88 0 -143 -44.5t-70 -129.5h-313q23 219 171.5 343t387.5 124z" />
    <glyph glyph-name="three" unicode="3" horiz-adv-x="1130" 
d="M494 -31q-231 0 -355.5 90t-124.5 260q0 39 11 103h313q0 -4 -1 -12t-1 -15q0 -63 47.5 -98t136.5 -35q105 0 166.5 49t61.5 135q0 79 -61.5 112t-215.5 36l45 233q285 0 285 172q0 58 -38.5 89.5t-107.5 31.5q-77 0 -124 -34t-56 -95h-325q20 200 161 311t377 111
q215 0 338 -91.5t123 -250.5q0 -129 -82 -217t-231 -117l-2 -4q115 -19 175 -95t60 -202q0 -211 -155 -339t-420 -128z" />
    <glyph glyph-name="four" unicode="4" horiz-adv-x="1189" 
d="M1182 1382l-170 -880h141l-51 -269h-144l-45 -233h-278l47 233h-696l45 236l843 913h308zM362 502h371l98 502h-8z" />
    <glyph glyph-name="five" unicode="5" horiz-adv-x="1097" 
d="M666 915q180 0 281.5 -109.5t101.5 -305.5q0 -243 -152 -387t-416 -144q-158 0 -280.5 46.5t-227.5 148.5l193 235q155 -137 321 -137q114 0 176 61t62 166q0 87 -41.5 133t-118.5 46q-118 0 -186 -95h-277l252 809h733l-59 -280h-500l-82 -256h7q84 69 213 69z" />
    <glyph glyph-name="six" unicode="6" horiz-adv-x="1183" 
d="M549 -31q-242 0 -376 123.5t-134 347.5q0 158 76 293t270 326l348 340h393l-598 -557l4 -4q69 53 123 75.5t119 22.5q161 0 268 -118.5t107 -303.5q0 -240 -167 -392.5t-433 -152.5zM571 260q108 0 178 65t70 162q0 85 -58 136t-153 51q-107 0 -176.5 -64.5t-69.5 -163.5
q0 -85 57 -135.5t152 -50.5z" />
    <glyph glyph-name="seven" unicode="7" horiz-adv-x="972" 
d="M1126 1382l-53 -276l-743 -1106h-363l758 1094h-592l55 288h938z" />
    <glyph glyph-name="eight" unicode="8" horiz-adv-x="1200" 
d="M551 -31q-233 0 -364.5 102t-131.5 281q0 148 90 249.5t244 127.5l2 8q-78 29 -121 99t-43 168q0 184 141 296.5t373 112.5q212 0 335.5 -95t123.5 -257q0 -126 -72.5 -208.5t-212.5 -117.5l-2 -6q199 -67 199 -295q0 -211 -151 -338t-410 -127zM690 862q81 0 130.5 44
t49.5 114q0 57 -38 89t-107 32q-81 0 -131.5 -43.5t-50.5 -112.5q0 -58 39 -90.5t108 -32.5zM573 262q98 0 161 56t63 141q0 74 -48 115.5t-133 41.5q-97 0 -160 -55.5t-63 -138.5q0 -75 47.5 -117.5t132.5 -42.5z" />
    <glyph glyph-name="nine" unicode="9" horiz-adv-x="1171" 
d="M125 0l596 524l-2 4q-116 -77 -230 -77q-158 0 -263 120t-105 303q0 234 163.5 385.5t420.5 151.5q240 0 379 -117t139 -327q0 -177 -91 -331.5t-321 -369.5l-291 -266h-395zM655 709q106 0 176 64t70 161q0 83 -57 133.5t-152 50.5q-105 0 -175.5 -64.5t-70.5 -160.5
q0 -85 57 -134.5t152 -49.5z" />
    <glyph glyph-name="colon" unicode=":" horiz-adv-x="505" 
d="M121 616l65 330h328l-65 -330h-328zM-8 0l65 330h328l-66 -330h-327z" />
    <glyph glyph-name="semicolon" unicode=";" horiz-adv-x="522" 
d="M127 616l66 330h327l-65 -330h-328zM-72 -336l213 336h-121l66 330h324l-64 -330l-285 -336h-133z" />
    <glyph glyph-name="less" unicode="&#x3c;" 
d="M1079 1112v-156l-800 -344l800 -342v-155l-958 426v145z" />
    <glyph glyph-name="equal" unicode="=" 
d="M1159 897v-129h-1036v129h1036zM1159 461v-129h-1036v129h1036z" />
    <glyph glyph-name="greater" unicode="&#x3e;" 
d="M203 1112l958 -426v-145l-958 -426v155l801 342l-801 344v156z" />
    <glyph glyph-name="question" unicode="?" horiz-adv-x="1024" 
d="M332 469l12 59q24 119 83.5 205.5t160.5 155.5q80 57 117.5 103t37.5 91q0 42 -28.5 65t-83.5 23q-71 0 -118 -41.5t-56 -115.5h-305q23 219 154 334.5t353 115.5q196 0 300 -86t104 -248q0 -200 -215 -366q-99 -71 -142.5 -126t-64.5 -140l-6 -29h-303zM231 0l64 330
h328l-64 -330h-328z" />
    <glyph glyph-name="at" unicode="@" horiz-adv-x="1955" 
d="M930 -307q-241 0 -428 96.5t-291.5 276.5t-104.5 417q0 205 72 378.5t199.5 294.5t309 189t394.5 68q376 0 601 -186t225 -494q0 -175 -63.5 -322t-174.5 -232t-244 -85q-101 0 -170.5 45.5t-89.5 124.5h-4q-58 -83 -123 -121.5t-153 -38.5q-160 0 -257.5 107.5
t-97.5 284.5q0 217 129.5 359t323.5 142q198 0 270 -163h4l25 133h236l-111 -570q-1 -7 -2 -15t-1.5 -12.5t-0.5 -7.5q0 -32 16.5 -49.5t44.5 -17.5q58 0 110.5 58t84 153.5t31.5 200.5q0 246 -157 379t-443 133q-347 0 -560 -198t-213 -525q0 -284 171 -446.5t460 -162.5
q170 0 373 60l22 -189q-207 -65 -413 -65zM977 354q94 0 158.5 69t64.5 167q0 73 -44.5 115.5t-121.5 42.5q-95 0 -159 -68.5t-64 -167.5q0 -73 44.5 -115.5t121.5 -42.5z" />
    <glyph glyph-name="A" unicode="A" horiz-adv-x="1466" 
d="M1034 0l-45 291h-553l-157 -291h-371l844 1434h335l287 -1434h-340zM584 563h362l-82 516z" />
    <glyph glyph-name="B" unicode="B" horiz-adv-x="1290" 
d="M989 756q234 -48 234 -312q0 -94 -31.5 -169.5t-85 -126t-128 -84.5t-157 -49t-174.5 -15h-614l278 1434h590q175 0 280 -85.5t105 -238.5q0 -131 -75 -220t-222 -130v-4zM760 864q80 0 134 41t54 107q0 63 -41 98t-112 35h-222l-55 -281h242zM657 289q108 0 173 43
t65 121q0 147 -197 147h-231l-61 -311h251z" />
    <glyph glyph-name="C" unicode="C" horiz-adv-x="1413" 
d="M815 -31q-322 0 -519.5 192.5t-197.5 506.5q0 172 62.5 320t174 252.5t271 164t346.5 59.5q318 0 545 -151l-192 -281q-159 111 -357 111q-226 0 -364 -129.5t-138 -339.5q0 -173 105 -280t274 -107q168 0 361 102l133 -280q-247 -140 -504 -140z" />
    <glyph glyph-name="D" unicode="D" horiz-adv-x="1417" 
d="M33 0l278 1434h437q301 0 486 -176.5t185 -466.5q0 -232 -109.5 -412t-309 -279.5t-457.5 -99.5h-510zM406 289h147q235 0 381.5 136t146.5 355q0 172 -96 268.5t-266 96.5h-146z" />
    <glyph glyph-name="E" unicode="E" horiz-adv-x="1085" 
d="M1141 1145h-568l-45 -234h512l-55 -288h-514l-65 -334h579l-55 -289h-897l278 1434h887z" />
    <glyph glyph-name="F" unicode="F" horiz-adv-x="1052" 
d="M1171 1145h-598l-59 -301h518l-55 -289h-518l-109 -555h-317l278 1434h916z" />
    <glyph glyph-name="G" unicode="G" horiz-adv-x="1568" 
d="M879 829h716l-18 -129q-50 -353 -240 -542t-506 -189q-333 0 -534 187t-201 499q0 177 63 327.5t175 256.5t271.5 165.5t346.5 59.5q364 0 588 -190l-207 -266q-178 139 -387 139q-221 0 -361.5 -139t-140.5 -353q0 -173 106 -270.5t292 -97.5q146 0 239 68t121 190h-385
z" />
    <glyph glyph-name="H" unicode="H" horiz-adv-x="1478" 
d="M1223 1434h317l-278 -1434h-318l119 602h-596l-117 -602h-317l278 1434h318l-105 -533h596z" />
    <glyph glyph-name="I" unicode="I" horiz-adv-x="567" 
d="M33 0l278 1434h318l-279 -1434h-317z" />
    <glyph glyph-name="J" unicode="J" horiz-adv-x="636" 
d="M-51 -6l57 297h68q85 0 106 100l203 1043h315l-206 -1076q-36 -189 -143.5 -276.5t-295.5 -87.5h-104z" />
    <glyph glyph-name="K" unicode="K" horiz-adv-x="1460" 
d="M1563 1434l-748 -709l553 -725h-420l-465 688l-133 -688h-317l278 1434h318l-123 -633l614 633h443z" />
    <glyph glyph-name="L" unicode="L" horiz-adv-x="1015" 
d="M33 0l278 1434h318l-221 -1137h571l-57 -297h-889z" />
    <glyph glyph-name="M" unicode="M" horiz-adv-x="1820" 
d="M-92 0l641 1434h239l160 -738h4l445 738h241l91 -1434h-314l-37 827h-4l-389 -622h-221l-150 622h-4l-354 -827h-348z" />
    <glyph glyph-name="N" unicode="N" horiz-adv-x="1521" 
d="M33 0l278 1434h269l512 -908h2l172 908h317l-278 -1434h-271l-510 903h-2l-172 -903h-317z" />
    <glyph glyph-name="O" unicode="O" horiz-adv-x="1636" 
d="M807 -31q-210 0 -371.5 82.5t-251.5 237.5t-90 360q0 168 61 317.5t169 259.5t264.5 174t337.5 64q210 0 370.5 -82.5t250 -237.5t89.5 -360q0 -168 -60.5 -317.5t-168 -259.5t-263.5 -174t-337 -64zM825 287q114 0 206.5 42t150 111.5t88 155t30.5 178.5
q0 180 -109.5 276.5t-283.5 96.5q-114 0 -207 -42t-150.5 -111.5t-88.5 -155.5t-31 -179q0 -179 110 -275.5t285 -96.5z" />
    <glyph glyph-name="P" unicode="P" horiz-adv-x="1210" 
d="M760 1434q130 0 229.5 -33t160.5 -92t91.5 -135.5t30.5 -167.5q0 -108 -39 -200t-115.5 -163t-199.5 -111t-281 -40h-191l-96 -492h-317l278 1434h449zM670 778q118 0 189 53.5t71 151.5q0 162 -211 162h-146l-71 -367h168z" />
    <glyph glyph-name="Q" unicode="Q" horiz-adv-x="1669" 
d="M1679 -12h-381l-75 82q-191 -101 -416 -101q-210 0 -371.5 82.5t-251.5 237.5t-90 360q0 168 61 317.5t169 259.5t264.5 174t337.5 64q210 0 370.5 -82.5t250 -237.5t89.5 -360q0 -316 -196 -540zM825 287q90 0 170 26l-270 293h379l113 -121q83 122 83 289
q0 180 -109.5 276.5t-283.5 96.5q-114 0 -207 -42t-150.5 -111.5t-88.5 -155.5t-31 -179q0 -179 110 -275.5t285 -96.5z" />
    <glyph glyph-name="R" unicode="R" horiz-adv-x="1275" 
d="M1296 1020q0 -179 -108.5 -303t-296.5 -162l293 -555h-359l-256 539h-114l-105 -539h-317l278 1434h494q231 0 361 -110.5t130 -303.5zM573 1145l-65 -336h209q110 0 171.5 46.5t61.5 131.5q0 158 -207 158h-170z" />
    <glyph glyph-name="S" unicode="S" horiz-adv-x="1077" 
d="M524 -29q-305 0 -567 213l190 262q100 -78 197.5 -121.5t175.5 -43.5q68 0 105 27.5t37 76.5q0 35 -20.5 68t-74.5 84l-186 174q-96 90 -139 174.5t-43 185.5q0 182 119.5 287.5t324.5 105.5q243 0 492 -149l-174 -277q-78 54 -163 85.5t-153 31.5q-106 0 -106 -78
q0 -32 20.5 -60.5t83.5 -88.5l197 -183q89 -84 129.5 -167.5t40.5 -180.5q0 -205 -127 -315.5t-359 -110.5z" />
    <glyph glyph-name="T" unicode="T" horiz-adv-x="1093" 
d="M1270 1434l-56 -289h-376l-224 -1145h-317l223 1145h-379l56 289h1073z" />
    <glyph glyph-name="U" unicode="U" horiz-adv-x="1433" 
d="M1516 1434l-166 -854q-20 -105 -52.5 -191.5t-88 -165.5t-129.5 -132.5t-180.5 -85.5t-237.5 -32q-265 0 -404 125t-139 357q0 83 18 174l154 805h340l-154 -789q-10 -51 -10 -113q0 -120 58.5 -180.5t166.5 -60.5q58 0 107.5 18t84.5 48t62 71.5t43.5 85.5t26.5 94
l160 826h340z" />
    <glyph glyph-name="V" unicode="V" horiz-adv-x="1425" 
d="M453 0l-267 1434h351l137 -1033h4l534 1033h400l-821 -1434h-338z" />
    <glyph glyph-name="W" unicode="W" horiz-adv-x="2205" 
d="M2370 1434l-762 -1434h-281l-133 926h-4l-496 -926h-278l-207 1434h360l76 -916h4l486 916h280l127 -916h4l434 916h390z" />
    <glyph glyph-name="X" unicode="X" horiz-adv-x="1484" 
d="M1642 1434l-632 -695l381 -739h-371l-242 506l-436 -506h-432l704 782l-342 652h373l201 -420l366 420h430z" />
    <glyph glyph-name="Y" unicode="Y" horiz-adv-x="1349" 
d="M1536 1434l-696 -922l-99 -512h-317l98 518l-336 916h349l180 -600h4l418 600h399z" />
    <glyph glyph-name="Z" unicode="Z" horiz-adv-x="1146" 
d="M1280 1434l-57 -297l-813 -840h669l-57 -297h-1081l57 297l815 840h-600l59 297h1008z" />
    <glyph glyph-name="bracketleft" unicode="[" horiz-adv-x="716" 
d="M907 1565l-41 -222h-284l-306 -1562h285l-43 -221h-545l389 2005h545z" />
    <glyph glyph-name="backslash" unicode="\" horiz-adv-x="1290" 
d="M891 -207l-627 1720l219 82l629 -1722z" />
    <glyph glyph-name="bracketright" unicode="]" horiz-adv-x="716" 
d="M-156 -440l43 221h283l305 1562h-285l43 222h545l-389 -2005h-545z" />
    <glyph glyph-name="asciicircum" unicode="^" 
d="M825 1464l295 -659h-215l-227 518l-227 -518h-215l294 659h295z" />
    <glyph glyph-name="underscore" unicode="_" horiz-adv-x="1091" 
d="M-121 -260l43 229h1051l-43 -229h-1051z" />
    <glyph glyph-name="grave" unicode="`" horiz-adv-x="757" 
d="M610 1448l174 -315h-221l-270 315h317z" />
    <glyph glyph-name="a" unicode="a" horiz-adv-x="1216" 
d="M444 -31q-184 0 -291.5 119.5t-107.5 325.5q0 249 140.5 406t361.5 157q117 0 203 -50.5t129 -144.5h6l30 164h308l-185 -946h-307l25 127h-4q-57 -75 -138 -116.5t-170 -41.5zM582 252q103 0 170 69t67 173q0 90 -58.5 145t-154.5 55q-101 0 -168 -68.5t-67 -174.5
q0 -89 58 -144t153 -55z" />
    <glyph glyph-name="b" unicode="b" horiz-adv-x="1226" 
d="M672 -31q-120 0 -201.5 51.5t-122.5 143.5h-4l-31 -164h-309l281 1434h309l-121 -613h4q54 70 137 113t183 43q74 0 138.5 -22t122 -70.5t91 -139t33.5 -213.5q0 -158 -61 -285.5t-178 -202.5t-271 -75zM618 252q109 0 174.5 72t65.5 172q0 95 -60.5 146.5t-150.5 51.5
q-109 0 -173 -71t-64 -172q0 -95 59 -147t149 -52z" />
    <glyph glyph-name="c" unicode="c" horiz-adv-x="960" 
d="M549 -31q-103 0 -192.5 31t-158 89.5t-108 151t-39.5 208.5q0 111 36 205.5t106 167t181 114t251 41.5q210 0 385 -111l-154 -254q-127 84 -240 84q-119 0 -183 -66t-64 -165q0 -96 59.5 -154.5t153.5 -58.5q89 0 186 51l98 -260q-147 -74 -317 -74z" />
    <glyph glyph-name="d" unicode="d" 
d="M1010 1434h309l-281 -1434h-307l25 127h-4q-57 -75 -138 -116.5t-170 -41.5q-184 0 -291.5 119.5t-107.5 325.5q0 249 140.5 406t361.5 157q117 0 203 -50.5t129 -144.5h6zM582 252q103 0 170 69t67 173q0 90 -58.5 145t-154.5 55q-101 0 -168 -68.5t-67 -174.5
q0 -89 58 -144t153 -55z" />
    <glyph glyph-name="e" unicode="e" horiz-adv-x="1075" 
d="M1053 594q0 -88 -29 -195h-678q21 -170 211 -170q148 0 291 84l96 -241q-201 -103 -407 -103q-223 0 -357.5 122.5t-134.5 332.5q0 81 20 158t64.5 149t108.5 125.5t159 86t209 32.5q204 0 325.5 -100.5t121.5 -280.5zM748 582q2 12 2 36q0 64 -43 101t-115 37
q-82 0 -142 -46.5t-88 -127.5h386z" />
    <glyph glyph-name="f" unicode="f" horiz-adv-x="729" 
d="M831 1454h64l-55 -287h-23q-103 0 -150 -37t-67 -139l-8 -45h201l-52 -258h-198l-135 -688h-308l133 688h-167l49 258h168l24 121q38 193 163.5 290t360.5 97z" />
    <glyph glyph-name="g" unicode="g" horiz-adv-x="1216" 
d="M915 946h308l-172 -893q-54 -271 -184.5 -382t-387.5 -111q-225 0 -432 69l98 271q173 -66 326 -66q121 0 183 45.5t81 147.5l21 100h-4q-57 -75 -138 -116.5t-170 -41.5q-184 0 -291.5 119.5t-107.5 325.5q0 249 140.5 406t361.5 157q117 0 203 -50.5t129 -144.5h6z
M582 252q103 0 170 69t67 173q0 90 -58.5 145t-154.5 55q-101 0 -168 -68.5t-67 -174.5q0 -89 58 -144t153 -55z" />
    <glyph glyph-name="h" unicode="h" horiz-adv-x="1155" 
d="M4 0l279 1434h309l-121 -613h4q128 156 320 156q62 0 114 -16.5t95 -51t67.5 -95.5t24.5 -144q0 -67 -19 -164l-100 -506h-309l92 457q10 46 10 98q0 152 -145 152q-176 0 -222 -234l-90 -473h-309z" />
    <glyph glyph-name="i" unicode="i" horiz-adv-x="499" 
d="M602 1432l-61 -312h-332l61 312h332zM4 0l184 946h310l-185 -946h-309z" />
    <glyph glyph-name="j" unicode="j" horiz-adv-x="501" 
d="M604 1432l-61 -312h-332l61 312h332zM-190 -129h55q113 0 137 119l186 956h312l-197 -1009q-70 -353 -453 -353h-96z" />
    <glyph glyph-name="k" unicode="k" horiz-adv-x="1122" 
d="M1180 946l-480 -454l320 -492h-383l-240 434l-84 -434h-309l279 1434h309l-168 -861l348 373h408z" />
    <glyph glyph-name="l" unicode="l" horiz-adv-x="499" 
d="M4 0l279 1434h309l-279 -1434h-309z" />
    <glyph glyph-name="m" unicode="m" horiz-adv-x="1740" 
d="M2 0l184 946h303l-28 -139h4q117 170 315 170q109 0 181.5 -52.5t91.5 -142.5h4q127 195 340 195q129 0 207.5 -73.5t78.5 -223.5q0 -66 -18 -154l-104 -526h-310l92 471q13 73 13 94q0 142 -129 142q-79 0 -131 -55.5t-76 -182.5l-90 -469h-297l96 477q10 58 10 90
q0 140 -129 140q-164 0 -211 -238l-88 -469h-309z" />
    <glyph glyph-name="n" unicode="n" horiz-adv-x="1155" 
d="M2 0l184 946h303l-28 -143h4q132 174 326 174q140 0 220.5 -78t80.5 -229q0 -85 -19 -185l-98 -485h-307l88 463q14 65 14 108q0 148 -149 148q-83 0 -138 -55.5t-80 -188.5l-92 -475h-309z" />
    <glyph glyph-name="o" unicode="o" horiz-adv-x="1155" 
d="M541 -31q-106 0 -195.5 28.5t-157 83.5t-105.5 143.5t-38 201.5q0 154 69 278.5t200 198.5t302 74q141 0 250.5 -48.5t176.5 -153.5t67 -255q0 -154 -68.5 -278.5t-199.5 -198.5t-301 -74zM557 254q77 0 134.5 37.5t84.5 92.5t27 118q0 95 -58.5 142.5t-144.5 47.5
q-116 0 -182 -74.5t-66 -173.5q0 -95 59 -142.5t146 -47.5z" />
    <glyph glyph-name="p" unicode="p" 
d="M-78 -410l266 1356h310l-25 -125h4q56 70 139 113t181 43q73 0 139.5 -25t123.5 -75.5t90.5 -139.5t33.5 -205q0 -159 -61.5 -286t-179 -202t-271.5 -75q-234 0 -324 195h-4l-113 -574h-309zM621 252q107 0 172 71.5t65 172.5q0 95 -60 146.5t-151 51.5q-107 0 -172 -71
t-65 -172q0 -96 60 -147.5t151 -51.5z" />
    <glyph glyph-name="q" unicode="q" horiz-adv-x="1216" 
d="M915 946h308l-265 -1356h-307l105 537h-4q-57 -75 -138 -116.5t-170 -41.5q-184 0 -291.5 119.5t-107.5 325.5q0 249 140.5 406t361.5 157q117 0 203 -50.5t129 -144.5h6zM582 252q103 0 170 69t67 173q0 90 -58.5 145t-154.5 55q-101 0 -168 -68.5t-67 -174.5
q0 -89 58 -144t153 -55z" />
    <glyph glyph-name="r" unicode="r" horiz-adv-x="757" 
d="M2 0l184 946h303l-38 -190h4q86 219 331 219q19 0 43 -4l-61 -326q-2 0 -18.5 1t-34.5 1q-145 0 -225 -68t-111 -231l-68 -348h-309z" />
    <glyph glyph-name="s" unicode="s" horiz-adv-x="864" 
d="M102 348q194 -127 316 -127q63 0 63 41q0 18 -11 29t-44 31l-131 73q-92 51 -137 117t-45 160q0 140 95 222.5t267 82.5q198 0 412 -103l-113 -229q-158 84 -282 84q-68 0 -68 -37q0 -17 13 -28.5t52 -34.5l125 -70q95 -49 140 -109.5t45 -160.5q0 -156 -102 -238
t-285 -82q-131 0 -241 38t-218 116z" />
    <glyph glyph-name="t" unicode="t" horiz-adv-x="731" 
d="M545 688l-56 -285q-6 -30 -6 -51q0 -36 20 -50.5t68 -14.5h35l-57 -287h-129q-126 0 -195 57t-69 170q0 39 10 97l72 364h-175l50 258h174l73 379h308l-74 -379h199l-50 -258h-198z" />
    <glyph glyph-name="u" unicode="u" horiz-adv-x="1144" 
d="M371 -31q-66 0 -121.5 17.5t-99 53t-68.5 95.5t-25 139q0 56 17 146l106 526h316l-93 -477q-10 -58 -10 -90q0 -73 36 -106t93 -33q80 0 137.5 61.5t81.5 187.5l88 457h312l-185 -946h-301l29 154h-4q-63 -96 -135 -140.5t-174 -44.5z" />
    <glyph glyph-name="v" unicode="v" horiz-adv-x="1116" 
d="M836 946h362l-577 -946h-310l-209 946h322l90 -600z" />
    <glyph glyph-name="w" unicode="w" horiz-adv-x="1658" 
d="M1411 946h330l-531 -946h-264l-100 553l-316 -553h-264l-162 946h304l63 -545l295 545h283l86 -547z" />
    <glyph glyph-name="x" unicode="x" horiz-adv-x="1138" 
d="M1208 946l-452 -465l280 -481h-327l-158 270l-262 -270h-371l494 510l-254 436h327l131 -225l220 225h372z" />
    <glyph glyph-name="y" unicode="y" horiz-adv-x="1124" 
d="M870 946h336l-858 -1356h-334l340 521l-252 835h330l121 -518z" />
    <glyph glyph-name="z" unicode="z" horiz-adv-x="923" 
d="M954 946l-43 -227l-538 -459h477l-49 -260h-860l45 233l530 453h-407l49 260h796z" />
    <glyph glyph-name="braceleft" unicode="{" horiz-adv-x="854" 
d="M1044 1563l-49 -254h-63q-59 0 -99.5 -13t-73 -53t-46.5 -110l-45 -240q-27 -136 -104 -216.5t-214 -109.5v-4q199 -48 199 -233q0 -39 -10 -101l-47 -237q-7 -40 -7 -60q0 -66 40 -92t114 -26h66l-50 -254h-82q-160 0 -254 72t-94 229q0 49 13 119l47 239q4 18 4 47
q0 155 -223 168l51 264q125 6 204 57t99 150l55 299q22 120 96 203t168.5 119.5t202.5 36.5h102z" />
    <glyph glyph-name="bar" unicode="|" horiz-adv-x="671" 
d="M47 -440l375 1929h221l-375 -1929h-221z" />
    <glyph glyph-name="braceright" unicode="}" horiz-adv-x="854" 
d="M-156 -440l50 254h63q59 0 99.5 13t73 53t46.5 110l45 239q27 136 104 216.5t214 109.5v4q-199 48 -199 236q0 36 10 98l47 237q6 34 6 60q0 66 -39.5 92.5t-113.5 26.5h-66l49 254h82q161 0 255 -72t94 -229q0 -49 -13 -119l-47 -238q-4 -20 -4 -49q0 -155 223 -168
l-51 -264q-125 -6 -204 -57t-99 -150l-55 -297q-17 -91 -63.5 -162t-111.5 -113t-139 -63.5t-153 -21.5h-103z" />
    <glyph glyph-name="asciitilde" unicode="~" 
d="M434 825q67 0 131.5 -19.5t106.5 -43t95 -43t99 -19.5q14 0 28.5 2t25.5 3.5t25.5 7.5t22 8t23 11.5t21 12t22.5 15t20.5 15t23 17.5t22.5 17l129 -203q-195 -162 -371 -162q-66 0 -129 19t-105 42.5t-95.5 42.5t-102.5 19q-17 0 -32 -1.5t-30.5 -6t-26.5 -7t-26.5 -11.5
t-23.5 -12.5t-25 -15.5t-23 -16t-26 -19t-25 -19l-129 200q100 84 189 125t186 41z" />
    <glyph glyph-name="exclamdown" unicode="&#xa1;" horiz-adv-x="671" 
d="M602 1020l-63 -330h-328l63 330h328zM-12 -414l252 965h221l-121 -965h-352z" />
    <glyph glyph-name="cent" unicode="&#xa2;" horiz-adv-x="921" 
d="M883 616q-150 59 -238 62l-80 -410h6q93 0 258 62l-61 -316q-112 -45 -244 -45h-16l-21 -100h-57l21 104q-86 10 -159 45t-129 92.5t-88 143t-32 190.5q0 108 39 204t111 169.5t183.5 116.5t246.5 43h24l21 113h57l-23 -117q139 -11 244 -55zM371 444q0 -143 139 -170
l78 402q-58 -6 -101 -28t-67.5 -55t-36.5 -70t-12 -79z" />
    <glyph glyph-name="sterling" unicode="&#xa3;" horiz-adv-x="1142" 
d="M1206 963h-319v16q0 137 -146 137q-88 0 -131 -43.5t-43 -109.5q0 -27 11 -65t19.5 -58t31.5 -72h317l-12 -61h-279q35 -82 35 -146q0 -95 -72.5 -160t-209.5 -120v-11h587l-51 -270h-913l43 227q288 142 288 314q0 63 -49 166h-186l12 61h148q-43 98 -43 201
q0 70 18.5 134t59 121t100.5 98.5t148.5 66t197.5 24.5q99 0 177.5 -20.5t139 -64t93 -116.5t32.5 -172q0 -23 -4 -77z" />
    <glyph glyph-name="currency" unicode="&#xa4;" 
d="M211 184l-39 41l113 113q-123 132 -123 324t125 323l-115 115l41 39l115 -115q132 113 321 113q190 0 322 -113l114 115l41 -41l-112 -113q123 -132 123 -323q0 -192 -123 -324l112 -113l-41 -41l-114 115q-132 -113 -322 -113q-188 0 -323 113zM649 453q91 0 149 59.5
t58 149.5t-58 149t-149 59t-149 -59t-58 -149t58 -149.5t149 -59.5z" />
    <glyph glyph-name="yen" unicode="&#xa5;" horiz-adv-x="1335" 
d="M1470 1382l-522 -729h242l-12 -61h-275l-82 -115h334l-12 -61h-340l-80 -416h-299l82 416h-336l12 61h332l-37 115h-272l12 61h240l-240 729h344l146 -581l368 581h395z" />
    <glyph glyph-name="brokenbar" unicode="&#xa6;" horiz-adv-x="673" 
d="M645 1489l-156 -795h-221l156 795h221zM428 371l-160 -811h-221l160 811h221z" />
    <glyph glyph-name="section" unicode="&#xa7;" horiz-adv-x="1214" 
d="M623 1120q0 -33 27.5 -62.5t72 -54t98 -50.5t106.5 -60t97.5 -75.5t72 -103t27.5 -136.5q0 -126 -72 -220.5t-192 -150.5q55 -77 55 -187q0 -43 -8.5 -82t-27 -79t-52 -72.5t-79.5 -58.5t-113.5 -40t-149.5 -14q-237 0 -413 129l147 220q124 -89 270 -89q142 0 142 86
q0 34 -27.5 65t-71.5 57t-97.5 53.5t-107 63t-97.5 78.5t-71.5 106t-27.5 139q0 125 70.5 214t191.5 142q-57 77 -57 182q0 68 23 127t71.5 109t135 79t202.5 29q242 0 420 -125l-162 -223q-120 88 -264 88q-74 0 -106.5 -23.5t-32.5 -60.5zM416 588q0 -26 11 -50
t24.5 -40.5t43.5 -37.5t49 -32t61 -33.5t61 -32.5q170 79 170 189q0 22 -6 41.5t-21.5 38t-28.5 31.5t-41 31t-44 27.5t-52 29t-51 28.5q-176 -79 -176 -190z" />
    <glyph glyph-name="dieresis" unicode="&#xa8;" horiz-adv-x="845" 
d="M231 1137l56 276h254l-56 -276h-254zM616 1137l56 276h254l-56 -276h-254z" />
    <glyph glyph-name="copyright" unicode="&#xa9;" horiz-adv-x="1728" 
d="M911 -31q-212 0 -382.5 96.5t-266.5 267.5t-96 384t96 384t266.5 267t382.5 96q159 0 297.5 -56.5t237 -154.5t155 -237t56.5 -299q0 -213 -96 -384t-267 -267.5t-383 -96.5zM911 121q255 0 420.5 168.5t165.5 427.5t-165.5 427.5t-420.5 168.5q-168 0 -301.5 -76.5
t-208.5 -212.5t-75 -307t75 -307t208.5 -212.5t301.5 -76.5zM928 260q-207 0 -343 132t-136 333t136 333t343 132q170 0 311 -98l-102 -170q-104 67 -213 67q-115 0 -186.5 -73.5t-71.5 -190.5t71.5 -190.5t186.5 -73.5q109 0 213 67l102 -170q-146 -98 -311 -98z" />
    <glyph glyph-name="ordfeminine" unicode="&#xaa;" horiz-adv-x="862" 
d="M434 692q-111 0 -185.5 81.5t-74.5 217.5q0 72 21 136.5t62 117.5t108.5 84t152.5 31q69 0 124.5 -33t78.5 -90h2l18 102h226l-121 -626h-225l16 88h-2q-75 -109 -201 -109zM537 899q68 0 107.5 40.5t39.5 96.5q0 55 -34.5 86t-88.5 31q-70 0 -109.5 -40.5t-39.5 -96.5
q0 -57 34.5 -87t90.5 -30z" />
    <glyph glyph-name="guillemotleft" unicode="&#xab;" horiz-adv-x="1189" 
d="M299 127l-266 360l405 359h330l-430 -381l256 -338h-295zM772 127l-264 360l403 359h332l-432 -381l256 -338h-295z" />
    <glyph glyph-name="logicalnot" unicode="&#xac;" 
d="M174 885h936v-129v-414h-125v414h-811v129z" />
    <glyph glyph-name="uni00AD" unicode="&#xad;" horiz-adv-x="862" 
d="M88 406l53 276h660l-53 -276h-660z" />
    <glyph glyph-name="registered" unicode="&#xae;" horiz-adv-x="1204" 
d="M698 1464q213 0 351.5 -138.5t138.5 -354.5t-138.5 -355t-351.5 -139q-212 0 -350.5 139t-138.5 355t138.5 354.5t350.5 138.5zM698 596q163 0 265 105t102 270t-102 270t-265 105q-162 0 -263 -105t-101 -270t101 -270t263 -105zM913 1090q0 -127 -114 -162l127 -207
h-125l-113 197h-49v-197h-109v532h201q83 0 132.5 -44t49.5 -119zM639 1151v-131h84q35 0 54.5 17t19.5 48t-19.5 48.5t-54.5 17.5h-84z" />
    <glyph glyph-name="macron" unicode="&#xaf;" horiz-adv-x="870" 
d="M942 1378l-39 -202h-665l41 202h663z" />
    <glyph glyph-name="degree" unicode="&#xb0;" horiz-adv-x="770" 
d="M510 1413q130 0 213.5 -83t83.5 -214q0 -132 -83.5 -214.5t-213.5 -82.5q-129 0 -213 82.5t-84 214.5q0 131 84 214t213 83zM510 1278q-67 0 -113.5 -45.5t-46.5 -116.5q0 -72 46 -117t114 -45q69 0 114.5 45t45.5 117q0 71 -46 116.5t-114 45.5z" />
    <glyph glyph-name="plusminus" unicode="&#xb1;" 
d="M688 1069v-262h420v-135h-420v-262h-139v262h-420v135h420v262h139zM1108 313v-129h-979v129h979z" />
    <glyph glyph-name="uni00B2" unicode="&#xb2;" horiz-adv-x="858" 
d="M616 1645q164 0 252 -68t88 -193q0 -93 -53 -162t-178 -155l-162 -109h311l-47 -245h-690l43 213l348 264q92 72 121 102t29 62q0 61 -82 61q-101 0 -111 -96h-260q13 75 39 131.5t71 102t115.5 69t165.5 23.5z" />
    <glyph glyph-name="uni00B3" unicode="&#xb3;" horiz-adv-x="821" 
d="M477 692q-160 0 -253 63.5t-93 188.5q0 37 8 70h252q0 -4 -1 -12t-1 -11q3 -63 105 -63q60 0 91 23t31 61q0 42 -37 60t-118 18l31 163q81 0 119 23.5t38 73.5q0 69 -84 69q-43 0 -71.5 -21.5t-34.5 -56.5h-246q19 144 115.5 224t263.5 80q148 0 241 -62.5t93 -175.5
q0 -92 -57 -145.5t-154 -67.5v-4q76 -12 117.5 -61t41.5 -130q0 -45 -12.5 -87.5t-42.5 -83t-74.5 -70.5t-113.5 -48t-154 -18z" />
    <glyph glyph-name="acute" unicode="&#xb4;" horiz-adv-x="772" 
d="M231 1133l299 315h330l-387 -315h-242z" />
    <glyph glyph-name="paragraph" unicode="&#xb6;" horiz-adv-x="1368" 
d="M1452 1434l-45 -228h-133l-277 -1423h-219l277 1423h-185l-276 -1423h-219l166 852q-139 0 -233.5 95.5t-94.5 262.5q0 191 134 316t370 125h735z" />
    <glyph glyph-name="periodcentered" unicode="&#xb7;" horiz-adv-x="497" 
d="M113 616l63 330h328l-64 -330h-327z" />
    <glyph glyph-name="cedilla" unicode="&#xb8;" horiz-adv-x="593" 
d="M-33 -434l-26 78q134 51 162 70q30 21 30 44q0 22 -22.5 33.5t-79.5 24.5l151 264h111l-100 -158q82 -17 122.5 -45t40.5 -84q0 -34 -19.5 -63t-51.5 -51t-84.5 -43t-106 -36.5t-127.5 -33.5z" />
    <glyph glyph-name="uni00B9" unicode="&#xb9;" horiz-adv-x="636" 
d="M655 1624l-176 -911h-260l127 659h-35l47 252h297z" />
    <glyph glyph-name="ordmasculine" unicode="&#xba;" horiz-adv-x="851" 
d="M561 1360q154 0 244 -84.5t90 -220.5q0 -153 -107 -258t-282 -105q-154 0 -244 84.5t-90 220.5q0 153 107 258t282 105zM547 1151q-67 0 -106.5 -43t-39.5 -98q0 -50 32 -79.5t87 -29.5q66 0 105 43t39 98q0 50 -31 79.5t-86 29.5z" />
    <glyph glyph-name="guillemotright" unicode="&#xbb;" horiz-adv-x="1193" 
d="M453 825l266 -358l-404 -361h-331l432 381l-258 338h295zM862 825l264 -358l-403 -361h-332l432 381l-256 338h295z" />
    <glyph glyph-name="onequarter" unicode="&#xbc;" horiz-adv-x="1550" 
d="M1196 1382h160l-1034 -1382h-160zM399 592h-166l121 625h-55l33 165h221zM1479 791l-101 -515h74l-27 -143h-73l-27 -133h-158l27 133h-412l25 133l512 525h160zM991 276h230l57 293h-4z" />
    <glyph glyph-name="onehalf" unicode="&#xbd;" horiz-adv-x="1628" 
d="M162 0l1034 1382h160l-1034 -1382h-160zM233 592l121 625h-55l33 165h221l-154 -790h-166zM866 0l27 131l332 270q11 9 33 26.5t31.5 25.5t25.5 22.5t23.5 24.5t16 23t12 25.5t3.5 26.5q0 40 -28.5 60t-73.5 20q-115 0 -133 -112h-162q5 50 24 95t54 84.5t94 63t135 23.5
q50 0 95 -11t84.5 -34t63 -66t23.5 -100q0 -61 -30.5 -115t-62 -83t-106.5 -88q-5 -4 -8.5 -7t-7.5 -6l-178 -141l322 2l-31 -160h-578z" />
    <glyph glyph-name="threequarters" unicode="&#xbe;" horiz-adv-x="1728" 
d="M717 825q0 -48 -17 -91t-52 -80t-98 -59t-147 -22q-132 0 -208 54t-76 153q0 19 4 51h166q-2 -6 -2 -20q0 -42 31.5 -66t93.5 -24q68 0 99.5 30t31.5 76q0 52 -40.5 75.5t-129.5 21.5l26 145q83 -2 134 25t51 84q0 79 -103 79q-53 0 -87 -26.5t-40 -69.5h-159
q31 240 299 240q121 0 193.5 -49t72.5 -144q0 -77 -51.5 -132t-139.5 -70v-2q66 -11 107 -55.5t41 -123.5zM1372 1382h160l-1034 -1382h-160zM1655 791l-101 -515h74l-26 -143h-74l-27 -133h-158l27 133h-412l25 133l512 525h160zM1167 276h230l57 293h-4z" />
    <glyph glyph-name="questiondown" unicode="&#xbf;" horiz-adv-x="890" 
d="M756 1020l-64 -330h-327l63 330h328zM657 551l-12 -59q-26 -119 -86 -205.5t-160 -155.5q-80 -57 -117.5 -103t-37.5 -91q0 -42 28.5 -65.5t83.5 -23.5q71 0 118 42t56 116h306q-23 -219 -154.5 -334.5t-353.5 -115.5q-196 0 -299 85.5t-103 247.5q0 202 213 367
q100 72 143.5 126.5t63.5 139.5l6 29h305z" />
    <glyph glyph-name="Agrave" unicode="&#xc0;" horiz-adv-x="1466" 
d="M1042 1522h-221l-303 245h336zM1034 0l-45 291h-553l-157 -291h-371l844 1434h335l287 -1434h-340zM584 563h362l-82 516z" />
    <glyph glyph-name="Aacute" unicode="&#xc1;" horiz-adv-x="1466" 
d="M1430 1767l-398 -245h-223l283 245h338zM752 1434h335l287 -1434h-340l-45 291h-553l-157 -291h-371zM584 563h362l-82 516z" />
    <glyph glyph-name="Acircumflex" unicode="&#xc2;" horiz-adv-x="1466" 
d="M952 1649l-161 -127h-275l295 245h297l197 -245h-238zM1034 0l-45 291h-553l-157 -291h-371l844 1434h335l287 -1434h-340zM584 563h362l-82 516z" />
    <glyph glyph-name="Atilde" unicode="&#xc3;" horiz-adv-x="1466" 
d="M778 1585q-38 0 -67.5 -18.5t-63.5 -59.5l-90 31q52 113 120 179.5t161 66.5q64 0 179 -47t165 -47q39 0 68 18.5t63 60.5l90 -32q-53 -113 -119.5 -179.5t-161.5 -66.5q-64 0 -179 47t-165 47zM752 1434h335l287 -1434h-340l-45 291h-553l-157 -291h-371zM584 563h362
l-82 516z" />
    <glyph glyph-name="Adieresis" unicode="&#xc4;" horiz-adv-x="1466" 
d="M893 1755l-45 -233h-273l46 233h272zM1337 1755l-45 -233h-274l45 233h274zM1034 0l-45 291h-553l-157 -291h-371l844 1434h335l287 -1434h-340zM584 563h362l-82 516z" />
    <glyph glyph-name="Aring" unicode="&#xc5;" horiz-adv-x="1466" 
d="M1034 0l-45 291h-553l-157 -291h-371l817 1391q-39 55 -39 127q0 112 76.5 191t200.5 79q99 0 160 -58t61 -151q0 -122 -86 -199l276 -1380h-340zM950 1665q-64 0 -98.5 -42t-34.5 -93q0 -42 26 -69t77 -27q64 0 98.5 42t34.5 93q0 41 -26 68.5t-77 27.5zM584 563h362
l-82 516z" />
    <glyph glyph-name="AE" unicode="&#xc6;" horiz-adv-x="2056" 
d="M2114 1145h-529l-47 -234h471l-55 -288h-471l-66 -334h537l-56 -289h-667h-176l55 291h-541l-237 -291h-424l1227 1434h505h529zM799 573h366l115 588z" />
    <glyph glyph-name="Ccedilla" unicode="&#xc7;" horiz-adv-x="1413" 
d="M1319 109q-238 -134 -481 -140l-31 -47q82 -17 123 -45t41 -84q0 -34 -19.5 -63t-51.5 -51t-84.5 -43t-106 -36.5t-127.5 -33.5l-27 78q7 3 21 8q98 37 135 57.5t37 48.5q0 22 -23 33.5t-80 24.5l90 157q-289 25 -463 213.5t-174 481.5q0 172 62.5 320t174 252.5t271 164
t346.5 59.5q318 0 545 -151l-192 -281q-159 111 -357 111q-226 0 -364 -129.5t-138 -339.5q0 -173 105 -280t274 -107q168 0 361 102z" />
    <glyph glyph-name="Egrave" unicode="&#xc8;" horiz-adv-x="1085" 
d="M915 1522h-221l-303 245h336zM1141 1145h-568l-45 -234h512l-55 -288h-514l-65 -334h579l-55 -289h-897l278 1434h887z" />
    <glyph glyph-name="Eacute" unicode="&#xc9;" horiz-adv-x="1085" 
d="M1303 1767l-398 -245h-223l283 245h338zM33 0l278 1434h887l-57 -289h-568l-45 -234h512l-55 -288h-514l-65 -334h579l-55 -289h-897z" />
    <glyph glyph-name="Ecircumflex" unicode="&#xca;" horiz-adv-x="1085" 
d="M825 1649l-161 -127h-275l295 245h297l197 -245h-238zM1141 1145h-568l-45 -234h512l-55 -288h-514l-65 -334h579l-55 -289h-897l278 1434h887z" />
    <glyph glyph-name="Edieresis" unicode="&#xcb;" horiz-adv-x="1085" 
d="M766 1755l-45 -233h-272l45 233h272zM1210 1755l-45 -233h-274l45 233h274zM33 0l278 1434h887l-57 -289h-568l-45 -234h512l-55 -288h-514l-65 -334h579l-55 -289h-897z" />
    <glyph glyph-name="Igrave" unicode="&#xcc;" horiz-adv-x="567" 
d="M406 1767l188 -245h-221l-303 245h336zM33 0l278 1434h318l-279 -1434h-317z" />
    <glyph glyph-name="Iacute" unicode="&#xcd;" horiz-adv-x="567" 
d="M358 1522l283 245h338l-397 -245h-224zM33 0l278 1434h318l-279 -1434h-317z" />
    <glyph glyph-name="Icircumflex" unicode="&#xce;" horiz-adv-x="567" 
d="M68 1522l294 245h297l197 -245h-238l-114 127l-162 -127h-274zM33 0l278 1434h318l-279 -1434h-317z" />
    <glyph glyph-name="Idieresis" unicode="&#xcf;" horiz-adv-x="567" 
d="M127 1522l45 233h272l-45 -233h-272zM569 1522l45 233h275l-45 -233h-275zM33 0l278 1434h318l-279 -1434h-317z" />
    <glyph glyph-name="Eth" unicode="&#xd0;" horiz-adv-x="1423" 
d="M754 1434q302 0 486.5 -176.5t184.5 -466.5q0 -232 -109 -412t-308 -279.5t-457 -99.5h-512l123 635h-90l41 209h90l114 590h437zM559 289q236 0 382 135t146 356q0 172 -95.5 268.5t-264.5 96.5h-147l-60 -301h201l-39 -209h-203l-67 -346h147z" />
    <glyph glyph-name="Ntilde" unicode="&#xd1;" horiz-adv-x="1521" 
d="M1126 1491q-64 0 -179 47t-165 47q-38 0 -67.5 -18.5t-63.5 -59.5l-90 31q52 113 120 179.5t161 66.5q64 0 179 -47t165 -47q39 0 68 18.5t63 60.5l90 -32q-53 -113 -119.5 -179.5t-161.5 -66.5zM33 0l278 1434h269l512 -908h2l172 908h317l-278 -1434h-271l-510 903h-2
l-172 -903h-317z" />
    <glyph glyph-name="Ograve" unicode="&#xd2;" horiz-adv-x="1636" 
d="M870 1767l189 -245h-221l-303 245h335zM807 -31q-210 0 -371.5 82.5t-251.5 237.5t-90 360q0 168 61 317.5t169 259.5t264.5 174t337.5 64q210 0 370.5 -82.5t250 -237.5t89.5 -360q0 -168 -60.5 -317.5t-168 -259.5t-263.5 -174t-337 -64zM825 287q114 0 206.5 42
t150 111.5t88 155t30.5 178.5q0 180 -109.5 276.5t-283.5 96.5q-114 0 -207 -42t-150.5 -111.5t-88.5 -155.5t-31 -179q0 -179 110 -275.5t285 -96.5z" />
    <glyph glyph-name="Oacute" unicode="&#xd3;" horiz-adv-x="1636" 
d="M825 1522l283 245h338l-397 -245h-224zM807 -31q-210 0 -371.5 82.5t-251.5 237.5t-90 360q0 168 61 317.5t169 259.5t264.5 174t337.5 64q210 0 370.5 -82.5t250 -237.5t89.5 -360q0 -168 -60.5 -317.5t-168 -259.5t-263.5 -174t-337 -64zM825 287q114 0 206.5 42
t150 111.5t88 155t30.5 178.5q0 180 -109.5 276.5t-283.5 96.5q-114 0 -207 -42t-150.5 -111.5t-88.5 -155.5t-31 -179q0 -179 110 -275.5t285 -96.5z" />
    <glyph glyph-name="Ocircumflex" unicode="&#xd4;" horiz-adv-x="1636" 
d="M532 1522l295 245h297l197 -245h-238l-114 127l-162 -127h-275zM807 -31q-210 0 -371.5 82.5t-251.5 237.5t-90 360q0 168 61 317.5t169 259.5t264.5 174t337.5 64q210 0 370.5 -82.5t250 -237.5t89.5 -360q0 -168 -60.5 -317.5t-168 -259.5t-263.5 -174t-337 -64z
M825 287q114 0 206.5 42t150 111.5t88 155t30.5 178.5q0 180 -109.5 276.5t-283.5 96.5q-114 0 -207 -42t-150.5 -111.5t-88.5 -155.5t-31 -179q0 -179 110 -275.5t285 -96.5z" />
    <glyph glyph-name="Otilde" unicode="&#xd5;" horiz-adv-x="1636" 
d="M1139 1491q-64 0 -179 47t-165 47q-38 0 -67.5 -18.5t-63.5 -59.5l-91 31q52 113 120 179.5t161 66.5q64 0 179 -47t165 -47q39 0 68 18.5t63 60.5l90 -32q-53 -114 -119.5 -180t-160.5 -66zM807 -31q-210 0 -371.5 82.5t-251.5 237.5t-90 360q0 168 61 317.5t169 259.5
t264.5 174t337.5 64q210 0 370.5 -82.5t250 -237.5t89.5 -360q0 -168 -60.5 -317.5t-168 -259.5t-263.5 -174t-337 -64zM825 287q114 0 206.5 42t150 111.5t88 155t30.5 178.5q0 180 -109.5 276.5t-283.5 96.5q-114 0 -207 -42t-150.5 -111.5t-88.5 -155.5t-31 -179
q0 -179 110 -275.5t285 -96.5z" />
    <glyph glyph-name="Odieresis" unicode="&#xd6;" horiz-adv-x="1636" 
d="M592 1522l45 233h272l-45 -233h-272zM1034 1522l45 233h275l-45 -233h-275zM807 -31q-210 0 -371.5 82.5t-251.5 237.5t-90 360q0 168 61 317.5t169 259.5t264.5 174t337.5 64q210 0 370.5 -82.5t250 -237.5t89.5 -360q0 -168 -60.5 -317.5t-168 -259.5t-263.5 -174
t-337 -64zM825 287q114 0 206.5 42t150 111.5t88 155t30.5 178.5q0 180 -109.5 276.5t-283.5 96.5q-114 0 -207 -42t-150.5 -111.5t-88.5 -155.5t-31 -179q0 -179 110 -275.5t285 -96.5z" />
    <glyph glyph-name="multiply" unicode="&#xd7;" 
d="M999 1065l97 -96l-357 -359l357 -358l-97 -96l-358 356l-358 -356l-97 96l357 358l-357 359l97 96l358 -356z" />
    <glyph glyph-name="Oslash" unicode="&#xd8;" horiz-adv-x="1636" 
d="M1452 1270q184 -187 184 -486q0 -168 -60.5 -317.5t-168 -259.5t-263.5 -174t-337 -64q-270 0 -457 135l-127 -133l-73 68l124 131q-180 183 -180 479q0 168 61 317.5t169 259.5t264.5 174t337.5 64q262 0 448 -131l129 135l72 -67zM430 659q0 -147 78 -241l635 669
q-102 60 -236 60q-114 0 -207 -42t-150.5 -111.5t-88.5 -155.5t-31 -179zM825 287q114 0 206.5 42t150 111.5t88 155t30.5 178.5q0 154 -81 248l-637 -672q104 -63 243 -63z" />
    <glyph glyph-name="Ugrave" unicode="&#xd9;" horiz-adv-x="1433" 
d="M829 1767l189 -245h-221l-303 245h335zM1516 1434l-166 -854q-20 -105 -52.5 -191.5t-88 -165.5t-129.5 -132.5t-180.5 -85.5t-237.5 -32q-265 0 -404 125t-139 357q0 83 18 174l154 805h340l-154 -789q-10 -51 -10 -113q0 -120 58.5 -180.5t166.5 -60.5q58 0 107.5 18
t84.5 48t62 71.5t43.5 85.5t26.5 94l160 826h340z" />
    <glyph glyph-name="Uacute" unicode="&#xda;" horiz-adv-x="1433" 
d="M784 1522l283 245h338l-397 -245h-224zM1516 1434l-166 -854q-20 -105 -52.5 -191.5t-88 -165.5t-129.5 -132.5t-180.5 -85.5t-237.5 -32q-265 0 -404 125t-139 357q0 83 18 174l154 805h340l-154 -789q-10 -51 -10 -113q0 -120 58.5 -180.5t166.5 -60.5q58 0 107.5 18
t84.5 48t62 71.5t43.5 85.5t26.5 94l160 826h340z" />
    <glyph glyph-name="Ucircumflex" unicode="&#xdb;" horiz-adv-x="1433" 
d="M492 1522l294 245h297l197 -245h-238l-114 127l-162 -127h-274zM1516 1434l-166 -854q-20 -105 -52.5 -191.5t-88 -165.5t-129.5 -132.5t-180.5 -85.5t-237.5 -32q-265 0 -404 125t-139 357q0 83 18 174l154 805h340l-154 -789q-10 -51 -10 -113q0 -120 58.5 -180.5
t166.5 -60.5q58 0 107.5 18t84.5 48t62 71.5t43.5 85.5t26.5 94l160 826h340z" />
    <glyph glyph-name="Udieresis" unicode="&#xdc;" horiz-adv-x="1433" 
d="M551 1522l45 233h272l-45 -233h-272zM993 1522l45 233h275l-45 -233h-275zM1516 1434l-166 -854q-20 -105 -52.5 -191.5t-88 -165.5t-129.5 -132.5t-180.5 -85.5t-237.5 -32q-265 0 -404 125t-139 357q0 83 18 174l154 805h340l-154 -789q-10 -51 -10 -113
q0 -120 58.5 -180.5t166.5 -60.5q58 0 107.5 18t84.5 48t62 71.5t43.5 85.5t26.5 94l160 826h340z" />
    <glyph glyph-name="Yacute" unicode="&#xdd;" horiz-adv-x="1349" 
d="M1325 1767l-397 -245h-223l282 245h338zM1536 1434l-696 -922l-99 -512h-317l98 518l-336 916h349l180 -600h4l418 600h399z" />
    <glyph glyph-name="Thorn" unicode="&#xde;" 
d="M717 1182q254 0 383 -120t129 -310q0 -107 -39 -199t-115.5 -163t-200 -111.5t-280.5 -40.5h-199l-45 -238h-317l278 1434h316l-49 -252h139zM627 526q118 0 188 53t70 152q0 162 -209 162h-154l-69 -367h174z" />
    <glyph glyph-name="germandbls" unicode="&#xdf;" horiz-adv-x="1224" 
d="M838 817q177 -15 257.5 -93t80.5 -230q0 -160 -82.5 -275.5t-225 -172t-329.5 -56.5h-142l54 266h81q126 0 200.5 27t104 76.5t29.5 129.5q0 46 -11 79t-40.5 62.5t-89.5 44.5t-150 15l43 230q119 0 181.5 44t62.5 123q0 115 -141 115q-92 0 -142 -46.5t-69 -145.5
l-248 -1276h-309l242 1249q17 87 42 155t68.5 131t102 104.5t145 66t195.5 24.5q97 0 174.5 -19.5t136.5 -58.5t91 -103.5t32 -149.5q0 -130 -82 -212t-262 -100v-4z" />
    <glyph glyph-name="agrave" unicode="&#xe0;" horiz-adv-x="1216" 
d="M592 1448l174 -315h-221l-271 315h318zM444 -31q-184 0 -291.5 119.5t-107.5 325.5q0 249 140.5 406t361.5 157q117 0 203 -50.5t129 -144.5h6l30 164h308l-185 -946h-307l25 127h-4q-57 -75 -138 -116.5t-170 -41.5zM582 252q103 0 170 69t67 173q0 90 -58.5 145
t-154.5 55q-101 0 -168 -68.5t-67 -174.5q0 -89 58 -144t153 -55z" />
    <glyph glyph-name="aacute" unicode="&#xe1;" horiz-adv-x="1216" 
d="M586 1133l299 315h329l-387 -315h-241zM444 -31q-184 0 -291.5 119.5t-107.5 325.5q0 249 140.5 406t361.5 157q117 0 203 -50.5t129 -144.5h6l30 164h308l-185 -946h-307l25 127h-4q-57 -75 -138 -116.5t-170 -41.5zM582 252q103 0 170 69t67 173q0 90 -58.5 145
t-154.5 55q-101 0 -168 -68.5t-67 -174.5q0 -89 58 -144t153 -55z" />
    <glyph glyph-name="acircumflex" unicode="&#xe2;" horiz-adv-x="1216" 
d="M319 1133l312 315h289l188 -315h-240l-106 176l-170 -176h-273zM444 -31q-184 0 -291.5 119.5t-107.5 325.5q0 249 140.5 406t361.5 157q117 0 203 -50.5t129 -144.5h6l30 164h308l-185 -946h-307l25 127h-4q-57 -75 -138 -116.5t-170 -41.5zM582 252q103 0 170 69
t67 173q0 90 -58.5 145t-154.5 55q-101 0 -168 -68.5t-67 -174.5q0 -89 58 -144t153 -55z" />
    <glyph glyph-name="atilde" unicode="&#xe3;" horiz-adv-x="1216" 
d="M911 1118q-47 0 -99.5 17.5t-89.5 39t-80 39t-75 17.5q-64 0 -129 -94l-108 39q59 131 126.5 201.5t161.5 70.5q47 0 100 -17.5t90.5 -39t80.5 -39t74 -17.5q66 0 129 95l108 -39q-59 -131 -127 -202t-162 -71zM444 -31q-184 0 -291.5 119.5t-107.5 325.5
q0 249 140.5 406t361.5 157q117 0 203 -50.5t129 -144.5h6l30 164h308l-185 -946h-307l25 127h-4q-57 -75 -138 -116.5t-170 -41.5zM582 252q103 0 170 69t67 173q0 90 -58.5 145t-154.5 55q-101 0 -168 -68.5t-67 -174.5q0 -89 58 -144t153 -55z" />
    <glyph glyph-name="adieresis" unicode="&#xe4;" horiz-adv-x="1216" 
d="M401 1137l56 276h254l-56 -276h-254zM786 1137l56 276h254l-56 -276h-254zM444 -31q-184 0 -291.5 119.5t-107.5 325.5q0 249 140.5 406t361.5 157q117 0 203 -50.5t129 -144.5h6l30 164h308l-185 -946h-307l25 127h-4q-57 -75 -138 -116.5t-170 -41.5zM582 252
q103 0 170 69t67 173q0 90 -58.5 145t-154.5 55q-101 0 -168 -68.5t-67 -174.5q0 -89 58 -144t153 -55z" />
    <glyph glyph-name="aring" unicode="&#xe5;" horiz-adv-x="1216" 
d="M768 1530q100 0 161.5 -58.5t61.5 -152.5q0 -110 -76 -189t-198 -79q-101 0 -162 58.5t-61 152.5q0 110 75.5 189t198.5 79zM758 1405q-64 0 -98.5 -41t-34.5 -92q0 -42 26 -69t76 -27q64 0 98.5 41t34.5 92q0 42 -26 69t-76 27zM444 -31q-184 0 -291.5 119.5
t-107.5 325.5q0 249 140.5 406t361.5 157q117 0 203 -50.5t129 -144.5h6l30 164h308l-185 -946h-307l25 127h-4q-57 -75 -138 -116.5t-170 -41.5zM582 252q103 0 170 69t67 173q0 90 -58.5 145t-154.5 55q-101 0 -168 -68.5t-67 -174.5q0 -89 58 -144t153 -55z" />
    <glyph glyph-name="ae" unicode="&#xe6;" horiz-adv-x="1691" 
d="M377 -31q-164 0 -269.5 82t-105.5 238t114.5 253t301.5 97q99 0 173.5 -29t115.5 -78h6q12 70 12 93q0 54 -45.5 85t-134.5 31q-118 0 -283 -41l-39 236q189 41 350 41q61 0 108.5 -7.5t91 -26t74.5 -54t48 -86.5h4q56 83 147.5 127.5t208.5 44.5q81 0 153.5 -23t131 -68
t93 -120.5t34.5 -171.5q0 -64 -27 -193h-671v-16q0 -73 59 -117.5t152 -44.5q141 0 282 92l94 -219q-189 -125 -391 -125q-137 0 -236.5 52t-150.5 145h-4q-134 -197 -397 -197zM1010 582h360q2 12 2 32q0 62 -39.5 96.5t-107.5 34.5q-81 0 -136 -44t-79 -119zM494 201
q78 0 131 36t53 97q0 50 -40.5 78t-107.5 28q-79 0 -129.5 -36t-50.5 -97q0 -50 37.5 -78t106.5 -28z" />
    <glyph glyph-name="ccedilla" unicode="&#xe7;" horiz-adv-x="960" 
d="M866 43q-139 -68 -288 -74l-31 -47q82 -17 123 -45t41 -84q0 -34 -19.5 -63t-51.5 -51t-84.5 -43t-106 -36.5t-127.5 -33.5l-27 78q134 51 162 70q30 21 30 44q0 22 -22.5 33.5t-79.5 24.5l90 157q-188 21 -306 144.5t-118 331.5q0 111 36 205.5t106 167t181 114
t251 41.5q210 0 385 -111l-154 -254q-127 84 -240 84q-119 0 -183 -66t-64 -165q0 -96 59.5 -154.5t153.5 -58.5q89 0 186 51z" />
    <glyph glyph-name="egrave" unicode="&#xe8;" horiz-adv-x="1075" 
d="M739 1133h-221l-270 315h317zM1053 594q0 -88 -29 -195h-678q21 -170 211 -170q148 0 291 84l96 -241q-201 -103 -407 -103q-223 0 -357.5 122.5t-134.5 332.5q0 81 20 158t64.5 149t108.5 125.5t159 86t209 32.5q204 0 325.5 -100.5t121.5 -280.5zM748 582q2 12 2 36
q0 64 -43 101t-115 37q-82 0 -142 -46.5t-88 -127.5h386z" />
    <glyph glyph-name="eacute" unicode="&#xe9;" horiz-adv-x="1075" 
d="M1186 1448l-387 -315h-242l299 315h330zM606 975q204 0 325.5 -100.5t121.5 -280.5q0 -88 -29 -195h-678q21 -170 211 -170q148 0 291 84l96 -241q-201 -103 -407 -103q-223 0 -357.5 122.5t-134.5 332.5q0 81 20 158t64.5 149t108.5 125.5t159 86t209 32.5zM748 582
q2 12 2 36q0 64 -43 101t-115 37q-82 0 -142 -46.5t-88 -127.5h386z" />
    <glyph glyph-name="ecircumflex" unicode="&#xea;" horiz-adv-x="1075" 
d="M735 1309l-170 -176h-272l311 315h289l188 -315h-239zM606 975q204 0 325.5 -100.5t121.5 -280.5q0 -88 -29 -195h-678q21 -170 211 -170q148 0 291 84l96 -241q-201 -103 -407 -103q-223 0 -357.5 122.5t-134.5 332.5q0 81 20 158t64.5 149t108.5 125.5t159 86t209 32.5
zM748 582q2 12 2 36q0 64 -43 101t-115 37q-82 0 -142 -46.5t-88 -127.5h386z" />
    <glyph glyph-name="edieresis" unicode="&#xeb;" horiz-adv-x="1075" 
d="M682 1413l-55 -276h-254l55 276h254zM1067 1413l-55 -276h-254l55 276h254zM606 975q204 0 325.5 -100.5t121.5 -280.5q0 -88 -29 -195h-678q21 -170 211 -170q148 0 291 84l96 -241q-201 -103 -407 -103q-223 0 -357.5 122.5t-134.5 332.5q0 81 20 158t64.5 149
t108.5 125.5t159 86t209 32.5zM748 582q2 12 2 36q0 64 -43 101t-115 37q-82 0 -142 -46.5t-88 -127.5h386z" />
    <glyph glyph-name="igrave" unicode="&#xec;" horiz-adv-x="499" 
d="M389 1448l92 -315h-231l-139 315h278zM4 0l184 946h310l-185 -946h-309z" />
    <glyph glyph-name="iacute" unicode="&#xed;" horiz-adv-x="499" 
d="M246 1133l196 315h303l-260 -315h-239zM4 0l184 946h310l-185 -946h-309z" />
    <glyph glyph-name="icircumflex" unicode="&#xee;" horiz-adv-x="499" 
d="M47 1133l236 315h288l115 -315h-229l-35 206l-117 -206h-258zM4 0l184 946h310l-185 -946h-309z" />
    <glyph glyph-name="idieresis" unicode="&#xef;" horiz-adv-x="499" 
d="M106 1137l56 276h233l-53 -276h-236zM424 1137l53 276h236l-56 -276h-233zM4 0l184 946h310l-185 -946h-309z" />
    <glyph glyph-name="eth" unicode="&#xf0;" horiz-adv-x="1204" 
d="M983 1360q193 -184 193 -569q0 -203 -48 -362t-133.5 -258t-198 -150.5t-245.5 -51.5q-223 0 -361.5 134t-138.5 350q0 100 31.5 192t92 167t159 120t221.5 45t217.5 -48t136.5 -145h4q2 23 2 64q0 227 -153 348l-207 -154l-102 132l143 106q-75 24 -184 41l59 240
q224 -28 367 -101l182 133l98 -133zM561 254q116 0 182 74.5t66 171.5q0 96 -59.5 144t-145.5 48q-79 0 -137 -38t-84.5 -92.5t-26.5 -115.5q0 -96 59.5 -144t145.5 -48z" />
    <glyph glyph-name="ntilde" unicode="&#xf1;" horiz-adv-x="1155" 
d="M907 1118q-47 0 -99.5 17.5t-89.5 39t-80 39t-75 17.5q-64 0 -129 -94l-108 39q59 131 126.5 201.5t161.5 70.5q47 0 99.5 -17.5t90 -39t80.5 -39t74 -17.5q66 0 129 95l109 -39q-59 -131 -127 -202t-162 -71zM2 0l184 946h303l-28 -143h4q132 174 326 174
q140 0 220.5 -78t80.5 -229q0 -85 -19 -185l-98 -485h-307l88 463q14 65 14 108q0 148 -149 148q-83 0 -138 -55.5t-80 -188.5l-92 -475h-309z" />
    <glyph glyph-name="ograve" unicode="&#xf2;" horiz-adv-x="1155" 
d="M547 1448l174 -315h-221l-271 315h318zM541 -31q-106 0 -195.5 28.5t-157 83.5t-105.5 143.5t-38 201.5q0 154 69 278.5t200 198.5t302 74q141 0 250.5 -48.5t176.5 -153.5t67 -255q0 -154 -68.5 -278.5t-199.5 -198.5t-301 -74zM557 254q77 0 134.5 37.5t84.5 92.5
t27 118q0 95 -58.5 142.5t-144.5 47.5q-116 0 -182 -74.5t-66 -173.5q0 -95 59 -142.5t146 -47.5z" />
    <glyph glyph-name="oacute" unicode="&#xf3;" horiz-adv-x="1155" 
d="M539 1133l299 315h329l-387 -315h-241zM541 -31q-106 0 -195.5 28.5t-157 83.5t-105.5 143.5t-38 201.5q0 154 69 278.5t200 198.5t302 74q141 0 250.5 -48.5t176.5 -153.5t67 -255q0 -154 -68.5 -278.5t-199.5 -198.5t-301 -74zM557 254q77 0 134.5 37.5t84.5 92.5
t27 118q0 95 -58.5 142.5t-144.5 47.5q-116 0 -182 -74.5t-66 -173.5q0 -95 59 -142.5t146 -47.5z" />
    <glyph glyph-name="ocircumflex" unicode="&#xf4;" horiz-adv-x="1155" 
d="M274 1133l312 315h288l189 -315h-240l-106 176l-170 -176h-273zM541 -31q-106 0 -195.5 28.5t-157 83.5t-105.5 143.5t-38 201.5q0 154 69 278.5t200 198.5t302 74q141 0 250.5 -48.5t176.5 -153.5t67 -255q0 -154 -68.5 -278.5t-199.5 -198.5t-301 -74zM557 254
q77 0 134.5 37.5t84.5 92.5t27 118q0 95 -58.5 142.5t-144.5 47.5q-116 0 -182 -74.5t-66 -173.5q0 -95 59 -142.5t146 -47.5z" />
    <glyph glyph-name="otilde" unicode="&#xf5;" horiz-adv-x="1155" 
d="M866 1118q-47 0 -99.5 17.5t-89.5 39t-80 39t-75 17.5q-64 0 -129 -94l-108 39q59 131 126.5 201.5t161.5 70.5q47 0 100 -17.5t90.5 -39t80.5 -39t74 -17.5q66 0 129 95l108 -39q-59 -131 -127 -202t-162 -71zM541 -31q-106 0 -195.5 28.5t-157 83.5t-105.5 143.5
t-38 201.5q0 154 69 278.5t200 198.5t302 74q141 0 250.5 -48.5t176.5 -153.5t67 -255q0 -154 -68.5 -278.5t-199.5 -198.5t-301 -74zM557 254q77 0 134.5 37.5t84.5 92.5t27 118q0 95 -58.5 142.5t-144.5 47.5q-116 0 -182 -74.5t-66 -173.5q0 -95 59 -142.5t146 -47.5z
" />
    <glyph glyph-name="odieresis" unicode="&#xf6;" horiz-adv-x="1155" 
d="M354 1137l56 276h254l-56 -276h-254zM739 1137l56 276h254l-56 -276h-254zM541 -31q-106 0 -195.5 28.5t-157 83.5t-105.5 143.5t-38 201.5q0 154 69 278.5t200 198.5t302 74q141 0 250.5 -48.5t176.5 -153.5t67 -255q0 -154 -68.5 -278.5t-199.5 -198.5t-301 -74z
M557 254q77 0 134.5 37.5t84.5 92.5t27 118q0 95 -58.5 142.5t-144.5 47.5q-116 0 -182 -74.5t-66 -173.5q0 -95 59 -142.5t146 -47.5z" />
    <glyph glyph-name="divide" unicode="&#xf7;" 
d="M739 1051v-201h-194v201h194zM1171 676v-129h-1060v129h1060zM739 373v-203h-194v203h194z" />
    <glyph glyph-name="oslash" unicode="&#xf8;" horiz-adv-x="1155" 
d="M1004 829q106 -115 106 -309q0 -154 -68.5 -278.5t-199.5 -198.5t-301 -74q-211 0 -340 103l-113 -109l-57 62l110 104q-96 116 -96 297q0 154 69 278.5t200 198.5t302 74q191 0 322 -90l102 96l58 -63zM352 444q0 -47 21 -94l336 318q-49 24 -109 24q-116 0 -182 -74.5
t-66 -173.5zM557 254q77 0 134.5 37.5t84.5 92.5t27 118q0 60 -31 110l-342 -325q50 -33 127 -33z" />
    <glyph glyph-name="ugrave" unicode="&#xf9;" horiz-adv-x="1144" 
d="M543 1448l174 -315h-221l-271 315h318zM371 -31q-66 0 -121.5 17.5t-99 53t-68.5 95.5t-25 139q0 56 17 146l106 526h316l-93 -477q-10 -58 -10 -90q0 -73 36 -106t93 -33q80 0 137.5 61.5t81.5 187.5l88 457h312l-185 -946h-301l29 154h-4q-63 -96 -135 -140.5
t-174 -44.5z" />
    <glyph glyph-name="uacute" unicode="&#xfa;" horiz-adv-x="1144" 
d="M535 1133l299 315h329l-387 -315h-241zM371 -31q-66 0 -121.5 17.5t-99 53t-68.5 95.5t-25 139q0 56 17 146l106 526h316l-93 -477q-10 -58 -10 -90q0 -73 36 -106t93 -33q80 0 137.5 61.5t81.5 187.5l88 457h312l-185 -946h-301l29 154h-4q-63 -96 -135 -140.5
t-174 -44.5z" />
    <glyph glyph-name="ucircumflex" unicode="&#xfb;" horiz-adv-x="1144" 
d="M270 1133l312 315h288l189 -315h-240l-106 176l-170 -176h-273zM371 -31q-66 0 -121.5 17.5t-99 53t-68.5 95.5t-25 139q0 56 17 146l106 526h316l-93 -477q-10 -58 -10 -90q0 -73 36 -106t93 -33q80 0 137.5 61.5t81.5 187.5l88 457h312l-185 -946h-301l29 154h-4
q-63 -96 -135 -140.5t-174 -44.5z" />
    <glyph glyph-name="udieresis" unicode="&#xfc;" horiz-adv-x="1144" 
d="M350 1137l56 276h253l-55 -276h-254zM735 1137l56 276h253l-55 -276h-254zM371 -31q-66 0 -121.5 17.5t-99 53t-68.5 95.5t-25 139q0 56 17 146l106 526h316l-93 -477q-10 -58 -10 -90q0 -73 36 -106t93 -33q80 0 137.5 61.5t81.5 187.5l88 457h312l-185 -946h-301
l29 154h-4q-63 -96 -135 -140.5t-174 -44.5z" />
    <glyph glyph-name="yacute" unicode="&#xfd;" horiz-adv-x="1124" 
d="M1180 1448l-387 -315h-242l299 315h330zM870 946h336l-858 -1356h-334l340 521l-252 835h330l121 -518z" />
    <glyph glyph-name="thorn" unicode="&#xfe;" 
d="M799 977q58 0 111.5 -15t104 -49t87.5 -84t59.5 -126.5t22.5 -170.5q0 -243 -139.5 -403t-370.5 -160q-120 0 -201.5 51.5t-122.5 143.5h-4l-113 -574h-309l266 1356l95 488h309l-94 -488l-25 -125h4q54 70 137 113t183 43zM621 252q108 0 172.5 71.5t64.5 172.5
q0 95 -59.5 146.5t-149.5 51.5q-108 0 -172.5 -71t-64.5 -172q0 -95 59.5 -147t149.5 -52z" />
    <glyph glyph-name="ydieresis" unicode="&#xff;" horiz-adv-x="1124" 
d="M678 1413l-55 -276h-254l55 276h254zM1063 1413l-55 -276h-254l55 276h254zM870 946h336l-858 -1356h-334l340 521l-252 835h330l121 -518z" />
    <glyph glyph-name="Amacron" unicode="&#x100;" horiz-adv-x="1466" 
d="M1305 1729l-39 -195h-664l39 195h664zM1034 0l-45 291h-553l-157 -291h-371l844 1434h335l287 -1434h-340zM584 563h362l-82 516z" />
    <glyph glyph-name="amacron" unicode="&#x101;" horiz-adv-x="1216" 
d="M1106 1378l-39 -202h-666l41 202h664zM444 -31q-184 0 -291.5 119.5t-107.5 325.5q0 249 140.5 406t361.5 157q117 0 203 -50.5t129 -144.5h6l30 164h308l-185 -946h-307l25 127h-4q-57 -75 -138 -116.5t-170 -41.5zM582 252q103 0 170 69t67 173q0 90 -58.5 145
t-154.5 55q-101 0 -168 -68.5t-67 -174.5q0 -89 58 -144t153 -55z" />
    <glyph glyph-name="Abreve" unicode="&#x102;" horiz-adv-x="1466" 
d="M922 1505q-134 0 -209.5 63.5t-75.5 174.5v26h201v-8q0 -36 28.5 -59t79.5 -23q55 0 91 25t50 65h222q-38 -124 -140.5 -194t-246.5 -70zM1034 0l-45 291h-553l-157 -291h-371l844 1434h335l287 -1434h-340zM584 563h362l-82 516z" />
    <glyph glyph-name="abreve" unicode="&#x103;" horiz-adv-x="1216" 
d="M1112 1434q-27 -149 -130 -240.5t-259 -91.5q-135 0 -213 68.5t-78 185.5q0 31 8 78h183q-2 -12 -2 -35q0 -111 118 -111q42 0 73 12.5t49.5 36.5t28 45.5t17.5 51.5h205zM444 -31q-184 0 -291.5 119.5t-107.5 325.5q0 249 140.5 406t361.5 157q117 0 203 -50.5
t129 -144.5h6l30 164h308l-185 -946h-307l25 127h-4q-57 -75 -138 -116.5t-170 -41.5zM582 252q103 0 170 69t67 173q0 90 -58.5 145t-154.5 55q-101 0 -168 -68.5t-67 -174.5q0 -89 58 -144t153 -55z" />
    <glyph glyph-name="Aogonek" unicode="&#x104;" horiz-adv-x="1466" 
d="M1010 -199q0 -18 13.5 -28.5t35.5 -10.5q11 0 78 13v-189q-98 -20 -156 -20q-92 0 -146.5 40t-54.5 115q0 152 250 306l-41 264h-553l-157 -291h-371l844 1434h335l287 -1434h-180q-94 -76 -139 -123t-45 -76zM584 563h362l-82 516z" />
    <glyph glyph-name="aogonek" unicode="&#x105;" horiz-adv-x="1216" 
d="M897 0q-94 -76 -139 -123t-45 -76q0 -18 13.5 -28.5t35.5 -10.5q11 0 78 13v-189q-98 -20 -156 -20q-92 0 -146.5 40t-54.5 115q0 151 252 306l21 100h-4q-57 -75 -138 -116.5t-170 -41.5q-184 0 -291.5 119.5t-107.5 325.5q0 249 140.5 406t361.5 157q117 0 203 -50.5
t129 -144.5h6l30 164h308l-185 -946h-141zM582 252q103 0 170 69t67 173q0 90 -58.5 145t-154.5 55q-101 0 -168 -68.5t-67 -174.5q0 -89 58 -144t153 -55z" />
    <glyph glyph-name="Cacute" unicode="&#x106;" horiz-adv-x="1413" 
d="M836 1522l282 245h338l-397 -245h-223zM815 -31q-322 0 -519.5 192.5t-197.5 506.5q0 172 62.5 320t174 252.5t271 164t346.5 59.5q318 0 545 -151l-192 -281q-159 111 -357 111q-226 0 -364 -129.5t-138 -339.5q0 -173 105 -280t274 -107q168 0 361 102l133 -280
q-247 -140 -504 -140z" />
    <glyph glyph-name="cacute" unicode="&#x107;" horiz-adv-x="960" 
d="M485 1133l299 315h330l-387 -315h-242zM549 -31q-103 0 -192.5 31t-158 89.5t-108 151t-39.5 208.5q0 111 36 205.5t106 167t181 114t251 41.5q210 0 385 -111l-154 -254q-127 84 -240 84q-119 0 -183 -66t-64 -165q0 -96 59.5 -154.5t153.5 -58.5q89 0 186 51l98 -260
q-147 -74 -317 -74z" />
    <glyph glyph-name="Ccircumflex" unicode="&#x108;" horiz-adv-x="1413" 
d="M545 1522l295 245h297l196 -245h-237l-115 127l-162 -127h-274zM815 -31q-322 0 -519.5 192.5t-197.5 506.5q0 172 62.5 320t174 252.5t271 164t346.5 59.5q318 0 545 -151l-192 -281q-159 111 -357 111q-226 0 -364 -129.5t-138 -339.5q0 -173 105 -280t274 -107
q168 0 361 102l133 -280q-247 -140 -504 -140z" />
    <glyph glyph-name="ccircumflex" unicode="&#x109;" horiz-adv-x="960" 
d="M219 1133l311 315h289l189 -315h-240l-106 176l-170 -176h-273zM549 -31q-103 0 -192.5 31t-158 89.5t-108 151t-39.5 208.5q0 111 36 205.5t106 167t181 114t251 41.5q210 0 385 -111l-154 -254q-127 84 -240 84q-119 0 -183 -66t-64 -165q0 -96 59.5 -154.5
t153.5 -58.5q89 0 186 51l98 -260q-147 -74 -317 -74z" />
    <glyph glyph-name="Cdotaccent" unicode="&#x10a;" horiz-adv-x="1413" 
d="M1159 1784l-51 -262h-291l51 262h291zM815 -31q-322 0 -519.5 192.5t-197.5 506.5q0 172 62.5 320t174 252.5t271 164t346.5 59.5q318 0 545 -151l-192 -281q-159 111 -357 111q-226 0 -364 -129.5t-138 -339.5q0 -173 105 -280t274 -107q168 0 361 102l133 -280
q-247 -140 -504 -140z" />
    <glyph glyph-name="cdotaccent" unicode="&#x10b;" horiz-adv-x="960" 
d="M854 1432l-61 -312h-332l61 312h332zM549 -31q-103 0 -192.5 31t-158 89.5t-108 151t-39.5 208.5q0 111 36 205.5t106 167t181 114t251 41.5q210 0 385 -111l-154 -254q-127 84 -240 84q-119 0 -183 -66t-64 -165q0 -96 59.5 -154.5t153.5 -58.5q89 0 186 51l98 -260
q-147 -74 -317 -74z" />
    <glyph glyph-name="Ccaron" unicode="&#x10c;" horiz-adv-x="1413" 
d="M1079 1522l-295 22l-163 223l237 -14l115 -104l170 118l221 -22zM815 -31q-322 0 -519.5 192.5t-197.5 506.5q0 172 62.5 320t174 252.5t271 164t346.5 59.5q318 0 545 -151l-192 -281q-159 111 -357 111q-226 0 -364 -129.5t-138 -339.5q0 -173 105 -280t274 -107
q168 0 361 102l133 -280q-247 -140 -504 -140z" />
    <glyph glyph-name="ccaron" unicode="&#x10d;" horiz-adv-x="960" 
d="M475 1118l-188 316h237l105 -185l172 185h274l-311 -316h-289zM549 -31q-103 0 -192.5 31t-158 89.5t-108 151t-39.5 208.5q0 111 36 205.5t106 167t181 114t251 41.5q210 0 385 -111l-154 -254q-127 84 -240 84q-119 0 -183 -66t-64 -165q0 -96 59.5 -154.5t153.5 -58.5
q89 0 186 51l98 -260q-147 -74 -317 -74z" />
    <glyph glyph-name="Dcaron" unicode="&#x10e;" horiz-adv-x="1417" 
d="M854 1522l-295 22l-164 223l238 -14l115 -104l170 118l221 -22zM33 0l278 1434h437q301 0 486 -176.5t185 -466.5q0 -232 -109.5 -412t-309 -279.5t-457.5 -99.5h-510zM406 289h147q235 0 381.5 136t146.5 355q0 172 -96 268.5t-266 96.5h-146z" />
    <glyph glyph-name="dcaron" unicode="&#x10f;" horiz-adv-x="1521" 
d="M1436 1464h284l-53 -286l-231 -168h-113l152 168h-95zM885 782l125 652h309l-281 -1434h-307l25 127h-4q-57 -75 -138 -116.5t-170 -41.5q-184 0 -291.5 119.5t-107.5 325.5q0 249 140.5 406t361.5 157q117 0 203 -50.5t129 -144.5h6zM582 252q103 0 170 69t67 173
q0 90 -58.5 145t-154.5 55q-101 0 -168 -68.5t-67 -174.5q0 -89 58 -144t153 -55z" />
    <glyph glyph-name="Dcroat" unicode="&#x110;" horiz-adv-x="1423" 
d="M754 1434q301 0 486 -176.5t185 -466.5q0 -232 -109.5 -412t-309 -279.5t-457.5 -99.5h-510l123 635h-90l41 209h90l114 590h437zM559 289q236 0 382 135t146 356q0 172 -96 268.5t-266 96.5h-145l-60 -301h201l-39 -209h-203l-67 -346h147z" />
    <glyph glyph-name="dcroat" unicode="&#x111;" horiz-adv-x="1230" 
d="M1427 1296l-32 -178h-138l-219 -1118h-307l25 127h-4q-57 -75 -138 -116.5t-170 -41.5q-184 0 -291.5 119.5t-107.5 325.5q0 249 140.5 406t361.5 157q117 0 203 -50.5t129 -144.5h6l63 336h-289l33 178h291l27 138h309l-27 -138h135zM582 252q103 0 170 69t67 173
q0 90 -58.5 145t-154.5 55q-101 0 -168 -68.5t-67 -174.5q0 -89 58 -144t153 -55z" />
    <glyph glyph-name="Emacron" unicode="&#x112;" horiz-adv-x="1085" 
d="M1178 1729l-39 -195h-664l39 195h664zM1141 1145h-568l-45 -234h512l-55 -288h-514l-65 -334h579l-55 -289h-897l278 1434h887z" />
    <glyph glyph-name="emacron" unicode="&#x113;" horiz-adv-x="1075" 
d="M1077 1378l-39 -202h-665l41 202h663zM606 975q204 0 325.5 -100.5t121.5 -280.5q0 -88 -29 -195h-678q21 -170 211 -170q148 0 291 84l96 -241q-201 -103 -407 -103q-223 0 -357.5 122.5t-134.5 332.5q0 81 20 158t64.5 149t108.5 125.5t159 86t209 32.5zM748 582
q2 12 2 36q0 64 -43 101t-115 37q-82 0 -142 -46.5t-88 -127.5h386z" />
    <glyph glyph-name="Ebreve" unicode="&#x114;" horiz-adv-x="1085" 
d="M795 1505q-134 0 -209.5 63.5t-75.5 174.5v26h201v-8q0 -36 28.5 -59t79.5 -23q55 0 91.5 25t50.5 65h221q-38 -124 -140.5 -194t-246.5 -70zM1141 1145h-568l-45 -234h512l-55 -288h-514l-65 -334h579l-55 -289h-897l278 1434h887z" />
    <glyph glyph-name="ebreve" unicode="&#x115;" horiz-adv-x="1075" 
d="M696 1102q-135 0 -212.5 68.5t-77.5 185.5q0 31 8 78h182q-2 -12 -2 -35q0 -111 119 -111q42 0 73 12.5t49.5 36.5t28 45.5t17.5 51.5h204q-27 -149 -130 -240.5t-259 -91.5zM606 975q204 0 325.5 -100.5t121.5 -280.5q0 -88 -29 -195h-678q21 -170 211 -170
q148 0 291 84l96 -241q-201 -103 -407 -103q-223 0 -357.5 122.5t-134.5 332.5q0 81 20 158t64.5 149t108.5 125.5t159 86t209 32.5zM748 582q2 12 2 36q0 64 -43 101t-115 37q-82 0 -142 -46.5t-88 -127.5h386z" />
    <glyph glyph-name="Edotaccent" unicode="&#x116;" horiz-adv-x="1085" 
d="M1004 1784l-52 -262h-290l51 262h291zM1141 1145h-568l-45 -234h512l-55 -288h-514l-65 -334h579l-55 -289h-897l278 1434h887z" />
    <glyph glyph-name="edotaccent" unicode="&#x117;" horiz-adv-x="1075" 
d="M926 1432l-62 -312h-332l62 312h332zM1053 594q0 -88 -29 -195h-678q21 -170 211 -170q148 0 291 84l96 -241q-201 -103 -407 -103q-223 0 -357.5 122.5t-134.5 332.5q0 81 20 158t64.5 149t108.5 125.5t159 86t209 32.5q204 0 325.5 -100.5t121.5 -280.5zM748 582
q2 12 2 36q0 64 -43 101t-115 37q-82 0 -142 -46.5t-88 -127.5h386z" />
    <glyph glyph-name="Eogonek" unicode="&#x118;" horiz-adv-x="1085" 
d="M1141 1145h-568l-45 -234h512l-55 -288h-514l-65 -334h579l-55 -289h-33q-94 -76 -139 -123t-45 -76q0 -18 13.5 -28.5t35.5 -10.5q11 0 78 13v-189q-98 -20 -156 -20q-92 0 -146.5 40t-54.5 115q0 139 209 279h-659l278 1434h887z" />
    <glyph glyph-name="eogonek" unicode="&#x119;" horiz-adv-x="1075" 
d="M1053 594q0 -88 -29 -195h-678q21 -170 211 -170q148 0 291 84l96 -241q-76 -39 -141 -60q-201 -158 -201 -211q0 -18 13.5 -28.5t35.5 -10.5q11 0 78 13v-189q-98 -20 -156 -20q-92 0 -146 40t-54 115q0 125 166 248h-2q-223 0 -357.5 122.5t-134.5 332.5q0 81 20 158
t64.5 149t108.5 125.5t159 86t209 32.5q204 0 325.5 -100.5t121.5 -280.5zM748 582q2 12 2 36q0 64 -43 101t-115 37q-82 0 -142 -46.5t-88 -127.5h386z" />
    <glyph glyph-name="Ecaron" unicode="&#x11a;" horiz-adv-x="1085" 
d="M924 1522l-295 22l-164 223l237 -14l115 -104l170 118l221 -22zM33 0l278 1434h887l-57 -289h-568l-45 -234h512l-55 -288h-514l-65 -334h579l-55 -289h-897z" />
    <glyph glyph-name="ecaron" unicode="&#x11b;" horiz-adv-x="1075" 
d="M836 1118h-289l-189 316h238l104 -185l172 185h275zM606 975q204 0 325.5 -100.5t121.5 -280.5q0 -88 -29 -195h-678q21 -170 211 -170q148 0 291 84l96 -241q-201 -103 -407 -103q-223 0 -357.5 122.5t-134.5 332.5q0 81 20 158t64.5 149t108.5 125.5t159 86t209 32.5z
M748 582q2 12 2 36q0 64 -43 101t-115 37q-82 0 -142 -46.5t-88 -127.5h386z" />
    <glyph glyph-name="Gcircumflex" unicode="&#x11c;" horiz-adv-x="1568" 
d="M993 1649l-162 -127h-274l295 245h297l197 -245h-238zM879 829h716l-18 -129q-50 -353 -240 -542t-506 -189q-333 0 -534 187t-201 499q0 177 63 327.5t175 256.5t271.5 165.5t346.5 59.5q364 0 588 -190l-207 -266q-178 139 -387 139q-221 0 -361.5 -139t-140.5 -353
q0 -173 106 -270.5t292 -97.5q146 0 239 68t121 190h-385z" />
    <glyph glyph-name="gcircumflex" unicode="&#x11d;" horiz-adv-x="1216" 
d="M295 1133l311 315h289l188 -315h-239l-107 176l-170 -176h-272zM915 946h308l-172 -893q-54 -271 -184.5 -382t-387.5 -111q-225 0 -432 69l98 271q173 -66 326 -66q121 0 183 45.5t81 147.5l21 100h-4q-57 -75 -138 -116.5t-170 -41.5q-184 0 -291.5 119.5t-107.5 325.5
q0 249 140.5 406t361.5 157q117 0 203 -50.5t129 -144.5h6zM582 252q103 0 170 69t67 173q0 90 -58.5 145t-154.5 55q-101 0 -168 -68.5t-67 -174.5q0 -89 58 -144t153 -55z" />
    <glyph glyph-name="Gbreve" unicode="&#x11e;" horiz-adv-x="1568" 
d="M963 1505q-134 0 -209.5 63.5t-75.5 174.5v26h201v-8q0 -36 28.5 -59t79.5 -23q55 0 91 25t50 65h222q-38 -124 -140.5 -194t-246.5 -70zM879 829h716l-18 -129q-50 -353 -240 -542t-506 -189q-333 0 -534 187t-201 499q0 177 63 327.5t175 256.5t271.5 165.5t346.5 59.5
q364 0 588 -190l-207 -266q-178 139 -387 139q-221 0 -361.5 -139t-140.5 -353q0 -173 106 -270.5t292 -97.5q146 0 239 68t121 190h-385z" />
    <glyph glyph-name="gbreve" unicode="&#x11f;" horiz-adv-x="1216" 
d="M1090 1434q-27 -149 -130.5 -240.5t-259.5 -91.5q-135 0 -212.5 68.5t-77.5 185.5q0 31 8 78h182q-2 -12 -2 -35q0 -111 119 -111q42 0 73 12.5t49.5 36.5t28 45.5t17.5 51.5h205zM915 946h308l-172 -893q-54 -271 -184.5 -382t-387.5 -111q-225 0 -432 69l98 271
q173 -66 326 -66q121 0 183 45.5t81 147.5l21 100h-4q-57 -75 -138 -116.5t-170 -41.5q-184 0 -291.5 119.5t-107.5 325.5q0 249 140.5 406t361.5 157q117 0 203 -50.5t129 -144.5h6zM582 252q103 0 170 69t67 173q0 90 -58.5 145t-154.5 55q-101 0 -168 -68.5t-67 -174.5
q0 -89 58 -144t153 -55z" />
    <glyph glyph-name="Gdotaccent" unicode="&#x120;" horiz-adv-x="1568" 
d="M1171 1784l-51 -262h-291l52 262h290zM879 829h716l-18 -129q-50 -353 -240 -542t-506 -189q-333 0 -534 187t-201 499q0 177 63 327.5t175 256.5t271.5 165.5t346.5 59.5q364 0 588 -190l-207 -266q-178 139 -387 139q-221 0 -361.5 -139t-140.5 -353q0 -173 106 -270.5
t292 -97.5q146 0 239 68t121 190h-385z" />
    <glyph glyph-name="gdotaccent" unicode="&#x121;" horiz-adv-x="1216" 
d="M930 1432l-62 -312h-331l61 312h332zM915 946h308l-172 -893q-54 -271 -184.5 -382t-387.5 -111q-225 0 -432 69l98 271q173 -66 326 -66q121 0 183 45.5t81 147.5l21 100h-4q-57 -75 -138 -116.5t-170 -41.5q-184 0 -291.5 119.5t-107.5 325.5q0 249 140.5 406
t361.5 157q117 0 203 -50.5t129 -144.5h6zM582 252q103 0 170 69t67 173q0 90 -58.5 145t-154.5 55q-101 0 -168 -68.5t-67 -174.5q0 -89 58 -144t153 -55z" />
    <glyph glyph-name="Gcommaaccent" unicode="&#x122;" horiz-adv-x="1568" 
d="M879 829h716l-18 -129q-50 -353 -240 -542t-506 -189q-333 0 -534 187t-201 499q0 177 63 327.5t175 256.5t271.5 165.5t346.5 59.5q364 0 588 -190l-207 -266q-178 139 -387 139q-221 0 -361.5 -139t-140.5 -353q0 -173 106 -270.5t292 -97.5q146 0 239 68t121 190h-385
zM643 -303l41 207h279l-39 -207l-179 -127h-104l109 127h-107z" />
    <glyph glyph-name="gcommaaccent" unicode="&#x123;" horiz-adv-x="1216" 
d="M877 1313l-41 -207h-279l39 207l178 127h105l-109 -127h107zM915 946h308l-172 -893q-54 -271 -184.5 -382t-387.5 -111q-225 0 -432 69l98 271q173 -66 326 -66q121 0 183 45.5t81 147.5l21 100h-4q-57 -75 -138 -116.5t-170 -41.5q-184 0 -291.5 119.5t-107.5 325.5
q0 249 140.5 406t361.5 157q117 0 203 -50.5t129 -144.5h6zM582 252q103 0 170 69t67 173q0 90 -58.5 145t-154.5 55q-101 0 -168 -68.5t-67 -174.5q0 -89 58 -144t153 -55z" />
    <glyph glyph-name="Hcircumflex" unicode="&#x124;" horiz-adv-x="1478" 
d="M961 1649l-162 -127h-275l295 245h297l197 -245h-238zM1223 1434h317l-278 -1434h-318l119 602h-596l-117 -602h-317l278 1434h318l-105 -533h596z" />
    <glyph glyph-name="hcircumflex" unicode="&#x125;" horiz-adv-x="1155" 
d="M33 1522l295 245h297l196 -245h-237l-115 127l-162 -127h-274zM4 0l279 1434h309l-121 -613h4q128 156 320 156q62 0 114 -16.5t95 -51t67.5 -95.5t24.5 -144q0 -67 -19 -164l-100 -506h-309l92 457q10 46 10 98q0 152 -145 152q-176 0 -222 -234l-90 -473h-309z" />
    <glyph glyph-name="Hbar" unicode="&#x126;" horiz-adv-x="1517" 
d="M1673 1276l-45 -236h-149l-203 -1040h-318l117 602h-594l-116 -602h-318l203 1040h-139l45 236h139l31 158h317l-31 -158h594l31 158h317l-30 -158h149zM1133 901l28 139h-594l-28 -139h594z" />
    <glyph glyph-name="hbar" unicode="&#x127;" horiz-adv-x="1157" 
d="M797 977q62 0 114 -16.5t95 -51t67.5 -95.5t24.5 -144q0 -67 -19 -164l-100 -506h-309l92 457q10 62 10 98q0 152 -145 152q-175 0 -221 -234l-91 -473h-309l217 1118h-135l35 178h135l27 138h309l-27 -138h291l-35 -178h-291l-59 -297h4q128 156 320 156z" />
    <glyph glyph-name="Itilde" unicode="&#x128;" horiz-adv-x="567" 
d="M674 1491q-64 0 -179 47t-165 47q-38 0 -67.5 -18.5t-63.5 -59.5l-90 31q53 113 120 179.5t160 66.5q64 0 179 -47t165 -47q39 0 68 18.5t63 60.5l90 -32q-53 -114 -119.5 -180t-160.5 -66zM33 0l278 1434h318l-279 -1434h-317z" />
    <glyph glyph-name="itilde" unicode="&#x129;" horiz-adv-x="499" 
d="M317 1448q45 0 92 -23.5t87 -47t67 -23.5q53 0 99 94l102 -39q-48 -129 -107.5 -200.5t-144.5 -71.5q-45 0 -92 23.5t-86.5 47t-65.5 23.5q-31 0 -53.5 -24t-46.5 -70l-100 39q50 130 108 201t141 71zM4 0l184 946h310l-185 -946h-309z" />
    <glyph glyph-name="Imacron" unicode="&#x12a;" horiz-adv-x="567" 
d="M856 1729l-39 -195h-663l39 195h663zM33 0l278 1434h318l-279 -1434h-317z" />
    <glyph glyph-name="imacron" unicode="&#x12b;" horiz-adv-x="499" 
d="M674 1378l-39 -202h-502l41 202h500zM4 0l184 946h310l-185 -946h-309z" />
    <glyph glyph-name="Ibreve" unicode="&#x12c;" horiz-adv-x="567" 
d="M471 1505q-134 0 -209.5 63.5t-75.5 174.5v26h201v-8q0 -36 29 -59t80 -23q55 0 91 25t50 65h221q-38 -124 -140.5 -194t-246.5 -70zM33 0l278 1434h318l-279 -1434h-317z" />
    <glyph glyph-name="ibreve" unicode="&#x12d;" horiz-adv-x="499" 
d="M713 1434q-25 -154 -106.5 -243t-225.5 -89q-117 0 -181.5 64t-64.5 184q0 40 6 84h183q-5 -50 -5 -54q0 -92 70 -92q31 0 53 12.5t34.5 37t18 44.5t11.5 52h207zM4 0l184 946h310l-185 -946h-309z" />
    <glyph glyph-name="Iogonek" unicode="&#x12e;" horiz-adv-x="567" 
d="M274 0q-94 -76 -139 -123t-45 -76q0 -18 13.5 -28.5t35.5 -10.5q11 0 78 13v-189q-98 -20 -156 -20q-92 0 -146 40t-54 115q0 139 209 279h-37l278 1434h318l-279 -1434h-76z" />
    <glyph glyph-name="iogonek" unicode="&#x12f;" horiz-adv-x="499" 
d="M270 1432h332l-61 -312h-332zM12 45l176 901h310l-185 -946h-170q-94 -76 -139 -123t-45 -76q0 -18 13.5 -28.5t35.5 -10.5q11 0 78 13v-189q-98 -20 -156 -20q-92 0 -146 40t-54 115q0 83 70 162t212 162z" />
    <glyph glyph-name="Idotaccent" unicode="&#x130;" horiz-adv-x="567" 
d="M682 1784l-51 -262h-291l51 262h291zM33 0l278 1434h318l-279 -1434h-317z" />
    <glyph glyph-name="dotlessi" unicode="&#x131;" horiz-adv-x="499" 
d="M4 0l184 946h310l-185 -946h-309z" />
    <glyph glyph-name="IJ" unicode="&#x132;" horiz-adv-x="1204" 
d="M33 0l278 1434h318l-279 -1434h-317zM516 -6l57 297h68q86 0 107 100l202 1043h316l-207 -1076q-36 -189 -143 -276.5t-295 -87.5h-105z" />
    <glyph glyph-name="ij" unicode="&#x133;" horiz-adv-x="1001" 
d="M602 1432l-61 -312h-332l61 312h332zM1104 1432l-62 -312h-331l61 312h332zM4 0l184 946h310l-185 -946h-309zM309 -129h56q113 0 137 119l186 956h311l-196 -1009q-70 -353 -453 -353h-96z" />
    <glyph glyph-name="Jcircumflex" unicode="&#x134;" horiz-adv-x="636" 
d="M139 1522l295 245h297l197 -245h-238l-115 127l-161 -127h-275zM-51 -6l57 297h68q85 0 106 100l203 1043h315l-206 -1076q-36 -189 -143.5 -276.5t-295.5 -87.5h-104z" />
    <glyph glyph-name="jcircumflex" unicode="&#x135;" horiz-adv-x="501" 
d="M49 1133l236 315h288l115 -315h-229l-35 206l-117 -206h-258zM-190 -129h55q113 0 137 119l186 956h312l-197 -1009q-70 -353 -453 -353h-96z" />
    <glyph glyph-name="Kcommaaccent" unicode="&#x136;" horiz-adv-x="1460" 
d="M1563 1434l-748 -709l553 -725h-420l-465 688l-133 -688h-317l278 1434h318l-123 -633l614 633h443zM469 -303l41 207h278l-38 -207l-179 -127h-104l108 127h-106z" />
    <glyph glyph-name="kcommaaccent" unicode="&#x137;" horiz-adv-x="1122" 
d="M1180 946l-480 -454l320 -492h-383l-240 434l-84 -434h-309l279 1434h309l-168 -861l348 373h408zM293 -303l41 207h278l-39 -207l-178 -127h-104l108 127h-106z" />
    <glyph glyph-name="kgreenlandic" unicode="&#x138;" horiz-adv-x="1120" 
d="M1178 946l-478 -454l318 -492h-381l-240 434l-86 -434h-309l184 946h310l-72 -373l348 373h406z" />
    <glyph glyph-name="Lacute" unicode="&#x139;" horiz-adv-x="1015" 
d="M358 1522l283 245h338l-397 -245h-224zM33 0l278 1434h318l-221 -1137h571l-57 -297h-889z" />
    <glyph glyph-name="lacute" unicode="&#x13a;" horiz-adv-x="499" 
d="M326 1522l282 245h338l-397 -245h-223zM4 0l279 1434h309l-279 -1434h-309z" />
    <glyph glyph-name="Lcommaaccent" unicode="&#x13b;" horiz-adv-x="1015" 
d="M408 297h571l-57 -297h-889l278 1434h318zM295 -303l41 207h278l-39 -207l-178 -127h-104l108 127h-106z" />
    <glyph glyph-name="lcommaaccent" unicode="&#x13c;" horiz-adv-x="499" 
d="M283 1434h309l-279 -1434h-309zM-25 -303l41 207h279l-39 -207l-178 -127h-105l109 127h-107z" />
    <glyph glyph-name="Lcaron" unicode="&#x13d;" horiz-adv-x="1015" 
d="M838 1464h284l-53 -286l-272 -320h-111l199 320h-103zM629 1434l-221 -1137h571l-57 -297h-889l278 1434h318z" />
    <glyph glyph-name="lcaron" unicode="&#x13e;" horiz-adv-x="800" 
d="M694 1464h287l-55 -286l-232 -168h-110l149 168h-92zM283 1434h309l-279 -1434h-309z" />
    <glyph glyph-name="Ldot" unicode="&#x13f;" horiz-adv-x="1015" 
d="M33 0l278 1434h318l-221 -1137h571l-57 -297h-889zM676 616l65 330h328l-65 -330h-328z" />
    <glyph glyph-name="ldot" unicode="&#x140;" horiz-adv-x="837" 
d="M4 0l279 1434h309l-279 -1434h-309zM518 614l66 330h327l-65 -330h-328z" />
    <glyph glyph-name="Lslash" unicode="&#x141;" horiz-adv-x="1015" 
d="M408 297h571l-57 -297h-889l106 543l-133 -51l37 206l135 54l133 682h318l-107 -547l404 157l-35 -206l-410 -160z" />
    <glyph glyph-name="lslash" unicode="&#x142;" horiz-adv-x="643" 
d="M729 1038l-35 -207l-164 -75l-147 -756h-309l114 596l-155 -74l37 207l159 74l123 631h310l-93 -469z" />
    <glyph glyph-name="Nacute" unicode="&#x143;" horiz-adv-x="1521" 
d="M813 1522l283 245h338l-398 -245h-223zM33 0l278 1434h269l512 -908h2l172 908h317l-278 -1434h-271l-510 903h-2l-172 -903h-317z" />
    <glyph glyph-name="nacute" unicode="&#x144;" horiz-adv-x="1155" 
d="M582 1133l299 315h329l-387 -315h-241zM2 0l184 946h303l-28 -143h4q132 174 326 174q140 0 220.5 -78t80.5 -229q0 -85 -19 -185l-98 -485h-307l88 463q14 65 14 108q0 148 -149 148q-83 0 -138 -55.5t-80 -188.5l-92 -475h-309z" />
    <glyph glyph-name="Ncommaaccent" unicode="&#x145;" horiz-adv-x="1521" 
d="M1266 1434h317l-278 -1434h-271l-510 903h-2l-172 -903h-317l278 1434h269l512 -908h2zM510 -303l41 207h278l-38 -207l-179 -127h-104l108 127h-106z" />
    <glyph glyph-name="ncommaaccent" unicode="&#x146;" horiz-adv-x="1155" 
d="M791 977q140 0 220.5 -78t80.5 -229q0 -85 -19 -185l-98 -485h-307l88 463q14 65 14 108q0 148 -149 148q-83 0 -138 -55.5t-80 -188.5l-92 -475h-309l184 946h303l-28 -143h4q132 174 326 174zM307 -303l41 207h279l-39 -207l-178 -127h-105l109 127h-107z" />
    <glyph glyph-name="Ncaron" unicode="&#x147;" horiz-adv-x="1521" 
d="M1055 1522l-295 22l-164 223l238 -14l114 -104l170 118l221 -22zM33 0l278 1434h269l512 -908h2l172 908h317l-278 -1434h-271l-510 903h-2l-172 -903h-317z" />
    <glyph glyph-name="ncaron" unicode="&#x148;" horiz-adv-x="1155" 
d="M571 1118l-188 316h238l104 -185l172 185h274l-311 -316h-289zM2 0l184 946h303l-28 -143h4q132 174 326 174q140 0 220.5 -78t80.5 -229q0 -85 -19 -185l-98 -485h-307l88 463q14 65 14 108q0 148 -149 148q-83 0 -138 -55.5t-80 -188.5l-92 -475h-309z" />
    <glyph glyph-name="napostrophe" unicode="&#x149;" horiz-adv-x="1155" 
d="M39 858h-111l199 320h-102l55 286h285l-54 -286zM791 977q140 0 220.5 -78t80.5 -229q0 -85 -19 -185l-98 -485h-307l88 463q14 65 14 108q0 148 -149 148q-83 0 -138 -55.5t-80 -188.5l-92 -475h-309l184 946h303l-28 -143h4q132 174 326 174z" />
    <glyph glyph-name="Eng" unicode="&#x14a;" horiz-adv-x="1521" 
d="M1266 1434h317l-278 -1434l-11 -45q-40 -193 -150 -279t-288 -86h-160l58 297h102q55 0 86 19.5t43 83.5l14 73l-475 840h-2l-172 -903h-317l278 1434h269l512 -908h2z" />
    <glyph glyph-name="eng" unicode="&#x14b;" horiz-adv-x="1155" 
d="M1092 670q0 -85 -19 -185l-98 -485h2l-19 -86q-66 -324 -411 -324h-137l53 275h80q50 0 78.5 19.5t40.5 84.5l6 31l88 463q14 65 14 108q0 148 -149 148q-83 0 -138 -55.5t-80 -188.5l-92 -475h-309l184 946h303l-28 -143h4q132 174 326 174q140 0 220.5 -78t80.5 -229z
" />
    <glyph glyph-name="Omacron" unicode="&#x14c;" horiz-adv-x="1636" 
d="M1323 1729l-39 -195h-663l38 195h664zM807 -31q-210 0 -371.5 82.5t-251.5 237.5t-90 360q0 168 61 317.5t169 259.5t264.5 174t337.5 64q210 0 370.5 -82.5t250 -237.5t89.5 -360q0 -168 -60.5 -317.5t-168 -259.5t-263.5 -174t-337 -64zM825 287q114 0 206.5 42
t150 111.5t88 155t30.5 178.5q0 180 -109.5 276.5t-283.5 96.5q-114 0 -207 -42t-150.5 -111.5t-88.5 -155.5t-31 -179q0 -179 110 -275.5t285 -96.5z" />
    <glyph glyph-name="omacron" unicode="&#x14d;" horiz-adv-x="1155" 
d="M1059 1378l-39 -202h-666l41 202h664zM541 -31q-106 0 -195.5 28.5t-157 83.5t-105.5 143.5t-38 201.5q0 154 69 278.5t200 198.5t302 74q141 0 250.5 -48.5t176.5 -153.5t67 -255q0 -154 -68.5 -278.5t-199.5 -198.5t-301 -74zM557 254q77 0 134.5 37.5t84.5 92.5
t27 118q0 95 -58.5 142.5t-144.5 47.5q-116 0 -182 -74.5t-66 -173.5q0 -95 59 -142.5t146 -47.5z" />
    <glyph glyph-name="Obreve" unicode="&#x14e;" horiz-adv-x="1636" 
d="M938 1505q-134 0 -209.5 63.5t-75.5 174.5v26h201v-8q0 -36 29 -59t80 -23q55 0 91 25t50 65h221q-38 -124 -140.5 -194t-246.5 -70zM807 -31q-210 0 -371.5 82.5t-251.5 237.5t-90 360q0 168 61 317.5t169 259.5t264.5 174t337.5 64q210 0 370.5 -82.5t250 -237.5
t89.5 -360q0 -168 -60.5 -317.5t-168 -259.5t-263.5 -174t-337 -64zM825 287q114 0 206.5 42t150 111.5t88 155t30.5 178.5q0 180 -109.5 276.5t-283.5 96.5q-114 0 -207 -42t-150.5 -111.5t-88.5 -155.5t-31 -179q0 -179 110 -275.5t285 -96.5z" />
    <glyph glyph-name="obreve" unicode="&#x14f;" horiz-adv-x="1155" 
d="M1067 1434q-27 -149 -130 -240.5t-259 -91.5q-135 0 -213 68.5t-78 185.5q0 31 8 78h183q-3 -18 -3 -35q0 -111 119 -111q42 0 73 12.5t49.5 36.5t28 45.5t17.5 51.5h205zM541 -31q-106 0 -195.5 28.5t-157 83.5t-105.5 143.5t-38 201.5q0 154 69 278.5t200 198.5t302 74
q141 0 250.5 -48.5t176.5 -153.5t67 -255q0 -154 -68.5 -278.5t-199.5 -198.5t-301 -74zM557 254q77 0 134.5 37.5t84.5 92.5t27 118q0 95 -58.5 142.5t-144.5 47.5q-116 0 -182 -74.5t-66 -173.5q0 -95 59 -142.5t146 -47.5z" />
    <glyph glyph-name="Ohungarumlaut" unicode="&#x150;" horiz-adv-x="1636" 
d="M1214 1767l-303 -245h-209l271 245h241zM1530 1767l-303 -245h-207l270 245h240zM807 -31q-210 0 -371.5 82.5t-251.5 237.5t-90 360q0 168 61 317.5t169 259.5t264.5 174t337.5 64q210 0 370.5 -82.5t250 -237.5t89.5 -360q0 -168 -60.5 -317.5t-168 -259.5t-263.5 -174
t-337 -64zM825 287q114 0 206.5 42t150 111.5t88 155t30.5 178.5q0 180 -109.5 276.5t-283.5 96.5q-114 0 -207 -42t-150.5 -111.5t-88.5 -155.5t-31 -179q0 -179 110 -275.5t285 -96.5z" />
    <glyph glyph-name="ohungarumlaut" unicode="&#x151;" horiz-adv-x="1155" 
d="M938 1448l-334 -315h-209l293 315h250zM1282 1448l-334 -315h-209l293 315h250zM541 -31q-106 0 -195.5 28.5t-157 83.5t-105.5 143.5t-38 201.5q0 154 69 278.5t200 198.5t302 74q141 0 250.5 -48.5t176.5 -153.5t67 -255q0 -154 -68.5 -278.5t-199.5 -198.5t-301 -74z
M557 254q77 0 134.5 37.5t84.5 92.5t27 118q0 95 -58.5 142.5t-144.5 47.5q-116 0 -182 -74.5t-66 -173.5q0 -95 59 -142.5t146 -47.5z" />
    <glyph glyph-name="OE" unicode="&#x152;" horiz-adv-x="2207" 
d="M2263 1145h-567l-47 -234h514l-58 -288h-512l-65 -334h579l-57 -289h-895l14 74q-165 -105 -381 -105q-198 0 -355.5 82.5t-248 238.5t-90.5 361q0 166 61 315t169 259t264.5 174.5t337.5 64.5q295 0 479 -178l29 148h884zM825 297q112 0 203 41t147.5 109t86.5 152
t30 175q0 175 -107 269t-278 94q-90 0 -167 -27t-131.5 -73t-93 -107t-57 -130t-18.5 -141q0 -175 107 -268.5t278 -93.5z" />
    <glyph glyph-name="oe" unicode="&#x153;" horiz-adv-x="1847" 
d="M1825 594q0 -76 -29 -195h-680q11 -86 62.5 -128t150.5 -42q148 0 291 84l96 -241q-204 -103 -407 -103q-241 0 -375 140q-160 -140 -393 -140q-106 0 -195.5 28.5t-157 83.5t-105.5 143.5t-38 201.5q0 154 69 278.5t200 198.5t302 74q242 0 377 -135q150 133 383 133
q206 0 327.5 -100.5t121.5 -280.5zM1518 582q4 24 4 36q0 64 -43 100t-117 36q-80 0 -139.5 -46t-87.5 -126h383zM557 254q77 0 134.5 37.5t84.5 92.5t27 118q0 95 -58.5 142.5t-144.5 47.5q-116 0 -182 -74.5t-66 -173.5q0 -95 59 -142.5t146 -47.5z" />
    <glyph glyph-name="Racute" unicode="&#x154;" horiz-adv-x="1275" 
d="M1262 1767l-398 -245h-223l283 245h338zM1296 1020q0 -179 -108.5 -303t-296.5 -162l293 -555h-359l-256 539h-114l-105 -539h-317l278 1434h494q231 0 361 -110.5t130 -303.5zM573 1145l-65 -336h209q110 0 171.5 46.5t61.5 131.5q0 158 -207 158h-170z" />
    <glyph glyph-name="racute" unicode="&#x155;" horiz-adv-x="757" 
d="M412 1133l299 315h329l-387 -315h-241zM2 0l184 946h303l-38 -190h4q86 219 331 219q19 0 43 -4l-61 -326q-2 0 -18.5 1t-34.5 1q-145 0 -225 -68t-111 -231l-68 -348h-309z" />
    <glyph glyph-name="Rcommaaccent" unicode="&#x156;" horiz-adv-x="1275" 
d="M1296 1020q0 -179 -108.5 -303t-296.5 -162l293 -555h-359l-256 539h-114l-105 -539h-317l278 1434h494q231 0 361 -110.5t130 -303.5zM573 1145l-65 -336h209q110 0 171.5 46.5t61.5 131.5q0 158 -207 158h-170zM401 -303l41 207h279l-39 -207l-178 -127h-105l109 127
h-107z" />
    <glyph glyph-name="rcommaaccent" unicode="&#x157;" horiz-adv-x="757" 
d="M786 975q19 0 43 -4l-61 -326q-2 0 -18.5 1t-34.5 1q-145 0 -225 -68t-111 -231l-68 -348h-309l184 946h303l-38 -190h4q86 219 331 219zM-27 -303l41 207h279l-39 -207l-178 -127h-105l109 127h-107z" />
    <glyph glyph-name="Rcaron" unicode="&#x158;" horiz-adv-x="1275" 
d="M883 1522l-295 22l-164 223l238 -14l114 -104l170 118l221 -22zM1296 1020q0 -179 -108.5 -303t-296.5 -162l293 -555h-359l-256 539h-114l-105 -539h-317l278 1434h494q231 0 361 -110.5t130 -303.5zM573 1145l-65 -336h209q110 0 171.5 46.5t61.5 131.5q0 158 -207 158
h-170z" />
    <glyph glyph-name="rcaron" unicode="&#x159;" horiz-adv-x="757" 
d="M403 1118l-188 316h238l104 -185l172 185h275l-312 -316h-289zM2 0l184 946h303l-38 -190h4q86 219 331 219q19 0 43 -4l-61 -326q-2 0 -18.5 1t-34.5 1q-145 0 -225 -68t-111 -231l-68 -348h-309z" />
    <glyph glyph-name="Sacute" unicode="&#x15a;" horiz-adv-x="1077" 
d="M594 1522l283 245h337l-397 -245h-223zM524 -29q-305 0 -567 213l190 262q100 -78 197.5 -121.5t175.5 -43.5q68 0 105 27.5t37 76.5q0 35 -20.5 68t-74.5 84l-186 174q-96 90 -139 174.5t-43 185.5q0 182 119.5 287.5t324.5 105.5q243 0 492 -149l-174 -277
q-78 54 -163 85.5t-153 31.5q-106 0 -106 -78q0 -32 20.5 -60.5t83.5 -88.5l197 -183q89 -84 129.5 -167.5t40.5 -180.5q0 -205 -127 -315.5t-359 -110.5z" />
    <glyph glyph-name="sacute" unicode="&#x15b;" horiz-adv-x="864" 
d="M449 1133l299 315h329l-387 -315h-241zM102 348q194 -127 316 -127q63 0 63 41q0 18 -11 29t-44 31l-131 73q-92 51 -137 117t-45 160q0 140 95 222.5t267 82.5q198 0 412 -103l-113 -229q-158 84 -282 84q-68 0 -68 -37q0 -17 13 -28.5t52 -34.5l125 -70
q95 -49 140 -109.5t45 -160.5q0 -156 -102 -238t-285 -82q-131 0 -241 38t-218 116z" />
    <glyph glyph-name="Scircumflex" unicode="&#x15c;" horiz-adv-x="1077" 
d="M301 1522l295 245h297l197 -245h-238l-115 127l-162 -127h-274zM524 -29q-305 0 -567 213l190 262q100 -78 197.5 -121.5t175.5 -43.5q68 0 105 27.5t37 76.5q0 35 -20.5 68t-74.5 84l-186 174q-96 90 -139 174.5t-43 185.5q0 182 119.5 287.5t324.5 105.5
q243 0 492 -149l-174 -277q-78 54 -163 85.5t-153 31.5q-106 0 -106 -78q0 -32 20.5 -60.5t83.5 -88.5l197 -183q89 -84 129.5 -167.5t40.5 -180.5q0 -205 -127 -315.5t-359 -110.5z" />
    <glyph glyph-name="scircumflex" unicode="&#x15d;" horiz-adv-x="864" 
d="M184 1133l312 315h288l189 -315h-240l-106 176l-170 -176h-273zM102 348q194 -127 316 -127q63 0 63 41q0 18 -11 29t-44 31l-131 73q-92 51 -137 117t-45 160q0 140 95 222.5t267 82.5q198 0 412 -103l-113 -229q-158 84 -282 84q-68 0 -68 -37q0 -17 13 -28.5t52 -34.5
l125 -70q95 -49 140 -109.5t45 -160.5q0 -156 -102 -238t-285 -82q-131 0 -241 38t-218 116z" />
    <glyph glyph-name="Scedilla" unicode="&#x15e;" horiz-adv-x="1077" 
d="M840 745q89 -84 129.5 -167.5t40.5 -180.5q0 -203 -125.5 -313.5t-354.5 -112.5l-30 -49q82 -17 123 -45t41 -84q0 -34 -20 -63t-52 -51t-84.5 -43t-106 -36.5t-127.5 -33.5l-26 78q134 51 162 70q30 21 30 44q0 22 -22.5 33.5t-79.5 24.5l92 159q-246 26 -473 209
l190 262q100 -78 197.5 -121.5t175.5 -43.5q68 0 105 27.5t37 76.5q0 35 -20.5 68t-74.5 84l-186 174q-96 90 -139 174.5t-43 185.5q0 182 119.5 287.5t324.5 105.5q243 0 492 -149l-174 -277q-78 54 -163 85.5t-153 31.5q-106 0 -106 -78q0 -32 20.5 -60.5t83.5 -88.5z" />
    <glyph glyph-name="scedilla" unicode="&#x15f;" horiz-adv-x="864" 
d="M614 559q95 -49 140 -109.5t45 -160.5q0 -156 -100.5 -237t-282.5 -83l-31 -47q82 -17 123 -45t41 -84q0 -34 -19.5 -63t-51.5 -51t-84.5 -43t-106 -36.5t-127.5 -33.5l-27 78q7 3 21 8q98 37 135 57.5t37 48.5q0 22 -23 33.5t-80 24.5l92 159q-181 19 -362 148l149 225
q194 -127 316 -127q63 0 63 41q0 18 -11 29t-44 31l-131 73q-92 51 -137 117t-45 160q0 140 95 222.5t267 82.5q198 0 412 -103l-113 -229q-158 84 -282 84q-68 0 -68 -37q0 -17 13 -28.5t52 -34.5z" />
    <glyph glyph-name="Scaron" unicode="&#x160;" horiz-adv-x="1077" 
d="M838 1522l-295 22l-164 223l237 -14l115 -104l170 118l221 -22zM524 -29q-305 0 -567 213l190 262q100 -78 197.5 -121.5t175.5 -43.5q68 0 105 27.5t37 76.5q0 35 -20.5 68t-74.5 84l-186 174q-96 90 -139 174.5t-43 185.5q0 182 119.5 287.5t324.5 105.5
q243 0 492 -149l-174 -277q-78 54 -163 85.5t-153 31.5q-106 0 -106 -78q0 -32 20.5 -60.5t83.5 -88.5l197 -183q89 -84 129.5 -167.5t40.5 -180.5q0 -205 -127 -315.5t-359 -110.5z" />
    <glyph glyph-name="scaron" unicode="&#x161;" horiz-adv-x="864" 
d="M438 1118l-188 316h237l105 -185l172 185h274l-311 -316h-289zM102 348q194 -127 316 -127q63 0 63 41q0 18 -11 29t-44 31l-131 73q-92 51 -137 117t-45 160q0 140 95 222.5t267 82.5q198 0 412 -103l-113 -229q-158 84 -282 84q-68 0 -68 -37q0 -17 13 -28.5t52 -34.5
l125 -70q95 -49 140 -109.5t45 -160.5q0 -156 -102 -238t-285 -82q-131 0 -241 38t-218 116z" />
    <glyph glyph-name="uni0162" unicode="&#x162;" horiz-adv-x="1093" 
d="M614 0h-98l-49 -78q82 -17 123 -45t41 -84q0 -34 -19.5 -63t-51.5 -51t-84.5 -43t-106 -36.5t-127.5 -33.5l-27 78q7 3 21 8q98 37 135 57.5t37 48.5q0 22 -23 33.5t-80 24.5l107 184h-115l223 1145h-379l56 289h1073l-56 -289h-376z" />
    <glyph glyph-name="uni0163" unicode="&#x163;" horiz-adv-x="731" 
d="M545 688l-56 -285q-6 -30 -6 -51q0 -36 20 -50.5t68 -14.5h35l-57 -287h-109l-49 -78q82 -17 123 -45t41 -84q0 -34 -19.5 -63t-51.5 -51t-84.5 -43t-106 -36.5t-127.5 -33.5l-27 78q7 3 21 8q98 37 135 57.5t37 48.5q0 22 -23 33.5t-80 24.5l111 190q-184 36 -184 221
q0 39 10 97l72 364h-175l50 258h174l73 379h308l-74 -379h199l-50 -258h-198z" />
    <glyph glyph-name="Tcaron" unicode="&#x164;" horiz-adv-x="1093" 
d="M864 1522l-295 22l-163 223l237 -14l115 -104l170 118l221 -22zM1270 1434l-56 -289h-376l-224 -1145h-317l223 1145h-379l56 289h1073z" />
    <glyph glyph-name="tcaron" unicode="&#x165;" horiz-adv-x="956" 
d="M831 1464h287l-55 -286l-232 -168h-110l149 168h-92zM668 1325l-74 -379h199l-50 -258h-198l-56 -285q-6 -30 -6 -51q0 -36 20 -50.5t68 -14.5h35l-57 -287h-129q-126 0 -195 57t-69 170q0 39 10 97l72 364h-175l50 258h174l73 379h308z" />
    <glyph glyph-name="Tbar" unicode="&#x166;" horiz-adv-x="1093" 
d="M1214 1145h-376l-39 -199h227l-45 -235h-229l-138 -711h-317l137 711h-246l45 235h248l39 199h-379l56 289h1073z" />
    <glyph glyph-name="tbar" unicode="&#x167;" horiz-adv-x="733" 
d="M743 688h-196l-21 -106h131l-24 -129h-131l-10 -50q-7 -35 -7 -51q0 -36 20 -50.5t68 -14.5h33l-57 -287h-127q-126 0 -195 57t-69 170q0 50 8 97l24 129h-100l25 129h102l21 106h-172l49 258h174l73 379h308l-74 -379h199z" />
    <glyph glyph-name="Utilde" unicode="&#x168;" horiz-adv-x="1433" 
d="M1098 1491q-64 0 -179 47t-165 47q-38 0 -67.5 -18.5t-63.5 -59.5l-91 31q52 113 120 179.5t161 66.5q64 0 179 -47t165 -47q39 0 68 18.5t63 60.5l90 -32q-53 -114 -119.5 -180t-160.5 -66zM1516 1434l-166 -854q-20 -105 -52.5 -191.5t-88 -165.5t-129.5 -132.5
t-180.5 -85.5t-237.5 -32q-265 0 -404 125t-139 357q0 83 18 174l154 805h340l-154 -789q-10 -51 -10 -113q0 -120 58.5 -180.5t166.5 -60.5q58 0 107.5 18t84.5 48t62 71.5t43.5 85.5t26.5 94l160 826h340z" />
    <glyph glyph-name="utilde" unicode="&#x169;" horiz-adv-x="1144" 
d="M862 1118q-47 0 -99.5 17.5t-89.5 39t-80 39t-75 17.5q-64 0 -129 -94l-108 39q59 131 126.5 201.5t161.5 70.5q47 0 99.5 -17.5t90 -39t80.5 -39t74 -17.5q66 0 129 95l109 -39q-59 -131 -127 -202t-162 -71zM371 -31q-66 0 -121.5 17.5t-99 53t-68.5 95.5t-25 139
q0 56 17 146l106 526h316l-93 -477q-10 -58 -10 -90q0 -73 36 -106t93 -33q80 0 137.5 61.5t81.5 187.5l88 457h312l-185 -946h-301l29 154h-4q-63 -96 -135 -140.5t-174 -44.5z" />
    <glyph glyph-name="Umacron" unicode="&#x16a;" horiz-adv-x="1433" 
d="M1280 1729l-39 -195h-663l38 195h664zM1516 1434l-166 -854q-20 -105 -52.5 -191.5t-88 -165.5t-129.5 -132.5t-180.5 -85.5t-237.5 -32q-265 0 -404 125t-139 357q0 83 18 174l154 805h340l-154 -789q-10 -51 -10 -113q0 -120 58.5 -180.5t166.5 -60.5q58 0 107.5 18
t84.5 48t62 71.5t43.5 85.5t26.5 94l160 826h340z" />
    <glyph glyph-name="umacron" unicode="&#x16b;" horiz-adv-x="1144" 
d="M1055 1378l-39 -202h-666l41 202h664zM371 -31q-66 0 -121.5 17.5t-99 53t-68.5 95.5t-25 139q0 56 17 146l106 526h316l-93 -477q-10 -58 -10 -90q0 -73 36 -106t93 -33q80 0 137.5 61.5t81.5 187.5l88 457h312l-185 -946h-301l29 154h-4q-63 -96 -135 -140.5
t-174 -44.5z" />
    <glyph glyph-name="Ubreve" unicode="&#x16c;" horiz-adv-x="1433" 
d="M897 1505q-134 0 -209.5 63.5t-75.5 174.5v26h201v-8q0 -36 29 -59t80 -23q55 0 91 25t50 65h221q-38 -124 -140.5 -194t-246.5 -70zM1516 1434l-166 -854q-20 -105 -52.5 -191.5t-88 -165.5t-129.5 -132.5t-180.5 -85.5t-237.5 -32q-265 0 -404 125t-139 357
q0 83 18 174l154 805h340l-154 -789q-10 -51 -10 -113q0 -120 58.5 -180.5t166.5 -60.5q58 0 107.5 18t84.5 48t62 71.5t43.5 85.5t26.5 94l160 826h340z" />
    <glyph glyph-name="ubreve" unicode="&#x16d;" horiz-adv-x="1144" 
d="M1063 1434q-27 -149 -130 -240.5t-259 -91.5q-135 0 -213 68.5t-78 185.5q0 31 8 78h182q-2 -12 -2 -35q0 -111 119 -111q42 0 73 12.5t49.5 36.5t28 45.5t17.5 51.5h205zM371 -31q-66 0 -121.5 17.5t-99 53t-68.5 95.5t-25 139q0 56 17 146l106 526h316l-93 -477
q-10 -58 -10 -90q0 -73 36 -106t93 -33q80 0 137.5 61.5t81.5 187.5l88 457h312l-185 -946h-301l29 154h-4q-63 -96 -135 -140.5t-174 -44.5z" />
    <glyph glyph-name="Uring" unicode="&#x16e;" horiz-adv-x="1433" 
d="M883 1309q-99 0 -160 58t-61 151q0 113 76 191.5t200 78.5q99 0 160 -58t61 -151q0 -111 -76.5 -190.5t-199.5 -79.5zM895 1434q64 0 98.5 42t34.5 93q0 41 -25.5 68.5t-76.5 27.5q-64 0 -98.5 -42t-34.5 -93q0 -43 25.5 -69.5t76.5 -26.5zM1516 1434l-166 -854
q-20 -105 -52.5 -191.5t-88 -165.5t-129.5 -132.5t-180.5 -85.5t-237.5 -32q-265 0 -404 125t-139 357q0 83 18 174l154 805h340l-154 -789q-10 -51 -10 -113q0 -120 58.5 -180.5t166.5 -60.5q58 0 107.5 18t84.5 48t62 71.5t43.5 85.5t26.5 94l160 826h340z" />
    <glyph glyph-name="uring" unicode="&#x16f;" horiz-adv-x="1144" 
d="M717 1530q100 0 161.5 -58.5t61.5 -152.5q0 -110 -76 -189t-198 -79q-101 0 -162.5 58.5t-61.5 152.5q0 110 76 189t199 79zM707 1405q-64 0 -99 -41.5t-35 -91.5q0 -42 26.5 -69t76.5 -27q64 0 98.5 41t34.5 92q0 42 -26 69t-76 27zM371 -31q-66 0 -121.5 17.5t-99 53
t-68.5 95.5t-25 139q0 56 17 146l106 526h316l-93 -477q-10 -58 -10 -90q0 -73 36 -106t93 -33q80 0 137.5 61.5t81.5 187.5l88 457h312l-185 -946h-301l29 154h-4q-63 -96 -135 -140.5t-174 -44.5z" />
    <glyph glyph-name="Uhungarumlaut" unicode="&#x170;" horiz-adv-x="1433" 
d="M1174 1767l-304 -245h-208l270 245h242zM1489 1767l-303 -245h-207l270 245h240zM1516 1434l-166 -854q-20 -105 -52.5 -191.5t-88 -165.5t-129.5 -132.5t-180.5 -85.5t-237.5 -32q-265 0 -404 125t-139 357q0 83 18 174l154 805h340l-154 -789q-10 -51 -10 -113
q0 -120 58.5 -180.5t166.5 -60.5q58 0 107.5 18t84.5 48t62 71.5t43.5 85.5t26.5 94l160 826h340z" />
    <glyph glyph-name="uhungarumlaut" unicode="&#x171;" horiz-adv-x="1144" 
d="M934 1448l-334 -315h-209l293 315h250zM1278 1448l-334 -315h-209l293 315h250zM371 -31q-66 0 -121.5 17.5t-99 53t-68.5 95.5t-25 139q0 56 17 146l106 526h316l-93 -477q-10 -58 -10 -90q0 -73 36 -106t93 -33q80 0 137.5 61.5t81.5 187.5l88 457h312l-185 -946h-301
l29 154h-4q-63 -96 -135 -140.5t-174 -44.5z" />
    <glyph glyph-name="Uogonek" unicode="&#x172;" horiz-adv-x="1433" 
d="M1176 1434h340l-166 -854q-20 -102 -51.5 -186t-84 -162t-122.5 -132.5t-170.5 -88.5t-223.5 -38q-77 -64 -114 -105t-37 -67q0 -18 13.5 -28.5t35.5 -10.5q11 0 78 13v-189q-98 -20 -156 -20q-92 0 -146.5 40t-54.5 115q0 132 189 265q-190 34 -288.5 154.5t-98.5 314.5
q0 83 18 174l154 805h340l-154 -789q-10 -51 -10 -113q0 -120 58.5 -180.5t166.5 -60.5q58 0 107.5 18t84.5 48t62 71.5t43.5 85.5t26.5 94z" />
    <glyph glyph-name="uogonek" unicode="&#x173;" horiz-adv-x="1144" 
d="M811 0q-94 -76 -139 -123t-45 -76q0 -18 13.5 -28.5t35.5 -10.5q11 0 78 13v-189q-98 -20 -156 -20q-92 0 -146.5 40t-54.5 115q0 82 66 158t199 156l22 119h-4q-63 -96 -135 -140.5t-174 -44.5q-66 0 -121.5 17.5t-99 53t-68.5 95.5t-25 139q0 56 17 146l106 526h316
l-93 -477q-10 -58 -10 -90q0 -73 36 -106t93 -33q80 0 137.5 61.5t81.5 187.5l88 457h312l-185 -946h-145z" />
    <glyph glyph-name="Wcircumflex" unicode="&#x174;" horiz-adv-x="2205" 
d="M872 1522l295 245h297l197 -245h-238l-114 127l-162 -127h-275zM2370 1434l-762 -1434h-281l-133 926h-4l-496 -926h-278l-207 1434h360l76 -916h4l486 916h280l127 -916h4l434 916h390z" />
    <glyph glyph-name="wcircumflex" unicode="&#x175;" horiz-adv-x="1658" 
d="M981 1309l-170 -176h-272l311 315h289l188 -315h-240zM1411 946h330l-531 -946h-264l-100 553l-316 -553h-264l-162 946h304l63 -545l295 545h283l86 -547z" />
    <glyph glyph-name="Ycircumflex" unicode="&#x176;" horiz-adv-x="1349" 
d="M848 1649l-162 -127h-274l295 245h297l196 -245h-237zM1536 1434l-696 -922l-99 -512h-317l98 518l-336 916h349l180 -600h4l418 600h399z" />
    <glyph glyph-name="ycircumflex" unicode="&#x177;" horiz-adv-x="1124" 
d="M729 1309l-170 -176h-272l311 315h289l188 -315h-239zM870 946h336l-858 -1356h-334l340 521l-252 835h330l121 -518z" />
    <glyph glyph-name="Ydieresis" unicode="&#x178;" horiz-adv-x="1349" 
d="M788 1755l-45 -233h-272l45 233h272zM1233 1755l-45 -233h-275l45 233h275zM1536 1434l-696 -922l-99 -512h-317l98 518l-336 916h349l180 -600h4l418 600h399z" />
    <glyph glyph-name="Zacute" unicode="&#x179;" horiz-adv-x="1146" 
d="M1286 1767l-397 -245h-223l282 245h338zM213 1137l59 297h1008l-57 -297l-813 -840h669l-57 -297h-1081l57 297l815 840h-600z" />
    <glyph glyph-name="zacute" unicode="&#x17a;" horiz-adv-x="923" 
d="M1065 1448l-387 -315h-242l299 315h330zM109 686l49 260h796l-43 -227l-538 -459h477l-49 -260h-860l45 233l530 453h-407z" />
    <glyph glyph-name="Zdotaccent" unicode="&#x17b;" horiz-adv-x="1146" 
d="M987 1784l-51 -262h-291l51 262h291zM1280 1434l-57 -297l-813 -840h669l-57 -297h-1081l57 297l815 840h-600l59 297h1008z" />
    <glyph glyph-name="zdotaccent" unicode="&#x17c;" horiz-adv-x="923" 
d="M805 1432l-62 -312h-331l61 312h332zM954 946l-43 -227l-538 -459h477l-49 -260h-860l45 233l530 453h-407l49 260h796z" />
    <glyph glyph-name="Zcaron" unicode="&#x17d;" horiz-adv-x="1146" 
d="M907 1522l-295 22l-163 223l237 -14l115 -104l170 118l221 -22zM1280 1434l-57 -297l-813 -840h669l-57 -297h-1081l57 297l815 840h-600l59 297h1008z" />
    <glyph glyph-name="zcaron" unicode="&#x17e;" horiz-adv-x="923" 
d="M715 1118h-289l-188 316h237l105 -185l172 185h274zM109 686l49 260h796l-43 -227l-538 -459h477l-49 -260h-860l45 233l530 453h-407z" />
    <glyph glyph-name="florin" unicode="&#x192;" horiz-adv-x="829" 
d="M840 1133q-162 0 -197 -175l-2 -12h217l-12 -61h-217l-178 -914q-16 -87 -50.5 -155t-77 -109.5t-94.5 -68.5t-100.5 -37.5t-99.5 -10.5h-160l53 273h84q57 0 98.5 36.5t55.5 114.5l170 871h-193l13 61h192l12 66q16 87 53.5 156t84 112t103.5 71.5t110.5 40t107.5 11.5
h152l-52 -270h-73z" />
    <glyph glyph-name="AEacute" unicode="&#x1fc;" horiz-adv-x="2056" 
d="M2181 1767l-397 -245h-223l282 245h338zM2169 1434l-55 -289h-529l-47 -234h471l-55 -288h-471l-66 -334h537l-56 -289h-667h-176l55 291h-541l-237 -291h-424l1227 1434h1034zM799 573h366l115 588z" />
    <glyph glyph-name="aeacute" unicode="&#x1fd;" horiz-adv-x="1691" 
d="M840 1133l299 315h329l-387 -315h-241zM377 -31q-164 0 -269.5 82t-105.5 238t114.5 253t301.5 97q99 0 173.5 -29t115.5 -78h6q12 70 12 93q0 54 -45.5 85t-134.5 31q-118 0 -283 -41l-39 236q189 41 350 41q61 0 108.5 -7.5t91 -26t74.5 -54t48 -86.5h4
q56 83 147.5 127.5t208.5 44.5q81 0 153.5 -23t131 -68t93 -120.5t34.5 -171.5q0 -64 -27 -193h-671v-16q0 -73 59 -117.5t152 -44.5q141 0 282 92l94 -219q-189 -125 -391 -125q-137 0 -236.5 52t-150.5 145h-4q-134 -197 -397 -197zM1010 582h360q2 12 2 32
q0 62 -39.5 96.5t-107.5 34.5q-81 0 -136 -44t-79 -119zM494 201q78 0 131 36t53 97q0 50 -40.5 78t-107.5 28q-79 0 -129.5 -36t-50.5 -97q0 -50 37.5 -78t106.5 -28z" />
    <glyph glyph-name="Oslashacute" unicode="&#x1fe;" horiz-adv-x="1636" 
d="M1499 1767l-397 -245h-223l282 245h338zM1452 1270q184 -187 184 -486q0 -168 -60.5 -317.5t-168 -259.5t-263.5 -174t-337 -64q-270 0 -457 135l-127 -133l-73 68l124 131q-180 183 -180 479q0 168 61 317.5t169 259.5t264.5 174t337.5 64q262 0 448 -131l129 135
l72 -67zM430 659q0 -147 78 -241l635 669q-102 60 -236 60q-114 0 -207 -42t-150.5 -111.5t-88.5 -155.5t-31 -179zM825 287q114 0 206.5 42t150 111.5t88 155t30.5 178.5q0 154 -81 248l-637 -672q104 -63 243 -63z" />
    <glyph glyph-name="oslashacute" unicode="&#x1ff;" horiz-adv-x="1155" 
d="M1186 1448l-387 -315h-242l299 315h330zM1098 920l-94 -91q106 -115 106 -309q0 -154 -68.5 -278.5t-199.5 -198.5t-301 -74q-211 0 -340 103l-113 -109l-57 62l110 104q-96 116 -96 297q0 154 69 278.5t200 198.5t302 74q191 0 322 -90l102 96zM352 444q0 -47 21 -94
l336 318q-49 24 -109 24q-116 0 -182 -74.5t-66 -173.5zM803 502q0 60 -31 110l-342 -325q50 -33 127 -33t134.5 37.5t84.5 92.5t27 118z" />
    <glyph glyph-name="Scommaaccent" unicode="&#x218;" horiz-adv-x="1077" 
d="M840 745q89 -84 129.5 -167.5t40.5 -180.5q0 -205 -127 -315.5t-359 -110.5q-305 0 -567 213l190 262q100 -78 197.5 -121.5t175.5 -43.5q68 0 105 27.5t37 76.5q0 35 -20.5 68t-74.5 84l-186 174q-96 90 -139 174.5t-43 185.5q0 182 119.5 287.5t324.5 105.5
q243 0 492 -149l-174 -277q-78 54 -163 85.5t-153 31.5q-106 0 -106 -78q0 -32 20.5 -60.5t83.5 -88.5zM307 -303l41 207h279l-39 -207l-178 -127h-105l109 127h-107z" />
    <glyph glyph-name="scommaaccent" unicode="&#x219;" horiz-adv-x="864" 
d="M614 559q95 -49 140 -109.5t45 -160.5q0 -156 -102 -238t-285 -82q-131 0 -241 38t-218 116l149 225q194 -127 316 -127q63 0 63 41q0 18 -11 29t-44 31l-131 73q-92 51 -137 117t-45 160q0 140 95 222.5t267 82.5q198 0 412 -103l-113 -229q-158 84 -282 84
q-68 0 -68 -37q0 -17 13 -28.5t52 -34.5zM193 -303l40 207h279l-39 -207l-178 -127h-105l109 127h-106z" />
    <glyph glyph-name="uni021A" unicode="&#x21a;" horiz-adv-x="1093" 
d="M1270 1434l-56 -289h-376l-224 -1145h-317l223 1145h-379l56 289h1073zM274 -303l41 207h279l-39 -207l-178 -127h-105l109 127h-107z" />
    <glyph glyph-name="uni021B" unicode="&#x21b;" horiz-adv-x="731" 
d="M545 688l-56 -285q-6 -30 -6 -51q0 -36 20 -50.5t68 -14.5h35l-57 -287h-129q-126 0 -195 57t-69 170q0 39 10 97l72 364h-175l50 258h174l73 379h308l-74 -379h199l-50 -258h-198zM199 -303l41 207h278l-39 -207l-178 -127h-104l108 127h-106z" />
    <glyph glyph-name="uni0237" unicode="&#x237;" horiz-adv-x="501" 
d="M-190 -129h55q113 0 137 119l186 956h312l-197 -1009q-70 -353 -453 -353h-96z" />
    <glyph glyph-name="uni02BC" unicode="&#x2bc;" horiz-adv-x="415" 
d="M270 1464h285l-53 -286l-273 -320h-110l198 320h-102z" />
    <glyph glyph-name="circumflex" unicode="&#x2c6;" horiz-adv-x="993" 
d="M231 1133l312 315h288l189 -315h-240l-106 176l-170 -176h-273z" />
    <glyph glyph-name="caron" unicode="&#x2c7;" horiz-adv-x="993" 
d="M477 1118l-188 316h237l105 -185l172 185h274l-311 -316h-289z" />
    <glyph glyph-name="breve" unicode="&#x2d8;" horiz-adv-x="876" 
d="M961 1434q-27 -149 -130.5 -240.5t-259.5 -91.5q-135 0 -212.5 68.5t-77.5 185.5q0 31 8 78h182q-2 -12 -2 -35q0 -111 119 -111q42 0 73 12.5t49.5 36.5t28 45.5t17.5 51.5h205z" />
    <glyph glyph-name="dotaccent" unicode="&#x2d9;" horiz-adv-x="536" 
d="M621 1432l-62 -312h-332l62 312h332z" />
    <glyph glyph-name="ring" unicode="&#x2da;" horiz-adv-x="700" 
d="M535 1530q100 0 161.5 -58.5t61.5 -152.5q0 -110 -76.5 -189t-198.5 -79q-101 0 -162 58.5t-61 152.5q0 110 76 189t199 79zM524 1405q-64 0 -98.5 -41t-34.5 -92q0 -42 26.5 -69t76.5 -27q64 0 98.5 41t34.5 92q0 42 -26.5 69t-76.5 27z" />
    <glyph glyph-name="ogonek" unicode="&#x2db;" horiz-adv-x="591" 
d="M248 49l151 -29q-107 -84 -159 -136t-52 -83q0 -18 14 -28.5t36 -10.5q10 0 77 13v-191q-118 -20 -155 -20q-91 0 -146 41t-55 116q0 84 71.5 163.5t217.5 164.5z" />
    <glyph glyph-name="tilde" unicode="&#x2dc;" horiz-adv-x="1030" 
d="M819 1118q-47 0 -99.5 17.5t-89.5 39t-80 39t-75 17.5q-64 0 -129 -94l-108 39q59 131 126.5 201.5t161.5 70.5q48 0 100.5 -17.5t90 -39t80 -39t73.5 -17.5q66 0 129 95l109 -39q-59 -131 -127 -202t-162 -71z" />
    <glyph glyph-name="hungarumlaut" unicode="&#x2dd;" horiz-adv-x="1030" 
d="M774 1448l-334 -315h-209l293 315h250zM1118 1448l-334 -315h-209l293 315h250z" />
    <glyph glyph-name="gravecomb" unicode="&#x300;" horiz-adv-x="0" 
d="M-147 1448l174 -315h-222l-270 315h318z" />
    <glyph glyph-name="acutecomb" unicode="&#x301;" horiz-adv-x="0" 
d="M-541 1133l299 315h330l-387 -315h-242z" />
    <glyph glyph-name="uni0302" unicode="&#x302;" horiz-adv-x="0" 
d="M-762 1133l311 315h289l189 -315h-240l-106 176l-170 -176h-273z" />
    <glyph glyph-name="tildecomb" unicode="&#x303;" horiz-adv-x="0" 
d="M-211 1118q-47 0 -99.5 17.5t-89.5 39t-80 39t-75 17.5q-64 0 -129 -94l-109 39q38 85 76 141.5t93 93.5t120 37q48 0 100.5 -17.5t90 -39t80 -39t73.5 -17.5q66 0 129 95l109 -39q-59 -131 -127 -202t-162 -71z" />
    <glyph glyph-name="uni0304" unicode="&#x304;" horiz-adv-x="0" 
d="M72 1378l-39 -202h-666l41 202h664z" />
    <glyph glyph-name="uni0306" unicode="&#x306;" horiz-adv-x="0" 
d="M84 1434q-27 -149 -130 -240.5t-259 -91.5q-135 0 -213 68.5t-78 185.5q0 31 8 78h182q-2 -12 -2 -35q0 -111 119 -111q42 0 73 12.5t49.5 36.5t28 45.5t17.5 51.5h205z" />
    <glyph glyph-name="uni0307" unicode="&#x307;" horiz-adv-x="0" 
d="M84 1432l-61 -312h-332l61 312h332z" />
    <glyph glyph-name="uni0308" unicode="&#x308;" horiz-adv-x="0" 
d="M-614 1137l55 276h254l-55 -276h-254zM-229 1137l55 276h254l-55 -276h-254z" />
    <glyph glyph-name="uni030A" unicode="&#x30a;" horiz-adv-x="0" 
d="M-166 1530q100 0 161.5 -58.5t61.5 -152.5q0 -110 -76 -189t-198 -79q-101 0 -162 58.5t-61 152.5q0 110 75.5 189t198.5 79zM-176 1405q-64 0 -98.5 -41t-34.5 -92q0 -42 26 -69t76 -27q64 0 98.5 41t34.5 92q0 42 -26 69t-76 27z" />
    <glyph glyph-name="uni030B" unicode="&#x30b;" horiz-adv-x="0" 
d="M-256 1448l-334 -315h-209l293 315h250zM88 1448l-334 -315h-209l293 315h250z" />
    <glyph glyph-name="uni030C" unicode="&#x30c;" horiz-adv-x="0" 
d="M-516 1118l-189 316h238l105 -185l172 185h274l-311 -316h-289z" />
    <glyph glyph-name="uni0326" unicode="&#x326;" horiz-adv-x="0" 
d="M-492 -96h279l-39 -207l-178 -127h-105l109 127h-106z" />
    <glyph glyph-name="uni0327" unicode="&#x327;" horiz-adv-x="0" 
d="M-627 -434l-26 78q134 51 162 70q30 21 30 44q0 22 -22.5 33.5t-79.5 24.5l151 264h111l-100 -158q82 -17 122.5 -45t40.5 -84q0 -34 -19.5 -63t-51.5 -51t-84.5 -43t-106 -36.5t-127.5 -33.5z" />
    <glyph glyph-name="uni0328" unicode="&#x328;" horiz-adv-x="0" 
d="M-344 49l151 -29q-106 -83 -158 -135.5t-52 -83.5q0 -18 13.5 -28.5t35.5 -10.5q11 0 78 13v-191q-118 -20 -156 -20q-91 0 -146 41t-55 116q0 84 71.5 163.5t217.5 164.5z" />
    <glyph glyph-name="uni0394" unicode="&#x394;" horiz-adv-x="1286" 
d="M643 1434l510 -1434h-1204l510 1434h184zM551 969l-244 -764h488z" />
    <glyph glyph-name="uni03A9" unicode="&#x3a9;" horiz-adv-x="1671" 
d="M840 1464q318 0 507 -179.5t189 -471.5q0 -204 -115.5 -351.5t-287.5 -187.5v-6h385v-268h-596v446q136 17 221.5 118t85.5 239q0 167 -103 265.5t-286 98.5q-182 0 -285.5 -98.5t-103.5 -265.5q0 -138 86 -239t221 -118v-446h-594v268h383v6q-171 40 -287.5 187.5
t-116.5 351.5q0 291 189.5 471t507.5 180z" />
    <glyph glyph-name="uni03BC" unicode="&#x3bc;" horiz-adv-x="1142" 
d="M827 946h312l-185 -946h-301l29 154h-4q-63 -97 -134.5 -141t-174.5 -44q-35 0 -84 11l-76 -390h-297l266 1356h318l-95 -477q-10 -58 -10 -90q0 -73 36 -106t93 -33q80 0 137.5 61.5t81.5 187.5z" />
    <glyph glyph-name="pi" unicode="&#x3c0;" horiz-adv-x="1308" 
d="M1346 977l-54 -268h-184l-137 -709h-279l139 709h-200l-299 -709h-281l297 707q-130 -9 -248 -39l52 268q128 41 327 41h867z" />
    <glyph glyph-name="uni0401" unicode="&#x401;" horiz-adv-x="1085" 
d="M766 1755l-45 -233h-272l45 233h272zM1210 1755l-45 -233h-274l45 233h274zM33 0l278 1434h887l-57 -289h-568l-45 -234h512l-55 -288h-514l-65 -334h579l-55 -289h-897z" />
    <glyph glyph-name="uni0402" unicode="&#x402;" horiz-adv-x="1540" 
d="M1126 883q74 0 129 -6t108 -23t86.5 -46t54 -78t20.5 -116q0 -47 -15 -139l-16 -84q-41 -214 -156 -302.5t-307 -88.5h-190l57 297h94q89 0 132.5 28.5t58.5 100.5l2 16q8 36 8 54q0 53 -38.5 70.5t-137.5 17.5q-121 0 -303 -19l-111 -567l-317 2l221 1137h-367l58 297
h1163l-57 -297h-480l-53 -271q180 17 356 17z" />
    <glyph glyph-name="uni0403" unicode="&#x403;" horiz-adv-x="1009" 
d="M1270 1767l-398 -245h-223l283 245h338zM311 1434h875l-58 -299h-557l-221 -1135h-317z" />
    <glyph glyph-name="uni0404" unicode="&#x404;" horiz-adv-x="1413" 
d="M825 287q168 0 361 102l133 -280q-247 -140 -504 -140q-322 0 -519.5 192.5t-197.5 506.5q0 172 62.5 320t174 252.5t271 164t346.5 59.5q318 0 545 -151l-192 -281q-159 111 -357 111q-168 0 -291 -75t-176 -206h484l-58 -291h-448q28 -131 126 -207.5t240 -76.5z" />
    <glyph glyph-name="uni0405" unicode="&#x405;" horiz-adv-x="1077" 
d="M524 -29q-305 0 -567 213l190 262q100 -78 197.5 -121.5t175.5 -43.5q68 0 105 27.5t37 76.5q0 35 -20.5 68t-74.5 84l-186 174q-96 90 -139 174.5t-43 185.5q0 182 119.5 287.5t324.5 105.5q243 0 492 -149l-174 -277q-78 54 -163 85.5t-153 31.5q-106 0 -106 -78
q0 -32 20.5 -60.5t83.5 -88.5l197 -183q89 -84 129.5 -167.5t40.5 -180.5q0 -205 -127 -315.5t-359 -110.5z" />
    <glyph glyph-name="uni0406" unicode="&#x406;" horiz-adv-x="567" 
d="M33 0l278 1434h318l-279 -1434h-317z" />
    <glyph glyph-name="uni0407" unicode="&#x407;" horiz-adv-x="567" 
d="M127 1522l45 233h272l-45 -233h-272zM569 1522l45 233h275l-45 -233h-275zM33 0l278 1434h318l-279 -1434h-317z" />
    <glyph glyph-name="uni0408" unicode="&#x408;" horiz-adv-x="636" 
d="M-51 -6l57 297h68q85 0 106 100l203 1043h315l-206 -1076q-36 -189 -143.5 -276.5t-295.5 -87.5h-104z" />
    <glyph glyph-name="uni0409" unicode="&#x409;" horiz-adv-x="2211" 
d="M1712 924q77 0 143.5 -12t128.5 -42t105.5 -76.5t69.5 -120t26 -167.5q0 -124 -44.5 -221t-124 -159t-186 -94t-233.5 -32h-593l221 1135h-553l-150 -777q-36 -189 -143 -276.5t-295 -87.5h-135l57 297h98q86 0 107 100l203 1043h315h748h122l-98 -510h211zM1587 287
q118 0 189 51t71 145q0 154 -194 154h-207l-68 -350h209z" />
    <glyph glyph-name="uni040A" unicode="&#x40a;" horiz-adv-x="2156" 
d="M1657 924q77 0 143.5 -12t128.5 -42t105.5 -76.5t69.5 -120t26 -167.5q0 -124 -44.5 -221t-124 -159t-186 -94t-233.5 -32h-594l123 637h-596l-125 -637h-317l278 1434h318l-99 -510h598l99 510h317l-98 -510h211zM1532 287q118 0 189 51t71 145q0 154 -195 154h-208
l-68 -350h211z" />
    <glyph glyph-name="uni040B" unicode="&#x40b;" horiz-adv-x="1529" 
d="M1128 901q194 0 289.5 -72.5t95.5 -224.5q0 -64 -14 -133l-92 -471h-317l86 444q4 16 4 45q0 113 -123 113h-346l-117 -602h-318l222 1137h-359l58 297h675h488l-57 -297h-488l-47 -236h360z" />
    <glyph glyph-name="uni040C" unicode="&#x40c;" horiz-adv-x="1460" 
d="M1358 1767l-397 -245h-224l283 245h338zM1563 1434l-748 -709l553 -725h-420l-465 688l-133 -688h-317l278 1434h318l-123 -633l614 633h443z" />
    <glyph glyph-name="uni040E" unicode="&#x40e;" horiz-adv-x="1456" 
d="M932 1483q-149 0 -226 61t-77 168q0 29 4 57h201q-3 -15 -3 -28q0 -42 28.5 -68t84.5 -26q63 0 101 31.5t49 90.5h211q-35 -142 -124.5 -214t-248.5 -72zM1272 1434h370l-974 -1434h-371l238 348l-349 1086h351l225 -750z" />
    <glyph glyph-name="uni040F" unicode="&#x40f;" horiz-adv-x="1478" 
d="M1542 1434l-278 -1434h-467l-56 -287h-297l56 287h-467l278 1434h318l-221 -1137h593l222 1137h319z" />
    <glyph glyph-name="uni0410" unicode="&#x410;" horiz-adv-x="1466" 
d="M1034 0l-45 291h-553l-157 -291h-371l844 1434h335l287 -1434h-340zM584 563h362l-82 516z" />
    <glyph glyph-name="uni0411" unicode="&#x411;" horiz-adv-x="1241" 
d="M1221 1137h-650l-41 -213h211q77 0 143.5 -12t128.5 -42t105.5 -76.5t69.5 -120t26 -167.5q0 -164 -77.5 -280t-208.5 -171t-303 -55h-592l278 1434h318h649zM682 637h-209l-67 -350h210q118 0 189.5 51t71.5 145q0 79 -51.5 116.5t-143.5 37.5z" />
    <glyph glyph-name="uni0412" unicode="&#x412;" horiz-adv-x="1290" 
d="M989 756q234 -48 234 -312q0 -94 -31.5 -169.5t-85 -126t-128 -84.5t-157 -49t-174.5 -15h-614l278 1434h590q175 0 280 -85.5t105 -238.5q0 -131 -75 -220t-222 -130v-4zM760 864q80 0 134 41t54 107q0 63 -41 98t-112 35h-222l-55 -281h242zM657 289q108 0 173 43
t65 121q0 147 -197 147h-231l-61 -311h251z" />
    <glyph glyph-name="uni0413" unicode="&#x413;" horiz-adv-x="1009" 
d="M1186 1434l-58 -299h-557l-221 -1135h-317l278 1434h875z" />
    <glyph glyph-name="uni0414" unicode="&#x414;" horiz-adv-x="1458" 
d="M1458 1434l-227 -1168h172l-107 -553h-297l50 256h-840l-49 -256h-297l106 553h146q154 190 215 502l131 666h997zM653 766q-60 -307 -194 -500h454l170 871h-362z" />
    <glyph glyph-name="uni0415" unicode="&#x415;" horiz-adv-x="1085" 
d="M1141 1145h-568l-45 -234h512l-55 -288h-514l-65 -334h579l-55 -289h-897l278 1434h887z" />
    <glyph glyph-name="uni0416" unicode="&#x416;" horiz-adv-x="2316" 
d="M2439 1434l-710 -705l493 -729h-410l-440 707l-137 -707h-301l137 707l-692 -707h-471l817 786l-397 648h395l362 -654l127 654h301l-127 -654l611 654h442z" />
    <glyph glyph-name="uni0417" unicode="&#x417;" horiz-adv-x="1191" 
d="M532 -31q-298 0 -557 142l154 268q208 -111 410 -111q129 0 199.5 42.5t70.5 123.5q0 83 -80.5 123.5t-247.5 40.5h-116l53 281h110q158 0 248 45t90 125q0 58 -50.5 89t-141.5 31q-78 0 -184 -21.5t-201 -55.5l-92 272q282 100 503 100q235 0 365.5 -91.5t130.5 -256.5
q0 -141 -93.5 -230.5t-277.5 -123.5l-2 -4q143 -25 218 -113.5t75 -232.5q0 -211 -152.5 -327t-431.5 -116z" />
    <glyph glyph-name="uni0418" unicode="&#x418;" horiz-adv-x="1523" 
d="M33 0l278 1434h318l-178 -908h4l833 908h297l-278 -1434h-318l176 907h-2l-835 -907h-295z" />
    <glyph glyph-name="uni0419" unicode="&#x419;" horiz-adv-x="1523" 
d="M1360 1769q-35 -142 -124.5 -214t-248.5 -72q-149 0 -226 61t-77 168q0 29 4 57h201q-2 -10 -2 -28q0 -42 28 -68t84 -26q63 0 101 31.5t49 90.5h211zM33 0l278 1434h318l-178 -908h4l833 908h297l-278 -1434h-318l176 907h-2l-835 -907h-295z" />
    <glyph glyph-name="uni041A" unicode="&#x41a;" horiz-adv-x="1460" 
d="M1563 1434l-748 -709l553 -725h-420l-465 688l-133 -688h-317l278 1434h318l-123 -633l614 633h443z" />
    <glyph glyph-name="uni041B" unicode="&#x41b;" horiz-adv-x="1533" 
d="M1597 1434l-278 -1434h-318l220 1135h-537l-158 -820q-62 -321 -432 -321h-145l57 297h109q41 0 69 25t37 75l205 1043h1171z" />
    <glyph glyph-name="uni041C" unicode="&#x41c;" horiz-adv-x="1820" 
d="M-92 0l641 1434h239l160 -738h4l445 738h241l91 -1434h-314l-37 827h-4l-389 -622h-221l-150 622h-4l-354 -827h-348z" />
    <glyph glyph-name="uni041D" unicode="&#x41d;" horiz-adv-x="1478" 
d="M1223 1434h317l-278 -1434h-318l119 602h-596l-117 -602h-317l278 1434h318l-105 -533h596z" />
    <glyph glyph-name="uni041E" unicode="&#x41e;" horiz-adv-x="1636" 
d="M807 -31q-210 0 -371.5 82.5t-251.5 237.5t-90 360q0 168 61 317.5t169 259.5t264.5 174t337.5 64q210 0 370.5 -82.5t250 -237.5t89.5 -360q0 -168 -60.5 -317.5t-168 -259.5t-263.5 -174t-337 -64zM825 287q114 0 206.5 42t150 111.5t88 155t30.5 178.5
q0 180 -109.5 276.5t-283.5 96.5q-114 0 -207 -42t-150.5 -111.5t-88.5 -155.5t-31 -179q0 -179 110 -275.5t285 -96.5z" />
    <glyph glyph-name="uni041F" unicode="&#x41f;" horiz-adv-x="1478" 
d="M1540 1434l-278 -1434h-318l221 1137h-594l-221 -1137h-317l278 1434h1229z" />
    <glyph glyph-name="uni0420" unicode="&#x420;" horiz-adv-x="1210" 
d="M760 1434q130 0 229.5 -33t160.5 -92t91.5 -135.5t30.5 -167.5q0 -108 -39 -200t-115.5 -163t-199.5 -111t-281 -40h-191l-96 -492h-317l278 1434h449zM670 778q118 0 189 53.5t71 151.5q0 162 -211 162h-146l-71 -367h168z" />
    <glyph glyph-name="uni0421" unicode="&#x421;" horiz-adv-x="1413" 
d="M815 -31q-322 0 -519.5 192.5t-197.5 506.5q0 172 62.5 320t174 252.5t271 164t346.5 59.5q318 0 545 -151l-192 -281q-159 111 -357 111q-226 0 -364 -129.5t-138 -339.5q0 -173 105 -280t274 -107q168 0 361 102l133 -280q-247 -140 -504 -140z" />
    <glyph glyph-name="uni0422" unicode="&#x422;" horiz-adv-x="1093" 
d="M1270 1434l-56 -289h-376l-224 -1145h-317l223 1145h-379l56 289h1073z" />
    <glyph glyph-name="uni0423" unicode="&#x423;" horiz-adv-x="1456" 
d="M1272 1434h370l-974 -1434h-371l238 348l-349 1086h351l225 -750z" />
    <glyph glyph-name="uni0424" unicode="&#x424;" horiz-adv-x="1724" 
d="M1174 1360q174 -20 298.5 -105.5t185 -214.5t60.5 -288q0 -147 -45 -270t-131.5 -215.5t-223.5 -144.5t-312 -52h-66l-22 -131h-300l25 137q-259 30 -401 196.5t-142 409.5q0 146 45 269t132 216t225 145.5t313 53.5h62l24 129h299zM418 694q0 -145 74.5 -232.5
t222.5 -96.5l127 704h-66q-172 0 -265 -105.5t-93 -269.5zM1042 365q172 0 265.5 107.5t93.5 268.5q0 146 -75 232.5t-224 95.5l-127 -704h67z" />
    <glyph glyph-name="uni0425" unicode="&#x425;" horiz-adv-x="1484" 
d="M1642 1434l-632 -695l381 -739h-371l-242 506l-436 -506h-432l704 782l-342 652h373l201 -420l366 420h430z" />
    <glyph glyph-name="uni0426" unicode="&#x426;" horiz-adv-x="1525" 
d="M1065 -287l55 287h-1087l278 1434h318l-221 -1137h561l221 1137h317l-221 -1137h191l-113 -584h-299z" />
    <glyph glyph-name="uni0427" unicode="&#x427;" horiz-adv-x="1288" 
d="M1032 1434h318l-279 -1434h-317l102 532h-360q-194 0 -288.5 72.5t-94.5 224.5q0 65 14 134l92 471h318l-88 -445q-5 -20 -5 -45q0 -56 32.5 -84.5t90.5 -28.5h348z" />
    <glyph glyph-name="uni0428" unicode="&#x428;" horiz-adv-x="2244" 
d="M33 0l278 1434h318l-221 -1137h522l221 1137h317l-221 -1137h520l222 1137h319l-278 -1434h-1997z" />
    <glyph glyph-name="uni0429" unicode="&#x429;" horiz-adv-x="2324" 
d="M2087 297h188l-112 -584h-297l55 287h-1888l278 1434h318l-221 -1137h522l221 1137h317l-221 -1137h520l222 1137h319z" />
    <glyph glyph-name="uni042A" unicode="&#x42a;" horiz-adv-x="1540" 
d="M1040 924q77 0 143.5 -12t128.5 -42t105.5 -76.5t69.5 -120t26 -167.5q0 -164 -77.5 -280t-208 -171t-301.5 -55h-594l221 1137h-414l58 297h731l-58 -297l-41 -213h211zM915 287q118 0 189.5 51t71.5 145q0 154 -195 154h-207l-67 -350h208z" />
    <glyph glyph-name="uni042B" unicode="&#x42b;" horiz-adv-x="1785" 
d="M741 924q77 0 143.5 -12t128.5 -42t105.5 -76.5t69.5 -120t26 -167.5q0 -164 -77.5 -280t-208.5 -171t-303 -55h-592l278 1434h318l-99 -510h211zM1530 1434h319l-278 -1434h-320zM616 287q118 0 189.5 51t71.5 145q0 79 -51.5 116.5t-143.5 37.5h-209l-67 -350h210z" />
    <glyph glyph-name="uni042C" unicode="&#x42c;" horiz-adv-x="1241" 
d="M741 924q77 0 143.5 -12t128.5 -42t105.5 -76.5t69.5 -120t26 -167.5q0 -164 -77.5 -280t-208.5 -171t-303 -55h-592l278 1434h318l-99 -510h211zM616 287q118 0 189.5 51t71.5 145q0 79 -51.5 116.5t-143.5 37.5h-209l-67 -350h210z" />
    <glyph glyph-name="uni042D" unicode="&#x42d;" horiz-adv-x="1411" 
d="M717 1464q317 0 506.5 -177.5t189.5 -483.5q0 -172 -58 -322.5t-166 -265t-273.5 -180.5t-368.5 -66q-170 0 -316.5 45t-248.5 115l182 283q179 -115 399 -115q179 0 297 74.5t172 199.5h-516l55 291h500q-20 137 -113.5 206t-244.5 69q-174 0 -389 -103l-134 299
q280 131 527 131z" />
    <glyph glyph-name="uni042E" unicode="&#x42e;" horiz-adv-x="2172" 
d="M1464 1464q318 0 514.5 -185.5t196.5 -494.5q0 -168 -61 -317.5t-169 -259.5t-264.5 -174t-337.5 -64q-297 0 -488.5 162t-217.5 438h-176l-111 -569h-317l278 1434h318l-111 -566h141q69 264 286 430t519 166zM1362 287q114 0 207 42t150.5 111.5t88.5 155.5t31 178
q0 179 -110 276t-285 97q-114 0 -206.5 -42t-150 -111.5t-88 -155.5t-30.5 -179q0 -120 52.5 -205.5t139.5 -126t201 -40.5z" />
    <glyph glyph-name="uni042F" unicode="&#x42f;" horiz-adv-x="1284" 
d="M754 1434h592l-279 -1434h-317l104 539h-76l-465 -539h-385l500 571q-118 46 -180 147t-62 232q0 71 18.5 138t61.5 130.5t107 110.5t162 76t219 29zM907 809l66 336h-211q-125 0 -179.5 -53t-54.5 -127q0 -81 56.5 -118.5t150.5 -37.5h172z" />
    <glyph glyph-name="uni0430" unicode="&#x430;" horiz-adv-x="1216" 
d="M444 -31q-184 0 -291.5 119.5t-107.5 325.5q0 249 140.5 406t361.5 157q117 0 203 -50.5t129 -144.5h6l30 164h308l-185 -946h-307l25 127h-4q-57 -75 -138 -116.5t-170 -41.5zM582 252q103 0 170 69t67 173q0 90 -58.5 145t-154.5 55q-101 0 -168 -68.5t-67 -174.5
q0 -89 58 -144t153 -55z" />
    <glyph glyph-name="uni0431" unicode="&#x431;" horiz-adv-x="1214" 
d="M588 -31q-248 0 -379 145.5t-131 420.5t113 468.5t311 256.5q50 17 118.5 33.5t133.5 29.5t84 18q51 11 77.5 35.5t38.5 73.5h316q-31 -142 -92.5 -219.5t-163.5 -102.5q-43 -11 -196.5 -38t-201.5 -43q-100 -31 -159 -110t-68 -196h6q47 98 142 153.5t217 55.5
q185 0 300 -119t115 -309q0 -244 -162 -398.5t-419 -154.5zM600 252q106 0 175 71t69 181q0 88 -54.5 139t-148.5 51q-106 0 -176 -72t-70 -180q0 -88 55 -139t150 -51z" />
    <glyph glyph-name="uni0432" unicode="&#x432;" horiz-adv-x="1089" 
d="M836 498q170 -25 170 -197q0 -133 -107.5 -217t-269.5 -84h-627l184 946h564q301 0 301 -207q0 -87 -54 -152t-161 -87v-2zM625 575q49 0 77.5 22t28.5 60t-26.5 53t-75.5 15h-176l-29 -150h201zM582 223q53 0 83.5 26t30.5 68q0 74 -104 74h-205l-31 -168h226z" />
    <glyph glyph-name="uni0433" unicode="&#x433;" horiz-adv-x="784" 
d="M864 946l-49 -268h-369l-135 -678h-309l184 946h678z" />
    <glyph glyph-name="uni0434" unicode="&#x434;" horiz-adv-x="1243" 
d="M1016 248h162l-99 -514h-295l47 246h-622l-47 -246h-295l98 514h133q106 106 135 262l84 436h310h397h127zM541 502q-25 -134 -119 -254h297l80 448h-219z" />
    <glyph glyph-name="uni0435" unicode="&#x435;" horiz-adv-x="1075" 
d="M1053 594q0 -88 -29 -195h-678q21 -170 211 -170q148 0 291 84l96 -241q-201 -103 -407 -103q-223 0 -357.5 122.5t-134.5 332.5q0 81 20 158t64.5 149t108.5 125.5t159 86t209 32.5q204 0 325.5 -100.5t121.5 -280.5zM748 582q2 12 2 36q0 64 -43 101t-115 37
q-82 0 -142 -46.5t-88 -127.5h386z" />
    <glyph glyph-name="uni0436" unicode="&#x436;" horiz-adv-x="1708" 
d="M1784 946l-477 -469l299 -477h-359l-239 436l-86 -436h-289l84 434l-398 -434h-401l524 535l-264 411h359l206 -375l74 375h289l-72 -375l348 375h402z" />
    <glyph glyph-name="uni0437" unicode="&#x437;" horiz-adv-x="960" 
d="M393 -31q-260 0 -446 86l116 213q167 -67 351 -67q178 0 178 94q0 43 -34.5 63.5t-119.5 20.5h-198l41 205h202q142 0 142 90q0 38 -32.5 53.5t-100.5 15.5q-144 0 -324 -43l-70 220q216 57 416 57q202 0 310 -63.5t108 -188.5q0 -94 -66.5 -154t-191.5 -77v-5
q99 -10 151 -62t52 -140q0 -49 -15 -93t-51.5 -86t-90.5 -72t-138 -48.5t-189 -18.5z" />
    <glyph glyph-name="uni0438" unicode="&#x438;" horiz-adv-x="1177" 
d="M2 0l184 946h310l-101 -510h4l502 510h273l-185 -946h-309l100 510h-4l-502 -510h-272z" />
    <glyph glyph-name="uni0439" unicode="&#x439;" horiz-adv-x="1177" 
d="M1081 1339q-27 -149 -130 -240t-259 -91q-135 0 -213 68.5t-78 185.5q0 24 9 77h182q-2 -12 -2 -34q0 -111 119 -111q42 0 73 12.5t49.5 36t28 45t17.5 51.5h204zM2 0l184 946h310l-101 -510h4l502 510h273l-185 -946h-309l100 510h-4l-502 -510h-272z" />
    <glyph glyph-name="uni043A" unicode="&#x43a;" horiz-adv-x="1120" 
d="M1178 946l-478 -454l318 -492h-381l-240 434l-86 -434h-309l184 946h310l-72 -373l348 373h406z" />
    <glyph glyph-name="uni043B" unicode="&#x43b;" horiz-adv-x="1155" 
d="M1153 946l-184 -946h-310l136 668h-279l-67 -346q-30 -157 -132 -240.5t-247 -83.5h-140l56 289h63q41 0 67.5 25t39.5 89l106 545h891z" />
    <glyph glyph-name="uni043C" unicode="&#x43c;" horiz-adv-x="1427" 
d="M-72 0l480 946h223l92 -414h4l254 414h223l109 -946h-285l-45 502h-4l-221 -381h-191l-82 381h-4l-237 -502h-316z" />
    <glyph glyph-name="uni043D" unicode="&#x43d;" horiz-adv-x="1148" 
d="M838 946h309l-184 -946h-310l72 369h-342l-72 -369h-309l184 946h310l-60 -309h342z" />
    <glyph glyph-name="uni043E" unicode="&#x43e;" horiz-adv-x="1155" 
d="M541 -31q-106 0 -195.5 28.5t-157 83.5t-105.5 143.5t-38 201.5q0 154 69 278.5t200 198.5t302 74q141 0 250.5 -48.5t176.5 -153.5t67 -255q0 -154 -68.5 -278.5t-199.5 -198.5t-301 -74zM557 254q77 0 134.5 37.5t84.5 92.5t27 118q0 95 -58.5 142.5t-144.5 47.5
q-116 0 -182 -74.5t-66 -173.5q0 -95 59 -142.5t146 -47.5z" />
    <glyph glyph-name="uni043F" unicode="&#x43f;" horiz-adv-x="1179" 
d="M1176 946l-185 -946h-307l129 668h-371l-131 -668h-309l184 946h310h680z" />
    <glyph glyph-name="uni0440" unicode="&#x440;" 
d="M-78 -410l266 1356h310l-25 -125h4q56 70 139 113t181 43q73 0 139.5 -25t123.5 -75.5t90.5 -139.5t33.5 -205q0 -159 -61.5 -286t-179 -202t-271.5 -75q-234 0 -324 195h-4l-113 -574h-309zM621 252q107 0 172 71.5t65 172.5q0 95 -60 146.5t-151 51.5q-107 0 -172 -71
t-65 -172q0 -96 60 -147.5t151 -51.5z" />
    <glyph glyph-name="uni0441" unicode="&#x441;" horiz-adv-x="960" 
d="M549 -31q-103 0 -192.5 31t-158 89.5t-108 151t-39.5 208.5q0 111 36 205.5t106 167t181 114t251 41.5q210 0 385 -111l-154 -254q-127 84 -240 84q-119 0 -183 -66t-64 -165q0 -96 59.5 -154.5t153.5 -58.5q89 0 186 51l98 -260q-147 -74 -317 -74z" />
    <glyph glyph-name="uni0442" unicode="&#x442;" horiz-adv-x="931" 
d="M1014 946l-53 -278h-302l-131 -668h-309l131 668h-301l53 278h912z" />
    <glyph glyph-name="uni0443" unicode="&#x443;" horiz-adv-x="1124" 
d="M870 946h336l-858 -1356h-334l340 521l-252 835h330l121 -518z" />
    <glyph glyph-name="uni0444" unicode="&#x444;" horiz-adv-x="1806" 
d="M584 -410l104 539h-4q-117 -160 -291 -160q-68 0 -127.5 27t-107 79t-75.5 138t-28 195q0 157 53.5 285t160.5 206t249 78q116 0 190 -48.5t105 -129.5h4l117 583h297l-111 -565h4q117 160 297 160q67 0 125.5 -25t105.5 -75t74 -134t27 -194q0 -115 -31 -219.5
t-88.5 -185t-146.5 -128t-197 -47.5q-116 0 -190 48t-107 130h-4l-108 -557h-297zM1217 244q98 0 156.5 77t58.5 187q0 102 -48.5 149.5t-119.5 47.5q-101 0 -163.5 -77t-62.5 -188q0 -100 51 -148t128 -48zM547 244q101 0 163 76t62 186q0 100 -51 148t-127 48
q-98 0 -156.5 -77t-58.5 -187q0 -101 48.5 -147.5t119.5 -46.5z" />
    <glyph glyph-name="uni0445" unicode="&#x445;" horiz-adv-x="1138" 
d="M1208 946l-452 -465l280 -481h-327l-158 270l-262 -270h-371l494 510l-254 436h327l131 -225l220 225h372z" />
    <glyph glyph-name="uni0446" unicode="&#x446;" horiz-adv-x="1267" 
d="M1047 279h161l-106 -545h-295l51 266h-547h-309l184 946h310l-129 -667h370l131 667h310z" />
    <glyph glyph-name="uni0447" unicode="&#x447;" horiz-adv-x="1044" 
d="M731 946h309l-184 -946h-309l59 305h-250q-155 0 -231 58.5t-76 191.5q0 53 12 123l52 268h311l-47 -241q-6 -35 -6 -54q0 -45 26 -61.5t90 -16.5h172z" />
    <glyph glyph-name="uni0448" unicode="&#x448;" horiz-adv-x="1759" 
d="M1448 946h307l-184 -946h-307h-631h-510h-121l184 946h310l-129 -667h319l131 667h309l-131 -667h322z" />
    <glyph glyph-name="uni0449" unicode="&#x449;" horiz-adv-x="1845" 
d="M1626 279h160l-105 -545h-295l52 266h-496h-631h-309l184 946h310l-129 -667h319l131 667h309l-131 -667h322l131 667h307z" />
    <glyph glyph-name="uni044A" unicode="&#x44a;" horiz-adv-x="1249" 
d="M840 688q77 0 140 -16t113.5 -51t78.5 -96t28 -144q0 -169 -113 -275t-321 -106h-537l131 668h-309l51 278h619h2l-51 -258h168zM741 246q64 0 93.5 32t29.5 76q0 88 -121 88h-118l-39 -196h155z" />
    <glyph glyph-name="uni044B" unicode="&#x44b;" horiz-adv-x="1515" 
d="M614 688q76 0 138.5 -16t113.5 -51t79 -96t28 -144q0 -170 -112.5 -275.5t-321.5 -105.5h-537l184 946h310l-50 -258h168zM1204 946h309l-184 -946h-309zM514 246q66 0 94.5 32t28.5 76q0 88 -121 88h-119l-37 -196h154z" />
    <glyph glyph-name="uni044C" unicode="&#x44c;" horiz-adv-x="1021" 
d="M614 688q76 0 138.5 -16t113.5 -51t79 -96t28 -144q0 -170 -112.5 -275.5t-321.5 -105.5h-537l184 946h310l-50 -258h168zM514 246q66 0 94.5 32t28.5 76q0 88 -121 88h-119l-37 -196h154z" />
    <glyph glyph-name="uni044D" unicode="&#x44d;" horiz-adv-x="980" 
d="M446 977q223 0 350.5 -116t127.5 -339q0 -118 -37.5 -218.5t-109 -175.5t-182 -117t-249.5 -42q-207 0 -364 92l127 234q109 -57 233 -57q196 0 252 153h-305l37 182h276q-30 136 -196 136q-113 0 -220 -39l-86 252q177 55 346 55z" />
    <glyph glyph-name="uni044E" unicode="&#x44e;" horiz-adv-x="1619" 
d="M1081 977q105 0 194 -28.5t157 -83.5t106.5 -143.5t38.5 -201.5q0 -154 -69 -278.5t-200 -198.5t-302 -74q-129 0 -231.5 40t-172 126t-86.5 209h-137l-68 -344h-309l184 946h310l-68 -344h109q53 169 196 272t348 103zM1022 254q77 0 134.5 37.5t84.5 92.5t27 118
q0 95 -58.5 142.5t-144.5 47.5q-116 0 -182 -74.5t-66 -173.5q0 -95 59.5 -142.5t145.5 -47.5z" />
    <glyph glyph-name="uni044F" unicode="&#x44f;" horiz-adv-x="1095" 
d="M494 946h600l-185 -946h-309l59 305h-53l-303 -305h-375l344 330q-92 32 -144 102t-52 174q0 67 26 127t76 108t132 76.5t184 28.5zM575 713q-79 0 -115 -30t-36 -77q0 -53 32 -74.5t97 -21.5h147l39 203h-164z" />
    <glyph glyph-name="uni0451" unicode="&#x451;" horiz-adv-x="1075" 
d="M676 1329l-53 -276h-234l55 276h232zM1040 1329l-55 -276h-233l55 276h233zM1053 594q0 -88 -29 -195h-678q21 -170 211 -170q148 0 291 84l96 -241q-201 -103 -407 -103q-223 0 -357.5 122.5t-134.5 332.5q0 81 20 158t64.5 149t108.5 125.5t159 86t209 32.5
q204 0 325.5 -100.5t121.5 -280.5zM748 582q2 12 2 36q0 64 -43 101t-115 37q-82 0 -142 -46.5t-88 -127.5h386z" />
    <glyph glyph-name="uni0452" unicode="&#x452;" horiz-adv-x="1157" 
d="M797 977q62 0 114 -16.5t95 -51t67.5 -95.5t24.5 -144q0 -67 -19 -164l-100 -506l-18 -86q-66 -324 -412 -324h-137l53 275h80q50 0 78.5 19.5t40.5 84.5l6 31l92 457q10 62 10 98q0 152 -145 152q-175 0 -221 -234l-91 -473h-309l217 1118h-135l35 178h135l27 138h309
l-27 -138h291l-35 -178h-291l-59 -297h4q128 156 320 156z" />
    <glyph glyph-name="uni0453" unicode="&#x453;" horiz-adv-x="784" 
d="M1042 1346l-393 -316h-241l297 316h337zM864 946l-49 -268h-369l-135 -678h-309l184 946h678z" />
    <glyph glyph-name="uni0454" unicode="&#x454;" horiz-adv-x="970" 
d="M586 717q-95 0 -158.5 -41.5t-91.5 -108.5h326l-37 -184h-295q23 -71 82.5 -111.5t138.5 -40.5q92 0 205 50l80 -238q-147 -74 -318 -74q-103 0 -192.5 31t-158 89.5t-108 151t-39.5 208.5q0 110 36 204.5t105.5 167.5t180.5 114.5t252 41.5q208 0 385 -111l-135 -227
q-43 23 -71 36t-81.5 27.5t-105.5 14.5z" />
    <glyph glyph-name="uni0455" unicode="&#x455;" horiz-adv-x="864" 
d="M102 348q194 -127 316 -127q63 0 63 41q0 18 -11 29t-44 31l-131 73q-92 51 -137 117t-45 160q0 140 95 222.5t267 82.5q198 0 412 -103l-113 -229q-158 84 -282 84q-68 0 -68 -37q0 -17 13 -28.5t52 -34.5l125 -70q95 -49 140 -109.5t45 -160.5q0 -156 -102 -238
t-285 -82q-131 0 -241 38t-218 116z" />
    <glyph glyph-name="uni0456" unicode="&#x456;" horiz-adv-x="499" 
d="M602 1432l-61 -312h-332l61 312h332zM4 0l184 946h310l-185 -946h-309z" />
    <glyph glyph-name="uni0457" unicode="&#x457;" horiz-adv-x="499" 
d="M393 1329l-55 -276h-234l56 276h233zM674 1329l-53 -276h-234l53 276h234zM4 0l184 946h310l-185 -946h-309z" />
    <glyph glyph-name="uni0458" unicode="&#x458;" horiz-adv-x="501" 
d="M604 1432l-61 -312h-332l61 312h332zM-190 -129h55q113 0 137 119l186 956h312l-197 -1009q-70 -353 -453 -353h-96z" />
    <glyph glyph-name="uni0459" unicode="&#x459;" horiz-adv-x="1671" 
d="M1262 688q77 0 140 -16t113.5 -51t78.5 -96t28 -144q0 -169 -113 -275t-321 -106h-537l131 668h-266l-67 -346q-30 -157 -132 -240.5t-247 -83.5h-140l56 289h63q41 0 67.5 25t39.5 89l106 545h307h398h178l-51 -258h168zM1163 246q64 0 93.5 32t29.5 76q0 88 -121 88
h-118l-39 -196h155z" />
    <glyph glyph-name="uni045A" unicode="&#x45a;" horiz-adv-x="1673" 
d="M1245 670q82 0 148 -16t118.5 -50.5t81.5 -94.5t29 -142q0 -164 -112 -265.5t-318 -101.5h-539l82 424h-342l-82 -424h-309l184 946h310l-54 -276h342l54 276h309l-55 -276h153zM1159 246q129 0 129 98q0 46 -31.5 63t-95.5 17h-117l-34 -178h149z" />
    <glyph glyph-name="uni045B" unicode="&#x45b;" horiz-adv-x="1157" 
d="M797 977q62 0 114 -16.5t95 -51t67.5 -95.5t24.5 -144q0 -67 -19 -164l-100 -506h-309l92 457q10 62 10 98q0 152 -145 152q-175 0 -221 -234l-91 -473h-309l217 1118h-135l35 178h135l27 138h309l-27 -138h291l-35 -178h-291l-59 -297h4q128 156 320 156z" />
    <glyph glyph-name="uni045C" unicode="&#x45c;" horiz-adv-x="1120" 
d="M1151 1346l-393 -316h-242l297 316h338zM1178 946l-478 -454l318 -492h-381l-240 434l-86 -434h-309l184 946h310l-72 -373l348 373h406z" />
    <glyph glyph-name="uni045E" unicode="&#x45e;" horiz-adv-x="1124" 
d="M674 1008q-135 0 -213 68.5t-78 185.5q0 30 8 77h182q-2 -12 -2 -34q0 -111 119 -111q42 0 73 12.5t49.5 36t28 45t17.5 51.5h205q-27 -149 -130 -240t-259 -91zM870 946h336l-858 -1356h-334l340 521l-252 835h330l121 -518z" />
    <glyph glyph-name="uni045F" unicode="&#x45f;" horiz-adv-x="1144" 
d="M834 946h309l-185 -946h-340l-51 -266h-276l51 266h-340l184 946h310l-136 -678h338z" />
    <glyph glyph-name="uni0462" unicode="&#x462;" horiz-adv-x="1343" 
d="M844 924q77 0 143.5 -12t128.5 -42t105.5 -76.5t69.5 -120t26 -167.5q0 -124 -44.5 -221t-124 -159t-186 -94t-233.5 -32h-594l207 1059h-217l47 241h215l27 134h317l-26 -134h411l-45 -241h-412l-26 -135h211zM719 287q118 0 189 51t71 145q0 154 -195 154h-206
l-68 -350h209z" />
    <glyph glyph-name="uni0463" unicode="&#x463;" horiz-adv-x="1077" 
d="M668 688q76 0 139 -16t113.5 -51t79 -96t28.5 -144q0 -169 -113 -275t-321 -106h-537l154 791h-184l28 155h187l94 488h309l-94 -488h278l-28 -155h-281l-20 -103h168zM569 246q64 0 93.5 32t29.5 76q0 88 -121 88h-118l-39 -196h155z" />
    <glyph glyph-name="uni0472" unicode="&#x472;" horiz-adv-x="1636" 
d="M926 1464q210 0 370.5 -82.5t250 -237.5t89.5 -360q0 -168 -60.5 -317.5t-168 -259.5t-263.5 -174t-337 -64q-210 0 -371.5 82.5t-251.5 237.5t-90 360q0 168 61 317.5t169 259.5t264.5 174t337.5 64zM907 1147q-182 0 -300.5 -98.5t-157.5 -251.5h851
q-7 169 -115.5 259.5t-277.5 90.5zM825 287q181 0 300.5 99t158.5 251h-854q9 -169 117.5 -259.5t277.5 -90.5z" />
    <glyph glyph-name="uni0473" unicode="&#x473;" horiz-adv-x="1155" 
d="M616 977q104 0 193 -28.5t156.5 -83.5t106 -143.5t38.5 -201.5q0 -154 -68.5 -278.5t-199 -198.5t-301.5 -74q-105 0 -194 28.5t-157 83.5t-106.5 143.5t-38.5 201.5q0 154 68.5 278.5t199.5 198.5t303 74zM600 711q-99 0 -165.5 -47.5t-94.5 -122.5h489
q-13 85 -77.5 127.5t-151.5 42.5zM557 236q101 0 168 51t94 131h-493q8 -92 73.5 -137t157.5 -45z" />
    <glyph glyph-name="uni0474" unicode="&#x474;" horiz-adv-x="1503" 
d="M1380 1034l-594 -1034h-335l-265 1434h353l131 -1031h4l340 635q44 81 72 129t66 102t72 83t79.5 55t99.5 36.5t121 10.5q74 0 168 -12l-64 -297q-47 6 -84 6q-96 0 -164 -117z" />
    <glyph glyph-name="uni0475" unicode="&#x475;" horiz-adv-x="1091" 
d="M1149 965h29l-56 -285h-20q-66 0 -109 -68l-372 -612h-310l-209 946h314l90 -600l219 404q66 124 168 169.5t256 45.5z" />
    <glyph glyph-name="uni048E" unicode="&#x48e;" horiz-adv-x="1210" 
d="M1272 1006q0 -136 -62 -247.5t-184 -178.5l100 -144l-102 -71l-117 163q-112 -36 -270 -36h-191l-96 -492h-317l278 1434h449q130 0 229.5 -33t160.5 -92t91.5 -135.5t30.5 -167.5zM741 983l111 -156q78 56 78 156q0 162 -211 162h-146l-71 -367h168q23 0 59 4l-90 129z
" />
    <glyph glyph-name="uni048F" unicode="&#x48f;" 
d="M1184 532q0 -146 -53.5 -266.5t-151.5 -195.5l94 -125l-90 -76l-109 139q-92 -39 -202 -39q-234 0 -324 195h-4l-113 -574h-309l266 1356h310l-25 -125h4q56 70 139 113t181 43q73 0 139.5 -25t123.5 -75.5t90.5 -139.5t33.5 -205zM621 252q33 0 63 6l-86 113l90 78
l100 -132q70 73 70 179q0 95 -60 146.5t-151 51.5q-107 0 -172 -71t-65 -172q0 -96 60 -147.5t151 -51.5z" />
    <glyph glyph-name="uni0490" unicode="&#x490;" horiz-adv-x="1048" 
d="M33 0l278 1434h596l56 286h317l-113 -585h-596l-221 -1135h-317z" />
    <glyph glyph-name="uni0491" unicode="&#x491;" horiz-adv-x="843" 
d="M672 1233h309l-107 -555h-428l-135 -678h-309l184 946h430z" />
    <glyph glyph-name="uni0492" unicode="&#x492;" horiz-adv-x="1101" 
d="M1219 1135h-557l-64 -322h383l-59 -276h-377l-105 -537h-317l104 537h-204l59 276h199l120 621h875z" />
    <glyph glyph-name="uni0493" unicode="&#x493;" horiz-adv-x="831" 
d="M862 678h-370l-31 -158h256l-43 -223h-256l-60 -297h-309l57 297h-118l43 223h119l83 426h678z" />
    <glyph glyph-name="uni0494" unicode="&#x494;" horiz-adv-x="1288" 
d="M874 823q383 0 383 -280q0 -71 -18 -162l-72 -373q-22 -113 -67.5 -196t-108 -130.5t-134 -69.5t-155.5 -22h-208l57 297h115q85 0 129.5 38.5t62.5 133.5l55 279q11 61 11 84q0 64 -38.5 83t-127.5 19q-136 0 -309 -18l-99 -506h-317l278 1434h875l-58 -299h-557
l-65 -330q176 18 368 18z" />
    <glyph glyph-name="uni0495" unicode="&#x495;" horiz-adv-x="1085" 
d="M672 526q160 0 239.5 -63.5t79.5 -198.5q0 -58 -14 -133l-39 -201q-33 -167 -145 -253.5t-273 -86.5h-158l54 279h86q116 0 143 154l19 96q8 46 8 59q0 44 -29 61t-92 17q-99 0 -193 -20l-47 -236h-309l184 946h762l-53 -278h-453l-32 -164q165 22 262 22z" />
    <glyph glyph-name="uni0496" unicode="&#x496;" horiz-adv-x="2332" 
d="M1729 729l339 -502h232l-100 -514h-299l57 287h-146l-440 707l-137 -707h-301l137 707l-692 -707h-471l817 786l-397 648h395l362 -654l127 654h301l-127 -654l611 654h442z" />
    <glyph glyph-name="uni0497" unicode="&#x497;" horiz-adv-x="1814" 
d="M1307 477l204 -325h222l-82 -418h-277l51 266h-178l-239 436l-86 -436h-289l84 434l-398 -434h-401l524 535l-264 411h359l206 -375l74 375h289l-72 -375l348 375h402z" />
    <glyph glyph-name="uni0498" unicode="&#x498;" horiz-adv-x="1191" 
d="M823 758q143 -25 218 -113.5t75 -232.5q0 -204 -142.5 -320t-406.5 -123l-30 -47q82 -17 122.5 -45t40.5 -84q0 -34 -19.5 -63t-51.5 -51t-84.5 -43t-106 -36.5t-127.5 -33.5l-26 78q134 51 162 70q30 21 30 44q0 22 -22.5 33.5t-79.5 24.5l90 155q-260 14 -490 140
l154 268q208 -111 410 -111q129 0 199.5 42.5t70.5 123.5q0 83 -80.5 123.5t-247.5 40.5h-116l53 281h110q158 0 248 45t90 125q0 58 -50.5 89t-141.5 31q-78 0 -184 -21.5t-201 -55.5l-92 272q282 100 503 100q235 0 365.5 -91.5t130.5 -256.5q0 -141 -93.5 -230.5
t-277.5 -123.5z" />
    <glyph glyph-name="uni0499" unicode="&#x499;" horiz-adv-x="960" 
d="M674 489q99 -10 151 -62t52 -140q0 -59 -23.5 -111.5t-73 -98t-137.5 -74.5t-205 -34l-30 -47q82 -17 122.5 -45t40.5 -84q0 -34 -19.5 -63t-51.5 -51t-84.5 -43t-106 -36.5t-127.5 -33.5l-26 78q134 51 162 70q30 21 30 44q0 22 -22.5 33.5t-79.5 24.5l88 155
q-221 9 -387 84l116 213q167 -67 351 -67q178 0 178 94q0 43 -34.5 63.5t-119.5 20.5h-198l41 205h202q142 0 142 90q0 38 -32.5 53.5t-100.5 15.5q-144 0 -324 -43l-70 220q216 57 416 57q202 0 310 -63.5t108 -188.5q0 -94 -66.5 -154t-191.5 -77v-5z" />
    <glyph glyph-name="uni049A" unicode="&#x49a;" horiz-adv-x="1480" 
d="M815 725l379 -498h254l-100 -514h-297l55 287h-158l-465 688l-133 -688h-317l278 1434h318l-123 -633l614 633h443z" />
    <glyph glyph-name="uni049B" unicode="&#x49b;" horiz-adv-x="1163" 
d="M700 492l220 -340h167l-79 -418h-277l51 266h-145l-240 434l-86 -434h-309l184 946h310l-72 -373l348 373h406z" />
    <glyph glyph-name="uni049C" unicode="&#x49c;" horiz-adv-x="1566" 
d="M1659 1434l-655 -703l471 -731h-420l-346 616h-35l-51 -260h-121l51 260h-84l-119 -616h-317l278 1434h318l-103 -521h84l47 248h123l-49 -248h53l443 521h432z" />
    <glyph glyph-name="uni049D" unicode="&#x49d;" horiz-adv-x="1218" 
d="M1278 946l-457 -454l295 -492h-381l-186 369h-39l-33 -168h-57l33 168h-70l-72 -369h-309l184 946h310l-62 -321h68l37 188h57l-37 -188h29l282 321h408z" />
    <glyph glyph-name="uni049E" unicode="&#x49e;" horiz-adv-x="1540" 
d="M1642 1434l-745 -709l551 -725h-420l-465 688l-133 -688h-317l219 1126h-193l45 236h193l14 72h318l-15 -72h197l-45 -236h-197l-63 -325l614 633h442z" />
    <glyph glyph-name="uni049F" unicode="&#x49f;" horiz-adv-x="1124" 
d="M1182 946l-480 -454l320 -492h-383l-240 432l-84 -432h-309l217 1118h-135l35 178h135l27 138h309l-27 -138h291l-35 -178h-291l-104 -543l346 371h408z" />
    <glyph glyph-name="uni04A0" unicode="&#x4a0;" horiz-adv-x="1761" 
d="M1862 1434l-746 -709l551 -725h-420l-465 688l-133 -688h-317l221 1137h-414l58 297h731l-8 -37l-115 -596l614 633h443z" />
    <glyph glyph-name="uni04A1" unicode="&#x4a1;" horiz-adv-x="1347" 
d="M1405 946l-479 -454l319 -492h-383l-239 432l-84 -432h-310l131 668h-311l53 278h396h225l-72 -371l346 371h408z" />
    <glyph glyph-name="uni04A2" unicode="&#x4a2;" horiz-adv-x="1509" 
d="M1540 1434l-233 -1207h170l-101 -514h-297l56 287h-191l119 602h-596l-117 -602h-317l278 1434h318l-105 -533h596l103 533h317z" />
    <glyph glyph-name="uni04A3" unicode="&#x4a3;" horiz-adv-x="1230" 
d="M991 152h158l-82 -418h-276l51 266h-189l72 369h-342l-72 -369h-309l184 946h310l-60 -309h342l60 309h309z" />
    <glyph glyph-name="uni04A4" unicode="&#x4a4;" horiz-adv-x="1863" 
d="M2040 1434l-58 -297h-499l-221 -1137h-318l119 602h-596l-117 -602h-317l278 1434h318l-105 -533h596l103 533h817z" />
    <glyph glyph-name="uni04A5" unicode="&#x4a5;" horiz-adv-x="1431" 
d="M1513 946l-49 -260h-368l-133 -686h-310l72 369h-342l-72 -369h-309l184 946h310l-60 -309h342l60 309h675z" />
    <glyph glyph-name="uni04A6" unicode="&#x4a6;" horiz-adv-x="2203" 
d="M1790 883q74 0 129.5 -6t108.5 -23t86.5 -46t54 -78t20.5 -116q0 -61 -16 -139l-16 -84q-41 -214 -156 -302.5t-307 -88.5h-191l58 297h94q89 0 132 28.5t58 100.5l4 16q6 27 6 54q0 53 -38.5 70.5t-137.5 17.5q-122 0 -307 -19l-110 -565h-318l221 1137h-594l-221 -1137
h-317l278 1434h1229l-110 -568q183 17 360 17z" />
    <glyph glyph-name="uni04A7" unicode="&#x4a7;" horiz-adv-x="1736" 
d="M1372 621q160 0 240 -63.5t80 -197.5q0 -52 -15 -133l-59 -297q-33 -165 -145 -252.5t-273 -87.5h-158l54 279h86q59 0 93.5 38.5t49.5 115.5l39 192q8 46 8 59q0 44 -29 61t-92 17q-81 0 -194 -20l-66 -332h-307l129 668h-371l-131 -668h-309l184 946h310h555h125
l-68 -348q151 23 264 23z" />
    <glyph glyph-name="uni04A8" unicode="&#x4a8;" horiz-adv-x="1724" 
d="M1628 37q-171 -68 -348 -68q-178 0 -279 64q-98 -64 -245 -64q-298 0 -469.5 183.5t-171.5 494.5q0 134 36.5 256t110 224.5t177 177.5t246 117t308.5 42q146 0 291 -34l-94 -277q-93 21 -180 21q-137 0 -243 -41.5t-170.5 -115t-97 -167.5t-32.5 -205q0 -190 77.5 -296
t215.5 -118q-82 122 -82 297q0 146 56 266t169.5 194.5t265.5 74.5q86 0 159 -24.5t128 -72t86 -123.5t31 -173q0 -146 -65.5 -261t-172.5 -192q110 0 244 51zM1153 774q-80 0 -121 -73t-41 -177q0 -138 74 -215q89 57 142 141.5t53 184.5q0 139 -107 139z" />
    <glyph glyph-name="uni04A9" unicode="&#x4a9;" horiz-adv-x="1255" 
d="M1118 178l37 -166q-121 -43 -215 -43q-123 0 -195 58q-98 -58 -243 -58q-216 0 -335.5 120.5t-119.5 336.5q0 111 33.5 203t92.5 156t139.5 107.5t172.5 64t195 20.5q97 0 215 -31l-74 -229q-65 18 -133 18q-150 0 -243 -80t-93 -233q0 -200 172 -240q-37 70 -37 158
q0 143 97 241.5t264 98.5q136 0 216.5 -68t80.5 -194q0 -166 -152 -275q54 5 125 35zM834 473q-60 0 -86.5 -46t-26.5 -103q0 -77 43 -123q67 27 105 75t38 113q0 84 -73 84z" />
    <glyph glyph-name="uni04AA" unicode="&#x4aa;" horiz-adv-x="1413" 
d="M1319 109q-238 -134 -481 -140l-31 -47q82 -17 123 -45t41 -84q0 -34 -19.5 -63t-51.5 -51t-84.5 -43t-106 -36.5t-127.5 -33.5l-27 78q7 3 21 8q98 37 135 57.5t37 48.5q0 22 -23 33.5t-80 24.5l90 157q-289 25 -463 213.5t-174 481.5q0 172 62.5 320t174 252.5t271 164
t346.5 59.5q318 0 545 -151l-192 -281q-159 111 -357 111q-226 0 -364 -129.5t-138 -339.5q0 -173 105 -280t274 -107q168 0 361 102z" />
    <glyph glyph-name="uni04AB" unicode="&#x4ab;" horiz-adv-x="960" 
d="M866 43q-139 -68 -288 -74l-31 -47q82 -17 123 -45t41 -84q0 -34 -19.5 -63t-51.5 -51t-84.5 -43t-106 -36.5t-127.5 -33.5l-27 78q134 51 162 70q30 21 30 44q0 22 -22.5 33.5t-79.5 24.5l90 157q-188 21 -306 144.5t-118 331.5q0 111 36 205.5t106 167t181 114
t251 41.5q210 0 385 -111l-154 -254q-127 84 -240 84q-119 0 -183 -66t-64 -165q0 -96 59.5 -154.5t153.5 -58.5q89 0 186 51z" />
    <glyph glyph-name="uni04AC" unicode="&#x4ac;" horiz-adv-x="1093" 
d="M1214 1145h-376l-181 -918h170l-100 -514h-297l55 287h-188l223 1145h-379l56 289h1073z" />
    <glyph glyph-name="uni04AD" unicode="&#x4ad;" horiz-adv-x="931" 
d="M961 668h-302l-100 -516h156l-82 -418h-277l52 266h-189l131 668h-301l53 278h912z" />
    <glyph glyph-name="uni04AE" unicode="&#x4ae;" horiz-adv-x="1351" 
d="M1536 1434l-694 -920l-101 -514h-317l100 516l-338 918h349l182 -603h4l418 603h397z" />
    <glyph glyph-name="uni04AF" unicode="&#x4af;" horiz-adv-x="1116" 
d="M1198 946l-577 -946l-80 -410h-310l80 412l-209 944h322l90 -598l324 598h360z" />
    <glyph glyph-name="uni04B0" unicode="&#x4b0;" horiz-adv-x="1349" 
d="M1536 1434l-674 -891h291l-53 -258l-305 -2l-54 -283h-317l53 283h-303l53 260h287l-328 891h349l180 -600h4l418 600h399z" />
    <glyph glyph-name="uni04B1" unicode="&#x4b1;" horiz-adv-x="1116" 
d="M1198 946l-569 -932h223l-37 -211h-233l-41 -213h-310l41 213h-231l35 211h233l-207 932h322l90 -598l324 598h360z" />
    <glyph glyph-name="uni04B2" unicode="&#x4b2;" horiz-adv-x="1576" 
d="M1010 739l264 -512h270l-102 -514h-297l55 287h-180l-242 506l-436 -506h-432l704 782l-342 652h373l201 -420l366 420h430z" />
    <glyph glyph-name="uni04B3" unicode="&#x4b3;" horiz-adv-x="1214" 
d="M756 481l192 -329h182l-79 -418h-279l51 266h-114l-158 270l-262 -270h-371l494 510l-254 436h327l131 -225l220 225h372z" />
    <glyph glyph-name="uni04B4" unicode="&#x4b4;" horiz-adv-x="1771" 
d="M1753 1434l-221 -1137h190l-112 -584h-299l55 287h-1087l221 1137h-361l58 297h677h340l-57 -297h-340l-164 -840h561l222 1137h317z" />
    <glyph glyph-name="uni04B5" unicode="&#x4b5;" horiz-adv-x="1509" 
d="M1288 279h162l-104 -545h-295l51 266h-547h-309l131 668h-328l53 278h637h248l-53 -278h-248l-78 -389h371l131 667h309z" />
    <glyph glyph-name="uni04B6" unicode="&#x4b6;" horiz-adv-x="1339" 
d="M1350 1434l-236 -1207h193l-101 -514h-297l56 287h-211l102 532h-360q-194 0 -288.5 72.5t-94.5 224.5q0 65 14 134l92 471h318l-88 -445q-5 -20 -5 -45q0 -56 32.5 -84.5t90.5 -28.5h348l117 603h318z" />
    <glyph glyph-name="uni04B7" unicode="&#x4b7;" horiz-adv-x="1146" 
d="M887 152h176l-82 -418h-276l51 266h-209l59 305h-250q-155 0 -231 58.5t-76 191.5q0 53 12 123l52 268h311l-47 -241q-6 -35 -6 -54q0 -45 26 -61.5t90 -16.5h172l72 373h309z" />
    <glyph glyph-name="uni04B8" unicode="&#x4b8;" horiz-adv-x="1288" 
d="M1032 1434h318l-279 -1434h-317l102 532h-174l-47 -237h-121l47 237h-65q-194 0 -288.5 72.5t-94.5 224.5q0 65 14 134l92 471h318l-88 -445q-5 -20 -5 -45q0 -56 32.5 -84.5t90.5 -28.5h51l54 271h121l-54 -271h176z" />
    <glyph glyph-name="uni04B9" unicode="&#x4b9;" horiz-adv-x="1044" 
d="M731 946h309l-184 -946h-309l59 305h-117l-30 -164h-62l31 164h-72q-155 0 -231 58.5t-76 191.5q0 53 12 123l52 268h311l-47 -241q-6 -35 -6 -54q0 -45 24 -60.5t86 -17.5l33 177h61l-32 -177h116z" />
    <glyph glyph-name="uni04BA" unicode="&#x4ba;" horiz-adv-x="1288" 
d="M885 901q196 0 290.5 -72.5t94.5 -224.5q0 -60 -15 -133l-92 -471h-317l86 444q4 16 4 45q0 113 -123 113h-346l-117 -602h-317l278 1434h318l-105 -533h361z" />
    <glyph glyph-name="uni04BB" unicode="&#x4bb;" horiz-adv-x="1155" 
d="M4 0l279 1434h309l-121 -613h4q128 156 320 156q62 0 114 -16.5t95 -51t67.5 -95.5t24.5 -144q0 -67 -19 -164l-100 -506h-309l92 457q10 46 10 98q0 152 -145 152q-176 0 -222 -234l-90 -473h-309z" />
    <glyph glyph-name="uni04BC" unicode="&#x4bc;" horiz-adv-x="1961" 
d="M1972 864q0 -131 -33 -280h-4h-1104q21 -150 120 -223.5t266 -73.5q118 0 227 36t237 109l136 -287q-292 -176 -603 -176q-315 0 -512 165.5t-223 447.5h-61q-67 0 -124 15.5t-103 47t-72.5 86t-26.5 125.5q0 123 72 242h258q-51 -86 -51 -158q0 -43 24.5 -64.5
t67.5 -21.5h33q61 272 278 441t531 169q306 0 486.5 -163t180.5 -437zM1296 1174q-171 0 -285.5 -86.5t-158.5 -233.5h797v14q0 146 -96 226t-257 80z" />
    <glyph glyph-name="uni04BD" unicode="&#x4bd;" horiz-adv-x="1314" 
d="M1292 594q0 -91 -28 -195h-680q11 -86 62.5 -128t150.5 -42q147 0 290 84l97 -241q-201 -103 -408 -103q-217 0 -349.5 115t-141.5 315h-31q-219 0 -219 176q0 46 16 99h172q-6 -15 -6 -45q0 -47 53 -47h35q21 81 64 150t108 124.5t159.5 87t207.5 31.5q206 0 327 -100.5
t121 -280.5zM987 582q0 6 1 17.5t1 18.5q0 64 -42.5 100t-115.5 36q-82 0 -141.5 -46t-87.5 -126h385z" />
    <glyph glyph-name="uni04BE" unicode="&#x4be;" horiz-adv-x="1961" 
d="M1972 864q0 -131 -33 -280h-4h-1104q21 -150 120 -223.5t266 -73.5q118 0 227 36t237 109l136 -287q-131 -80 -281 -127q-106 -84 -156.5 -135.5t-50.5 -81.5q0 -18 13.5 -28.5t35.5 -10.5q11 0 78 13v-189q-98 -20 -156 -20q-92 0 -146 40t-54 115q0 126 168 250
q-18 -2 -54 -2q-315 0 -512 165.5t-223 447.5h-61q-67 0 -124 15.5t-103 47t-72.5 86t-26.5 125.5q0 123 72 242h258q-51 -86 -51 -158q0 -43 24.5 -64.5t67.5 -21.5h33q61 272 278 441t531 169q306 0 486.5 -163t180.5 -437zM1296 1174q-171 0 -285.5 -86.5t-158.5 -233.5
h797v14q0 146 -96 226t-257 80z" />
    <glyph glyph-name="uni04BF" unicode="&#x4bf;" horiz-adv-x="1314" 
d="M1292 594q0 -91 -28 -195h-680q11 -86 62.5 -128t150.5 -42q147 0 290 84l97 -241q-62 -33 -135 -58q-102 -80 -151.5 -131t-49.5 -82q0 -18 13.5 -28.5t35.5 -10.5q11 0 78 13v-189q-98 -20 -158 -20q-91 0 -145 40t-54 115q0 125 166 248h-8q-217 0 -349.5 115
t-141.5 315h-31q-219 0 -219 176q0 46 16 99h172q-6 -15 -6 -45q0 -47 53 -47h35q21 81 64 150t108 124.5t159.5 87t207.5 31.5q206 0 327 -100.5t121 -280.5zM987 582q0 6 1 17.5t1 18.5q0 64 -42.5 100t-115.5 36q-82 0 -141.5 -46t-87.5 -126h385z" />
    <glyph glyph-name="uni04C0" unicode="&#x4c0;" horiz-adv-x="567" 
d="M33 0l278 1434h318l-279 -1434h-317z" />
    <glyph glyph-name="uni04C1" unicode="&#x4c1;" horiz-adv-x="2316" 
d="M1386 1483q-149 0 -226 61t-77 168q0 29 4 57h201q-2 -10 -2 -28q0 -42 28.5 -68t84.5 -26q127 0 149 122h211q-35 -142 -124.5 -214t-248.5 -72zM2439 1434l-710 -705l493 -729h-410l-440 707l-137 -707h-301l137 707l-692 -707h-471l817 786l-397 648h395l362 -654
l127 654h301l-127 -654l611 654h442z" />
    <glyph glyph-name="uni04C2" unicode="&#x4c2;" horiz-adv-x="1708" 
d="M975 1008q-135 0 -213 68.5t-78 185.5q0 30 8 77h182q-2 -12 -2 -34q0 -111 119 -111q42 0 73 12.5t49.5 36t28 45t17.5 51.5h205q-27 -149 -130 -240t-259 -91zM1784 946l-477 -469l299 -477h-359l-239 436l-86 -436h-289l84 434l-398 -434h-401l524 535l-264 411h359
l206 -375l74 375h289l-72 -375l348 375h402z" />
    <glyph glyph-name="uni04C3" unicode="&#x4c3;" horiz-adv-x="1376" 
d="M924 795q175 0 264.5 -65.5t89.5 -213.5q0 -72 -23 -190l-59 -318q-43 -223 -159 -320.5t-308 -97.5h-209l58 297h114q85 0 130 38.5t63 133.5l49 252q10 44 10 90q0 79 -39 104t-141 25q-128 0 -315 -22l-99 -508h-317l278 1434h318l-117 -598l592 598h426l-713 -643
q78 4 107 4z" />
    <glyph glyph-name="uni04C4" unicode="&#x4c4;" horiz-adv-x="1095" 
d="M719 512q149 0 221 -57t72 -176q0 -43 -15 -127l-43 -222q-34 -170 -151.5 -255t-282.5 -85h-139l53 279h109q59 0 93.5 38t49.5 116l27 135q6 30 6 53q0 52 -31 70t-100 18q-107 0 -221 -12l-56 -287h-309l184 946h310l-64 -330l342 330h381l-508 -436q25 2 72 2z" />
    <glyph glyph-name="uni04C5" unicode="&#x4c5;" horiz-adv-x="1568" 
d="M1597 1434l-241 -1241h178l-285 -459l-237 2l153 264h-164l220 1135h-537l-158 -820q-62 -321 -432 -321h-145l57 297h109q41 0 69 25t37 75l205 1043h315h856z" />
    <glyph glyph-name="uni04C6" unicode="&#x4c6;" horiz-adv-x="1247" 
d="M1006 193h198l-284 -459l-240 2l154 264h-175l136 668h-279l-67 -346q-30 -157 -132 -240.5t-247 -83.5h-140l56 289h63q41 0 67.5 25t39.5 89l106 545h307h584z" />
    <glyph glyph-name="uni04C7" unicode="&#x4c7;" horiz-adv-x="1480" 
d="M1223 1434h319l-289 -1479q-34 -193 -136 -279t-265 -86h-205l60 297h108q61 0 89.5 24.5t39.5 78.5l119 614h-596l-117 -604h-317l278 1434h318l-103 -533h594z" />
    <glyph glyph-name="uni04C8" unicode="&#x4c8;" horiz-adv-x="1148" 
d="M1147 946l-184 -946l-19 -86q-66 -324 -412 -324h-137l54 275h79q50 0 78.5 19.5t40.5 84.5l6 31l72 369h-342l-72 -369h-309l184 946h310l-60 -309h342l60 309h309z" />
    <glyph glyph-name="uni04C9" unicode="&#x4c9;" horiz-adv-x="1531" 
d="M1540 1434l-240 -1241h197l-285 -459l-237 2l153 264h-184l119 602h-596l-117 -602h-317l278 1434h318l-105 -533h596l103 533h317z" />
    <glyph glyph-name="uni04CA" unicode="&#x4ca;" horiz-adv-x="1239" 
d="M999 193h197l-283 -459l-239 2l153 264h-174l72 369h-342l-72 -369h-309l184 946h310l-60 -309h342l60 309h309z" />
    <glyph glyph-name="uni04CB" unicode="&#x4cb;" horiz-adv-x="1288" 
d="M1350 1434l-279 -1434h-213l-55 -287h-297l100 514h191l59 305h-360q-194 0 -288.5 72.5t-94.5 224.5q0 65 14 134l92 471h318l-88 -445q-5 -20 -5 -45q0 -56 32.5 -84.5t90.5 -28.5h348l117 603h318z" />
    <glyph glyph-name="uni04CC" unicode="&#x4cc;" horiz-adv-x="1044" 
d="M1040 946l-184 -946h-211l-51 -266h-277l82 418h179l28 153h-250q-155 0 -231 58.5t-76 191.5q0 53 12 123l52 268h311l-47 -241q-6 -35 -6 -54q0 -45 26 -61.5t90 -16.5h172l72 373h309z" />
    <glyph glyph-name="uni04CD" unicode="&#x4cd;" horiz-adv-x="1939" 
d="M1716 193h189l-283 -459l-240 2l154 264h-121l-37 827h-4l-389 -622h-221l-150 622h-4l-354 -827h-348l641 1434h239l160 -738h4l445 738h241z" />
    <glyph glyph-name="uni04CE" unicode="&#x4ce;" horiz-adv-x="1542" 
d="M1292 193h207l-285 -459l-237 2l153 264h-102l-45 502h-4l-221 -381h-191l-82 381h-4l-237 -502h-316l480 946h223l92 -414h4l254 414h223z" />
    <glyph glyph-name="uni04CF" unicode="&#x4cf;" horiz-adv-x="499" 
d="M4 0l184 946h310l-185 -946h-309z" />
    <glyph glyph-name="uni04D0" unicode="&#x4d0;" horiz-adv-x="1466" 
d="M942 1483q-149 0 -226 61t-77 168q0 29 4 57h201q-2 -10 -2 -28q0 -42 28 -68t84 -26q63 0 101 31.5t49 90.5h211q-35 -142 -124.5 -214t-248.5 -72zM1034 0l-45 291h-553l-157 -291h-371l844 1434h335l287 -1434h-340zM584 563h362l-82 516z" />
    <glyph glyph-name="uni04D1" unicode="&#x4d1;" horiz-adv-x="1216" 
d="M1098 1339q-27 -149 -130 -240t-259 -91q-135 0 -213 68.5t-78 185.5q0 30 8 77h182q-2 -12 -2 -34q0 -111 119 -111q42 0 73 12.5t49.5 36t28 45t17.5 51.5h205zM444 -31q-184 0 -291.5 119.5t-107.5 325.5q0 249 140.5 406t361.5 157q117 0 203 -50.5t129 -144.5h6
l30 164h308l-185 -946h-307l25 127h-4q-57 -75 -138 -116.5t-170 -41.5zM582 252q103 0 170 69t67 173q0 90 -58.5 145t-154.5 55q-101 0 -168 -68.5t-67 -174.5q0 -89 58 -144t153 -55z" />
    <glyph glyph-name="uni04D2" unicode="&#x4d2;" horiz-adv-x="1466" 
d="M893 1755l-45 -233h-273l46 233h272zM1337 1755l-45 -233h-274l45 233h274zM1034 0l-45 291h-553l-157 -291h-371l844 1434h335l287 -1434h-340zM584 563h362l-82 516z" />
    <glyph glyph-name="uni04D3" unicode="&#x4d3;" horiz-adv-x="1216" 
d="M702 1329l-53 -276h-233l55 276h231zM1067 1329l-55 -276h-234l56 276h233zM444 -31q-184 0 -291.5 119.5t-107.5 325.5q0 249 140.5 406t361.5 157q117 0 203 -50.5t129 -144.5h6l30 164h308l-185 -946h-307l25 127h-4q-57 -75 -138 -116.5t-170 -41.5zM582 252
q103 0 170 69t67 173q0 90 -58.5 145t-154.5 55q-101 0 -168 -68.5t-67 -174.5q0 -89 58 -144t153 -55z" />
    <glyph glyph-name="uni04D4" unicode="&#x4d4;" horiz-adv-x="2056" 
d="M2114 1145h-529l-47 -234h471l-55 -288h-471l-66 -334h537l-56 -289h-667h-176l55 291h-541l-237 -291h-424l1227 1434h505h529zM799 573h366l115 588z" />
    <glyph glyph-name="uni04D5" unicode="&#x4d5;" horiz-adv-x="1691" 
d="M377 -31q-164 0 -269.5 82t-105.5 238t114.5 253t301.5 97q99 0 173.5 -29t115.5 -78h6q12 70 12 93q0 54 -45.5 85t-134.5 31q-118 0 -283 -41l-39 236q189 41 350 41q61 0 108.5 -7.5t91 -26t74.5 -54t48 -86.5h4q56 83 147.5 127.5t208.5 44.5q81 0 153.5 -23t131 -68
t93 -120.5t34.5 -171.5q0 -64 -27 -193h-671v-16q0 -73 59 -117.5t152 -44.5q141 0 282 92l94 -219q-189 -125 -391 -125q-137 0 -236.5 52t-150.5 145h-4q-134 -197 -397 -197zM1010 582h360q2 12 2 32q0 62 -39.5 96.5t-107.5 34.5q-81 0 -136 -44t-79 -119zM494 201
q78 0 131 36t53 97q0 50 -40.5 78t-107.5 28q-79 0 -129.5 -36t-50.5 -97q0 -50 37.5 -78t106.5 -28z" />
    <glyph glyph-name="uni04D6" unicode="&#x4d6;" horiz-adv-x="1085" 
d="M815 1483q-149 0 -226 61t-77 168q0 29 4 57h201q-2 -10 -2 -28q0 -42 28 -68t84 -26q63 0 101 31.5t49 90.5h211q-35 -142 -124.5 -214t-248.5 -72zM1141 1145h-568l-45 -234h512l-55 -288h-514l-65 -334h579l-55 -289h-897l278 1434h887z" />
    <glyph glyph-name="uni04D7" unicode="&#x4d7;" horiz-adv-x="1075" 
d="M680 1008q-135 0 -213 68.5t-78 185.5q0 30 8 77h183q-2 -12 -2 -34q0 -111 118 -111q42 0 73 12.5t49.5 36t28 45t17.5 51.5h205q-27 -149 -130 -240t-259 -91zM606 975q204 0 325.5 -100.5t121.5 -280.5q0 -88 -29 -195h-678q21 -170 211 -170q148 0 291 84l96 -241
q-201 -103 -407 -103q-223 0 -357.5 122.5t-134.5 332.5q0 81 20 158t64.5 149t108.5 125.5t159 86t209 32.5zM748 582q2 12 2 36q0 64 -43 101t-115 37q-82 0 -142 -46.5t-88 -127.5h386z" />
    <glyph glyph-name="uni04D8" unicode="&#x4d8;" horiz-adv-x="1603" 
d="M842 1464q229 0 398 -75.5t265.5 -231t96.5 -377.5q0 -166 -54.5 -312t-156 -257.5t-261.5 -176.5t-358 -65q-324 0 -509 166t-185 449q0 125 47 266h4h1112q-21 157 -121.5 227t-271.5 70q-202 0 -440 -111l-129 293q272 135 563 135zM774 272q186 0 296.5 84.5
t152.5 223.5h-801v-9q0 -147 90.5 -223t261.5 -76z" />
    <glyph glyph-name="uni04D9" unicode="&#x4d9;" horiz-adv-x="1085" 
d="M549 977q223 0 357 -122t134 -333q0 -81 -20 -158t-64.5 -149t-108.5 -125.5t-159 -86t-209 -32.5q-204 0 -325 100.5t-121 280.5q0 91 28 195h680q-11 86 -62.5 128t-150.5 42q-147 0 -290 -84l-97 241q201 103 408 103zM494 193q82 0 141.5 46t87.5 126h-385
q-2 -12 -2 -37q0 -64 42.5 -99.5t115.5 -35.5z" />
    <glyph glyph-name="uni04DA" unicode="&#x4da;" horiz-adv-x="1603" 
d="M911 1755l-45 -233h-272l45 233h272zM1356 1755l-45 -233h-275l45 233h275zM842 1464q229 0 398 -75.5t265.5 -231t96.5 -377.5q0 -166 -54.5 -312t-156 -257.5t-261.5 -176.5t-358 -65q-324 0 -509 166t-185 449q0 125 47 266h4h1112q-21 157 -121.5 227t-271.5 70
q-202 0 -440 -111l-129 293q272 135 563 135zM774 272q186 0 296.5 84.5t152.5 223.5h-801v-9q0 -147 90.5 -223t261.5 -76z" />
    <glyph glyph-name="uni04DB" unicode="&#x4db;" horiz-adv-x="1085" 
d="M621 1329l-54 -276h-233l55 276h232zM985 1329l-55 -276h-234l56 276h233zM549 977q223 0 357 -122t134 -333q0 -81 -20 -158t-64.5 -149t-108.5 -125.5t-159 -86t-209 -32.5q-204 0 -325 100.5t-121 280.5q0 91 28 195h680q-11 86 -62.5 128t-150.5 42q-147 0 -290 -84
l-97 241q201 103 408 103zM494 193q82 0 141.5 46t87.5 126h-385q-2 -12 -2 -37q0 -64 42.5 -99.5t115.5 -35.5z" />
    <glyph glyph-name="uni04DC" unicode="&#x4dc;" horiz-adv-x="2316" 
d="M1335 1755l-45 -233h-272l45 233h272zM1780 1755l-45 -233h-275l45 233h275zM2439 1434l-710 -705l493 -729h-410l-440 707l-137 -707h-301l137 707l-692 -707h-471l817 786l-397 648h395l362 -654l127 654h301l-127 -654l611 654h442z" />
    <glyph glyph-name="uni04DD" unicode="&#x4dd;" horiz-adv-x="1708" 
d="M971 1329l-53 -276h-234l55 276h232zM1335 1329l-55 -276h-233l55 276h233zM1784 946l-477 -469l299 -477h-359l-239 436l-86 -436h-289l84 434l-398 -434h-401l524 535l-264 411h359l206 -375l74 375h289l-72 -375l348 375h402z" />
    <glyph glyph-name="uni04DE" unicode="&#x4de;" horiz-adv-x="1191" 
d="M367 1522l45 233h272l-45 -233h-272zM809 1522l45 233h274l-45 -233h-274zM532 -31q-298 0 -557 142l154 268q208 -111 410 -111q129 0 199.5 42.5t70.5 123.5q0 83 -80.5 123.5t-247.5 40.5h-116l53 281h110q158 0 248 45t90 125q0 58 -50.5 89t-141.5 31
q-78 0 -184 -21.5t-201 -55.5l-92 272q282 100 503 100q235 0 365.5 -91.5t130.5 -256.5q0 -141 -93.5 -230.5t-277.5 -123.5l-2 -4q143 -25 218 -113.5t75 -232.5q0 -211 -152.5 -327t-431.5 -116z" />
    <glyph glyph-name="uni04DF" unicode="&#x4df;" horiz-adv-x="960" 
d="M575 1329l-53 -276h-233l55 276h231zM940 1329l-55 -276h-234l56 276h233zM393 -31q-260 0 -446 86l116 213q167 -67 351 -67q178 0 178 94q0 43 -34.5 63.5t-119.5 20.5h-198l41 205h202q142 0 142 90q0 38 -32.5 53.5t-100.5 15.5q-144 0 -324 -43l-70 220
q216 57 416 57q202 0 310 -63.5t108 -188.5q0 -94 -66.5 -154t-191.5 -77v-5q99 -10 151 -62t52 -140q0 -49 -15 -93t-51.5 -86t-90.5 -72t-138 -48.5t-189 -18.5z" />
    <glyph glyph-name="uni04E0" unicode="&#x4e0;" horiz-adv-x="1161" 
d="M492 -31q-158 0 -302 36t-249 101l159 281q215 -119 408 -119q133 0 205.5 48t72.5 133q0 84 -73 122.5t-234 38.5h-190l51 242l405 299h-516l56 283h923l-51 -258l-498 -355q55 10 99 10q154 0 250 -100t96 -268q0 -230 -161.5 -362t-450.5 -132z" />
    <glyph glyph-name="uni04E1" unicode="&#x4e1;" horiz-adv-x="929" 
d="M285 -440q-281 0 -525 106l138 260q200 -104 393 -104q128 0 188 59.5t60 147.5q0 76 -57 116.5t-163 40.5h-231l41 205l424 295h-522l51 260h868l-49 -258l-481 -319q49 10 100 10q146 0 235 -89.5t89 -250.5q0 -70 -17 -135.5t-58 -129t-103.5 -110.5t-160 -75.5
t-220.5 -28.5z" />
    <glyph glyph-name="uni04E2" unicode="&#x4e2;" horiz-adv-x="1523" 
d="M1350 1729l-39 -195h-664l39 195h664zM33 0l278 1434h318l-178 -908h4l833 908h297l-278 -1434h-318l176 907h-2l-835 -907h-295z" />
    <glyph glyph-name="uni04E3" unicode="&#x4e3;" horiz-adv-x="1177" 
d="M1077 1274l-39 -203h-665l41 203h663zM2 0l184 946h310l-101 -510h4l502 510h273l-185 -946h-309l100 510h-4l-502 -510h-272z" />
    <glyph glyph-name="uni04E4" unicode="&#x4e4;" horiz-adv-x="1523" 
d="M621 1522l45 233h272l-45 -233h-272zM1063 1522l45 233h274l-45 -233h-274zM33 0l278 1434h318l-178 -908h4l833 908h297l-278 -1434h-318l176 907h-2l-835 -907h-295z" />
    <glyph glyph-name="uni04E5" unicode="&#x4e5;" horiz-adv-x="1177" 
d="M688 1329l-53 -276h-234l56 276h231zM1053 1329l-56 -276h-233l55 276h234zM2 0l184 946h310l-101 -510h4l502 510h273l-185 -946h-309l100 510h-4l-502 -510h-272z" />
    <glyph glyph-name="uni04E6" unicode="&#x4e6;" horiz-adv-x="1636" 
d="M592 1522l45 233h272l-45 -233h-272zM1034 1522l45 233h275l-45 -233h-275zM807 -31q-210 0 -371.5 82.5t-251.5 237.5t-90 360q0 168 61 317.5t169 259.5t264.5 174t337.5 64q210 0 370.5 -82.5t250 -237.5t89.5 -360q0 -168 -60.5 -317.5t-168 -259.5t-263.5 -174
t-337 -64zM825 287q114 0 206.5 42t150 111.5t88 155t30.5 178.5q0 180 -109.5 276.5t-283.5 96.5q-114 0 -207 -42t-150.5 -111.5t-88.5 -155.5t-31 -179q0 -179 110 -275.5t285 -96.5z" />
    <glyph glyph-name="uni04E7" unicode="&#x4e7;" horiz-adv-x="1155" 
d="M657 1329l-53 -276h-233l55 276h231zM1022 1329l-55 -276h-234l55 276h234zM541 -31q-106 0 -195.5 28.5t-157 83.5t-105.5 143.5t-38 201.5q0 154 69 278.5t200 198.5t302 74q141 0 250.5 -48.5t176.5 -153.5t67 -255q0 -154 -68.5 -278.5t-199.5 -198.5t-301 -74z
M557 254q77 0 134.5 37.5t84.5 92.5t27 118q0 95 -58.5 142.5t-144.5 47.5q-116 0 -182 -74.5t-66 -173.5q0 -95 59 -142.5t146 -47.5z" />
    <glyph glyph-name="uni04E8" unicode="&#x4e8;" horiz-adv-x="1636" 
d="M926 1464q210 0 370.5 -82.5t250 -237.5t89.5 -360q0 -168 -60.5 -317.5t-168 -259.5t-263.5 -174t-337 -64q-210 0 -371.5 82.5t-251.5 237.5t-90 360q0 168 61 317.5t169 259.5t264.5 174t337.5 64zM907 1147q-182 0 -300.5 -98.5t-157.5 -251.5h851
q-7 169 -115.5 259.5t-277.5 90.5zM825 287q181 0 300.5 99t158.5 251h-854q9 -169 117.5 -259.5t277.5 -90.5z" />
    <glyph glyph-name="uni04E9" unicode="&#x4e9;" horiz-adv-x="1155" 
d="M616 977q104 0 193 -28.5t156.5 -83.5t106 -143.5t38.5 -201.5q0 -154 -68.5 -278.5t-199 -198.5t-301.5 -74q-105 0 -194 28.5t-157 83.5t-106.5 143.5t-38.5 201.5q0 154 68.5 278.5t199.5 198.5t303 74zM600 711q-99 0 -165.5 -47.5t-94.5 -122.5h489
q-13 85 -77.5 127.5t-151.5 42.5zM557 236q101 0 168 51t94 131h-493q8 -92 73.5 -137t157.5 -45z" />
    <glyph glyph-name="uni04EA" unicode="&#x4ea;" horiz-adv-x="1636" 
d="M909 1755l-45 -233h-272l45 233h272zM1354 1755l-45 -233h-275l45 233h275zM926 1464q210 0 370.5 -82.5t250 -237.5t89.5 -360q0 -168 -60.5 -317.5t-168 -259.5t-263.5 -174t-337 -64q-210 0 -371.5 82.5t-251.5 237.5t-90 360q0 168 61 317.5t169 259.5t264.5 174
t337.5 64zM907 1147q-182 0 -300.5 -98.5t-157.5 -251.5h851q-7 169 -115.5 259.5t-277.5 90.5zM825 287q181 0 300.5 99t158.5 251h-854q9 -169 117.5 -259.5t277.5 -90.5z" />
    <glyph glyph-name="uni04EB" unicode="&#x4eb;" horiz-adv-x="1155" 
d="M651 1329l-53 -276h-233l55 276h231zM1016 1329l-55 -276h-234l55 276h234zM616 977q104 0 193 -28.5t156.5 -83.5t106 -143.5t38.5 -201.5q0 -154 -68.5 -278.5t-199 -198.5t-301.5 -74q-105 0 -194 28.5t-157 83.5t-106.5 143.5t-38.5 201.5q0 154 68.5 278.5
t199.5 198.5t303 74zM600 711q-99 0 -165.5 -47.5t-94.5 -122.5h489q-13 85 -77.5 127.5t-151.5 42.5zM557 236q101 0 168 51t94 131h-493q8 -92 73.5 -137t157.5 -45z" />
    <glyph glyph-name="uni04EC" unicode="&#x4ec;" horiz-adv-x="1411" 
d="M731 1755l-45 -233h-272l45 233h272zM1176 1755l-46 -233h-274l45 233h275zM717 1464q317 0 506.5 -177.5t189.5 -483.5q0 -172 -58 -322.5t-166 -265t-273.5 -180.5t-368.5 -66q-170 0 -316.5 45t-248.5 115l182 283q179 -115 399 -115q179 0 297 74.5t172 199.5h-516
l55 291h500q-20 137 -113.5 206t-244.5 69q-174 0 -389 -103l-134 299q280 131 527 131z" />
    <glyph glyph-name="uni04ED" unicode="&#x4ed;" horiz-adv-x="980" 
d="M543 1329l-54 -276h-233l55 276h232zM907 1329l-55 -276h-234l56 276h233zM446 977q223 0 350.5 -116t127.5 -339q0 -118 -37.5 -218.5t-109 -175.5t-182 -117t-249.5 -42q-207 0 -364 92l127 234q109 -57 233 -57q196 0 252 153h-305l37 182h276q-30 136 -196 136
q-113 0 -220 -39l-86 252q177 55 346 55z" />
    <glyph glyph-name="uni04EE" unicode="&#x4ee;" horiz-adv-x="1456" 
d="M1294 1729l-39 -195h-663l39 195h663zM1272 1434h370l-974 -1434h-371l238 348l-349 1086h351l225 -750z" />
    <glyph glyph-name="uni04EF" unicode="&#x4ef;" horiz-adv-x="1124" 
d="M1059 1274l-39 -203h-666l41 203h664zM870 946h336l-858 -1356h-334l340 521l-252 835h330l121 -518z" />
    <glyph glyph-name="uni04F0" unicode="&#x4f0;" horiz-adv-x="1456" 
d="M883 1755l-45 -233h-273l45 233h273zM1327 1755l-45 -233h-274l45 233h274zM1272 1434h370l-974 -1434h-371l238 348l-349 1086h351l225 -750z" />
    <glyph glyph-name="uni04F1" unicode="&#x4f1;" horiz-adv-x="1124" 
d="M670 1329l-54 -276h-233l55 276h232zM1034 1329l-55 -276h-234l56 276h233zM870 946h336l-858 -1356h-334l340 521l-252 835h330l121 -518z" />
    <glyph glyph-name="uni04F2" unicode="&#x4f2;" horiz-adv-x="1456" 
d="M1188 1767l-303 -245h-209l270 245h242zM1200 1522h-207l271 245h239zM1272 1434h370l-974 -1434h-371l238 348l-349 1086h351l225 -750z" />
    <glyph glyph-name="uni04F3" unicode="&#x4f3;" horiz-adv-x="1124" 
d="M930 1346l-334 -316h-209l293 316h250zM940 1030h-209l293 316h250zM553 428l317 518h336l-858 -1356h-334l340 521l-252 835h330z" />
    <glyph glyph-name="uni04F4" unicode="&#x4f4;" horiz-adv-x="1288" 
d="M1032 1755l-45 -233h-272l45 233h272zM1202 1755h275l-45 -233h-275zM915 831l117 603h318l-279 -1434h-317l102 532h-360q-194 0 -288.5 72.5t-94.5 224.5q0 65 14 134l92 471h318l-88 -445q-5 -20 -5 -45q0 -56 32.5 -84.5t90.5 -28.5h348z" />
    <glyph glyph-name="uni04F5" unicode="&#x4f5;" horiz-adv-x="1044" 
d="M588 1329l-53 -276h-234l55 276h232zM952 1329l-55 -276h-233l55 276h233zM731 946h309l-184 -946h-309l59 305h-250q-155 0 -231 58.5t-76 191.5q0 53 12 123l52 268h311l-47 -241q-6 -35 -6 -54q0 -45 26 -61.5t90 -16.5h172z" />
    <glyph glyph-name="uni04F8" unicode="&#x4f8;" horiz-adv-x="1785" 
d="M1034 1755l-45 -233h-272l45 233h272zM1479 1755l-45 -233h-275l45 233h275zM741 924q77 0 143.5 -12t128.5 -42t105.5 -76.5t69.5 -120t26 -167.5q0 -164 -77.5 -280t-208.5 -171t-303 -55h-592l278 1434h318l-99 -510h211zM1530 1434h319l-278 -1434h-320zM616 287
q118 0 189.5 51t71.5 145q0 79 -51.5 116.5t-143.5 37.5h-209l-67 -350h210z" />
    <glyph glyph-name="uni04F9" unicode="&#x4f9;" horiz-adv-x="1515" 
d="M862 1329l-53 -276h-234l56 276h231zM1227 1329l-56 -276h-233l55 276h234zM614 688q76 0 138.5 -16t113.5 -51t79 -96t28 -144q0 -170 -112.5 -275.5t-321.5 -105.5h-537l184 946h310l-50 -258h168zM1204 946h309l-184 -946h-309zM514 246q66 0 94.5 32t28.5 76
q0 88 -121 88h-119l-37 -196h154z" />
    <glyph glyph-name="uni04FC" unicode="&#x4fc;" horiz-adv-x="1454" 
d="M1008 741l231 -456q48 -94 74 -175t26 -173q0 -70 -25.5 -131.5t-75 -110t-130.5 -77t-184 -28.5h-203l57 285h86q69 0 105.5 29t36.5 76q0 68 -60 194l-168 340l-442 -514h-426l702 782l-338 652h369l201 -422l366 422h426z" />
    <glyph glyph-name="uni04FD" unicode="&#x4fd;" horiz-adv-x="1101" 
d="M461 -410l53 277h84q51 0 82 22t31 60q0 18 -9 43.5t-18 43.5t-24.5 46.5t-18.5 34.5l-92 153l-264 -270h-367l494 508l-256 438h327l129 -227l217 227h377l-452 -463l133 -235q77 -136 103 -199t26 -137q0 -157 -101 -239.5t-276 -82.5h-178z" />
    <glyph glyph-name="uni0510" unicode="&#x510;" horiz-adv-x="1185" 
d="M772 1464q280 0 516 -125l-158 -264q-186 94 -358 94q-105 0 -163 -39.5t-58 -105.5q0 -72 70.5 -108.5t199.5 -36.5h111l-55 -281h-129q-189 0 -287.5 -49t-98.5 -139q0 -69 59 -105.5t169 -36.5q178 0 409 97l86 -285q-275 -111 -512 -111q-250 0 -391 105t-141 291
q0 171 115.5 277t322.5 118v4q-117 27 -178 107t-61 196q0 83 32 154t95.5 126t167 86t237.5 31z" />
    <glyph glyph-name="uni0511" unicode="&#x511;" horiz-adv-x="940" 
d="M440 -31q-212 0 -324 72.5t-112 206.5q0 210 272 246l3 4q-73 15 -112.5 70t-39.5 143q0 126 115 196t325 70q196 0 391 -64l-94 -227q-146 51 -278 51q-85 0 -124.5 -19.5t-39.5 -60.5q0 -35 31 -54t88 -19h186l-41 -205h-217q-78 0 -120 -23.5t-42 -68.5q0 -78 150 -78
q170 0 325 51l62 -229q-186 -62 -404 -62z" />
    <glyph glyph-name="uni0512" unicode="&#x512;" horiz-adv-x="1550" 
d="M1612 1434l-289 -1479q-37 -194 -148.5 -279.5t-289.5 -85.5h-170l57 297h113q106 0 127 103l223 1145h-553l-152 -777q-35 -189 -142 -276.5t-296 -87.5h-143l57 297h109q40 0 67.5 25.5t36.5 74.5l205 1043h1188z" />
    <glyph glyph-name="uni0513" unicode="&#x513;" horiz-adv-x="1155" 
d="M1153 946l-184 -946l-19 -86q-66 -324 -411 -324h-138l54 275h80q50 0 78 19.5t40 84.5l6 31l136 668h-279l-67 -346q-30 -157 -132 -240.5t-247 -83.5h-140l56 289h63q41 0 67.5 25t39.5 89l106 545h891z" />
    <glyph glyph-name="uni051C" unicode="&#x51c;" horiz-adv-x="2205" 
d="M2370 1434l-762 -1434h-281l-133 926h-4l-496 -926h-278l-207 1434h360l76 -916h4l486 916h280l127 -916h4l434 916h390z" />
    <glyph glyph-name="uni051D" unicode="&#x51d;" horiz-adv-x="1658" 
d="M1411 946h330l-531 -946h-264l-100 553l-316 -553h-264l-162 946h304l63 -545l295 545h283l86 -547z" />
    <glyph glyph-name="uni0524" unicode="&#x524;" horiz-adv-x="1509" 
d="M1540 1434l-233 -1207h170l-101 -514h-297l56 287h-191l221 1137h-594l-221 -1137h-317l278 1434h1229z" />
    <glyph glyph-name="uni0525" unicode="&#x525;" horiz-adv-x="1263" 
d="M1022 152h158l-82 -418h-277l51 266h-188l129 668h-371l-131 -668h-309l184 946h310h555h125z" />
    <glyph glyph-name="uni0526" unicode="&#x526;" horiz-adv-x="1411" 
d="M1208 227h170l-100 -514h-297l55 287h-190l86 444q4 16 4 45q0 113 -123 113h-346l-117 -602h-317l278 1434h318l-105 -533h361q196 0 290.5 -72.5t94.5 -224.5q0 -60 -15 -133z" />
    <glyph glyph-name="uni0527" unicode="&#x527;" horiz-adv-x="1247" 
d="M1008 152h155l-82 -418h-276l51 266h-188l92 457q10 46 10 98q0 152 -145 152q-176 0 -222 -234l-90 -473h-309l279 1434h309l-121 -613h4q128 156 320 156q62 0 114 -16.5t95 -51t67.5 -95.5t24.5 -144q0 -67 -19 -164z" />
    <glyph glyph-name="uni0E3F" unicode="&#xe3f;" horiz-adv-x="1101" 
d="M1128 1049q0 -137 -83 -232t-220 -123l-2 -6q191 -46 191 -274q0 -191 -140.5 -302.5t-392.5 -111.5h-6l-35 -178h-57l35 178h-447l269 1382h446l35 179h57l-35 -179q186 -5 285.5 -90.5t99.5 -242.5zM633 1114h-148l-59 -301h149zM633 813q86 3 136 47.5t50 120.5
q0 64 -36.5 95t-92.5 36zM322 268h147l59 301h-149zM526 268q85 5 136 47.5t51 116.5q0 63 -36 94.5t-93 38.5z" />
    <glyph glyph-name="Wgrave" unicode="&#x1e80;" horiz-adv-x="2205" 
d="M1210 1767l189 -245h-219l-306 245h336zM2370 1434l-762 -1434h-281l-133 926h-4l-496 -926h-278l-207 1434h360l76 -916h4l486 916h280l127 -916h4l434 916h390z" />
    <glyph glyph-name="wgrave" unicode="&#x1e81;" horiz-adv-x="1658" 
d="M985 1133h-221l-270 315h317zM1411 946h330l-531 -946h-264l-100 553l-316 -553h-264l-162 946h304l63 -545l295 545h283l86 -547z" />
    <glyph glyph-name="Wacute" unicode="&#x1e82;" horiz-adv-x="2205" 
d="M1163 1522l283 245h338l-398 -245h-223zM2370 1434l-762 -1434h-281l-133 926h-4l-496 -926h-278l-207 1434h360l76 -916h4l486 916h280l127 -916h4l434 916h390z" />
    <glyph glyph-name="wacute" unicode="&#x1e83;" horiz-adv-x="1658" 
d="M1432 1448l-388 -315h-241l299 315h330zM1411 946h330l-531 -946h-264l-100 553l-316 -553h-264l-162 946h304l63 -545l295 545h283l86 -547z" />
    <glyph glyph-name="Wdieresis" unicode="&#x1e84;" horiz-adv-x="2205" 
d="M932 1522l45 233h272l-45 -233h-272zM1374 1522l45 233h275l-45 -233h-275zM2370 1434l-762 -1434h-281l-133 926h-4l-496 -926h-278l-207 1434h360l76 -916h4l486 916h280l127 -916h4l434 916h390z" />
    <glyph glyph-name="wdieresis" unicode="&#x1e85;" horiz-adv-x="1658" 
d="M928 1413l-56 -276h-254l56 276h254zM1313 1413l-56 -276h-253l55 276h254zM1411 946h330l-531 -946h-264l-100 553l-316 -553h-264l-162 946h304l63 -545l295 545h283l86 -547z" />
    <glyph glyph-name="Ygrave" unicode="&#x1ef2;" horiz-adv-x="1349" 
d="M938 1522h-221l-303 245h336zM1536 1434l-696 -922l-99 -512h-317l98 518l-336 916h349l180 -600h4l418 600h399z" />
    <glyph glyph-name="ygrave" unicode="&#x1ef3;" horiz-adv-x="1124" 
d="M733 1133h-221l-270 315h317zM870 946h336l-858 -1356h-334l340 521l-252 835h330l121 -518z" />
    <glyph glyph-name="endash" unicode="&#x2013;" horiz-adv-x="1503" 
d="M1458 672l-47 -240h-1335l47 240h1335z" />
    <glyph glyph-name="emdash" unicode="&#x2014;" horiz-adv-x="2365" 
d="M2302 672l-47 -232h-2159l47 232h2159z" />
    <glyph glyph-name="quoteleft" unicode="&#x2018;" horiz-adv-x="415" 
d="M580 1542l-197 -319h100l-53 -287h-287l56 287l270 319h111z" />
    <glyph glyph-name="quoteright" unicode="&#x2019;" horiz-adv-x="415" 
d="M270 1464h285l-53 -286l-273 -320h-110l198 320h-102z" />
    <glyph glyph-name="quotesinglbase" unicode="&#x201a;" horiz-adv-x="417" 
d="M41 287h285l-54 -287l-270 -319h-111l197 319h-100z" />
    <glyph glyph-name="quotedblleft" unicode="&#x201c;" horiz-adv-x="759" 
d="M580 1542l-197 -319h100l-53 -287h-287l56 287l270 319h111zM924 1542l-199 -319h102l-55 -287h-285l54 287l270 319h113z" />
    <glyph glyph-name="quotedblright" unicode="&#x201d;" horiz-adv-x="761" 
d="M555 1464l-53 -286l-273 -320h-110l198 320h-102l55 286h285zM614 1464h285l-53 -286l-271 -320h-112l199 320h-103z" />
    <glyph glyph-name="quotedblbase" unicode="&#x201e;" horiz-adv-x="786" 
d="M326 287l-54 -287l-270 -319h-111l197 319h-100l53 287h285zM412 287h284l-53 -287l-270 -319h-113l199 319h-103z" />
    <glyph glyph-name="dagger" unicode="&#x2020;" horiz-adv-x="1114" 
d="M1112 991l-45 -237h-328l-184 -944h-254l184 944h-327l45 237h327l86 443h254l-86 -443h328z" />
    <glyph glyph-name="daggerdbl" unicode="&#x2021;" horiz-adv-x="1114" 
d="M1079 821h-327l-70 -358h328l-45 -238h-328l-82 -415h-254l82 415h-328l45 238h328l70 358h-328l45 238h330l71 375h254l-71 -375h327z" />
    <glyph glyph-name="bullet" unicode="&#x2022;" horiz-adv-x="811" 
d="M459 1014q115 0 190.5 -75t75.5 -191t-75.5 -191.5t-190.5 -75.5t-190.5 75.5t-75.5 191.5t75.5 191t190.5 75z" />
    <glyph glyph-name="ellipsis" unicode="&#x2026;" horiz-adv-x="1464" 
d="M-8 0l65 330h328l-66 -330h-327zM475 0l66 330h327l-65 -330h-328zM958 0l66 330h328l-66 -330h-328z" />
    <glyph glyph-name="perthousand" unicode="&#x2030;" horiz-adv-x="2457" 
d="M547 770q-136 0 -230 77.5t-94 215.5q0 94 44 180t132.5 143.5t202.5 57.5q136 0 230 -77.5t94 -215.5q0 -94 -44 -180t-132.5 -143.5t-202.5 -57.5zM274 0l1035 1382h159l-1034 -1382h-160zM555 913q71 0 122 36.5t73 86.5t22 103q0 80 -50.5 119.5t-127.5 39.5
q-104 0 -161.5 -69.5t-57.5 -155.5q0 -79 51 -119.5t129 -40.5zM1186 -10q-135 0 -228.5 77.5t-93.5 215.5q0 94 44 180t132.5 143.5t202.5 57.5q135 0 228.5 -77.5t93.5 -215.5q0 -70 -26 -137.5t-73 -122t-120 -88t-160 -33.5zM1950 -10q-135 0 -228.5 77.5t-93.5 215.5
q0 94 44 180t132.5 143.5t202.5 57.5q135 0 228.5 -77.5t93.5 -215.5q0 -94 -44 -180t-132.5 -143.5t-202.5 -57.5zM1194 135q104 0 161.5 69.5t57.5 155.5q0 79 -51 119.5t-127 40.5q-104 0 -161.5 -70t-57.5 -155q0 -80 50.5 -120t127.5 -40zM1958 135q103 0 161 69
t58 156q0 79 -51 119.5t-127 40.5q-103 0 -161 -70t-58 -157q0 -79 51 -118.5t127 -39.5z" />
    <glyph glyph-name="guilsinglleft" unicode="&#x2039;" horiz-adv-x="716" 
d="M299 127l-266 360l405 359h330l-430 -381l256 -338h-295z" />
    <glyph glyph-name="guilsinglright" unicode="&#x203a;" horiz-adv-x="718" 
d="M420 825l264 -358l-403 -361h-332l432 381l-256 338h295z" />
    <glyph glyph-name="fraction" unicode="&#x2044;" horiz-adv-x="229" 
d="M-440 0l1034 1382h160l-1035 -1382h-159z" />
    <glyph glyph-name="uni2070" unicode="&#x2070;" horiz-adv-x="952" 
d="M645 1645q176 0 276.5 -103.5t100.5 -302.5q0 -86 -17 -165t-53 -149t-87 -121.5t-124.5 -81.5t-160.5 -30q-178 0 -278.5 103t-100.5 303q0 108 27.5 204.5t81 174t140 123t195.5 45.5zM641 1403q-50 0 -86 -32t-53 -82.5t-24 -96t-7 -88.5q0 -170 111 -170q50 0 86 32
t53 82.5t24 96t7 88.5q0 170 -111 170z" />
    <glyph glyph-name="uni2074" unicode="&#x2074;" horiz-adv-x="841" 
d="M946 1624l-106 -549h78l-41 -211h-80l-29 -151h-242l29 151h-446l34 185l551 575h252zM393 1075h203l49 260h-6z" />
    <glyph glyph-name="uni2075" unicode="&#x2075;" horiz-adv-x="770" 
d="M596 1317q97 0 165 -71.5t68 -203.5q0 -160 -106.5 -255t-304.5 -95q-178 0 -324 88l125 215q86 -59 197 -59q79 0 119 31.5t40 79.5q0 36 -21 59.5t-62 23.5q-62 0 -101 -49h-203l152 543h520l-43 -219l-323 -2l-37 -125h2q56 39 137 39z" />
    <glyph glyph-name="uni2076" unicode="&#x2076;" horiz-adv-x="823" 
d="M494 692q-157 0 -253 78.5t-96 235.5q0 58 14.5 112t35.5 95.5t59.5 89.5t69.5 80t82 81l178 172h317l-412 -360l5 -2q77 65 165 65q94 0 167 -72t73 -202q0 -69 -24 -133.5t-71 -119t-127.5 -87.5t-182.5 -33zM510 922q57 0 89 35.5t32 80.5q0 40 -26 67.5t-77 27.5
q-58 0 -89 -35.5t-31 -81.5q0 -39 26 -66.5t76 -27.5z" />
    <glyph glyph-name="uni2077" unicode="&#x2077;" horiz-adv-x="696" 
d="M895 1624l-43 -233l-492 -678h-290l483 659h-365l48 252h659z" />
    <glyph glyph-name="uni2078" unicode="&#x2078;" horiz-adv-x="892" 
d="M514 692q-171 0 -258.5 67.5t-87.5 182.5q0 102 65 165.5t175 86.5v2q-62 20 -93.5 68t-31.5 112q0 118 98.5 193.5t265.5 75.5q153 0 239.5 -63t86.5 -165q0 -79 -54 -141t-149 -80v-2q68 -23 108 -75t40 -132q0 -129 -107 -212t-297 -83zM610 1290q41 0 65.5 24
t24.5 58q0 31 -19 47.5t-50 16.5q-41 0 -66.5 -24t-25.5 -56t20.5 -49t50.5 -17zM541 913q54 0 82 29.5t28 67.5q0 37 -25 56t-67 19q-54 0 -83.5 -29t-29.5 -67q0 -37 26.5 -56.5t68.5 -19.5z" />
    <glyph glyph-name="uni2079" unicode="&#x2079;" horiz-adv-x="819" 
d="M176 713l414 338l-4 4q-68 -56 -148 -56q-93 0 -167 76.5t-74 204.5q0 71 25.5 135.5t73 116.5t124 82.5t170.5 30.5q73 0 135 -19t111.5 -57t77.5 -103t28 -151q0 -64 -18 -122.5t-42.5 -102t-71.5 -95t-82.5 -83.5t-98.5 -85l-137 -114h-316zM563 1206q57 0 89 36
t32 81q0 40 -26 67t-78 27q-57 0 -89 -35.5t-32 -81.5q0 -39 26 -66.5t78 -27.5z" />
    <glyph glyph-name="uni2080" unicode="&#x2080;" horiz-adv-x="952" 
d="M463 707q176 0 276.5 -103.5t100.5 -302.5q0 -108 -28 -204.5t-81 -174t-139.5 -123t-194.5 -45.5q-178 0 -278.5 103t-100.5 303q0 86 17 165t53 149t88 121.5t125.5 81.5t161.5 30zM459 465q-50 0 -86 -32t-53 -82.5t-24 -96t-7 -88.5q0 -92 28.5 -131t81.5 -39
q50 0 86 32t53 82.5t24 96t7 88.5q0 92 -28 131t-82 39z" />
    <glyph glyph-name="uni2081" unicode="&#x2081;" horiz-adv-x="636" 
d="M473 686l-176 -911h-260l127 659h-35l47 252h297z" />
    <glyph glyph-name="uni2082" unicode="&#x2082;" horiz-adv-x="858" 
d="M434 707q164 0 252 -68t88 -193q0 -93 -53 -162t-178 -155l-162 -109h311l-47 -245h-690l43 213l348 264q92 72 121 102t29 62q0 61 -82 61q-101 0 -111 -96h-260q13 75 39 131.5t71 102t115.5 69t165.5 23.5z" />
    <glyph glyph-name="uni2083" unicode="&#x2083;" horiz-adv-x="821" 
d="M295 -246q-160 0 -253 63.5t-93 188.5q0 37 8 70h252v-23q0 -63 102 -63q60 0 91.5 23t31.5 61q0 42 -37 60t-118 18l30 163q83 0 120.5 23.5t37.5 73.5q0 69 -84 69q-44 0 -72.5 -21t-34.5 -57h-245q19 144 115.5 224t263.5 80q148 0 240.5 -62.5t92.5 -175.5
q0 -92 -57 -145.5t-154 -67.5v-4q76 -12 118 -61t42 -130q0 -45 -12.5 -87.5t-42.5 -83t-74.5 -70.5t-113.5 -48t-154 -18z" />
    <glyph glyph-name="uni2084" unicode="&#x2084;" horiz-adv-x="841" 
d="M764 686l-107 -549h78l-41 -211h-78l-30 -151h-242l29 151h-447l35 185l551 575h252zM211 137h203l49 260h-6z" />
    <glyph glyph-name="uni2085" unicode="&#x2085;" horiz-adv-x="770" 
d="M414 379q97 0 165 -71.5t68 -203.5q0 -160 -106.5 -255t-304.5 -95q-178 0 -324 88l125 215q86 -59 196 -59q79 0 119.5 31.5t40.5 79.5q0 36 -21.5 60t-62.5 24q-60 0 -100 -50h-203l152 543h520l-43 -219l-324 -2l-37 -125h2q56 39 138 39z" />
    <glyph glyph-name="uni2086" unicode="&#x2086;" horiz-adv-x="823" 
d="M311 -246q-157 0 -252.5 78.5t-95.5 235.5q0 72 19 134.5t60 121t79 99.5t102 103l178 172h318l-412 -360l4 -2q77 65 166 65q94 0 167 -72t73 -202q0 -69 -24 -133.5t-71.5 -119t-128 -87.5t-182.5 -33zM328 -16q57 0 89 35.5t32 80.5q0 40 -26 67.5t-77 27.5
q-59 0 -90 -35.5t-31 -81.5q0 -39 26 -66.5t77 -27.5z" />
    <glyph glyph-name="uni2087" unicode="&#x2087;" horiz-adv-x="696" 
d="M713 686l-43 -233l-492 -678h-291l484 659h-365l47 252h660z" />
    <glyph glyph-name="uni2088" unicode="&#x2088;" horiz-adv-x="892" 
d="M332 -246q-171 0 -258.5 67.5t-87.5 182.5q0 102 64.5 165.5t174.5 86.5v2q-62 20 -93.5 68t-31.5 112q0 118 99 193.5t266 75.5q153 0 239.5 -63t86.5 -165q0 -79 -54 -141t-149 -80v-2q147 -51 147 -207q0 -129 -106.5 -212t-296.5 -83zM428 352q41 0 66.5 24t25.5 58
q0 31 -20 47.5t-51 16.5q-41 0 -67 -24t-26 -56t21 -49t51 -17zM358 -25q54 0 82.5 29.5t28.5 67.5q0 37 -25 56t-67 19q-54 0 -83.5 -29t-29.5 -67q0 -37 26 -56.5t68 -19.5z" />
    <glyph glyph-name="uni2089" unicode="&#x2089;" horiz-adv-x="819" 
d="M-6 -225l414 338l-5 4q-68 -56 -147 -56q-93 0 -167.5 76.5t-74.5 204.5q0 71 25.5 135.5t73.5 116.5t124.5 82.5t170.5 30.5q73 0 135 -19t111.5 -57t77.5 -103t28 -151q0 -64 -18 -122.5t-42.5 -102t-72 -95t-83 -83.5t-98.5 -85l-137 -114h-315zM381 270q57 0 89 35.5
t32 79.5q0 40 -26.5 67t-78.5 27q-57 0 -89 -35.5t-32 -81.5q0 -39 26.5 -65.5t78.5 -26.5z" />
    <glyph glyph-name="TRY" unicode="&#x20a4;" horiz-adv-x="1185" 
d="M856 670h305q-63 -321 -268.5 -495.5t-525.5 -174.5h-211l114 594l-239 -96l12 63l240 96l22 115l-239 -96l12 63l239 97l107 546h297l-82 -417l403 161l-12 -63l-403 -162l-23 -115l404 162l-13 -63l-403 -162l-76 -393q122 0 216.5 92t123.5 248z" />
    <glyph glyph-name="uni20A9" unicode="&#x20a9;" horiz-adv-x="2056" 
d="M2187 1434l-243 -551h151l-12 -62h-166l-62 -139h201l-12 -61h-217l-275 -621h-327l-56 621h-223l-299 -621h-328l-32 621h-217l12 61h201l-9 139h-165l12 62h151l-30 551h342l-4 -551h213l260 551h321l45 -551h213l211 551h344zM1128 1001l-57 -118h74l-10 118h-7z
M580 821l-2 -139h120l66 139h-184zM975 682h188l-12 139h-109zM1556 682l54 139h-185l11 -139h120zM580 430l90 191h-92l-3 -191h5zM1460 430l74 191h-92l14 -191h4z" />
    <glyph glyph-name="Euro" unicode="&#x20ac;" horiz-adv-x="1366" 
d="M1012 1112q-165 0 -275 -79.5t-159 -209.5h583l-39 -61h-563q-12 -49 -16 -121h518l-39 -61h-479q9 -148 91 -229t234 -81q159 0 346 82l-61 -323q-164 -60 -317 -60t-272 47.5t-193 132t-113 193t-43 238.5h-184l43 61h141q3 58 12 121h-151l43 61h121q22 96 63 181
t106.5 161t151 130t202 86t253.5 32q247 0 448 -119l-155 -268q-81 43 -145.5 64.5t-151.5 21.5z" />
    <glyph glyph-name="uni20AE" unicode="&#x20ae;" horiz-adv-x="1171" 
d="M1237 1114h-387l-43 -217l252 113l-12 -64l-252 -112l-23 -115l254 112l-12 -63l-254 -113l-127 -655h-297l98 510l-250 -111l13 64l249 110l23 117l-252 -112l12 63l252 113l72 360h-387l51 268h1071z" />
    <glyph glyph-name="uni20B4" unicode="&#x20b4;" horiz-adv-x="1138" 
d="M1163 1116q0 -139 -96 -246h90l-12 -61h-144q-62 -50 -151 -102l-66 -37h334l-12 -62h-428l-74 -43q-106 -60 -150 -105.5t-44 -90.5q0 -97 165 -97q174 0 433 111l-64 -326q-224 -88 -432 -88q-211 0 -325.5 87t-114.5 266q0 162 121 286h-107l12 62h164q55 42 154 100
l67 39h-358l12 61h455l117 68q118 68 118 125t-118 57q-173 0 -408 -73l57 294q232 72 410 72q88 0 158 -16t124 -50t83.5 -92.5t29.5 -138.5z" />
    <glyph glyph-name="uni20B8" unicode="&#x20b8;" horiz-adv-x="1136" 
d="M219 1382h1053l-53 -268h-1051zM92 733l53 268h1051l-51 -268h-377l-141 -733h-299l143 733h-379z" />
    <glyph glyph-name="uni20B9" unicode="&#x20b9;" horiz-adv-x="1083" 
d="M1178 1382l-58 -61h-352q79 -47 124.5 -129.5t45.5 -192.5v-2h164l-58 -61h-110q-24 -168 -161.5 -276t-321.5 -113l366 -547h-377l-344 547l54 268h268q78 0 126 33.5t62 87.5h-434l12 61h428q-6 60 -52.5 88.5t-121.5 28.5h-231l53 268h272h646z" />
    <glyph glyph-name="uni20BD" unicode="&#x20bd;" horiz-adv-x="1267" 
d="M750 537h-187l-20 -107h375l-13 -61h-375l-71 -369h-297l71 369h-190l12 61h191l20 107h-190l53 268h188l113 577h436q197 0 313.5 -95.5t116.5 -282.5q0 -99 -35 -183.5t-101.5 -148t-172 -99.5t-237.5 -36zM676 1114l-60 -309h129q107 0 166.5 44.5t59.5 127.5
q0 137 -174 137h-121z" />
    <glyph glyph-name="uni2113" unicode="&#x2113;" horiz-adv-x="1120" 
d="M1151 1108q0 -399 -639 -602v-57q0 -53 4 -85.5t17.5 -61t41 -41.5t70.5 -13q74 0 242 61l-49 -278q-60 -19 -92 -28.5t-84.5 -18.5t-102.5 -9q-88 0 -152 24.5t-100.5 63t-57.5 100t-27.5 122t-6.5 143.5q-71 -15 -141 -27l51 287q17 4 52.5 11.5t53.5 11.5
q28 214 100 368.5t197 244t293 89.5q146 0 238 -73.5t92 -231.5zM799 1176q-92 0 -155 -105t-97 -274q327 118 327 293q0 86 -75 86z" />
    <glyph glyph-name="uni2116" unicode="&#x2116;" horiz-adv-x="2478" 
d="M33 0l278 1434h269l512 -908h2l172 908h317l-278 -1434h-271l-510 903h-2l-172 -903h-317zM1966 354q-176 0 -281.5 96.5t-105.5 274.5q0 130 56.5 238t167.5 174.5t257 66.5q176 0 281.5 -96.5t105.5 -273.5q0 -130 -56.5 -238.5t-167.5 -175t-257 -66.5zM1989 598
q52 0 93 19.5t63.5 51t34 66.5t11.5 70q0 73 -42 113t-113 40q-69 0 -117 -34.5t-67 -79.5t-19 -92q0 -73 42.5 -113.5t113.5 -40.5zM1468 0l48 246h815l-50 -246h-813z" />
    <glyph glyph-name="trademark" unicode="&#x2122;" horiz-adv-x="1902" 
d="M897 1235h-225l-123 -633h-234l123 633h-225l45 229h684zM1817 1464l47 -862h-228l-18 457l-211 -344h-178l-74 344l-194 -457h-246l383 862h190l80 -456l258 456h191z" />
    <glyph glyph-name="estimated" unicode="&#x212e;" horiz-adv-x="1544" 
d="M84 623q0 176 96.5 325t262 235.5t360.5 86.5q196 0 362 -86.5t262.5 -235.5t96.5 -325v-19h-1176v-287q0 -68 28 -124.5t79 -88.5q139 -92 352 -92q151 0 285 57t223 158h59q-101 -118 -252.5 -185t-318.5 -67q-146 0 -279.5 51.5t-229.5 138t-153 206.5t-57 252z
M1169 1130q-133 103 -362 103q-216 0 -352 -94q-107 -72 -107 -174v-324h912v311q0 108 -91 178z" />
    <glyph glyph-name="uni2153" unicode="&#x2153;" horiz-adv-x="1607" 
d="M162 0l1034 1382h160l-1034 -1382h-160zM233 592l121 625h-55l33 165h221l-154 -790h-166zM1182 -18q-132 0 -208.5 54t-76.5 152q0 20 4 52h166q-2 -6 -2 -21q0 -42 31.5 -66t93.5 -24q68 0 99.5 30.5t31.5 76.5q0 52 -40 75t-130 21l27 145q83 -2 133.5 25t50.5 84
q0 42 -28.5 61t-73.5 19q-53 0 -87 -26.5t-40 -70.5h-160q31 240 299 240q121 0 193.5 -49t72.5 -144q0 -77 -51 -132t-139 -70v-2q66 -11 106.5 -55.5t40.5 -123.5q0 -38 -10 -73t-33.5 -67.5t-58.5 -57t-89 -39t-122 -14.5z" />
    <glyph glyph-name="uni2154" unicode="&#x2154;" horiz-adv-x="1845" 
d="M106 592l27 131l332 270q11 9 33 26.5t31.5 25.5t25.5 22.5t23.5 24.5t16 23t12 25.5t3.5 26.5q0 40 -28.5 60t-73.5 20q-115 0 -133 -112h-162q5 50 24 95t54 84.5t94 63t135 23.5q50 0 95 -11t84.5 -34t63 -66t23.5 -100q0 -61 -30.5 -115t-62 -83t-106.5 -88
q-11 -9 -16 -13l-178 -141l322 2l-31 -160h-578zM397 0l1035 1382h159l-1034 -1382h-160zM1417 -18q-132 0 -208 53.5t-76 152.5q0 20 4 52h166q-3 -9 -3 -21q0 -42 31.5 -66t93.5 -24q68 0 99.5 30.5t31.5 76.5q0 52 -40 75t-130 21l27 145q83 -2 133.5 25t50.5 84
q0 42 -28.5 61t-73.5 19q-53 0 -87 -26.5t-40 -70.5h-160q31 240 299 240q121 0 194 -49t73 -144q0 -77 -51.5 -132t-139.5 -70v-2q66 -11 107 -55.5t41 -123.5q0 -48 -17 -90.5t-52 -79.5t-98 -59t-147 -22z" />
    <glyph glyph-name="oneeighth" unicode="&#x215b;" horiz-adv-x="1648" 
d="M162 0l1034 1382h160l-1034 -1382h-160zM233 592l121 625h-55l33 165h221l-154 -790h-166zM1182 -18q-136 0 -209.5 62t-73.5 161q0 89 56 148t147 73v4q-103 42 -103 148q0 99 79 165t216 66q122 0 192 -55.5t70 -143.5q0 -74 -46.5 -125t-125.5 -63v-4
q123 -46 123 -174q0 -113 -85.5 -187.5t-239.5 -74.5zM1262 492q55 0 84.5 26t29.5 66q0 38 -26.5 56.5t-69.5 18.5q-54 0 -83.5 -26.5t-29.5 -67.5q0 -36 27 -54.5t68 -18.5zM1198 137q65 0 101 33.5t36 83.5q0 49 -32.5 73.5t-85.5 24.5q-65 0 -102.5 -34t-37.5 -85
q0 -48 34 -72t87 -24z" />
    <glyph glyph-name="threeeighths" unicode="&#x215c;" horiz-adv-x="1824" 
d="M403 573q-132 0 -208 54t-76 153q0 19 4 51h166q-2 -6 -2 -20q0 -42 31.5 -66t93.5 -24q68 0 99.5 30t31.5 76q0 52 -40.5 75.5t-129.5 21.5l26 145q83 -2 134 25t51 84q0 79 -103 79q-53 0 -87 -26.5t-40 -69.5h-159q31 240 299 240q121 0 193.5 -49t72.5 -144
q0 -77 -51.5 -132t-139.5 -70v-2q66 -11 107 -55.5t41 -123.5q0 -48 -17 -91t-52 -80t-98 -59t-147 -22zM338 0l1034 1382h160l-1034 -1382h-160zM1358 -18q-136 0 -209.5 62t-73.5 161q0 89 56 148t147 73v4q-102 42 -102 148q0 99 79 165t215 66q122 0 192.5 -55.5
t70.5 -143.5q0 -74 -46.5 -125t-125.5 -63v-4q122 -46 122 -174q0 -113 -85.5 -187.5t-239.5 -74.5zM1438 492q55 0 84.5 26t29.5 66q0 38 -26.5 56.5t-69.5 18.5q-54 0 -83.5 -26.5t-29.5 -67.5q0 -36 27 -54.5t68 -18.5zM1374 137q65 0 101 33.5t36 83.5q0 49 -32.5 73.5
t-85.5 24.5q-65 0 -102.5 -34t-37.5 -85q0 -48 34 -72t87 -24z" />
    <glyph glyph-name="fiveeighths" unicode="&#x215d;" horiz-adv-x="1847" 
d="M389 573q-183 0 -293 113l107 129q34 -37 86.5 -58.5t111.5 -21.5q78 0 118 39.5t40 95.5t-29 84.5t-75 28.5q-69 0 -111 -49h-147l131 448h438l-33 -159h-309l-51 -166h4q52 55 137 55q37 0 73 -14t68 -41t52 -74.5t20 -108.5q0 -132 -88.5 -216.5t-249.5 -84.5zM360 0
l1035 1382h159l-1034 -1382h-160zM1380 -18q-136 0 -209 62t-73 161q0 89 55.5 148t146.5 73v4q-102 42 -102 148q0 99 79 165t216 66q122 0 192 -55.5t70 -143.5q0 -74 -46.5 -125t-125.5 -63v-4q123 -46 123 -174q0 -112 -86 -187t-240 -75zM1460 492q55 0 85 26t30 66
q0 38 -26.5 56.5t-69.5 18.5q-54 0 -83.5 -26.5t-29.5 -67.5q0 -36 26.5 -54.5t67.5 -18.5zM1397 137q65 0 101 33.5t36 83.5q0 49 -33 73.5t-86 24.5q-65 0 -102 -33.5t-37 -85.5q0 -48 34 -72t87 -24z" />
    <glyph glyph-name="seveneighths" unicode="&#x215e;" horiz-adv-x="1673" 
d="M94 592l447 629h-363l33 161h549l-29 -151l-455 -639h-182zM186 0l1035 1382h159l-1034 -1382h-160zM1206 -18q-136 0 -209 62t-73 161q0 89 55.5 148t146.5 73v4q-102 42 -102 148q0 99 79 165t216 66q122 0 192 -55.5t70 -143.5q0 -74 -46.5 -125t-125.5 -63v-4
q123 -46 123 -174q0 -112 -86 -187t-240 -75zM1286 492q55 0 85 26t30 66q0 38 -26.5 56.5t-69.5 18.5q-54 0 -83.5 -26.5t-29.5 -67.5q0 -36 26.5 -54.5t67.5 -18.5zM1223 137q65 0 101 33.5t36 83.5q0 49 -33 73.5t-86 24.5q-65 0 -102 -33.5t-37 -85.5q0 -48 34 -72
t87 -24z" />
    <glyph glyph-name="arrowleft" unicode="&#x2190;" horiz-adv-x="1665" 
d="M1608 721l-47 -254h-988l289 -340l-217 -182l-520 649l762 663l157 -196l-409 -340h973z" />
    <glyph glyph-name="arrowup" unicode="&#x2191;" horiz-adv-x="1523" 
d="M1460 674l-221 -174l-270 356l-193 -987h-254l189 969l-406 -338l-160 194l787 633z" />
    <glyph glyph-name="arrowright" unicode="&#x2192;" horiz-adv-x="1662" 
d="M1067 1251l518 -655l-762 -664l-155 197l397 340h-965l52 254h989l-293 340z" />
    <glyph glyph-name="arrowdown" unicode="&#x2193;" horiz-adv-x="1523" 
d="M1268 690l159 -194l-786 -633l-532 643l225 184l268 -362l195 993h254l-189 -965z" />
    <glyph glyph-name="arrowboth" unicode="&#x2194;" horiz-adv-x="2564" 
d="M1966 1249l518 -655l-762 -664l-155 197l397 340h-403h-988l289 -340l-217 -182l-520 649l762 663l157 -196l-409 -340h973h432l-293 340z" />
    <glyph glyph-name="arrowupdn" unicode="&#x2195;" horiz-adv-x="1533" 
d="M575 -520l-532 643l225 184l269 -362l254 1308l-406 -338l-160 195l787 633l528 -653l-221 -175l-270 357l-250 -1299l403 334l160 -194z" />
    <glyph glyph-name="uni2196" unicode="&#x2196;" horiz-adv-x="1345" 
d="M1186 172l-213 -180l-557 690l-90 -483l-279 -2l201 917l919 2l-53 -258l-485 6z" />
    <glyph glyph-name="uni2197" unicode="&#x2197;" horiz-adv-x="1349" 
d="M436 1120l912 -8l-156 -917l-279 2l88 475l-811 -680l-147 178l834 698l-494 -10z" />
    <glyph glyph-name="uni2198" unicode="&#x2198;" horiz-adv-x="1345" 
d="M1069 989l277 2l-201 -917l-922 -13l56 269l485 -6l-557 692l215 180l557 -690z" />
    <glyph glyph-name="uni2199" unicode="&#x2199;" horiz-adv-x="1349" 
d="M1354 1018l-834 -699l490 -4l-123 -245l-826 86l160 837l248 -67l-35 -377l774 647z" />
    <glyph glyph-name="partialdiff" unicode="&#x2202;" 
d="M657 1464q259 0 408 -155.5t149 -464.5q0 -128 -25.5 -251.5t-80.5 -237t-133 -199t-191 -136.5t-247 -51q-210 0 -342 120t-132 323q0 96 31.5 185.5t92 163.5t161 118.5t225.5 44.5q223 0 353 -133q2 20 2 53q0 148 -85 241t-231 93q-127 0 -270 -60l-80 266
q79 34 185.5 57t209.5 23zM555 256q202 0 305 250q-100 137 -254 137q-62 0 -110 -20.5t-74.5 -54t-39.5 -71t-13 -75.5q0 -75 49 -120.5t137 -45.5z" />
    <glyph glyph-name="emptyset" unicode="&#x2205;" 
d="M1016 985q123 -132 123 -323q0 -204 -139.5 -340t-348.5 -136q-188 0 -323 113l-115 -115l-39 41l113 113q-123 132 -123 324q0 204 139 339.5t348 135.5q190 0 322 -113l114 115l41 -41zM442 662q0 -74 41 -127l295 294q-50 41 -127 41q-92 0 -150.5 -59t-58.5 -149z
M651 453q92 0 150.5 59.5t58.5 149.5q0 76 -41 129l-297 -297q57 -41 129 -41z" />
    <glyph glyph-name="product" unicode="&#x220f;" horiz-adv-x="1572" 
d="M1636 1434v-269h-227v-1325h-276v1325h-400v-1325h-278v1325h-228v269h1409z" />
    <glyph glyph-name="summation" unicode="&#x2211;" horiz-adv-x="1460" 
d="M1262 1434v-287h-648l467 -543l-467 -543h648v-286h-1012v286l475 543l-475 543v287h1012z" />
    <glyph glyph-name="minus" unicode="&#x2212;" 
d="M1128 680v-139h-976v139h976z" />
    <glyph glyph-name="radical" unicode="&#x221a;" horiz-adv-x="1271" 
d="M1133 1464h290l-499 -1464h-279l-287 678h-225v268h416l223 -563z" />
    <glyph glyph-name="infinity" unicode="&#x221e;" horiz-adv-x="1568" 
d="M1217 922q145 0 238 -88t93 -226t-93 -225.5t-238 -87.5q-65 0 -123 17.5t-109 52t-90 70.5t-84 87q-46 -51 -84.5 -86.5t-89 -70.5t-108.5 -52.5t-123 -17.5q-145 0 -238.5 87.5t-93.5 225.5t93.5 226t238.5 88q65 0 123 -18t108.5 -52.5t89 -70.5t84.5 -87
q96 108 190 168t216 60zM406 805q-92 0 -151.5 -56.5t-59.5 -140.5t59.5 -140t151.5 -56t166 50t161 146q-87 96 -161 146.5t-166 50.5zM1217 805q-91 0 -166.5 -51t-161.5 -146q86 -95 161.5 -145.5t166.5 -50.5q92 0 151 56t59 140t-59.5 140.5t-150.5 56.5z" />
    <glyph glyph-name="integral" unicode="&#x222b;" horiz-adv-x="897" 
d="M1008 1464l-50 -258q-128 0 -187.5 -44.5t-84.5 -174.5l-197 -1012q-25 -122 -71 -203t-120.5 -127.5t-167 -65.5t-224.5 -19l49 258q63 1 104 9.5t74.5 32.5t54 66.5t33.5 110.5l197 1012q24 119 69 199t118.5 128t170 68t232.5 20z" />
    <glyph glyph-name="approxequal" unicode="&#x2248;" 
d="M383 979q51 0 110 -19t112 -46t104.5 -54t103.5 -46t94 -19q117 0 170 151h127q-19 -78 -51 -135.5t-71.5 -91t-83 -49t-91.5 -15.5q-62 0 -138.5 29t-136 63.5t-129.5 63.5t-120 29q-117 0 -170 -154h-127q19 78 51 136t71.5 91.5t83 49.5t91.5 16zM383 606
q62 0 138.5 -29t136 -63t129.5 -63t120 -29q61 0 102 38t68 115h127q-25 -103 -73.5 -170.5t-103.5 -94.5t-120 -27q-51 0 -110 19t-112 46t-104.5 54t-103.5 46t-94 19q-117 0 -170 -154h-127q37 153 116.5 223t180.5 70z" />
    <glyph glyph-name="notequal" unicode="&#x2260;" 
d="M1159 768h-301l-188 -307h489v-129h-569l-111 -180h-135l111 180h-332v129h412l188 307h-600v129h680l106 174h135l-106 -174h221v-129z" />
    <glyph glyph-name="lessequal" unicode="&#x2264;" 
d="M1092 1012v-144l-768 -170l768 -166v-145l-959 240v145zM1100 324v-129h-975v129h975z" />
    <glyph glyph-name="greaterequal" unicode="&#x2265;" 
d="M205 1012l958 -240v-145l-958 -240v145l768 166l-768 170v144zM197 324h974v-129h-974v129z" />
    <glyph glyph-name="uni2460" unicode="&#x2460;" horiz-adv-x="1732" 
d="M913 -31q-217 0 -387.5 96.5t-265 267t-94.5 384.5t94.5 384.5t265 266.5t387.5 96q163 0 302.5 -56.5t237 -155t153 -237t55.5 -298.5q0 -214 -94.5 -384.5t-265.5 -267t-388 -96.5zM913 121q254 0 420 169.5t166 426.5t-166 426.5t-420 169.5t-419.5 -169.5
t-165.5 -426.5t165.5 -426.5t419.5 -169.5zM852 330v624h-55v166h221v-790h-166z" />
    <glyph glyph-name="uni2461" unicode="&#x2461;" horiz-adv-x="1732" 
d="M913 -31q-217 0 -387.5 96.5t-265 267t-94.5 384.5t94.5 384.5t265 266.5t387.5 96q163 0 302.5 -56.5t237 -155t153 -237t55.5 -298.5q0 -214 -94.5 -384.5t-265.5 -267t-388 -96.5zM913 121q254 0 420 169.5t166 426.5t-166 426.5t-420 169.5t-419.5 -169.5
t-165.5 -426.5t165.5 -426.5t419.5 -169.5zM641 360v132l283 270q54 54 79 89t25 71q0 43 -29.5 68.5t-78.5 25.5q-53 0 -85.5 -29t-35.5 -86h-164q2 116 75 192t214 76q129 0 203.5 -63t74.5 -168q0 -71 -35.5 -132t-103.5 -124l-178 -162h325v-160h-569z" />
    <glyph glyph-name="uni2462" unicode="&#x2462;" horiz-adv-x="1732" 
d="M913 -31q-217 0 -387.5 96.5t-265 267t-94.5 384.5t94.5 384.5t265 266.5t387.5 96q163 0 302.5 -56.5t237 -155t153 -237t55.5 -298.5q0 -214 -94.5 -384.5t-265.5 -267t-388 -96.5zM913 121q254 0 420 169.5t166 426.5t-166 426.5t-420 169.5t-419.5 -169.5
t-165.5 -426.5t165.5 -426.5t419.5 -169.5zM928 309q-134 0 -214.5 67.5t-86.5 190.5h166q2 -49 36.5 -78.5t96.5 -29.5q58 0 89.5 25.5t31.5 74.5q0 53 -45 76.5t-142 23.5v146q71 -2 115.5 21.5t44.5 74.5q0 44 -30.5 67t-78.5 23q-51 0 -81 -25t-31 -71h-158
q3 110 75 176t206 66q125 0 196.5 -57.5t71.5 -149.5q0 -68 -40 -116.5t-110 -65.5v-3q79 -13 129 -64.5t50 -133.5q0 -100 -75 -169t-216 -69z" />
    <glyph glyph-name="uni2463" unicode="&#x2463;" horiz-adv-x="1732" 
d="M913 1464q163 0 302.5 -56.5t237 -155t153 -237t55.5 -298.5q0 -214 -94.5 -384.5t-265.5 -267t-388 -96.5t-387.5 96.5t-265 267t-94.5 384.5t94.5 384.5t265 266.5t387.5 96zM913 121q254 0 420 169.5t166 426.5t-166 426.5t-420 169.5t-419.5 -169.5t-165.5 -426.5
t165.5 -426.5t419.5 -169.5zM1108 1124v-514h74v-143h-74v-133h-158v133h-411v133l409 524h160zM713 610h237v295h-4z" />
    <glyph glyph-name="uni2464" unicode="&#x2464;" horiz-adv-x="1732" 
d="M913 -31q-217 0 -387.5 96.5t-265 267t-94.5 384.5t94.5 384.5t265 266.5t387.5 96q163 0 302.5 -56.5t237 -155t153 -237t55.5 -298.5q0 -214 -94.5 -384.5t-265.5 -267t-388 -96.5zM913 121q254 0 420 169.5t166 426.5t-166 426.5t-420 169.5t-419.5 -169.5
t-165.5 -426.5t165.5 -426.5t419.5 -169.5zM913 311q-186 0 -292 119l102 123q31 -35 79 -57.5t101 -22.5q65 0 102 34.5t37 90.5q0 55 -35 87t-87 32q-35 0 -66 -13t-45 -32h-139l43 448h436v-159h-309l-21 -166h6q49 55 138 55q99 0 173 -69.5t74 -188.5
q0 -126 -81 -203.5t-216 -77.5z" />
    <glyph glyph-name="uni2465" unicode="&#x2465;" horiz-adv-x="1732" 
d="M913 -31q-217 0 -387.5 96.5t-265 267t-94.5 384.5t94.5 384.5t265 266.5t387.5 96q163 0 302.5 -56.5t237 -155t153 -237t55.5 -298.5q0 -214 -94.5 -384.5t-265.5 -267t-388 -96.5zM913 121q254 0 420 169.5t166 426.5t-166 426.5t-420 169.5t-419.5 -169.5
t-165.5 -426.5t165.5 -426.5t419.5 -169.5zM909 309q-137 0 -225 81t-88 224q0 99 43.5 183t122.5 174l145 164h201l-307 -336l4 -2q59 65 149 65q106 0 181 -74t75 -194q0 -122 -80.5 -203.5t-220.5 -81.5zM903 467q60 0 98.5 34t38.5 91t-38.5 91t-98.5 34q-59 0 -98 -34
t-39 -91t39 -91t98 -34z" />
    <glyph glyph-name="uni2466" unicode="&#x2466;" horiz-adv-x="1732" 
d="M913 -31q-217 0 -387.5 96.5t-265 267t-94.5 384.5t94.5 384.5t265 266.5t387.5 96q163 0 302.5 -56.5t237 -155t153 -237t55.5 -298.5q0 -214 -94.5 -384.5t-265.5 -267t-388 -96.5zM913 121q254 0 420 169.5t166 426.5t-166 426.5t-420 169.5t-419.5 -169.5
t-165.5 -426.5t165.5 -426.5t419.5 -169.5zM700 313l330 629h-371v162h549v-152l-329 -639h-179z" />
    <glyph glyph-name="uni2467" unicode="&#x2467;" horiz-adv-x="1732" 
d="M913 -31q-217 0 -387.5 96.5t-265 267t-94.5 384.5t94.5 384.5t265 266.5t387.5 96q163 0 302.5 -56.5t237 -155t153 -237t55.5 -298.5q0 -214 -94.5 -384.5t-265.5 -267t-388 -96.5zM913 121q254 0 420 169.5t166 426.5t-166 426.5t-420 169.5t-419.5 -169.5
t-165.5 -426.5t165.5 -426.5t419.5 -169.5zM913 315q-144 0 -221.5 65.5t-77.5 168.5q0 155 158 207v4q-131 45 -131 172q0 93 72.5 152t199.5 59q130 0 203.5 -59t73.5 -152q0 -128 -133 -172v-4q157 -53 157 -207q0 -103 -78 -168.5t-223 -65.5zM913 825q47 0 75 23t28 63
q0 36 -28 59t-75 23q-46 0 -75 -23.5t-29 -58.5q0 -40 28.5 -63t75.5 -23zM913 471q60 0 93.5 31t33.5 78t-34 76.5t-93 29.5q-56 0 -91.5 -30t-35.5 -76q0 -48 33 -78.5t94 -30.5z" />
    <glyph glyph-name="uni2468" unicode="&#x2468;" horiz-adv-x="1732" 
d="M913 -31q-217 0 -387.5 96.5t-265 267t-94.5 384.5t94.5 384.5t265 266.5t387.5 96q163 0 302.5 -56.5t237 -155t153 -237t55.5 -298.5q0 -214 -94.5 -384.5t-265.5 -267t-388 -96.5zM913 121q254 0 420 169.5t166 426.5t-166 426.5t-420 169.5t-419.5 -169.5
t-165.5 -426.5t165.5 -426.5t419.5 -169.5zM725 313l293 312h-4q-53 -47 -137 -47q-110 0 -184.5 73.5t-74.5 186.5q0 129 84 206.5t222 77.5q127 0 212 -78.5t85 -220.5q0 -98 -37.5 -185.5t-128.5 -188.5l-125 -136h-205zM922 721q60 0 97.5 34t37.5 91t-37.5 91t-97.5 34
q-59 0 -97.5 -34t-38.5 -91t38 -91t98 -34z" />
    <glyph glyph-name="uni24EA" unicode="&#x24ea;" horiz-adv-x="1732" 
d="M913 -31q-217 0 -387.5 96.5t-265 267t-94.5 384.5t94.5 384.5t265 266.5t387.5 96q163 0 302.5 -56.5t237 -155t153 -237t55.5 -298.5q0 -214 -94.5 -384.5t-265.5 -267t-388 -96.5zM913 121q254 0 420 169.5t166 426.5t-166 426.5t-420 169.5t-419.5 -169.5
t-165.5 -426.5t165.5 -426.5t419.5 -169.5zM915 307q-163 0 -253.5 109t-90.5 307q0 196 90.5 304t253.5 108q160 0 250 -108t90 -304q0 -197 -90 -306.5t-250 -109.5zM915 465q79 0 122.5 67.5t43.5 190.5q0 117 -43.5 185.5t-122.5 68.5q-80 0 -123.5 -68t-43.5 -186
q0 -120 43 -189t124 -69z" />
    <glyph glyph-name="uni24FF" unicode="&#x24ff;" horiz-adv-x="1730" 
d="M913 -31q-212 0 -383 97.5t-267.5 269t-96.5 381.5t96.5 381t267.5 268.5t383 97.5t383.5 -97.5t268 -268.5t96.5 -381q0 -157 -57 -296t-155.5 -238t-237.5 -156.5t-298 -57.5zM915 307q160 0 250 109.5t90 306.5q0 196 -90 304t-250 108q-163 0 -253.5 -108t-90.5 -304
q0 -198 90.5 -307t253.5 -109zM915 465q-81 0 -124 69t-43 189q0 118 43.5 186t123.5 68q79 0 122.5 -68.5t43.5 -185.5q0 -123 -43.5 -190.5t-122.5 -67.5z" />
    <glyph glyph-name="lozenge" unicode="&#x25ca;" horiz-adv-x="1269" 
d="M795 1464l481 -747l-481 -748h-226l-481 748l481 747h226zM682 1145l-268 -428l268 -428l268 428z" />
    <glyph glyph-name="uni2776" unicode="&#x2776;" horiz-adv-x="1730" 
d="M913 -31q-212 0 -383 97.5t-267.5 269t-96.5 381.5t96.5 381t267.5 268.5t383 97.5t383.5 -97.5t268 -268.5t96.5 -381q0 -157 -57 -296t-155.5 -238t-237.5 -156.5t-298 -57.5zM854 334h166v790h-221v-166h55v-624z" />
    <glyph glyph-name="uni2777" unicode="&#x2777;" horiz-adv-x="1730" 
d="M913 -31q-212 0 -383 97.5t-267.5 269t-96.5 381.5t96.5 381t267.5 268.5t383 97.5t383.5 -97.5t268 -268.5t96.5 -381q0 -157 -57 -296t-155.5 -238t-237.5 -156.5t-298 -57.5zM629 352h567v160h-324l179 162q68 63 103.5 124t35.5 132q0 105 -75 168t-204 63
q-142 0 -214.5 -75.5t-75.5 -192.5h163q3 57 36.5 86t86.5 29q49 0 78 -26t29 -69q0 -36 -25 -71t-78 -88l-282 -271v-131z" />
    </font>
</defs>
</svg>
